  0
SECTION
  2
HEADER
  9
$ACADVER
  1
AC1015
  9
$ACADMAINTVER
 70
     6
  9
$DWGCODEPAGE
  3
ANSI_932
  9
$INSBASE
 10
0.0
 20
0.0
 30
0.0
  9
$EXTMIN
 10
-256.6261718750001
 20
-67.09597167968761
 30
0.0
  9
$EXTMAX
 10
419.2288504464289
 20
394.8956717354911
 30
0.0
  9
$LIMMIN
 10
-256.6261718750001
 20
-67.09597167968761
  9
$LIMMAX
 10
419.2288504464289
 20
394.8956717354911
  9
$ORTHOMODE
 70
     0
  9
$REGENMODE
 70
     1
  9
$FILLMODE
 70
     1
  9
$QTEXTMODE
 70
     0
  9
$MIRRTEXT
 70
     1
  9
$LTSCALE
 40
1.0
  9
$ATTMODE
 70
     1
  9
$TEXTSIZE
 40
2.5
  9
$TRACEWID
 40
1.0
  9
$TEXTSTYLE
  7
Standard
  9
$CLAYER
  8
0
  9
$CELTYPE
  6
ByLayer
  9
$CECOLOR
 62
   256
  9
$CELTSCALE
 40
1.0
  9
$DISPSILH
 70
     0
  9
$DIMSCALE
 40
1.0
  9
$DIMASZ
 40
2.5
  9
$DIMEXO
 40
0.625
  9
$DIMDLI
 40
3.75
  9
$DIMRND
 40
0.0
  9
$DIMDLE
 40
0.0
  9
$DIMEXE
 40
1.25
  9
$DIMTP
 40
0.0
  9
$DIMTM
 40
0.0
  9
$DIMTXT
 40
2.5
  9
$DIMCEN
 40
2.5
  9
$DIMTSZ
 40
0.0
  9
$DIMTOL
 70
     0
  9
$DIMLIM
 70
     0
  9
$DIMTIH
 70
     0
  9
$DIMTOH
 70
     0
  9
$DIMSE1
 70
     0
  9
$DIMSE2
 70
     0
  9
$DIMTAD
 70
     1
  9
$DIMZIN
 70
     8
  9
$DIMBLK
  1
Closed
  9
$DIMASO
 70
     1
  9
$DIMSHO
 70
     1
  9
$DIMPOST
  1

  9
$DIMAPOST
  1

  9
$DIMALT
 70
     0
  9
$DIMALTD
 70
     3
  9
$DIMALTF
 40
0.039370079
  9
$DIMLFAC
 40
1.0
  9
$DIMTOFL
 70
     1
  9
$DIMTVP
 40
0.0
  9
$DIMTIX
 70
     0
  9
$DIMSOXD
 70
     0
  9
$DIMSAH
 70
     0
  9
$DIMBLK1
  1

  9
$DIMBLK2
  1

  9
$DIMSTYLE
  2
DIMSTYLE_FULLSCALE
  9
$DIMCLRD
 70
     0
  9
$DIMCLRE
 70
     0
  9
$DIMCLRT
 70
     0
  9
$DIMTFAC
 40
1.0
  9
$DIMGAP
 40
0.625
  9
$DIMJUST
 70
     0
  9
$DIMSD1
 70
     0
  9
$DIMSD2
 70
     0
  9
$DIMTOLJ
 70
     0
  9
$DIMTZIN
 70
     8
  9
$DIMALTZ
 70
     0
  9
$DIMALTTZ
 70
     0
  9
$DIMUPT
 70
     0
  9
$DIMDEC
 70
     2
  9
$DIMTDEC
 70
     2
  9
$DIMALTU
 70
     2
  9
$DIMALTTD
 70
     3
  9
$DIMTXSTY
  7
Standard
  9
$DIMAUNIT
 70
     0
  9
$DIMADEC
 70
     0
  9
$DIMALTRND
 40
0.0
  9
$DIMAZIN
 70
     0
  9
$DIMDSEP
 70
    44
  9
$DIMATFIT
 70
     3
  9
$DIMFRAC
 70
     0
  9
$DIMLDRBLK
  1
Closed
  9
$DIMLUNIT
 70
     2
  9
$DIMLWD
 70
    -2
  9
$DIMLWE
 70
    -2
  9
$DIMTMOVE
 70
     0
  9
$LUNITS
 70
     2
  9
$LUPREC
 70
     4
  9
$SKETCHINC
 40
1.0
  9
$FILLETRAD
 40
10.0
  9
$AUNITS
 70
     0
  9
$AUPREC
 70
     0
  9
$MENU
  1
.
  9
$ELEVATION
 40
0.0
  9
$PELEVATION
 40
0.0
  9
$THICKNESS
 40
0.0
  9
$LIMCHECK
 70
     0
  9
$CHAMFERA
 40
0.0
  9
$CHAMFERB
 40
0.0
  9
$CHAMFERC
 40
0.0
  9
$CHAMFERD
 40
0.0
  9
$SKPOLY
 70
     0
  9
$TDCREATE
 40
2459019.445953403
  9
$TDUCREATE
 40
2459019.070953403
  9
$TDUPDATE
 40
2459019.445953703
  9
$TDUUPDATE
 40
2459019.070953703
  9
$TDINDWG
 40
0.0000000116
  9
$TDUSRTIMER
 40
0.0000000116
  9
$USRTIMER
 70
     1
  9
$ANGBASE
 50
0.0
  9
$ANGDIR
 70
     0
  9
$PDMODE
 70
     0
  9
$PDSIZE
 40
0.0
  9
$PLINEWID
 40
0.0
  9
$SPLFRAME
 70
     0
  9
$SPLINETYPE
 70
     6
  9
$SPLINESEGS
 70
     8
  9
$HANDSEED
  5
401
  9
$SURFTAB1
 70
     6
  9
$SURFTAB2
 70
     6
  9
$SURFTYPE
 70
     6
  9
$SURFU
 70
     6
  9
$SURFV
 70
     6
  9
$UCSBASE
  2

  9
$UCSNAME
  2

  9
$UCSORG
 10
0.0
 20
0.0
 30
0.0
  9
$UCSXDIR
 10
1.0
 20
0.0
 30
0.0
  9
$UCSYDIR
 10
0.0
 20
1.0
 30
0.0
  9
$UCSORTHOREF
  2

  9
$UCSORTHOVIEW
 70
     0
  9
$UCSORGTOP
 10
0.0
 20
0.0
 30
0.0
  9
$UCSORGBOTTOM
 10
0.0
 20
0.0
 30
0.0
  9
$UCSORGLEFT
 10
0.0
 20
0.0
 30
0.0
  9
$UCSORGRIGHT
 10
0.0
 20
0.0
 30
0.0
  9
$UCSORGFRONT
 10
0.0
 20
0.0
 30
0.0
  9
$UCSORGBACK
 10
0.0
 20
0.0
 30
0.0
  9
$PUCSBASE
  2

  9
$PUCSNAME
  2

  9
$PUCSORG
 10
0.0
 20
0.0
 30
0.0
  9
$PUCSXDIR
 10
1.0
 20
0.0
 30
0.0
  9
$PUCSYDIR
 10
0.0
 20
1.0
 30
0.0
  9
$PUCSORTHOREF
  2

  9
$PUCSORTHOVIEW
 70
     0
  9
$PUCSORGTOP
 10
0.0
 20
0.0
 30
0.0
  9
$PUCSORGBOTTOM
 10
0.0
 20
0.0
 30
0.0
  9
$PUCSORGLEFT
 10
0.0
 20
0.0
 30
0.0
  9
$PUCSORGRIGHT
 10
0.0
 20
0.0
 30
0.0
  9
$PUCSORGFRONT
 10
0.0
 20
0.0
 30
0.0
  9
$PUCSORGBACK
 10
0.0
 20
0.0
 30
0.0
  9
$USERI1
 70
     0
  9
$USERI2
 70
     0
  9
$USERI3
 70
     0
  9
$USERI4
 70
     0
  9
$USERI5
 70
     0
  9
$USERR1
 40
0.0
  9
$USERR2
 40
0.0
  9
$USERR3
 40
0.0
  9
$USERR4
 40
0.0
  9
$USERR5
 40
0.0
  9
$WORLDVIEW
 70
     1
  9
$SHADEDGE
 70
     3
  9
$SHADEDIF
 70
    70
  9
$TILEMODE
 70
     1
  9
$MAXACTVP
 70
    64
  9
$PINSBASE
 10
0.0
 20
0.0
 30
0.0
  9
$PLIMCHECK
 70
     0
  9
$PEXTMIN
 10
1.000000000000000E+20
 20
1.000000000000000E+20
 30
1.000000000000000E+20
  9
$PEXTMAX
 10
-1.000000000000000E+20
 20
-1.000000000000000E+20
 30
-1.000000000000000E+20
  9
$PLIMMIN
 10
-256.6261718750001
 20
-67.09597167968761
  9
$PLIMMAX
 10
419.2288504464289
 20
394.8956717354911
  9
$UNITMODE
 70
     0
  9
$VISRETAIN
 70
     1
  9
$PLINEGEN
 70
     0
  9
$PSLTSCALE
 70
     1
  9
$TREEDEPTH
 70
  3020
  9
$CMLSTYLE
  2
Standard
  9
$CMLJUST
 70
     0
  9
$CMLSCALE
 40
20.0
  9
$PROXYGRAPHICS
 70
     1
  9
$MEASUREMENT
 70
     1
  9
$CELWEIGHT
370
    -1
  9
$ENDCAPS
280
     0
  9
$JOINSTYLE
280
     0
  9
$LWDISPLAY
290
     0
  9
$INSUNITS
 70
     4
  9
$HYPERLINKBASE
  1

  9
$STYLESHEET
  1

  9
$XEDIT
290
     1
  9
$CEPSNTYPE
380
     0
  9
$PSTYLEMODE
290
     1
  9
$FINGERPRINTGUID
  2
{34e82a38-ca23-4a84-b2e4-5b754b5398fc}
  9
$VERSIONGUID
  2
{FAEB1C32-E019-11D5-929B-00C0DF256EC4}
  9
$EXTNAMES
290
     1
  9
$PSVPSCALE
 40
0.0
  9
$OLESTARTUP
290
     0
  0
ENDSEC
  0
SECTION
  2
CLASSES
  0
CLASS
  1
ACDBDICTIONARYWDFLT
  2
AcDbDictionaryWithDefault
  3
ObjectDBX Classes
 90
        0
280
     0
281
     0
  0
CLASS
  1
VISUALSTYLE
  2
AcDbVisualStyle
  3
ObjectDBX Classes
 90
     4095
280
     0
281
     0
  0
CLASS
  1
MATERIAL
  2
AcDbMaterial
  3
ObjectDBX Classes
 90
     1153
280
     0
281
     0
  0
CLASS
  1
SCALE
  2
AcDbScale
  3
ObjectDBX Classes
 90
     1153
280
     0
281
     0
  0
CLASS
  1
TABLESTYLE
  2
AcDbTableStyle
  3
ObjectDBX Classes
 90
     4095
280
     0
281
     0
  0
CLASS
  1
MLEADERSTYLE
  2
AcDbMLeaderStyle
  3
ACDB_MLEADERSTYLE_CLASS
 90
     4095
280
     0
281
     0
  0
CLASS
  1
SUN
  2
AcDbSun
  3
SCENEOE
 90
     1153
280
     0
281
     0
  0
CLASS
  1
DICTIONARYVAR
  2
AcDbDictionaryVar
  3
ObjectDBX Classes
 90
        0
280
     0
281
     0
  0
CLASS
  1
ACDBPLACEHOLDER
  2
AcDbPlaceHolder
  3
ObjectDBX Classes
 90
        0
280
     0
281
     0
  0
CLASS
  1
LAYOUT
  2
AcDbLayout
  3
ObjectDBX Classes
 90
        0
280
     0
281
     0
  0
ENDSEC
  0
SECTION
  2
TABLES
  0
TABLE
  2
VPORT
  5
8
102
{ACAD_XDICTIONARY
360
3BF
102
}
330
0
100
AcDbSymbolTable
 70
     1
  0
VPORT
  5
29
330
8
100
AcDbSymbolTableRecord
100
AcDbViewportTableRecord
  2
*Active
 70
     0
 10
0.0
 20
0.0
 11
1.0
 21
1.0
 12
344.1869158878504
 22
148.5
 13
0.0
 23
0.0
 14
10.0
 24
10.0
 15
10.0
 25
10.0
 16
0.0
 26
0.0
 36
1.0
 17
0.0
 27
0.0
 37
0.0
 40
297.0
 41
1.972972972850329
 42
50.0
 43
0.0
 44
0.0
 50
0.0
 51
0.0
 71
     0
 72
   100
 73
     1
 74
     3
 75
     0
 76
     0
 77
     0
 78
     0
281
     0
 65
     1
110
0.0
120
0.0
130
0.0
111
1.0
121
0.0
131
0.0
112
0.0
122
1.0
132
0.0
 79
     0
146
0.0
  0
ENDTAB
  0
TABLE
  2
LTYPE
  5
5
330
0
100
AcDbSymbolTable
 70
     5
  0
LTYPE
  5
14
330
5
100
AcDbSymbolTableRecord
100
AcDbLinetypeTableRecord
  2
ByBlock
 70
     0
  3

 72
    65
 73
     0
 40
0.0
  0
LTYPE
  5
15
330
5
100
AcDbSymbolTableRecord
100
AcDbLinetypeTableRecord
  2
ByLayer
 70
     0
  3

 72
    65
 73
     0
 40
0.0
  0
LTYPE
  5
16
330
5
100
AcDbSymbolTableRecord
100
AcDbLinetypeTableRecord
  2
Continuous
 70
     0
  3
Solid line
 72
    65
 73
     0
 40
0.0
  0
LTYPE
  5
6E
330
5
100
AcDbSymbolTableRecord
100
AcDbLinetypeTableRecord
  2
CONTINOUS
 70
     0
  3
______________________________
 72
    65
 73
     0
 40
0.0
  0
LTYPE
  5
6F
330
5
100
AcDbSymbolTableRecord
100
AcDbLinetypeTableRecord
  2
DASHED
 70
     0
  3
__ __ __ __ __ __ __ __ __ __ __ __ __ __ __ __
 72
    65
 73
     2
 40
4.5
 49
3.0
 74
     0
 49
-1.5
 74
     0
  0
LTYPE
  5
70
330
5
100
AcDbSymbolTableRecord
100
AcDbLinetypeTableRecord
  2
PHANTOM
 70
     0
  3
______  __  __  ______  __  __  _____
 72
    65
 73
     6
 40
15.0
 49
7.5
 74
     0
 49
-1.5
 74
     0
 49
1.5
 74
     0
 49
-1.5
 74
     0
 49
1.5
 74
     0
 49
-1.5
 74
     0
  0
LTYPE
  5
71
330
5
100
AcDbSymbolTableRecord
100
AcDbLinetypeTableRecord
  2
CENTER
 70
     0
  3
____ _ ____ _ ____ _ ____ _ ____ _ ____
 72
    65
 73
     4
 40
12.0
 49
7.5
 74
     0
 49
-1.5
 74
     0
 49
1.5
 74
     0
 49
-1.5
 74
     0
  0
ENDTAB
  0
TABLE
  2
LAYER
  5
2
330
0
100
AcDbSymbolTable
 70
     2
  0
LAYER
  5
10
330
2
100
AcDbSymbolTableRecord
100
AcDbLayerTableRecord
  2
0
 70
     0
 62
     7
  6
Continuous
370
    -3
390
F
  0
LAYER
  5
332
330
2
100
AcDbSymbolTableRecord
100
AcDbLayerTableRecord
  2
Defpoints
 70
     0
 62
     7
  6
Continuous
290
     0
370
    -3
390
F
  0
ENDTAB
  0
TABLE
  2
STYLE
  5
3
330
0
100
AcDbSymbolTable
 70
     1
  0
STYLE
  5
11
330
3
100
AcDbSymbolTableRecord
100
AcDbTextStyleTableRecord
  2
Standard
 70
     0
 40
0.0
 41
1.0
 50
0.0
 71
     0
 42
2.5
  3
ROMANS
  4
EXTFONT
  0
ENDTAB
  0
TABLE
  2
VIEW
  5
6
330
0
100
AcDbSymbolTable
 70
     0
  0
ENDTAB
  0
TABLE
  2
UCS
  5
7
330
0
100
AcDbSymbolTable
 70
     0
  0
ENDTAB
  0
TABLE
  2
APPID
  5
9
330
0
100
AcDbSymbolTable
 70
     7
  0
APPID
  5
12
330
9
100
AcDbSymbolTableRecord
100
AcDbRegAppTableRecord
  2
ACAD
 70
     0
  0
APPID
  5
30D
330
9
100
AcDbSymbolTableRecord
100
AcDbRegAppTableRecord
  2
ACAD_DSTYLE_DIMJAG
 70
     0
  0
APPID
  5
3C1
330
9
100
AcDbSymbolTableRecord
100
AcDbRegAppTableRecord
  2
ACAD_DSTYLE_DIMJOGGED_JOGANGLE_SYMBOL
 70
     0
  0
APPID
  5
3C2
330
9
100
AcDbSymbolTableRecord
100
AcDbRegAppTableRecord
  2
ACAD_DSTYLE_DIM_LINETYPE
 70
     0
  0
APPID
  5
3C3
330
9
100
AcDbSymbolTableRecord
100
AcDbRegAppTableRecord
  2
ACAD_DSTYLE_DIM_EXT1_LINETYPE
 70
     0
  0
APPID
  5
3C4
330
9
100
AcDbSymbolTableRecord
100
AcDbRegAppTableRecord
  2
ACAD_DSTYLE_DIM_EXT2_LINETYPE
 70
     0
  0
APPID
  5
3FD
330
9
100
AcDbSymbolTableRecord
100
AcDbRegAppTableRecord
  2
ACAD_MLEADERVER
 70
     0
  0
ENDTAB
  0
TABLE
  2
DIMSTYLE
  5
A
330
0
100
AcDbSymbolTable
 70
     2
100
AcDbDimStyleTable
  0
DIMSTYLE
105
27
330
A
100
AcDbSymbolTableRecord
100
AcDbDimStyleTableRecord
  2
ISO-25
 70
     0
 41
2.5
 42
0.625
 43
3.75
 44
1.25
 73
     0
 74
     0
 77
     1
 78
     8
140
2.5
141
2.5
143
0.03937007874016
147
0.625
171
     3
172
     1
178
     0
271
     2
272
     2
274
     3
278
    44
283
     0
284
     8
340
11
  0
DIMSTYLE
105
305
102
{ACAD_REACTORS
330
32B
330
33F
330
34C
330
359
330
366
330
374
330
381
330
38E
330
39B
102
}
330
A
100
AcDbSymbolTableRecord
100
AcDbDimStyleTableRecord
  2
DIMSTYLE_FULLSCALE
 70
     0
 41
2.5
 42
0.625
 43
3.75
 44
1.25
 73
     0
 74
     0
 77
     1
 78
     8
140
2.5
141
2.5
143
0.039370079
147
0.625
171
     3
172
     1
178
     0
271
     2
272
     2
274
     3
278
    44
283
     0
284
     8
340
11
341
306
342
306
1001
ACAD_DSTYLE_DIMJAG
1070
   388
1040
1.5
1001
ACAD_DSTYLE_DIMJOGGED_JOGANGLE_SYMBOL
1070
   384
1040
1.570796326794897
1001
ACAD_DSTYLE_DIM_LINETYPE
1070
   380
1005
14
1001
ACAD_DSTYLE_DIM_EXT1_LINETYPE
1070
   381
1005
14
1001
ACAD_DSTYLE_DIM_EXT2_LINETYPE
1070
   382
1005
14
  0
ENDTAB
  0
TABLE
  2
BLOCK_RECORD
  5
1
330
0
100
AcDbSymbolTable
 70
    20
  0
BLOCK_RECORD
  5
1F
330
1
100
AcDbSymbolTableRecord
100
AcDbBlockTableRecord
  2
*Model_Space
340
22
  0
BLOCK_RECORD
  5
1B
330
1
100
AcDbSymbolTableRecord
100
AcDbBlockTableRecord
  2
*Paper_Space
340
1E
  0
BLOCK_RECORD
  5
23
330
1
100
AcDbSymbolTableRecord
100
AcDbBlockTableRecord
  2
*Paper_Space0
340
26
  0
BLOCK_RECORD
  5
72
330
1
100
AcDbSymbolTableRecord
100
AcDbBlockTableRecord
  2
DTL0001
340
0
102
{BLKREFS
331
31C
102
}
  0
BLOCK_RECORD
  5
75
330
1
100
AcDbSymbolTableRecord
100
AcDbBlockTableRecord
  2
DTL0002
340
0
102
{BLKREFS
331
31D
102
}
  0
BLOCK_RECORD
  5
78
330
1
100
AcDbSymbolTableRecord
100
AcDbBlockTableRecord
  2
DTL0003
340
0
102
{BLKREFS
331
31E
102
}
  0
BLOCK_RECORD
  5
7B
330
1
100
AcDbSymbolTableRecord
100
AcDbBlockTableRecord
  2
DTL0004
340
0
102
{BLKREFS
331
31F
102
}
  0
BLOCK_RECORD
  5
7E
330
1
100
AcDbSymbolTableRecord
100
AcDbBlockTableRecord
  2
DTL0005
340
0
102
{BLKREFS
331
320
102
}
  0
BLOCK_RECORD
  5
81
330
1
100
AcDbSymbolTableRecord
100
AcDbBlockTableRecord
  2
DTL0006
340
0
102
{BLKREFS
331
321
102
}
  0
BLOCK_RECORD
  5
306
330
1
100
AcDbSymbolTableRecord
100
AcDbBlockTableRecord
  2
_Closed
340
0
  0
BLOCK_RECORD
  5
322
330
1
100
AcDbSymbolTableRecord
100
AcDbBlockTableRecord
  2
SYM0001
340
0
102
{BLKREFS
331
328
102
}
  0
BLOCK_RECORD
  5
32C
330
1
100
AcDbSymbolTableRecord
100
AcDbBlockTableRecord
  2
_Open30
340
0
102
{BLKREFS
331
33A
331
339
331
347
331
346
331
354
331
353
331
361
331
360
331
36F
331
36E
331
37C
331
37B
331
389
331
388
331
396
331
395
331
3A3
331
3A2
102
}
  0
BLOCK_RECORD
  5
333
330
1
100
AcDbSymbolTableRecord
100
AcDbBlockTableRecord
  2
*D10
340
0
  0
BLOCK_RECORD
  5
340
330
1
100
AcDbSymbolTableRecord
100
AcDbBlockTableRecord
  2
*D11
340
0
  0
BLOCK_RECORD
  5
34D
330
1
100
AcDbSymbolTableRecord
100
AcDbBlockTableRecord
  2
*D12
340
0
  0
BLOCK_RECORD
  5
35A
330
1
100
AcDbSymbolTableRecord
100
AcDbBlockTableRecord
  2
*D13
340
0
  0
BLOCK_RECORD
  5
367
330
1
100
AcDbSymbolTableRecord
100
AcDbBlockTableRecord
  2
*D14
340
0
  0
BLOCK_RECORD
  5
375
330
1
100
AcDbSymbolTableRecord
100
AcDbBlockTableRecord
  2
*D15
340
0
  0
BLOCK_RECORD
  5
382
330
1
100
AcDbSymbolTableRecord
100
AcDbBlockTableRecord
  2
*D16
340
0
  0
BLOCK_RECORD
  5
38F
330
1
100
AcDbSymbolTableRecord
100
AcDbBlockTableRecord
  2
*D17
340
0
  0
BLOCK_RECORD
  5
39C
330
1
100
AcDbSymbolTableRecord
100
AcDbBlockTableRecord
  2
*D18
340
0
  0
BLOCK_RECORD
  5
3A8
330
1
100
AcDbSymbolTableRecord
100
AcDbBlockTableRecord
  2
SYM0002
340
0
102
{BLKREFS
331
3AE
102
}
  0
ENDTAB
  0
ENDSEC
  0
SECTION
  2
BLOCKS
  0
BLOCK
  5
20
330
1F
100
AcDbEntity
  8
0
100
AcDbBlockBegin
  2
*Model_Space
 70
     0
 10
0.0
 20
0.0
 30
0.0
  3
*Model_Space
  1

  0
ENDBLK
  5
21
330
1F
100
AcDbEntity
  8
0
100
AcDbBlockEnd
  0
BLOCK
  5
1C
330
1B
100
AcDbEntity
 67
     1
  8
0
100
AcDbBlockBegin
  2
*Paper_Space
 70
     0
 10
0.0
 20
0.0
 30
0.0
  3
*Paper_Space
  1

  0
ENDBLK
  5
1D
330
1B
100
AcDbEntity
 67
     1
  8
0
100
AcDbBlockEnd
  0
BLOCK
  5
24
330
23
100
AcDbEntity
  8
0
100
AcDbBlockBegin
  2
*Paper_Space0
 70
     0
 10
0.0
 20
0.0
 30
0.0
  3
*Paper_Space0
  1

  0
ENDBLK
  5
25
330
23
100
AcDbEntity
  8
0
100
AcDbBlockEnd
  0
BLOCK
  5
73
330
72
100
AcDbEntity
  8
0
100
AcDbBlockBegin
  2
DTL0001
 70
     0
 10
0.0
 20
0.0
 30
0.0
  3
DTL0001
  1

  0
POINT
  5
84
330
72
100
AcDbEntity
  8
0
 62
     0
100
AcDbPoint
 10
0.0
 20
0.0
 30
0.0
  0
LINE
  5
85
330
72
100
AcDbEntity
  8
0
  6
Continuous
 62
     0
100
AcDbLine
 10
15.04135586259729
 20
0.0
 30
0.0
 11
50.00004217028555
 21
0.0
 31
0.0
  0
LINE
  5
86
330
72
100
AcDbEntity
  8
0
  6
Continuous
 62
     0
100
AcDbLine
 10
105.0000032037496
 20
0.0
 30
0.0
 11
120.0000172853467
 21
0.0
 31
0.0
  0
LINE
  5
87
330
72
100
AcDbEntity
  8
0
  6
Continuous
 62
     0
100
AcDbLine
 10
55.00003513703609
 20
2.999996646401954
 30
0.0
 11
50.00002489873035
 21
-0.000009357560476
 31
0.0
  0
LINE
  5
88
330
72
100
AcDbEntity
  8
0
  6
Continuous
 62
     0
100
AcDbLine
 10
101.500013746321
 20
2.800003546476312
 30
0.0
 11
101.500013746321
 21
3.003228262018736
 31
0.0
  0
LINE
  5
89
330
72
100
AcDbEntity
  8
0
  6
Continuous
 62
     0
100
AcDbLine
 10
55.0296258525763
 20
46.43013995556858
 30
0.0
 11
55.02906909404102
 21
46.11114115571936
 31
0.0
  0
LINE
  5
8A
330
72
100
AcDbEntity
  8
0
  6
Continuous
 62
     0
100
AcDbLine
 10
52.61590060997997
 20
45.60260496224106
 30
0.0
 11
55.02906853035255
 21
46.1111391320547
 31
0.0
  0
LINE
  5
8B
330
72
100
AcDbEntity
  8
0
  6
Continuous
 62
     0
100
AcDbLine
 10
57.15997698059775
 20
48.42239833575675
 30
0.0
 11
60.00002222340717
 21
48.23691861902701
 31
0.0
  0
LINE
  5
8C
330
72
100
AcDbEntity
  8
0
  6
CENTER
 62
     4
100
AcDbLine
 10
14.99999977648258
 20
35.54998821690696
 30
0.0
 11
14.99999977648258
 21
23.44998801574129
 31
0.0
  0
LINE
  5
8D
330
72
100
AcDbEntity
  8
0
  6
CENTER
 62
     4
100
AcDbLine
 10
8.95001874938579
 20
29.49998811632413
 30
0.0
 11
21.05001895055147
 21
29.49998811632413
 31
0.0
  0
LINE
  5
8E
330
72
100
AcDbEntity
  8
0
  6
CENTER
 62
     4
100
AcDbLine
 10
38.00002995133355
 20
25.00000439584248
 30
0.0
 11
38.00002995133355
 21
3.186373961174876
 31
0.0
  0
LINE
  5
8F
330
72
100
AcDbEntity
  8
0
  6
CENTER
 62
     4
100
AcDbLine
 10
27.50001866370412
 20
14.50000741332758
 30
0.0
 11
48.50001739710544
 21
14.50000741332758
 31
0.0
  0
LINE
  5
90
330
72
100
AcDbEntity
  8
0
  6
Continuous
 62
     0
100
AcDbLine
 10
13.40289244405053
 20
0.85307367212736
 30
0.0
 11
0.000052557458163
 21
19.99998719880202
 31
0.0
  0
LINE
  5
91
330
72
100
AcDbEntity
  8
0
  6
Continuous
 62
     0
100
AcDbLine
 10
104.9999979498269
 20
-0.000002531481133
 30
0.0
 11
104.8952355604271
 21
2.999999926208449
 31
0.0
  0
LINE
  5
92
330
72
100
AcDbEntity
  8
0
  6
Continuous
 62
     0
100
AcDbLine
 10
55.00004209577975
 20
3.000001862645122
 30
0.0
 11
104.8952516183965
 21
3.000001862645122
 31
0.0
  0
LINE
  5
93
330
72
100
AcDbEntity
  8
0
  6
Continuous
 62
     0
100
AcDbLine
 10
0.0
 20
36.0804933893607
 30
0.0
 11
0.0
 21
20.00001877546282
 31
0.0
  0
LINE
  5
94
330
72
100
AcDbEntity
  8
0
  6
Continuous
 62
     0
100
AcDbLine
 10
97.99999843537807
 20
2.900001862645119
 30
0.0
 11
98.0999984353781
 21
3.000001862645128
 31
0.0
  0
LINE
  5
95
330
72
100
AcDbEntity
  8
0
  6
Continuous
 62
     0
100
AcDbLine
 10
119.9999982118607
 20
20.42320697869052
 30
0.0
 11
119.9999982118607
 21
0.000003352761219
 31
0.0
  0
LINE
  5
96
330
72
100
AcDbEntity
  8
0
  6
Continuous
 62
     0
100
AcDbLine
 10
59.99999910593034
 20
48.23692249898728
 30
0.0
 11
59.99999910593034
 21
36.40000765919674
 31
0.0
  0
LINE
  5
97
330
72
100
AcDbEntity
  8
0
  6
Continuous
 62
     0
100
AcDbLine
 10
77.25399275757076
 20
32.25906497390265
 30
0.0
 11
120.0155835799416
 21
38.31672378121141
 31
0.0
  0
LINE
  5
98
330
72
100
AcDbEntity
  8
0
  6
Continuous
 62
     0
100
AcDbLine
 10
13.23225676716581
 20
31.26775542226021
 30
0.0
 11
16.76779076942659
 21
27.73222171802264
 31
0.0
  0
LINE
  5
99
330
72
100
AcDbEntity
  8
0
  6
Continuous
 62
     0
100
AcDbLine
 10
13.23225597206371
 20
27.7322300496213
 30
0.0
 11
16.76779081726148
 21
31.26776459679579
 31
0.0
  0
LINE
  5
9A
330
72
100
AcDbEntity
  8
0
  6
Continuous
 62
     0
100
AcDbLine
 10
59.61008966313847
 20
36.49358798376869
 30
0.0
 11
118.4667588027498
 21
22.36798912198223
 31
0.0
  0
LINE
  5
9B
330
72
100
AcDbEntity
  8
0
  6
Continuous
 62
     0
100
AcDbLine
 10
47.00001884996863
 20
48.50000309199091
 30
0.0
 11
52.00004380320703
 21
48.50000309199091
 31
0.0
  0
LINE
  5
9C
330
72
100
AcDbEntity
  8
0
  6
Continuous
 62
     0
100
AcDbLine
 10
2.376290943210095
 20
39.01492113974138
 30
0.0
 11
47.00005139559057
 21
48.49999304579329
 31
0.0
  0
LINE
  5
9D
330
72
100
AcDbEntity
  8
0
  6
Continuous
 62
     0
100
AcDbLine
 10
52.61555077162996
 20
45.60427011413643
 30
0.0
 11
52.00004380320703
 21
48.50000309199091
 31
0.0
  0
LINE
  5
9E
330
72
100
AcDbEntity
  8
0
  6
Continuous
 62
     0
100
AcDbLine
 10
52.61555862779781
 20
45.60427185663556
 30
0.0
 11
56.42878070310021
 21
38.88710676837478
 31
0.0
  0
LINE
  5
9F
330
72
100
AcDbEntity
  8
0
  6
Continuous
 62
     0
100
AcDbLine
 10
120.0211023767302
 20
41.50131332017379
 30
0.0
 11
120.0155441706935
 21
38.31669926818948
 31
0.0
  0
LINE
  5
A0
330
72
100
AcDbEntity
  8
0
  6
Continuous
 62
     0
100
AcDbLine
 10
104.9389155963225
 20
1.300001125037653
 30
0.0
 11
103.0000194460151
 21
1.300001125037653
 31
0.0
  0
LINE
  5
A1
330
72
100
AcDbEntity
  8
0
  6
Continuous
 62
     0
100
AcDbLine
 10
64.99999903142454
 20
47.91037964954406
 30
0.0
 11
64.99999903142454
 21
35.20000643730154
 31
0.0
  0
LINE
  5
A2
330
72
100
AcDbEntity
  8
0
  6
Continuous
 62
     0
100
AcDbLine
 10
69.99999895691873
 20
47.58383680010085
 30
0.0
 11
69.99999895691873
 21
34.0000075995921
 31
0.0
  0
LINE
  5
A3
330
72
100
AcDbEntity
  8
0
  6
Continuous
 62
     0
100
AcDbLine
 10
74.99999888241292
 20
47.25729395065763
 30
0.0
 11
74.99999888241292
 21
32.8000063776969
 31
0.0
  0
LINE
  5
A4
330
72
100
AcDbEntity
  8
0
  6
Continuous
 62
     0
100
AcDbLine
 10
84.99999873340131
 20
46.60420348339969
 30
0.0
 11
84.99999873340131
 21
33.35637042885467
 31
0.0
  0
LINE
  5
A5
330
72
100
AcDbEntity
  8
0
  6
Continuous
 62
     0
100
AcDbLine
 10
89.9999986588955
 20
46.27766063395648
 30
0.0
 11
89.9999986588955
 21
34.06467625402396
 31
0.0
  0
LINE
  5
A6
330
72
100
AcDbEntity
  8
0
  6
Continuous
 62
     0
100
AcDbLine
 10
94.9999985843897
 20
45.95111778451327
 30
0.0
 11
94.9999985843897
 21
34.77298446337902
 31
0.0
  0
LINE
  5
A7
330
72
100
AcDbEntity
  8
0
  6
Continuous
 62
     0
100
AcDbLine
 10
99.99999850988391
 20
45.62457493507005
 30
0.0
 11
99.99999850988391
 21
35.48129028854832
 31
0.0
  0
LINE
  5
A8
330
72
100
AcDbEntity
  8
0
  6
Continuous
 62
     0
100
AcDbLine
 10
104.9999984353781
 20
45.29803208562684
 30
0.0
 11
104.9999984353781
 21
36.18959611371761
 31
0.0
  0
LINE
  5
A9
330
72
100
AcDbEntity
  8
0
  6
Continuous
 62
     0
100
AcDbLine
 10
79.99999880790712
 20
46.93075110121442
 30
0.0
 11
79.99999880790712
 21
32.64806460368537
 31
0.0
  0
LINE
  5
AA
330
72
100
AcDbEntity
  8
0
  6
PHANTOM
 62
     0
100
AcDbLine
 10
84.9606686733928
 20
33.35080795739039
 30
0.0
 11
85.16053632186498
 21
30.36148331440705
 31
0.0
  0
LINE
  5
AB
330
72
100
AcDbEntity
  8
0
  6
PHANTOM
 62
     0
100
AcDbLine
 10
86.38285966862658
 20
30.0681224433827
 30
0.0
 11
86.15209429009762
 21
33.51956962884378
 31
0.0
  0
LINE
  5
AC
330
72
100
AcDbEntity
  8
0
  6
CENTER
 62
     4
100
AcDbLine
 10
85.55638187937689
 20
33.43518284593079
 30
0.0
 11
85.77169815429846
 21
30.21480050002036
 31
0.0
  0
LINE
  5
AD
330
72
100
AcDbEntity
  8
0
  6
CENTER
 62
     4
100
AcDbLine
 10
79.99999880790712
 20
32.64806460368537
 30
0.0
 11
79.99999880790712
 21
31.60000753998745
 31
0.0
  0
LINE
  5
AE
330
72
100
AcDbEntity
  8
0
  6
Continuous
 62
     0
100
AcDbLine
 10
62.54564607126579
 20
48.77215535938033
 30
0.0
 11
67.54563015729835
 21
48.44561280366627
 31
0.0
  0
LINE
  5
AF
330
72
100
AcDbEntity
  8
0
  6
Continuous
 62
     0
100
AcDbLine
 10
65.00002058414421
 20
47.91037513105028
 30
0.0
 11
70.00002429789544
 21
47.58383129347505
 31
0.0
  0
LINE
  5
B0
330
72
100
AcDbEntity
  8
0
  6
Continuous
 62
     0
100
AcDbLine
 10
75.00002325341184
 20
47.25728776665404
 30
0.0
 11
80.0000228037076
 21
46.93074420098876
 31
0.0
  0
LINE
  5
B1
330
72
100
AcDbEntity
  8
0
  6
Continuous
 62
     0
100
AcDbLine
 10
85.00002235400335
 20
46.60420063532347
 30
0.0
 11
90.0000230938578
 21
46.27765699196964
 31
0.0
  0
LINE
  5
B2
330
72
100
AcDbEntity
  8
0
  6
Continuous
 62
     0
100
AcDbLine
 10
95.00002383371226
 20
45.9511133486158
 30
0.0
 11
100.000023384008
 21
45.62456978295051
 31
0.0
  0
LINE
  5
B3
330
72
100
AcDbEntity
  8
0
  6
Continuous
 62
     0
100
AcDbLine
 10
105.0000241238625
 20
45.29802613959667
 30
0.0
 11
117.2166540565381
 21
44.50017368811132
 31
0.0
  0
LINE
  5
B4
330
72
100
AcDbEntity
  8
0
  6
Continuous
 62
     0
100
AcDbLine
 10
102.5456305780447
 20
46.15980761094362
 30
0.0
 11
112.5456439533407
 21
45.50671954735039
 31
0.0
  0
LINE
  5
B5
330
72
100
AcDbEntity
  8
0
  6
Continuous
 62
     0
100
AcDbLine
 10
92.54562909833582
 20
46.8128948976513
 30
0.0
 11
97.54562983819028
 21
46.48635125429746
 31
0.0
  0
LINE
  5
B6
330
72
100
AcDbEntity
  8
0
  6
Continuous
 62
     0
100
AcDbLine
 10
82.5456288081856
 20
47.46598210667042
 30
0.0
 11
87.54562954804007
 21
47.13943846331658
 31
0.0
  0
LINE
  5
B7
330
72
100
AcDbEntity
  8
0
  6
Continuous
 62
     0
100
AcDbLine
 10
72.54563089715282
 20
48.11906916031243
 30
0.0
 11
77.54563044744856
 21
47.79252559464715
 31
0.0
  0
LINE
  5
B8
330
72
100
AcDbEntity
  8
0
  6
Continuous
 62
     0
100
AcDbLine
 10
54.83337715638505
 20
2.900001862645121
 30
0.0
 11
97.9999984353781
 21
2.900001862645121
 31
0.0
  0
ARC
  5
B9
330
72
100
AcDbEntity
  8
0
  6
Continuous
 62
     0
100
AcDbCircle
 10
103.0000289827581
 20
2.800006824731725
 30
0.0
 40
1.500000037252902
100
AcDbArc
 50
179.9999813306653
 51
270.0000179860893
  0
CIRCLE
  5
BA
330
72
100
AcDbEntity
  8
0
  6
Continuous
 62
     0
100
AcDbCircle
 10
14.99999977648258
 20
29.49998811632413
 30
0.0
 40
4.0
  0
ARC
  5
BB
330
72
100
AcDbEntity
  8
0
  6
Continuous
 62
     0
100
AcDbCircle
 10
110.0235731896226
 20
17.16396306210811
 30
0.0
 40
7.499999888241293
100
AcDbArc
 50
56.12893390093944
 51
96.8796217535143
  0
ARC
  5
BC
330
72
100
AcDbEntity
  8
0
  6
Continuous
 62
     0
100
AcDbCircle
 10
3.000030472874187
 20
36.0804933893607
 30
0.0
 40
3.000000968575463
100
AcDbArc
 50
101.9999686874627
 51
179.999909386308
  0
ARC
  5
BD
330
72
100
AcDbEntity
  8
0
  6
Continuous
 62
     0
100
AcDbCircle
 10
60.77697663341498
 20
41.35551391012201
 30
0.0
 40
4.999999925494195
100
AcDbArc
 50
209.5828283619329
 51
256.5042608654395
  0
ARC
  5
BE
330
72
100
AcDbEntity
  8
0
  6
Continuous
 62
     0
100
AcDbCircle
 10
118.0000287592407
 20
20.42320221031901
 30
0.0
 40
1.999999105930342
100
AcDbArc
 50
359.9998621691775
 51
76.50437515742254
  0
ARC
  5
BF
330
72
100
AcDbEntity
  8
0
  6
Continuous
 62
     0
100
AcDbCircle
 10
15.04135109422577
 20
1.999998062849074
 30
0.0
 40
1.999999105930342
100
AcDbArc
 50
214.9919966751245
 51
270.0000179860893
  0
CIRCLE
  5
C0
330
72
100
AcDbEntity
  8
0
  6
Continuous
 62
     0
100
AcDbCircle
 10
14.99999977648258
 20
29.49998811632413
 30
0.0
 40
4.550000063329934
  0
ARC
  5
C1
330
72
100
AcDbEntity
  8
0
  6
Continuous
 62
     0
100
AcDbCircle
 10
57.02960883036839
 20
46.42665793855998
 30
0.0
 40
2.0
100
AcDbArc
 50
86.26336993410426
 51
179.9000246998857
  0
ARC
  5
C2
330
72
100
AcDbEntity
  8
0
  6
Continuous
 62
     0
100
AcDbCircle
 10
117.0211011615231
 20
41.50655684610371
 30
0.0
 40
3.000000074505805
100
AcDbArc
 50
359.9000972909497
 51
86.26342457561763
  0
CIRCLE
  5
C3
330
72
100
AcDbEntity
  8
0
  6
Continuous
 62
     0
100
AcDbCircle
 10
38.00002995133355
 20
14.50000741332758
 30
0.0
 40
8.500000111758707
  0
ARC
  5
C4
330
72
100
AcDbEntity
  8
0
  6
Continuous
 62
     0
100
AcDbCircle
 10
102.2306427027189
 20
41.33676467334084
 30
0.0
 40
4.833328353862042
100
AcDbArc
 50
55.04221665304456
 51
117.4846085925286
  0
ARC
  5
C5
330
72
100
AcDbEntity
  8
0
  6
Continuous
 62
     0
100
AcDbCircle
 10
97.23064277722473
 20
41.66330275441255
 30
0.0
 40
4.833328353862042
100
AcDbArc
 50
55.04221323794998
 51
117.4845949321503
  0
ARC
  5
C6
330
72
100
AcDbEntity
  8
0
  6
Continuous
 62
     0
100
AcDbCircle
 10
72.23064314975376
 20
43.29601223325711
 30
0.0
 40
4.833328353862042
100
AcDbArc
 50
55.04219274738247
 51
117.4846359132853
  0
ARC
  5
C7
330
72
100
AcDbEntity
  8
0
  6
Continuous
 62
     0
100
AcDbCircle
 10
82.23064300074215
 20
42.64295514459975
 30
0.0
 40
4.833314942817167
100
AcDbArc
 50
55.04206297378823
 51
117.484704215177
  0
ARC
  5
C8
330
72
100
AcDbEntity
  8
0
  6
Continuous
 62
     0
100
AcDbCircle
 10
92.23064285173054
 20
41.98987898245634
 30
0.0
 40
4.833300041656195
100
AcDbArc
 50
55.04201174736946
 51
117.4847998378254
  0
ARC
  5
C9
330
72
100
AcDbEntity
  8
0
  6
Continuous
 62
     0
100
AcDbCircle
 10
112.2306425537073
 20
40.68368851119744
 30
0.0
 40
4.833314942817167
100
AcDbArc
 50
55.0421176153016
 51
117.4846905547986
  0
ARC
  5
CA
330
72
100
AcDbEntity
  8
0
  6
Continuous
 62
     0
100
AcDbCircle
 10
62.23064329876537
 20
43.94910746888656
 30
0.0
 40
4.833328353862042
100
AcDbArc
 50
55.04221323794998
 51
117.4845949321503
  0
ARC
  5
CB
330
72
100
AcDbEntity
  8
0
  6
Continuous
 62
     0
100
AcDbCircle
 10
67.23064322425957
 20
43.62256938781486
 30
0.0
 40
4.833328353862042
100
AcDbArc
 50
55.04221323794998
 51
117.4845949321503
  0
ARC
  5
CC
330
72
100
AcDbEntity
  8
0
  6
Continuous
 62
     0
100
AcDbCircle
 10
77.23064307524795
 20
42.96947415218541
 30
0.0
 40
4.833328353862042
100
AcDbArc
 50
55.04221323794998
 51
117.4845949321503
  0
ARC
  5
CD
330
72
100
AcDbEntity
  8
0
  6
Continuous
 62
     0
100
AcDbCircle
 10
87.23064292623634
 20
42.316397990042
 30
0.0
 40
4.833328353862042
100
AcDbArc
 50
55.04221323794998
 51
117.4845949321503
  0
MTEXT
  5
CE
330
72
100
AcDbEntity
  8
0
 62
     0
100
AcDbMText
 10
31.03947919843842
 20
32.94841422735145
 30
0.0
 40
0.5
 41
0.0
 71
     7
 72
     1
  1
{\W0.833333;BN-1411}
 73
     1
 44
1.0
  0
ENDBLK
  5
74
330
72
100
AcDbEntity
  8
0
100
AcDbBlockEnd
  0
BLOCK
  5
76
330
75
100
AcDbEntity
  8
0
100
AcDbBlockBegin
  2
DTL0002
 70
     0
 10
0.0
 20
0.0
 30
0.0
  3
DTL0002
  1

  0
POINT
  5
CF
330
75
100
AcDbEntity
  8
0
 62
     0
100
AcDbPoint
 10
0.0
 20
0.0
 30
0.0
  0
LINE
  5
D0
330
75
100
AcDbEntity
  8
0
  6
Continuous
 62
     0
100
AcDbLine
 10
90.000009652947
 20
15.58845599444935
 30
0.0
 11
95.00001256341288
 21
12.70170291633085
 31
0.0
  0
LINE
  5
D1
330
75
100
AcDbEntity
  8
0
  6
Continuous
 62
     0
100
AcDbLine
 10
69.99999895691873
 20
27.1354671249469
 30
0.0
 11
69.99999895691873
 21
17.12436650508096
 31
0.0
  0
LINE
  5
D2
330
75
100
AcDbEntity
  8
0
  6
Continuous
 62
     0
100
AcDbLine
 10
84.99999873340131
 20
18.47522708065469
 30
0.0
 11
84.99999873340131
 21
8.464107387302704
 31
0.0
  0
LINE
  5
D3
330
75
100
AcDbEntity
  8
0
  6
Continuous
 62
     0
100
AcDbLine
 10
9.999999850988388
 20
-18.0000016391277
 30
0.0
 11
9.999999850988388
 21
-34.99999947845936
 31
0.0
  0
LINE
  5
D4
330
75
100
AcDbEntity
  8
0
  6
Continuous
 62
     0
100
AcDbLine
 10
57.49999914318325
 20
-34.99999947845936
 30
0.0
 11
57.49999914318325
 21
-36.03625243848185
 31
0.0
  0
LINE
  5
D5
330
75
100
AcDbEntity
  8
0
  6
Continuous
 62
     0
100
AcDbLine
 10
5.000009462237216
 20
-17.99999210238468
 30
0.0
 11
10.00000938773141
 21
-17.99999210238468
 31
0.0
  0
LINE
  5
D6
330
75
100
AcDbEntity
  8
0
  6
Continuous
 62
     0
100
AcDbLine
 10
4.999999925494194
 20
-18.0000016391277
 30
0.0
 11
4.999999925494194
 21
-34.99999947845936
 31
0.0
  0
LINE
  5
D7
330
75
100
AcDbEntity
  8
0
  6
Continuous
 62
     0
100
AcDbLine
 10
119.9686454185378
 20
-36.49999203732281
 30
0.0
 11
52.61552992402542
 21
-35.99999210281153
 31
0.0
  0
LINE
  5
D8
330
75
100
AcDbEntity
  8
0
  6
Continuous
 62
     0
100
AcDbLine
 10
110.0000182219366
 20
-21.743163678041
 30
0.0
 11
115.000016797454
 21
-16.74316510252359
 31
0.0
  0
LINE
  5
D9
330
75
100
AcDbEntity
  8
0
  6
Continuous
 62
     0
100
AcDbLine
 10
104.9999984353781
 20
-18.85640116249917
 30
0.0
 11
104.9999984353781
 21
-28.86751131910813
 31
0.0
  0
LINE
  5
DA
330
75
100
AcDbEntity
  8
0
  6
Continuous
 62
     0
100
AcDbLine
 10
5.000009462237216
 20
-34.99999947845936
 30
0.0
 11
10.00000938773141
 21
-34.99999947845936
 31
0.0
  0
LINE
  5
DB
330
75
100
AcDbEntity
  8
0
  6
CENTER
 62
     4
100
AcDbLine
 10
-7.131099594666068
 20
0.0
 30
0.0
 11
125.6441288345437
 21
0.0
 31
0.0
  0
LINE
  5
DC
330
75
100
AcDbEntity
  8
0
  6
Continuous
 62
     0
100
AcDbLine
 10
52.61551063335671
 20
34.99999947845939
 30
0.0
 11
65.0000169128177
 21
34.99999947845939
 31
0.0
  0
LINE
  5
DD
330
75
100
AcDbEntity
  8
0
  6
Continuous
 62
     0
100
AcDbLine
 10
64.99999903142454
 20
34.99999947845936
 30
0.0
 11
64.99999903142454
 21
32.33161878091664
 31
0.0
  0
LINE
  5
DE
330
75
100
AcDbEntity
  8
0
  6
Continuous
 62
     0
100
AcDbLine
 10
79.99999880790712
 20
34.99999947845936
 30
0.0
 11
79.99999880790712
 21
23.67137873662443
 31
0.0
  0
LINE
  5
DF
330
75
100
AcDbEntity
  8
0
  6
Continuous
 62
     0
100
AcDbLine
 10
105.0000263899149
 20
-18.85640805537005
 30
0.0
 11
110.0000249654323
 21
-13.85640947985265
 31
0.0
  0
LINE
  5
E0
330
75
100
AcDbEntity
  8
0
  6
Continuous
 62
     0
100
AcDbLine
 10
69.99999895691873
 20
-10.96964819774556
 30
0.0
 11
69.99999895691873
 21
-34.99999947845936
 31
0.0
  0
LINE
  5
E1
330
75
100
AcDbEntity
  8
0
  6
Continuous
 62
     0
100
AcDbLine
 10
64.99999903142454
 20
-8.08290469522916
 30
0.0
 11
64.99999903142454
 21
-34.99999947845936
 31
0.0
  0
LINE
  5
E2
330
75
100
AcDbEntity
  8
0
  6
Continuous
 62
     0
100
AcDbLine
 10
104.9999984353781
 20
34.99999947845936
 30
0.0
 11
104.9999984353781
 21
9.237613540327345
 31
0.0
  0
LINE
  5
E3
330
75
100
AcDbEntity
  8
0
  6
Continuous
 62
     0
100
AcDbLine
 10
59.99999910593034
 20
-5.196132582483699
 30
0.0
 11
59.99999910593034
 21
-34.99999947845936
 31
0.0
  0
LINE
  5
E4
330
75
100
AcDbEntity
  8
0
  6
Continuous
 62
     0
100
AcDbLine
 10
99.99999850988391
 20
34.99999947845936
 30
0.0
 11
99.99999850988391
 21
12.12436657958676
 31
0.0
  0
LINE
  5
E5
330
75
100
AcDbEntity
  8
0
  6
Continuous
 62
     0
100
AcDbLine
 10
89.9999986588955
 20
34.99999947845936
 30
0.0
 11
89.9999986588955
 21
17.8978726581056
 31
0.0
  0
LINE
  5
E6
330
75
100
AcDbEntity
  8
0
  6
Continuous
 62
     0
100
AcDbLine
 10
70.00002287430176
 20
9.237595040540977
 30
0.0
 11
75.00002144981917
 21
14.23759361605838
 31
0.0
  0
LINE
  5
E7
330
75
100
AcDbEntity
  8
0
  6
Continuous
 62
     0
100
AcDbLine
 10
65.00002429878433
 20
12.12433043272496
 30
0.0
 11
70.0000296177974
 21
17.12433575173804
 31
0.0
  0
LINE
  5
E8
330
75
100
AcDbEntity
  8
0
  6
Continuous
 62
     0
100
AcDbLine
 10
60.00000549277996
 20
15.0110995423872
 30
0.0
 11
65.00000406829737
 21
20.01109811790462
 31
0.0
  0
LINE
  5
E9
330
75
100
AcDbEntity
  8
0
  6
Continuous
 62
     0
100
AcDbLine
 10
94.9999845609939
 20
-23.09402366243889
 30
0.0
 11
99.99998334192892
 21
-25.9807743563716
 31
0.0
  0
LINE
  5
EA
330
75
100
AcDbEntity
  8
0
  6
Continuous
 62
     0
100
AcDbLine
 10
100.00001213404
 20
-28.29018982979668
 30
0.0
 11
105.0000067854442
 21
-31.17693813954361
 31
0.0
  0
LINE
  5
EB
330
75
100
AcDbEntity
  8
0
  6
Continuous
 62
     0
100
AcDbLine
 10
74.99998117819206
 20
-11.54701611833647
 30
0.0
 11
79.99997995912707
 21
-14.43376681226917
 31
0.0
  0
LINE
  5
EC
330
75
100
AcDbEntity
  8
0
  6
Continuous
 62
     0
100
AcDbLine
 10
90.0000021835774
 20
-22.5166812893739
 30
0.0
 11
95.00000096451242
 21
-25.40343198330661
 31
0.0
  0
LINE
  5
ED
330
75
100
AcDbEntity
  8
0
  6
Continuous
 62
     0
100
AcDbLine
 10
84.99997461053127
 20
-17.3205151220161
 30
0.0
 11
89.9999899095897
 21
-20.20727535269197
 31
0.0
  0
LINE
  5
EE
330
75
100
AcDbEntity
  8
0
  6
Continuous
 62
     0
100
AcDbLine
 10
52.61551063335671
 20
-34.99999947845936
 30
0.0
 11
60.00001698732351
 21
-34.99999947845936
 31
0.0
  0
LINE
  5
EF
330
75
100
AcDbEntity
  8
0
  6
Continuous
 62
     0
100
AcDbLine
 10
94.9999985843897
 20
34.99999947845936
 30
0.0
 11
94.9999985843897
 21
15.01111961884618
 31
0.0
  0
LINE
  5
F0
330
75
100
AcDbEntity
  8
0
  6
Continuous
 62
     0
100
AcDbLine
 10
55.00001366075822
 20
17.89784167806683
 30
0.0
 11
60.0000189797713
 21
22.89784699707991
 31
0.0
  0
LINE
  5
F1
330
75
100
AcDbEntity
  8
0
  6
Continuous
 62
     0
100
AcDbLine
 10
104.9999984353781
 20
-31.17690993581846
 30
0.0
 11
104.9999984353781
 21
-34.99999947845936
 31
0.0
  0
LINE
  5
F2
330
75
100
AcDbEntity
  8
0
  6
Continuous
 62
     0
100
AcDbLine
 10
94.9999985843897
 20
-25.4033943205566
 30
0.0
 11
94.9999985843897
 21
-34.99999947845936
 31
0.0
  0
LINE
  5
F3
330
75
100
AcDbEntity
  8
0
  6
Continuous
 62
     0
100
AcDbLine
 10
84.99999873340131
 20
-19.62989777878079
 30
0.0
 11
84.99999873340131
 21
-34.99999947845936
 31
0.0
  0
LINE
  5
F4
330
75
100
AcDbEntity
  8
0
  6
Continuous
 62
     0
100
AcDbLine
 10
89.9999986588955
 20
-22.5166508180402
 30
0.0
 11
89.9999986588955
 21
-34.99999947845936
 31
0.0
  0
LINE
  5
F5
330
75
100
AcDbEntity
  8
0
  6
Continuous
 62
     0
100
AcDbLine
 10
99.99999850988391
 20
-28.29015689655904
 30
0.0
 11
99.99999850988391
 21
-34.99999947845936
 31
0.0
  0
LINE
  5
F6
330
75
100
AcDbEntity
  8
0
  6
Continuous
 62
     0
100
AcDbLine
 10
74.99999888241292
 20
-13.85640123700497
 30
0.0
 11
74.99999888241292
 21
-34.99999947845936
 31
0.0
  0
LINE
  5
F7
330
75
100
AcDbEntity
  8
0
  6
Continuous
 62
     0
100
AcDbLine
 10
79.99999223311477
 20
-16.7431727489511
 30
0.0
 11
85.00000340264234
 21
-19.62993059544118
 31
0.0
  0
LINE
  5
F8
330
75
100
AcDbEntity
  8
0
  6
Continuous
 62
     0
100
AcDbLine
 10
64.99997948679112
 20
-5.773512346285237
 30
0.0
 11
69.99997413819531
 21
-8.660260656032165
 31
0.0
  0
LINE
  5
F9
330
75
100
AcDbEntity
  8
0
  6
Continuous
 62
     0
100
AcDbLine
 10
79.99999880790712
 20
-16.74314473952137
 30
0.0
 11
79.99999880790712
 21
-34.99999947845936
 31
0.0
  0
LINE
  5
FA
330
75
100
AcDbEntity
  8
0
  6
Continuous
 62
     0
100
AcDbLine
 10
85.00001780688736
 20
-34.99999947845936
 30
0.0
 11
90.00001773238155
 21
-34.99999947845936
 31
0.0
  0
LINE
  5
FB
330
75
100
AcDbEntity
  8
0
  6
Continuous
 62
     0
100
AcDbLine
 10
75.00001676380609
 20
-34.99999947845936
 30
0.0
 11
80.00001788139316
 21
-34.99999947845936
 31
0.0
  0
LINE
  5
FC
330
75
100
AcDbEntity
  8
0
  6
Continuous
 62
     0
100
AcDbLine
 10
105.0000000643039
 20
9.237573151219138
 30
0.0
 11
110.0000029747698
 21
6.350820073100635
 31
0.0
  0
LINE
  5
FD
330
75
100
AcDbEntity
  8
0
  6
Continuous
 62
     0
100
AcDbLine
 10
80.00001209107693
 20
21.36195738231478
 30
0.0
 11
85.00000674248112
 21
18.47520907256785
 31
0.0
  0
LINE
  5
FE
330
75
100
AcDbEntity
  8
0
  6
Continuous
 62
     0
100
AcDbLine
 10
94.9999985843897
 20
-13.08290462072335
 30
0.0
 11
94.9999985843897
 21
-23.09399570384628
 31
0.0
  0
LINE
  5
FF
330
75
100
AcDbEntity
  8
0
  6
Continuous
 62
     0
100
AcDbLine
 10
109.9999983608723
 20
-21.74314466501556
 30
0.0
 11
109.9999983608723
 21
-31.75425482162453
 31
0.0
  0
LINE
  5
100
330
75
100
AcDbEntity
  8
0
  6
Continuous
 62
     0
100
AcDbLine
 10
99.99999850988391
 20
-15.96964812323975
 30
0.0
 11
99.99999850988391
 21
-25.98075827984871
 31
0.0
  0
LINE
  5
101
330
75
100
AcDbEntity
  8
0
  6
Continuous
 62
     0
100
AcDbLine
 10
79.99999880790712
 20
3.46410746180851
 30
0.0
 11
79.99999880790712
 21
-14.43374612281104
 31
0.0
  0
LINE
  5
102
330
75
100
AcDbEntity
  8
0
  6
Continuous
 62
     0
100
AcDbLine
 10
89.9999986588955
 20
-10.19615158146394
 30
0.0
 11
89.9999986588955
 21
-20.20724266458686
 31
0.0
  0
LINE
  5
103
330
75
100
AcDbEntity
  8
0
  6
Continuous
 62
     0
100
AcDbLine
 10
84.99999873340131
 20
-7.309389005461497
 30
0.0
 11
84.99999873340131
 21
-17.32049916207046
 31
0.0
  0
LINE
  5
104
330
75
100
AcDbEntity
  8
0
  6
Continuous
 62
     0
100
AcDbLine
 10
0.0
 20
37.00000707805145
 30
0.0
 11
0.0
 21
-36.99999754130843
 31
0.0
  0
LINE
  5
105
330
75
100
AcDbEntity
  8
0
  6
Continuous
 62
     0
100
AcDbLine
 10
109.9999983608723
 20
34.99999947845936
 30
0.0
 11
109.9999983608723
 21
6.350860501067928
 31
0.0
  0
LINE
  5
106
330
75
100
AcDbEntity
  8
0
  6
Continuous
 62
     0
100
AcDbLine
 10
57.49999914318325
 20
36.03626197522487
 30
0.0
 11
57.49999914318325
 21
34.99999947845936
 31
0.0
  0
LINE
  5
107
330
75
100
AcDbEntity
  8
0
  6
Continuous
 62
     0
100
AcDbLine
 10
3.000025704502676
 20
-39.99999940395355
 30
0.0
 11
116.0000116229056
 21
-39.99999940395355
 31
0.0
  0
LINE
  5
108
330
75
100
AcDbEntity
  8
0
  6
Continuous
 62
     0
100
AcDbLine
 10
54.99999918043615
 20
34.99999947845939
 30
0.0
 11
54.99999918043615
 21
-34.99999947845936
 31
0.0
  0
LINE
  5
109
330
75
100
AcDbEntity
  8
0
  6
Continuous
 62
     0
100
AcDbLine
 10
69.99999880077554
 20
-10.96967374527146
 30
0.0
 11
74.99999345217974
 21
-13.85642205501839
 31
0.0
  0
LINE
  5
10A
330
75
100
AcDbEntity
  8
0
  6
Continuous
 62
     0
100
AcDbLine
 10
60.00001074730662
 20
-2.886774467488557
 30
0.0
 11
55.00001709905544
 21
-0.000024420230382
 31
0.0
  0
LINE
  5
10B
330
75
100
AcDbEntity
  8
0
  6
Continuous
 62
     0
100
AcDbLine
 10
65.00000171381942
 20
30.02218236560063
 30
0.0
 11
60.00000883367828
 21
32.90893374326295
 31
0.0
  0
LINE
  5
10C
330
75
100
AcDbEntity
  8
0
  6
Continuous
 62
     0
100
AcDbLine
 10
65.00002510656392
 20
32.33161276907158
 30
0.0
 11
70.00001049575508
 21
29.44486749018785
 31
0.0
  0
LINE
  5
10D
330
75
100
AcDbEntity
  8
0
  6
Continuous
 62
     0
100
AcDbLine
 10
65.00000414937135
 20
-8.082925435524537
 30
0.0
 11
60.00000949796716
 21
-5.196177125777609
 31
0.0
  0
LINE
  5
10E
330
75
100
AcDbEntity
  8
0
  6
Continuous
 62
     0
100
AcDbLine
 10
115.0000277121618
 20
1.154735387920901
 30
0.0
 11
110.0000320576052
 21
4.041481960156247
 31
0.0
  0
LINE
  5
10F
330
75
100
AcDbEntity
  8
0
  6
Continuous
 62
     0
100
AcDbLine
 10
52.00000685453405
 20
39.99999940395358
 30
0.0
 11
52.00000685453405
 21
-39.99999940395355
 31
0.0
  0
LINE
  5
110
330
75
100
AcDbEntity
  8
0
  6
Continuous
 62
     0
100
AcDbLine
 10
52.61550824917096
 20
36.00002235174145
 30
0.0
 11
52.61550824917096
 21
-36.00000327825541
 31
0.0
  0
LINE
  5
111
330
75
100
AcDbEntity
  8
0
  6
Continuous
 62
     0
100
AcDbLine
 10
3.000025704502676
 20
39.99999940395358
 30
0.0
 11
116.0000116229056
 21
39.99999940395358
 31
0.0
  0
LINE
  5
112
330
75
100
AcDbEntity
  8
0
  6
Continuous
 62
     0
100
AcDbLine
 10
74.99999888241292
 20
6.350860501067928
 30
0.0
 11
74.99999888241292
 21
-11.54699308355163
 31
0.0
  0
LINE
  5
113
330
75
100
AcDbEntity
  8
0
  6
Continuous
 62
     0
100
AcDbLine
 10
69.99999895691873
 20
9.237613540327345
 30
0.0
 11
69.99999895691873
 21
-8.660249581035231
 31
0.0
  0
LINE
  5
114
330
75
100
AcDbEntity
  8
0
  6
Continuous
 62
     0
100
AcDbLine
 10
119.9999982118607
 20
36.00002235174145
 30
0.0
 11
119.9999982118607
 21
-36.00000327825541
 31
0.0
  0
LINE
  5
115
330
75
100
AcDbEntity
  8
0
  6
Continuous
 62
     0
100
AcDbLine
 10
52.6155381222235
 20
35.9999930337388
 30
0.0
 11
119.9686726896964
 21
36.49999310983937
 31
0.0
  0
LINE
  5
116
330
75
100
AcDbEntity
  8
0
  6
Continuous
 62
     0
100
AcDbLine
 10
64.99999903142454
 20
12.12436657958676
 30
0.0
 11
64.99999903142454
 21
-5.773506078518835
 31
0.0
  0
LINE
  5
117
330
75
100
AcDbEntity
  8
0
  6
Continuous
 62
     0
100
AcDbLine
 10
59.99999910593034
 20
15.01111961884618
 30
0.0
 11
59.99999910593034
 21
-2.886733965773374
 31
0.0
  0
LINE
  5
118
330
75
100
AcDbEntity
  8
0
  6
Continuous
 62
     0
100
AcDbLine
 10
74.99999888241292
 20
24.24871408568748
 30
0.0
 11
74.99999888241292
 21
14.23761346582154
 31
0.0
  0
LINE
  5
119
330
75
100
AcDbEntity
  8
0
  6
Continuous
 62
     0
100
AcDbLine
 10
79.99999880790712
 20
21.36196104642806
 30
0.0
 11
79.99999880790712
 21
11.35086042656212
 31
0.0
  0
LINE
  5
11A
330
75
100
AcDbEntity
  8
0
  6
Continuous
 62
     0
100
AcDbLine
 10
95.00001765787574
 20
-34.99999947845936
 30
0.0
 11
100.0000175833699
 21
-34.99999947845936
 31
0.0
  0
LINE
  5
11B
330
75
100
AcDbEntity
  8
0
  6
Continuous
 62
     0
100
AcDbLine
 10
105.0000175088641
 20
-34.99999947845936
 30
0.0
 11
119.9999982118607
 21
-34.99999947845936
 31
0.0
  0
LINE
  5
11C
330
75
100
AcDbEntity
  8
0
  6
Continuous
 62
     0
100
AcDbLine
 10
110.0000153407066
 20
-31.7542761493332
 30
0.0
 11
104.9999993904498
 21
-28.86752658332459
 31
0.0
  0
LINE
  5
11D
330
75
100
AcDbEntity
  8
0
  6
Continuous
 62
     0
100
AcDbLine
 10
80.00003351232787
 20
3.464083795199087
 30
0.0
 11
85.00003208784528
 21
8.464082370716497
 31
0.0
  0
LINE
  5
11E
330
75
100
AcDbEntity
  8
0
  6
Continuous
 62
     0
100
AcDbLine
 10
100.0000345578931
 20
-15.96966591969045
 30
0.0
 11
105.0000331334106
 21
-10.96966734417304
 31
0.0
  0
LINE
  5
11F
330
75
100
AcDbEntity
  8
0
  6
Continuous
 62
     0
100
AcDbLine
 10
90.0000104328757
 20
-10.19615467434852
 30
0.0
 11
95.0000090083931
 21
-5.196156098831118
 31
0.0
  0
LINE
  5
120
330
75
100
AcDbEntity
  8
0
  6
Continuous
 62
     0
100
AcDbLine
 10
95.00000226489743
 20
-13.0829237840108
 30
0.0
 11
100.0000075839105
 21
-8.082918464997732
 31
0.0
  0
LINE
  5
121
330
75
100
AcDbEntity
  8
0
  6
Continuous
 62
     0
100
AcDbLine
 10
85.00002534434961
 20
-7.309392308181906
 30
0.0
 11
90.00003066336268
 21
-2.309386989168843
 31
0.0
  0
LINE
  5
122
330
75
100
AcDbEntity
  8
0
  6
Continuous
 62
     0
100
AcDbLine
 10
75.0000147063235
 20
6.350852904861355
 30
0.0
 11
80.00002002533657
 21
11.35085822387442
 31
0.0
  0
LINE
  5
123
330
75
100
AcDbEntity
  8
0
  6
Continuous
 62
     0
100
AcDbLine
 10
89.9999986588955
 20
15.58847404139527
 30
0.0
 11
89.9999986588955
 21
-2.309379543224281
 31
0.0
  0
LINE
  5
124
330
75
100
AcDbEntity
  8
0
  6
Continuous
 62
     0
100
AcDbLine
 10
109.9999983608723
 20
4.041461884357602
 30
0.0
 11
109.9999983608723
 21
-13.85640123700497
 31
0.0
  0
LINE
  5
125
330
75
100
AcDbEntity
  8
0
  6
Continuous
 62
     0
100
AcDbLine
 10
99.99999850988391
 20
9.814967962876437
 30
0.0
 11
99.99999850988391
 21
-8.08290469522916
 31
0.0
  0
LINE
  5
126
330
75
100
AcDbEntity
  8
0
  6
Continuous
 62
     0
100
AcDbLine
 10
104.9999984353781
 20
6.92821492361702
 30
0.0
 11
104.9999984353781
 21
-10.96964819774556
 31
0.0
  0
LINE
  5
127
330
75
100
AcDbEntity
  8
0
  6
Continuous
 62
     0
100
AcDbLine
 10
94.9999985843897
 20
12.70172100213586
 30
0.0
 11
94.9999985843897
 21
-5.196151655969743
 31
0.0
  0
LINE
  5
128
330
75
100
AcDbEntity
  8
0
  6
Continuous
 62
     0
100
AcDbLine
 10
64.99999903142454
 20
30.02223923769236
 30
0.0
 11
64.99999903142454
 21
20.01111954434037
 31
0.0
  0
LINE
  5
129
330
75
100
AcDbEntity
  8
0
  6
Continuous
 62
     0
100
AcDbLine
 10
84.99999873340131
 20
34.99999947845936
 30
0.0
 11
84.99999873340131
 21
20.78462569736502
 31
0.0
  0
LINE
  5
12A
330
75
100
AcDbEntity
  8
0
  6
Continuous
 62
     0
100
AcDbLine
 10
74.99999888241292
 20
34.99999947845936
 30
0.0
 11
74.99999888241292
 21
26.55811270239781
 31
0.0
  0
LINE
  5
12B
330
75
100
AcDbEntity
  8
0
  6
Continuous
 62
     0
100
AcDbLine
 10
59.99999910593034
 20
32.90897320346573
 30
0.0
 11
59.99999910593034
 21
22.89787258359979
 31
0.0
  0
LINE
  5
12C
330
75
100
AcDbEntity
  8
0
  6
Continuous
 62
     0
100
AcDbLine
 10
69.99999895691873
 20
34.99999947845936
 30
0.0
 11
69.99999895691873
 21
29.44486574165722
 31
0.0
  0
LINE
  5
12D
330
75
100
AcDbEntity
  8
0
  6
Continuous
 62
     0
100
AcDbLine
 10
65.0000169128177
 20
-34.99999947845936
 30
0.0
 11
70.00001743435834
 21
-34.99999947845936
 31
0.0
  0
LINE
  5
12E
330
75
100
AcDbEntity
  8
0
  6
Continuous
 62
     0
100
AcDbLine
 10
110.0000174343583
 20
34.99999947845939
 30
0.0
 11
119.9999982118607
 21
34.99999947845939
 31
0.0
  0
LINE
  5
12F
330
75
100
AcDbEntity
  8
0
  6
Continuous
 62
     0
100
AcDbLine
 10
100.0000175833699
 20
34.99999947845939
 30
0.0
 11
105.0000175088641
 21
34.99999947845939
 31
0.0
  0
LINE
  5
130
330
75
100
AcDbEntity
  8
0
  6
Continuous
 62
     0
100
AcDbLine
 10
90.00001773238155
 20
34.99999947845939
 30
0.0
 11
95.00001765787574
 21
34.99999947845939
 31
0.0
  0
LINE
  5
131
330
75
100
AcDbEntity
  8
0
  6
Continuous
 62
     0
100
AcDbLine
 10
80.00001788139316
 20
34.99999947845939
 30
0.0
 11
85.00001780688736
 21
34.99999947845939
 31
0.0
  0
LINE
  5
132
330
75
100
AcDbEntity
  8
0
  6
Continuous
 62
     0
100
AcDbLine
 10
70.00001743435834
 20
34.99999947845939
 30
0.0
 11
75.00001676380609
 21
34.99999947845939
 31
0.0
  0
LINE
  5
133
330
75
100
AcDbEntity
  8
0
  6
Continuous
 62
     0
100
AcDbLine
 10
74.99999499010117
 20
26.55808446737279
 30
0.0
 11
79.99998964150537
 21
23.67133615762586
 31
0.0
  0
LINE
  5
134
330
75
100
AcDbEntity
  8
0
  6
Continuous
 62
     0
100
AcDbLine
 10
85.00000081103293
 20
20.78457831113579
 30
0.0
 11
89.99999546243713
 21
17.89783000138886
 31
0.0
  0
LINE
  5
135
330
75
100
AcDbEntity
  8
0
  6
Continuous
 62
     0
100
AcDbLine
 10
94.99999424337217
 20
15.01107930745614
 30
0.0
 11
100.0000012833689
 21
12.12432384515186
 31
0.0
  0
LINE
  5
136
330
75
100
AcDbEntity
  8
0
  6
Continuous
 62
     0
100
AcDbLine
 10
100.0000154738788
 20
9.81494983821235
 30
0.0
 11
105.000010125283
 21
6.928201528465415
 31
0.0
  0
LINE
  5
137
330
75
100
AcDbEntity
  8
0
  6
Continuous
 62
     0
100
AcDbLine
 10
114.9999982863665
 20
1.154708845098185
 30
0.0
 11
114.9999982863665
 21
-16.74314473952137
 31
0.0
  0
LINE
  5
138
330
75
100
AcDbEntity
  8
0
  6
Continuous
 62
     0
100
AcDbLine
 10
70.00000627014516
 20
27.13546353855178
 30
0.0
 11
75.00001743967273
 21
24.24870569206171
 31
0.0
  0
LINE
  5
139
330
75
100
AcDbEntity
  8
0
  6
CENTER
 62
     4
100
AcDbLine
 10
38.00002995133355
 20
39.99999940395355
 30
0.0
 11
38.00002995133355
 21
45.89803627285306
 31
0.0
  0
LINE
  5
13A
330
75
100
AcDbEntity
  8
0
  6
Continuous
 62
     0
100
AcDbLine
 10
29.0000291317697
 20
43.00001080334172
 30
0.0
 11
47.00002838671165
 21
43.00001080334172
 31
0.0
  0
LINE
  5
13B
330
75
100
AcDbEntity
  8
0
  6
Continuous
 62
     0
100
AcDbLine
 10
49.00002883374648
 20
39.99999940395355
 30
0.0
 11
49.00002883374648
 21
41.0000032037496
 31
0.0
  0
LINE
  5
13C
330
75
100
AcDbEntity
  8
0
  6
Continuous
 62
     0
100
AcDbLine
 10
27.00003106892063
 20
39.99999940395355
 30
0.0
 11
27.00003106892063
 21
41.0000032037496
 31
0.0
  0
ARC
  5
13D
330
75
100
AcDbEntity
  8
0
  6
Continuous
 62
     0
100
AcDbCircle
 10
3.000030472874187
 20
37.00000707805148
 30
0.0
 40
3.000000968575463
100
AcDbArc
 50
89.99998201391067
 51
180.0000186693347
  0
ARC
  5
13E
330
75
100
AcDbEntity
  8
0
  6
Continuous
 62
     0
100
AcDbCircle
 10
116.0000211596486
 20
-36.00000327825541
 30
0.0
 40
4.0
100
AcDbArc
 50
270.0000179860893
 51
0.0
  0
ARC
  5
13F
330
75
100
AcDbEntity
  8
0
  6
Continuous
 62
     0
100
AcDbCircle
 10
3.000030472874187
 20
-36.99998800456541
 30
0.0
 40
3.000000968575463
100
AcDbArc
 50
180.0000359721787
 51
270.0000179860893
  0
ARC
  5
140
330
75
100
AcDbEntity
  8
0
  6
Continuous
 62
     0
100
AcDbCircle
 10
116.0000211596486
 20
36.00002235174148
 30
0.0
 40
4.0
100
AcDbArc
 50
0.0
 51
89.99998201391067
  0
ARC
  5
141
330
75
100
AcDbEntity
  8
0
  6
Continuous
 62
     0
100
AcDbCircle
 10
97.4999985471368
 20
30.69999649077661
 30
0.0
 40
4.999999925494195
100
AcDbArc
 50
59.31664124319234
 51
120.683322784629
  0
ARC
  5
142
330
75
100
AcDbEntity
  8
0
  6
Continuous
 62
     0
100
AcDbCircle
 10
77.49999884516002
 20
30.69999649077661
 30
0.0
 40
4.999999925494195
100
AcDbArc
 50
59.31664124319234
 51
120.683322784629
  0
ARC
  5
143
330
75
100
AcDbEntity
  8
0
  6
Continuous
 62
     0
100
AcDbCircle
 10
87.49999869614841
 20
30.69999649077661
 30
0.0
 40
4.999999925494195
100
AcDbArc
 50
59.31664124319234
 51
120.683322784629
  0
ARC
  5
144
330
75
100
AcDbEntity
  8
0
  6
Continuous
 62
     0
100
AcDbCircle
 10
107.4999983981252
 20
30.69999649077661
 30
0.0
 40
4.999999925494195
100
AcDbArc
 50
59.31664124319234
 51
120.683322784629
  0
ARC
  5
145
330
75
100
AcDbEntity
  8
0
  6
Continuous
 62
     0
100
AcDbCircle
 10
62.49999906867744
 20
-30.70001556426263
 30
0.0
 40
4.999999925494195
100
AcDbArc
 50
239.316677215371
 51
300.6833587568076
  0
ARC
  5
146
330
75
100
AcDbEntity
  8
0
  6
Continuous
 62
     0
100
AcDbCircle
 10
67.49999899417163
 20
30.69999649077661
 30
0.0
 40
4.999999925494195
100
AcDbArc
 50
59.31664124319234
 51
120.683322784629
  0
ARC
  5
147
330
75
100
AcDbEntity
  8
0
  6
Continuous
 62
     0
100
AcDbCircle
 10
72.49999891966583
 20
-30.70001556426263
 30
0.0
 40
4.999999925494195
100
AcDbArc
 50
239.316677215371
 51
300.6833587568076
  0
ARC
  5
148
330
75
100
AcDbEntity
  8
0
  6
Continuous
 62
     0
100
AcDbCircle
 10
102.499998472631
 20
-30.70001556426263
 30
0.0
 40
4.999999925494195
100
AcDbArc
 50
239.316677215371
 51
300.6833587568076
  0
ARC
  5
149
330
75
100
AcDbEntity
  8
0
  6
Continuous
 62
     0
100
AcDbCircle
 10
92.4999986216426
 20
-30.70001556426263
 30
0.0
 40
4.999999925494195
100
AcDbArc
 50
239.316677215371
 51
300.6833587568076
  0
ARC
  5
14A
330
75
100
AcDbEntity
  8
0
  6
Continuous
 62
     0
100
AcDbCircle
 10
82.49999877065422
 20
-30.70001556426263
 30
0.0
 40
4.999999925494195
100
AcDbArc
 50
239.316677215371
 51
300.6833587568076
  0
ARC
  5
14B
330
75
100
AcDbEntity
  8
0
  6
Continuous
 62
     0
100
AcDbCircle
 10
29.0000291317697
 20
41.00000320374963
 30
0.0
 40
2.0
100
AcDbArc
 50
89.9999273723973
 51
179.9999640278213
  0
ARC
  5
14C
330
75
100
AcDbEntity
  8
0
  6
Continuous
 62
     0
100
AcDbCircle
 10
47.00002838671165
 20
41.00000320374963
 30
0.0
 40
2.0
100
AcDbArc
 50
359.9999453584866
 51
89.9999273723973
  0
MTEXT
  5
14D
330
75
100
AcDbEntity
  8
0
 62
     0
100
AcDbMText
 10
12.7787438167779
 20
32.21034884295332
 30
0.0
 40
0.5
 41
0.0
 71
     7
 72
     1
  1
{\W0.833333;BN-1411}
 73
     1
 44
1.0
  0
ENDBLK
  5
77
330
75
100
AcDbEntity
  8
0
100
AcDbBlockEnd
  0
BLOCK
  5
79
330
78
100
AcDbEntity
  8
0
100
AcDbBlockBegin
  2
DTL0003
 70
     0
 10
0.0
 20
0.0
 30
0.0
  3
DTL0003
  1

  0
POINT
  5
14E
330
78
100
AcDbEntity
  8
0
 62
     0
100
AcDbPoint
 10
0.0
 20
0.0
 30
0.0
  0
LINE
  5
14F
330
78
100
AcDbEntity
  8
0
  6
CENTER
 62
     4
100
AcDbLine
 10
-6.242790129143145
 20
18.89999957531691
 30
0.0
 11
-25.50792656082024
 21
18.89999957531691
 31
0.0
  0
LINE
  5
150
330
78
100
AcDbEntity
  8
0
  6
Continuous
 62
     0
100
AcDbLine
 10
30.24997666105662
 20
2.900010006129593
 30
0.0
 11
30.24997666105662
 21
0.0
 31
0.0
  0
LINE
  5
151
330
78
100
AcDbEntity
  8
0
  6
Continuous
 62
     0
100
AcDbLine
 10
38.00119526609618
 20
-0.069785771078933
 30
0.0
 11
37.26542177614089
 21
21.00001123158624
 31
0.0
  0
LINE
  5
152
330
78
100
AcDbEntity
  8
0
  6
Continuous
 62
     0
100
AcDbLine
 10
-24.999999627471
 20
34.99999471008785
 30
0.0
 11
-24.999999627471
 21
31.99999523162849
 31
0.0
  0
LINE
  5
153
330
78
100
AcDbEntity
  8
0
  6
Continuous
 62
     0
100
AcDbLine
 10
-25.00006658921735
 20
32.0000288540134
 30
0.0
 11
-30.50006664132512
 21
21.00002874979787
 31
0.0
  0
LINE
  5
154
330
78
100
AcDbEntity
  8
0
  6
Continuous
 62
     0
100
AcDbLine
 10
-22.04999890848995
 20
2.899999575316913
 30
0.0
 11
-27.95001941993803
 21
2.899999575316913
 31
0.0
  0
LINE
  5
155
330
78
100
AcDbEntity
  8
0
  6
Continuous
 62
     0
100
AcDbLine
 10
13.3499906457962
 20
2.200000551342955
 30
0.0
 11
13.3499906457962
 21
2.899997489154376
 31
0.0
  0
LINE
  5
156
330
78
100
AcDbEntity
  8
0
  6
Continuous
 62
     0
100
AcDbLine
 10
9.995845017690685
 20
2.900024904047196
 30
0.0
 11
10.39998835054378
 21
2.200028130569116
 31
0.0
  0
LINE
  5
157
330
78
100
AcDbEntity
  8
0
  6
Continuous
 62
     0
100
AcDbLine
 10
10.39995308005789
 20
2.899990781801221
 30
0.0
 11
10.80409641291099
 21
2.199994008323141
 31
0.0
  0
LINE
  5
158
330
78
100
AcDbEntity
  8
0
  6
Continuous
 62
     0
100
AcDbLine
 10
7.449989207834165
 20
2.200000551342955
 30
0.0
 11
7.449989207834165
 21
2.899997489154376
 31
0.0
  0
LINE
  5
159
330
78
100
AcDbEntity
  8
0
  6
CENTER
 62
     4
100
AcDbLine
 10
-31.50001478940229
 20
35.97232288163419
 30
0.0
 11
-31.50001478940229
 21
25.96240481790297
 31
0.0
  0
LINE
  5
15A
330
78
100
AcDbEntity
  8
0
  6
Continuous
 62
     0
100
AcDbLine
 10
-29.87369883584748
 20
29.37370560681848
 30
0.0
 11
-33.12637002008957
 21
32.62637679106057
 31
0.0
  0
LINE
  5
15B
330
78
100
AcDbEntity
  8
0
  6
CENTER
 62
     4
100
AcDbLine
 10
-26.7184444260829
 20
31.00000335276122
 30
0.0
 11
-36.25577872610421
 21
31.00000335276122
 31
0.0
  0
LINE
  5
15C
330
78
100
AcDbEntity
  8
0
  6
CENTER
 62
     4
100
AcDbLine
 10
-27.74997669830952
 20
9.399995663762157
 30
0.0
 11
-35.24997658655082
 21
9.399995663762157
 31
0.0
  0
LINE
  5
15D
330
78
100
AcDbEntity
  8
0
  6
CENTER
 62
     4
100
AcDbLine
 10
10.40000900030122
 20
2.899997191131157
 30
0.0
 11
10.40000900030122
 21
-0.898983316138635
 31
0.0
  0
LINE
  5
15E
330
78
100
AcDbEntity
  8
0
  6
Continuous
 62
     0
100
AcDbLine
 10
-33.12633630261124
 20
29.37367188934007
 30
0.0
 11
-29.87365163137782
 21
32.62635656057349
 31
0.0
  0
LINE
  5
15F
330
78
100
AcDbEntity
  8
0
  6
Continuous
 62
     0
100
AcDbLine
 10
7.449989207834165
 20
2.200002637505492
 30
0.0
 11
13.35000971928224
 21
2.200002637505492
 31
0.0
  0
LINE
  5
160
330
78
100
AcDbEntity
  8
0
  6
Continuous
 62
     0
100
AcDbLine
 10
-38.00122699254984
 20
-0.069804962326736
 30
0.0
 11
-37.26545341938768
 21
20.99999442307181
 31
0.0
  0
LINE
  5
161
330
78
100
AcDbEntity
  8
0
  6
Continuous
 62
     0
100
AcDbLine
 10
-30.25001480802874
 20
2.900010006129593
 30
0.0
 11
-30.25001480802874
 21
0.0
 31
0.0
  0
LINE
  5
162
330
78
100
AcDbEntity
  8
0
  6
Continuous
 62
     0
100
AcDbLine
 10
-35.82633918782562
 20
48.50000309199091
 30
0.0
 11
35.82630104085354
 21
48.50000309199091
 31
0.0
  0
LINE
  5
163
330
78
100
AcDbEntity
  8
0
  6
Continuous
 62
     0
100
AcDbLine
 10
-40.0000184774396
 20
0.0
 30
0.0
 11
-30.25001480802874
 21
0.0
 31
0.0
  0
LINE
  5
164
330
78
100
AcDbEntity
  8
0
  6
Continuous
 62
     0
100
AcDbLine
 10
24.99999962747097
 20
34.89999957531691
 30
0.0
 11
-24.99999962747097
 21
34.89999957531691
 31
0.0
  0
LINE
  5
165
330
78
100
AcDbEntity
  8
0
  6
CENTER
 62
     4
100
AcDbLine
 10
0.0
 20
50.66216393318528
 30
0.0
 11
0.0
 21
0.519144527328841
 31
0.0
  0
LINE
  5
166
330
78
100
AcDbEntity
  8
0
  6
Continuous
 62
     0
100
AcDbLine
 10
29.87369295337766
 20
29.37369886332275
 30
0.0
 11
33.12636750936758
 21
32.62637341931268
 31
0.0
  0
LINE
  5
167
330
78
100
AcDbEntity
  8
0
  6
Continuous
 62
     0
100
AcDbLine
 10
-40.90940684024814
 20
3.529417469849138
 30
0.0
 11
-39.90975407229898
 21
3.50365322359815
 31
0.0
  0
LINE
  5
168
330
78
100
AcDbEntity
  8
0
  6
Continuous
 62
     0
100
AcDbLine
 10
2.049980133027134
 20
2.899999575316913
 30
0.0
 11
7.949981570989166
 21
2.899999575316913
 31
0.0
  0
LINE
  5
169
330
78
100
AcDbEntity
  8
0
  6
Continuous
 62
     0
100
AcDbLine
 10
33.12633716363711
 20
29.37368537633149
 30
0.0
 11
29.87365249240369
 21
32.6263700475649
 31
0.0
  0
LINE
  5
16A
330
78
100
AcDbEntity
  8
0
  6
CENTER
 62
     4
100
AcDbLine
 10
31.49997664243017
 20
35.97232288163419
 30
0.0
 11
31.49997664243017
 21
25.96240481790297
 31
0.0
  0
LINE
  5
16B
330
78
100
AcDbEntity
  8
0
  6
CENTER
 62
     4
100
AcDbLine
 10
26.71840627911081
 20
31.00000335276122
 30
0.0
 11
36.2557310423891
 21
31.00000335276122
 31
0.0
  0
LINE
  5
16C
330
78
100
AcDbEntity
  8
0
  6
Continuous
 62
     0
100
AcDbLine
 10
39.99998033046751
 20
0.0
 30
0.0
 11
30.24997666105662
 21
0.0
 31
0.0
  0
LINE
  5
16D
330
78
100
AcDbEntity
  8
0
  6
Continuous
 62
     0
100
AcDbLine
 10
-36.07078498496435
 20
39.01493014372989
 30
0.0
 11
36.07074683799226
 21
39.01493014372989
 31
0.0
  0
LINE
  5
16E
330
78
100
AcDbEntity
  8
0
  6
Continuous
 62
     0
100
AcDbLine
 10
-40.00003525628935
 20
0.000002940754003
 30
0.0
 11
-38.8253627324805
 21
45.57729747597971
 31
0.0
  0
LINE
  5
16F
330
78
100
AcDbEntity
  8
0
  6
Continuous
 62
     0
100
AcDbLine
 10
-37.26545278332452
 20
21.00000350177283
 30
0.0
 11
-30.50001098960621
 21
21.00000350177283
 31
0.0
  0
LINE
  5
170
330
78
100
AcDbEntity
  8
0
  6
CENTER
 62
     4
100
AcDbLine
 10
-16.00000357627863
 20
28.1511946298004
 30
0.0
 11
-16.00000357627863
 21
9.375843862059059
 31
0.0
  0
LINE
  5
171
330
78
100
AcDbEntity
  8
0
  6
Continuous
 62
     0
100
AcDbLine
 10
-42.85720216375647
 20
5.580282526910301
 30
0.0
 11
-42.39343865553698
 21
23.57430688722526
 31
0.0
  0
LINE
  5
172
330
78
100
AcDbEntity
  8
0
  6
Continuous
 62
     0
100
AcDbLine
 10
26.00000342726702
 20
28.90000061839818
 30
0.0
 11
-26.00000342726702
 21
28.90000061839818
 31
0.0
  0
LINE
  5
173
330
78
100
AcDbEntity
  8
0
  6
Continuous
 62
     0
100
AcDbLine
 10
-25.00001870095701
 20
34.99999947845937
 30
0.0
 11
24.99998055398493
 21
34.99999947845937
 31
0.0
  0
LINE
  5
174
330
78
100
AcDbEntity
  8
0
  6
Continuous
 62
     0
100
AcDbLine
 10
39.99998055606734
 20
0.000015664344316
 30
0.0
 11
38.82530809368617
 21
45.57730781617573
 31
0.0
  0
LINE
  5
175
330
78
100
AcDbEntity
  8
0
  6
Continuous
 62
     0
100
AcDbLine
 10
25.00001336785623
 20
32.00004591385783
 30
0.0
 11
30.50001341996399
 21
21.00004580964232
 31
0.0
  0
LINE
  5
176
330
78
100
AcDbEntity
  8
0
  6
Continuous
 62
     0
100
AcDbLine
 10
24.99999962747097
 20
34.99999471008785
 30
0.0
 11
24.99999962747097
 21
31.99999523162849
 31
0.0
  0
LINE
  5
177
330
78
100
AcDbEntity
  8
0
  6
Continuous
 62
     0
100
AcDbLine
 10
37.26540509960941
 20
21.00000350177283
 30
0.0
 11
30.49998237937714
 21
21.00000350177283
 31
0.0
  0
LINE
  5
178
330
78
100
AcDbEntity
  8
0
  6
Continuous
 62
     0
100
AcDbLine
 10
37.74997654929791
 20
2.899999575316913
 30
0.0
 11
-37.75001469627
 21
2.899999575316913
 31
0.0
  0
LINE
  5
179
330
78
100
AcDbEntity
  8
0
  6
Continuous
 62
     0
100
AcDbLine
 10
-37.75008167453567
 20
2.899988573757829
 30
0.0
 11
-37.06826316260239
 21
20.89999734247892
 31
0.0
  0
LINE
  5
17A
330
78
100
AcDbEntity
  8
0
  6
CENTER
 62
     4
100
AcDbLine
 10
-44.74024916372851
 20
14.6318034029715
 30
0.0
 11
-39.6263239657318
 21
14.50000120891503
 31
0.0
  0
LINE
  5
17B
330
78
100
AcDbEntity
  8
0
  6
Continuous
 62
     0
100
AcDbLine
 10
-29.00001482665519
 20
24.00008881091939
 30
0.0
 11
-29.00001482665519
 21
19.89999741464857
 31
0.0
  0
LINE
  5
17C
330
78
100
AcDbEntity
  8
0
  6
Continuous
 62
     0
100
AcDbLine
 10
-29.00001482665516
 20
20.90000121444462
 30
0.0
 11
-37.06819479065842
 21
20.90000121444462
 31
0.0
  0
LINE
  5
17D
330
78
100
AcDbEntity
  8
0
  6
CENTER
 62
     4
100
AcDbLine
 10
31.49997664243017
 20
13.1499956078828
 30
0.0
 11
31.49997664243017
 21
5.64999571964151
 31
0.0
  0
LINE
  5
17E
330
78
100
AcDbEntity
  8
0
  6
CENTER
 62
     4
100
AcDbLine
 10
27.74998623505255
 20
9.399995663762157
 30
0.0
 11
35.24998612329384
 21
9.399995663762157
 31
0.0
  0
LINE
  5
17F
330
78
100
AcDbEntity
  8
0
  6
Continuous
 62
     0
100
AcDbLine
 10
37.74998894193938
 20
2.899987294904911
 30
0.0
 11
37.06817040744477
 21
20.8999966592453
 31
0.0
  0
LINE
  5
180
330
78
100
AcDbEntity
  8
0
  6
Continuous
 62
     0
100
AcDbLine
 10
28.99997667968307
 20
24.0001150369627
 30
0.0
 11
28.99997667968307
 21
19.89999741464857
 31
0.0
  0
LINE
  5
181
330
78
100
AcDbEntity
  8
0
  6
Continuous
 62
     0
100
AcDbLine
 10
28.99997667968307
 20
20.90000121444462
 30
0.0
 11
37.06815664368634
 21
20.90000121444462
 31
0.0
  0
LINE
  5
182
330
78
100
AcDbEntity
  8
0
  6
Continuous
 62
     0
100
AcDbLine
 10
26.00000342726702
 20
19.89999741464857
 30
0.0
 11
35.99998420476936
 21
19.89999741464857
 31
0.0
  0
LINE
  5
183
330
78
100
AcDbEntity
  8
0
  6
Continuous
 62
     0
100
AcDbLine
 10
35.99998420476936
 20
19.89999741464857
 30
0.0
 11
35.99998420476936
 21
2.899997191131157
 31
0.0
  0
LINE
  5
184
330
78
100
AcDbEntity
  8
0
  6
Continuous
 62
     0
100
AcDbLine
 10
15.49998260289456
 20
2.899999575316913
 30
0.0
 11
35.49998230487134
 21
2.899999575316913
 31
0.0
  0
LINE
  5
185
330
78
100
AcDbEntity
  8
0
  6
Continuous
 62
     0
100
AcDbLine
 10
26.00000342726702
 20
30.00006154179481
 30
0.0
 11
26.00000342726702
 21
19.89999741464857
 31
0.0
  0
LINE
  5
186
330
78
100
AcDbEntity
  8
0
  6
Continuous
 62
     0
100
AcDbLine
 10
30.43931713895694
 20
8.339326505268561
 30
0.0
 11
32.56063205610991
 21
10.46064142242154
 31
0.0
  0
LINE
  5
187
330
78
100
AcDbEntity
  8
0
  6
Continuous
 62
     0
100
AcDbLine
 10
32.56065228659689
 20
8.339333248764298
 30
0.0
 11
30.43933062594825
 21
10.46065490941294
 31
0.0
  0
LINE
  5
188
330
78
100
AcDbEntity
  8
0
  6
Continuous
 62
     0
100
AcDbLine
 10
-40.34256569426815
 20
25.52211393190441
 30
0.0
 11
-39.34293199347334
 21
25.49635017707492
 31
0.0
  0
LINE
  5
189
330
78
100
AcDbEntity
  8
0
  6
CENTER
 62
     4
100
AcDbLine
 10
-31.4999766424302
 20
13.1499956078828
 30
0.0
 11
-31.4999766424302
 21
5.64999571964151
 31
0.0
  0
LINE
  5
18A
330
78
100
AcDbEntity
  8
0
  6
Continuous
 62
     0
100
AcDbLine
 10
-32.56065142557104
 20
8.339333248764186
 30
0.0
 11
-30.4393297649224
 21
10.46065490941282
 31
0.0
  0
LINE
  5
18B
330
78
100
AcDbEntity
  8
0
  6
Continuous
 62
     0
100
AcDbLine
 10
9.149989945441632
 20
0.199995037913396
 30
0.0
 11
11.64998990818873
 21
0.199995037913396
 31
0.0
  0
LINE
  5
18C
330
78
100
AcDbEntity
  8
0
  6
Continuous
 62
     0
100
AcDbLine
 10
13.14998607113978
 20
2.200000253319736
 30
0.0
 11
13.14998607113978
 21
1.700000141561029
 31
0.0
  0
LINE
  5
18D
330
78
100
AcDbEntity
  8
0
  6
Continuous
 62
     0
100
AcDbLine
 10
7.649993782490583
 20
2.200000253319736
 30
0.0
 11
7.649993782490583
 21
1.700000141561029
 31
0.0
  0
LINE
  5
18E
330
78
100
AcDbEntity
  8
0
  6
Continuous
 62
     0
100
AcDbLine
 10
-26.00000342726705
 20
30.00015929341079
 30
0.0
 11
-26.00000342726705
 21
19.89999741464857
 31
0.0
  0
LINE
  5
18F
330
78
100
AcDbEntity
  8
0
  6
Continuous
 62
     0
100
AcDbLine
 10
-26.00000342726702
 20
19.89999741464857
 30
0.0
 11
-36.00000327825541
 21
19.89999741464857
 31
0.0
  0
LINE
  5
190
330
78
100
AcDbEntity
  8
0
  6
Continuous
 62
     0
100
AcDbLine
 10
-30.4393095344354
 20
8.339333248764314
 30
0.0
 11
-32.56062445158837
 21
10.46064816591729
 31
0.0
  0
LINE
  5
191
330
78
100
AcDbEntity
  8
0
  6
Continuous
 62
     0
100
AcDbLine
 10
36.00000327825541
 20
19.89999741464857
 30
0.0
 11
36.00000327825541
 21
2.899999575316913
 31
0.0
  0
LINE
  5
192
330
78
100
AcDbEntity
  8
0
  6
Continuous
 62
     0
100
AcDbLine
 10
-36.00000327825543
 20
19.89999741464857
 30
0.0
 11
-36.00000327825543
 21
2.899999575316913
 31
0.0
  0
LINE
  5
193
330
78
100
AcDbEntity
  8
0
  6
CENTER
 62
     4
100
AcDbLine
 10
-14.99999977648258
 20
2.899997191131157
 30
0.0
 11
-14.99999977648258
 21
-0.898983316138635
 31
0.0
  0
LINE
  5
194
330
78
100
AcDbEntity
  8
0
  6
Continuous
 62
     0
100
AcDbLine
 10
-17.95001956894964
 20
2.200002637505492
 30
0.0
 11
-12.04999905750157
 21
2.200002637505492
 31
0.0
  0
LINE
  5
195
330
78
100
AcDbEntity
  8
0
  6
Continuous
 62
     0
100
AcDbLine
 10
-12.05001813098761
 20
2.200000551342955
 30
0.0
 11
-12.05001813098761
 21
2.899997489154376
 31
0.0
  0
LINE
  5
196
330
78
100
AcDbEntity
  8
0
  6
Continuous
 62
     0
100
AcDbLine
 10
-17.95001956894964
 20
2.200000551342955
 30
0.0
 11
-17.95001956894964
 21
2.899997489154376
 31
0.0
  0
LINE
  5
197
330
78
100
AcDbEntity
  8
0
  6
Continuous
 62
     0
100
AcDbLine
 10
-15.00005401160468
 20
2.899991557302352
 30
0.0
 11
-14.59591067875158
 21
2.199994783824271
 31
0.0
  0
LINE
  5
198
330
78
100
AcDbEntity
  8
0
  6
Continuous
 62
     0
100
AcDbLine
 10
-15.40416207397189
 20
2.900025679548341
 30
0.0
 11
-15.00001874111879
 21
2.20002890607026
 31
0.0
  0
LINE
  5
199
330
78
100
AcDbEntity
  8
0
  6
Continuous
 62
     0
100
AcDbLine
 10
-16.25001883134217
 20
0.199995037913396
 30
0.0
 11
-13.75001886859508
 21
0.199995037913396
 31
0.0
  0
LINE
  5
19A
330
78
100
AcDbEntity
  8
0
  6
Continuous
 62
     0
100
AcDbLine
 10
-12.25002270564403
 20
2.200000253319736
 30
0.0
 11
-12.25002270564403
 21
1.700000141561029
 31
0.0
  0
LINE
  5
19B
330
78
100
AcDbEntity
  8
0
  6
Continuous
 62
     0
100
AcDbLine
 10
-17.75001499429322
 20
2.200000253319736
 30
0.0
 11
-17.75001499429322
 21
1.700000141561029
 31
0.0
  0
CIRCLE
  5
19C
330
78
100
AcDbEntity
  8
0
  6
Continuous
 62
     0
100
AcDbCircle
 10
-31.4999766424302
 20
9.399995663762157
 30
0.0
 40
2.750000018626451
  0
CIRCLE
  5
19D
330
78
100
AcDbEntity
  8
0
  6
Continuous
 62
     0
100
AcDbCircle
 10
-16.00000357627863
 20
18.89999957531691
 30
0.0
 40
4.0
  0
CIRCLE
  5
19E
330
78
100
AcDbEntity
  8
0
  6
Continuous
 62
     0
100
AcDbCircle
 10
-16.00000357627863
 20
18.89999957531691
 30
0.0
 40
8.0
  0
ARC
  5
19F
330
78
100
AcDbEntity
  8
0
  6
Continuous
 62
     0
100
AcDbCircle
 10
35.82626289388145
 20
45.50002983957484
 30
0.0
 40
3.000000968575463
100
AcDbArc
 50
1.47634047989979
 51
89.99987273088394
  0
ARC
  5
1A0
330
78
100
AcDbEntity
  8
0
  6
Continuous
 62
     0
100
AcDbCircle
 10
36.07070869102017
 20
36.01493781782779
 30
0.0
 40
3.000000968575463
100
AcDbArc
 50
1.476358409146361
 51
90.00014593845074
  0
ARC
  5
1A1
330
78
100
AcDbEntity
  8
0
  6
Continuous
 62
     0
100
AcDbCircle
 10
-35.82630104085356
 20
45.50002983957484
 30
0.0
 40
3.000000968575463
100
AcDbArc
 50
89.99998201391067
 51
178.5236596198581
  0
ARC
  5
1A2
330
78
100
AcDbEntity
  8
0
  6
Continuous
 62
     0
100
AcDbCircle
 10
-36.07074683799229
 20
36.01493781782779
 30
0.0
 40
3.000000968575463
100
AcDbArc
 50
89.99987273088394
 51
178.5236596198581
  0
CIRCLE
  5
1A3
330
78
100
AcDbEntity
  8
0
  6
Continuous
 62
     0
100
AcDbCircle
 10
-31.50001478940229
 20
31.00000335276122
 30
0.0
 40
4.0
  0
CIRCLE
  5
1A4
330
78
100
AcDbEntity
  8
0
  6
Continuous
 62
     0
100
AcDbCircle
 10
31.49997664243017
 20
31.00000335276122
 30
0.0
 40
4.0
  0
CIRCLE
  5
1A5
330
78
100
AcDbEntity
  8
0
  6
Continuous
 62
     0
100
AcDbCircle
 10
31.49998617917319
 20
9.399995663762157
 30
0.0
 40
2.750000018626451
  0
ARC
  5
1A6
330
78
100
AcDbEntity
  8
0
  6
Continuous
 62
     0
100
AcDbCircle
 10
11.65000898167477
 20
1.700000737607468
 30
0.0
 40
1.500000037252902
100
AcDbArc
 50
270.0000179860893
 51
0.0
  0
ARC
  5
1A7
330
78
100
AcDbEntity
  8
0
  6
Continuous
 62
     0
100
AcDbCircle
 10
9.150009018927676
 20
1.700000737607468
 30
0.0
 40
1.500000037252902
100
AcDbArc
 50
179.9999813306653
 51
270.0000179860893
  0
ARC
  5
1A8
330
78
100
AcDbEntity
  8
0
  6
Continuous
 62
     0
100
AcDbCircle
 10
-40.85786758575043
 20
5.528753317464094
 30
0.0
 40
2.0
100
AcDbArc
 50
178.5236459594798
 51
268.5233957469586
  0
ARC
  5
1A9
330
78
100
AcDbEntity
  8
0
  6
Continuous
 62
     0
100
AcDbCircle
 10
-40.39409577259281
 20
23.52277720685635
 30
0.0
 40
2.0
100
AcDbArc
 50
88.52342488894813
 51
178.5236459594798
  0
ARC
  5
1AA
330
78
100
AcDbEntity
  8
0
  6
Continuous
 62
     0
100
AcDbCircle
 10
-16.24999975785613
 20
1.700000737607468
 30
0.0
 40
1.500000037252902
100
AcDbArc
 50
179.9999813306653
 51
270.0000179860893
  0
ARC
  5
1AB
330
78
100
AcDbEntity
  8
0
  6
Continuous
 62
     0
100
AcDbCircle
 10
-13.74999979510903
 20
1.700000737607468
 30
0.0
 40
1.500000037252902
100
AcDbArc
 50
270.0000179860893
 51
0.0
  0
MTEXT
  5
1AC
330
78
100
AcDbEntity
  8
0
 62
     0
100
AcDbMText
 10
-16.04682881381824
 20
43.55142186831568
 30
0.0
 40
0.5
 41
0.0
 71
     7
 72
     1
  1
{\W0.833333;BN-1411}
 73
     1
 44
1.0
  0
ENDBLK
  5
7A
330
78
100
AcDbEntity
  8
0
100
AcDbBlockEnd
  0
BLOCK
  5
7C
330
7B
100
AcDbEntity
  8
0
100
AcDbBlockBegin
  2
DTL0004
 70
     0
 10
0.0
 20
0.0
 30
0.0
  3
DTL0004
  1

  0
POINT
  5
1AD
330
7B
100
AcDbEntity
  8
0
 62
     0
100
AcDbPoint
 10
0.0
 20
0.0
 30
0.0
  0
LINE
  5
1AE
330
7B
100
AcDbEntity
  8
0
  6
CENTER
 62
     4
100
AcDbLine
 10
0.0
 20
51.67165679228817
 30
0.0
 11
0.0
 21
-2.352943385348568
 31
0.0
  0
LINE
  5
1AF
330
7B
100
AcDbEntity
  8
0
  6
Continuous
 62
     0
100
AcDbLine
 10
-39.99994699110623
 20
0.0
 30
0.0
 11
-30.25003388151475
 21
0.0
 31
0.0
  0
LINE
  5
1B0
330
7B
100
AcDbEntity
  8
0
  6
Continuous
 62
     0
100
AcDbLine
 10
-35.82632011433959
 20
48.50000309199091
 30
0.0
 11
35.82632011433958
 21
48.50000309199091
 31
0.0
  0
LINE
  5
1B1
330
7B
100
AcDbEntity
  8
0
  6
Continuous
 62
     0
100
AcDbLine
 10
-30.2500052712857
 20
3.000001862645122
 30
0.0
 11
30.24999573454267
 21
3.000001862645122
 31
0.0
  0
LINE
  5
1B2
330
7B
100
AcDbEntity
  8
0
  6
Continuous
 62
     0
100
AcDbLine
 10
30.24999573454267
 20
0.0
 30
0.0
 11
40.00005022094349
 21
0.0
 31
0.0
  0
LINE
  5
1B3
330
7B
100
AcDbEntity
  8
0
  6
Continuous
 62
     0
100
AcDbLine
 10
-36.50000517815344
 20
16.50001501291968
 30
0.0
 11
-7.500018961727335
 21
16.50001501291968
 31
0.0
  0
LINE
  5
1B4
330
7B
100
AcDbEntity
  8
0
  6
Continuous
 62
     0
100
AcDbLine
 10
-36.00895262975713
 20
45.08447579913622
 30
0.0
 11
-34.58428331338938
 21
45.08447579913622
 31
0.0
  0
LINE
  5
1B5
330
7B
100
AcDbEntity
  8
0
  6
Continuous
 62
     0
100
AcDbLine
 10
-36.00002315137195
 20
45.60424736731876
 30
0.0
 11
-34.61138673705777
 21
45.60424736731876
 31
0.0
  0
LINE
  5
1B6
330
7B
100
AcDbEntity
  8
0
  6
Continuous
 62
     0
100
AcDbLine
 10
-36.49972800084242
 20
16.51717620437878
 30
0.0
 11
-36.00002315137196
 21
45.60424736731876
 31
0.0
  0
LINE
  5
1B7
330
7B
100
AcDbEntity
  8
0
  6
Continuous
 62
     0
100
AcDbLine
 10
36.00004507330394
 20
45.60424736731876
 30
0.0
 11
36.49974988394886
 21
16.51717846435573
 31
0.0
  0
LINE
  5
1B8
330
7B
100
AcDbEntity
  8
0
  6
Continuous
 62
     0
100
AcDbLine
 10
-20.00000923871981
 20
15.49999213963759
 30
0.0
 11
19.99999970197678
 21
15.49999213963759
 31
0.0
  0
LINE
  5
1B9
330
7B
100
AcDbEntity
  8
0
  6
Continuous
 62
     0
100
AcDbLine
 10
38.82537636590201
 20
45.57734618705217
 30
0.0
 11
40.00005022094349
 21
0.0
 31
0.0
  0
LINE
  5
1BA
330
7B
100
AcDbEntity
  8
0
  6
Continuous
 62
     0
100
AcDbLine
 10
-31.61319685558682
 20
48.50000309199091
 30
0.0
 11
31.61315870861472
 21
48.50000309199091
 31
0.0
  0
LINE
  5
1BB
330
7B
100
AcDbEntity
  8
0
  6
Continuous
 62
     0
100
AcDbLine
 10
35.39998955428615
 20
35.50000853091466
 30
0.0
 11
35.39998955428615
 21
23.50011313706468
 31
0.0
  0
LINE
  5
1BC
330
7B
100
AcDbEntity
  8
0
  6
Continuous
 62
     0
100
AcDbLine
 10
31.99998807907122
 20
37.50942174331215
 30
0.0
 11
31.99998807907122
 21
23.50011313706468
 31
0.0
  0
LINE
  5
1BD
330
7B
100
AcDbEntity
  8
0
  6
Continuous
 62
     0
100
AcDbLine
 10
31.99998807907122
 20
23.50009883195015
 30
0.0
 11
35.39998955428615
 21
23.50009883195015
 31
0.0
  0
LINE
  5
1BE
330
7B
100
AcDbEntity
  8
0
  6
Continuous
 62
     0
100
AcDbLine
 10
34.61098430462381
 20
45.61532333942172
 30
0.0
 11
35.00003455547139
 21
35.50001689280521
 31
0.0
  0
LINE
  5
1BF
330
7B
100
AcDbEntity
  8
0
  6
Continuous
 62
     0
100
AcDbLine
 10
34.99999947845936
 20
35.50001091510041
 30
0.0
 11
35.39998955428615
 21
35.50001091510041
 31
0.0
  0
LINE
  5
1C0
330
7B
100
AcDbEntity
  8
0
  6
Continuous
 62
     0
100
AcDbLine
 10
-35.40002770125824
 20
35.50000853091466
 30
0.0
 11
-35.40002770125824
 21
23.50011313706468
 31
0.0
  0
LINE
  5
1C1
330
7B
100
AcDbEntity
  8
0
  6
Continuous
 62
     0
100
AcDbLine
 10
-31.99998807907122
 20
37.50942174331215
 30
0.0
 11
-31.99998807907122
 21
23.50011313706468
 31
0.0
  0
LINE
  5
1C2
330
7B
100
AcDbEntity
  8
0
  6
Continuous
 62
     0
100
AcDbLine
 10
-32.00002622604332
 20
23.50009883195015
 30
0.0
 11
-35.40001816451523
 21
23.50009883195015
 31
0.0
  0
LINE
  5
1C3
330
7B
100
AcDbEntity
  8
0
  6
Continuous
 62
     0
100
AcDbLine
 10
-34.61092959781465
 20
45.61530933165849
 30
0.0
 11
-34.99997948213542
 21
35.50001241473902
 31
0.0
  0
LINE
  5
1C4
330
7B
100
AcDbEntity
  8
0
  6
Continuous
 62
     0
100
AcDbLine
 10
-35.00003762543146
 20
35.50001091510041
 30
0.0
 11
-35.40001816451523
 21
35.50001091510041
 31
0.0
  0
LINE
  5
1C5
330
7B
100
AcDbEntity
  8
0
  6
Continuous
 62
     0
100
AcDbLine
 10
-35.40001816451523
 20
28.76642184307543
 30
0.0
 11
-32.00002622604332
 21
28.76642184307543
 31
0.0
  0
LINE
  5
1C6
330
7B
100
AcDbEntity
  8
0
  6
Continuous
 62
     0
100
AcDbLine
 10
-31.76705313076
 20
44.50000696629275
 30
0.0
 11
31.76700544704488
 21
44.50000696629275
 31
0.0
  0
LINE
  5
1C7
330
7B
100
AcDbEntity
  8
0
  6
Continuous
 62
     0
100
AcDbLine
 10
-35.40001816451523
 20
25.59020957961366
 30
0.0
 11
-32.00002622604332
 21
25.59020957961366
 31
0.0
  0
LINE
  5
1C8
330
7B
100
AcDbEntity
  8
0
  6
CENTER
 62
     4
100
AcDbLine
 10
-40.33275544147558
 20
29.50000718981017
 30
0.0
 11
-30.04941895530494
 21
29.50000718981017
 31
0.0
  0
LINE
  5
1C9
330
7B
100
AcDbEntity
  8
0
  6
Continuous
 62
     0
100
AcDbLine
 10
36.24233191844326
 20
31.500007636845
 30
0.0
 11
35.40002770125824
 21
31.500007636845
 31
0.0
  0
LINE
  5
1CA
330
7B
100
AcDbEntity
  8
0
  6
Continuous
 62
     0
100
AcDbLine
 10
31.99998807907122
 20
28.76642184307543
 30
0.0
 11
35.39998955428615
 21
28.76642184307543
 31
0.0
  0
LINE
  5
1CB
330
7B
100
AcDbEntity
  8
0
  6
Continuous
 62
     0
100
AcDbLine
 10
31.99998807907122
 20
25.59020957961366
 30
0.0
 11
35.39998955428615
 21
25.59020957961366
 31
0.0
  0
LINE
  5
1CC
330
7B
100
AcDbEntity
  8
0
  6
Continuous
 62
     0
100
AcDbLine
 10
34.63134714020271
 20
45.08447579913622
 30
0.0
 11
36.00897455168912
 21
45.08447579913622
 31
0.0
  0
LINE
  5
1CD
330
7B
100
AcDbEntity
  8
0
  6
Continuous
 62
     0
100
AcDbLine
 10
34.61135812682869
 20
45.60424736731876
 30
0.0
 11
36.00004507330394
 21
45.60424736731876
 31
0.0
  0
LINE
  5
1CE
330
7B
100
AcDbEntity
  8
0
  6
Continuous
 62
     0
100
AcDbLine
 10
-32.00002622604332
 20
37.50942174331215
 30
0.0
 11
31.99998807907122
 21
37.50942174331215
 31
0.0
  0
LINE
  5
1CF
330
7B
100
AcDbEntity
  8
0
  6
CENTER
 62
     4
100
AcDbLine
 10
21.99998822808283
 20
37.50942174331215
 30
0.0
 11
21.99998822808283
 21
16.50001501291968
 31
0.0
  0
LINE
  5
1D0
330
7B
100
AcDbEntity
  8
0
  6
CENTER
 62
     4
100
AcDbLine
 10
16.82092885476251
 20
37.50941948954941
 30
0.0
 11
15.21624715112851
 21
15.49999038116196
 31
0.0
  0
LINE
  5
1D1
330
7B
100
AcDbEntity
  8
0
  6
CENTER
 62
     4
100
AcDbLine
 10
28.70986656153754
 20
16.50000642551486
 30
0.0
 11
27.1788688925368
 21
37.50941485237975
 31
0.0
  0
LINE
  5
1D2
330
7B
100
AcDbEntity
  8
0
  6
PHANTOM
 62
     0
100
AcDbLine
 10
17.42341498105429
 20
37.5094255353268
 30
0.0
 11
15.81637665778006
 21
15.49999386326134
 31
0.0
  0
LINE
  5
1D3
330
7B
100
AcDbEntity
  8
0
  6
PHANTOM
 62
     0
100
AcDbLine
 10
16.2208236154057
 20
37.50941998908847
 30
0.0
 11
14.61378529213147
 21
15.49998831702301
 31
0.0
  0
LINE
  5
1D4
330
7B
100
AcDbEntity
  8
0
  6
PHANTOM
 62
     0
100
AcDbLine
 10
28.11068739400069
 20
16.50001963001124
 30
0.0
 11
26.57666687789581
 21
37.50942509581692
 31
0.0
  0
LINE
  5
1D5
330
7B
100
AcDbEntity
  8
0
  6
PHANTOM
 62
     0
100
AcDbLine
 10
29.31325956318307
 20
16.5000150726585
 30
0.0
 11
27.77923887345694
 21
37.50942291631981
 31
0.0
  0
LINE
  5
1D6
330
7B
100
AcDbEntity
  8
0
  6
Continuous
 62
     0
100
AcDbLine
 10
-7.500018961727335
 20
15.49999213963759
 30
0.0
 11
7.499999888241291
 21
15.49999213963759
 31
0.0
  0
LINE
  5
1D7
330
7B
100
AcDbEntity
  8
0
  6
Continuous
 62
     0
100
AcDbLine
 10
-7.500018961727335
 20
15.500007636845
 30
0.0
 11
-7.500018961727335
 21
17.00000737607468
 31
0.0
  0
LINE
  5
1D8
330
7B
100
AcDbEntity
  8
0
  6
Continuous
 62
     0
100
AcDbLine
 10
7.499999888241291
 20
15.500007636845
 30
0.0
 11
7.499999888241291
 21
17.00000737607468
 31
0.0
  0
LINE
  5
1D9
330
7B
100
AcDbEntity
  8
0
  6
Continuous
 62
     0
100
AcDbLine
 10
7.483310587952872
 20
16.50001501291968
 30
0.0
 11
36.50005286186854
 21
16.50001501291968
 31
0.0
  0
LINE
  5
1DA
330
7B
100
AcDbEntity
  8
0
  6
Continuous
 62
     0
100
AcDbLine
 10
-34.88465257160884
 20
38.49998416751647
 30
0.0
 11
34.88460488789372
 21
38.49998416751647
 31
0.0
  0
LINE
  5
1DB
330
7B
100
AcDbEntity
  8
0
  6
Continuous
 62
     0
100
AcDbLine
 10
-30.25003388151475
 20
3.00000782310951
 30
0.0
 11
-30.25003388151475
 21
0.0
 31
0.0
  0
LINE
  5
1DC
330
7B
100
AcDbEntity
  8
0
  6
Continuous
 62
     0
100
AcDbLine
 10
30.24999573454267
 20
3.00000782310951
 30
0.0
 11
30.24999573454267
 21
0.0
 31
0.0
  0
LINE
  5
1DD
330
7B
100
AcDbEntity
  8
0
  6
Continuous
 62
     0
100
AcDbLine
 10
-38.82527379599048
 20
45.57732058193337
 30
0.0
 11
-39.99994699110623
 21
0.0
 31
0.0
  0
LINE
  5
1DE
330
7B
100
AcDbEntity
  8
0
  6
Continuous
 62
     0
100
AcDbLine
 10
36.40556281200702
 20
22.00000730156887
 30
0.0
 11
39.43298281084026
 21
22.00000730156887
 31
0.0
  0
LINE
  5
1DF
330
7B
100
AcDbEntity
  8
0
  6
Continuous
 62
     0
100
AcDbLine
 10
-39.43299234758329
 20
22.00000730156887
 30
0.0
 11
-36.40549605480588
 21
22.00000730156887
 31
0.0
  0
LINE
  5
1E0
330
7B
100
AcDbEntity
  8
0
  6
Continuous
 62
     0
100
AcDbLine
 10
36.14786094206778
 20
37.00000707805146
 30
0.0
 11
39.04638232221629
 21
37.00000707805146
 31
0.0
  0
LINE
  5
1E1
330
7B
100
AcDbEntity
  8
0
  6
Continuous
 62
     0
100
AcDbLine
 10
-39.04639185895932
 20
37.00000707805146
 30
0.0
 11
-36.14780372160966
 21
37.00000707805146
 31
0.0
  0
LINE
  5
1E2
330
7B
100
AcDbEntity
  8
0
  6
Continuous
 62
     0
100
AcDbLine
 10
-31.23964263141687
 20
31.500007636845
 30
0.0
 11
-31.23964263141687
 21
27.50000674277534
 31
0.0
  0
LINE
  5
1E3
330
7B
100
AcDbEntity
  8
0
  6
Continuous
 62
     0
100
AcDbLine
 10
-36.31104415191645
 20
27.50000674277534
 30
0.0
 11
-35.40002770125825
 21
27.50000674277534
 31
0.0
  0
LINE
  5
1E4
330
7B
100
AcDbEntity
  8
0
  6
Continuous
 62
     0
100
AcDbLine
 10
-36.24233191844327
 20
31.500007636845
 30
0.0
 11
-35.40002770125825
 21
31.500007636845
 31
0.0
  0
LINE
  5
1E5
330
7B
100
AcDbEntity
  8
0
  6
Continuous
 62
     0
100
AcDbLine
 10
-36.24233191844327
 20
31.10000802427518
 30
0.0
 11
-35.40002770125825
 21
31.10000802427518
 31
0.0
  0
LINE
  5
1E6
330
7B
100
AcDbEntity
  8
0
  6
Continuous
 62
     0
100
AcDbLine
 10
-36.31104415191645
 20
27.90000635534516
 30
0.0
 11
-35.40002770125825
 21
27.90000635534516
 31
0.0
  0
LINE
  5
1E7
330
7B
100
AcDbEntity
  8
0
  6
Continuous
 62
     0
100
AcDbLine
 10
-31.99998807907123
 20
31.500007636845
 30
0.0
 11
-31.23964263141688
 21
31.500007636845
 31
0.0
  0
LINE
  5
1E8
330
7B
100
AcDbEntity
  8
0
  6
Continuous
 62
     0
100
AcDbLine
 10
-31.99998807907123
 20
31.10000802427518
 30
0.0
 11
-31.23964263141688
 21
31.10000802427518
 31
0.0
  0
LINE
  5
1E9
330
7B
100
AcDbEntity
  8
0
  6
Continuous
 62
     0
100
AcDbLine
 10
-31.99998807907123
 20
27.90000635534516
 30
0.0
 11
-31.23964263141688
 21
27.90000635534516
 31
0.0
  0
LINE
  5
1EA
330
7B
100
AcDbEntity
  8
0
  6
Continuous
 62
     0
100
AcDbLine
 10
-31.99998807907123
 20
27.50000674277534
 30
0.0
 11
-31.23964263141688
 21
27.50000674277534
 31
0.0
  0
LINE
  5
1EB
330
7B
100
AcDbEntity
  8
0
  6
Continuous
 62
     0
100
AcDbLine
 10
36.24233191844326
 20
31.10000802427518
 30
0.0
 11
35.40002770125824
 21
31.10000802427518
 31
0.0
  0
LINE
  5
1EC
330
7B
100
AcDbEntity
  8
0
  6
CENTER
 62
     4
100
AcDbLine
 10
40.33275544147557
 20
29.50000718981017
 30
0.0
 11
30.04941895530493
 21
29.50000718981017
 31
0.0
  0
LINE
  5
1ED
330
7B
100
AcDbEntity
  8
0
  6
Continuous
 62
     0
100
AcDbLine
 10
31.99998807907122
 20
31.10000802427518
 30
0.0
 11
31.23964263141687
 21
31.10000802427518
 31
0.0
  0
LINE
  5
1EE
330
7B
100
AcDbEntity
  8
0
  6
Continuous
 62
     0
100
AcDbLine
 10
31.99998807907122
 20
31.500007636845
 30
0.0
 11
31.23964263141687
 21
31.500007636845
 31
0.0
  0
LINE
  5
1EF
330
7B
100
AcDbEntity
  8
0
  6
Continuous
 62
     0
100
AcDbLine
 10
31.23964263141687
 20
31.500007636845
 30
0.0
 11
31.23964263141687
 21
27.50000674277534
 31
0.0
  0
LINE
  5
1F0
330
7B
100
AcDbEntity
  8
0
  6
Continuous
 62
     0
100
AcDbLine
 10
31.99998807907122
 20
27.90000635534516
 30
0.0
 11
31.23964263141687
 21
27.90000635534516
 31
0.0
  0
LINE
  5
1F1
330
7B
100
AcDbEntity
  8
0
  6
Continuous
 62
     0
100
AcDbLine
 10
31.99998807907122
 20
27.50000674277534
 30
0.0
 11
31.23964263141687
 21
27.50000674277534
 31
0.0
  0
LINE
  5
1F2
330
7B
100
AcDbEntity
  8
0
  6
Continuous
 62
     0
100
AcDbLine
 10
36.31103461517341
 20
27.90000635534516
 30
0.0
 11
35.40002770125824
 21
27.90000635534516
 31
0.0
  0
LINE
  5
1F3
330
7B
100
AcDbEntity
  8
0
  6
Continuous
 62
     0
100
AcDbLine
 10
36.31103461517341
 20
27.50000674277534
 30
0.0
 11
35.40002770125824
 21
27.50000674277534
 31
0.0
  0
LINE
  5
1F4
330
7B
100
AcDbEntity
  8
0
  6
Continuous
 62
     0
100
AcDbLine
 10
12.25002270564403
 20
2.200000253319736
 30
0.0
 11
12.25002270564403
 21
1.700000141561029
 31
0.0
  0
LINE
  5
1F5
330
7B
100
AcDbEntity
  8
0
  6
CENTER
 62
     4
100
AcDbLine
 10
-10.40000900030122
 20
2.899997191131157
 30
0.0
 11
-10.40000900030122
 21
-0.898983316138635
 31
0.0
  0
LINE
  5
1F6
330
7B
100
AcDbEntity
  8
0
  6
Continuous
 62
     0
100
AcDbLine
 10
-7.449989207834165
 20
2.200002637505492
 30
0.0
 11
-13.35000971928224
 21
2.200002637505492
 31
0.0
  0
LINE
  5
1F7
330
7B
100
AcDbEntity
  8
0
  6
Continuous
 62
     0
100
AcDbLine
 10
-13.3499906457962
 20
2.200000551342955
 30
0.0
 11
-13.3499906457962
 21
3.000001862645122
 31
0.0
  0
LINE
  5
1F8
330
7B
100
AcDbEntity
  8
0
  6
Continuous
 62
     0
100
AcDbLine
 10
-7.449989207834165
 20
2.200000551342955
 30
0.0
 11
-7.449989207834165
 21
3.000001862645122
 31
0.0
  0
LINE
  5
1F9
330
7B
100
AcDbEntity
  8
0
  6
Continuous
 62
     0
100
AcDbLine
 10
-10.34221441232708
 20
3.000001862645122
 30
0.0
 11
-10.80410075631475
 21
2.199991261895023
 31
0.0
  0
LINE
  5
1FA
330
7B
100
AcDbEntity
  8
0
  6
Continuous
 62
     0
100
AcDbLine
 10
-9.938126050448053
 20
3.000001862645121
 30
0.0
 11
-10.39999030976168
 21
2.200029513671836
 31
0.0
  0
LINE
  5
1FB
330
7B
100
AcDbEntity
  8
0
  6
Continuous
 62
     0
100
AcDbLine
 10
-9.149989945441632
 20
0.199995037913396
 30
0.0
 11
-11.64998990818873
 21
0.199995037913396
 31
0.0
  0
LINE
  5
1FC
330
7B
100
AcDbEntity
  8
0
  6
Continuous
 62
     0
100
AcDbLine
 10
-13.14998607113978
 20
2.200000253319736
 30
0.0
 11
-13.14998607113978
 21
1.700000141561029
 31
0.0
  0
LINE
  5
1FD
330
7B
100
AcDbEntity
  8
0
  6
Continuous
 62
     0
100
AcDbLine
 10
-7.649993782490583
 20
2.200000253319736
 30
0.0
 11
-7.649993782490583
 21
1.700000141561029
 31
0.0
  0
LINE
  5
1FE
330
7B
100
AcDbEntity
  8
0
  6
CENTER
 62
     4
100
AcDbLine
 10
14.99999977648258
 20
2.899997191131157
 30
0.0
 11
14.99999977648258
 21
-0.898983316138635
 31
0.0
  0
LINE
  5
1FF
330
7B
100
AcDbEntity
  8
0
  6
Continuous
 62
     0
100
AcDbLine
 10
17.75001499429322
 20
2.200000253319736
 30
0.0
 11
17.75001499429322
 21
1.700000141561029
 31
0.0
  0
LINE
  5
200
330
7B
100
AcDbEntity
  8
0
  6
Continuous
 62
     0
100
AcDbLine
 10
17.95001956894964
 20
2.200002637505492
 30
0.0
 11
12.04999905750157
 21
2.200002637505492
 31
0.0
  0
LINE
  5
201
330
7B
100
AcDbEntity
  8
0
  6
Continuous
 62
     0
100
AcDbLine
 10
12.05001813098761
 20
2.200000551342955
 30
0.0
 11
12.05001813098761
 21
3.000001862645122
 31
0.0
  0
LINE
  5
202
330
7B
100
AcDbEntity
  8
0
  6
Continuous
 62
     0
100
AcDbLine
 10
17.95001956894964
 20
2.200000551342955
 30
0.0
 11
17.95001956894964
 21
3.000001862645122
 31
0.0
  0
LINE
  5
203
330
7B
100
AcDbEntity
  8
0
  6
Continuous
 62
     0
100
AcDbLine
 10
15.05779223159973
 20
3.000001862645123
 30
0.0
 11
14.59590871953363
 21
2.199996166926971
 31
0.0
  0
LINE
  5
204
330
7B
100
AcDbEntity
  8
0
  6
Continuous
 62
     0
100
AcDbLine
 10
15.46188059347866
 20
3.000001862645121
 30
0.0
 11
15.00001678190083
 21
2.200030289172968
 31
0.0
  0
LINE
  5
205
330
7B
100
AcDbEntity
  8
0
  6
Continuous
 62
     0
100
AcDbLine
 10
16.25001883134217
 20
0.199995037913396
 30
0.0
 11
13.75001886859508
 21
0.199995037913396
 31
0.0
  0
LINE
  5
206
330
7B
100
AcDbEntity
  8
0
  6
Continuous
 62
     0
100
AcDbLine
 10
42.85721704108861
 20
5.580282974248342
 30
0.0
 11
42.3934535175122
 21
23.57430793041187
 31
0.0
  0
LINE
  5
207
330
7B
100
AcDbEntity
  8
0
  6
CENTER
 62
     4
100
AcDbLine
 10
44.7402640564176
 20
14.63180325446097
 30
0.0
 11
39.62633885842089
 21
14.50000106040451
 31
0.0
  0
LINE
  5
208
330
7B
100
AcDbEntity
  8
0
  6
Continuous
 62
     0
100
AcDbLine
 10
40.90940265222559
 20
3.529417355939677
 30
0.0
 11
39.90976895143078
 21
3.503653601110187
 31
0.0
  0
LINE
  5
209
330
7B
100
AcDbEntity
  8
0
  6
Continuous
 62
     0
100
AcDbLine
 10
40.34258055624339
 20
25.52211497509102
 30
0.0
 11
39.34294685544857
 21
25.49635122026153
 31
0.0
  0
ARC
  5
20A
330
7B
100
AcDbEntity
  8
0
  6
Continuous
 62
     0
100
AcDbCircle
 10
21.00000350177282
 20
15.49999213963759
 30
0.0
 40
1.0
100
AcDbArc
 50
89.99998201391067
 51
180.0000186693347
  0
ARC
  5
20B
330
7B
100
AcDbEntity
  8
0
  6
Continuous
 62
     0
100
AcDbCircle
 10
-21.00002257525887
 20
15.49999213963759
 30
0.0
 40
1.0
100
AcDbArc
 50
0.0
 51
89.99998201391067
  0
ARC
  5
20C
330
7B
100
AcDbEntity
  8
0
  6
Continuous
 62
     0
100
AcDbCircle
 10
-35.82628196736749
 20
45.50002983957484
 30
0.0
 40
3.000000968575463
100
AcDbArc
 50
89.9999273723973
 51
178.5236049783447
  0
ARC
  5
20D
330
7B
100
AcDbEntity
  8
0
  6
Continuous
 62
     0
100
AcDbCircle
 10
35.82632011433958
 20
45.50002983957484
 30
0.0
 40
3.000000968575463
100
AcDbArc
 50
1.476367373769647
 51
89.9999273723973
  0
ARC
  5
20E
330
7B
100
AcDbEntity
  8
0
  6
Continuous
 62
     0
100
AcDbCircle
 10
31.61315870861472
 20
45.5000107660888
 30
0.0
 40
3.000000074505805
100
AcDbArc
 50
2.202599830432535
 51
90.00003665542401
  0
ARC
  5
20F
330
7B
100
AcDbEntity
  8
0
  6
Continuous
 62
     0
100
AcDbCircle
 10
-31.61317778210076
 20
45.5000107660888
 30
0.0
 40
3.000000074505805
100
AcDbArc
 50
89.99998201391067
 51
177.797419265789
  0
ARC
  5
210
330
7B
100
AcDbEntity
  8
0
  6
Continuous
 62
     0
100
AcDbCircle
 10
0.0
 20
17.00000737607468
 30
0.0
 40
7.499999888241293
100
AcDbArc
 50
0.000017986089037
 51
179.9999640278213
  0
ARC
  5
211
330
7B
100
AcDbEntity
  8
0
  6
Continuous
 62
     0
100
AcDbCircle
 10
-31.76706266750301
 20
41.50001464039065
 30
0.0
 40
3.000000074505805
100
AcDbArc
 50
90.00009129693737
 51
177.797419265789
  0
ARC
  5
212
330
7B
100
AcDbEntity
  8
0
  6
Continuous
 62
     0
100
AcDbCircle
 10
31.76700544704488
 20
41.50001464039065
 30
0.0
 40
3.000000074505805
100
AcDbArc
 50
2.202597055668185
 51
89.99998201391067
  0
ARC
  5
213
330
7B
100
AcDbEntity
  8
0
  6
Continuous
 62
     0
100
AcDbCircle
 10
16.24999975785613
 20
1.700000737607468
 30
0.0
 40
1.500000037252902
100
AcDbArc
 50
269.999963344576
 51
0.0
  0
ARC
  5
214
330
7B
100
AcDbEntity
  8
0
  6
Continuous
 62
     0
100
AcDbCircle
 10
-11.65000898167477
 20
1.700000737607468
 30
0.0
 40
1.500000037252902
100
AcDbArc
 50
179.9999640278213
 51
269.999946041732
  0
ARC
  5
215
330
7B
100
AcDbEntity
  8
0
  6
Continuous
 62
     0
100
AcDbCircle
 10
13.74999979510903
 20
1.700000737607468
 30
0.0
 40
1.500000037252902
100
AcDbArc
 50
179.9999640278213
 51
269.999946041732
  0
ARC
  5
216
330
7B
100
AcDbEntity
  8
0
  6
Continuous
 62
     0
100
AcDbCircle
 10
-9.150009018927676
 20
1.700000737607468
 30
0.0
 40
1.500000037252902
100
AcDbArc
 50
269.999963344576
 51
0.0
  0
ARC
  5
217
330
7B
100
AcDbEntity
  8
0
  6
Continuous
 62
     0
100
AcDbCircle
 10
40.8578675857504
 20
5.528753317464094
 30
0.0
 40
2.0
100
AcDbArc
 50
271.4765682808627
 51
1.476318068341576
  0
ARC
  5
218
330
7B
100
AcDbEntity
  8
0
  6
Continuous
 62
     0
100
AcDbCircle
 10
40.39409577259278
 20
23.52277720685635
 30
0.0
 40
2.0
100
AcDbArc
 50
1.476318068341576
 51
91.47653913887318
  0
MTEXT
  5
219
330
7B
100
AcDbEntity
  8
0
 62
     0
100
AcDbMText
 10
-32.42390922743023
 20
10.56428698531592
 30
0.0
 40
0.5
 41
0.0
 71
     7
 72
     1
  1
{\W0.833333;BN-1411}
 73
     1
 44
1.0
  0
ENDBLK
  5
7D
330
7B
100
AcDbEntity
  8
0
100
AcDbBlockEnd
  0
BLOCK
  5
7F
330
7E
100
AcDbEntity
  8
0
100
AcDbBlockBegin
  2
DTL0005
 70
     0
 10
0.0
 20
0.0
 30
0.0
  3
DTL0005
  1

  0
POINT
  5
21A
330
7E
100
AcDbEntity
  8
0
 62
     0
100
AcDbPoint
 10
0.0
 20
0.0
 30
0.0
  0
LINE
  5
21B
330
7E
100
AcDbEntity
  8
0
  6
Continuous
 62
     0
100
AcDbLine
 10
-13.40282150618439
 20
0.853074670892282
 30
0.0
 11
0.000021114889536
 21
19.99999210396905
 31
0.0
  0
LINE
  5
21C
330
7E
100
AcDbEntity
  8
0
  6
Continuous
 62
     0
100
AcDbLine
 10
-15.04131294725369
 20
0.0
 30
0.0
 11
-49.99999925494194
 21
0.0
 31
0.0
  0
LINE
  5
21D
330
7E
100
AcDbEntity
  8
0
  6
Continuous
 62
     0
100
AcDbLine
 10
-54.99999918043613
 20
3.000001862645122
 30
0.0
 11
-104.8952087030528
 21
3.000001862645122
 31
0.0
  0
LINE
  5
21E
330
7E
100
AcDbEntity
  8
0
  6
Continuous
 62
     0
100
AcDbLine
 10
-55.00003234331565
 20
3.000006633137779
 30
0.0
 11
-50.00002926048847
 21
0.000004922462281
 31
0.0
  0
LINE
  5
21F
330
7E
100
AcDbEntity
  8
0
  6
Continuous
 62
     0
100
AcDbLine
 10
-69.99997988343267
 20
47.58383680010085
 30
0.0
 11
-69.99997988343267
 21
34.0000075995921
 31
0.0
  0
LINE
  5
220
330
7E
100
AcDbEntity
  8
0
  6
Continuous
 62
     0
100
AcDbLine
 10
-52.61546704190057
 20
45.60426342351717
 30
0.0
 11
-51.9999586513428
 21
48.50000309199091
 31
0.0
  0
LINE
  5
221
330
7E
100
AcDbEntity
  8
0
  6
CENTER
 62
     4
100
AcDbLine
 10
-8.94996629729917
 20
29.49998811632413
 30
0.0
 11
-21.04995696172182
 21
29.49998811632413
 31
0.0
  0
LINE
  5
222
330
7E
100
AcDbEntity
  8
0
  6
Continuous
 62
     0
100
AcDbLine
 10
-77.2539420779672
 20
32.25903869739665
 30
0.0
 11
-120.015519916944
 21
38.31669566546206
 31
0.0
  0
LINE
  5
223
330
7E
100
AcDbEntity
  8
0
  6
Continuous
 62
     0
100
AcDbLine
 10
-46.99996878206775
 20
48.50000309199091
 30
0.0
 11
-51.9999586513428
 21
48.50000309199091
 31
0.0
  0
LINE
  5
224
330
7E
100
AcDbEntity
  8
0
  6
Continuous
 62
     0
100
AcDbLine
 10
-54.83335771810414
 20
2.900001862645121
 30
0.0
 11
-97.99997913837461
 21
2.900001862645121
 31
0.0
  0
LINE
  5
225
330
7E
100
AcDbEntity
  8
0
  6
Continuous
 62
     0
100
AcDbLine
 10
-98.09997913837465
 20
3.000001862645142
 30
0.0
 11
-97.99997913837461
 21
2.900001862645119
 31
0.0
  0
LINE
  5
226
330
7E
100
AcDbEntity
  8
0
  6
Continuous
 62
     0
100
AcDbLine
 10
-89.99997958540945
 20
46.27766063395648
 30
0.0
 11
-89.99997958540945
 21
34.06467625402396
 31
0.0
  0
LINE
  5
227
330
7E
100
AcDbEntity
  8
0
  6
CENTER
 62
     4
100
AcDbLine
 10
-85.55638478279461
 20
33.43519786193897
 30
0.0
 11
-85.77170105771617
 21
30.21481551602854
 31
0.0
  0
LINE
  5
228
330
7E
100
AcDbEntity
  8
0
  6
PHANTOM
 62
     0
100
AcDbLine
 10
-84.9606940239811
 20
33.350791021103
 30
0.0
 11
-85.16056183150594
 21
30.36146399924515
 31
0.0
  0
LINE
  5
229
330
7E
100
AcDbEntity
  8
0
  6
Continuous
 62
     0
100
AcDbLine
 10
-57.15992787936566
 20
48.42240920094096
 30
0.0
 11
-59.99996598482283
 21
48.23692995034255
 31
0.0
  0
LINE
  5
22A
330
7E
100
AcDbEntity
  8
0
  6
Continuous
 62
     0
100
AcDbLine
 10
-99.99997943639784
 20
45.62457493507005
 30
0.0
 11
-99.99997943639784
 21
35.48129028854832
 31
0.0
  0
LINE
  5
22B
330
7E
100
AcDbEntity
  8
0
  6
Continuous
 62
     0
100
AcDbLine
 10
-104.9388869860934
 20
1.300001125037653
 30
0.0
 11
-102.999990835786
 21
1.300001125037653
 31
0.0
  0
LINE
  5
22C
330
7E
100
AcDbEntity
  8
0
  6
Continuous
 62
     0
100
AcDbLine
 10
-13.23219249421618
 20
27.7322181847339
 30
0.0
 11
-16.76772649647696
 21
31.26775188897147
 31
0.0
  0
LINE
  5
22D
330
7E
100
AcDbEntity
  8
0
  6
Continuous
 62
     0
100
AcDbLine
 10
-94.99997951090364
 20
45.95111778451327
 30
0.0
 11
-94.99997951090364
 21
34.77298446337902
 31
0.0
  0
LINE
  5
22E
330
7E
100
AcDbEntity
  8
0
  6
Continuous
 62
     4
100
AcDbLine
 10
-14.99999977648258
 20
35.54998821690696
 30
0.0
 11
-14.99999977648258
 21
23.44998801574129
 31
0.0
  0
LINE
  5
22F
330
7E
100
AcDbEntity
  8
0
  6
Continuous
 62
     0
100
AcDbLine
 10
-84.99997965991525
 20
46.60420348339969
 30
0.0
 11
-84.99997965991525
 21
33.35637042885467
 31
0.0
  0
LINE
  5
230
330
7E
100
AcDbEntity
  8
0
  6
Continuous
 62
     0
100
AcDbLine
 10
-101.4999755993489
 20
2.800003546476312
 30
0.0
 11
-101.4999755993489
 21
3.003228262018736
 31
0.0
  0
LINE
  5
231
330
7E
100
AcDbEntity
  8
0
  6
Continuous
 62
     0
100
AcDbLine
 10
-13.23221689155499
 20
31.26772345442689
 30
0.0
 11
-16.76775089381577
 21
27.73218975018932
 31
0.0
  0
LINE
  5
232
330
7E
100
AcDbEntity
  8
0
  6
CENTER
 62
     4
100
AcDbLine
 10
-25.07392845937716
 20
14.50000741332758
 30
0.0
 11
-51.08001632869218
 21
14.50000741332758
 31
0.0
  0
LINE
  5
233
330
7E
100
AcDbEntity
  8
0
  6
CENTER
 62
     4
100
AcDbLine
 10
-37.99995365738937
 20
27.08032090842245
 30
0.0
 11
-37.99995365738937
 21
1.074233039107426
 31
0.0
  0
LINE
  5
234
330
7E
100
AcDbEntity
  8
0
  6
Continuous
 62
     0
100
AcDbLine
 10
-104.9999821599826
 20
45.29803653864955
 30
0.0
 11
-117.2165978179538
 21
44.50018501942686
 31
0.0
  0
LINE
  5
235
330
7E
100
AcDbEntity
  8
0
  6
Continuous
 62
     0
100
AcDbLine
 10
-59.99998003244428
 20
48.23692249898728
 30
0.0
 11
-59.99998003244428
 21
36.40000765919674
 31
0.0
  0
LINE
  5
236
330
7E
100
AcDbEntity
  8
0
  6
Continuous
 62
     0
100
AcDbLine
 10
-94.99998068027371
 20
45.95112382535723
 30
0.0
 11
-99.9999719036585
 21
45.62458080351183
 31
0.0
  0
LINE
  5
237
330
7E
100
AcDbEntity
  8
0
  6
Continuous
 62
     0
100
AcDbLine
 10
-84.99997920056478
 20
46.60421111206491
 30
0.0
 11
-89.99997042394959
 21
46.27766809021951
 31
0.0
  0
LINE
  5
238
330
7E
100
AcDbEntity
  8
0
  6
Continuous
 62
     0
100
AcDbLine
 10
-104.999979361892
 20
45.29803208562684
 30
0.0
 11
-104.999979361892
 21
36.18959611371761
 31
0.0
  0
LINE
  5
239
330
7E
100
AcDbEntity
  8
0
  6
Continuous
 62
     0
100
AcDbLine
 10
-74.99997772085587
 20
47.25729839877259
 30
0.0
 11
-79.99996894424068
 21
46.93075537692719
 31
0.0
  0
LINE
  5
23A
330
7E
100
AcDbEntity
  8
0
  6
Continuous
 62
     0
100
AcDbLine
 10
-64.99997624114695
 20
47.91038568548027
 30
0.0
 11
-69.99996746453175
 21
47.58384266363487
 31
0.0
  0
LINE
  5
23B
330
7E
100
AcDbEntity
  8
0
  6
Continuous
 62
     0
100
AcDbLine
 10
-62.54558031621174
 20
48.77216731220431
 30
0.0
 11
-67.54557153959654
 21
48.44562429035891
 31
0.0
  0
LINE
  5
23C
330
7E
100
AcDbEntity
  8
0
  6
Continuous
 62
     0
100
AcDbLine
 10
-79.99997973442106
 20
46.93075110121442
 30
0.0
 11
-79.99997973442106
 21
32.64806460368537
 31
0.0
  0
LINE
  5
23D
330
7E
100
AcDbEntity
  8
0
  6
CENTER
 62
     4
100
AcDbLine
 10
-79.99997973442106
 20
32.64806460368537
 30
0.0
 11
-79.99997973442106
 21
31.60000753998745
 31
0.0
  0
LINE
  5
23E
330
7E
100
AcDbEntity
  8
0
  6
Continuous
 62
     0
100
AcDbLine
 10
-119.9999791383746
 20
20.42320697869052
 30
0.0
 11
-119.9999791383746
 21
0.000003352761219
 31
0.0
  0
LINE
  5
23F
330
7E
100
AcDbEntity
  8
0
  6
Continuous
 62
     0
100
AcDbLine
 10
-104.9999714441864
 20
0.000006753708281
 30
0.0
 11
-104.895209011883
 21
3.000010439994759
 31
0.0
  0
LINE
  5
240
330
7E
100
AcDbEntity
  8
0
  6
Continuous
 62
     0
100
AcDbLine
 10
-52.61549413199987
 20
45.60423962595407
 30
0.0
 11
-56.42871856135958
 21
38.88707039091369
 31
0.0
  0
LINE
  5
241
330
7E
100
AcDbEntity
  8
0
  6
Continuous
 62
     0
100
AcDbLine
 10
-104.999960288406
 20
0.0
 30
0.0
 11
-119.9999791383746
 21
0.0
 31
0.0
  0
LINE
  5
242
330
7E
100
AcDbEntity
  8
0
  6
Continuous
 62
     0
100
AcDbLine
 10
-64.99997995793848
 20
47.91037964954406
 30
0.0
 11
-64.99997995793848
 21
35.20000643730154
 31
0.0
  0
LINE
  5
243
330
7E
100
AcDbEntity
  8
0
  6
PHANTOM
 62
     0
100
AcDbLine
 10
-86.3828624959757
 20
30.06812072774293
 30
0.0
 11
-86.15209711744674
 21
33.51956791320401
 31
0.0
  0
LINE
  5
244
330
7E
100
AcDbEntity
  8
0
  6
Continuous
 62
     0
100
AcDbLine
 10
-74.99997980892687
 20
47.25729395065763
 30
0.0
 11
-74.99997980892687
 21
32.8000063776969
 31
0.0
  0
LINE
  5
245
330
7E
100
AcDbEntity
  8
0
  6
Continuous
 62
     0
100
AcDbLine
 10
-120.0211264797177
 20
41.50133381520557
 30
0.0
 11
-120.0155682695199
 21
38.31671737903914
 31
0.0
  0
LINE
  5
246
330
7E
100
AcDbEntity
  8
0
  6
Continuous
 62
     0
100
AcDbLine
 10
-59.61003583375165
 20
36.49359368264078
 30
0.0
 11
-118.4667235201788
 21
22.36799036961908
 31
0.0
  0
LINE
  5
247
330
7E
100
AcDbEntity
  8
0
  6
Continuous
 62
     0
100
AcDbLine
 10
-52.61586877784653
 20
45.60261676792157
 30
0.0
 11
-55.02903203232471
 21
46.11114995447718
 31
0.0
  0
LINE
  5
248
330
7E
100
AcDbEntity
  8
0
  6
Continuous
 62
     0
100
AcDbLine
 10
0.0
 20
36.0804933893607
 30
0.0
 11
0.0
 21
20.00001877546282
 31
0.0
  0
LINE
  5
249
330
7E
100
AcDbEntity
  8
0
  6
Continuous
 62
     0
100
AcDbLine
 10
-2.376255894449029
 20
39.01494917107878
 30
0.0
 11
-46.99998602971684
 21
48.50001463303028
 31
0.0
  0
LINE
  5
24A
330
7E
100
AcDbEntity
  8
0
  6
Continuous
 62
     0
100
AcDbLine
 10
-55.02966898740897
 20
46.43013657548961
 30
0.0
 11
-55.02911222887369
 21
46.11113777564039
 31
0.0
  0
LINE
  5
24B
330
7E
100
AcDbEntity
  8
0
  6
Continuous
 62
     0
100
AcDbLine
 10
-102.5455862350474
 20
46.15981816537359
 30
0.0
 11
-112.5456257806349
 21
45.50672839263214
 31
0.0
  0
LINE
  5
24C
330
7E
100
AcDbEntity
  8
0
  6
Continuous
 62
     0
100
AcDbLine
 10
-92.54558475533848
 20
46.81290545208127
 30
0.0
 11
-97.54557597872328
 21
46.48636243023587
 31
0.0
  0
LINE
  5
24D
330
7E
100
AcDbEntity
  8
0
  6
Continuous
 62
     0
100
AcDbLine
 10
-82.54558327562957
 20
47.46599273878895
 30
0.0
 11
-87.54557449901436
 21
47.13944971694355
 31
0.0
  0
LINE
  5
24E
330
7E
100
AcDbEntity
  8
0
  6
Continuous
 62
     0
100
AcDbLine
 10
-72.54558179592065
 20
48.11908002549663
 30
0.0
 11
-77.54557301930545
 21
47.79253700365123
 31
0.0
  0
ARC
  5
24F
330
7E
100
AcDbEntity
  8
0
  6
Continuous
 62
     0
100
AcDbCircle
 10
-87.23060477926424
 20
42.316397990042
 30
0.0
 40
4.833328353862042
100
AcDbArc
 50
62.51536909567104
 51
124.9577507898713
  0
CIRCLE
  5
250
330
7E
100
AcDbEntity
  8
0
  6
Continuous
 62
     0
100
AcDbCircle
 10
-37.99995365738937
 20
14.50000741332758
 30
0.0
 40
11.0000000745058
  0
ARC
  5
251
330
7E
100
AcDbEntity
  8
0
  6
Continuous
 62
     0
100
AcDbCircle
 10
-15.04131294725369
 20
1.999998062849074
 30
0.0
 40
1.999999105930342
100
AcDbArc
 50
269.999963344576
 51
325.0079846555409
  0
ARC
  5
252
330
7E
100
AcDbEntity
  8
0
  6
Continuous
 62
     0
100
AcDbCircle
 10
-102.2306045557468
 20
41.33676467334084
 30
0.0
 40
4.833328353862042
100
AcDbArc
 50
62.5153554352927
 51
124.9577507898713
  0
ARC
  5
253
330
7E
100
AcDbEntity
  8
0
  6
Continuous
 62
     0
100
AcDbCircle
 10
-67.23060507728746
 20
43.62256938781486
 30
0.0
 40
4.833328353862042
100
AcDbArc
 50
62.51536909567104
 51
124.9577507898713
  0
ARC
  5
254
330
7E
100
AcDbEntity
  8
0
  6
Continuous
 62
     0
100
AcDbCircle
 10
-62.23060515179327
 20
43.94910746888656
 30
0.0
 40
4.833328353862042
100
AcDbArc
 50
62.51536909567104
 51
124.9577507898713
  0
ARC
  5
255
330
7E
100
AcDbEntity
  8
0
  6
Continuous
 62
     0
100
AcDbCircle
 10
-112.2306044067352
 20
40.68368851119744
 30
0.0
 40
4.833314942817167
100
AcDbArc
 50
62.51527347302266
 51
124.9578464125197
  0
ARC
  5
256
330
7E
100
AcDbEntity
  8
0
  6
Continuous
 62
     0
100
AcDbCircle
 10
-92.23060470475843
 20
41.98987898245634
 30
0.0
 40
4.833300041656195
100
AcDbArc
 50
62.51516418999594
 51
124.9579556955464
  0
ARC
  5
257
330
7E
100
AcDbEntity
  8
0
  6
Continuous
 62
     0
100
AcDbCircle
 10
-82.23060485377005
 20
42.64295514459975
 30
0.0
 40
4.833314942817167
100
AcDbArc
 50
62.51525981264432
 51
124.9579010540331
  0
ARC
  5
258
330
7E
100
AcDbEntity
  8
0
  6
Continuous
 62
     0
100
AcDbCircle
 10
-72.23060500278166
 20
43.29601223325711
 30
0.0
 40
4.833328353862042
100
AcDbArc
 50
62.51532811453603
 51
124.9577644502497
  0
ARC
  5
259
330
7E
100
AcDbEntity
  8
0
  6
Continuous
 62
     0
100
AcDbCircle
 10
-97.23060463025263
 20
41.66330275441255
 30
0.0
 40
4.833328353862042
100
AcDbArc
 50
62.51536909567104
 51
124.9577507898713
  0
ARC
  5
25A
330
7E
100
AcDbEntity
  8
0
  6
Continuous
 62
     0
100
AcDbCircle
 10
-77.23060492827585
 20
42.96947415218541
 30
0.0
 40
4.833328353862042
100
AcDbArc
 50
62.51536909567104
 51
124.9577507898713
  0
ARC
  5
25B
330
7E
100
AcDbEntity
  8
0
  6
Continuous
 62
     0
100
AcDbCircle
 10
-117.0210820880371
 20
41.50655684610371
 30
0.0
 40
3.000000074505805
100
AcDbArc
 50
93.73653945220369
 51
180.0998760350003
  0
CIRCLE
  5
25C
330
7E
100
AcDbEntity
  8
0
  6
Continuous
 62
     0
100
AcDbCircle
 10
-14.99999977648258
 20
29.49998811632413
 30
0.0
 40
4.550000063329934
  0
CIRCLE
  5
25D
330
7E
100
AcDbEntity
  8
0
  6
Continuous
 62
     0
100
AcDbCircle
 10
-14.99999977648258
 20
29.49998811632413
 30
0.0
 40
4.0
  0
ARC
  5
25E
330
7E
100
AcDbEntity
  8
0
  6
Continuous
 62
     0
100
AcDbCircle
 10
-2.999992325902099
 20
36.0804933893607
 30
0.0
 40
3.000000968575463
100
AcDbArc
 50
0.00005464151336
 51
77.99999534035857
  0
ARC
  5
25F
330
7E
100
AcDbEntity
  8
0
  6
Continuous
 62
     0
100
AcDbCircle
 10
-117.9999906122686
 20
20.42320221031901
 30
0.0
 40
1.999999105930342
100
AcDbArc
 50
103.4955888703988
 51
180.0001006316047
  0
ARC
  5
260
330
7E
100
AcDbEntity
  8
0
  6
Continuous
 62
     0
100
AcDbCircle
 10
-60.77693848644287
 20
41.35551391012201
 30
0.0
 40
4.999999925494195
100
AcDbArc
 50
283.4957068048475
 51
330.4171393083541
  0
ARC
  5
261
330
7E
100
AcDbEntity
  8
0
  6
Continuous
 62
     0
100
AcDbCircle
 10
-57.02958975688233
 20
46.42665793855998
 30
0.0
 40
2.0
100
AcDbArc
 50
0.099939327935627
 51
93.73659409371703
  0
ARC
  5
262
330
7E
100
AcDbEntity
  8
0
  6
Continuous
 62
     0
100
AcDbCircle
 10
-102.999990835786
 20
2.800006824731725
 30
0.0
 40
1.500000037252902
100
AcDbArc
 50
269.999963344576
 51
0.0
  0
ARC
  5
263
330
7E
100
AcDbEntity
  8
0
  6
Continuous
 62
     0
100
AcDbCircle
 10
-110.0235350426505
 20
17.16396306210811
 30
0.0
 40
7.499999888241293
100
AcDbArc
 50
83.12015785919942
 51
123.8712179570841
  0
MTEXT
  5
264
330
7E
100
AcDbEntity
  8
0
 62
     0
100
AcDbMText
 10
-46.40655718182721
 20
37.07180608772644
 30
0.0
 40
0.5
 41
0.0
 71
     7
 72
     1
  1
{\W0.833333;BN-1411}
 73
     1
 44
1.0
  0
ENDBLK
  5
80
330
7E
100
AcDbEntity
  8
0
100
AcDbBlockEnd
  0
BLOCK
  5
82
330
81
100
AcDbEntity
  8
0
100
AcDbBlockBegin
  2
DTL0006
 70
     0
 10
0.0
 20
0.0
 30
0.0
  3
DTL0006
  1

  0
POINT
  5
265
330
81
100
AcDbEntity
  8
0
 62
     0
100
AcDbPoint
 10
0.0
 20
0.0
 30
0.0
  0
LINE
  5
266
330
81
100
AcDbEntity
  8
0
  6
CENTER
 62
     4
100
AcDbLine
 10
-4.265065129621846
 20
0.0
 30
0.0
 11
124.0393810862395
 21
0.0
 31
0.0
  0
LINE
  5
267
330
81
100
AcDbEntity
  8
0
  6
CENTER
 62
     4
100
AcDbLine
 10
44.00001460313775
 20
19.20417757028076
 30
0.0
 11
44.00001460313775
 21
10.46440108918546
 31
0.0
  0
LINE
  5
268
330
81
100
AcDbEntity
  8
0
  6
CENTER
 62
     4
100
AcDbLine
 10
49.32937071726664
 20
14.99999977648258
 30
0.0
 11
39.14519251666676
 21
14.99999977648258
 31
0.0
  0
LINE
  5
269
330
81
100
AcDbEntity
  8
0
  6
CENTER
 62
     4
100
AcDbLine
 10
19.08861608671224
 20
4.999999925494194
 30
0.0
 11
27.07132299138124
 21
4.999999925494194
 31
0.0
  0
LINE
  5
26A
330
81
100
AcDbEntity
  8
0
  6
Continuous
 62
     0
100
AcDbLine
 10
42.93934416317815
 20
13.93935839132257
 30
0.0
 11
45.06066582382679
 21
16.06068005197121
 31
0.0
  0
LINE
  5
26B
330
81
100
AcDbEntity
  8
0
  6
Continuous
 62
     0
100
AcDbLine
 10
45.06068436843989
 20
13.93935333370085
 30
0.0
 11
42.93936270779125
 21
16.06067499434949
 31
0.0
  0
LINE
  5
26C
330
81
100
AcDbEntity
  8
0
  6
Continuous
 62
     0
100
AcDbLine
 10
103.3736368498285
 20
-21.62629122623071
 30
0.0
 11
106.6263215210619
 21
-18.3736065549973
 31
0.0
  0
LINE
  5
26D
330
81
100
AcDbEntity
  8
0
  6
Continuous
 62
     0
100
AcDbLine
 10
106.6263451232968
 20
-21.62629459797856
 30
0.0
 11
103.3736806825503
 21
-18.37363015723214
 31
0.0
  0
LINE
  5
26E
330
81
100
AcDbEntity
  8
0
  6
Continuous
 62
     0
100
AcDbLine
 10
103.3736301063328
 20
18.3736973779085
 30
0.0
 11
106.6263147775663
 21
21.62638204914192
 31
0.0
  0
LINE
  5
26F
330
81
100
AcDbEntity
  8
0
  6
Continuous
 62
     0
100
AcDbLine
 10
106.626319835188
 20
18.37366871805195
 30
0.0
 11
103.3736419074503
 21
21.62634664578969
 31
0.0
  0
LINE
  5
270
330
81
100
AcDbEntity
  8
0
  6
CENTER
 62
     4
100
AcDbLine
 10
23.99997675418888
 20
27.71698910419659
 30
0.0
 11
23.99997675418888
 21
21.96896520303241
 31
0.0
  0
LINE
  5
271
330
81
100
AcDbEntity
  8
0
  6
CENTER
 62
     4
100
AcDbLine
 10
22.00000730156887
 20
27.71698910419659
 30
0.0
 11
22.00000730156887
 21
21.96896520303241
 31
0.0
  0
LINE
  5
272
330
81
100
AcDbEntity
  8
0
  6
CENTER
 62
     4
100
AcDbLine
 10
19.08861608671224
 20
25.00000439584248
 30
0.0
 11
27.07132299138124
 21
25.00000439584248
 31
0.0
  0
LINE
  5
273
330
81
100
AcDbEntity
  8
0
  6
CENTER
 62
     4
100
AcDbLine
 10
42.08864626156321
 20
-24.99999962747098
 30
0.0
 11
50.07135316623221
 21
-24.99999962747098
 31
0.0
  0
LINE
  5
274
330
81
100
AcDbEntity
  8
0
  6
CENTER
 62
     4
100
AcDbLine
 10
19.21185464841344
 20
-14.9999997764826
 30
0.0
 11
27.18838651197573
 21
-14.9999997764826
 31
0.0
  0
LINE
  5
275
330
81
100
AcDbEntity
  8
0
  6
CENTER
 62
     4
100
AcDbLine
 10
23.99997675418888
 20
-11.93176251751538
 30
0.0
 11
23.99997675418888
 21
-18.00633403649428
 31
0.0
  0
LINE
  5
276
330
81
100
AcDbEntity
  8
0
  6
CENTER
 62
     4
100
AcDbLine
 10
104.9999984353781
 20
28.4999986216426
 30
0.0
 11
104.9999984353781
 21
11.49999601393944
 31
0.0
  0
LINE
  5
277
330
81
100
AcDbEntity
  8
0
  6
CENTER
 62
     4
100
AcDbLine
 10
96.50000905245528
 20
20.00000447034829
 30
0.0
 11
113.5000068917869
 21
20.00000447034829
 31
0.0
  0
LINE
  5
278
330
81
100
AcDbEntity
  8
0
  6
CENTER
 62
     4
100
AcDbLine
 10
96.50000905245528
 20
-19.99999970197679
 30
0.0
 11
113.5000068917869
 21
-19.99999970197679
 31
0.0
  0
LINE
  5
279
330
81
100
AcDbEntity
  8
0
  6
CENTER
 62
     4
100
AcDbLine
 10
104.9999984353781
 20
-11.49999601393944
 30
0.0
 11
104.9999984353781
 21
-28.50000339001413
 31
0.0
  0
LINE
  5
27A
330
81
100
AcDbEntity
  8
0
  6
CENTER
 62
     4
100
AcDbLine
 10
19.99999970197678
 20
-21.01305930296988
 30
0.0
 11
19.99999970197678
 21
-29.30399851047996
 31
0.0
  0
LINE
  5
27B
330
81
100
AcDbEntity
  8
0
  6
CENTER
 62
     4
100
AcDbLine
 10
16.02577662429547
 20
-24.99999962747098
 30
0.0
 11
24.27303754876498
 21
-24.99999962747098
 31
0.0
  0
LINE
  5
27C
330
81
100
AcDbEntity
  8
0
  6
Continuous
 62
     0
100
AcDbLine
 10
0.0
 20
37.00001661479448
 30
0.0
 11
0.0
 21
-36.99999754130845
 31
0.0
  0
LINE
  5
27D
330
81
100
AcDbEntity
  8
0
  6
CENTER
 62
     4
100
AcDbLine
 10
39.30254400815749
 20
-10.39998992681519
 30
0.0
 11
48.67627071326568
 21
-10.39998992681519
 31
0.0
  0
LINE
  5
27E
330
81
100
AcDbEntity
  8
0
  6
Continuous
 62
     0
100
AcDbLine
 10
22.00000730156888
 20
26.75000150874254
 30
0.0
 11
24.00000536441795
 21
26.75000150874254
 31
0.0
  0
LINE
  5
27F
330
81
100
AcDbEntity
  8
0
  6
CENTER
 62
     4
100
AcDbLine
 10
64.00001430511453
 20
35.00000424683087
 30
0.0
 11
64.00001430511453
 21
27.00000245869155
 31
0.0
  0
LINE
  5
280
330
81
100
AcDbEntity
  8
0
  6
CENTER
 62
     4
100
AcDbLine
 10
60.00001937150926
 20
-31.00000335276123
 30
0.0
 11
68.00001877546282
 21
-31.00000335276123
 31
0.0
  0
LINE
  5
281
330
81
100
AcDbEntity
  8
0
  6
CENTER
 62
     4
100
AcDbLine
 10
60.00001937150926
 20
30.99998904764668
 30
0.0
 11
68.00001877546282
 21
30.99998904764668
 31
0.0
  0
LINE
  5
282
330
81
100
AcDbEntity
  8
0
  6
CENTER
 62
     4
100
AcDbLine
 10
64.00001430511453
 20
-27.00000722706308
 30
0.0
 11
64.00001430511453
 21
-34.99999947845937
 31
0.0
  0
LINE
  5
283
330
81
100
AcDbEntity
  8
0
  6
CENTER
 62
     4
100
AcDbLine
 10
22.00000730156887
 20
-11.93176251751538
 30
0.0
 11
22.00000730156887
 21
-18.00633403649428
 31
0.0
  0
LINE
  5
284
330
81
100
AcDbEntity
  8
0
  6
CENTER
 62
     4
100
AcDbLine
 10
47.00000692903985
 20
-22.28301015074535
 30
0.0
 11
47.00000692903985
 21
-28.03103405190954
 31
0.0
  0
LINE
  5
285
330
81
100
AcDbEntity
  8
0
  6
CENTER
 62
     4
100
AcDbLine
 10
45.00003747641984
 20
-22.28301015074535
 30
0.0
 11
45.00003747641984
 21
-28.03103405190954
 31
0.0
  0
LINE
  5
286
330
81
100
AcDbEntity
  8
0
  6
Continuous
 62
     0
100
AcDbLine
 10
3.000035241245698
 20
39.99999940395355
 30
0.0
 11
116.0000211596486
 21
39.99999940395355
 31
0.0
  0
LINE
  5
287
330
81
100
AcDbEntity
  8
0
  6
Continuous
 62
     0
100
AcDbLine
 10
119.9999982118607
 20
36.00001758336995
 30
0.0
 11
119.9999982118607
 21
-36.00000327825542
 31
0.0
  0
LINE
  5
288
330
81
100
AcDbEntity
  8
0
  6
Continuous
 62
     0
100
AcDbLine
 10
22.00000730156888
 20
-16.75000165775417
 30
0.0
 11
24.00000536441795
 21
-16.75000165775417
 31
0.0
  0
LINE
  5
289
330
81
100
AcDbEntity
  8
0
  6
Continuous
 62
     0
100
AcDbLine
 10
22.00000730156888
 20
-13.24999789521102
 30
0.0
 11
24.00000536441795
 21
-13.24999789521102
 31
0.0
  0
LINE
  5
28A
330
81
100
AcDbEntity
  8
0
  6
Continuous
 62
     0
100
AcDbLine
 10
45.00003747641985
 20
-26.75001104548558
 30
0.0
 11
47.00003553926892
 21
-26.75001104548558
 31
0.0
  0
LINE
  5
28B
330
81
100
AcDbEntity
  8
0
  6
Continuous
 62
     0
100
AcDbLine
 10
45.00003747641985
 20
-23.24999774619941
 30
0.0
 11
47.00003553926892
 21
-23.24999774619941
 31
0.0
  0
LINE
  5
28C
330
81
100
AcDbEntity
  8
0
  6
Continuous
 62
     0
100
AcDbLine
 10
22.00000730156888
 20
3.2499885074796
 30
0.0
 11
24.00000536441795
 21
3.2499885074796
 31
0.0
  0
LINE
  5
28D
330
81
100
AcDbEntity
  8
0
  6
CENTER
 62
     4
100
AcDbLine
 10
23.99997675418888
 20
7.716989402219809
 30
0.0
 11
23.99997675418888
 21
1.968965501055635
 31
0.0
  0
LINE
  5
28E
330
81
100
AcDbEntity
  8
0
  6
Continuous
 62
     0
100
AcDbLine
 10
3.000006631016632
 20
-29.00000528991215
 30
0.0
 11
13.10001353770474
 21
-29.00000528991215
 31
0.0
  0
LINE
  5
28F
330
81
100
AcDbEntity
  8
0
  6
Continuous
 62
     0
100
AcDbLine
 10
3.000006631016632
 20
29.00000052154063
 30
0.0
 11
10.07086738838453
 21
29.00000052154063
 31
0.0
  0
LINE
  5
290
330
81
100
AcDbEntity
  8
0
  6
Continuous
 62
     0
100
AcDbLine
 10
4.600028923153445
 20
-26.99999769032006
 30
0.0
 11
4.600028923153445
 21
-28.99999575316913
 31
0.0
  0
LINE
  5
291
330
81
100
AcDbEntity
  8
0
  6
Continuous
 62
     0
100
AcDbLine
 10
2.999992325902099
 20
-26.99999769032006
 30
0.0
 11
2.999992325902099
 21
-36.49999564141042
 31
0.0
  0
LINE
  5
292
330
81
100
AcDbEntity
  8
0
  6
Continuous
 62
     0
100
AcDbLine
 10
3.000006631016632
 20
-26.99999769032006
 30
0.0
 11
4.600014618038912
 21
-26.99999769032006
 31
0.0
  0
LINE
  5
293
330
81
100
AcDbEntity
  8
0
  6
Continuous
 62
     0
100
AcDbLine
 10
3.00002191929663
 20
36.49999656948493
 30
0.0
 11
13.10002822951906
 21
37.7499965396507
 31
0.0
  0
LINE
  5
294
330
81
100
AcDbEntity
  8
0
  6
Continuous
 62
     0
100
AcDbLine
 10
13.10002671965355
 20
-37.74998256254302
 30
0.0
 11
3.00002040943112
 21
-36.49998259237726
 31
0.0
  0
LINE
  5
295
330
81
100
AcDbEntity
  8
0
  6
DASHED
 62
     0
100
AcDbLine
 10
14.700011987984
 20
37.75000039115547
 30
0.0
 11
14.700011987984
 21
-37.74999562278397
 31
0.0
  0
LINE
  5
296
330
81
100
AcDbEntity
  8
0
  6
Continuous
 62
     0
100
AcDbLine
 10
13.10001353770474
 20
37.75000039115547
 30
0.0
 11
13.10001353770474
 21
-37.74999562278397
 31
0.0
  0
LINE
  5
297
330
81
100
AcDbEntity
  8
0
  6
Continuous
 62
     0
100
AcDbLine
 10
4.600028923153445
 20
29.00000052154063
 30
0.0
 11
4.600028923153445
 21
26.99999769032004
 31
0.0
  0
LINE
  5
298
330
81
100
AcDbEntity
  8
0
  6
Continuous
 62
     0
100
AcDbLine
 10
104.7000106468795
 20
-31.99999761581425
 30
0.0
 11
104.7000106468795
 21
-37.74999562278397
 31
0.0
  0
LINE
  5
299
330
81
100
AcDbEntity
  8
0
  6
Continuous
 62
     0
100
AcDbLine
 10
104.7000106468795
 20
37.75000039115547
 30
0.0
 11
104.7000106468795
 21
31.99999761581424
 31
0.0
  0
LINE
  5
29A
330
81
100
AcDbEntity
  8
0
  6
Continuous
 62
     0
100
AcDbLine
 10
106.7000039413571
 20
-29.99999955296518
 30
0.0
 11
117.4999982491136
 21
-29.99999955296518
 31
0.0
  0
LINE
  5
29B
330
81
100
AcDbEntity
  8
0
  6
Continuous
 62
     0
100
AcDbLine
 10
106.7000039413571
 20
30.00000432133668
 30
0.0
 11
117.4999982491136
 21
30.00000432133668
 31
0.0
  0
LINE
  5
29C
330
81
100
AcDbEntity
  8
0
  6
Continuous
 62
     0
100
AcDbLine
 10
68.75000732019532
 20
37.75000515952698
 30
0.0
 11
104.700005878508
 21
37.75000515952698
 31
0.0
  0
LINE
  5
29D
330
81
100
AcDbEntity
  8
0
  6
Continuous
 62
     0
100
AcDbLine
 10
68.75000732019532
 20
-37.75000515952699
 30
0.0
 11
104.700005878508
 21
-37.75000515952699
 31
0.0
  0
LINE
  5
29E
330
81
100
AcDbEntity
  8
0
  6
Continuous
 62
     0
100
AcDbLine
 10
68.74999897554518
 20
-31.00000335276123
 30
0.0
 11
68.74999897554518
 21
-37.74999562278397
 31
0.0
  0
LINE
  5
29F
330
81
100
AcDbEntity
  8
0
  6
Continuous
 62
     0
100
AcDbLine
 10
59.2499914877118
 20
-31.00000335276123
 30
0.0
 11
59.2499914877118
 21
-37.74999562278397
 31
0.0
  0
LINE
  5
2A0
330
81
100
AcDbEntity
  8
0
  6
Continuous
 62
     0
100
AcDbLine
 10
68.74999897554518
 20
37.75000039115547
 30
0.0
 11
68.74999897554518
 21
30.9999985843897
 31
0.0
  0
LINE
  5
2A1
330
81
100
AcDbEntity
  8
0
  6
Continuous
 62
     0
100
AcDbLine
 10
59.2499914877118
 20
37.75000039115547
 30
0.0
 11
59.2499914877118
 21
30.9999985843897
 31
0.0
  0
LINE
  5
2A2
330
81
100
AcDbEntity
  8
0
  6
Continuous
 62
     0
100
AcDbLine
 10
13.10001353770474
 20
-37.75000515952699
 30
0.0
 11
59.2500069849192
 21
-37.75000515952699
 31
0.0
  0
LINE
  5
2A3
330
81
100
AcDbEntity
  8
0
  6
Continuous
 62
     0
100
AcDbLine
 10
13.10001353770474
 20
37.75000515952698
 30
0.0
 11
59.2500069849192
 21
37.75000515952698
 31
0.0
  0
LINE
  5
2A4
330
81
100
AcDbEntity
  8
0
  6
Continuous
 62
     0
100
AcDbLine
 10
2.999992325902099
 20
36.50000040978193
 30
0.0
 11
2.999992325902099
 21
26.99999769032004
 31
0.0
  0
LINE
  5
2A5
330
81
100
AcDbEntity
  8
0
  6
Continuous
 62
     0
100
AcDbLine
 10
117.4999982491136
 20
30.00000432133668
 30
0.0
 11
117.4999982491136
 21
-29.99999955296518
 31
0.0
  0
LINE
  5
2A6
330
81
100
AcDbEntity
  8
0
  6
Continuous
 62
     0
100
AcDbLine
 10
2.499999962747097
 20
38.00000134110448
 30
0.0
 11
2.499999962747097
 21
-38.00000134110449
 31
0.0
  0
LINE
  5
2A7
330
81
100
AcDbEntity
  8
0
  6
Continuous
 62
     0
100
AcDbLine
 10
118.0000287592407
 20
30.25000050291418
 30
0.0
 11
118.0000287592407
 21
-30.24999573454268
 31
0.0
  0
LINE
  5
2A8
330
81
100
AcDbEntity
  8
0
  6
Continuous
 62
     0
100
AcDbLine
 10
117.5000173225996
 20
14.99999977648258
 30
0.0
 11
118.0000335276122
 21
14.99999977648258
 31
0.0
  0
LINE
  5
2A9
330
81
100
AcDbEntity
  8
0
  6
Continuous
 62
     0
100
AcDbLine
 10
117.5000173225996
 20
-14.9999997764826
 30
0.0
 11
118.0000335276122
 21
-14.9999997764826
 31
0.0
  0
LINE
  5
2AA
330
81
100
AcDbEntity
  8
0
  6
Continuous
 62
     0
100
AcDbLine
 10
49.99999925494195
 20
39.99999940395356
 30
0.0
 11
49.99999925494195
 21
38.00000134110449
 31
0.0
  0
LINE
  5
2AB
330
81
100
AcDbEntity
  8
0
  6
Continuous
 62
     0
100
AcDbLine
 10
54.99999918043615
 20
39.99999940395356
 30
0.0
 11
54.99999918043615
 21
38.00000134110449
 31
0.0
  0
LINE
  5
2AC
330
81
100
AcDbEntity
  8
0
  6
Continuous
 62
     0
100
AcDbLine
 10
49.99999925494195
 20
-38.00000134110449
 30
0.0
 11
49.99999925494195
 21
-39.99999940395357
 31
0.0
  0
LINE
  5
2AD
330
81
100
AcDbEntity
  8
0
  6
Continuous
 62
     0
100
AcDbLine
 10
54.99999918043615
 20
-38.00000134110449
 30
0.0
 11
54.99999918043615
 21
-39.99999940395357
 31
0.0
  0
LINE
  5
2AE
330
81
100
AcDbEntity
  8
0
  6
Continuous
 62
     0
100
AcDbLine
 10
14.00005319714467
 20
39.99999940395356
 30
0.0
 11
14.00005319714467
 21
38.00000134110449
 31
0.0
  0
LINE
  5
2AF
330
81
100
AcDbEntity
  8
0
  6
Continuous
 62
     0
100
AcDbLine
 10
14.00005319714467
 20
-38.00000134110449
 30
0.0
 11
14.00005319714467
 21
-39.99999940395357
 31
0.0
  0
LINE
  5
2B0
330
81
100
AcDbEntity
  8
0
  6
Continuous
 62
     0
100
AcDbLine
 10
0.000019073486044
 20
25.00000439584248
 30
0.0
 11
2.500019036233141
 21
25.00000439584248
 31
0.0
  0
LINE
  5
2B1
330
81
100
AcDbEntity
  8
0
  6
Continuous
 62
     0
100
AcDbLine
 10
0.000019073486044
 20
-24.99999962747098
 30
0.0
 11
2.500019036233141
 21
-24.99999962747098
 31
0.0
  0
LINE
  5
2B2
330
81
100
AcDbEntity
  8
0
  6
Continuous
 62
     0
100
AcDbLine
 10
0.000019073486044
 20
30.50000145286319
 30
0.0
 11
2.500019036233141
 21
30.50000145286319
 31
0.0
  0
LINE
  5
2B3
330
81
100
AcDbEntity
  8
0
  6
Continuous
 62
     0
100
AcDbLine
 10
0.000019073486044
 20
-30.49998237937716
 30
0.0
 11
2.500019036233141
 21
-30.49998237937716
 31
0.0
  0
LINE
  5
2B4
330
81
100
AcDbEntity
  8
0
  6
Continuous
 62
     0
100
AcDbLine
 10
2.068328826601373
 20
24.99999962747097
 30
0.0
 11
2.068328826601373
 21
-24.99999962747098
 31
0.0
  0
LINE
  5
2B5
330
81
100
AcDbEntity
  8
0
  6
Continuous
 62
     0
100
AcDbLine
 10
3.000035241245698
 20
-39.99999940395357
 30
0.0
 11
116.0000211596486
 21
-39.99999940395357
 31
0.0
  0
LINE
  5
2B6
330
81
100
AcDbEntity
  8
0
  6
Continuous
 62
     0
100
AcDbLine
 10
2.499999962747097
 20
38.00000134110448
 30
0.0
 11
59.50001866370412
 21
38.00000134110448
 31
0.0
  0
LINE
  5
2B7
330
81
100
AcDbEntity
  8
0
  6
Continuous
 62
     0
100
AcDbLine
 10
2.499999962747097
 20
-38.00000134110449
 30
0.0
 11
59.50001866370412
 21
-38.00000134110449
 31
0.0
  0
LINE
  5
2B8
330
81
100
AcDbEntity
  8
0
  6
Continuous
 62
     0
100
AcDbLine
 10
59.50000674277534
 20
38.00000134110449
 30
0.0
 11
59.50000674277534
 21
30.9999985843897
 31
0.0
  0
LINE
  5
2B9
330
81
100
AcDbEntity
  8
0
  6
Continuous
 62
     0
100
AcDbLine
 10
68.50002186745373
 20
38.00000134110449
 30
0.0
 11
68.50002186745373
 21
30.9999985843897
 31
0.0
  0
LINE
  5
2BA
330
81
100
AcDbEntity
  8
0
  6
Continuous
 62
     0
100
AcDbLine
 10
68.50001888722153
 20
38.00000134110448
 30
0.0
 11
105.0000175088641
 21
38.00000134110448
 31
0.0
  0
LINE
  5
2BB
330
81
100
AcDbEntity
  8
0
  6
Continuous
 62
     0
100
AcDbLine
 10
68.50001888722153
 20
-38.00000134110449
 30
0.0
 11
105.0000175088641
 21
-38.00000134110449
 31
0.0
  0
LINE
  5
2BC
330
81
100
AcDbEntity
  8
0
  6
Continuous
 62
     0
100
AcDbLine
 10
104.9999984353781
 20
39.99999940395356
 30
0.0
 11
104.9999984353781
 21
32.24999856576325
 31
0.0
  0
LINE
  5
2BD
330
81
100
AcDbEntity
  8
0
  6
Continuous
 62
     0
100
AcDbLine
 10
107.0000203400847
 20
30.25000050291418
 30
0.0
 11
120.0000172853467
 21
30.25000050291418
 31
0.0
  0
LINE
  5
2BE
330
81
100
AcDbEntity
  8
0
  6
Continuous
 62
     0
100
AcDbLine
 10
107.0000203400847
 20
-30.2500052712857
 30
0.0
 11
120.0000172853467
 21
-30.2500052712857
 31
0.0
  0
LINE
  5
2BF
330
81
100
AcDbEntity
  8
0
  6
Continuous
 62
     0
100
AcDbLine
 10
104.9999984353781
 20
-32.25000333413477
 30
0.0
 11
104.9999984353781
 21
-39.99999940395357
 31
0.0
  0
LINE
  5
2C0
330
81
100
AcDbEntity
  8
0
  6
Continuous
 62
     0
100
AcDbLine
 10
59.50000674277534
 20
-31.00000335276123
 30
0.0
 11
59.50000674277534
 21
-38.00000134110449
 31
0.0
  0
LINE
  5
2C1
330
81
100
AcDbEntity
  8
0
  6
Continuous
 62
     0
100
AcDbLine
 10
68.50002186745373
 20
-31.00000335276123
 30
0.0
 11
68.50002186745373
 21
-38.00000134110449
 31
0.0
  0
LINE
  5
2C2
330
81
100
AcDbEntity
  8
0
  6
CENTER
 62
     4
100
AcDbLine
 10
8.648609986176936
 20
31.50000525265924
 30
0.0
 11
13.10001353770474
 21
31.50000525265924
 31
0.0
  0
LINE
  5
2C3
330
81
100
AcDbEntity
  8
0
  6
Continuous
 62
     0
100
AcDbLine
 10
12.1000145062802
 20
36.00000327825541
 30
0.0
 11
13.10001353770474
 21
36.00000327825541
 31
0.0
  0
LINE
  5
2C4
330
81
100
AcDbEntity
  8
0
  6
Continuous
 62
     0
100
AcDbLine
 10
12.1000145062802
 20
10.00000938773141
 30
0.0
 11
12.1000145062802
 21
36.00000327825541
 31
0.0
  0
LINE
  5
2C5
330
81
100
AcDbEntity
  8
0
  6
Continuous
 62
     0
100
AcDbLine
 10
12.1000145062802
 20
15.0000093132256
 30
0.0
 11
13.10001353770474
 21
15.0000093132256
 31
0.0
  0
LINE
  5
2C6
330
81
100
AcDbEntity
  8
0
  6
Continuous
 62
     0
100
AcDbLine
 10
2.999992325902099
 20
27.00000722706307
 30
0.0
 11
12.1000145062802
 21
27.00000722706307
 31
0.0
  0
LINE
  5
2C7
330
81
100
AcDbEntity
  8
0
  6
Continuous
 62
     0
100
AcDbLine
 10
4.600014618038912
 20
10.00000938773141
 30
0.0
 11
13.10001353770474
 21
10.00000938773141
 31
0.0
  0
LINE
  5
2C8
330
81
100
AcDbEntity
  8
0
  6
Continuous
 62
     0
100
AcDbLine
 10
4.600014618038912
 20
27.00000722706307
 30
0.0
 11
4.600014618038912
 21
10.00000938773141
 31
0.0
  0
LINE
  5
2C9
330
81
100
AcDbEntity
  8
0
  6
Continuous
 62
     0
100
AcDbLine
 10
10.90001566857076
 20
28.75000433996313
 30
0.0
 11
12.1000145062802
 21
28.75000433996313
 31
0.0
  0
LINE
  5
2CA
330
81
100
AcDbEntity
  8
0
  6
Continuous
 62
     0
100
AcDbLine
 10
10.90001566857076
 20
34.25000616535534
 30
0.0
 11
12.1000145062802
 21
34.25000616535534
 31
0.0
  0
LINE
  5
2CB
330
81
100
AcDbEntity
  8
0
  6
Continuous
 62
     0
100
AcDbLine
 10
11.40001280009727
 20
28.75000433996313
 30
0.0
 11
11.40001280009727
 21
34.25000616535534
 31
0.0
  0
LINE
  5
2CC
330
81
100
AcDbEntity
  8
0
  6
Continuous
 62
     0
100
AcDbLine
 10
9.400014737248199
 20
30.25000527128569
 30
0.0
 11
9.400014737248199
 21
32.75000523403278
 31
0.0
  0
LINE
  5
2CD
330
81
100
AcDbEntity
  8
0
  6
Continuous
 62
     0
100
AcDbLine
 10
11.40000834747472
 20
31.50000082060544
 30
0.0
 11
12.10001020059872
 21
32.2000026147237
 31
0.0
  0
LINE
  5
2CE
330
81
100
AcDbEntity
  8
0
  6
Continuous
 62
     0
100
AcDbLine
 10
11.40000831797184
 20
30.79999899698431
 30
0.0
 11
12.10001017109585
 21
31.50000079110257
 31
0.0
  0
LINE
  5
2CF
330
81
100
AcDbEntity
  8
0
  6
CENTER
 62
     4
100
AcDbLine
 10
38.00002995133355
 20
-39.99999940395357
 30
0.0
 11
38.00002995133355
 21
-45.89802673611005
 31
0.0
  0
LINE
  5
2D0
330
81
100
AcDbEntity
  8
0
  6
Continuous
 62
     0
100
AcDbLine
 10
29.0000291317697
 20
-43.00000126659869
 30
0.0
 11
47.00002838671165
 21
-43.00000126659869
 31
0.0
  0
LINE
  5
2D1
330
81
100
AcDbEntity
  8
0
  6
Continuous
 62
     0
100
AcDbLine
 10
49.00002883374648
 20
-39.99999940395357
 30
0.0
 11
49.00002883374648
 21
-41.00000320374961
 31
0.0
  0
LINE
  5
2D2
330
81
100
AcDbEntity
  8
0
  6
Continuous
 62
     0
100
AcDbLine
 10
27.00003106892063
 20
-39.99999940395357
 30
0.0
 11
27.00003106892063
 21
-41.00000320374961
 31
0.0
  0
LINE
  5
2D3
330
81
100
AcDbEntity
  8
0
  6
Continuous
 62
     0
100
AcDbLine
 10
22.00000730156888
 20
6.750001806765766
 30
0.0
 11
24.00000536441795
 21
6.750001806765766
 31
0.0
  0
LINE
  5
2D4
330
81
100
AcDbEntity
  8
0
  6
CENTER
 62
     4
100
AcDbLine
 10
22.00000730156887
 20
7.716989402219809
 30
0.0
 11
22.00000730156887
 21
1.968965501055635
 31
0.0
  0
LINE
  5
2D5
330
81
100
AcDbEntity
  8
0
  6
CENTER
 62
     4
100
AcDbLine
 10
44.00001460313775
 20
-6.195812133017
 30
0.0
 11
44.00001460313775
 21
-14.93558861411231
 31
0.0
  0
LINE
  5
2D6
330
81
100
AcDbEntity
  8
0
  6
Continuous
 62
     0
100
AcDbLine
 10
42.93934247730422
 20
-11.46062998903365
 30
0.0
 11
45.06066413795286
 21
-9.339308328385012
 31
0.0
  0
LINE
  5
2D7
330
81
100
AcDbEntity
  8
0
  6
Continuous
 62
     0
100
AcDbLine
 10
45.06068436843989
 20
-11.46064347602495
 30
0.0
 11
42.93936270779126
 21
-9.339321815376312
 31
0.0
  0
LINE
  5
2D8
330
81
100
AcDbEntity
  8
0
  6
Continuous
 62
     0
100
AcDbLine
 10
22.00000730156888
 20
23.24999297782789
 30
0.0
 11
24.00000536441795
 21
23.24999297782789
 31
0.0
  0
CIRCLE
  5
2D9
330
81
100
AcDbEntity
  8
0
  6
Continuous
 62
     0
100
AcDbCircle
 10
44.00001460313775
 20
14.99999977648258
 30
0.0
 40
2.750000018626451
  0
CIRCLE
  5
2DA
330
81
100
AcDbEntity
  8
0
  6
Continuous
 62
     0
100
AcDbCircle
 10
104.9999984353781
 20
-19.99999970197679
 30
0.0
 40
3.499999888241292
  0
CIRCLE
  5
2DB
330
81
100
AcDbEntity
  8
0
  6
Continuous
 62
     0
100
AcDbCircle
 10
104.9999984353781
 20
19.99999493360527
 30
0.0
 40
3.499999888241292
  0
ARC
  5
2DC
330
81
100
AcDbEntity
  8
0
  6
Continuous
 62
     0
100
AcDbCircle
 10
22.00000730156887
 20
25.00000439584248
 30
0.0
 40
1.749999944120646
100
AcDbArc
 50
89.99998201391067
 51
270.0000006832453
  0
ARC
  5
2DD
330
81
100
AcDbEntity
  8
0
  6
Continuous
 62
     0
100
AcDbCircle
 10
24.00001490116097
 20
25.00000439584248
 30
0.0
 40
1.749999944120646
100
AcDbArc
 50
270.0000179860893
 51
89.99998201391067
  0
CIRCLE
  5
2DE
330
81
100
AcDbEntity
  8
0
  6
Continuous
 62
     0
100
AcDbCircle
 10
44.00001460313775
 20
14.99999977648258
 30
0.0
 40
3.499999888241292
  0
ARC
  5
2DF
330
81
100
AcDbEntity
  8
0
  6
Continuous
 62
     0
100
AcDbCircle
 10
24.00001490116097
 20
-14.9999997764826
 30
0.0
 40
1.749999944120646
100
AcDbArc
 50
270.0000179860893
 51
89.99998201391067
  0
ARC
  5
2E0
330
81
100
AcDbEntity
  8
0
  6
Continuous
 62
     0
100
AcDbCircle
 10
46.00002220272984
 20
14.99999977648258
 30
0.0
 40
1.749999944120646
100
AcDbArc
 50
317.8221065543106
 51
42.17777733247357
  0
ARC
  5
2E1
330
81
100
AcDbEntity
  8
0
  6
Continuous
 62
     0
100
AcDbCircle
 10
47.00004507601194
 20
-24.99999962747098
 30
0.0
 40
1.749999944120646
100
AcDbArc
 50
270.0000179860893
 51
89.99998201391067
  0
ARC
  5
2E2
330
81
100
AcDbEntity
  8
0
  6
Continuous
 62
     0
100
AcDbCircle
 10
42.00000700354565
 20
-10.39999946355822
 30
0.0
 40
1.749999944120646
100
AcDbArc
 50
137.8224667331037
 51
222.1780077376725
  0
ARC
  5
2E3
330
81
100
AcDbEntity
  8
0
  6
Continuous
 62
     0
100
AcDbCircle
 10
42.00000700354565
 20
14.99999977648258
 30
0.0
 40
1.749999944120646
100
AcDbArc
 50
137.8222481670503
 51
222.1778574735108
  0
ARC
  5
2E4
330
81
100
AcDbEntity
  8
0
  6
Continuous
 62
     0
100
AcDbCircle
 10
46.00002220272984
 20
-10.39999946355822
 30
0.0
 40
1.749999944120646
100
AcDbArc
 50
317.8219494599596
 51
42.17755535132554
  0
CIRCLE
  5
2E5
330
81
100
AcDbEntity
  8
0
  6
Continuous
 62
     0
100
AcDbCircle
 10
19.99999970197678
 20
-24.99999962747098
 30
0.0
 40
3.199999880790712
  0
ARC
  5
2E6
330
81
100
AcDbEntity
  8
0
  6
Continuous
 62
     0
100
AcDbCircle
 10
106.7000182464716
 20
31.99999761581424
 30
0.0
 40
2.0
100
AcDbArc
 50
180.0000359721787
 51
270.0000179860893
  0
ARC
  5
2E7
330
81
100
AcDbEntity
  8
0
  6
Continuous
 62
     0
100
AcDbCircle
 10
106.7000182464716
 20
-31.99999761581425
 30
0.0
 40
2.0
100
AcDbArc
 50
89.99998201391067
 51
180.0000186693347
  0
CIRCLE
  5
2E8
330
81
100
AcDbEntity
  8
0
  6
Continuous
 62
     0
100
AcDbCircle
 10
104.9999984353781
 20
-19.99999970197679
 30
0.0
 40
4.999999925494195
  0
CIRCLE
  5
2E9
330
81
100
AcDbEntity
  8
0
  6
Continuous
 62
     0
100
AcDbCircle
 10
104.9999984353781
 20
-19.99999970197679
 30
0.0
 40
6.999999776482585
  0
CIRCLE
  5
2EA
330
81
100
AcDbEntity
  8
0
  6
Continuous
 62
     0
100
AcDbCircle
 10
104.9999984353781
 20
20.00000447034829
 30
0.0
 40
4.999999925494195
  0
CIRCLE
  5
2EB
330
81
100
AcDbEntity
  8
0
  6
Continuous
 62
     0
100
AcDbCircle
 10
104.9999984353781
 20
20.00000447034829
 30
0.0
 40
6.999999776482585
  0
ARC
  5
2EC
330
81
100
AcDbEntity
  8
0
  6
Continuous
 62
     0
100
AcDbCircle
 10
45.00003747641984
 20
-24.99999962747098
 30
0.0
 40
1.749999944120646
100
AcDbArc
 50
89.99998201391067
 51
270.0000006832453
  0
ARC
  5
2ED
330
81
100
AcDbEntity
  8
0
  6
Continuous
 62
     0
100
AcDbCircle
 10
22.00000730156887
 20
-14.9999997764826
 30
0.0
 40
1.749999944120646
100
AcDbArc
 50
89.99998201391067
 51
270.0000006832453
  0
ARC
  5
2EE
330
81
100
AcDbEntity
  8
0
  6
Continuous
 62
     0
100
AcDbCircle
 10
64.00001430511453
 20
31.00000335276121
 30
0.0
 40
4.749999869614841
100
AcDbArc
 50
179.9999640278213
 51
0.0
  0
ARC
  5
2EF
330
81
100
AcDbEntity
  8
0
  6
Continuous
 62
     0
100
AcDbCircle
 10
64.00001430511453
 20
-31.00000335276123
 30
0.0
 40
4.749999869614841
100
AcDbArc
 50
0.0
 51
180.0000186693347
  0
ARC
  5
2F0
330
81
100
AcDbEntity
  8
0
  6
Continuous
 62
     0
100
AcDbCircle
 10
24.00001490116097
 20
4.999999925494194
 30
0.0
 40
1.749999944120646
100
AcDbArc
 50
270.0000179860893
 51
89.99998201391067
  0
ARC
  5
2F1
330
81
100
AcDbEntity
  8
0
  6
Continuous
 62
     0
100
AcDbCircle
 10
3.000030472874187
 20
37.00001661479448
 30
0.0
 40
3.000000968575463
100
AcDbArc
 50
89.99998201391067
 51
180.0000186693347
  0
ARC
  5
2F2
330
81
100
AcDbEntity
  8
0
  6
Continuous
 62
     0
100
AcDbCircle
 10
3.000030472874187
 20
-36.99999754130845
 30
0.0
 40
3.000000968575463
100
AcDbArc
 50
180.0000359721787
 51
270.0000179860893
  0
ARC
  5
2F3
330
81
100
AcDbEntity
  8
0
  6
Continuous
 62
     0
100
AcDbCircle
 10
116.0000211596486
 20
36.00001281499843
 30
0.0
 40
4.0
100
AcDbArc
 50
0.0
 51
89.99998201391067
  0
ARC
  5
2F4
330
81
100
AcDbEntity
  8
0
  6
Continuous
 62
     0
100
AcDbCircle
 10
116.0000211596486
 20
-36.00000327825542
 30
0.0
 40
4.0
100
AcDbArc
 50
270.0000179860893
 51
0.0
  0
ARC
  5
2F5
330
81
100
AcDbEntity
  8
0
  6
Continuous
 62
     0
100
AcDbCircle
 10
64.00001430511453
 20
31.00000335276121
 30
0.0
 40
4.500000111758707
100
AcDbArc
 50
179.9999813306653
 51
0.0
  0
ARC
  5
2F6
330
81
100
AcDbEntity
  8
0
  6
Continuous
 62
     0
100
AcDbCircle
 10
64.00001430511453
 20
-31.00000335276123
 30
0.0
 40
4.500000111758707
100
AcDbArc
 50
359.9999826971572
 51
179.9999640278213
  0
ARC
  5
2F7
330
81
100
AcDbEntity
  8
0
  6
Continuous
 62
     0
100
AcDbCircle
 10
107.0000060349702
 20
32.25000333413476
 30
0.0
 40
2.0
100
AcDbArc
 50
180.0000359721787
 51
270.0000179860893
  0
ARC
  5
2F8
330
81
100
AcDbEntity
  8
0
  6
Continuous
 62
     0
100
AcDbCircle
 10
107.0000060349702
 20
-32.25000333413477
 30
0.0
 40
2.0
100
AcDbArc
 50
89.99998201391067
 51
180.0000186693347
  0
CIRCLE
  5
2F9
330
81
100
AcDbEntity
  8
0
  6
Continuous
 62
     4
100
AcDbCircle
 10
64.00001430511453
 20
31.00000335276121
 30
0.0
 40
2.499999962747097
  0
CIRCLE
  5
2FA
330
81
100
AcDbEntity
  8
0
  6
Continuous
 62
     4
100
AcDbCircle
 10
64.00001430511453
 20
-31.00000335276123
 30
0.0
 40
2.499999962747097
  0
CIRCLE
  5
2FB
330
81
100
AcDbEntity
  8
0
  6
Continuous
 62
     0
100
AcDbCircle
 10
64.00001430511453
 20
-31.00000335276123
 30
0.0
 40
2.067000388100737
  0
CIRCLE
  5
2FC
330
81
100
AcDbEntity
  8
0
  6
Continuous
 62
     0
100
AcDbCircle
 10
64.00001430511453
 20
31.00000335276121
 30
0.0
 40
2.067000388100737
  0
ARC
  5
2FD
330
81
100
AcDbEntity
  8
0
  6
Continuous
 62
     0
100
AcDbCircle
 10
10.90001566857076
 20
30.25000527128569
 30
0.0
 40
1.500000037252902
100
AcDbArc
 50
179.9999813306653
 51
270.0000179860893
  0
ARC
  5
2FE
330
81
100
AcDbEntity
  8
0
  6
Continuous
 62
     0
100
AcDbCircle
 10
10.90001566857076
 20
32.75000523403278
 30
0.0
 40
1.500000037252902
100
AcDbArc
 50
89.99998201391067
 51
179.9999640278213
  0
ARC
  5
2FF
330
81
100
AcDbEntity
  8
0
  6
Continuous
 62
     0
100
AcDbCircle
 10
47.00002838671165
 20
-41.00000320374961
 30
0.0
 40
2.0
100
AcDbArc
 50
270.0000179860893
 51
0.0
  0
ARC
  5
300
330
81
100
AcDbEntity
  8
0
  6
Continuous
 62
     0
100
AcDbCircle
 10
29.0000291317697
 20
-41.00000320374961
 30
0.0
 40
2.0
100
AcDbArc
 50
179.9999813306653
 51
270.0000179860893
  0
ARC
  5
301
330
81
100
AcDbEntity
  8
0
  6
Continuous
 62
     0
100
AcDbCircle
 10
22.00000730156887
 20
4.999999925494194
 30
0.0
 40
1.749999944120646
100
AcDbArc
 50
89.99998201391067
 51
270.0000006832453
  0
CIRCLE
  5
302
330
81
100
AcDbEntity
  8
0
  6
Continuous
 62
     0
100
AcDbCircle
 10
44.00001460313775
 20
-10.39998992681519
 30
0.0
 40
2.750000018626451
  0
CIRCLE
  5
303
330
81
100
AcDbEntity
  8
0
  6
Continuous
 62
     0
100
AcDbCircle
 10
44.00001460313775
 20
-10.39998992681519
 30
0.0
 40
3.499999888241292
  0
MTEXT
  5
304
330
81
100
AcDbEntity
  8
0
 62
     0
100
AcDbMText
 10
29.27231125827779
 20
33.19596376006021
 30
0.0
 40
0.5
 41
0.0
 71
     7
 72
     1
  1
{\W0.833333;BN-1411}
 73
     1
 44
1.0
  0
ENDBLK
  5
83
330
81
100
AcDbEntity
  8
0
100
AcDbBlockEnd
  0
BLOCK
  5
307
330
306
100
AcDbEntity
  8
0
100
AcDbBlockBegin
  2
_Closed
 70
     0
 10
0.0
 20
0.0
 30
0.0
  3
_Closed
  1

  0
LINE
  5
309
330
306
100
AcDbEntity
  8
0
  6
ByBlock
 62
     0
370
    -2
100
AcDbLine
 10
-1.0
 20
0.166667
 30
0.0
 11
0.0
 21
0.0
 31
0.0
  0
LINE
  5
30A
330
306
100
AcDbEntity
  8
0
  6
ByBlock
 62
     0
370
    -2
100
AcDbLine
 10
0.0
 20
0.0
 30
0.0
 11
-1.0
 21
-0.166667
 31
0.0
  0
LINE
  5
30B
330
306
100
AcDbEntity
  8
0
  6
ByBlock
 62
     0
370
    -2
100
AcDbLine
 10
-1.0
 20
0.166667
 30
0.0
 11
-1.0
 21
-0.166667
 31
0.0
  0
LINE
  5
30C
330
306
100
AcDbEntity
  8
0
  6
ByBlock
 62
     0
370
    -2
100
AcDbLine
 10
0.0
 20
0.0
 30
0.0
 11
-1.0
 21
0.0
 31
0.0
  0
ENDBLK
  5
308
330
306
100
AcDbEntity
  8
0
100
AcDbBlockEnd
  0
BLOCK
  5
329
330
322
100
AcDbEntity
  8
0
100
AcDbBlockBegin
  2
SYM0001
 70
     0
 10
0.0
 20
0.0
 30
0.0
  3
SYM0001
  1

  0
LINE
  5
323
330
322
100
AcDbEntity
  8
0
  6
Continuous
 62
     7
100
AcDbLine
 10
0.0
 20
0.0
 30
0.0
 11
8.935080302008364
 21
-20.80406299650622
 31
0.0
  0
LINE
  5
324
330
322
100
AcDbEntity
  8
0
  6
Continuous
 62
     7
100
AcDbLine
 10
0.0
 20
0.0
 30
0.0
 11
1.95743953143967
 21
-2.483632517422386
 31
0.0
  0
LINE
  5
325
330
322
100
AcDbEntity
  8
0
  6
Continuous
 62
     7
100
AcDbLine
 10
0.0
 20
0.0
 30
0.0
 11
0.453376102068235
 21
-3.129608619446529
 31
0.0
  0
LINE
  5
326
330
322
100
AcDbEntity
  8
0
  6
Continuous
 62
     7
100
AcDbLine
 10
8.935080302008366
 20
-20.80406299650623
 30
0.0
 11
13.87667280778604
 21
-20.80406299650623
 31
0.0
  0
MTEXT
  5
327
102
{ACAD_XDICTIONARY
360
3BD
102
}
330
322
100
AcDbEntity
  8
0
 62
     7
100
AcDbMText
 10
16.44842295052799
 20
-28.80405738637199
 30
0.0
 40
4.0
 41
33.32556102275849
 71
     7
 72
     1
  1
{\W0.83333x;2-M5}{\fArial|b0|i0|c0|p0;\W0.83333x;\U+00D7}{\W0.83333x;0.8}\P{\fＭＳ Ｐゴシック|b0|i0|c0|p0;\W0.83333x;\U+6DF1\U+3055}{\W0.83333x;10}
 73
     1
 44
0.7875
  0
ENDBLK
  5
32A
330
322
100
AcDbEntity
  8
0
100
AcDbBlockEnd
  0
BLOCK
  5
32D
330
32C
100
AcDbEntity
  8
0
100
AcDbBlockBegin
  2
_Open30
 70
     0
 10
0.0
 20
0.0
 30
0.0
  3
_Open30
  1

  0
LINE
  5
32F
330
32C
100
AcDbEntity
  8
0
  6
ByBlock
 62
     0
370
    -2
100
AcDbLine
 10
-1.0
 20
0.267949
 30
0.0
 11
0.0
 21
0.0
 31
0.0
  0
LINE
  5
330
330
32C
100
AcDbEntity
  8
0
  6
ByBlock
 62
     0
370
    -2
100
AcDbLine
 10
0.0
 20
0.0
 30
0.0
 11
-1.0
 21
-0.267949
 31
0.0
  0
LINE
  5
331
330
32C
100
AcDbEntity
  8
0
  6
ByBlock
 62
     0
370
    -2
100
AcDbLine
 10
0.0
 20
0.0
 30
0.0
 11
-1.0
 21
0.0
 31
0.0
  0
ENDBLK
  5
32E
330
32C
100
AcDbEntity
  8
0
100
AcDbBlockEnd
  0
BLOCK
  5
334
330
333
100
AcDbEntity
  8
0
100
AcDbBlockBegin
  2
*D10
 70
     1
 10
0.0
 20
0.0
 30
0.0
  3
*D10
  1

  0
LINE
  5
336
330
333
100
AcDbEntity
  8
0
  6
ByBlock
 62
     0
370
    -2
100
AcDbLine
 10
-73.84014019608288
 20
313.1521385438422
 30
0.0
 11
-73.8401401960829
 21
334.1377415636518
 31
0.0
  0
LINE
  5
337
330
333
100
AcDbEntity
  8
0
  6
ByBlock
 62
     0
370
    -2
100
AcDbLine
 10
46.15985801577779
 20
312.1521538175322
 30
0.0
 11
46.15985801577778
 21
334.1377415636518
 31
0.0
  0
LINE
  5
338
330
333
100
AcDbEntity
  8
0
  6
ByBlock
 62
     0
370
    -2
100
AcDbLine
 10
-70.8401401960829
 20
331.8517079673453
 30
0.0
 11
43.15985801577778
 21
331.8517079673453
 31
0.0
  0
INSERT
  5
339
330
333
100
AcDbEntity
  8
0
 62
     0
370
    -2
100
AcDbBlockReference
  2
_Open30
 10
-73.8401401960829
 20
331.8517079673453
 30
0.0
 41
3.0
 42
3.0
 43
3.0
 50
180.0
  0
INSERT
  5
33A
330
333
100
AcDbEntity
  8
0
 62
     0
370
    -2
100
AcDbBlockReference
  2
_Open30
 10
46.15985801577778
 20
331.8517079673453
 30
0.0
 41
3.0
 42
3.0
 43
3.0
  0
MTEXT
  5
33B
330
333
100
AcDbEntity
  8
0
 62
     0
100
AcDbMText
 10
-13.83914109015255
 20
334.8517065368338
 30
0.0
 40
3.999998092651367
 41
0.0
 71
     5
 72
     1
  1
120
 73
     1
 44
1.0
  0
POINT
  5
33C
330
333
100
AcDbEntity
  8
Defpoints
 62
     0
100
AcDbPoint
 10
-73.84014019608288
 20
313.1521385438422
 30
0.0
  0
POINT
  5
33D
330
333
100
AcDbEntity
  8
Defpoints
 62
     0
100
AcDbPoint
 10
46.15985801577779
 20
312.1521538175322
 30
0.0
  0
POINT
  5
33E
330
333
100
AcDbEntity
  8
Defpoints
 62
     0
100
AcDbPoint
 10
46.15985801577779
 20
331.8517079673453
 30
0.0
  0
ENDBLK
  5
335
330
333
100
AcDbEntity
  8
0
100
AcDbBlockEnd
  0
BLOCK
  5
341
330
340
100
AcDbEntity
  8
0
100
AcDbBlockBegin
  2
*D11
 70
     1
 10
0.0
 20
0.0
 30
0.0
  3
*D11
  1

  0
LINE
  5
343
330
340
100
AcDbEntity
  8
0
  6
ByBlock
 62
     0
370
    -2
100
AcDbLine
 10
-73.84014019608288
 20
-22.78524200938281
 30
0.0
 11
-73.84014019608288
 21
-55.76285251039485
 31
0.0
  0
LINE
  5
344
330
340
100
AcDbEntity
  8
0
  6
ByBlock
 62
     0
370
    -2
100
AcDbLine
 10
-9.840087743996266
 20
-20.78524394653374
 30
0.0
 11
-9.840087743996264
 21
-55.76285251039486
 31
0.0
  0
LINE
  5
345
330
340
100
AcDbEntity
  8
0
  6
ByBlock
 62
     0
370
    -2
100
AcDbLine
 10
-70.84014019608288
 20
-52.19160927747771
 30
0.0
 11
-12.84008774399626
 21
-52.19160927747772
 31
0.0
  0
INSERT
  5
346
330
340
100
AcDbEntity
  8
0
 62
     0
370
    -2
100
AcDbBlockReference
  2
_Open30
 10
-73.84014019608288
 20
-52.19160927747771
 30
0.0
 41
3.0
 42
3.0
 43
3.0
 50
180.0
  0
INSERT
  5
347
330
340
100
AcDbEntity
  8
0
 62
     0
370
    -2
100
AcDbBlockReference
  2
_Open30
 10
-9.840087743996264
 20
-52.19160927747772
 30
0.0
 41
3.0
 42
3.0
 43
3.0
 50
360.0
  0
MTEXT
  5
348
330
340
100
AcDbEntity
  8
0
 62
     0
100
AcDbMText
 10
-41.8391235067826
 20
-49.19161070798919
 30
0.0
 40
3.999998092651367
 41
0.0
 71
     5
 72
     1
  1
64
 73
     1
 44
1.0
  0
POINT
  5
349
330
340
100
AcDbEntity
  8
Defpoints
 62
     0
100
AcDbPoint
 10
-73.84014019608288
 20
-22.78524200938281
 30
0.0
  0
POINT
  5
34A
330
340
100
AcDbEntity
  8
Defpoints
 62
     0
100
AcDbPoint
 10
-9.840087743996266
 20
-20.78524394653374
 30
0.0
  0
POINT
  5
34B
330
340
100
AcDbEntity
  8
Defpoints
 62
     0
100
AcDbPoint
 10
-9.840087743996266
 20
-52.19260927747771
 30
0.0
  0
ENDBLK
  5
342
330
340
100
AcDbEntity
  8
0
100
AcDbBlockEnd
  0
BLOCK
  5
34E
330
34D
100
AcDbEntity
  8
0
100
AcDbBlockBegin
  2
*D12
 70
     1
 10
0.0
 20
0.0
 30
0.0
  3
*D12
  1

  0
LINE
  5
350
330
34D
100
AcDbEntity
  8
0
  6
ByBlock
 62
     0
370
    -2
100
AcDbLine
 10
-5.840121420620062
 20
-16.78524782083559
 30
0.0
 11
10.23456081398485
 21
-16.78524782083559
 31
0.0
  0
LINE
  5
351
330
34D
100
AcDbEntity
  8
0
  6
ByBlock
 62
     0
370
    -2
100
AcDbLine
 10
-5.840121420620062
 20
45.21474457957231
 30
0.0
 11
10.23456081398486
 21
45.21474457957231
 31
0.0
  0
LINE
  5
352
330
34D
100
AcDbEntity
  8
0
  6
ByBlock
 62
     0
370
    -2
100
AcDbLine
 10
7.948570133021914
 20
-13.78524782083559
 30
0.0
 11
7.948570133021923
 21
42.21474457957231
 31
0.0
  0
INSERT
  5
353
330
34D
100
AcDbEntity
  8
0
 62
     0
370
    -2
100
AcDbBlockReference
  2
_Open30
 10
7.948570133021913
 20
-16.78524782083559
 30
0.0
 41
3.0
 42
3.0
 43
3.0
 50
270.0
  0
INSERT
  5
354
330
34D
100
AcDbEntity
  8
0
 62
     0
370
    -2
100
AcDbBlockReference
  2
_Open30
 10
7.948570133021924
 20
45.21474457957231
 30
0.0
 41
3.0
 42
3.0
 43
3.0
 50
89.99999999999999
  0
MTEXT
  5
355
330
34D
100
AcDbEntity
  8
0
 62
     0
100
AcDbMText
 10
4.948571563533394
 20
14.21575553192563
 30
0.0
 40
3.999998092651367
 41
0.0
 71
     5
 72
     1
  1
62
 11
1.862309817964698E-16
 21
1.0
 31
0.0
 73
     1
 44
1.0
  0
POINT
  5
356
330
34D
100
AcDbEntity
  8
Defpoints
 62
     0
100
AcDbPoint
 10
-5.840121420620062
 20
-16.78524782083559
 30
0.0
  0
POINT
  5
357
330
34D
100
AcDbEntity
  8
Defpoints
 62
     0
100
AcDbPoint
 10
-5.840121420620062
 20
45.21474457957231
 30
0.0
  0
POINT
  5
358
330
34D
100
AcDbEntity
  8
Defpoints
 62
     0
100
AcDbPoint
 10
7.948570133021919
 20
45.21474457957231
 30
0.0
  0
ENDBLK
  5
34F
330
34D
100
AcDbEntity
  8
0
100
AcDbBlockEnd
  0
BLOCK
  5
35B
330
35A
100
AcDbEntity
  8
0
100
AcDbBlockBegin
  2
*D13
 70
     1
 10
0.0
 20
0.0
 30
0.0
  3
*D13
  1

  0
LINE
  5
35D
330
35A
100
AcDbEntity
  8
0
  6
ByBlock
 62
     0
370
    -2
100
AcDbLine
 10
352.3270363758946
 20
131.0675045688822
 30
0.0
 11
352.3270363758946
 21
85.20458837837595
 31
0.0
  0
LINE
  5
35E
330
35A
100
AcDbEntity
  8
0
  6
ByBlock
 62
     0
370
    -2
100
AcDbLine
 10
314.3270827185052
 20
112.830622154018
 30
0.0
 11
314.3270827185052
 21
85.20458837837595
 31
0.0
  0
LINE
  5
35F
330
35A
100
AcDbEntity
  8
0
  6
ByBlock
 62
     0
370
    -2
100
AcDbLine
 10
349.3270363758946
 20
88.77583399547885
 30
0.0
 11
317.3270827185052
 21
88.77583399547885
 31
0.0
  0
INSERT
  5
360
330
35A
100
AcDbEntity
  8
0
 62
     0
370
    -2
100
AcDbBlockReference
  2
_Open30
 10
352.3270363758946
 20
88.77583399547885
 30
0.0
 41
3.0
 42
3.0
 43
3.0
  0
INSERT
  5
361
330
35A
100
AcDbEntity
  8
0
 62
     0
370
    -2
100
AcDbBlockReference
  2
_Open30
 10
314.3270827185052
 20
88.77583399547885
 30
0.0
 41
3.0
 42
3.0
 43
3.0
 50
180.0
  0
MTEXT
  5
362
330
35A
100
AcDbEntity
  8
0
 62
     0
100
AcDbMText
 10
333.3290595471998
 20
91.77583399547885
 30
0.0
 40
4.0
 41
0.0
 71
     5
 72
     1
  1
38
 73
     1
 44
1.0
  0
POINT
  5
363
330
35A
100
AcDbEntity
  8
Defpoints
 62
     0
100
AcDbPoint
 10
352.3270363758946
 20
131.0675045688822
 30
0.0
  0
POINT
  5
364
330
35A
100
AcDbEntity
  8
Defpoints
 62
     0
100
AcDbPoint
 10
314.3270827185052
 20
112.830622154018
 30
0.0
  0
POINT
  5
365
330
35A
100
AcDbEntity
  8
Defpoints
 62
     0
100
AcDbPoint
 10
314.3270827185052
 20
88.77483399547884
 30
0.0
  0
ENDBLK
  5
35C
330
35A
100
AcDbEntity
  8
0
100
AcDbBlockEnd
  0
BLOCK
  5
368
330
367
100
AcDbEntity
  8
0
100
AcDbBlockBegin
  2
*D14
 70
     1
 10
0.0
 20
0.0
 30
0.0
  3
*D14
  1

  0
LINE
  5
36A
330
367
100
AcDbEntity
  8
0
  6
ByBlock
 62
     0
370
    -2
100
AcDbLine
 10
337.2857234286409
 20
111.0674857934194
 30
0.0
 11
378.7012888515548
 21
111.0674857934194
 31
0.0
  0
LINE
  5
36B
330
367
100
AcDbEntity
  8
0
  6
ByBlock
 62
     0
370
    -2
100
AcDbLine
 10
326.9086407585644
 20
125.567493206747
 30
0.0
 11
378.7012888515548
 21
125.567493206747
 31
0.0
  0
LINE
  5
36C
330
367
100
AcDbEntity
  8
0
  6
ByBlock
 62
     0
370
    -2
100
AcDbLine
 10
375.1300456186377
 20
125.567493206747
 30
0.0
 11
375.1300456186377
 21
145.3615978164378
 31
0.0
  0
LINE
  5
36D
330
367
100
AcDbEntity
  8
0
  6
ByBlock
 62
     0
370
    -2
100
AcDbLine
 10
375.1300456186377
 20
114.0674857934194
 30
0.0
 11
375.1300456186377
 21
122.567493206747
 31
0.0
  0
INSERT
  5
36E
330
367
100
AcDbEntity
  8
0
 62
     0
370
    -2
100
AcDbBlockReference
  2
_Open30
 10
375.1300456186377
 20
111.0674857934194
 30
0.0
 41
3.0
 42
3.0
 43
3.0
 50
270.0
  0
INSERT
  5
36F
330
367
100
AcDbEntity
  8
0
 62
     0
370
    -2
100
AcDbBlockReference
  2
_Open30
 10
375.1300456186377
 20
125.567493206747
 30
0.0
 41
3.0
 42
3.0
 43
3.0
 50
90.0
  0
MTEXT
  5
370
330
367
100
AcDbEntity
  8
0
 62
     0
100
AcDbMText
 10
372.1300456186377
 20
138.552074006914
 30
0.0
 40
4.0
 41
0.0
 71
     5
 72
     1
  1
14.5
 11
0.0
 21
1.0
 31
0.0
 73
     1
 44
1.0
  0
POINT
  5
371
330
367
100
AcDbEntity
  8
Defpoints
 62
     0
100
AcDbPoint
 10
337.2857234286409
 20
111.0674857934194
 30
0.0
  0
POINT
  5
372
330
367
100
AcDbEntity
  8
Defpoints
 62
     0
100
AcDbPoint
 10
326.9086407585644
 20
125.567493206747
 30
0.0
  0
POINT
  5
373
330
367
100
AcDbEntity
  8
Defpoints
 62
     0
100
AcDbPoint
 10
375.1290456186377
 20
125.567493206747
 30
0.0
  0
ENDBLK
  5
369
330
367
100
AcDbEntity
  8
0
100
AcDbBlockEnd
  0
BLOCK
  5
376
330
375
100
AcDbEntity
  8
0
100
AcDbBlockBegin
  2
*D15
 70
     1
 10
0.0
 20
0.0
 30
0.0
  3
*D15
  1

  0
LINE
  5
378
330
375
100
AcDbEntity
  8
0
  6
ByBlock
 62
     0
370
    -2
100
AcDbLine
 10
-58.79878433348559
 20
111.0674857934194
 30
0.0
 11
-95.29005044467672
 21
111.0674857934194
 31
0.0
  0
LINE
  5
379
330
375
100
AcDbEntity
  8
0
  6
ByBlock
 62
     0
370
    -2
100
AcDbLine
 10
-26.84012134611426
 20
159.5674888854103
 30
0.0
 11
-95.29005044467671
 21
159.5674888854103
 31
0.0
  0
LINE
  5
37A
330
375
100
AcDbEntity
  8
0
  6
ByBlock
 62
     0
370
    -2
100
AcDbLine
 10
-91.71879767501656
 20
114.0674857934194
 30
0.0
 11
-91.71879767501655
 21
156.5674888854103
 31
0.0
  0
INSERT
  5
37B
330
375
100
AcDbEntity
  8
0
 62
     0
370
    -2
100
AcDbBlockReference
  2
_Open30
 10
-91.71879767501656
 20
111.0674857934194
 30
0.0
 41
3.0
 42
3.0
 43
3.0
 50
270.0
  0
INSERT
  5
37C
330
375
100
AcDbEntity
  8
0
 62
     0
370
    -2
100
AcDbBlockReference
  2
_Open30
 10
-91.71879767501655
 20
159.5674888854103
 30
0.0
 41
3.0
 42
3.0
 43
3.0
 50
89.99999999999999
  0
MTEXT
  5
37D
330
375
100
AcDbEntity
  8
0
 62
     0
100
AcDbMText
 10
-94.71879767501655
 20
135.3184873394148
 30
0.0
 40
4.0
 41
0.0
 71
     5
 72
     1
  1
48.5
 11
2.930072950355900E-16
 21
1.0
 31
0.0
 73
     1
 44
1.0
  0
POINT
  5
37E
330
375
100
AcDbEntity
  8
Defpoints
 62
     0
100
AcDbPoint
 10
-58.79878433348559
 20
111.0674857934194
 30
0.0
  0
POINT
  5
37F
330
375
100
AcDbEntity
  8
Defpoints
 62
     0
100
AcDbPoint
 10
-26.84012134611426
 20
159.5674888854103
 30
0.0
  0
POINT
  5
380
330
375
100
AcDbEntity
  8
Defpoints
 62
     0
100
AcDbPoint
 10
-91.71979767501655
 20
159.5674888854103
 30
0.0
  0
ENDBLK
  5
377
330
375
100
AcDbEntity
  8
0
100
AcDbBlockEnd
  0
BLOCK
  5
383
330
382
100
AcDbEntity
  8
0
100
AcDbBlockBegin
  2
*D16
 70
     1
 10
0.0
 20
0.0
 30
0.0
  3
*D16
  1

  0
LINE
  5
385
330
382
100
AcDbEntity
  8
0
  6
ByBlock
 62
     0
370
    -2
100
AcDbLine
 10
-70.84011449158021
 20
236.1521702088092
 30
0.0
 11
-95.29005044467672
 21
236.1521702088092
 31
0.0
  0
LINE
  5
386
330
382
100
AcDbEntity
  8
0
  6
ByBlock
 62
     0
370
    -2
100
AcDbLine
 10
-70.84011449158021
 20
316.1521690167164
 30
0.0
 11
-95.29005044467671
 21
316.1521690167164
 31
0.0
  0
LINE
  5
387
330
382
100
AcDbEntity
  8
0
  6
ByBlock
 62
     0
370
    -2
100
AcDbLine
 10
-91.71879767501656
 20
239.1521702088092
 30
0.0
 11
-91.71879767501655
 21
313.1521690167164
 31
0.0
  0
INSERT
  5
388
330
382
100
AcDbEntity
  8
0
 62
     0
370
    -2
100
AcDbBlockReference
  2
_Open30
 10
-91.71879767501656
 20
236.1521702088092
 30
0.0
 41
3.0
 42
3.0
 43
3.0
 50
270.0
  0
INSERT
  5
389
330
382
100
AcDbEntity
  8
0
 62
     0
370
    -2
100
AcDbBlockReference
  2
_Open30
 10
-91.71879767501655
 20
316.1521690167164
 30
0.0
 41
3.0
 42
3.0
 43
3.0
 50
89.99999999999999
  0
MTEXT
  5
38A
330
382
100
AcDbEntity
  8
0
 62
     0
100
AcDbMText
 10
-94.71879767501655
 20
276.1531696127628
 30
0.0
 40
4.0
 41
0.0
 71
     5
 72
     1
  1
80
 11
1.776356865870030E-16
 21
1.0
 31
0.0
 73
     1
 44
1.0
  0
POINT
  5
38B
330
382
100
AcDbEntity
  8
Defpoints
 62
     0
100
AcDbPoint
 10
-70.84011449158021
 20
236.1521702088092
 30
0.0
  0
POINT
  5
38C
330
382
100
AcDbEntity
  8
Defpoints
 62
     0
100
AcDbPoint
 10
-70.84011449158021
 20
316.1521690167164
 30
0.0
  0
POINT
  5
38D
330
382
100
AcDbEntity
  8
Defpoints
 62
     0
100
AcDbPoint
 10
-91.71979767501655
 20
316.1521690167164
 30
0.0
  0
ENDBLK
  5
384
330
382
100
AcDbEntity
  8
0
100
AcDbBlockEnd
  0
BLOCK
  5
390
330
38F
100
AcDbEntity
  8
0
100
AcDbBlockBegin
  2
*D17
 70
     1
 10
0.0
 20
0.0
 30
0.0
  3
*D17
  1

  0
LINE
  5
392
330
38F
100
AcDbEntity
  8
0
  6
ByBlock
 62
     0
370
    -2
100
AcDbLine
 10
-187.6616068532823
 20
120.4433296554785
 30
0.0
 11
-187.6616068532823
 21
90.59933555522062
 31
0.0
  0
LINE
  5
393
330
38F
100
AcDbEntity
  8
0
  6
ByBlock
 62
     0
370
    -2
100
AcDbLine
 10
-171.6616032770037
 20
111.5866303207482
 30
0.0
 11
-171.6616032770037
 21
90.59933555522062
 31
0.0
  0
LINE
  5
394
330
38F
100
AcDbEntity
  8
0
  6
ByBlock
 62
     0
370
    -2
100
AcDbLine
 10
-184.6616068532823
 20
94.17058594069502
 30
0.0
 11
-174.6616032770037
 21
94.17058594069502
 31
0.0
  0
INSERT
  5
395
330
38F
100
AcDbEntity
  8
0
 62
     0
370
    -2
100
AcDbBlockReference
  2
_Open30
 10
-187.6616068532823
 20
94.17058594069502
 30
0.0
 41
3.0
 42
3.0
 43
3.0
 50
180.0
  0
INSERT
  5
396
330
38F
100
AcDbEntity
  8
0
 62
     0
370
    -2
100
AcDbBlockReference
  2
_Open30
 10
-171.6616032770037
 20
94.17058594069502
 30
0.0
 41
3.0
 42
3.0
 43
3.0
  0
MTEXT
  5
397
330
38F
100
AcDbEntity
  8
0
 62
     0
100
AcDbMText
 10
-179.6605955284
 20
97.17058594069502
 30
0.0
 40
4.0
 41
0.0
 71
     5
 72
     1
  1
16
 73
     1
 44
1.0
  0
POINT
  5
398
330
38F
100
AcDbEntity
  8
Defpoints
 62
     0
100
AcDbPoint
 10
-187.6616068532823
 20
120.4433296554785
 30
0.0
  0
POINT
  5
399
330
38F
100
AcDbEntity
  8
Defpoints
 62
     0
100
AcDbPoint
 10
-171.6616032770037
 20
111.5866303207482
 30
0.0
  0
POINT
  5
39A
330
38F
100
AcDbEntity
  8
Defpoints
 62
     0
100
AcDbPoint
 10
-171.6616032770037
 20
94.16958594069501
 30
0.0
  0
ENDBLK
  5
391
330
38F
100
AcDbEntity
  8
0
100
AcDbBlockEnd
  0
BLOCK
  5
39D
330
39C
100
AcDbEntity
  8
0
100
AcDbBlockBegin
  2
*D18
 70
     1
 10
0.0
 20
0.0
 30
0.0
  3
*D18
  1

  0
LINE
  5
39F
330
39C
100
AcDbEntity
  8
0
  6
ByBlock
 62
     0
370
    -2
100
AcDbLine
 10
-211.6616217544433
 20
111.0674857934194
 30
0.0
 11
-231.7609670664971
 21
111.0674857934194
 31
0.0
  0
LINE
  5
3A0
330
39C
100
AcDbEntity
  8
0
  6
ByBlock
 62
     0
370
    -2
100
AcDbLine
 10
-197.1695298378239
 20
129.9674853687363
 30
0.0
 11
-231.7609670664971
 21
129.9674853687363
 31
0.0
  0
LINE
  5
3A1
330
39C
100
AcDbEntity
  8
0
  6
ByBlock
 62
     0
370
    -2
100
AcDbLine
 10
-228.18972383358
 20
114.0674857934194
 30
0.0
 11
-228.18972383358
 21
126.9674853687363
 31
0.0
  0
INSERT
  5
3A2
330
39C
100
AcDbEntity
  8
0
 62
     0
370
    -2
100
AcDbBlockReference
  2
_Open30
 10
-228.18972383358
 20
111.0674857934194
 30
0.0
 41
3.0
 42
3.0
 43
3.0
 50
270.0
  0
INSERT
  5
3A3
330
39C
100
AcDbEntity
  8
0
 62
     0
370
    -2
100
AcDbBlockReference
  2
_Open30
 10
-228.18972383358
 20
129.9674853687363
 30
0.0
 41
3.0
 42
3.0
 43
3.0
 50
90.0
  0
MTEXT
  5
3A4
330
39C
100
AcDbEntity
  8
0
 62
     0
100
AcDbMText
 10
-231.18972383358
 20
120.5184849850314
 30
0.0
 40
4.0
 41
0.0
 71
     5
 72
     1
  1
19
 11
0.0
 21
1.0
 31
0.0
 73
     1
 44
1.0
  0
POINT
  5
3A5
330
39C
100
AcDbEntity
  8
Defpoints
 62
     0
100
AcDbPoint
 10
-211.6616217544433
 20
111.0674857934194
 30
0.0
  0
POINT
  5
3A6
330
39C
100
AcDbEntity
  8
Defpoints
 62
     0
100
AcDbPoint
 10
-197.1695298378239
 20
129.9674853687363
 30
0.0
  0
POINT
  5
3A7
330
39C
100
AcDbEntity
  8
Defpoints
 62
     0
100
AcDbPoint
 10
-228.19072383358
 20
129.9674853687363
 30
0.0
  0
ENDBLK
  5
39E
330
39C
100
AcDbEntity
  8
0
100
AcDbBlockEnd
  0
BLOCK
  5
3AF
330
3A8
100
AcDbEntity
  8
0
100
AcDbBlockBegin
  2
SYM0002
 70
     0
 10
0.0
 20
0.0
 30
0.0
  3
SYM0002
  1

  0
LINE
  5
3A9
330
3A8
100
AcDbEntity
  8
0
  6
Continuous
 62
     7
100
AcDbLine
 10
0.0
 20
0.0
 30
0.0
 11
-16.18330120198902
 21
51.83683634934593
 31
0.0
  0
LINE
  5
3AA
330
3A8
100
AcDbEntity
  8
0
  6
Continuous
 62
     7
100
AcDbLine
 10
0.0
 20
0.0
 30
0.0
 11
-1.452062271514734
 21
2.808898744996611
 31
0.0
  0
LINE
  5
3AB
330
3A8
100
AcDbEntity
  8
0
  6
Continuous
 62
     7
100
AcDbLine
 10
0.0
 20
0.0
 30
0.0
 11
-0.403952861464205
 21
3.136115285781898
 31
0.0
  0
LINE
  5
3AC
330
3A8
100
AcDbEntity
  8
0
  6
Continuous
 62
     7
100
AcDbLine
 10
-16.18330120198905
 20
51.83683634934593
 30
0.0
 11
-11.8306372875372
 21
51.83683634934593
 31
0.0
  0
MTEXT
  5
3AD
330
3A8
100
AcDbEntity
  8
0
 62
     7
100
AcDbMText
 10
-9.258880707493745
 20
49.83683197530786
 30
0.0
 40
4.0
 41
0.0
 71
     7
 72
     1
  1
{\W0.833333;電線引出口　\U+22059}
 73
     1
 44
1.0
  0
ENDBLK
  5
3B0
330
3A8
100
AcDbEntity
  8
0
100
AcDbBlockEnd
  0
ENDSEC
  0
SECTION
  2
ENTITIES
  0
LINE
  5
30E
330
1F
100
AcDbEntity
  8
0
  6
Continuous
 62
     7
100
AcDbLine
 10
-256.6261718750001
 20
394.8956717354911
 30
0.0
 11
-256.6261718750001
 21
-67.09597167968761
 31
0.0
  0
LINE
  5
30F
330
1F
100
AcDbEntity
  8
0
  6
Continuous
 62
     7
100
AcDbLine
 10
-256.6261718750001
 20
355.8956717354911
 30
0.0
 11
419.2288504464289
 21
355.8956717354911
 31
0.0
  0
LINE
  5
310
330
1F
100
AcDbEntity
  8
0
  6
Continuous
 62
     7
100
AcDbLine
 10
-256.6261718750001
 20
394.8956717354911
 30
0.0
 11
419.2288504464289
 21
394.8956717354911
 31
0.0
  0
LINE
  5
311
330
1F
100
AcDbEntity
  8
0
  6
Continuous
 62
     7
100
AcDbLine
 10
-256.6261718750001
 20
-67.09597167968761
 30
0.0
 11
419.2288504464289
 21
-67.09597167968761
 31
0.0
  0
LINE
  5
312
330
1F
100
AcDbEntity
  8
0
  6
Continuous
 62
     7
100
AcDbLine
 10
419.2288504464289
 20
394.8956717354911
 30
0.0
 11
419.2288504464289
 21
-67.09597167968761
 31
0.0
  0
MTEXT
  5
313
330
1F
100
AcDbEntity
  8
0
 62
     7
100
AcDbMText
 10
-240.6853895289557
 20
337.0302176339285
 30
0.0
 40
10.0
 41
0.0
 71
     7
 72
     1
  1
{\W0.833333;BN-1411}
 73
     1
 44
1.0
  0
MTEXT
  5
314
330
1F
100
AcDbEntity
  8
0
 62
     7
100
AcDbMText
 10
58.4095349392435
 20
313.5537820489952
 30
0.0
 40
9.0
 41
0.0
 71
     7
 72
     1
  1
{\W1;*2}
 73
     1
 44
1.0
  0
MTEXT
  5
315
330
1F
100
AcDbEntity
  8
0
 62
     7
100
AcDbMText
 10
59.2109370012496
 20
166.8972047018792
 30
0.0
 40
9.0
 41
0.0
 71
     7
 72
     1
  1
{\W1;*1}
 73
     1
 44
1.0
  0
MTEXT
  5
316
330
1F
100
AcDbEntity
  8
0
 62
     7
100
AcDbMText
 10
-150.690726189172
 20
167.3642955184766
 30
0.0
 40
9.0
 41
0.0
 71
     7
 72
     1
  1
{\W1;*3}
 73
     1
 44
1.0
  0
MTEXT
  5
317
330
1F
100
AcDbEntity
  8
0
 62
     7
100
AcDbMText
 10
171.4072256821034
 20
169.3014108878975
 30
0.0
 40
9.0
 41
0.0
 71
     7
 72
     1
  1
{\W1;*4}
 73
     1
 44
1.0
  0
MTEXT
  5
318
330
1F
100
AcDbEntity
  8
0
 62
     7
100
AcDbMText
 10
340.5030607653902
 20
166.0958026398731
 30
0.0
 40
9.0
 41
0.0
 71
     7
 72
     1
  1
{\W1;*5}
 73
     1
 44
1.0
  0
MTEXT
  5
319
330
1F
100
AcDbEntity
  8
0
 62
     7
100
AcDbMText
 10
58.4095349392435
 20
63.5163387030925
 30
0.0
 40
9.0
 41
0.0
 71
     7
 72
     1
  1
{\W1;*6}
 73
     1
 44
1.0
  0
MTEXT
  5
31A
330
1F
100
AcDbEntity
  8
0
 62
     7
100
AcDbMText
 10
-229.6645568245071
 20
367.3956717354911
 30
0.0
 40
16.0
 41
0.0
 71
     7
 72
     1
  1
{\W0.833333;NIHON　SEIKI　　ＢＮ－1411}
 73
     1
 44
1.0
  0
MTEXT
  5
31B
330
1F
100
AcDbEntity
  8
0
 62
     7
100
AcDbMText
 10
413.4407264696825
 20
-66.2926903717385
 30
0.0
 40
0.5
 41
0.0
 71
     7
 72
     1
  1
{\W0.833333;ADAA-0004}
 73
     1
 44
1.0
  0
INSERT
  5
31C
330
1F
100
AcDbEntity
  8
0
 62
     7
100
AcDbBlockReference
  2
DTL0001
 10
-73.84014019608288
 20
111.0674857934194
 30
0.0
  0
INSERT
  5
31D
330
1F
100
AcDbEntity
  8
0
 62
     7
100
AcDbBlockReference
  2
DTL0002
 10
-73.84014019608288
 20
276.1521696127628
 30
0.0
  0
INSERT
  5
31E
330
1F
100
AcDbEntity
  8
0
 62
     7
100
AcDbBlockReference
  2
DTL0003
 10
-171.6616032770037
 20
111.0674857934194
 30
0.0
  0
INSERT
  5
31F
330
1F
100
AcDbEntity
  8
0
 62
     7
100
AcDbBlockReference
  2
DTL0004
 10
139.2434671633919
 20
111.0674857934194
 30
0.0
  0
INSERT
  5
320
330
1F
100
AcDbEntity
  8
0
 62
     7
100
AcDbBlockReference
  2
DTL0005
 10
352.3270363758946
 20
111.0674857934194
 30
0.0
  0
INSERT
  5
321
330
1F
100
AcDbEntity
  8
0
 62
     7
100
AcDbBlockReference
  2
DTL0006
 10
-73.84014019608288
 20
14.21475553192563
 30
0.0
  0
INSERT
  5
328
330
1F
100
AcDbEntity
  8
0
 62
     7
100
AcDbBlockReference
  2
SYM0001
 10
-8.71585657285194
 20
-19.07381284731464
 30
0.0
  0
DIMENSION
  5
32B
330
1F
100
AcDbEntity
  8
0
 62
     7
100
AcDbDimension
  2
*D10
 10
46.15985801577778
 20
331.8517079673453
 30
0.0
 11
-13.83914109015255
 21
331.8517079673453
 31
0.0
 70
   160
 71
     5
 42
120.0
  3
DIMSTYLE_FULLSCALE
100
AcDbAlignedDimension
 13
-73.84014019608288
 23
313.1521385438422
 33
0.0
 14
46.15985801577779
 24
312.1521538175322
 34
0.0
 50
180.0
100
AcDbRotatedDimension
1001
ACAD
1000
DSTYLE
1002
{
1070
    40
1040
1.0
1070
   278
1070
    46
1070
   147
1040
0.999999523162842
1070
    77
1070
     1
1070
    74
1070
     0
1070
    73
1070
     0
1070
    42
1040
0.0
1070
    44
1040
2.286033596306538
1070
    76
1070
     0
1070
    75
1070
     0
1070
   279
1070
     0
1070
   271
1070
     0
1070
   144
1040
1.000000014901161
1070
   173
1070
     1
1070
    41
1040
3.0
1070
   140
1040
3.999998092651367
1070
   344
1005
32C
1070
   343
1005
32C
1002
}
  0
DIMENSION
  5
33F
330
1F
100
AcDbEntity
  8
0
 62
     7
100
AcDbDimension
  2
*D11
 10
-9.840087743996264
 20
-52.19160927747772
 30
0.0
 11
-41.8391235067826
 21
-52.19160927747772
 31
0.0
 70
   160
 71
     5
 42
64.00001525878906
  3
DIMSTYLE_FULLSCALE
100
AcDbAlignedDimension
 13
-73.84014019608288
 23
-22.78524200938281
 33
0.0
 14
-9.840087743996266
 24
-20.78524394653374
 34
0.0
 50
180.0
100
AcDbRotatedDimension
1001
ACAD
1000
DSTYLE
1002
{
1070
    40
1040
1.0
1070
   278
1070
    46
1070
   147
1040
0.999999523162842
1070
    77
1070
     1
1070
    74
1070
     0
1070
    73
1070
     0
1070
    42
1040
0.0
1070
    44
1040
3.571243232917141
1070
    76
1070
     0
1070
    75
1070
     0
1070
   279
1070
     0
1070
   271
1070
     0
1070
   144
1040
0.999999418855202
1070
   173
1070
     1
1070
    41
1040
3.0
1070
   140
1040
3.999998092651367
1070
   344
1005
32C
1070
   343
1005
32C
1002
}
  0
DIMENSION
  5
34C
330
1F
100
AcDbEntity
  8
0
 62
     7
100
AcDbDimension
  2
*D12
 10
7.948570133021924
 20
45.21474457957231
 30
0.0
 11
7.948570133021919
 21
14.21575553192563
 31
0.0
 70
   160
 71
     5
 42
62.0
  3
DIMSTYLE_FULLSCALE
100
AcDbAlignedDimension
 13
-5.840121420620062
 23
-16.78524782083559
 33
0.0
 14
-5.840121420620062
 24
45.21474457957231
 34
0.0
 50
270.0
100
AcDbRotatedDimension
1001
ACAD
1000
DSTYLE
1002
{
1070
    40
1040
1.0
1070
   278
1070
    46
1070
   147
1040
0.999999523162842
1070
    77
1070
     1
1070
    74
1070
     0
1070
    73
1070
     0
1070
    42
1040
0.0
1070
    44
1040
2.285990680962939
1070
    76
1070
     0
1070
    75
1070
     0
1070
   279
1070
     0
1070
   271
1070
     0
1070
   144
1040
1.000000122574081
1070
   173
1070
     1
1070
    41
1040
3.0
1070
   140
1040
3.999998092651367
1070
   344
1005
32C
1070
   343
1005
32C
1002
}
  0
DIMENSION
  5
359
330
1F
100
AcDbEntity
  8
0
 62
     7
100
AcDbDimension
  2
*D13
 10
314.3270827185052
 20
88.77583399547885
 30
0.0
 11
333.3290595471998
 21
88.77583399547885
 31
0.0
 70
   160
 71
     5
 42
37.99995422363281
  3
DIMSTYLE_FULLSCALE
100
AcDbAlignedDimension
 13
352.3270363758946
 23
131.0675045688822
 33
0.0
 14
314.3270827185052
 24
112.830622154018
 34
0.0
100
AcDbRotatedDimension
1001
ACAD
1000
DSTYLE
1002
{
1070
    40
1040
1.0
1070
   278
1070
    46
1070
   147
1040
1.0
1070
    77
1070
     1
1070
    74
1070
     0
1070
    73
1070
     0
1070
    42
1040
0.0
1070
    44
1040
3.571245617102903
1070
    76
1070
     0
1070
    75
1070
     0
1070
   279
1070
     0
1070
   271
1070
     0
1070
   144
1040
1.000000014901161
1070
   173
1070
     1
1070
    41
1040
3.0
1070
   140
1040
4.0
1070
   344
1005
32C
1070
   343
1005
32C
1002
}
  0
DIMENSION
  5
366
330
1F
100
AcDbEntity
  8
0
 62
     7
100
AcDbDimension
  2
*D14
 10
375.1300456186377
 20
125.567493206747
 30
0.0
 11
375.1300456186377
 21
138.552074006914
 31
0.0
 70
   160
 71
     5
 42
14.5
  3
DIMSTYLE_FULLSCALE
100
AcDbAlignedDimension
 13
337.2857234286409
 23
111.0674857934194
 33
0.0
 14
326.9086407585644
 24
125.567493206747
 34
0.0
 50
270.0
100
AcDbRotatedDimension
1001
ACAD
1000
DSTYLE
1002
{
1070
    40
1040
1.0
1070
   278
1070
    46
1070
   147
1040
1.0
1070
    77
1070
     1
1070
    74
1070
     0
1070
    73
1070
     0
1070
    42
1040
0.0
1070
    44
1040
3.571243232917141
1070
    76
1070
     0
1070
    75
1070
     0
1070
   279
1070
     0
1070
    78
1070
     0
1070
   271
1070
     1
1070
   144
1040
0.99999948873629
1070
   173
1070
     1
1070
    41
1040
3.0
1070
   140
1040
4.0
1070
   344
1005
32C
1070
   343
1005
32C
1002
}
  0
DIMENSION
  5
374
330
1F
100
AcDbEntity
  8
0
 62
     7
100
AcDbDimension
  2
*D15
 10
-91.71879767501655
 20
159.5674888854103
 30
0.0
 11
-91.71879767501655
 21
135.3184873394148
 31
0.0
 70
   160
 71
     5
 42
48.50000381469727
  3
DIMSTYLE_FULLSCALE
100
AcDbAlignedDimension
 13
-58.79878433348559
 23
111.0674857934194
 33
0.0
 14
-26.84012134611426
 24
159.5674888854103
 34
0.0
 50
270.0
100
AcDbRotatedDimension
1001
ACAD
1000
DSTYLE
1002
{
1070
    40
1040
1.0
1070
   278
1070
    46
1070
   147
1040
1.0
1070
    77
1070
     1
1070
    74
1070
     0
1070
    73
1070
     0
1070
    42
1040
0.0
1070
    44
1040
3.571252769660163
1070
    76
1070
     0
1070
    75
1070
     0
1070
   279
1070
     0
1070
    78
1070
     0
1070
   271
1070
     1
1070
   144
1040
1.000000014901161
1070
   173
1070
     1
1070
    41
1040
3.0
1070
   140
1040
4.0
1070
   344
1005
32C
1070
   343
1005
32C
1002
}
  0
DIMENSION
  5
381
330
1F
100
AcDbEntity
  8
0
 62
     7
100
AcDbDimension
  2
*D16
 10
-91.71879767501655
 20
316.1521690167164
 30
0.0
 11
-91.71879767501655
 21
276.1531696127628
 31
0.0
 70
   160
 71
     5
 42
80.0
  3
DIMSTYLE_FULLSCALE
100
AcDbAlignedDimension
 13
-70.84011449158021
 23
236.1521702088092
 33
0.0
 14
-70.84011449158021
 24
316.1521690167164
 34
0.0
 50
270.0
100
AcDbRotatedDimension
1001
ACAD
1000
DSTYLE
1002
{
1070
    40
1040
1.0
1070
   278
1070
    46
1070
   147
1040
1.0
1070
    77
1070
     1
1070
    74
1070
     0
1070
    73
1070
     0
1070
    42
1040
0.0
1070
    44
1040
3.571252769660163
1070
    76
1070
     0
1070
    75
1070
     0
1070
   279
1070
     0
1070
   271
1070
     0
1070
   144
1040
1.000000014901161
1070
   173
1070
     1
1070
    41
1040
3.0
1070
   140
1040
4.0
1070
   344
1005
32C
1070
   343
1005
32C
1002
}
  0
DIMENSION
  5
38E
330
1F
100
AcDbEntity
  8
0
 62
     7
100
AcDbDimension
  2
*D17
 10
-171.6616032770037
 20
94.17058594069502
 30
0.0
 11
-179.6605955284
 21
94.17058594069502
 31
0.0
 70
   160
 71
     5
 42
16.00000381469727
  3
DIMSTYLE_FULLSCALE
100
AcDbAlignedDimension
 13
-187.6616068532823
 23
120.4433296554785
 33
0.0
 14
-171.6616032770037
 24
111.5866303207482
 34
0.0
 50
180.0
100
AcDbRotatedDimension
1001
ACAD
1000
DSTYLE
1002
{
1070
    40
1040
1.0
1070
   278
1070
    46
1070
   147
1040
1.0
1070
    77
1070
     1
1070
    74
1070
     0
1070
    73
1070
     0
1070
    42
1040
0.0
1070
    44
1040
3.5712503854744
1070
    76
1070
     0
1070
    75
1070
     0
1070
   279
1070
     0
1070
   271
1070
     0
1070
   144
1040
1.000000014901161
1070
   173
1070
     1
1070
    41
1040
3.0
1070
   140
1040
4.0
1070
   344
1005
32C
1070
   343
1005
32C
1002
}
  0
DIMENSION
  5
39B
330
1F
100
AcDbEntity
  8
0
 62
     7
100
AcDbDimension
  2
*D18
 10
-228.18972383358
 20
129.9674853687363
 30
0.0
 11
-228.18972383358
 21
120.5184849850314
 31
0.0
 70
   160
  1
19
 71
     5
 42
18.89999957531692
  3
DIMSTYLE_FULLSCALE
100
AcDbAlignedDimension
 13
-211.6616217544433
 23
111.0674857934194
 33
0.0
 14
-197.1695298378239
 24
129.9674853687363
 34
0.0
 50
270.0
100
AcDbRotatedDimension
1001
ACAD
1000
DSTYLE
1002
{
1070
    40
1040
1.0
1070
   278
1070
    46
1070
   147
1040
1.0
1070
    77
1070
     1
1070
    74
1070
     0
1070
    73
1070
     0
1070
    42
1040
0.0
1070
    44
1040
3.571243232917112
1070
    76
1070
     0
1070
    75
1070
     0
1070
   279
1070
     0
1070
   271
1070
     0
1070
   173
1070
     1
1070
    41
1040
3.0
1070
   140
1040
4.0
1070
   344
1005
32C
1070
   343
1005
32C
1002
}
  0
INSERT
  5
3AE
330
1F
100
AcDbEntity
  8
0
 62
     7
100
AcDbBlockReference
  2
SYM0002
 10
-188.8536591910278
 20
133.7857350283211
 30
0.0
  0
ENDSEC
  0
SECTION
  2
OBJECTS
  0
DICTIONARY
  5
C
330
0
100
AcDbDictionary
281
     1
  3
ACAD_GROUP
350
D
  3
ACAD_LAYOUT
350
1A
  3
ACAD_MATERIAL
350
43
  3
ACAD_MLEADERSTYLE
350
6B
  3
ACAD_MLINESTYLE
350
17
  3
ACAD_PLOTSETTINGS
350
19
  3
ACAD_PLOTSTYLENAME
350
E
  3
ACAD_SCALELIST
350
47
  3
ACAD_TABLESTYLE
350
69
  3
ACAD_VISUALSTYLE
350
2A
  3
ACDB_RECOMPOSE_DATA
350
400
  3
AcDbVariableDictionary
350
3B1
  3
DWGPROPS
350
3BC
  0
DICTIONARY
  5
3BF
330
8
100
AcDbDictionary
280
     1
281
     1
  3
ACAD_XREC_ROUNDTRIP
360
3C0
  0
DICTIONARY
  5
3BD
330
327
100
AcDbDictionary
280
     1
281
     1
  3
ACAD_MTEXT_RT
360
3BE
  0
DICTIONARY
  5
D
102
{ACAD_REACTORS
330
C
102
}
330
C
100
AcDbDictionary
281
     1
  0
DICTIONARY
  5
1A
102
{ACAD_REACTORS
330
C
102
}
330
C
100
AcDbDictionary
281
     1
  3
Layout1
350
1E
  3
Layout2
350
26
  3
Model
350
22
  0
DICTIONARY
  5
43
102
{ACAD_REACTORS
330
C
102
}
330
C
100
AcDbDictionary
281
     1
  3
ByBlock
350
45
  3
ByLayer
350
44
  3
Global
350
46
  0
DICTIONARY
  5
6B
102
{ACAD_REACTORS
330
C
102
}
330
C
100
AcDbDictionary
281
     1
  3
Standard
350
6C
  0
DICTIONARY
  5
17
102
{ACAD_REACTORS
330
C
102
}
330
C
100
AcDbDictionary
281
     1
  3
Standard
350
18
  0
DICTIONARY
  5
19
102
{ACAD_REACTORS
330
C
102
}
330
C
100
AcDbDictionary
281
     1
  0
ACDBDICTIONARYWDFLT
  5
E
102
{ACAD_REACTORS
330
C
102
}
330
C
100
AcDbDictionary
281
     1
  3
Normal
350
F
100
AcDbDictionaryWithDefault
340
F
  0
DICTIONARY
  5
47
102
{ACAD_REACTORS
330
C
102
}
330
C
100
AcDbDictionary
281
     1
  3
A0
350
48
  3
A1
350
49
  3
A2
350
4A
  3
A3
350
4B
  3
A4
350
4C
  3
A5
350
4D
  3
A6
350
4E
  3
A7
350
4F
  3
A8
350
50
  3
A9
350
51
  3
B0
350
52
  3
B1
350
53
  3
B2
350
54
  3
B3
350
55
  3
B4
350
56
  3
B5
350
57
  3
B6
350
58
  3
B7
350
59
  3
B8
350
5A
  3
B9
350
5B
  3
C0
350
5C
  3
C1
350
5D
  3
C2
350
5E
  3
C3
350
5F
  3
C4
350
60
  3
C5
350
61
  3
C6
350
62
  3
C7
350
63
  3
C8
350
64
  3
C9
350
65
  3
D0
350
66
  3
D1
350
67
  3
D2
350
68
  0
DICTIONARY
  5
69
102
{ACAD_REACTORS
330
C
102
}
330
C
100
AcDbDictionary
281
     1
  3
Standard
350
6A
  0
DICTIONARY
  5
2A
102
{ACAD_REACTORS
330
C
102
}
330
C
100
AcDbDictionary
281
     1
  3
2dWireframe
350
2F
  3
Basic
350
32
  3
Brighten
350
36
  3
ColorChange
350
3A
  3
Conceptual
350
34
  3
Dim
350
35
  3
EdgeColorOff
350
3D
  3
Facepattern
350
39
  3
Flat
350
2B
  3
FlatWithEdges
350
2C
  3
Gouraud
350
2D
  3
GouraudWithEdges
350
2E
  3
Hidden
350
31
  3
JitterOff
350
3B
  3
Linepattern
350
38
  3
OverhangOff
350
3C
  3
Realistic
350
33
  3
Shaded
350
42
  3
Shaded with edges
350
41
  3
Shades of Gray
350
3E
  3
Sketchy
350
3F
  3
Thicken
350
37
  3
Wireframe
350
30
  3
X-Ray
350
40
  0
XRECORD
  5
400
102
{ACAD_REACTORS
330
C
102
}
330
C
100
AcDbXrecord
280
     1
 90
        1
330
327
  0
DICTIONARY
  5
3B1
102
{ACAD_REACTORS
330
C
102
}
330
C
100
AcDbDictionary
281
     1
  3
CANNOSCALE
350
3C5
  3
CENTEREXE
350
3B8
  3
CENTERLTYPEFILE
350
3B9
  3
CMLEADERSTYLE
350
3B3
  3
CTABLESTYLE
350
3B2
  3
DIMASSOC
350
3BA
  3
HIDETEXT
350
3BB
  3
MSLTSCALE
350
3C6
  3
PSOLHEIGHT
350
3B5
  3
PSOLWIDTH
350
3B4
  0
XRECORD
  5
3BC
102
{ACAD_REACTORS
330
C
102
}
330
C
100
AcDbXrecord
280
     1
  1
DWGPROPS COOKIE
  2

  3

  4

  6

  7

  8
CADAM
  9

300
=
301
=
302
=
303
=
304
=
305
=
306
=
307
=
308
=
309
=
 40
0.0
 41
2459019.070953403
 42
2459019.070953703
  1

 90
        0
  0
XRECORD
  5
3C0
102
{ACAD_REACTORS
330
3BF
102
}
330
3BF
100
AcDbXrecord
280
     1
102
VTR_0.000_0.000_1.000_1.000_VISUALSTYLE
340
2F
102
VTR_0.000_0.000_1.000_1.000_GRIDDISPLAY
 70
     3
102
VTR_0.000_0.000_1.000_1.000_GRIDMAJOR
 70
     5
102
VTR_0.000_0.000_1.000_1.000_DEFAULTLIGHTING
280
     1
102
VTR_0.000_0.000_1.000_1.000_DEFAULTLIGHTINGTYPE
 70
     1
102
VTR_0.000_0.000_1.000_1.000_BRIGHTNESS
141
0.0
102
VTR_0.000_0.000_1.000_1.000_CONTRAST
142
0.0
  0
XRECORD
  5
3BE
102
{ACAD_REACTORS
330
3BD
102
}
330
3BD
100
AcDbXrecord
280
     1
 40
691169.0
  1
\W0.833333;\pxql;2-M5×0.8\P深さ10}
  0
LAYOUT
  5
1E
102
{ACAD_REACTORS
330
1A
102
}
330
1A
100
AcDbPlotSettings
  1

  2
none_device
  4

  6

 40
0.0
 41
0.0
 42
0.0
 43
0.0
 44
0.0
 45
0.0
 46
0.0
 47
0.0
 48
0.0
 49
0.0
140
0.0
141
0.0
142
1.0
143
1.0
 70
   688
 72
     1
 73
     0
 74
     5
  7

 75
    16
147
1.0
148
0.0
149
0.0
100
AcDbLayout
  1
Layout1
 70
     1
 71
     1
 10
-256.6261718750001
 20
-67.09597167968761
 11
419.2288504464289
 21
394.8956717354911
 12
0.0
 22
0.0
 32
0.0
 14
1.000000000000000E+20
 24
1.000000000000000E+20
 34
1.000000000000000E+20
 15
-1.000000000000000E+20
 25
-1.000000000000000E+20
 35
-1.000000000000000E+20
146
0.0
 13
0.0
 23
0.0
 33
0.0
 16
1.0
 26
0.0
 36
0.0
 17
0.0
 27
1.0
 37
0.0
 76
     0
330
1B
  0
LAYOUT
  5
26
102
{ACAD_REACTORS
330
1A
102
}
330
1A
100
AcDbPlotSettings
  1

  2
none_device
  4

  6

 40
0.0
 41
0.0
 42
0.0
 43
0.0
 44
0.0
 45
0.0
 46
0.0
 47
0.0
 48
0.0
 49
0.0
140
0.0
141
0.0
142
1.0
143
1.0
 70
   688
 72
     1
 73
     0
 74
     5
  7

 75
    16
147
1.0
148
0.0
149
0.0
100
AcDbLayout
  1
Layout2
 70
     1
 71
     2
 10
0.0
 20
0.0
 11
0.0
 21
0.0
 12
0.0
 22
0.0
 32
0.0
 14
0.0
 24
0.0
 34
0.0
 15
0.0
 25
0.0
 35
0.0
146
0.0
 13
0.0
 23
0.0
 33
0.0
 16
1.0
 26
0.0
 36
0.0
 17
0.0
 27
1.0
 37
0.0
 76
     0
330
23
  0
LAYOUT
  5
22
102
{ACAD_REACTORS
330
1A
102
}
330
1A
100
AcDbPlotSettings
  1

  2
none_device
  4
Letter_(8.50_x_11.00_Inches)
  6

 40
6.35
 41
6.35
 42
6.35000508
 43
6.35000508
 44
215.9
 45
279.4
 46
0.0
 47
0.0
 48
0.0
 49
0.0
140
0.0
141
0.0
142
1.0
143
1.0
 70
  1712
 72
     1
 73
     0
 74
     0
  7

 75
     0
147
1.0
148
0.0
149
0.0
100
AcDbLayout
  1
Model
 70
     1
 71
     0
 10
-256.6261718750001
 20
-67.09597167968761
 11
419.2288504464289
 21
394.8956717354911
 12
0.0
 22
0.0
 32
0.0
 14
-256.6261718750001
 24
-67.09597167968761
 34
0.0
 15
419.2288504464289
 25
394.8956717354911
 35
0.0
146
0.0
 13
0.0
 23
0.0
 33
0.0
 16
1.0
 26
0.0
 36
0.0
 17
0.0
 27
1.0
 37
0.0
 76
     0
330
1F
331
29
  0
MATERIAL
  5
45
102
{ACAD_REACTORS
330
43
102
}
102
{ACAD_XDICTIONARY
360
3F9
102
}
330
43
100
AcDbMaterial
  1
ByBlock
  0
MATERIAL
  5
44
102
{ACAD_REACTORS
330
43
102
}
102
{ACAD_XDICTIONARY
360
3F7
102
}
330
43
100
AcDbMaterial
  1
ByLayer
  0
MATERIAL
  5
46
102
{ACAD_REACTORS
330
43
102
}
102
{ACAD_XDICTIONARY
360
3FB
102
}
330
43
100
AcDbMaterial
  1
Global
  0
MLEADERSTYLE
  5
6C
102
{ACAD_REACTORS
330
6B
102
}
102
{ACAD_XDICTIONARY
360
3FE
102
}
330
6B
100
AcDbMLeaderStyle
170
     2
171
     1
172
     0
 90
        2
 40
0.0
 41
0.0
173
     1
 91
-1056964608
340
14
 92
       -2
290
     1
 42
2.0
291
     1
 43
8.0
  3
Standard
341
0
 44
4.0
300

342
11
174
     1
178
     6
175
     1
176
     0
 93
-1056964608
 45
4.0
292
     0
297
     0
 46
4.0
343
0
 94
-1056964608
 47
1.0
 49
1.0
140
1.0
293
     1
141
0.0
294
     1
177
     0
142
1.0
295
     0
296
     0
143
3.75
1001
ACAD_MLEADERVER
1070
     2
  0
MLINESTYLE
  5
18
102
{ACAD_REACTORS
330
17
102
}
330
17
100
AcDbMlineStyle
  2
Standard
 70
     0
  3

 62
   256
 51
90.0
 52
90.0
 71
     2
 49
0.5
 62
   256
  6
BYLAYER
 49
-0.5
 62
   256
  6
BYLAYER
  0
ACDBPLACEHOLDER
  5
F
102
{ACAD_REACTORS
330
E
102
}
330
E
  0
SCALE
  5
48
102
{ACAD_REACTORS
330
47
102
}
330
47
100
AcDbScale
 70
     0
300
1:1
140
1.0
141
1.0
290
     1
  0
SCALE
  5
49
102
{ACAD_REACTORS
330
47
102
}
330
47
100
AcDbScale
 70
     0
300
1:2
140
1.0
141
2.0
290
     0
  0
SCALE
  5
4A
102
{ACAD_REACTORS
330
47
102
}
330
47
100
AcDbScale
 70
     0
300
1:4
140
1.0
141
4.0
290
     0
  0
SCALE
  5
4B
102
{ACAD_REACTORS
330
47
102
}
330
47
100
AcDbScale
 70
     0
300
1:5
140
1.0
141
5.0
290
     0
  0
SCALE
  5
4C
102
{ACAD_REACTORS
330
47
102
}
330
47
100
AcDbScale
 70
     0
300
1:8
140
1.0
141
8.0
290
     0
  0
SCALE
  5
4D
102
{ACAD_REACTORS
330
47
102
}
330
47
100
AcDbScale
 70
     0
300
1:10
140
1.0
141
10.0
290
     0
  0
SCALE
  5
4E
102
{ACAD_REACTORS
330
47
102
}
330
47
100
AcDbScale
 70
     0
300
1:16
140
1.0
141
16.0
290
     0
  0
SCALE
  5
4F
102
{ACAD_REACTORS
330
47
102
}
330
47
100
AcDbScale
 70
     0
300
1:20
140
1.0
141
20.0
290
     0
  0
SCALE
  5
50
102
{ACAD_REACTORS
330
47
102
}
330
47
100
AcDbScale
 70
     0
300
1:30
140
1.0
141
30.0
290
     0
  0
SCALE
  5
51
102
{ACAD_REACTORS
330
47
102
}
330
47
100
AcDbScale
 70
     0
300
1:40
140
1.0
141
40.0
290
     0
  0
SCALE
  5
52
102
{ACAD_REACTORS
330
47
102
}
330
47
100
AcDbScale
 70
     0
300
1:50
140
1.0
141
50.0
290
     0
  0
SCALE
  5
53
102
{ACAD_REACTORS
330
47
102
}
330
47
100
AcDbScale
 70
     0
300
1:100
140
1.0
141
100.0
290
     0
  0
SCALE
  5
54
102
{ACAD_REACTORS
330
47
102
}
330
47
100
AcDbScale
 70
     0
300
2:1
140
2.0
141
1.0
290
     0
  0
SCALE
  5
55
102
{ACAD_REACTORS
330
47
102
}
330
47
100
AcDbScale
 70
     0
300
4:1
140
4.0
141
1.0
290
     0
  0
SCALE
  5
56
102
{ACAD_REACTORS
330
47
102
}
330
47
100
AcDbScale
 70
     0
300
8:1
140
8.0
141
1.0
290
     0
  0
SCALE
  5
57
102
{ACAD_REACTORS
330
47
102
}
330
47
100
AcDbScale
 70
     0
300
10:1
140
10.0
141
1.0
290
     0
  0
SCALE
  5
58
102
{ACAD_REACTORS
330
47
102
}
330
47
100
AcDbScale
 70
     0
300
100:1
140
100.0
141
1.0
290
     0
  0
SCALE
  5
59
102
{ACAD_REACTORS
330
47
102
}
330
47
100
AcDbScale
 70
     0
300
1/128" = 1'-0"
140
0.0078125
141
12.0
290
     0
  0
SCALE
  5
5A
102
{ACAD_REACTORS
330
47
102
}
330
47
100
AcDbScale
 70
     0
300
1/64" = 1'-0"
140
0.015625
141
12.0
290
     0
  0
SCALE
  5
5B
102
{ACAD_REACTORS
330
47
102
}
330
47
100
AcDbScale
 70
     0
300
1/32" = 1'-0"
140
0.03125
141
12.0
290
     0
  0
SCALE
  5
5C
102
{ACAD_REACTORS
330
47
102
}
330
47
100
AcDbScale
 70
     0
300
1/16" = 1'-0"
140
0.0625
141
12.0
290
     0
  0
SCALE
  5
5D
102
{ACAD_REACTORS
330
47
102
}
330
47
100
AcDbScale
 70
     0
300
3/32" = 1'-0"
140
0.09375
141
12.0
290
     0
  0
SCALE
  5
5E
102
{ACAD_REACTORS
330
47
102
}
330
47
100
AcDbScale
 70
     0
300
1/8" = 1'-0"
140
0.125
141
12.0
290
     0
  0
SCALE
  5
5F
102
{ACAD_REACTORS
330
47
102
}
330
47
100
AcDbScale
 70
     0
300
3/16" = 1'-0"
140
0.1875
141
12.0
290
     0
  0
SCALE
  5
60
102
{ACAD_REACTORS
330
47
102
}
330
47
100
AcDbScale
 70
     0
300
1/4" = 1'-0"
140
0.25
141
12.0
290
     0
  0
SCALE
  5
61
102
{ACAD_REACTORS
330
47
102
}
330
47
100
AcDbScale
 70
     0
300
3/8" = 1'-0"
140
0.375
141
12.0
290
     0
  0
SCALE
  5
62
102
{ACAD_REACTORS
330
47
102
}
330
47
100
AcDbScale
 70
     0
300
1/2" = 1'-0"
140
0.5
141
12.0
290
     0
  0
SCALE
  5
63
102
{ACAD_REACTORS
330
47
102
}
330
47
100
AcDbScale
 70
     0
300
3/4" = 1'-0"
140
0.75
141
12.0
290
     0
  0
SCALE
  5
64
102
{ACAD_REACTORS
330
47
102
}
330
47
100
AcDbScale
 70
     0
300
1" = 1'-0"
140
1.0
141
12.0
290
     0
  0
SCALE
  5
65
102
{ACAD_REACTORS
330
47
102
}
330
47
100
AcDbScale
 70
     0
300
1-1/2" = 1'-0"
140
1.5
141
12.0
290
     0
  0
SCALE
  5
66
102
{ACAD_REACTORS
330
47
102
}
330
47
100
AcDbScale
 70
     0
300
3" = 1'-0"
140
3.0
141
12.0
290
     0
  0
SCALE
  5
67
102
{ACAD_REACTORS
330
47
102
}
330
47
100
AcDbScale
 70
     0
300
6" = 1'-0"
140
6.0
141
12.0
290
     0
  0
SCALE
  5
68
102
{ACAD_REACTORS
330
47
102
}
330
47
100
AcDbScale
 70
     0
300
1'-0" = 1'-0"
140
12.0
141
12.0
290
     0
  0
TABLESTYLE
  5
6A
102
{ACAD_REACTORS
330
69
102
}
330
69
100
AcDbTableStyle
  3
Standard
 70
     0
 71
     0
 40
1.5
 41
1.5
280
     0
281
     0
  7
Standard
140
4.5
170
     2
 62
     0
 63
   257
283
     0
274
    -2
284
     1
 64
     0
275
    -2
285
     1
 65
     0
276
    -2
286
     1
 66
     0
277
    -2
287
     1
 67
     0
278
    -2
288
     1
 68
     0
279
    -2
289
     1
 69
     0
  7
Standard
140
6.0
170
     5
 62
     0
 63
   257
283
     0
274
    -2
284
     1
 64
     0
275
    -2
285
     1
 65
     0
276
    -2
286
     1
 66
     0
277
    -2
287
     1
 67
     0
278
    -2
288
     1
 68
     0
279
    -2
289
     1
 69
     0
  7
Standard
140
4.5
170
     5
 62
     0
 63
   257
283
     0
274
    -2
284
     1
 64
     0
275
    -2
285
     1
 65
     0
276
    -2
286
     1
 66
     0
277
    -2
287
     1
 67
     0
278
    -2
288
     1
 68
     0
279
    -2
289
     1
 69
     0
  0
VISUALSTYLE
  5
2F
102
{ACAD_REACTORS
330
2A
102
}
102
{ACAD_XDICTIONARY
360
3CF
102
}
330
2A
100
AcDbVisualStyle
  2
2dWireframe
 70
     4
 71
     0
 72
     2
 73
     0
 90
        0
 40
0.6
 41
30.0
 62
     5
 63
     7
 74
     1
 91
        4
 64
     7
 65
   257
 75
     1
175
     1
 42
1.0
 92
        0
 66
   257
 43
1.0
 76
     1
 77
     6
 78
     2
 67
     7
 79
     5
170
     0
171
     0
290
     0
174
     0
 93
        1
 44
0.0
173
     0
291
     0
 45
0.0
1001
ACAD
1000
AcDbSavedByObjectVersion
1070
     0
  0
VISUALSTYLE
  5
32
102
{ACAD_REACTORS
330
2A
102
}
102
{ACAD_XDICTIONARY
360
3D5
102
}
330
2A
100
AcDbVisualStyle
  2
Basic
 70
     7
 71
     1
 72
     0
 73
     1
 90
        0
 40
0.6
 41
30.0
 62
     5
 63
     7
 74
     0
 91
        4
 64
     7
 65
   257
 75
     1
175
     1
 42
1.0
 92
        8
 66
     7
 43
1.0
 76
     1
 77
     6
 78
     2
 67
     7
 79
     5
170
     0
171
     0
290
     0
174
     0
 93
        1
 44
0.0
173
     0
291
     1
 45
0.0
1001
ACAD
1000
AcDbSavedByObjectVersion
1070
     0
  0
VISUALSTYLE
  5
36
102
{ACAD_REACTORS
330
2A
102
}
102
{ACAD_XDICTIONARY
360
3DD
102
}
330
2A
100
AcDbVisualStyle
  2
Brighten
 70
    12
 71
     2
 72
     2
 73
     0
 90
        0
 40
0.6
 41
30.0
 62
     5
 63
     7
 74
     1
 91
        4
 64
     7
 65
   257
 75
     1
175
     1
 42
1.0
 92
        8
 66
     7
 43
1.0
 76
     1
 77
     6
 78
     2
 67
     7
 79
     5
170
     0
171
     0
290
     0
174
     0
 93
        1
 44
50.0
173
     0
291
     1
 45
0.0
1001
ACAD
1000
AcDbSavedByObjectVersion
1070
     0
  0
VISUALSTYLE
  5
3A
102
{ACAD_REACTORS
330
2A
102
}
102
{ACAD_XDICTIONARY
360
3E5
102
}
330
2A
100
AcDbVisualStyle
  2
ColorChange
 70
    16
 71
     2
 72
     2
 73
     3
 90
        0
 40
0.6
 41
30.0
 62
     5
 63
     8
 74
     1
 91
        4
 64
     7
 65
   257
 75
     1
175
     1
 42
1.0
 92
        8
 66
     8
 43
1.0
 76
     1
 77
     6
 78
     2
 67
     7
 79
     5
170
     0
171
     0
290
     0
174
     0
 93
        1
 44
0.0
173
     0
291
     1
 45
0.0
1001
ACAD
1000
AcDbSavedByObjectVersion
1070
     0
  0
VISUALSTYLE
  5
34
102
{ACAD_REACTORS
330
2A
102
}
102
{ACAD_XDICTIONARY
360
3D9
102
}
330
2A
100
AcDbVisualStyle
  2
Conceptual
 70
     9
 71
     3
 72
     2
 73
     0
 90
        0
 40
0.6
 41
30.0
 62
     5
 63
     7
 74
     2
 91
        2
 64
     7
 65
   257
 75
     1
175
     1
 42
179.0
 92
        8
 66
     7
 43
1.0
 76
     1
 77
     6
 78
     2
 67
     7
 79
     3
170
     0
171
     0
290
     0
174
     0
 93
        1
 44
0.0
173
     0
291
     0
 45
0.0
1001
ACAD
1000
AcDbSavedByObjectVersion
1070
     0
  0
VISUALSTYLE
  5
35
102
{ACAD_REACTORS
330
2A
102
}
102
{ACAD_XDICTIONARY
360
3DB
102
}
330
2A
100
AcDbVisualStyle
  2
Dim
 70
    11
 71
     2
 72
     2
 73
     0
 90
        0
 40
0.6
 41
30.0
 62
     5
 63
     7
 74
     1
 91
        4
 64
     7
 65
   257
 75
     1
175
     1
 42
1.0
 92
        8
 66
     7
 43
1.0
 76
     1
 77
     6
 78
     2
 67
     7
 79
     5
170
     0
171
     0
290
     0
174
     0
 93
        1
 44
-50.0
173
     0
291
     1
 45
0.0
1001
ACAD
1000
AcDbSavedByObjectVersion
1070
     0
  0
VISUALSTYLE
  5
3D
102
{ACAD_REACTORS
330
2A
102
}
102
{ACAD_XDICTIONARY
360
3EB
102
}
330
2A
100
AcDbVisualStyle
  2
EdgeColorOff
 70
    22
 71
     2
 72
     2
 73
     0
 90
        0
 40
0.6
 41
30.0
 62
     5
 63
     7
 74
     1
 91
        4
 64
     7
 65
   257
 75
     1
175
     1
 42
1.0
 92
        8
 66
     7
 43
1.0
 76
     1
 77
     6
 78
     2
 67
     7
 79
     5
170
     0
171
     0
290
     0
174
     0
 93
        1
 44
0.0
173
     0
291
     1
 45
0.0
1001
ACAD
1000
AcDbSavedByObjectVersion
1070
     0
  0
VISUALSTYLE
  5
39
102
{ACAD_REACTORS
330
2A
102
}
102
{ACAD_XDICTIONARY
360
3E3
102
}
330
2A
100
AcDbVisualStyle
  2
Facepattern
 70
    15
 71
     2
 72
     2
 73
     0
 90
        0
 40
0.6
 41
30.0
 62
     5
 63
     7
 74
     1
 91
        4
 64
     7
 65
   257
 75
     1
175
     1
 42
1.0
 92
        8
 66
     7
 43
1.0
 76
     1
 77
     6
 78
     2
 67
     7
 79
     5
170
     0
171
     0
290
     0
174
     0
 93
        1
 44
0.0
173
     0
291
     1
 45
0.0
1001
ACAD
1000
AcDbSavedByObjectVersion
1070
     0
  0
VISUALSTYLE
  5
2B
102
{ACAD_REACTORS
330
2A
102
}
102
{ACAD_XDICTIONARY
360
3C7
102
}
330
2A
100
AcDbVisualStyle
  2
Flat
 70
     0
 71
     2
 72
     1
 73
     1
 90
        2
 40
0.6
 41
30.0
 62
     5
 63
     7
 74
     0
 91
        0
 64
     7
 65
   257
 75
     1
175
     1
 42
1.0
 92
        8
 66
     7
 43
1.0
 76
     1
 77
     6
 78
     2
 67
     7
 79
     5
170
     0
171
     0
290
     0
174
     0
 93
       13
 44
0.0
173
     0
291
     1
 45
0.0
1001
ACAD
1000
AcDbSavedByObjectVersion
1070
     0
  0
VISUALSTYLE
  5
2C
102
{ACAD_REACTORS
330
2A
102
}
102
{ACAD_XDICTIONARY
360
3C9
102
}
330
2A
100
AcDbVisualStyle
  2
FlatWithEdges
 70
     1
 71
     2
 72
     1
 73
     1
 90
        2
 40
0.6
 41
30.0
 62
     5
 63
     7
 74
     1
 91
        0
 64
     7
 65
   257
 75
     1
175
     1
 42
1.0
 92
        0
 66
   257
 43
1.0
 76
     1
 77
     6
 78
     2
 67
     7
 79
     5
170
     0
171
     0
290
     0
174
     0
 93
       13
 44
0.0
173
     0
291
     1
 45
0.0
1001
ACAD
1000
AcDbSavedByObjectVersion
1070
     0
  0
VISUALSTYLE
  5
2D
102
{ACAD_REACTORS
330
2A
102
}
102
{ACAD_XDICTIONARY
360
3CB
102
}
330
2A
100
AcDbVisualStyle
  2
Gouraud
 70
     2
 71
     2
 72
     2
 73
     1
 90
        2
 40
0.6
 41
30.0
 62
     5
 63
     7
 74
     0
 91
        0
 64
     7
 65
   257
 75
     1
175
     1
 42
1.0
 92
        0
 66
     7
 43
1.0
 76
     1
 77
     6
 78
     2
 67
     7
 79
     5
170
     0
171
     0
290
     0
174
     0
 93
       13
 44
0.0
173
     0
291
     1
 45
0.0
1001
ACAD
1000
AcDbSavedByObjectVersion
1070
     0
  0
VISUALSTYLE
  5
2E
102
{ACAD_REACTORS
330
2A
102
}
102
{ACAD_XDICTIONARY
360
3CD
102
}
330
2A
100
AcDbVisualStyle
  2
GouraudWithEdges
 70
     3
 71
     2
 72
     2
 73
     1
 90
        2
 40
0.6
 41
30.0
 62
     5
 63
     7
 74
     1
 91
        0
 64
     7
 65
   257
 75
     1
175
     1
 42
1.0
 92
        0
 66
   257
 43
1.0
 76
     1
 77
     6
 78
     2
 67
     7
 79
     5
170
     0
171
     0
290
     0
174
     0
 93
       13
 44
0.0
173
     0
291
     1
 45
0.0
1001
ACAD
1000
AcDbSavedByObjectVersion
1070
     0
  0
VISUALSTYLE
  5
31
102
{ACAD_REACTORS
330
2A
102
}
102
{ACAD_XDICTIONARY
360
3D3
102
}
330
2A
100
AcDbVisualStyle
  2
Hidden
 70
     6
 71
     1
 72
     2
 73
     2
 90
        0
 40
0.6
 41
30.0
 62
     5
 63
     7
 74
     2
 91
        2
 64
     7
 65
   257
 75
     2
175
     1
 42
40.0
 92
        0
 66
   257
 43
1.0
 76
     1
 77
     6
 78
     2
 67
     7
 79
     3
170
     0
171
     0
290
     0
174
     0
 93
        1
 44
0.0
173
     0
291
     0
 45
0.0
1001
ACAD
1000
AcDbSavedByObjectVersion
1070
     0
  0
VISUALSTYLE
  5
3B
102
{ACAD_REACTORS
330
2A
102
}
102
{ACAD_XDICTIONARY
360
3E7
102
}
330
2A
100
AcDbVisualStyle
  2
JitterOff
 70
    20
 71
     2
 72
     2
 73
     0
 90
        0
 40
0.6
 41
30.0
 62
     5
 63
     7
 74
     1
 91
        4
 64
     7
 65
   257
 75
     1
175
     1
 42
1.0
 92
       10
 66
     7
 43
1.0
 76
     1
 77
     6
 78
     2
 67
     7
 79
     5
170
     0
171
     0
290
     0
174
     0
 93
        1
 44
0.0
173
     0
291
     1
 45
0.0
1001
ACAD
1000
AcDbSavedByObjectVersion
1070
     0
  0
VISUALSTYLE
  5
38
102
{ACAD_REACTORS
330
2A
102
}
102
{ACAD_XDICTIONARY
360
3E1
102
}
330
2A
100
AcDbVisualStyle
  2
Linepattern
 70
    14
 71
     2
 72
     2
 73
     0
 90
        0
 40
0.6
 41
30.0
 62
     5
 63
     7
 74
     1
 91
        4
 64
     7
 65
   257
 75
     7
175
     7
 42
1.0
 92
        8
 66
     7
 43
1.0
 76
     1
 77
     6
 78
     2
 67
     7
 79
     5
170
     0
171
     0
290
     0
174
     0
 93
        1
 44
0.0
173
     0
291
     1
 45
0.0
1001
ACAD
1000
AcDbSavedByObjectVersion
1070
     0
  0
VISUALSTYLE
  5
3C
102
{ACAD_REACTORS
330
2A
102
}
102
{ACAD_XDICTIONARY
360
3E9
102
}
330
2A
100
AcDbVisualStyle
  2
OverhangOff
 70
    21
 71
     2
 72
     2
 73
     0
 90
        0
 40
0.6
 41
30.0
 62
     5
 63
     7
 74
     1
 91
        4
 64
     7
 65
   257
 75
     1
175
     1
 42
1.0
 92
        9
 66
     7
 43
1.0
 76
     1
 77
     6
 78
     2
 67
     7
 79
     5
170
     0
171
     0
290
     0
174
     0
 93
        1
 44
0.0
173
     0
291
     1
 45
0.0
1001
ACAD
1000
AcDbSavedByObjectVersion
1070
     0
  0
VISUALSTYLE
  5
33
102
{ACAD_REACTORS
330
2A
102
}
102
{ACAD_XDICTIONARY
360
3D7
102
}
330
2A
100
AcDbVisualStyle
  2
Realistic
 70
     8
 71
     2
 72
     3
 73
     0
 90
        2
 40
0.6
 41
30.0
 62
     5
 63
     7
 74
     0
 91
        0
 64
     7
 65
   257
 75
     1
175
     1
 42
1.0
 92
        8
 66
   257
 43
1.0
 76
     1
 77
     6
 78
     2
 67
     7
 79
     3
170
     0
171
     0
290
     0
174
     0
 93
       13
 44
0.0
173
     0
291
     0
 45
0.0
1001
ACAD
1000
AcDbSavedByObjectVersion
1070
     0
  0
VISUALSTYLE
  5
42
102
{ACAD_REACTORS
330
2A
102
}
102
{ACAD_XDICTIONARY
360
3F5
102
}
330
2A
100
AcDbVisualStyle
  2
Shaded
 70
    27
 71
     2
 72
     2
 73
     1
 90
        2
 40
0.6
 41
30.0
 62
     5
 63
     7
 74
     0
 91
        4
 64
     7
 65
   257
 75
     1
175
     1
 42
1.0
 92
        8
 66
   257
 43
1.0
 76
     1
 77
     6
 78
     2
 67
     8
 79
     3
170
     0
171
     0
290
     0
174
     0
 93
        5
 44
0.0
173
     0
291
     0
 45
0.0
1001
ACAD
1000
AcDbSavedByObjectVersion
1070
     0
  0
VISUALSTYLE
  5
41
102
{ACAD_REACTORS
330
2A
102
}
102
{ACAD_XDICTIONARY
360
3F3
102
}
330
2A
100
AcDbVisualStyle
  2
Shaded with edges
 70
    26
 71
     2
 72
     2
 73
     1
 90
        2
 40
0.6
 41
30.0
 62
     5
 63
     7
 74
     1
 91
       10
 64
     7
 65
   257
 75
     2
175
     1
 42
1.0
 92
        8
 66
   257
 43
1.0
 76
     1
 77
     6
 78
     2
 67
     7
 79
     3
170
     0
171
     0
290
     0
174
     0
 93
        5
 44
0.0
173
     0
291
     0
 45
0.0
1001
ACAD
1000
AcDbSavedByObjectVersion
1070
     0
  0
VISUALSTYLE
  5
3E
102
{ACAD_REACTORS
330
2A
102
}
102
{ACAD_XDICTIONARY
360
3ED
102
}
330
2A
100
AcDbVisualStyle
  2
Shades of Gray
 70
    23
 71
     2
 72
     2
 73
     3
 90
        0
 40
0.6
 41
30.0
 62
     5
 63
     7
 74
     2
 91
        2
 64
     7
 65
     7
 75
     1
175
     1
 42
40.0
 92
        8
 66
     7
 43
1.0
 76
     1
 77
     6
 78
     2
 67
     7
 79
     3
170
     0
171
     0
290
     0
174
     0
 93
        1
 44
0.0
173
     0
291
     0
 45
0.0
1001
ACAD
1000
AcDbSavedByObjectVersion
1070
     0
  0
VISUALSTYLE
  5
3F
102
{ACAD_REACTORS
330
2A
102
}
102
{ACAD_XDICTIONARY
360
3EF
102
}
330
2A
100
AcDbVisualStyle
  2
Sketchy
 70
    24
 71
     1
 72
     2
 73
     2
 90
        0
 40
0.6
 41
30.0
 62
     5
 63
     7
 74
     2
 91
        2
 64
     7
 65
     7
 75
     1
175
     1
 42
40.0
 92
       11
 66
     7
 43
1.0
 76
     1
 77
     6
 78
     2
 67
     7
 79
     6
170
     0
171
     0
290
     0
174
     0
 93
        1
 44
0.0
173
     0
291
     0
 45
0.0
1001
ACAD
1000
AcDbSavedByObjectVersion
1070
     0
  0
VISUALSTYLE
  5
37
102
{ACAD_REACTORS
330
2A
102
}
102
{ACAD_XDICTIONARY
360
3DF
102
}
330
2A
100
AcDbVisualStyle
  2
Thicken
 70
    13
 71
     2
 72
     2
 73
     0
 90
        0
 40
0.6
 41
30.0
 62
     5
 63
     7
 74
     1
 91
        4
 64
     7
 65
   257
 75
     1
175
     1
 42
1.0
 92
       12
 66
     7
 43
1.0
 76
     1
 77
     6
 78
     2
 67
     7
 79
     5
170
     0
171
     0
290
     0
174
     0
 93
        1
 44
0.0
173
     0
291
     1
 45
0.0
1001
ACAD
1000
AcDbSavedByObjectVersion
1070
     0
  0
VISUALSTYLE
  5
30
102
{ACAD_REACTORS
330
2A
102
}
102
{ACAD_XDICTIONARY
360
3D1
102
}
330
2A
100
AcDbVisualStyle
  2
Wireframe
 70
     5
 71
     0
 72
     2
 73
     0
 90
        0
 40
0.6
 41
30.0
 62
     5
 63
     7
 74
     1
 91
        4
 64
     7
 65
   257
 75
     1
175
     1
 42
1.0
 92
        0
 66
   257
 43
1.0
 76
     1
 77
     6
 78
     2
 67
     7
 79
     3
170
     0
171
     0
290
     0
174
     0
 93
        1
 44
0.0
173
     0
291
     0
 45
0.0
1001
ACAD
1000
AcDbSavedByObjectVersion
1070
     0
  0
VISUALSTYLE
  5
40
102
{ACAD_REACTORS
330
2A
102
}
102
{ACAD_XDICTIONARY
360
3F1
102
}
330
2A
100
AcDbVisualStyle
  2
X-Ray
 70
    25
 71
     2
 72
     2
 73
     1
 90
        1
 40
0.5
 41
30.0
 62
     5
 63
     7
 74
     1
 91
        0
 64
     7
 65
   257
 75
     1
175
     1
 42
1.0
 92
        8
 66
     7
 43
1.0
 76
     1
 77
     6
 78
     2
 67
     7
 79
     3
170
     0
171
     0
290
     0
174
     0
 93
       13
 44
0.0
173
     0
291
     0
 45
0.0
1001
ACAD
1000
AcDbSavedByObjectVersion
1070
     0
  0
DICTIONARYVAR
  5
3C5
102
{ACAD_REACTORS
330
3B1
102
}
330
3B1
100
DictionaryVariables
280
     0
  1
1:1
  0
DICTIONARYVAR
  5
3B8
102
{ACAD_REACTORS
330
3B1
102
}
330
3B1
100
DictionaryVariables
280
     0
  1
3.500000
  0
DICTIONARYVAR
  5
3B9
102
{ACAD_REACTORS
330
3B1
102
}
330
3B1
100
DictionaryVariables
280
     0
  1
acadiso.lin
  0
DICTIONARYVAR
  5
3B3
102
{ACAD_REACTORS
330
3B1
102
}
330
3B1
100
DictionaryVariables
280
     0
  1
Standard
  0
DICTIONARYVAR
  5
3B2
102
{ACAD_REACTORS
330
3B1
102
}
330
3B1
100
DictionaryVariables
280
     0
  1
Standard
  0
DICTIONARYVAR
  5
3BA
102
{ACAD_REACTORS
330
3B1
102
}
330
3B1
100
DictionaryVariables
280
     0
  1
2
  0
DICTIONARYVAR
  5
3BB
102
{ACAD_REACTORS
330
3B1
102
}
330
3B1
100
DictionaryVariables
280
     0
  1
1
  0
DICTIONARYVAR
  5
3C6
102
{ACAD_REACTORS
330
3B1
102
}
330
3B1
100
DictionaryVariables
280
     0
  1
1
  0
DICTIONARYVAR
  5
3B5
102
{ACAD_REACTORS
330
3B1
102
}
330
3B1
100
DictionaryVariables
280
     0
  1
80.000000
  0
DICTIONARYVAR
  5
3B4
102
{ACAD_REACTORS
330
3B1
102
}
330
3B1
100
DictionaryVariables
280
     0
  1
5.000000
  0
DICTIONARY
  5
3F9
330
45
100
AcDbDictionary
280
     1
281
     1
  3
ACAD_XREC_ROUNDTRIP
360
3FA
  0
DICTIONARY
  5
3F7
330
44
100
AcDbDictionary
280
     1
281
     1
  3
ACAD_XREC_ROUNDTRIP
360
3F8
  0
DICTIONARY
  5
3FB
330
46
100
AcDbDictionary
280
     1
281
     1
  3
ACAD_XREC_ROUNDTRIP
360
3FC
  0
DICTIONARY
  5
3FE
330
6C
100
AcDbDictionary
280
     1
281
     1
  3
ACAD_XREC_ROUNDTRIP
360
3FF
  0
DICTIONARY
  5
3CF
330
2F
100
AcDbDictionary
280
     1
281
     1
  3
ACAD_XREC_ROUNDTRIP
360
3D0
  0
DICTIONARY
  5
3D5
330
32
100
AcDbDictionary
280
     1
281
     1
  3
ACAD_XREC_ROUNDTRIP
360
3D6
  0
DICTIONARY
  5
3DD
330
36
100
AcDbDictionary
280
     1
281
     1
  3
ACAD_XREC_ROUNDTRIP
360
3DE
  0
DICTIONARY
  5
3E5
330
3A
100
AcDbDictionary
280
     1
281
     1
  3
ACAD_XREC_ROUNDTRIP
360
3E6
  0
DICTIONARY
  5
3D9
330
34
100
AcDbDictionary
280
     1
281
     1
  3
ACAD_XREC_ROUNDTRIP
360
3DA
  0
DICTIONARY
  5
3DB
330
35
100
AcDbDictionary
280
     1
281
     1
  3
ACAD_XREC_ROUNDTRIP
360
3DC
  0
DICTIONARY
  5
3EB
330
3D
100
AcDbDictionary
280
     1
281
     1
  3
ACAD_XREC_ROUNDTRIP
360
3EC
  0
DICTIONARY
  5
3E3
330
39
100
AcDbDictionary
280
     1
281
     1
  3
ACAD_XREC_ROUNDTRIP
360
3E4
  0
DICTIONARY
  5
3C7
330
2B
100
AcDbDictionary
280
     1
281
     1
  3
ACAD_XREC_ROUNDTRIP
360
3C8
  0
DICTIONARY
  5
3C9
330
2C
100
AcDbDictionary
280
     1
281
     1
  3
ACAD_XREC_ROUNDTRIP
360
3CA
  0
DICTIONARY
  5
3CB
330
2D
100
AcDbDictionary
280
     1
281
     1
  3
ACAD_XREC_ROUNDTRIP
360
3CC
  0
DICTIONARY
  5
3CD
330
2E
100
AcDbDictionary
280
     1
281
     1
  3
ACAD_XREC_ROUNDTRIP
360
3CE
  0
DICTIONARY
  5
3D3
330
31
100
AcDbDictionary
280
     1
281
     1
  3
ACAD_XREC_ROUNDTRIP
360
3D4
  0
DICTIONARY
  5
3E7
330
3B
100
AcDbDictionary
280
     1
281
     1
  3
ACAD_XREC_ROUNDTRIP
360
3E8
  0
DICTIONARY
  5
3E1
330
38
100
AcDbDictionary
280
     1
281
     1
  3
ACAD_XREC_ROUNDTRIP
360
3E2
  0
DICTIONARY
  5
3E9
330
3C
100
AcDbDictionary
280
     1
281
     1
  3
ACAD_XREC_ROUNDTRIP
360
3EA
  0
DICTIONARY
  5
3D7
330
33
100
AcDbDictionary
280
     1
281
     1
  3
ACAD_XREC_ROUNDTRIP
360
3D8
  0
DICTIONARY
  5
3F5
330
42
100
AcDbDictionary
280
     1
281
     1
  3
ACAD_XREC_ROUNDTRIP
360
3F6
  0
DICTIONARY
  5
3F3
330
41
100
AcDbDictionary
280
     1
281
     1
  3
ACAD_XREC_ROUNDTRIP
360
3F4
  0
DICTIONARY
  5
3ED
330
3E
100
AcDbDictionary
280
     1
281
     1
  3
ACAD_XREC_ROUNDTRIP
360
3EE
  0
DICTIONARY
  5
3EF
330
3F
100
AcDbDictionary
280
     1
281
     1
  3
ACAD_XREC_ROUNDTRIP
360
3F0
  0
DICTIONARY
  5
3DF
330
37
100
AcDbDictionary
280
     1
281
     1
  3
ACAD_XREC_ROUNDTRIP
360
3E0
  0
DICTIONARY
  5
3D1
330
30
100
AcDbDictionary
280
     1
281
     1
  3
ACAD_XREC_ROUNDTRIP
360
3D2
  0
DICTIONARY
  5
3F1
330
40
100
AcDbDictionary
280
     1
281
     1
  3
ACAD_XREC_ROUNDTRIP
360
3F2
  0
XRECORD
  5
3FA
102
{ACAD_REACTORS
330
3F9
102
}
330
3F9
100
AcDbXrecord
280
     1
102
MATERIAL
148
0.0
149
0.0
149
0.0
 93
        0
 94
      127
282
     0
 72
     1
 77
     1
171
     1
175
     1
179
     1
273
     0
  0
XRECORD
  5
3F8
102
{ACAD_REACTORS
330
3F7
102
}
330
3F7
100
AcDbXrecord
280
     1
102
MATERIAL
148
0.0
149
0.0
149
0.0
 93
        0
 94
      127
282
     0
 72
     1
 77
     1
171
     1
175
     1
179
     1
273
     0
  0
XRECORD
  5
3FC
102
{ACAD_REACTORS
330
3FB
102
}
330
3FB
100
AcDbXrecord
280
     1
102
MATERIAL
148
0.0
149
0.0
149
0.0
 93
        0
 94
      127
282
     0
 72
     1
 77
     1
171
     1
175
     1
179
     1
273
     0
  0
XRECORD
  5
3FF
102
{ACAD_REACTORS
330
3FE
102
}
330
3FE
100
AcDbXrecord
280
     1
102
ACAD_ROUNDTRIP_2010_MLEADER_STYLE
  0
XRECORD
  5
3D0
102
{ACAD_REACTORS
330
3CF
102
}
330
3CF
100
AcDbXrecord
280
     1
102
RTVSPropertyOp0
 70
     1
102
RTVSPropertyOp1
 70
     1
102
RTVSPropertyOp2
 70
     1
102
RTVSPropertyOp3
 70
     1
102
RTVSPropertyOp4
 70
     1
102
RTVSPropertyOp5
 70
     1
102
RTVSPropertyOp6
 70
     1
102
RTVSPropertyOp7
 70
     1
102
RTVSPropertyOp8
 70
     1
102
RTVSPropertyOp9
 70
     1
102
RTVSPropertyOp10
 70
     1
102
RTVSPropertyOp11
 70
     1
102
RTVSPropertyOp12
 70
     1
102
RTVSPropertyOp13
 70
     1
102
RTVSPropertyOp14
 70
     1
102
RTVSPropertyOp15
 70
     1
102
RTVSPropertyOp16
 70
     1
102
RTVSPropertyOp17
 70
     1
102
RTVSPropertyOp18
 70
     1
102
RTVSPropertyOp19
 70
     1
102
RTVSPropertyOp20
 70
     1
102
RTVSPropertyOp21
 70
     1
102
RTVSPropertyOp22
 70
     1
102
RTVSPropertyOp23
 70
     1
102
RTVSPropertyOp24
 70
     1
102
RTVSPropertyOp25
 70
     1
102
RTVSPropertyOp26
 70
     1
102
RTVSPropertyOp27
 70
     1
102
RTVSPropertyOp28
 70
     1
102
RTVSPropertyOp29
 70
     1
102
RTVSPropertyOp30
 70
     1
102
RTVSPropertyOp31
 70
     1
102
RTVSPropertyOp32
 70
     1
102
RTVSPropertyOp33
 70
     1
102
RTVSPropertyOp34
 70
     1
102
RTVSPropertyOp35
 70
     1
102
RTVSPropertyOp36
 70
     1
102
RTVSPropertyOp37
 70
     1
102
RTVSPropertyOp38
 70
     1
102
RTVSPropertyOp39
 70
     1
102
RTVSPropertyOp40
 70
     1
102
RTVSPropertyOp41
 70
     1
102
RTVSPropertyOp42
 70
     1
102
RTVSPropertyOp43
 70
     1
102
RTVSPropertyOp44
 70
     1
102
RTVSPropertyOp45
 70
     1
102
RTVSPropertyOp46
 70
     1
102
RTVSPropertyOp47
 70
     1
102
RTVSPropertyOp48
 70
     1
102
RTVSPropertyOp49
 70
     1
102
RTVSPropertyOp50
 70
     1
102
RTVSPropertyOp51
 70
     0
102
RTVSPropertyOp52
 70
     0
102
RTVSPropertyOp53
 70
     1
102
RTVSPropertyOp54
 70
     1
102
RTVSPropertyOp55
 70
     1
102
RTVSPropertyOp56
 70
     1
102
RTVSPropertyOp57
 70
     1
102
RTVSPost2010Prop28
280
     1
102
RTVSPost2010PropOp28
 70
     1
102
RTVSPost2010Prop29
280
     1
102
RTVSPost2010PropOp29
 70
     1
102
RTVSPost2010Prop30
280
     0
102
RTVSPost2010PropOp30
 70
     1
102
RTVSPost2010Prop31
280
     0
102
RTVSPost2010PropOp31
 70
     1
102
RTVSPost2010Prop32
280
     0
102
RTVSPost2010PropOp32
 70
     1
102
RTVSPost2010Prop33
280
     0
102
RTVSPost2010PropOp33
 70
     1
102
RTVSPost2010Prop34
280
     0
102
RTVSPost2010PropOp34
 70
     1
102
RTVSPost2010Prop35
280
     0
102
RTVSPost2010PropOp35
 70
     1
102
RTVSPost2010Prop36
280
     0
102
RTVSPost2010PropOp36
 70
     1
102
RTVSPost2010Prop37
 90
       50
102
RTVSPost2010PropOp37
 70
     1
102
RTVSPost2010Prop38
140
0.0
102
RTVSPost2010PropOp38
 70
     1
102
RTVSPost2010Prop39
140
1.0
102
RTVSPost2010PropOp39
 70
     1
102
RTVSPost2010Prop40
 90
        0
102
RTVSPost2010PropOp40
 70
     1
102
RTVSPost2010Prop41ColorIndex
 90
       18
102
RTVSPost2010Prop41ColorRGB
 90
        0
102
RTVSPost2010PropOp41
 70
     1
102
RTVSPost2010Prop42
 90
       50
102
RTVSPost2010PropOp42
 70
     1
102
RTVSPost2010Prop43
 90
        3
102
RTVSPost2010PropOp43
 70
     1
102
RTVSPost2010Prop44ColorIndex
 90
        5
102
RTVSPost2010Prop44ColorRGB
 90
      255
102
RTVSPost2010PropOp44
 70
     1
102
RTVSPost2010Prop45
280
     0
102
RTVSPost2010PropOp45
 70
     1
102
RTVSPost2010Prop46
 90
       50
102
RTVSPost2010PropOp46
 70
     1
102
RTVSPost2010Prop47
 90
       50
102
RTVSPost2010PropOp47
 70
     1
102
RTVSPost2010Prop48
 90
       50
102
RTVSPost2010PropOp48
 70
     1
102
RTVSPost2010Prop49
280
     0
102
RTVSPost2010PropOp49
 70
     1
102
RTVSPost2010Prop50
 90
       50
102
RTVSPost2010PropOp50
 70
     1
102
RTVSPost2010Prop51ColorIndex
 90
      256
102
RTVSPost2010Prop51ColorRGB
 90
-16777216
102
RTVSPost2010PropOp51
 70
     0
102
RTVSPost2010Prop52
140
1.0
102
RTVSPost2010PropOp52
 70
     0
102
RTVSPost2010Prop53
 90
        2
102
RTVSPost2010PropOp53
 70
     1
102
RTVSPost2010Prop54
  1
strokes_ogs.tif
102
RTVSPost2010PropOp54
 70
     1
102
RTVSPost2010Prop55
280
     0
102
RTVSPost2010PropOp55
 70
     1
102
RTVSPost2010Prop56
140
1.0
102
RTVSPost2010PropOp56
 70
     1
102
RTVSPost2010Prop57
140
1.0
102
RTVSPost2010PropOp57
 70
     1
  0
XRECORD
  5
3D6
102
{ACAD_REACTORS
330
3D5
102
}
330
3D5
100
AcDbXrecord
280
     1
102
RTVSPropertyOp0
 70
     1
102
RTVSPropertyOp1
 70
     1
102
RTVSPropertyOp2
 70
     1
102
RTVSPropertyOp3
 70
     1
102
RTVSPropertyOp4
 70
     1
102
RTVSPropertyOp5
 70
     1
102
RTVSPropertyOp6
 70
     1
102
RTVSPropertyOp7
 70
     1
102
RTVSPropertyOp8
 70
     1
102
RTVSPropertyOp9
 70
     1
102
RTVSPropertyOp10
 70
     1
102
RTVSPropertyOp11
 70
     1
102
RTVSPropertyOp12
 70
     1
102
RTVSPropertyOp13
 70
     1
102
RTVSPropertyOp14
 70
     1
102
RTVSPropertyOp15
 70
     1
102
RTVSPropertyOp16
 70
     1
102
RTVSPropertyOp17
 70
     1
102
RTVSPropertyOp18
 70
     1
102
RTVSPropertyOp19
 70
     1
102
RTVSPropertyOp20
 70
     1
102
RTVSPropertyOp21
 70
     1
102
RTVSPropertyOp22
 70
     1
102
RTVSPropertyOp23
 70
     1
102
RTVSPropertyOp24
 70
     1
102
RTVSPropertyOp25
 70
     1
102
RTVSPropertyOp26
 70
     1
102
RTVSPropertyOp27
 70
     1
102
RTVSPropertyOp28
 70
     1
102
RTVSPropertyOp29
 70
     1
102
RTVSPropertyOp30
 70
     1
102
RTVSPropertyOp31
 70
     1
102
RTVSPropertyOp32
 70
     1
102
RTVSPropertyOp33
 70
     1
102
RTVSPropertyOp34
 70
     1
102
RTVSPropertyOp35
 70
     1
102
RTVSPropertyOp36
 70
     1
102
RTVSPropertyOp37
 70
     1
102
RTVSPropertyOp38
 70
     1
102
RTVSPropertyOp39
 70
     1
102
RTVSPropertyOp40
 70
     1
102
RTVSPropertyOp41
 70
     1
102
RTVSPropertyOp42
 70
     1
102
RTVSPropertyOp43
 70
     1
102
RTVSPropertyOp44
 70
     1
102
RTVSPropertyOp45
 70
     1
102
RTVSPropertyOp46
 70
     1
102
RTVSPropertyOp47
 70
     1
102
RTVSPropertyOp48
 70
     1
102
RTVSPropertyOp49
 70
     1
102
RTVSPropertyOp50
 70
     1
102
RTVSPropertyOp51
 70
     0
102
RTVSPropertyOp52
 70
     0
102
RTVSPropertyOp53
 70
     1
102
RTVSPropertyOp54
 70
     1
102
RTVSPropertyOp55
 70
     1
102
RTVSPropertyOp56
 70
     1
102
RTVSPropertyOp57
 70
     1
102
RTVSPost2010Prop28
280
     0
102
RTVSPost2010PropOp28
 70
     1
102
RTVSPost2010Prop29
280
     1
102
RTVSPost2010PropOp29
 70
     1
102
RTVSPost2010Prop30
280
     1
102
RTVSPost2010PropOp30
 70
     1
102
RTVSPost2010Prop31
280
     0
102
RTVSPost2010PropOp31
 70
     1
102
RTVSPost2010Prop32
280
     0
102
RTVSPost2010PropOp32
 70
     1
102
RTVSPost2010Prop33
280
     0
102
RTVSPost2010PropOp33
 70
     1
102
RTVSPost2010Prop34
280
     0
102
RTVSPost2010PropOp34
 70
     1
102
RTVSPost2010Prop35
280
     0
102
RTVSPost2010PropOp35
 70
     1
102
RTVSPost2010Prop36
280
     0
102
RTVSPost2010PropOp36
 70
     1
102
RTVSPost2010Prop37
 90
       50
102
RTVSPost2010PropOp37
 70
     1
102
RTVSPost2010Prop38
140
0.0
102
RTVSPost2010PropOp38
 70
     1
102
RTVSPost2010Prop39
140
1.0
102
RTVSPost2010PropOp39
 70
     1
102
RTVSPost2010Prop40
 90
        0
102
RTVSPost2010PropOp40
 70
     1
102
RTVSPost2010Prop41ColorIndex
 90
       18
102
RTVSPost2010Prop41ColorRGB
 90
        0
102
RTVSPost2010PropOp41
 70
     1
102
RTVSPost2010Prop42
 90
       50
102
RTVSPost2010PropOp42
 70
     1
102
RTVSPost2010Prop43
 90
        3
102
RTVSPost2010PropOp43
 70
     1
102
RTVSPost2010Prop44ColorIndex
 90
        5
102
RTVSPost2010Prop44ColorRGB
 90
      255
102
RTVSPost2010PropOp44
 70
     1
102
RTVSPost2010Prop45
280
     0
102
RTVSPost2010PropOp45
 70
     1
102
RTVSPost2010Prop46
 90
       50
102
RTVSPost2010PropOp46
 70
     1
102
RTVSPost2010Prop47
 90
       50
102
RTVSPost2010PropOp47
 70
     1
102
RTVSPost2010Prop48
 90
       50
102
RTVSPost2010PropOp48
 70
     1
102
RTVSPost2010Prop49
280
     0
102
RTVSPost2010PropOp49
 70
     1
102
RTVSPost2010Prop50
 90
       50
102
RTVSPost2010PropOp50
 70
     1
102
RTVSPost2010Prop51ColorIndex
 90
      256
102
RTVSPost2010Prop51ColorRGB
 90
-16777216
102
RTVSPost2010PropOp51
 70
     0
102
RTVSPost2010Prop52
140
1.0
102
RTVSPost2010PropOp52
 70
     0
102
RTVSPost2010Prop53
 90
        2
102
RTVSPost2010PropOp53
 70
     1
102
RTVSPost2010Prop54
  1
strokes_ogs.tif
102
RTVSPost2010PropOp54
 70
     1
102
RTVSPost2010Prop55
280
     0
102
RTVSPost2010PropOp55
 70
     1
102
RTVSPost2010Prop56
140
1.0
102
RTVSPost2010PropOp56
 70
     1
102
RTVSPost2010Prop57
140
1.0
102
RTVSPost2010PropOp57
 70
     1
  0
XRECORD
  5
3DE
102
{ACAD_REACTORS
330
3DD
102
}
330
3DD
100
AcDbXrecord
280
     1
102
RTVSPropertyOp0
 70
     1
102
RTVSPropertyOp1
 70
     1
102
RTVSPropertyOp2
 70
     1
102
RTVSPropertyOp3
 70
     1
102
RTVSPropertyOp4
 70
     1
102
RTVSPropertyOp5
 70
     1
102
RTVSPropertyOp6
 70
     1
102
RTVSPropertyOp7
 70
     1
102
RTVSPropertyOp8
 70
     1
102
RTVSPropertyOp9
 70
     1
102
RTVSPropertyOp10
 70
     1
102
RTVSPropertyOp11
 70
     1
102
RTVSPropertyOp12
 70
     1
102
RTVSPropertyOp13
 70
     1
102
RTVSPropertyOp14
 70
     1
102
RTVSPropertyOp15
 70
     1
102
RTVSPropertyOp16
 70
     1
102
RTVSPropertyOp17
 70
     1
102
RTVSPropertyOp18
 70
     1
102
RTVSPropertyOp19
 70
     1
102
RTVSPropertyOp20
 70
     1
102
RTVSPropertyOp21
 70
     1
102
RTVSPropertyOp22
 70
     1
102
RTVSPropertyOp23
 70
     1
102
RTVSPropertyOp24
 70
     1
102
RTVSPropertyOp25
 70
     1
102
RTVSPropertyOp26
 70
     1
102
RTVSPropertyOp27
 70
     1
102
RTVSPropertyOp28
 70
     1
102
RTVSPropertyOp29
 70
     1
102
RTVSPropertyOp30
 70
     1
102
RTVSPropertyOp31
 70
     1
102
RTVSPropertyOp32
 70
     1
102
RTVSPropertyOp33
 70
     1
102
RTVSPropertyOp34
 70
     1
102
RTVSPropertyOp35
 70
     1
102
RTVSPropertyOp36
 70
     1
102
RTVSPropertyOp37
 70
     1
102
RTVSPropertyOp38
 70
     1
102
RTVSPropertyOp39
 70
     1
102
RTVSPropertyOp40
 70
     1
102
RTVSPropertyOp41
 70
     1
102
RTVSPropertyOp42
 70
     1
102
RTVSPropertyOp43
 70
     1
102
RTVSPropertyOp44
 70
     1
102
RTVSPropertyOp45
 70
     1
102
RTVSPropertyOp46
 70
     1
102
RTVSPropertyOp47
 70
     1
102
RTVSPropertyOp48
 70
     1
102
RTVSPropertyOp49
 70
     1
102
RTVSPropertyOp50
 70
     1
102
RTVSPropertyOp51
 70
     0
102
RTVSPropertyOp52
 70
     0
102
RTVSPropertyOp53
 70
     1
102
RTVSPropertyOp54
 70
     1
102
RTVSPropertyOp55
 70
     1
102
RTVSPropertyOp56
 70
     1
102
RTVSPropertyOp57
 70
     1
102
RTVSPost2010Prop28
280
     0
102
RTVSPost2010PropOp28
 70
     1
102
RTVSPost2010Prop29
280
     1
102
RTVSPost2010PropOp29
 70
     1
102
RTVSPost2010Prop30
280
     1
102
RTVSPost2010PropOp30
 70
     1
102
RTVSPost2010Prop31
280
     0
102
RTVSPost2010PropOp31
 70
     1
102
RTVSPost2010Prop32
280
     0
102
RTVSPost2010PropOp32
 70
     1
102
RTVSPost2010Prop33
280
     0
102
RTVSPost2010PropOp33
 70
     1
102
RTVSPost2010Prop34
280
     0
102
RTVSPost2010PropOp34
 70
     1
102
RTVSPost2010Prop35
280
     0
102
RTVSPost2010PropOp35
 70
     1
102
RTVSPost2010Prop36
280
     0
102
RTVSPost2010PropOp36
 70
     1
102
RTVSPost2010Prop37
 90
       50
102
RTVSPost2010PropOp37
 70
     1
102
RTVSPost2010Prop38
140
0.0
102
RTVSPost2010PropOp38
 70
     1
102
RTVSPost2010Prop39
140
1.0
102
RTVSPost2010PropOp39
 70
     1
102
RTVSPost2010Prop40
 90
        0
102
RTVSPost2010PropOp40
 70
     1
102
RTVSPost2010Prop41ColorIndex
 90
       18
102
RTVSPost2010Prop41ColorRGB
 90
        0
102
RTVSPost2010PropOp41
 70
     1
102
RTVSPost2010Prop42
 90
       50
102
RTVSPost2010PropOp42
 70
     1
102
RTVSPost2010Prop43
 90
        3
102
RTVSPost2010PropOp43
 70
     1
102
RTVSPost2010Prop44ColorIndex
 90
        5
102
RTVSPost2010Prop44ColorRGB
 90
      255
102
RTVSPost2010PropOp44
 70
     1
102
RTVSPost2010Prop45
280
     0
102
RTVSPost2010PropOp45
 70
     1
102
RTVSPost2010Prop46
 90
       50
102
RTVSPost2010PropOp46
 70
     1
102
RTVSPost2010Prop47
 90
       50
102
RTVSPost2010PropOp47
 70
     1
102
RTVSPost2010Prop48
 90
       50
102
RTVSPost2010PropOp48
 70
     1
102
RTVSPost2010Prop49
280
     0
102
RTVSPost2010PropOp49
 70
     1
102
RTVSPost2010Prop50
 90
       50
102
RTVSPost2010PropOp50
 70
     1
102
RTVSPost2010Prop51ColorIndex
 90
      256
102
RTVSPost2010Prop51ColorRGB
 90
-16777216
102
RTVSPost2010PropOp51
 70
     0
102
RTVSPost2010Prop52
140
1.0
102
RTVSPost2010PropOp52
 70
     0
102
RTVSPost2010Prop53
 90
        2
102
RTVSPost2010PropOp53
 70
     1
102
RTVSPost2010Prop54
  1
strokes_ogs.tif
102
RTVSPost2010PropOp54
 70
     1
102
RTVSPost2010Prop55
280
     0
102
RTVSPost2010PropOp55
 70
     1
102
RTVSPost2010Prop56
140
1.0
102
RTVSPost2010PropOp56
 70
     1
102
RTVSPost2010Prop57
140
1.0
102
RTVSPost2010PropOp57
 70
     1
  0
XRECORD
  5
3E6
102
{ACAD_REACTORS
330
3E5
102
}
330
3E5
100
AcDbXrecord
280
     1
102
RTVSPropertyOp0
 70
     1
102
RTVSPropertyOp1
 70
     1
102
RTVSPropertyOp2
 70
     1
102
RTVSPropertyOp3
 70
     1
102
RTVSPropertyOp4
 70
     1
102
RTVSPropertyOp5
 70
     1
102
RTVSPropertyOp6
 70
     1
102
RTVSPropertyOp7
 70
     1
102
RTVSPropertyOp8
 70
     1
102
RTVSPropertyOp9
 70
     1
102
RTVSPropertyOp10
 70
     1
102
RTVSPropertyOp11
 70
     1
102
RTVSPropertyOp12
 70
     1
102
RTVSPropertyOp13
 70
     1
102
RTVSPropertyOp14
 70
     1
102
RTVSPropertyOp15
 70
     1
102
RTVSPropertyOp16
 70
     1
102
RTVSPropertyOp17
 70
     1
102
RTVSPropertyOp18
 70
     1
102
RTVSPropertyOp19
 70
     1
102
RTVSPropertyOp20
 70
     1
102
RTVSPropertyOp21
 70
     1
102
RTVSPropertyOp22
 70
     1
102
RTVSPropertyOp23
 70
     1
102
RTVSPropertyOp24
 70
     1
102
RTVSPropertyOp25
 70
     1
102
RTVSPropertyOp26
 70
     1
102
RTVSPropertyOp27
 70
     1
102
RTVSPropertyOp28
 70
     1
102
RTVSPropertyOp29
 70
     1
102
RTVSPropertyOp30
 70
     1
102
RTVSPropertyOp31
 70
     1
102
RTVSPropertyOp32
 70
     1
102
RTVSPropertyOp33
 70
     1
102
RTVSPropertyOp34
 70
     1
102
RTVSPropertyOp35
 70
     1
102
RTVSPropertyOp36
 70
     1
102
RTVSPropertyOp37
 70
     1
102
RTVSPropertyOp38
 70
     1
102
RTVSPropertyOp39
 70
     1
102
RTVSPropertyOp40
 70
     1
102
RTVSPropertyOp41
 70
     1
102
RTVSPropertyOp42
 70
     1
102
RTVSPropertyOp43
 70
     1
102
RTVSPropertyOp44
 70
     1
102
RTVSPropertyOp45
 70
     1
102
RTVSPropertyOp46
 70
     1
102
RTVSPropertyOp47
 70
     1
102
RTVSPropertyOp48
 70
     1
102
RTVSPropertyOp49
 70
     1
102
RTVSPropertyOp50
 70
     1
102
RTVSPropertyOp51
 70
     0
102
RTVSPropertyOp52
 70
     0
102
RTVSPropertyOp53
 70
     1
102
RTVSPropertyOp54
 70
     1
102
RTVSPropertyOp55
 70
     1
102
RTVSPropertyOp56
 70
     1
102
RTVSPropertyOp57
 70
     1
102
RTVSPost2010Prop28
280
     0
102
RTVSPost2010PropOp28
 70
     1
102
RTVSPost2010Prop29
280
     1
102
RTVSPost2010PropOp29
 70
     1
102
RTVSPost2010Prop30
280
     1
102
RTVSPost2010PropOp30
 70
     1
102
RTVSPost2010Prop31
280
     0
102
RTVSPost2010PropOp31
 70
     1
102
RTVSPost2010Prop32
280
     0
102
RTVSPost2010PropOp32
 70
     1
102
RTVSPost2010Prop33
280
     0
102
RTVSPost2010PropOp33
 70
     1
102
RTVSPost2010Prop34
280
     0
102
RTVSPost2010PropOp34
 70
     1
102
RTVSPost2010Prop35
280
     0
102
RTVSPost2010PropOp35
 70
     1
102
RTVSPost2010Prop36
280
     0
102
RTVSPost2010PropOp36
 70
     1
102
RTVSPost2010Prop37
 90
       50
102
RTVSPost2010PropOp37
 70
     1
102
RTVSPost2010Prop38
140
0.0
102
RTVSPost2010PropOp38
 70
     1
102
RTVSPost2010Prop39
140
1.0
102
RTVSPost2010PropOp39
 70
     1
102
RTVSPost2010Prop40
 90
        0
102
RTVSPost2010PropOp40
 70
     1
102
RTVSPost2010Prop41ColorIndex
 90
       18
102
RTVSPost2010Prop41ColorRGB
 90
        0
102
RTVSPost2010PropOp41
 70
     1
102
RTVSPost2010Prop42
 90
       50
102
RTVSPost2010PropOp42
 70
     1
102
RTVSPost2010Prop43
 90
        3
102
RTVSPost2010PropOp43
 70
     1
102
RTVSPost2010Prop44ColorIndex
 90
        5
102
RTVSPost2010Prop44ColorRGB
 90
      255
102
RTVSPost2010PropOp44
 70
     1
102
RTVSPost2010Prop45
280
     0
102
RTVSPost2010PropOp45
 70
     1
102
RTVSPost2010Prop46
 90
       50
102
RTVSPost2010PropOp46
 70
     1
102
RTVSPost2010Prop47
 90
       50
102
RTVSPost2010PropOp47
 70
     1
102
RTVSPost2010Prop48
 90
       50
102
RTVSPost2010PropOp48
 70
     1
102
RTVSPost2010Prop49
280
     0
102
RTVSPost2010PropOp49
 70
     1
102
RTVSPost2010Prop50
 90
       50
102
RTVSPost2010PropOp50
 70
     1
102
RTVSPost2010Prop51ColorIndex
 90
      256
102
RTVSPost2010Prop51ColorRGB
 90
-16777216
102
RTVSPost2010PropOp51
 70
     0
102
RTVSPost2010Prop52
140
1.0
102
RTVSPost2010PropOp52
 70
     0
102
RTVSPost2010Prop53
 90
        2
102
RTVSPost2010PropOp53
 70
     1
102
RTVSPost2010Prop54
  1
strokes_ogs.tif
102
RTVSPost2010PropOp54
 70
     1
102
RTVSPost2010Prop55
280
     0
102
RTVSPost2010PropOp55
 70
     1
102
RTVSPost2010Prop56
140
1.0
102
RTVSPost2010PropOp56
 70
     1
102
RTVSPost2010Prop57
140
1.0
102
RTVSPost2010PropOp57
 70
     1
  0
XRECORD
  5
3DA
102
{ACAD_REACTORS
330
3D9
102
}
330
3D9
100
AcDbXrecord
280
     1
102
RTVSPropertyOp0
 70
     1
102
RTVSPropertyOp1
 70
     1
102
RTVSPropertyOp2
 70
     1
102
RTVSPropertyOp3
 70
     1
102
RTVSPropertyOp4
 70
     1
102
RTVSPropertyOp5
 70
     1
102
RTVSPropertyOp6
 70
     1
102
RTVSPropertyOp7
 70
     1
102
RTVSPropertyOp8
 70
     1
102
RTVSPropertyOp9
 70
     1
102
RTVSPropertyOp10
 70
     1
102
RTVSPropertyOp11
 70
     1
102
RTVSPropertyOp12
 70
     1
102
RTVSPropertyOp13
 70
     1
102
RTVSPropertyOp14
 70
     1
102
RTVSPropertyOp15
 70
     1
102
RTVSPropertyOp16
 70
     1
102
RTVSPropertyOp17
 70
     1
102
RTVSPropertyOp18
 70
     1
102
RTVSPropertyOp19
 70
     1
102
RTVSPropertyOp20
 70
     1
102
RTVSPropertyOp21
 70
     1
102
RTVSPropertyOp22
 70
     1
102
RTVSPropertyOp23
 70
     1
102
RTVSPropertyOp24
 70
     1
102
RTVSPropertyOp25
 70
     1
102
RTVSPropertyOp26
 70
     1
102
RTVSPropertyOp27
 70
     1
102
RTVSPropertyOp28
 70
     1
102
RTVSPropertyOp29
 70
     1
102
RTVSPropertyOp30
 70
     1
102
RTVSPropertyOp31
 70
     1
102
RTVSPropertyOp32
 70
     1
102
RTVSPropertyOp33
 70
     1
102
RTVSPropertyOp34
 70
     1
102
RTVSPropertyOp35
 70
     1
102
RTVSPropertyOp36
 70
     1
102
RTVSPropertyOp37
 70
     1
102
RTVSPropertyOp38
 70
     1
102
RTVSPropertyOp39
 70
     1
102
RTVSPropertyOp40
 70
     1
102
RTVSPropertyOp41
 70
     1
102
RTVSPropertyOp42
 70
     1
102
RTVSPropertyOp43
 70
     1
102
RTVSPropertyOp44
 70
     1
102
RTVSPropertyOp45
 70
     1
102
RTVSPropertyOp46
 70
     1
102
RTVSPropertyOp47
 70
     1
102
RTVSPropertyOp48
 70
     1
102
RTVSPropertyOp49
 70
     1
102
RTVSPropertyOp50
 70
     1
102
RTVSPropertyOp51
 70
     0
102
RTVSPropertyOp52
 70
     0
102
RTVSPropertyOp53
 70
     1
102
RTVSPropertyOp54
 70
     1
102
RTVSPropertyOp55
 70
     1
102
RTVSPropertyOp56
 70
     1
102
RTVSPropertyOp57
 70
     1
102
RTVSPost2010Prop28
280
     0
102
RTVSPost2010PropOp28
 70
     1
102
RTVSPost2010Prop29
280
     1
102
RTVSPost2010PropOp29
 70
     1
102
RTVSPost2010Prop30
280
     1
102
RTVSPost2010PropOp30
 70
     1
102
RTVSPost2010Prop31
280
     0
102
RTVSPost2010PropOp31
 70
     1
102
RTVSPost2010Prop32
280
     0
102
RTVSPost2010PropOp32
 70
     1
102
RTVSPost2010Prop33
280
     0
102
RTVSPost2010PropOp33
 70
     1
102
RTVSPost2010Prop34
280
     0
102
RTVSPost2010PropOp34
 70
     1
102
RTVSPost2010Prop35
280
     0
102
RTVSPost2010PropOp35
 70
     1
102
RTVSPost2010Prop36
280
     0
102
RTVSPost2010PropOp36
 70
     1
102
RTVSPost2010Prop37
 90
       50
102
RTVSPost2010PropOp37
 70
     1
102
RTVSPost2010Prop38
140
0.0
102
RTVSPost2010PropOp38
 70
     1
102
RTVSPost2010Prop39
140
1.0
102
RTVSPost2010PropOp39
 70
     1
102
RTVSPost2010Prop40
 90
        0
102
RTVSPost2010PropOp40
 70
     1
102
RTVSPost2010Prop41ColorIndex
 90
       18
102
RTVSPost2010Prop41ColorRGB
 90
        0
102
RTVSPost2010PropOp41
 70
     1
102
RTVSPost2010Prop42
 90
       50
102
RTVSPost2010PropOp42
 70
     1
102
RTVSPost2010Prop43
 90
        3
102
RTVSPost2010PropOp43
 70
     1
102
RTVSPost2010Prop44ColorIndex
 90
        5
102
RTVSPost2010Prop44ColorRGB
 90
      255
102
RTVSPost2010PropOp44
 70
     1
102
RTVSPost2010Prop45
280
     0
102
RTVSPost2010PropOp45
 70
     1
102
RTVSPost2010Prop46
 90
       50
102
RTVSPost2010PropOp46
 70
     1
102
RTVSPost2010Prop47
 90
       50
102
RTVSPost2010PropOp47
 70
     1
102
RTVSPost2010Prop48
 90
       50
102
RTVSPost2010PropOp48
 70
     1
102
RTVSPost2010Prop49
280
     0
102
RTVSPost2010PropOp49
 70
     1
102
RTVSPost2010Prop50
 90
       50
102
RTVSPost2010PropOp50
 70
     1
102
RTVSPost2010Prop51ColorIndex
 90
      256
102
RTVSPost2010Prop51ColorRGB
 90
-16777216
102
RTVSPost2010PropOp51
 70
     0
102
RTVSPost2010Prop52
140
1.0
102
RTVSPost2010PropOp52
 70
     0
102
RTVSPost2010Prop53
 90
        2
102
RTVSPost2010PropOp53
 70
     1
102
RTVSPost2010Prop54
  1
strokes_ogs.tif
102
RTVSPost2010PropOp54
 70
     1
102
RTVSPost2010Prop55
280
     0
102
RTVSPost2010PropOp55
 70
     1
102
RTVSPost2010Prop56
140
1.0
102
RTVSPost2010PropOp56
 70
     1
102
RTVSPost2010Prop57
140
1.0
102
RTVSPost2010PropOp57
 70
     1
  0
XRECORD
  5
3DC
102
{ACAD_REACTORS
330
3DB
102
}
330
3DB
100
AcDbXrecord
280
     1
102
RTVSPropertyOp0
 70
     1
102
RTVSPropertyOp1
 70
     1
102
RTVSPropertyOp2
 70
     1
102
RTVSPropertyOp3
 70
     1
102
RTVSPropertyOp4
 70
     1
102
RTVSPropertyOp5
 70
     1
102
RTVSPropertyOp6
 70
     1
102
RTVSPropertyOp7
 70
     1
102
RTVSPropertyOp8
 70
     1
102
RTVSPropertyOp9
 70
     1
102
RTVSPropertyOp10
 70
     1
102
RTVSPropertyOp11
 70
     1
102
RTVSPropertyOp12
 70
     1
102
RTVSPropertyOp13
 70
     1
102
RTVSPropertyOp14
 70
     1
102
RTVSPropertyOp15
 70
     1
102
RTVSPropertyOp16
 70
     1
102
RTVSPropertyOp17
 70
     1
102
RTVSPropertyOp18
 70
     1
102
RTVSPropertyOp19
 70
     1
102
RTVSPropertyOp20
 70
     1
102
RTVSPropertyOp21
 70
     1
102
RTVSPropertyOp22
 70
     1
102
RTVSPropertyOp23
 70
     1
102
RTVSPropertyOp24
 70
     1
102
RTVSPropertyOp25
 70
     1
102
RTVSPropertyOp26
 70
     1
102
RTVSPropertyOp27
 70
     1
102
RTVSPropertyOp28
 70
     1
102
RTVSPropertyOp29
 70
     1
102
RTVSPropertyOp30
 70
     1
102
RTVSPropertyOp31
 70
     1
102
RTVSPropertyOp32
 70
     1
102
RTVSPropertyOp33
 70
     1
102
RTVSPropertyOp34
 70
     1
102
RTVSPropertyOp35
 70
     1
102
RTVSPropertyOp36
 70
     1
102
RTVSPropertyOp37
 70
     1
102
RTVSPropertyOp38
 70
     1
102
RTVSPropertyOp39
 70
     1
102
RTVSPropertyOp40
 70
     1
102
RTVSPropertyOp41
 70
     1
102
RTVSPropertyOp42
 70
     1
102
RTVSPropertyOp43
 70
     1
102
RTVSPropertyOp44
 70
     1
102
RTVSPropertyOp45
 70
     1
102
RTVSPropertyOp46
 70
     1
102
RTVSPropertyOp47
 70
     1
102
RTVSPropertyOp48
 70
     1
102
RTVSPropertyOp49
 70
     1
102
RTVSPropertyOp50
 70
     1
102
RTVSPropertyOp51
 70
     0
102
RTVSPropertyOp52
 70
     0
102
RTVSPropertyOp53
 70
     1
102
RTVSPropertyOp54
 70
     1
102
RTVSPropertyOp55
 70
     1
102
RTVSPropertyOp56
 70
     1
102
RTVSPropertyOp57
 70
     1
102
RTVSPost2010Prop28
280
     0
102
RTVSPost2010PropOp28
 70
     1
102
RTVSPost2010Prop29
280
     1
102
RTVSPost2010PropOp29
 70
     1
102
RTVSPost2010Prop30
280
     1
102
RTVSPost2010PropOp30
 70
     1
102
RTVSPost2010Prop31
280
     0
102
RTVSPost2010PropOp31
 70
     1
102
RTVSPost2010Prop32
280
     0
102
RTVSPost2010PropOp32
 70
     1
102
RTVSPost2010Prop33
280
     0
102
RTVSPost2010PropOp33
 70
     1
102
RTVSPost2010Prop34
280
     0
102
RTVSPost2010PropOp34
 70
     1
102
RTVSPost2010Prop35
280
     0
102
RTVSPost2010PropOp35
 70
     1
102
RTVSPost2010Prop36
280
     0
102
RTVSPost2010PropOp36
 70
     1
102
RTVSPost2010Prop37
 90
       50
102
RTVSPost2010PropOp37
 70
     1
102
RTVSPost2010Prop38
140
0.0
102
RTVSPost2010PropOp38
 70
     1
102
RTVSPost2010Prop39
140
1.0
102
RTVSPost2010PropOp39
 70
     1
102
RTVSPost2010Prop40
 90
        0
102
RTVSPost2010PropOp40
 70
     1
102
RTVSPost2010Prop41ColorIndex
 90
       18
102
RTVSPost2010Prop41ColorRGB
 90
        0
102
RTVSPost2010PropOp41
 70
     1
102
RTVSPost2010Prop42
 90
       50
102
RTVSPost2010PropOp42
 70
     1
102
RTVSPost2010Prop43
 90
        3
102
RTVSPost2010PropOp43
 70
     1
102
RTVSPost2010Prop44ColorIndex
 90
        5
102
RTVSPost2010Prop44ColorRGB
 90
      255
102
RTVSPost2010PropOp44
 70
     1
102
RTVSPost2010Prop45
280
     0
102
RTVSPost2010PropOp45
 70
     1
102
RTVSPost2010Prop46
 90
       50
102
RTVSPost2010PropOp46
 70
     1
102
RTVSPost2010Prop47
 90
       50
102
RTVSPost2010PropOp47
 70
     1
102
RTVSPost2010Prop48
 90
       50
102
RTVSPost2010PropOp48
 70
     1
102
RTVSPost2010Prop49
280
     0
102
RTVSPost2010PropOp49
 70
     1
102
RTVSPost2010Prop50
 90
       50
102
RTVSPost2010PropOp50
 70
     1
102
RTVSPost2010Prop51ColorIndex
 90
      256
102
RTVSPost2010Prop51ColorRGB
 90
-16777216
102
RTVSPost2010PropOp51
 70
     0
102
RTVSPost2010Prop52
140
1.0
102
RTVSPost2010PropOp52
 70
     0
102
RTVSPost2010Prop53
 90
        2
102
RTVSPost2010PropOp53
 70
     1
102
RTVSPost2010Prop54
  1
strokes_ogs.tif
102
RTVSPost2010PropOp54
 70
     1
102
RTVSPost2010Prop55
280
     0
102
RTVSPost2010PropOp55
 70
     1
102
RTVSPost2010Prop56
140
1.0
102
RTVSPost2010PropOp56
 70
     1
102
RTVSPost2010Prop57
140
1.0
102
RTVSPost2010PropOp57
 70
     1
  0
XRECORD
  5
3EC
102
{ACAD_REACTORS
330
3EB
102
}
330
3EB
100
AcDbXrecord
280
     1
102
RTVSPropertyOp0
 70
     0
102
RTVSPropertyOp1
 70
     0
102
RTVSPropertyOp2
 70
     0
102
RTVSPropertyOp3
 70
     0
102
RTVSPropertyOp4
 70
     0
102
RTVSPropertyOp5
 70
     0
102
RTVSPropertyOp6
 70
     0
102
RTVSPropertyOp7
 70
     0
102
RTVSPropertyOp8
 70
     0
102
RTVSPropertyOp9
 70
     0
102
RTVSPropertyOp10
 70
     0
102
RTVSPropertyOp11
 70
     0
102
RTVSPropertyOp12
 70
     0
102
RTVSPropertyOp13
 70
     0
102
RTVSPropertyOp14
 70
     2
102
RTVSPropertyOp15
 70
     0
102
RTVSPropertyOp16
 70
     0
102
RTVSPropertyOp17
 70
     0
102
RTVSPropertyOp18
 70
     0
102
RTVSPropertyOp19
 70
     0
102
RTVSPropertyOp20
 70
     0
102
RTVSPropertyOp21
 70
     0
102
RTVSPropertyOp22
 70
     0
102
RTVSPropertyOp23
 70
     0
102
RTVSPropertyOp24
 70
     0
102
RTVSPropertyOp25
 70
     0
102
RTVSPropertyOp26
 70
     0
102
RTVSPropertyOp27
 70
     0
102
RTVSPropertyOp28
 70
     0
102
RTVSPropertyOp29
 70
     0
102
RTVSPropertyOp30
 70
     0
102
RTVSPropertyOp31
 70
     0
102
RTVSPropertyOp32
 70
     0
102
RTVSPropertyOp33
 70
     0
102
RTVSPropertyOp34
 70
     0
102
RTVSPropertyOp35
 70
     0
102
RTVSPropertyOp36
 70
     0
102
RTVSPropertyOp37
 70
     0
102
RTVSPropertyOp38
 70
     0
102
RTVSPropertyOp39
 70
     0
102
RTVSPropertyOp40
 70
     0
102
RTVSPropertyOp41
 70
     0
102
RTVSPropertyOp42
 70
     0
102
RTVSPropertyOp43
 70
     0
102
RTVSPropertyOp44
 70
     0
102
RTVSPropertyOp45
 70
     0
102
RTVSPropertyOp46
 70
     0
102
RTVSPropertyOp47
 70
     0
102
RTVSPropertyOp48
 70
     0
102
RTVSPropertyOp49
 70
     0
102
RTVSPropertyOp50
 70
     0
102
RTVSPropertyOp51
 70
     0
102
RTVSPropertyOp52
 70
     0
102
RTVSPropertyOp53
 70
     0
102
RTVSPropertyOp54
 70
     0
102
RTVSPropertyOp55
 70
     0
102
RTVSPropertyOp56
 70
     0
102
RTVSPropertyOp57
 70
     0
102
RTVSPost2010Prop28
280
     0
102
RTVSPost2010PropOp28
 70
     0
102
RTVSPost2010Prop29
280
     1
102
RTVSPost2010PropOp29
 70
     0
102
RTVSPost2010Prop30
280
     1
102
RTVSPost2010PropOp30
 70
     0
102
RTVSPost2010Prop31
280
     0
102
RTVSPost2010PropOp31
 70
     0
102
RTVSPost2010Prop32
280
     0
102
RTVSPost2010PropOp32
 70
     0
102
RTVSPost2010Prop33
280
     0
102
RTVSPost2010PropOp33
 70
     0
102
RTVSPost2010Prop34
280
     0
102
RTVSPost2010PropOp34
 70
     0
102
RTVSPost2010Prop35
280
     0
102
RTVSPost2010PropOp35
 70
     0
102
RTVSPost2010Prop36
280
     0
102
RTVSPost2010PropOp36
 70
     0
102
RTVSPost2010Prop37
 90
       50
102
RTVSPost2010PropOp37
 70
     0
102
RTVSPost2010Prop38
140
0.0
102
RTVSPost2010PropOp38
 70
     0
102
RTVSPost2010Prop39
140
1.0
102
RTVSPost2010PropOp39
 70
     0
102
RTVSPost2010Prop40
 90
        0
102
RTVSPost2010PropOp40
 70
     0
102
RTVSPost2010Prop41ColorIndex
 90
       18
102
RTVSPost2010Prop41ColorRGB
 90
        0
102
RTVSPost2010PropOp41
 70
     0
102
RTVSPost2010Prop42
 90
       50
102
RTVSPost2010PropOp42
 70
     0
102
RTVSPost2010Prop43
 90
        3
102
RTVSPost2010PropOp43
 70
     0
102
RTVSPost2010Prop44ColorIndex
 90
        5
102
RTVSPost2010Prop44ColorRGB
 90
      255
102
RTVSPost2010PropOp44
 70
     0
102
RTVSPost2010Prop45
280
     0
102
RTVSPost2010PropOp45
 70
     0
102
RTVSPost2010Prop46
 90
       50
102
RTVSPost2010PropOp46
 70
     0
102
RTVSPost2010Prop47
 90
       50
102
RTVSPost2010PropOp47
 70
     0
102
RTVSPost2010Prop48
 90
       50
102
RTVSPost2010PropOp48
 70
     0
102
RTVSPost2010Prop49
280
     0
102
RTVSPost2010PropOp49
 70
     0
102
RTVSPost2010Prop50
 90
       50
102
RTVSPost2010PropOp50
 70
     0
102
RTVSPost2010Prop51ColorIndex
 90
      256
102
RTVSPost2010Prop51ColorRGB
 90
-16777216
102
RTVSPost2010PropOp51
 70
     0
102
RTVSPost2010Prop52
140
1.0
102
RTVSPost2010PropOp52
 70
     0
102
RTVSPost2010Prop53
 90
        2
102
RTVSPost2010PropOp53
 70
     0
102
RTVSPost2010Prop54
  1
strokes_ogs.tif
102
RTVSPost2010PropOp54
 70
     0
102
RTVSPost2010Prop55
280
     0
102
RTVSPost2010PropOp55
 70
     0
102
RTVSPost2010Prop56
140
1.0
102
RTVSPost2010PropOp56
 70
     0
102
RTVSPost2010Prop57
140
1.0
102
RTVSPost2010PropOp57
 70
     0
  0
XRECORD
  5
3E4
102
{ACAD_REACTORS
330
3E3
102
}
330
3E3
100
AcDbXrecord
280
     1
102
RTVSPropertyOp0
 70
     1
102
RTVSPropertyOp1
 70
     1
102
RTVSPropertyOp2
 70
     1
102
RTVSPropertyOp3
 70
     1
102
RTVSPropertyOp4
 70
     1
102
RTVSPropertyOp5
 70
     1
102
RTVSPropertyOp6
 70
     1
102
RTVSPropertyOp7
 70
     1
102
RTVSPropertyOp8
 70
     1
102
RTVSPropertyOp9
 70
     1
102
RTVSPropertyOp10
 70
     1
102
RTVSPropertyOp11
 70
     1
102
RTVSPropertyOp12
 70
     1
102
RTVSPropertyOp13
 70
     1
102
RTVSPropertyOp14
 70
     1
102
RTVSPropertyOp15
 70
     1
102
RTVSPropertyOp16
 70
     1
102
RTVSPropertyOp17
 70
     1
102
RTVSPropertyOp18
 70
     1
102
RTVSPropertyOp19
 70
     1
102
RTVSPropertyOp20
 70
     1
102
RTVSPropertyOp21
 70
     1
102
RTVSPropertyOp22
 70
     1
102
RTVSPropertyOp23
 70
     1
102
RTVSPropertyOp24
 70
     1
102
RTVSPropertyOp25
 70
     1
102
RTVSPropertyOp26
 70
     1
102
RTVSPropertyOp27
 70
     1
102
RTVSPropertyOp28
 70
     1
102
RTVSPropertyOp29
 70
     1
102
RTVSPropertyOp30
 70
     1
102
RTVSPropertyOp31
 70
     1
102
RTVSPropertyOp32
 70
     1
102
RTVSPropertyOp33
 70
     1
102
RTVSPropertyOp34
 70
     1
102
RTVSPropertyOp35
 70
     1
102
RTVSPropertyOp36
 70
     1
102
RTVSPropertyOp37
 70
     1
102
RTVSPropertyOp38
 70
     1
102
RTVSPropertyOp39
 70
     1
102
RTVSPropertyOp40
 70
     1
102
RTVSPropertyOp41
 70
     1
102
RTVSPropertyOp42
 70
     1
102
RTVSPropertyOp43
 70
     1
102
RTVSPropertyOp44
 70
     1
102
RTVSPropertyOp45
 70
     1
102
RTVSPropertyOp46
 70
     1
102
RTVSPropertyOp47
 70
     1
102
RTVSPropertyOp48
 70
     1
102
RTVSPropertyOp49
 70
     1
102
RTVSPropertyOp50
 70
     1
102
RTVSPropertyOp51
 70
     0
102
RTVSPropertyOp52
 70
     0
102
RTVSPropertyOp53
 70
     1
102
RTVSPropertyOp54
 70
     1
102
RTVSPropertyOp55
 70
     1
102
RTVSPropertyOp56
 70
     1
102
RTVSPropertyOp57
 70
     1
102
RTVSPost2010Prop28
280
     0
102
RTVSPost2010PropOp28
 70
     1
102
RTVSPost2010Prop29
280
     1
102
RTVSPost2010PropOp29
 70
     1
102
RTVSPost2010Prop30
280
     1
102
RTVSPost2010PropOp30
 70
     1
102
RTVSPost2010Prop31
280
     0
102
RTVSPost2010PropOp31
 70
     1
102
RTVSPost2010Prop32
280
     0
102
RTVSPost2010PropOp32
 70
     1
102
RTVSPost2010Prop33
280
     0
102
RTVSPost2010PropOp33
 70
     1
102
RTVSPost2010Prop34
280
     0
102
RTVSPost2010PropOp34
 70
     1
102
RTVSPost2010Prop35
280
     0
102
RTVSPost2010PropOp35
 70
     1
102
RTVSPost2010Prop36
280
     0
102
RTVSPost2010PropOp36
 70
     1
102
RTVSPost2010Prop37
 90
       50
102
RTVSPost2010PropOp37
 70
     1
102
RTVSPost2010Prop38
140
0.0
102
RTVSPost2010PropOp38
 70
     1
102
RTVSPost2010Prop39
140
1.0
102
RTVSPost2010PropOp39
 70
     1
102
RTVSPost2010Prop40
 90
        0
102
RTVSPost2010PropOp40
 70
     1
102
RTVSPost2010Prop41ColorIndex
 90
       18
102
RTVSPost2010Prop41ColorRGB
 90
        0
102
RTVSPost2010PropOp41
 70
     1
102
RTVSPost2010Prop42
 90
       50
102
RTVSPost2010PropOp42
 70
     1
102
RTVSPost2010Prop43
 90
        3
102
RTVSPost2010PropOp43
 70
     1
102
RTVSPost2010Prop44ColorIndex
 90
        5
102
RTVSPost2010Prop44ColorRGB
 90
      255
102
RTVSPost2010PropOp44
 70
     1
102
RTVSPost2010Prop45
280
     0
102
RTVSPost2010PropOp45
 70
     1
102
RTVSPost2010Prop46
 90
       50
102
RTVSPost2010PropOp46
 70
     1
102
RTVSPost2010Prop47
 90
       50
102
RTVSPost2010PropOp47
 70
     1
102
RTVSPost2010Prop48
 90
       50
102
RTVSPost2010PropOp48
 70
     1
102
RTVSPost2010Prop49
280
     0
102
RTVSPost2010PropOp49
 70
     1
102
RTVSPost2010Prop50
 90
       50
102
RTVSPost2010PropOp50
 70
     1
102
RTVSPost2010Prop51ColorIndex
 90
      256
102
RTVSPost2010Prop51ColorRGB
 90
-16777216
102
RTVSPost2010PropOp51
 70
     0
102
RTVSPost2010Prop52
140
1.0
102
RTVSPost2010PropOp52
 70
     0
102
RTVSPost2010Prop53
 90
        2
102
RTVSPost2010PropOp53
 70
     1
102
RTVSPost2010Prop54
  1
strokes_ogs.tif
102
RTVSPost2010PropOp54
 70
     1
102
RTVSPost2010Prop55
280
     0
102
RTVSPost2010PropOp55
 70
     1
102
RTVSPost2010Prop56
140
1.0
102
RTVSPost2010PropOp56
 70
     1
102
RTVSPost2010Prop57
140
1.0
102
RTVSPost2010PropOp57
 70
     1
  0
XRECORD
  5
3C8
102
{ACAD_REACTORS
330
3C7
102
}
330
3C7
100
AcDbXrecord
280
     1
102
RTVSPropertyOp0
 70
     1
102
RTVSPropertyOp1
 70
     1
102
RTVSPropertyOp2
 70
     1
102
RTVSPropertyOp3
 70
     1
102
RTVSPropertyOp4
 70
     1
102
RTVSPropertyOp5
 70
     1
102
RTVSPropertyOp6
 70
     1
102
RTVSPropertyOp7
 70
     1
102
RTVSPropertyOp8
 70
     1
102
RTVSPropertyOp9
 70
     1
102
RTVSPropertyOp10
 70
     1
102
RTVSPropertyOp11
 70
     1
102
RTVSPropertyOp12
 70
     1
102
RTVSPropertyOp13
 70
     1
102
RTVSPropertyOp14
 70
     1
102
RTVSPropertyOp15
 70
     1
102
RTVSPropertyOp16
 70
     1
102
RTVSPropertyOp17
 70
     1
102
RTVSPropertyOp18
 70
     1
102
RTVSPropertyOp19
 70
     1
102
RTVSPropertyOp20
 70
     1
102
RTVSPropertyOp21
 70
     1
102
RTVSPropertyOp22
 70
     1
102
RTVSPropertyOp23
 70
     1
102
RTVSPropertyOp24
 70
     1
102
RTVSPropertyOp25
 70
     1
102
RTVSPropertyOp26
 70
     1
102
RTVSPropertyOp27
 70
     1
102
RTVSPropertyOp28
 70
     1
102
RTVSPropertyOp29
 70
     1
102
RTVSPropertyOp30
 70
     1
102
RTVSPropertyOp31
 70
     1
102
RTVSPropertyOp32
 70
     1
102
RTVSPropertyOp33
 70
     1
102
RTVSPropertyOp34
 70
     1
102
RTVSPropertyOp35
 70
     1
102
RTVSPropertyOp36
 70
     1
102
RTVSPropertyOp37
 70
     1
102
RTVSPropertyOp38
 70
     1
102
RTVSPropertyOp39
 70
     1
102
RTVSPropertyOp40
 70
     1
102
RTVSPropertyOp41
 70
     1
102
RTVSPropertyOp42
 70
     1
102
RTVSPropertyOp43
 70
     1
102
RTVSPropertyOp44
 70
     1
102
RTVSPropertyOp45
 70
     1
102
RTVSPropertyOp46
 70
     1
102
RTVSPropertyOp47
 70
     1
102
RTVSPropertyOp48
 70
     1
102
RTVSPropertyOp49
 70
     1
102
RTVSPropertyOp50
 70
     1
102
RTVSPropertyOp51
 70
     0
102
RTVSPropertyOp52
 70
     0
102
RTVSPropertyOp53
 70
     1
102
RTVSPropertyOp54
 70
     1
102
RTVSPropertyOp55
 70
     1
102
RTVSPropertyOp56
 70
     1
102
RTVSPropertyOp57
 70
     1
102
RTVSPost2010Prop28
280
     0
102
RTVSPost2010PropOp28
 70
     1
102
RTVSPost2010Prop29
280
     1
102
RTVSPost2010PropOp29
 70
     1
102
RTVSPost2010Prop30
280
     1
102
RTVSPost2010PropOp30
 70
     1
102
RTVSPost2010Prop31
280
     0
102
RTVSPost2010PropOp31
 70
     1
102
RTVSPost2010Prop32
280
     0
102
RTVSPost2010PropOp32
 70
     1
102
RTVSPost2010Prop33
280
     0
102
RTVSPost2010PropOp33
 70
     1
102
RTVSPost2010Prop34
280
     0
102
RTVSPost2010PropOp34
 70
     1
102
RTVSPost2010Prop35
280
     0
102
RTVSPost2010PropOp35
 70
     1
102
RTVSPost2010Prop36
280
     0
102
RTVSPost2010PropOp36
 70
     1
102
RTVSPost2010Prop37
 90
       50
102
RTVSPost2010PropOp37
 70
     1
102
RTVSPost2010Prop38
140
0.0
102
RTVSPost2010PropOp38
 70
     1
102
RTVSPost2010Prop39
140
1.0
102
RTVSPost2010PropOp39
 70
     1
102
RTVSPost2010Prop40
 90
        0
102
RTVSPost2010PropOp40
 70
     1
102
RTVSPost2010Prop41ColorIndex
 90
       18
102
RTVSPost2010Prop41ColorRGB
 90
        0
102
RTVSPost2010PropOp41
 70
     1
102
RTVSPost2010Prop42
 90
       50
102
RTVSPost2010PropOp42
 70
     1
102
RTVSPost2010Prop43
 90
        3
102
RTVSPost2010PropOp43
 70
     1
102
RTVSPost2010Prop44ColorIndex
 90
        5
102
RTVSPost2010Prop44ColorRGB
 90
      255
102
RTVSPost2010PropOp44
 70
     1
102
RTVSPost2010Prop45
280
     0
102
RTVSPost2010PropOp45
 70
     1
102
RTVSPost2010Prop46
 90
       50
102
RTVSPost2010PropOp46
 70
     1
102
RTVSPost2010Prop47
 90
       50
102
RTVSPost2010PropOp47
 70
     1
102
RTVSPost2010Prop48
 90
       50
102
RTVSPost2010PropOp48
 70
     1
102
RTVSPost2010Prop49
280
     0
102
RTVSPost2010PropOp49
 70
     1
102
RTVSPost2010Prop50
 90
       50
102
RTVSPost2010PropOp50
 70
     1
102
RTVSPost2010Prop51ColorIndex
 90
      256
102
RTVSPost2010Prop51ColorRGB
 90
-16777216
102
RTVSPost2010PropOp51
 70
     0
102
RTVSPost2010Prop52
140
1.0
102
RTVSPost2010PropOp52
 70
     0
102
RTVSPost2010Prop53
 90
        2
102
RTVSPost2010PropOp53
 70
     1
102
RTVSPost2010Prop54
  1
strokes_ogs.tif
102
RTVSPost2010PropOp54
 70
     1
102
RTVSPost2010Prop55
280
     0
102
RTVSPost2010PropOp55
 70
     1
102
RTVSPost2010Prop56
140
1.0
102
RTVSPost2010PropOp56
 70
     1
102
RTVSPost2010Prop57
140
1.0
102
RTVSPost2010PropOp57
 70
     1
  0
XRECORD
  5
3CA
102
{ACAD_REACTORS
330
3C9
102
}
330
3C9
100
AcDbXrecord
280
     1
102
RTVSPropertyOp0
 70
     1
102
RTVSPropertyOp1
 70
     1
102
RTVSPropertyOp2
 70
     1
102
RTVSPropertyOp3
 70
     1
102
RTVSPropertyOp4
 70
     1
102
RTVSPropertyOp5
 70
     1
102
RTVSPropertyOp6
 70
     1
102
RTVSPropertyOp7
 70
     1
102
RTVSPropertyOp8
 70
     1
102
RTVSPropertyOp9
 70
     1
102
RTVSPropertyOp10
 70
     1
102
RTVSPropertyOp11
 70
     1
102
RTVSPropertyOp12
 70
     1
102
RTVSPropertyOp13
 70
     1
102
RTVSPropertyOp14
 70
     1
102
RTVSPropertyOp15
 70
     1
102
RTVSPropertyOp16
 70
     1
102
RTVSPropertyOp17
 70
     1
102
RTVSPropertyOp18
 70
     1
102
RTVSPropertyOp19
 70
     1
102
RTVSPropertyOp20
 70
     1
102
RTVSPropertyOp21
 70
     1
102
RTVSPropertyOp22
 70
     1
102
RTVSPropertyOp23
 70
     1
102
RTVSPropertyOp24
 70
     1
102
RTVSPropertyOp25
 70
     1
102
RTVSPropertyOp26
 70
     1
102
RTVSPropertyOp27
 70
     1
102
RTVSPropertyOp28
 70
     1
102
RTVSPropertyOp29
 70
     1
102
RTVSPropertyOp30
 70
     1
102
RTVSPropertyOp31
 70
     1
102
RTVSPropertyOp32
 70
     1
102
RTVSPropertyOp33
 70
     1
102
RTVSPropertyOp34
 70
     1
102
RTVSPropertyOp35
 70
     1
102
RTVSPropertyOp36
 70
     1
102
RTVSPropertyOp37
 70
     1
102
RTVSPropertyOp38
 70
     1
102
RTVSPropertyOp39
 70
     1
102
RTVSPropertyOp40
 70
     1
102
RTVSPropertyOp41
 70
     1
102
RTVSPropertyOp42
 70
     1
102
RTVSPropertyOp43
 70
     1
102
RTVSPropertyOp44
 70
     1
102
RTVSPropertyOp45
 70
     1
102
RTVSPropertyOp46
 70
     1
102
RTVSPropertyOp47
 70
     1
102
RTVSPropertyOp48
 70
     1
102
RTVSPropertyOp49
 70
     1
102
RTVSPropertyOp50
 70
     1
102
RTVSPropertyOp51
 70
     0
102
RTVSPropertyOp52
 70
     0
102
RTVSPropertyOp53
 70
     1
102
RTVSPropertyOp54
 70
     1
102
RTVSPropertyOp55
 70
     1
102
RTVSPropertyOp56
 70
     1
102
RTVSPropertyOp57
 70
     1
102
RTVSPost2010Prop28
280
     0
102
RTVSPost2010PropOp28
 70
     1
102
RTVSPost2010Prop29
280
     1
102
RTVSPost2010PropOp29
 70
     1
102
RTVSPost2010Prop30
280
     1
102
RTVSPost2010PropOp30
 70
     1
102
RTVSPost2010Prop31
280
     0
102
RTVSPost2010PropOp31
 70
     1
102
RTVSPost2010Prop32
280
     0
102
RTVSPost2010PropOp32
 70
     1
102
RTVSPost2010Prop33
280
     0
102
RTVSPost2010PropOp33
 70
     1
102
RTVSPost2010Prop34
280
     0
102
RTVSPost2010PropOp34
 70
     1
102
RTVSPost2010Prop35
280
     0
102
RTVSPost2010PropOp35
 70
     1
102
RTVSPost2010Prop36
280
     0
102
RTVSPost2010PropOp36
 70
     1
102
RTVSPost2010Prop37
 90
       50
102
RTVSPost2010PropOp37
 70
     1
102
RTVSPost2010Prop38
140
0.0
102
RTVSPost2010PropOp38
 70
     1
102
RTVSPost2010Prop39
140
1.0
102
RTVSPost2010PropOp39
 70
     1
102
RTVSPost2010Prop40
 90
        0
102
RTVSPost2010PropOp40
 70
     1
102
RTVSPost2010Prop41ColorIndex
 90
       18
102
RTVSPost2010Prop41ColorRGB
 90
        0
102
RTVSPost2010PropOp41
 70
     1
102
RTVSPost2010Prop42
 90
       50
102
RTVSPost2010PropOp42
 70
     1
102
RTVSPost2010Prop43
 90
        3
102
RTVSPost2010PropOp43
 70
     1
102
RTVSPost2010Prop44ColorIndex
 90
        5
102
RTVSPost2010Prop44ColorRGB
 90
      255
102
RTVSPost2010PropOp44
 70
     1
102
RTVSPost2010Prop45
280
     0
102
RTVSPost2010PropOp45
 70
     1
102
RTVSPost2010Prop46
 90
       50
102
RTVSPost2010PropOp46
 70
     1
102
RTVSPost2010Prop47
 90
       50
102
RTVSPost2010PropOp47
 70
     1
102
RTVSPost2010Prop48
 90
       50
102
RTVSPost2010PropOp48
 70
     1
102
RTVSPost2010Prop49
280
     0
102
RTVSPost2010PropOp49
 70
     1
102
RTVSPost2010Prop50
 90
       50
102
RTVSPost2010PropOp50
 70
     1
102
RTVSPost2010Prop51ColorIndex
 90
      256
102
RTVSPost2010Prop51ColorRGB
 90
-16777216
102
RTVSPost2010PropOp51
 70
     0
102
RTVSPost2010Prop52
140
1.0
102
RTVSPost2010PropOp52
 70
     0
102
RTVSPost2010Prop53
 90
        2
102
RTVSPost2010PropOp53
 70
     1
102
RTVSPost2010Prop54
  1
strokes_ogs.tif
102
RTVSPost2010PropOp54
 70
     1
102
RTVSPost2010Prop55
280
     0
102
RTVSPost2010PropOp55
 70
     1
102
RTVSPost2010Prop56
140
1.0
102
RTVSPost2010PropOp56
 70
     1
102
RTVSPost2010Prop57
140
1.0
102
RTVSPost2010PropOp57
 70
     1
  0
XRECORD
  5
3CC
102
{ACAD_REACTORS
330
3CB
102
}
330
3CB
100
AcDbXrecord
280
     1
102
RTVSPropertyOp0
 70
     1
102
RTVSPropertyOp1
 70
     1
102
RTVSPropertyOp2
 70
     1
102
RTVSPropertyOp3
 70
     1
102
RTVSPropertyOp4
 70
     1
102
RTVSPropertyOp5
 70
     1
102
RTVSPropertyOp6
 70
     1
102
RTVSPropertyOp7
 70
     1
102
RTVSPropertyOp8
 70
     1
102
RTVSPropertyOp9
 70
     1
102
RTVSPropertyOp10
 70
     1
102
RTVSPropertyOp11
 70
     1
102
RTVSPropertyOp12
 70
     1
102
RTVSPropertyOp13
 70
     1
102
RTVSPropertyOp14
 70
     1
102
RTVSPropertyOp15
 70
     1
102
RTVSPropertyOp16
 70
     1
102
RTVSPropertyOp17
 70
     1
102
RTVSPropertyOp18
 70
     1
102
RTVSPropertyOp19
 70
     1
102
RTVSPropertyOp20
 70
     1
102
RTVSPropertyOp21
 70
     1
102
RTVSPropertyOp22
 70
     1
102
RTVSPropertyOp23
 70
     1
102
RTVSPropertyOp24
 70
     1
102
RTVSPropertyOp25
 70
     1
102
RTVSPropertyOp26
 70
     1
102
RTVSPropertyOp27
 70
     1
102
RTVSPropertyOp28
 70
     1
102
RTVSPropertyOp29
 70
     1
102
RTVSPropertyOp30
 70
     1
102
RTVSPropertyOp31
 70
     1
102
RTVSPropertyOp32
 70
     1
102
RTVSPropertyOp33
 70
     1
102
RTVSPropertyOp34
 70
     1
102
RTVSPropertyOp35
 70
     1
102
RTVSPropertyOp36
 70
     1
102
RTVSPropertyOp37
 70
     1
102
RTVSPropertyOp38
 70
     1
102
RTVSPropertyOp39
 70
     1
102
RTVSPropertyOp40
 70
     1
102
RTVSPropertyOp41
 70
     1
102
RTVSPropertyOp42
 70
     1
102
RTVSPropertyOp43
 70
     1
102
RTVSPropertyOp44
 70
     1
102
RTVSPropertyOp45
 70
     1
102
RTVSPropertyOp46
 70
     1
102
RTVSPropertyOp47
 70
     1
102
RTVSPropertyOp48
 70
     1
102
RTVSPropertyOp49
 70
     1
102
RTVSPropertyOp50
 70
     1
102
RTVSPropertyOp51
 70
     0
102
RTVSPropertyOp52
 70
     0
102
RTVSPropertyOp53
 70
     1
102
RTVSPropertyOp54
 70
     1
102
RTVSPropertyOp55
 70
     1
102
RTVSPropertyOp56
 70
     1
102
RTVSPropertyOp57
 70
     1
102
RTVSPost2010Prop28
280
     0
102
RTVSPost2010PropOp28
 70
     1
102
RTVSPost2010Prop29
280
     1
102
RTVSPost2010PropOp29
 70
     1
102
RTVSPost2010Prop30
280
     1
102
RTVSPost2010PropOp30
 70
     1
102
RTVSPost2010Prop31
280
     0
102
RTVSPost2010PropOp31
 70
     1
102
RTVSPost2010Prop32
280
     0
102
RTVSPost2010PropOp32
 70
     1
102
RTVSPost2010Prop33
280
     0
102
RTVSPost2010PropOp33
 70
     1
102
RTVSPost2010Prop34
280
     0
102
RTVSPost2010PropOp34
 70
     1
102
RTVSPost2010Prop35
280
     0
102
RTVSPost2010PropOp35
 70
     1
102
RTVSPost2010Prop36
280
     0
102
RTVSPost2010PropOp36
 70
     1
102
RTVSPost2010Prop37
 90
       50
102
RTVSPost2010PropOp37
 70
     1
102
RTVSPost2010Prop38
140
0.0
102
RTVSPost2010PropOp38
 70
     1
102
RTVSPost2010Prop39
140
1.0
102
RTVSPost2010PropOp39
 70
     1
102
RTVSPost2010Prop40
 90
        0
102
RTVSPost2010PropOp40
 70
     1
102
RTVSPost2010Prop41ColorIndex
 90
       18
102
RTVSPost2010Prop41ColorRGB
 90
        0
102
RTVSPost2010PropOp41
 70
     1
102
RTVSPost2010Prop42
 90
       50
102
RTVSPost2010PropOp42
 70
     1
102
RTVSPost2010Prop43
 90
        3
102
RTVSPost2010PropOp43
 70
     1
102
RTVSPost2010Prop44ColorIndex
 90
        5
102
RTVSPost2010Prop44ColorRGB
 90
      255
102
RTVSPost2010PropOp44
 70
     1
102
RTVSPost2010Prop45
280
     0
102
RTVSPost2010PropOp45
 70
     1
102
RTVSPost2010Prop46
 90
       50
102
RTVSPost2010PropOp46
 70
     1
102
RTVSPost2010Prop47
 90
       50
102
RTVSPost2010PropOp47
 70
     1
102
RTVSPost2010Prop48
 90
       50
102
RTVSPost2010PropOp48
 70
     1
102
RTVSPost2010Prop49
280
     0
102
RTVSPost2010PropOp49
 70
     1
102
RTVSPost2010Prop50
 90
       50
102
RTVSPost2010PropOp50
 70
     1
102
RTVSPost2010Prop51ColorIndex
 90
      256
102
RTVSPost2010Prop51ColorRGB
 90
-16777216
102
RTVSPost2010PropOp51
 70
     0
102
RTVSPost2010Prop52
140
1.0
102
RTVSPost2010PropOp52
 70
     0
102
RTVSPost2010Prop53
 90
        2
102
RTVSPost2010PropOp53
 70
     1
102
RTVSPost2010Prop54
  1
strokes_ogs.tif
102
RTVSPost2010PropOp54
 70
     1
102
RTVSPost2010Prop55
280
     0
102
RTVSPost2010PropOp55
 70
     1
102
RTVSPost2010Prop56
140
1.0
102
RTVSPost2010PropOp56
 70
     1
102
RTVSPost2010Prop57
140
1.0
102
RTVSPost2010PropOp57
 70
     1
  0
XRECORD
  5
3CE
102
{ACAD_REACTORS
330
3CD
102
}
330
3CD
100
AcDbXrecord
280
     1
102
RTVSPropertyOp0
 70
     1
102
RTVSPropertyOp1
 70
     1
102
RTVSPropertyOp2
 70
     1
102
RTVSPropertyOp3
 70
     1
102
RTVSPropertyOp4
 70
     1
102
RTVSPropertyOp5
 70
     1
102
RTVSPropertyOp6
 70
     1
102
RTVSPropertyOp7
 70
     1
102
RTVSPropertyOp8
 70
     1
102
RTVSPropertyOp9
 70
     1
102
RTVSPropertyOp10
 70
     1
102
RTVSPropertyOp11
 70
     1
102
RTVSPropertyOp12
 70
     1
102
RTVSPropertyOp13
 70
     1
102
RTVSPropertyOp14
 70
     1
102
RTVSPropertyOp15
 70
     1
102
RTVSPropertyOp16
 70
     1
102
RTVSPropertyOp17
 70
     1
102
RTVSPropertyOp18
 70
     1
102
RTVSPropertyOp19
 70
     1
102
RTVSPropertyOp20
 70
     1
102
RTVSPropertyOp21
 70
     1
102
RTVSPropertyOp22
 70
     1
102
RTVSPropertyOp23
 70
     1
102
RTVSPropertyOp24
 70
     1
102
RTVSPropertyOp25
 70
     1
102
RTVSPropertyOp26
 70
     1
102
RTVSPropertyOp27
 70
     1
102
RTVSPropertyOp28
 70
     1
102
RTVSPropertyOp29
 70
     1
102
RTVSPropertyOp30
 70
     1
102
RTVSPropertyOp31
 70
     1
102
RTVSPropertyOp32
 70
     1
102
RTVSPropertyOp33
 70
     1
102
RTVSPropertyOp34
 70
     1
102
RTVSPropertyOp35
 70
     1
102
RTVSPropertyOp36
 70
     1
102
RTVSPropertyOp37
 70
     1
102
RTVSPropertyOp38
 70
     1
102
RTVSPropertyOp39
 70
     1
102
RTVSPropertyOp40
 70
     1
102
RTVSPropertyOp41
 70
     1
102
RTVSPropertyOp42
 70
     1
102
RTVSPropertyOp43
 70
     1
102
RTVSPropertyOp44
 70
     1
102
RTVSPropertyOp45
 70
     1
102
RTVSPropertyOp46
 70
     1
102
RTVSPropertyOp47
 70
     1
102
RTVSPropertyOp48
 70
     1
102
RTVSPropertyOp49
 70
     1
102
RTVSPropertyOp50
 70
     1
102
RTVSPropertyOp51
 70
     0
102
RTVSPropertyOp52
 70
     0
102
RTVSPropertyOp53
 70
     1
102
RTVSPropertyOp54
 70
     1
102
RTVSPropertyOp55
 70
     1
102
RTVSPropertyOp56
 70
     1
102
RTVSPropertyOp57
 70
     1
102
RTVSPost2010Prop28
280
     0
102
RTVSPost2010PropOp28
 70
     1
102
RTVSPost2010Prop29
280
     1
102
RTVSPost2010PropOp29
 70
     1
102
RTVSPost2010Prop30
280
     1
102
RTVSPost2010PropOp30
 70
     1
102
RTVSPost2010Prop31
280
     0
102
RTVSPost2010PropOp31
 70
     1
102
RTVSPost2010Prop32
280
     0
102
RTVSPost2010PropOp32
 70
     1
102
RTVSPost2010Prop33
280
     0
102
RTVSPost2010PropOp33
 70
     1
102
RTVSPost2010Prop34
280
     0
102
RTVSPost2010PropOp34
 70
     1
102
RTVSPost2010Prop35
280
     0
102
RTVSPost2010PropOp35
 70
     1
102
RTVSPost2010Prop36
280
     0
102
RTVSPost2010PropOp36
 70
     1
102
RTVSPost2010Prop37
 90
       50
102
RTVSPost2010PropOp37
 70
     1
102
RTVSPost2010Prop38
140
0.0
102
RTVSPost2010PropOp38
 70
     1
102
RTVSPost2010Prop39
140
1.0
102
RTVSPost2010PropOp39
 70
     1
102
RTVSPost2010Prop40
 90
        0
102
RTVSPost2010PropOp40
 70
     1
102
RTVSPost2010Prop41ColorIndex
 90
       18
102
RTVSPost2010Prop41ColorRGB
 90
        0
102
RTVSPost2010PropOp41
 70
     1
102
RTVSPost2010Prop42
 90
       50
102
RTVSPost2010PropOp42
 70
     1
102
RTVSPost2010Prop43
 90
        3
102
RTVSPost2010PropOp43
 70
     1
102
RTVSPost2010Prop44ColorIndex
 90
        5
102
RTVSPost2010Prop44ColorRGB
 90
      255
102
RTVSPost2010PropOp44
 70
     1
102
RTVSPost2010Prop45
280
     0
102
RTVSPost2010PropOp45
 70
     1
102
RTVSPost2010Prop46
 90
       50
102
RTVSPost2010PropOp46
 70
     1
102
RTVSPost2010Prop47
 90
       50
102
RTVSPost2010PropOp47
 70
     1
102
RTVSPost2010Prop48
 90
       50
102
RTVSPost2010PropOp48
 70
     1
102
RTVSPost2010Prop49
280
     0
102
RTVSPost2010PropOp49
 70
     1
102
RTVSPost2010Prop50
 90
       50
102
RTVSPost2010PropOp50
 70
     1
102
RTVSPost2010Prop51ColorIndex
 90
      256
102
RTVSPost2010Prop51ColorRGB
 90
-16777216
102
RTVSPost2010PropOp51
 70
     0
102
RTVSPost2010Prop52
140
1.0
102
RTVSPost2010PropOp52
 70
     0
102
RTVSPost2010Prop53
 90
        2
102
RTVSPost2010PropOp53
 70
     1
102
RTVSPost2010Prop54
  1
strokes_ogs.tif
102
RTVSPost2010PropOp54
 70
     1
102
RTVSPost2010Prop55
280
     0
102
RTVSPost2010PropOp55
 70
     1
102
RTVSPost2010Prop56
140
1.0
102
RTVSPost2010PropOp56
 70
     1
102
RTVSPost2010Prop57
140
1.0
102
RTVSPost2010PropOp57
 70
     1
  0
XRECORD
  5
3D4
102
{ACAD_REACTORS
330
3D3
102
}
330
3D3
100
AcDbXrecord
280
     1
102
RTVSPropertyOp0
 70
     1
102
RTVSPropertyOp1
 70
     1
102
RTVSPropertyOp2
 70
     1
102
RTVSPropertyOp3
 70
     1
102
RTVSPropertyOp4
 70
     1
102
RTVSPropertyOp5
 70
     1
102
RTVSPropertyOp6
 70
     1
102
RTVSPropertyOp7
 70
     1
102
RTVSPropertyOp8
 70
     1
102
RTVSPropertyOp9
 70
     1
102
RTVSPropertyOp10
 70
     1
102
RTVSPropertyOp11
 70
     1
102
RTVSPropertyOp12
 70
     1
102
RTVSPropertyOp13
 70
     1
102
RTVSPropertyOp14
 70
     1
102
RTVSPropertyOp15
 70
     1
102
RTVSPropertyOp16
 70
     1
102
RTVSPropertyOp17
 70
     1
102
RTVSPropertyOp18
 70
     1
102
RTVSPropertyOp19
 70
     1
102
RTVSPropertyOp20
 70
     1
102
RTVSPropertyOp21
 70
     1
102
RTVSPropertyOp22
 70
     1
102
RTVSPropertyOp23
 70
     1
102
RTVSPropertyOp24
 70
     1
102
RTVSPropertyOp25
 70
     1
102
RTVSPropertyOp26
 70
     1
102
RTVSPropertyOp27
 70
     1
102
RTVSPropertyOp28
 70
     1
102
RTVSPropertyOp29
 70
     1
102
RTVSPropertyOp30
 70
     1
102
RTVSPropertyOp31
 70
     1
102
RTVSPropertyOp32
 70
     1
102
RTVSPropertyOp33
 70
     1
102
RTVSPropertyOp34
 70
     1
102
RTVSPropertyOp35
 70
     1
102
RTVSPropertyOp36
 70
     1
102
RTVSPropertyOp37
 70
     1
102
RTVSPropertyOp38
 70
     1
102
RTVSPropertyOp39
 70
     1
102
RTVSPropertyOp40
 70
     1
102
RTVSPropertyOp41
 70
     1
102
RTVSPropertyOp42
 70
     1
102
RTVSPropertyOp43
 70
     1
102
RTVSPropertyOp44
 70
     1
102
RTVSPropertyOp45
 70
     1
102
RTVSPropertyOp46
 70
     1
102
RTVSPropertyOp47
 70
     1
102
RTVSPropertyOp48
 70
     1
102
RTVSPropertyOp49
 70
     1
102
RTVSPropertyOp50
 70
     1
102
RTVSPropertyOp51
 70
     0
102
RTVSPropertyOp52
 70
     0
102
RTVSPropertyOp53
 70
     1
102
RTVSPropertyOp54
 70
     1
102
RTVSPropertyOp55
 70
     1
102
RTVSPropertyOp56
 70
     1
102
RTVSPropertyOp57
 70
     1
102
RTVSPost2010Prop28
280
     0
102
RTVSPost2010PropOp28
 70
     1
102
RTVSPost2010Prop29
280
     1
102
RTVSPost2010PropOp29
 70
     1
102
RTVSPost2010Prop30
280
     1
102
RTVSPost2010PropOp30
 70
     1
102
RTVSPost2010Prop31
280
     0
102
RTVSPost2010PropOp31
 70
     1
102
RTVSPost2010Prop32
280
     0
102
RTVSPost2010PropOp32
 70
     1
102
RTVSPost2010Prop33
280
     0
102
RTVSPost2010PropOp33
 70
     1
102
RTVSPost2010Prop34
280
     0
102
RTVSPost2010PropOp34
 70
     1
102
RTVSPost2010Prop35
280
     0
102
RTVSPost2010PropOp35
 70
     1
102
RTVSPost2010Prop36
280
     0
102
RTVSPost2010PropOp36
 70
     1
102
RTVSPost2010Prop37
 90
       50
102
RTVSPost2010PropOp37
 70
     1
102
RTVSPost2010Prop38
140
0.0
102
RTVSPost2010PropOp38
 70
     1
102
RTVSPost2010Prop39
140
1.0
102
RTVSPost2010PropOp39
 70
     1
102
RTVSPost2010Prop40
 90
        0
102
RTVSPost2010PropOp40
 70
     1
102
RTVSPost2010Prop41ColorIndex
 90
       18
102
RTVSPost2010Prop41ColorRGB
 90
        0
102
RTVSPost2010PropOp41
 70
     1
102
RTVSPost2010Prop42
 90
       50
102
RTVSPost2010PropOp42
 70
     1
102
RTVSPost2010Prop43
 90
        3
102
RTVSPost2010PropOp43
 70
     1
102
RTVSPost2010Prop44ColorIndex
 90
        5
102
RTVSPost2010Prop44ColorRGB
 90
      255
102
RTVSPost2010PropOp44
 70
     1
102
RTVSPost2010Prop45
280
     0
102
RTVSPost2010PropOp45
 70
     1
102
RTVSPost2010Prop46
 90
       50
102
RTVSPost2010PropOp46
 70
     1
102
RTVSPost2010Prop47
 90
       50
102
RTVSPost2010PropOp47
 70
     1
102
RTVSPost2010Prop48
 90
       50
102
RTVSPost2010PropOp48
 70
     1
102
RTVSPost2010Prop49
280
     0
102
RTVSPost2010PropOp49
 70
     1
102
RTVSPost2010Prop50
 90
       50
102
RTVSPost2010PropOp50
 70
     1
102
RTVSPost2010Prop51ColorIndex
 90
      256
102
RTVSPost2010Prop51ColorRGB
 90
-16777216
102
RTVSPost2010PropOp51
 70
     0
102
RTVSPost2010Prop52
140
1.0
102
RTVSPost2010PropOp52
 70
     0
102
RTVSPost2010Prop53
 90
        2
102
RTVSPost2010PropOp53
 70
     1
102
RTVSPost2010Prop54
  1
strokes_ogs.tif
102
RTVSPost2010PropOp54
 70
     1
102
RTVSPost2010Prop55
280
     0
102
RTVSPost2010PropOp55
 70
     1
102
RTVSPost2010Prop56
140
1.0
102
RTVSPost2010PropOp56
 70
     1
102
RTVSPost2010Prop57
140
1.0
102
RTVSPost2010PropOp57
 70
     1
  0
XRECORD
  5
3E8
102
{ACAD_REACTORS
330
3E7
102
}
330
3E7
100
AcDbXrecord
280
     1
102
RTVSPropertyOp0
 70
     0
102
RTVSPropertyOp1
 70
     0
102
RTVSPropertyOp2
 70
     0
102
RTVSPropertyOp3
 70
     0
102
RTVSPropertyOp4
 70
     0
102
RTVSPropertyOp5
 70
     0
102
RTVSPropertyOp6
 70
     0
102
RTVSPropertyOp7
 70
     0
102
RTVSPropertyOp8
 70
     0
102
RTVSPropertyOp9
 70
     0
102
RTVSPropertyOp10
 70
     0
102
RTVSPropertyOp11
 70
     0
102
RTVSPropertyOp12
 70
     0
102
RTVSPropertyOp13
 70
     0
102
RTVSPropertyOp14
 70
     2
102
RTVSPropertyOp15
 70
     0
102
RTVSPropertyOp16
 70
     0
102
RTVSPropertyOp17
 70
     0
102
RTVSPropertyOp18
 70
     0
102
RTVSPropertyOp19
 70
     0
102
RTVSPropertyOp20
 70
     0
102
RTVSPropertyOp21
 70
     0
102
RTVSPropertyOp22
 70
     0
102
RTVSPropertyOp23
 70
     0
102
RTVSPropertyOp24
 70
     0
102
RTVSPropertyOp25
 70
     0
102
RTVSPropertyOp26
 70
     0
102
RTVSPropertyOp27
 70
     0
102
RTVSPropertyOp28
 70
     0
102
RTVSPropertyOp29
 70
     0
102
RTVSPropertyOp30
 70
     0
102
RTVSPropertyOp31
 70
     0
102
RTVSPropertyOp32
 70
     0
102
RTVSPropertyOp33
 70
     0
102
RTVSPropertyOp34
 70
     0
102
RTVSPropertyOp35
 70
     0
102
RTVSPropertyOp36
 70
     0
102
RTVSPropertyOp37
 70
     0
102
RTVSPropertyOp38
 70
     0
102
RTVSPropertyOp39
 70
     0
102
RTVSPropertyOp40
 70
     0
102
RTVSPropertyOp41
 70
     0
102
RTVSPropertyOp42
 70
     0
102
RTVSPropertyOp43
 70
     0
102
RTVSPropertyOp44
 70
     0
102
RTVSPropertyOp45
 70
     0
102
RTVSPropertyOp46
 70
     0
102
RTVSPropertyOp47
 70
     0
102
RTVSPropertyOp48
 70
     0
102
RTVSPropertyOp49
 70
     0
102
RTVSPropertyOp50
 70
     0
102
RTVSPropertyOp51
 70
     0
102
RTVSPropertyOp52
 70
     0
102
RTVSPropertyOp53
 70
     0
102
RTVSPropertyOp54
 70
     0
102
RTVSPropertyOp55
 70
     0
102
RTVSPropertyOp56
 70
     0
102
RTVSPropertyOp57
 70
     0
102
RTVSPost2010Prop28
280
     0
102
RTVSPost2010PropOp28
 70
     0
102
RTVSPost2010Prop29
280
     1
102
RTVSPost2010PropOp29
 70
     0
102
RTVSPost2010Prop30
280
     1
102
RTVSPost2010PropOp30
 70
     0
102
RTVSPost2010Prop31
280
     0
102
RTVSPost2010PropOp31
 70
     0
102
RTVSPost2010Prop32
280
     0
102
RTVSPost2010PropOp32
 70
     0
102
RTVSPost2010Prop33
280
     0
102
RTVSPost2010PropOp33
 70
     0
102
RTVSPost2010Prop34
280
     0
102
RTVSPost2010PropOp34
 70
     0
102
RTVSPost2010Prop35
280
     0
102
RTVSPost2010PropOp35
 70
     0
102
RTVSPost2010Prop36
280
     0
102
RTVSPost2010PropOp36
 70
     0
102
RTVSPost2010Prop37
 90
       50
102
RTVSPost2010PropOp37
 70
     0
102
RTVSPost2010Prop38
140
0.0
102
RTVSPost2010PropOp38
 70
     0
102
RTVSPost2010Prop39
140
1.0
102
RTVSPost2010PropOp39
 70
     0
102
RTVSPost2010Prop40
 90
        0
102
RTVSPost2010PropOp40
 70
     0
102
RTVSPost2010Prop41ColorIndex
 90
       18
102
RTVSPost2010Prop41ColorRGB
 90
        0
102
RTVSPost2010PropOp41
 70
     0
102
RTVSPost2010Prop42
 90
       50
102
RTVSPost2010PropOp42
 70
     0
102
RTVSPost2010Prop43
 90
        3
102
RTVSPost2010PropOp43
 70
     0
102
RTVSPost2010Prop44ColorIndex
 90
        5
102
RTVSPost2010Prop44ColorRGB
 90
      255
102
RTVSPost2010PropOp44
 70
     0
102
RTVSPost2010Prop45
280
     0
102
RTVSPost2010PropOp45
 70
     0
102
RTVSPost2010Prop46
 90
       50
102
RTVSPost2010PropOp46
 70
     0
102
RTVSPost2010Prop47
 90
       50
102
RTVSPost2010PropOp47
 70
     0
102
RTVSPost2010Prop48
 90
       50
102
RTVSPost2010PropOp48
 70
     0
102
RTVSPost2010Prop49
280
     0
102
RTVSPost2010PropOp49
 70
     0
102
RTVSPost2010Prop50
 90
       50
102
RTVSPost2010PropOp50
 70
     0
102
RTVSPost2010Prop51ColorIndex
 90
      256
102
RTVSPost2010Prop51ColorRGB
 90
-16777216
102
RTVSPost2010PropOp51
 70
     0
102
RTVSPost2010Prop52
140
1.0
102
RTVSPost2010PropOp52
 70
     0
102
RTVSPost2010Prop53
 90
        2
102
RTVSPost2010PropOp53
 70
     0
102
RTVSPost2010Prop54
  1
strokes_ogs.tif
102
RTVSPost2010PropOp54
 70
     0
102
RTVSPost2010Prop55
280
     0
102
RTVSPost2010PropOp55
 70
     0
102
RTVSPost2010Prop56
140
1.0
102
RTVSPost2010PropOp56
 70
     0
102
RTVSPost2010Prop57
140
1.0
102
RTVSPost2010PropOp57
 70
     0
  0
XRECORD
  5
3E2
102
{ACAD_REACTORS
330
3E1
102
}
330
3E1
100
AcDbXrecord
280
     1
102
RTVSPropertyOp0
 70
     1
102
RTVSPropertyOp1
 70
     1
102
RTVSPropertyOp2
 70
     1
102
RTVSPropertyOp3
 70
     1
102
RTVSPropertyOp4
 70
     1
102
RTVSPropertyOp5
 70
     1
102
RTVSPropertyOp6
 70
     1
102
RTVSPropertyOp7
 70
     1
102
RTVSPropertyOp8
 70
     1
102
RTVSPropertyOp9
 70
     1
102
RTVSPropertyOp10
 70
     1
102
RTVSPropertyOp11
 70
     1
102
RTVSPropertyOp12
 70
     1
102
RTVSPropertyOp13
 70
     1
102
RTVSPropertyOp14
 70
     1
102
RTVSPropertyOp15
 70
     1
102
RTVSPropertyOp16
 70
     1
102
RTVSPropertyOp17
 70
     1
102
RTVSPropertyOp18
 70
     1
102
RTVSPropertyOp19
 70
     1
102
RTVSPropertyOp20
 70
     1
102
RTVSPropertyOp21
 70
     1
102
RTVSPropertyOp22
 70
     1
102
RTVSPropertyOp23
 70
     1
102
RTVSPropertyOp24
 70
     1
102
RTVSPropertyOp25
 70
     1
102
RTVSPropertyOp26
 70
     1
102
RTVSPropertyOp27
 70
     1
102
RTVSPropertyOp28
 70
     1
102
RTVSPropertyOp29
 70
     1
102
RTVSPropertyOp30
 70
     1
102
RTVSPropertyOp31
 70
     1
102
RTVSPropertyOp32
 70
     1
102
RTVSPropertyOp33
 70
     1
102
RTVSPropertyOp34
 70
     1
102
RTVSPropertyOp35
 70
     1
102
RTVSPropertyOp36
 70
     1
102
RTVSPropertyOp37
 70
     1
102
RTVSPropertyOp38
 70
     1
102
RTVSPropertyOp39
 70
     1
102
RTVSPropertyOp40
 70
     1
102
RTVSPropertyOp41
 70
     1
102
RTVSPropertyOp42
 70
     1
102
RTVSPropertyOp43
 70
     1
102
RTVSPropertyOp44
 70
     1
102
RTVSPropertyOp45
 70
     1
102
RTVSPropertyOp46
 70
     1
102
RTVSPropertyOp47
 70
     1
102
RTVSPropertyOp48
 70
     1
102
RTVSPropertyOp49
 70
     1
102
RTVSPropertyOp50
 70
     1
102
RTVSPropertyOp51
 70
     0
102
RTVSPropertyOp52
 70
     0
102
RTVSPropertyOp53
 70
     1
102
RTVSPropertyOp54
 70
     1
102
RTVSPropertyOp55
 70
     1
102
RTVSPropertyOp56
 70
     1
102
RTVSPropertyOp57
 70
     1
102
RTVSPost2010Prop28
280
     0
102
RTVSPost2010PropOp28
 70
     1
102
RTVSPost2010Prop29
280
     1
102
RTVSPost2010PropOp29
 70
     1
102
RTVSPost2010Prop30
280
     1
102
RTVSPost2010PropOp30
 70
     1
102
RTVSPost2010Prop31
280
     0
102
RTVSPost2010PropOp31
 70
     1
102
RTVSPost2010Prop32
280
     0
102
RTVSPost2010PropOp32
 70
     1
102
RTVSPost2010Prop33
280
     0
102
RTVSPost2010PropOp33
 70
     1
102
RTVSPost2010Prop34
280
     0
102
RTVSPost2010PropOp34
 70
     1
102
RTVSPost2010Prop35
280
     0
102
RTVSPost2010PropOp35
 70
     1
102
RTVSPost2010Prop36
280
     0
102
RTVSPost2010PropOp36
 70
     1
102
RTVSPost2010Prop37
 90
       50
102
RTVSPost2010PropOp37
 70
     1
102
RTVSPost2010Prop38
140
0.0
102
RTVSPost2010PropOp38
 70
     1
102
RTVSPost2010Prop39
140
1.0
102
RTVSPost2010PropOp39
 70
     1
102
RTVSPost2010Prop40
 90
        0
102
RTVSPost2010PropOp40
 70
     1
102
RTVSPost2010Prop41ColorIndex
 90
       18
102
RTVSPost2010Prop41ColorRGB
 90
        0
102
RTVSPost2010PropOp41
 70
     1
102
RTVSPost2010Prop42
 90
       50
102
RTVSPost2010PropOp42
 70
     1
102
RTVSPost2010Prop43
 90
        3
102
RTVSPost2010PropOp43
 70
     1
102
RTVSPost2010Prop44ColorIndex
 90
        5
102
RTVSPost2010Prop44ColorRGB
 90
      255
102
RTVSPost2010PropOp44
 70
     1
102
RTVSPost2010Prop45
280
     0
102
RTVSPost2010PropOp45
 70
     1
102
RTVSPost2010Prop46
 90
       50
102
RTVSPost2010PropOp46
 70
     1
102
RTVSPost2010Prop47
 90
       50
102
RTVSPost2010PropOp47
 70
     1
102
RTVSPost2010Prop48
 90
       50
102
RTVSPost2010PropOp48
 70
     1
102
RTVSPost2010Prop49
280
     0
102
RTVSPost2010PropOp49
 70
     1
102
RTVSPost2010Prop50
 90
       50
102
RTVSPost2010PropOp50
 70
     1
102
RTVSPost2010Prop51ColorIndex
 90
      256
102
RTVSPost2010Prop51ColorRGB
 90
-16777216
102
RTVSPost2010PropOp51
 70
     0
102
RTVSPost2010Prop52
140
1.0
102
RTVSPost2010PropOp52
 70
     0
102
RTVSPost2010Prop53
 90
        2
102
RTVSPost2010PropOp53
 70
     1
102
RTVSPost2010Prop54
  1
strokes_ogs.tif
102
RTVSPost2010PropOp54
 70
     1
102
RTVSPost2010Prop55
280
     0
102
RTVSPost2010PropOp55
 70
     1
102
RTVSPost2010Prop56
140
1.0
102
RTVSPost2010PropOp56
 70
     1
102
RTVSPost2010Prop57
140
1.0
102
RTVSPost2010PropOp57
 70
     1
  0
XRECORD
  5
3EA
102
{ACAD_REACTORS
330
3E9
102
}
330
3E9
100
AcDbXrecord
280
     1
102
RTVSPropertyOp0
 70
     0
102
RTVSPropertyOp1
 70
     0
102
RTVSPropertyOp2
 70
     0
102
RTVSPropertyOp3
 70
     0
102
RTVSPropertyOp4
 70
     0
102
RTVSPropertyOp5
 70
     0
102
RTVSPropertyOp6
 70
     0
102
RTVSPropertyOp7
 70
     0
102
RTVSPropertyOp8
 70
     0
102
RTVSPropertyOp9
 70
     0
102
RTVSPropertyOp10
 70
     0
102
RTVSPropertyOp11
 70
     0
102
RTVSPropertyOp12
 70
     0
102
RTVSPropertyOp13
 70
     0
102
RTVSPropertyOp14
 70
     2
102
RTVSPropertyOp15
 70
     0
102
RTVSPropertyOp16
 70
     0
102
RTVSPropertyOp17
 70
     0
102
RTVSPropertyOp18
 70
     0
102
RTVSPropertyOp19
 70
     0
102
RTVSPropertyOp20
 70
     0
102
RTVSPropertyOp21
 70
     0
102
RTVSPropertyOp22
 70
     0
102
RTVSPropertyOp23
 70
     0
102
RTVSPropertyOp24
 70
     0
102
RTVSPropertyOp25
 70
     0
102
RTVSPropertyOp26
 70
     0
102
RTVSPropertyOp27
 70
     0
102
RTVSPropertyOp28
 70
     0
102
RTVSPropertyOp29
 70
     0
102
RTVSPropertyOp30
 70
     0
102
RTVSPropertyOp31
 70
     0
102
RTVSPropertyOp32
 70
     0
102
RTVSPropertyOp33
 70
     0
102
RTVSPropertyOp34
 70
     0
102
RTVSPropertyOp35
 70
     0
102
RTVSPropertyOp36
 70
     0
102
RTVSPropertyOp37
 70
     0
102
RTVSPropertyOp38
 70
     0
102
RTVSPropertyOp39
 70
     0
102
RTVSPropertyOp40
 70
     0
102
RTVSPropertyOp41
 70
     0
102
RTVSPropertyOp42
 70
     0
102
RTVSPropertyOp43
 70
     0
102
RTVSPropertyOp44
 70
     0
102
RTVSPropertyOp45
 70
     0
102
RTVSPropertyOp46
 70
     0
102
RTVSPropertyOp47
 70
     0
102
RTVSPropertyOp48
 70
     0
102
RTVSPropertyOp49
 70
     0
102
RTVSPropertyOp50
 70
     0
102
RTVSPropertyOp51
 70
     0
102
RTVSPropertyOp52
 70
     0
102
RTVSPropertyOp53
 70
     0
102
RTVSPropertyOp54
 70
     0
102
RTVSPropertyOp55
 70
     0
102
RTVSPropertyOp56
 70
     0
102
RTVSPropertyOp57
 70
     0
102
RTVSPost2010Prop28
280
     0
102
RTVSPost2010PropOp28
 70
     0
102
RTVSPost2010Prop29
280
     1
102
RTVSPost2010PropOp29
 70
     0
102
RTVSPost2010Prop30
280
     1
102
RTVSPost2010PropOp30
 70
     0
102
RTVSPost2010Prop31
280
     0
102
RTVSPost2010PropOp31
 70
     0
102
RTVSPost2010Prop32
280
     0
102
RTVSPost2010PropOp32
 70
     0
102
RTVSPost2010Prop33
280
     0
102
RTVSPost2010PropOp33
 70
     0
102
RTVSPost2010Prop34
280
     0
102
RTVSPost2010PropOp34
 70
     0
102
RTVSPost2010Prop35
280
     0
102
RTVSPost2010PropOp35
 70
     0
102
RTVSPost2010Prop36
280
     0
102
RTVSPost2010PropOp36
 70
     0
102
RTVSPost2010Prop37
 90
       50
102
RTVSPost2010PropOp37
 70
     0
102
RTVSPost2010Prop38
140
0.0
102
RTVSPost2010PropOp38
 70
     0
102
RTVSPost2010Prop39
140
1.0
102
RTVSPost2010PropOp39
 70
     0
102
RTVSPost2010Prop40
 90
        0
102
RTVSPost2010PropOp40
 70
     0
102
RTVSPost2010Prop41ColorIndex
 90
       18
102
RTVSPost2010Prop41ColorRGB
 90
        0
102
RTVSPost2010PropOp41
 70
     0
102
RTVSPost2010Prop42
 90
       50
102
RTVSPost2010PropOp42
 70
     0
102
RTVSPost2010Prop43
 90
        3
102
RTVSPost2010PropOp43
 70
     0
102
RTVSPost2010Prop44ColorIndex
 90
        5
102
RTVSPost2010Prop44ColorRGB
 90
      255
102
RTVSPost2010PropOp44
 70
     0
102
RTVSPost2010Prop45
280
     0
102
RTVSPost2010PropOp45
 70
     0
102
RTVSPost2010Prop46
 90
       50
102
RTVSPost2010PropOp46
 70
     0
102
RTVSPost2010Prop47
 90
       50
102
RTVSPost2010PropOp47
 70
     0
102
RTVSPost2010Prop48
 90
       50
102
RTVSPost2010PropOp48
 70
     0
102
RTVSPost2010Prop49
280
     0
102
RTVSPost2010PropOp49
 70
     0
102
RTVSPost2010Prop50
 90
       50
102
RTVSPost2010PropOp50
 70
     0
102
RTVSPost2010Prop51ColorIndex
 90
      256
102
RTVSPost2010Prop51ColorRGB
 90
-16777216
102
RTVSPost2010PropOp51
 70
     0
102
RTVSPost2010Prop52
140
1.0
102
RTVSPost2010PropOp52
 70
     0
102
RTVSPost2010Prop53
 90
        2
102
RTVSPost2010PropOp53
 70
     0
102
RTVSPost2010Prop54
  1
strokes_ogs.tif
102
RTVSPost2010PropOp54
 70
     0
102
RTVSPost2010Prop55
280
     0
102
RTVSPost2010PropOp55
 70
     0
102
RTVSPost2010Prop56
140
1.0
102
RTVSPost2010PropOp56
 70
     0
102
RTVSPost2010Prop57
140
1.0
102
RTVSPost2010PropOp57
 70
     0
  0
XRECORD
  5
3D8
102
{ACAD_REACTORS
330
3D7
102
}
330
3D7
100
AcDbXrecord
280
     1
102
RTVSPropertyOp0
 70
     1
102
RTVSPropertyOp1
 70
     1
102
RTVSPropertyOp2
 70
     1
102
RTVSPropertyOp3
 70
     1
102
RTVSPropertyOp4
 70
     1
102
RTVSPropertyOp5
 70
     1
102
RTVSPropertyOp6
 70
     1
102
RTVSPropertyOp7
 70
     1
102
RTVSPropertyOp8
 70
     1
102
RTVSPropertyOp9
 70
     1
102
RTVSPropertyOp10
 70
     1
102
RTVSPropertyOp11
 70
     1
102
RTVSPropertyOp12
 70
     1
102
RTVSPropertyOp13
 70
     1
102
RTVSPropertyOp14
 70
     1
102
RTVSPropertyOp15
 70
     1
102
RTVSPropertyOp16
 70
     1
102
RTVSPropertyOp17
 70
     1
102
RTVSPropertyOp18
 70
     1
102
RTVSPropertyOp19
 70
     1
102
RTVSPropertyOp20
 70
     1
102
RTVSPropertyOp21
 70
     1
102
RTVSPropertyOp22
 70
     1
102
RTVSPropertyOp23
 70
     1
102
RTVSPropertyOp24
 70
     1
102
RTVSPropertyOp25
 70
     1
102
RTVSPropertyOp26
 70
     1
102
RTVSPropertyOp27
 70
     1
102
RTVSPropertyOp28
 70
     1
102
RTVSPropertyOp29
 70
     1
102
RTVSPropertyOp30
 70
     1
102
RTVSPropertyOp31
 70
     1
102
RTVSPropertyOp32
 70
     1
102
RTVSPropertyOp33
 70
     1
102
RTVSPropertyOp34
 70
     1
102
RTVSPropertyOp35
 70
     1
102
RTVSPropertyOp36
 70
     1
102
RTVSPropertyOp37
 70
     1
102
RTVSPropertyOp38
 70
     1
102
RTVSPropertyOp39
 70
     1
102
RTVSPropertyOp40
 70
     1
102
RTVSPropertyOp41
 70
     1
102
RTVSPropertyOp42
 70
     1
102
RTVSPropertyOp43
 70
     1
102
RTVSPropertyOp44
 70
     1
102
RTVSPropertyOp45
 70
     1
102
RTVSPropertyOp46
 70
     1
102
RTVSPropertyOp47
 70
     1
102
RTVSPropertyOp48
 70
     1
102
RTVSPropertyOp49
 70
     1
102
RTVSPropertyOp50
 70
     1
102
RTVSPropertyOp51
 70
     0
102
RTVSPropertyOp52
 70
     0
102
RTVSPropertyOp53
 70
     1
102
RTVSPropertyOp54
 70
     1
102
RTVSPropertyOp55
 70
     1
102
RTVSPropertyOp56
 70
     1
102
RTVSPropertyOp57
 70
     1
102
RTVSPost2010Prop28
280
     0
102
RTVSPost2010PropOp28
 70
     1
102
RTVSPost2010Prop29
280
     1
102
RTVSPost2010PropOp29
 70
     1
102
RTVSPost2010Prop30
280
     1
102
RTVSPost2010PropOp30
 70
     1
102
RTVSPost2010Prop31
280
     0
102
RTVSPost2010PropOp31
 70
     1
102
RTVSPost2010Prop32
280
     0
102
RTVSPost2010PropOp32
 70
     1
102
RTVSPost2010Prop33
280
     0
102
RTVSPost2010PropOp33
 70
     1
102
RTVSPost2010Prop34
280
     0
102
RTVSPost2010PropOp34
 70
     1
102
RTVSPost2010Prop35
280
     0
102
RTVSPost2010PropOp35
 70
     1
102
RTVSPost2010Prop36
280
     0
102
RTVSPost2010PropOp36
 70
     1
102
RTVSPost2010Prop37
 90
       50
102
RTVSPost2010PropOp37
 70
     1
102
RTVSPost2010Prop38
140
0.0
102
RTVSPost2010PropOp38
 70
     1
102
RTVSPost2010Prop39
140
1.0
102
RTVSPost2010PropOp39
 70
     1
102
RTVSPost2010Prop40
 90
        0
102
RTVSPost2010PropOp40
 70
     1
102
RTVSPost2010Prop41ColorIndex
 90
       18
102
RTVSPost2010Prop41ColorRGB
 90
        0
102
RTVSPost2010PropOp41
 70
     1
102
RTVSPost2010Prop42
 90
       50
102
RTVSPost2010PropOp42
 70
     1
102
RTVSPost2010Prop43
 90
        3
102
RTVSPost2010PropOp43
 70
     1
102
RTVSPost2010Prop44ColorIndex
 90
        5
102
RTVSPost2010Prop44ColorRGB
 90
      255
102
RTVSPost2010PropOp44
 70
     1
102
RTVSPost2010Prop45
280
     0
102
RTVSPost2010PropOp45
 70
     1
102
RTVSPost2010Prop46
 90
       50
102
RTVSPost2010PropOp46
 70
     1
102
RTVSPost2010Prop47
 90
       50
102
RTVSPost2010PropOp47
 70
     1
102
RTVSPost2010Prop48
 90
       50
102
RTVSPost2010PropOp48
 70
     1
102
RTVSPost2010Prop49
280
     0
102
RTVSPost2010PropOp49
 70
     1
102
RTVSPost2010Prop50
 90
       50
102
RTVSPost2010PropOp50
 70
     1
102
RTVSPost2010Prop51ColorIndex
 90
      256
102
RTVSPost2010Prop51ColorRGB
 90
-16777216
102
RTVSPost2010PropOp51
 70
     0
102
RTVSPost2010Prop52
140
1.0
102
RTVSPost2010PropOp52
 70
     0
102
RTVSPost2010Prop53
 90
        2
102
RTVSPost2010PropOp53
 70
     1
102
RTVSPost2010Prop54
  1
strokes_ogs.tif
102
RTVSPost2010PropOp54
 70
     1
102
RTVSPost2010Prop55
280
     0
102
RTVSPost2010PropOp55
 70
     1
102
RTVSPost2010Prop56
140
1.0
102
RTVSPost2010PropOp56
 70
     1
102
RTVSPost2010Prop57
140
1.0
102
RTVSPost2010PropOp57
 70
     1
  0
XRECORD
  5
3F6
102
{ACAD_REACTORS
330
3F5
102
}
330
3F5
100
AcDbXrecord
280
     1
102
RTVSPropertyOp0
 70
     1
102
RTVSPropertyOp1
 70
     1
102
RTVSPropertyOp2
 70
     1
102
RTVSPropertyOp3
 70
     1
102
RTVSPropertyOp4
 70
     1
102
RTVSPropertyOp5
 70
     1
102
RTVSPropertyOp6
 70
     1
102
RTVSPropertyOp7
 70
     1
102
RTVSPropertyOp8
 70
     1
102
RTVSPropertyOp9
 70
     1
102
RTVSPropertyOp10
 70
     1
102
RTVSPropertyOp11
 70
     1
102
RTVSPropertyOp12
 70
     1
102
RTVSPropertyOp13
 70
     1
102
RTVSPropertyOp14
 70
     1
102
RTVSPropertyOp15
 70
     1
102
RTVSPropertyOp16
 70
     1
102
RTVSPropertyOp17
 70
     1
102
RTVSPropertyOp18
 70
     1
102
RTVSPropertyOp19
 70
     1
102
RTVSPropertyOp20
 70
     1
102
RTVSPropertyOp21
 70
     1
102
RTVSPropertyOp22
 70
     1
102
RTVSPropertyOp23
 70
     1
102
RTVSPropertyOp24
 70
     1
102
RTVSPropertyOp25
 70
     1
102
RTVSPropertyOp26
 70
     1
102
RTVSPropertyOp27
 70
     1
102
RTVSPropertyOp28
 70
     1
102
RTVSPropertyOp29
 70
     1
102
RTVSPropertyOp30
 70
     1
102
RTVSPropertyOp31
 70
     1
102
RTVSPropertyOp32
 70
     1
102
RTVSPropertyOp33
 70
     1
102
RTVSPropertyOp34
 70
     1
102
RTVSPropertyOp35
 70
     1
102
RTVSPropertyOp36
 70
     1
102
RTVSPropertyOp37
 70
     1
102
RTVSPropertyOp38
 70
     1
102
RTVSPropertyOp39
 70
     1
102
RTVSPropertyOp40
 70
     1
102
RTVSPropertyOp41
 70
     1
102
RTVSPropertyOp42
 70
     1
102
RTVSPropertyOp43
 70
     1
102
RTVSPropertyOp44
 70
     1
102
RTVSPropertyOp45
 70
     1
102
RTVSPropertyOp46
 70
     1
102
RTVSPropertyOp47
 70
     1
102
RTVSPropertyOp48
 70
     1
102
RTVSPropertyOp49
 70
     1
102
RTVSPropertyOp50
 70
     1
102
RTVSPropertyOp51
 70
     0
102
RTVSPropertyOp52
 70
     0
102
RTVSPropertyOp53
 70
     1
102
RTVSPropertyOp54
 70
     1
102
RTVSPropertyOp55
 70
     1
102
RTVSPropertyOp56
 70
     1
102
RTVSPropertyOp57
 70
     1
102
RTVSPost2010Prop28
280
     0
102
RTVSPost2010PropOp28
 70
     1
102
RTVSPost2010Prop29
280
     1
102
RTVSPost2010PropOp29
 70
     1
102
RTVSPost2010Prop30
280
     1
102
RTVSPost2010PropOp30
 70
     1
102
RTVSPost2010Prop31
280
     0
102
RTVSPost2010PropOp31
 70
     1
102
RTVSPost2010Prop32
280
     0
102
RTVSPost2010PropOp32
 70
     1
102
RTVSPost2010Prop33
280
     0
102
RTVSPost2010PropOp33
 70
     1
102
RTVSPost2010Prop34
280
     0
102
RTVSPost2010PropOp34
 70
     1
102
RTVSPost2010Prop35
280
     0
102
RTVSPost2010PropOp35
 70
     1
102
RTVSPost2010Prop36
280
     0
102
RTVSPost2010PropOp36
 70
     1
102
RTVSPost2010Prop37
 90
       50
102
RTVSPost2010PropOp37
 70
     1
102
RTVSPost2010Prop38
140
0.0
102
RTVSPost2010PropOp38
 70
     1
102
RTVSPost2010Prop39
140
1.0
102
RTVSPost2010PropOp39
 70
     1
102
RTVSPost2010Prop40
 90
        0
102
RTVSPost2010PropOp40
 70
     1
102
RTVSPost2010Prop41ColorIndex
 90
       18
102
RTVSPost2010Prop41ColorRGB
 90
        0
102
RTVSPost2010PropOp41
 70
     1
102
RTVSPost2010Prop42
 90
       50
102
RTVSPost2010PropOp42
 70
     1
102
RTVSPost2010Prop43
 90
        3
102
RTVSPost2010PropOp43
 70
     1
102
RTVSPost2010Prop44ColorIndex
 90
        5
102
RTVSPost2010Prop44ColorRGB
 90
      255
102
RTVSPost2010PropOp44
 70
     1
102
RTVSPost2010Prop45
280
     0
102
RTVSPost2010PropOp45
 70
     1
102
RTVSPost2010Prop46
 90
       50
102
RTVSPost2010PropOp46
 70
     1
102
RTVSPost2010Prop47
 90
       50
102
RTVSPost2010PropOp47
 70
     1
102
RTVSPost2010Prop48
 90
       50
102
RTVSPost2010PropOp48
 70
     1
102
RTVSPost2010Prop49
280
     0
102
RTVSPost2010PropOp49
 70
     1
102
RTVSPost2010Prop50
 90
       50
102
RTVSPost2010PropOp50
 70
     1
102
RTVSPost2010Prop51ColorIndex
 90
      256
102
RTVSPost2010Prop51ColorRGB
 90
-16777216
102
RTVSPost2010PropOp51
 70
     0
102
RTVSPost2010Prop52
140
1.0
102
RTVSPost2010PropOp52
 70
     0
102
RTVSPost2010Prop53
 90
        2
102
RTVSPost2010PropOp53
 70
     1
102
RTVSPost2010Prop54
  1
strokes_ogs.tif
102
RTVSPost2010PropOp54
 70
     1
102
RTVSPost2010Prop55
280
     0
102
RTVSPost2010PropOp55
 70
     1
102
RTVSPost2010Prop56
140
1.0
102
RTVSPost2010PropOp56
 70
     1
102
RTVSPost2010Prop57
140
1.0
102
RTVSPost2010PropOp57
 70
     1
  0
XRECORD
  5
3F4
102
{ACAD_REACTORS
330
3F3
102
}
330
3F3
100
AcDbXrecord
280
     1
102
RTVSPropertyOp0
 70
     1
102
RTVSPropertyOp1
 70
     1
102
RTVSPropertyOp2
 70
     1
102
RTVSPropertyOp3
 70
     1
102
RTVSPropertyOp4
 70
     1
102
RTVSPropertyOp5
 70
     1
102
RTVSPropertyOp6
 70
     1
102
RTVSPropertyOp7
 70
     1
102
RTVSPropertyOp8
 70
     1
102
RTVSPropertyOp9
 70
     1
102
RTVSPropertyOp10
 70
     1
102
RTVSPropertyOp11
 70
     1
102
RTVSPropertyOp12
 70
     1
102
RTVSPropertyOp13
 70
     1
102
RTVSPropertyOp14
 70
     1
102
RTVSPropertyOp15
 70
     1
102
RTVSPropertyOp16
 70
     1
102
RTVSPropertyOp17
 70
     1
102
RTVSPropertyOp18
 70
     1
102
RTVSPropertyOp19
 70
     1
102
RTVSPropertyOp20
 70
     1
102
RTVSPropertyOp21
 70
     1
102
RTVSPropertyOp22
 70
     1
102
RTVSPropertyOp23
 70
     1
102
RTVSPropertyOp24
 70
     1
102
RTVSPropertyOp25
 70
     1
102
RTVSPropertyOp26
 70
     1
102
RTVSPropertyOp27
 70
     1
102
RTVSPropertyOp28
 70
     1
102
RTVSPropertyOp29
 70
     1
102
RTVSPropertyOp30
 70
     1
102
RTVSPropertyOp31
 70
     1
102
RTVSPropertyOp32
 70
     1
102
RTVSPropertyOp33
 70
     1
102
RTVSPropertyOp34
 70
     1
102
RTVSPropertyOp35
 70
     1
102
RTVSPropertyOp36
 70
     1
102
RTVSPropertyOp37
 70
     1
102
RTVSPropertyOp38
 70
     1
102
RTVSPropertyOp39
 70
     1
102
RTVSPropertyOp40
 70
     1
102
RTVSPropertyOp41
 70
     1
102
RTVSPropertyOp42
 70
     1
102
RTVSPropertyOp43
 70
     1
102
RTVSPropertyOp44
 70
     1
102
RTVSPropertyOp45
 70
     1
102
RTVSPropertyOp46
 70
     1
102
RTVSPropertyOp47
 70
     1
102
RTVSPropertyOp48
 70
     1
102
RTVSPropertyOp49
 70
     1
102
RTVSPropertyOp50
 70
     1
102
RTVSPropertyOp51
 70
     0
102
RTVSPropertyOp52
 70
     0
102
RTVSPropertyOp53
 70
     1
102
RTVSPropertyOp54
 70
     1
102
RTVSPropertyOp55
 70
     1
102
RTVSPropertyOp56
 70
     1
102
RTVSPropertyOp57
 70
     1
102
RTVSPost2010Prop28
280
     0
102
RTVSPost2010PropOp28
 70
     1
102
RTVSPost2010Prop29
280
     1
102
RTVSPost2010PropOp29
 70
     1
102
RTVSPost2010Prop30
280
     1
102
RTVSPost2010PropOp30
 70
     1
102
RTVSPost2010Prop31
280
     0
102
RTVSPost2010PropOp31
 70
     1
102
RTVSPost2010Prop32
280
     0
102
RTVSPost2010PropOp32
 70
     1
102
RTVSPost2010Prop33
280
     0
102
RTVSPost2010PropOp33
 70
     1
102
RTVSPost2010Prop34
280
     0
102
RTVSPost2010PropOp34
 70
     1
102
RTVSPost2010Prop35
280
     0
102
RTVSPost2010PropOp35
 70
     1
102
RTVSPost2010Prop36
280
     0
102
RTVSPost2010PropOp36
 70
     1
102
RTVSPost2010Prop37
 90
       50
102
RTVSPost2010PropOp37
 70
     1
102
RTVSPost2010Prop38
140
0.0
102
RTVSPost2010PropOp38
 70
     1
102
RTVSPost2010Prop39
140
1.0
102
RTVSPost2010PropOp39
 70
     1
102
RTVSPost2010Prop40
 90
        0
102
RTVSPost2010PropOp40
 70
     1
102
RTVSPost2010Prop41ColorIndex
 90
       18
102
RTVSPost2010Prop41ColorRGB
 90
        0
102
RTVSPost2010PropOp41
 70
     1
102
RTVSPost2010Prop42
 90
       50
102
RTVSPost2010PropOp42
 70
     1
102
RTVSPost2010Prop43
 90
        3
102
RTVSPost2010PropOp43
 70
     1
102
RTVSPost2010Prop44ColorIndex
 90
        5
102
RTVSPost2010Prop44ColorRGB
 90
      255
102
RTVSPost2010PropOp44
 70
     1
102
RTVSPost2010Prop45
280
     0
102
RTVSPost2010PropOp45
 70
     1
102
RTVSPost2010Prop46
 90
       50
102
RTVSPost2010PropOp46
 70
     1
102
RTVSPost2010Prop47
 90
       50
102
RTVSPost2010PropOp47
 70
     1
102
RTVSPost2010Prop48
 90
       50
102
RTVSPost2010PropOp48
 70
     1
102
RTVSPost2010Prop49
280
     0
102
RTVSPost2010PropOp49
 70
     1
102
RTVSPost2010Prop50
 90
       50
102
RTVSPost2010PropOp50
 70
     1
102
RTVSPost2010Prop51ColorIndex
 90
      256
102
RTVSPost2010Prop51ColorRGB
 90
-16777216
102
RTVSPost2010PropOp51
 70
     0
102
RTVSPost2010Prop52
140
1.0
102
RTVSPost2010PropOp52
 70
     0
102
RTVSPost2010Prop53
 90
        2
102
RTVSPost2010PropOp53
 70
     1
102
RTVSPost2010Prop54
  1
strokes_ogs.tif
102
RTVSPost2010PropOp54
 70
     1
102
RTVSPost2010Prop55
280
     0
102
RTVSPost2010PropOp55
 70
     1
102
RTVSPost2010Prop56
140
1.0
102
RTVSPost2010PropOp56
 70
     1
102
RTVSPost2010Prop57
140
1.0
102
RTVSPost2010PropOp57
 70
     1
  0
XRECORD
  5
3EE
102
{ACAD_REACTORS
330
3ED
102
}
330
3ED
100
AcDbXrecord
280
     1
102
RTVSPropertyOp0
 70
     1
102
RTVSPropertyOp1
 70
     1
102
RTVSPropertyOp2
 70
     1
102
RTVSPropertyOp3
 70
     1
102
RTVSPropertyOp4
 70
     1
102
RTVSPropertyOp5
 70
     1
102
RTVSPropertyOp6
 70
     1
102
RTVSPropertyOp7
 70
     1
102
RTVSPropertyOp8
 70
     1
102
RTVSPropertyOp9
 70
     1
102
RTVSPropertyOp10
 70
     1
102
RTVSPropertyOp11
 70
     1
102
RTVSPropertyOp12
 70
     1
102
RTVSPropertyOp13
 70
     1
102
RTVSPropertyOp14
 70
     1
102
RTVSPropertyOp15
 70
     1
102
RTVSPropertyOp16
 70
     1
102
RTVSPropertyOp17
 70
     1
102
RTVSPropertyOp18
 70
     1
102
RTVSPropertyOp19
 70
     1
102
RTVSPropertyOp20
 70
     1
102
RTVSPropertyOp21
 70
     1
102
RTVSPropertyOp22
 70
     1
102
RTVSPropertyOp23
 70
     1
102
RTVSPropertyOp24
 70
     1
102
RTVSPropertyOp25
 70
     1
102
RTVSPropertyOp26
 70
     1
102
RTVSPropertyOp27
 70
     1
102
RTVSPropertyOp28
 70
     1
102
RTVSPropertyOp29
 70
     1
102
RTVSPropertyOp30
 70
     1
102
RTVSPropertyOp31
 70
     1
102
RTVSPropertyOp32
 70
     1
102
RTVSPropertyOp33
 70
     1
102
RTVSPropertyOp34
 70
     1
102
RTVSPropertyOp35
 70
     1
102
RTVSPropertyOp36
 70
     1
102
RTVSPropertyOp37
 70
     1
102
RTVSPropertyOp38
 70
     1
102
RTVSPropertyOp39
 70
     1
102
RTVSPropertyOp40
 70
     1
102
RTVSPropertyOp41
 70
     1
102
RTVSPropertyOp42
 70
     1
102
RTVSPropertyOp43
 70
     1
102
RTVSPropertyOp44
 70
     1
102
RTVSPropertyOp45
 70
     1
102
RTVSPropertyOp46
 70
     1
102
RTVSPropertyOp47
 70
     1
102
RTVSPropertyOp48
 70
     1
102
RTVSPropertyOp49
 70
     1
102
RTVSPropertyOp50
 70
     1
102
RTVSPropertyOp51
 70
     0
102
RTVSPropertyOp52
 70
     0
102
RTVSPropertyOp53
 70
     1
102
RTVSPropertyOp54
 70
     1
102
RTVSPropertyOp55
 70
     1
102
RTVSPropertyOp56
 70
     1
102
RTVSPropertyOp57
 70
     1
102
RTVSPost2010Prop28
280
     0
102
RTVSPost2010PropOp28
 70
     1
102
RTVSPost2010Prop29
280
     1
102
RTVSPost2010PropOp29
 70
     1
102
RTVSPost2010Prop30
280
     1
102
RTVSPost2010PropOp30
 70
     1
102
RTVSPost2010Prop31
280
     0
102
RTVSPost2010PropOp31
 70
     1
102
RTVSPost2010Prop32
280
     0
102
RTVSPost2010PropOp32
 70
     1
102
RTVSPost2010Prop33
280
     0
102
RTVSPost2010PropOp33
 70
     1
102
RTVSPost2010Prop34
280
     0
102
RTVSPost2010PropOp34
 70
     1
102
RTVSPost2010Prop35
280
     0
102
RTVSPost2010PropOp35
 70
     1
102
RTVSPost2010Prop36
280
     0
102
RTVSPost2010PropOp36
 70
     1
102
RTVSPost2010Prop37
 90
       50
102
RTVSPost2010PropOp37
 70
     1
102
RTVSPost2010Prop38
140
0.0
102
RTVSPost2010PropOp38
 70
     1
102
RTVSPost2010Prop39
140
1.0
102
RTVSPost2010PropOp39
 70
     1
102
RTVSPost2010Prop40
 90
        0
102
RTVSPost2010PropOp40
 70
     1
102
RTVSPost2010Prop41ColorIndex
 90
       18
102
RTVSPost2010Prop41ColorRGB
 90
        0
102
RTVSPost2010PropOp41
 70
     1
102
RTVSPost2010Prop42
 90
       50
102
RTVSPost2010PropOp42
 70
     1
102
RTVSPost2010Prop43
 90
        3
102
RTVSPost2010PropOp43
 70
     1
102
RTVSPost2010Prop44ColorIndex
 90
        5
102
RTVSPost2010Prop44ColorRGB
 90
      255
102
RTVSPost2010PropOp44
 70
     1
102
RTVSPost2010Prop45
280
     0
102
RTVSPost2010PropOp45
 70
     1
102
RTVSPost2010Prop46
 90
       50
102
RTVSPost2010PropOp46
 70
     1
102
RTVSPost2010Prop47
 90
       50
102
RTVSPost2010PropOp47
 70
     1
102
RTVSPost2010Prop48
 90
       50
102
RTVSPost2010PropOp48
 70
     1
102
RTVSPost2010Prop49
280
     0
102
RTVSPost2010PropOp49
 70
     1
102
RTVSPost2010Prop50
 90
       50
102
RTVSPost2010PropOp50
 70
     1
102
RTVSPost2010Prop51ColorIndex
 90
      256
102
RTVSPost2010Prop51ColorRGB
 90
-16777216
102
RTVSPost2010PropOp51
 70
     0
102
RTVSPost2010Prop52
140
1.0
102
RTVSPost2010PropOp52
 70
     0
102
RTVSPost2010Prop53
 90
        2
102
RTVSPost2010PropOp53
 70
     1
102
RTVSPost2010Prop54
  1
strokes_ogs.tif
102
RTVSPost2010PropOp54
 70
     1
102
RTVSPost2010Prop55
280
     0
102
RTVSPost2010PropOp55
 70
     1
102
RTVSPost2010Prop56
140
1.0
102
RTVSPost2010PropOp56
 70
     1
102
RTVSPost2010Prop57
140
1.0
102
RTVSPost2010PropOp57
 70
     1
  0
XRECORD
  5
3F0
102
{ACAD_REACTORS
330
3EF
102
}
330
3EF
100
AcDbXrecord
280
     1
102
RTVSPropertyOp0
 70
     1
102
RTVSPropertyOp1
 70
     1
102
RTVSPropertyOp2
 70
     1
102
RTVSPropertyOp3
 70
     1
102
RTVSPropertyOp4
 70
     1
102
RTVSPropertyOp5
 70
     1
102
RTVSPropertyOp6
 70
     1
102
RTVSPropertyOp7
 70
     1
102
RTVSPropertyOp8
 70
     1
102
RTVSPropertyOp9
 70
     1
102
RTVSPropertyOp10
 70
     1
102
RTVSPropertyOp11
 70
     1
102
RTVSPropertyOp12
 70
     1
102
RTVSPropertyOp13
 70
     1
102
RTVSPropertyOp14
 70
     1
102
RTVSPropertyOp15
 70
     1
102
RTVSPropertyOp16
 70
     1
102
RTVSPropertyOp17
 70
     1
102
RTVSPropertyOp18
 70
     1
102
RTVSPropertyOp19
 70
     1
102
RTVSPropertyOp20
 70
     1
102
RTVSPropertyOp21
 70
     1
102
RTVSPropertyOp22
 70
     1
102
RTVSPropertyOp23
 70
     1
102
RTVSPropertyOp24
 70
     1
102
RTVSPropertyOp25
 70
     1
102
RTVSPropertyOp26
 70
     1
102
RTVSPropertyOp27
 70
     1
102
RTVSPropertyOp28
 70
     1
102
RTVSPropertyOp29
 70
     1
102
RTVSPropertyOp30
 70
     1
102
RTVSPropertyOp31
 70
     1
102
RTVSPropertyOp32
 70
     1
102
RTVSPropertyOp33
 70
     1
102
RTVSPropertyOp34
 70
     1
102
RTVSPropertyOp35
 70
     1
102
RTVSPropertyOp36
 70
     1
102
RTVSPropertyOp37
 70
     1
102
RTVSPropertyOp38
 70
     1
102
RTVSPropertyOp39
 70
     1
102
RTVSPropertyOp40
 70
     1
102
RTVSPropertyOp41
 70
     1
102
RTVSPropertyOp42
 70
     1
102
RTVSPropertyOp43
 70
     1
102
RTVSPropertyOp44
 70
     1
102
RTVSPropertyOp45
 70
     1
102
RTVSPropertyOp46
 70
     1
102
RTVSPropertyOp47
 70
     1
102
RTVSPropertyOp48
 70
     1
102
RTVSPropertyOp49
 70
     1
102
RTVSPropertyOp50
 70
     1
102
RTVSPropertyOp51
 70
     0
102
RTVSPropertyOp52
 70
     0
102
RTVSPropertyOp53
 70
     1
102
RTVSPropertyOp54
 70
     1
102
RTVSPropertyOp55
 70
     1
102
RTVSPropertyOp56
 70
     1
102
RTVSPropertyOp57
 70
     1
102
RTVSPost2010Prop28
280
     0
102
RTVSPost2010PropOp28
 70
     1
102
RTVSPost2010Prop29
280
     1
102
RTVSPost2010PropOp29
 70
     1
102
RTVSPost2010Prop30
280
     1
102
RTVSPost2010PropOp30
 70
     1
102
RTVSPost2010Prop31
280
     0
102
RTVSPost2010PropOp31
 70
     1
102
RTVSPost2010Prop32
280
     0
102
RTVSPost2010PropOp32
 70
     1
102
RTVSPost2010Prop33
280
     0
102
RTVSPost2010PropOp33
 70
     1
102
RTVSPost2010Prop34
280
     0
102
RTVSPost2010PropOp34
 70
     1
102
RTVSPost2010Prop35
280
     0
102
RTVSPost2010PropOp35
 70
     1
102
RTVSPost2010Prop36
280
     0
102
RTVSPost2010PropOp36
 70
     1
102
RTVSPost2010Prop37
 90
       50
102
RTVSPost2010PropOp37
 70
     1
102
RTVSPost2010Prop38
140
0.0
102
RTVSPost2010PropOp38
 70
     1
102
RTVSPost2010Prop39
140
1.0
102
RTVSPost2010PropOp39
 70
     1
102
RTVSPost2010Prop40
 90
        0
102
RTVSPost2010PropOp40
 70
     1
102
RTVSPost2010Prop41ColorIndex
 90
       18
102
RTVSPost2010Prop41ColorRGB
 90
        0
102
RTVSPost2010PropOp41
 70
     1
102
RTVSPost2010Prop42
 90
       50
102
RTVSPost2010PropOp42
 70
     1
102
RTVSPost2010Prop43
 90
        3
102
RTVSPost2010PropOp43
 70
     1
102
RTVSPost2010Prop44ColorIndex
 90
        5
102
RTVSPost2010Prop44ColorRGB
 90
      255
102
RTVSPost2010PropOp44
 70
     1
102
RTVSPost2010Prop45
280
     0
102
RTVSPost2010PropOp45
 70
     1
102
RTVSPost2010Prop46
 90
       50
102
RTVSPost2010PropOp46
 70
     1
102
RTVSPost2010Prop47
 90
       50
102
RTVSPost2010PropOp47
 70
     1
102
RTVSPost2010Prop48
 90
       50
102
RTVSPost2010PropOp48
 70
     1
102
RTVSPost2010Prop49
280
     0
102
RTVSPost2010PropOp49
 70
     1
102
RTVSPost2010Prop50
 90
       50
102
RTVSPost2010PropOp50
 70
     1
102
RTVSPost2010Prop51ColorIndex
 90
      256
102
RTVSPost2010Prop51ColorRGB
 90
-16777216
102
RTVSPost2010PropOp51
 70
     0
102
RTVSPost2010Prop52
140
1.0
102
RTVSPost2010PropOp52
 70
     0
102
RTVSPost2010Prop53
 90
        2
102
RTVSPost2010PropOp53
 70
     1
102
RTVSPost2010Prop54
  1
strokes_ogs.tif
102
RTVSPost2010PropOp54
 70
     1
102
RTVSPost2010Prop55
280
     0
102
RTVSPost2010PropOp55
 70
     1
102
RTVSPost2010Prop56
140
1.0
102
RTVSPost2010PropOp56
 70
     1
102
RTVSPost2010Prop57
140
1.0
102
RTVSPost2010PropOp57
 70
     1
  0
XRECORD
  5
3E0
102
{ACAD_REACTORS
330
3DF
102
}
330
3DF
100
AcDbXrecord
280
     1
102
RTVSPropertyOp0
 70
     1
102
RTVSPropertyOp1
 70
     1
102
RTVSPropertyOp2
 70
     1
102
RTVSPropertyOp3
 70
     1
102
RTVSPropertyOp4
 70
     1
102
RTVSPropertyOp5
 70
     1
102
RTVSPropertyOp6
 70
     1
102
RTVSPropertyOp7
 70
     1
102
RTVSPropertyOp8
 70
     1
102
RTVSPropertyOp9
 70
     1
102
RTVSPropertyOp10
 70
     1
102
RTVSPropertyOp11
 70
     1
102
RTVSPropertyOp12
 70
     1
102
RTVSPropertyOp13
 70
     1
102
RTVSPropertyOp14
 70
     1
102
RTVSPropertyOp15
 70
     1
102
RTVSPropertyOp16
 70
     1
102
RTVSPropertyOp17
 70
     1
102
RTVSPropertyOp18
 70
     1
102
RTVSPropertyOp19
 70
     1
102
RTVSPropertyOp20
 70
     1
102
RTVSPropertyOp21
 70
     1
102
RTVSPropertyOp22
 70
     1
102
RTVSPropertyOp23
 70
     1
102
RTVSPropertyOp24
 70
     1
102
RTVSPropertyOp25
 70
     1
102
RTVSPropertyOp26
 70
     1
102
RTVSPropertyOp27
 70
     1
102
RTVSPropertyOp28
 70
     1
102
RTVSPropertyOp29
 70
     1
102
RTVSPropertyOp30
 70
     1
102
RTVSPropertyOp31
 70
     1
102
RTVSPropertyOp32
 70
     1
102
RTVSPropertyOp33
 70
     1
102
RTVSPropertyOp34
 70
     1
102
RTVSPropertyOp35
 70
     1
102
RTVSPropertyOp36
 70
     1
102
RTVSPropertyOp37
 70
     1
102
RTVSPropertyOp38
 70
     1
102
RTVSPropertyOp39
 70
     1
102
RTVSPropertyOp40
 70
     1
102
RTVSPropertyOp41
 70
     1
102
RTVSPropertyOp42
 70
     1
102
RTVSPropertyOp43
 70
     1
102
RTVSPropertyOp44
 70
     1
102
RTVSPropertyOp45
 70
     1
102
RTVSPropertyOp46
 70
     1
102
RTVSPropertyOp47
 70
     1
102
RTVSPropertyOp48
 70
     1
102
RTVSPropertyOp49
 70
     1
102
RTVSPropertyOp50
 70
     1
102
RTVSPropertyOp51
 70
     0
102
RTVSPropertyOp52
 70
     0
102
RTVSPropertyOp53
 70
     1
102
RTVSPropertyOp54
 70
     1
102
RTVSPropertyOp55
 70
     1
102
RTVSPropertyOp56
 70
     1
102
RTVSPropertyOp57
 70
     1
102
RTVSPost2010Prop28
280
     0
102
RTVSPost2010PropOp28
 70
     1
102
RTVSPost2010Prop29
280
     1
102
RTVSPost2010PropOp29
 70
     1
102
RTVSPost2010Prop30
280
     1
102
RTVSPost2010PropOp30
 70
     1
102
RTVSPost2010Prop31
280
     0
102
RTVSPost2010PropOp31
 70
     1
102
RTVSPost2010Prop32
280
     0
102
RTVSPost2010PropOp32
 70
     1
102
RTVSPost2010Prop33
280
     0
102
RTVSPost2010PropOp33
 70
     1
102
RTVSPost2010Prop34
280
     0
102
RTVSPost2010PropOp34
 70
     1
102
RTVSPost2010Prop35
280
     0
102
RTVSPost2010PropOp35
 70
     1
102
RTVSPost2010Prop36
280
     0
102
RTVSPost2010PropOp36
 70
     1
102
RTVSPost2010Prop37
 90
       50
102
RTVSPost2010PropOp37
 70
     1
102
RTVSPost2010Prop38
140
0.0
102
RTVSPost2010PropOp38
 70
     1
102
RTVSPost2010Prop39
140
1.0
102
RTVSPost2010PropOp39
 70
     1
102
RTVSPost2010Prop40
 90
        0
102
RTVSPost2010PropOp40
 70
     1
102
RTVSPost2010Prop41ColorIndex
 90
       18
102
RTVSPost2010Prop41ColorRGB
 90
        0
102
RTVSPost2010PropOp41
 70
     1
102
RTVSPost2010Prop42
 90
       50
102
RTVSPost2010PropOp42
 70
     1
102
RTVSPost2010Prop43
 90
        3
102
RTVSPost2010PropOp43
 70
     1
102
RTVSPost2010Prop44ColorIndex
 90
        5
102
RTVSPost2010Prop44ColorRGB
 90
      255
102
RTVSPost2010PropOp44
 70
     1
102
RTVSPost2010Prop45
280
     0
102
RTVSPost2010PropOp45
 70
     1
102
RTVSPost2010Prop46
 90
       50
102
RTVSPost2010PropOp46
 70
     1
102
RTVSPost2010Prop47
 90
       50
102
RTVSPost2010PropOp47
 70
     1
102
RTVSPost2010Prop48
 90
       50
102
RTVSPost2010PropOp48
 70
     1
102
RTVSPost2010Prop49
280
     0
102
RTVSPost2010PropOp49
 70
     1
102
RTVSPost2010Prop50
 90
       50
102
RTVSPost2010PropOp50
 70
     1
102
RTVSPost2010Prop51ColorIndex
 90
      256
102
RTVSPost2010Prop51ColorRGB
 90
-16777216
102
RTVSPost2010PropOp51
 70
     0
102
RTVSPost2010Prop52
140
1.0
102
RTVSPost2010PropOp52
 70
     0
102
RTVSPost2010Prop53
 90
        2
102
RTVSPost2010PropOp53
 70
     1
102
RTVSPost2010Prop54
  1
strokes_ogs.tif
102
RTVSPost2010PropOp54
 70
     1
102
RTVSPost2010Prop55
280
     0
102
RTVSPost2010PropOp55
 70
     1
102
RTVSPost2010Prop56
140
1.0
102
RTVSPost2010PropOp56
 70
     1
102
RTVSPost2010Prop57
140
1.0
102
RTVSPost2010PropOp57
 70
     1
  0
XRECORD
  5
3D2
102
{ACAD_REACTORS
330
3D1
102
}
330
3D1
100
AcDbXrecord
280
     1
102
RTVSPropertyOp0
 70
     1
102
RTVSPropertyOp1
 70
     1
102
RTVSPropertyOp2
 70
     1
102
RTVSPropertyOp3
 70
     1
102
RTVSPropertyOp4
 70
     1
102
RTVSPropertyOp5
 70
     1
102
RTVSPropertyOp6
 70
     1
102
RTVSPropertyOp7
 70
     1
102
RTVSPropertyOp8
 70
     1
102
RTVSPropertyOp9
 70
     1
102
RTVSPropertyOp10
 70
     1
102
RTVSPropertyOp11
 70
     1
102
RTVSPropertyOp12
 70
     1
102
RTVSPropertyOp13
 70
     1
102
RTVSPropertyOp14
 70
     1
102
RTVSPropertyOp15
 70
     1
102
RTVSPropertyOp16
 70
     1
102
RTVSPropertyOp17
 70
     1
102
RTVSPropertyOp18
 70
     1
102
RTVSPropertyOp19
 70
     1
102
RTVSPropertyOp20
 70
     1
102
RTVSPropertyOp21
 70
     1
102
RTVSPropertyOp22
 70
     1
102
RTVSPropertyOp23
 70
     1
102
RTVSPropertyOp24
 70
     1
102
RTVSPropertyOp25
 70
     1
102
RTVSPropertyOp26
 70
     1
102
RTVSPropertyOp27
 70
     1
102
RTVSPropertyOp28
 70
     1
102
RTVSPropertyOp29
 70
     1
102
RTVSPropertyOp30
 70
     1
102
RTVSPropertyOp31
 70
     1
102
RTVSPropertyOp32
 70
     1
102
RTVSPropertyOp33
 70
     1
102
RTVSPropertyOp34
 70
     1
102
RTVSPropertyOp35
 70
     1
102
RTVSPropertyOp36
 70
     1
102
RTVSPropertyOp37
 70
     1
102
RTVSPropertyOp38
 70
     1
102
RTVSPropertyOp39
 70
     1
102
RTVSPropertyOp40
 70
     1
102
RTVSPropertyOp41
 70
     1
102
RTVSPropertyOp42
 70
     1
102
RTVSPropertyOp43
 70
     1
102
RTVSPropertyOp44
 70
     1
102
RTVSPropertyOp45
 70
     1
102
RTVSPropertyOp46
 70
     1
102
RTVSPropertyOp47
 70
     1
102
RTVSPropertyOp48
 70
     1
102
RTVSPropertyOp49
 70
     1
102
RTVSPropertyOp50
 70
     1
102
RTVSPropertyOp51
 70
     0
102
RTVSPropertyOp52
 70
     0
102
RTVSPropertyOp53
 70
     1
102
RTVSPropertyOp54
 70
     1
102
RTVSPropertyOp55
 70
     1
102
RTVSPropertyOp56
 70
     1
102
RTVSPropertyOp57
 70
     1
102
RTVSPost2010Prop28
280
     0
102
RTVSPost2010PropOp28
 70
     1
102
RTVSPost2010Prop29
280
     1
102
RTVSPost2010PropOp29
 70
     1
102
RTVSPost2010Prop30
280
     1
102
RTVSPost2010PropOp30
 70
     1
102
RTVSPost2010Prop31
280
     0
102
RTVSPost2010PropOp31
 70
     1
102
RTVSPost2010Prop32
280
     0
102
RTVSPost2010PropOp32
 70
     1
102
RTVSPost2010Prop33
280
     0
102
RTVSPost2010PropOp33
 70
     1
102
RTVSPost2010Prop34
280
     0
102
RTVSPost2010PropOp34
 70
     1
102
RTVSPost2010Prop35
280
     0
102
RTVSPost2010PropOp35
 70
     1
102
RTVSPost2010Prop36
280
     0
102
RTVSPost2010PropOp36
 70
     1
102
RTVSPost2010Prop37
 90
       50
102
RTVSPost2010PropOp37
 70
     1
102
RTVSPost2010Prop38
140
0.0
102
RTVSPost2010PropOp38
 70
     1
102
RTVSPost2010Prop39
140
1.0
102
RTVSPost2010PropOp39
 70
     1
102
RTVSPost2010Prop40
 90
        0
102
RTVSPost2010PropOp40
 70
     1
102
RTVSPost2010Prop41ColorIndex
 90
       18
102
RTVSPost2010Prop41ColorRGB
 90
        0
102
RTVSPost2010PropOp41
 70
     1
102
RTVSPost2010Prop42
 90
       50
102
RTVSPost2010PropOp42
 70
     1
102
RTVSPost2010Prop43
 90
        3
102
RTVSPost2010PropOp43
 70
     1
102
RTVSPost2010Prop44ColorIndex
 90
        5
102
RTVSPost2010Prop44ColorRGB
 90
      255
102
RTVSPost2010PropOp44
 70
     1
102
RTVSPost2010Prop45
280
     0
102
RTVSPost2010PropOp45
 70
     1
102
RTVSPost2010Prop46
 90
       50
102
RTVSPost2010PropOp46
 70
     1
102
RTVSPost2010Prop47
 90
       50
102
RTVSPost2010PropOp47
 70
     1
102
RTVSPost2010Prop48
 90
       50
102
RTVSPost2010PropOp48
 70
     1
102
RTVSPost2010Prop49
280
     0
102
RTVSPost2010PropOp49
 70
     1
102
RTVSPost2010Prop50
 90
       50
102
RTVSPost2010PropOp50
 70
     1
102
RTVSPost2010Prop51ColorIndex
 90
      256
102
RTVSPost2010Prop51ColorRGB
 90
-16777216
102
RTVSPost2010PropOp51
 70
     0
102
RTVSPost2010Prop52
140
1.0
102
RTVSPost2010PropOp52
 70
     0
102
RTVSPost2010Prop53
 90
        2
102
RTVSPost2010PropOp53
 70
     1
102
RTVSPost2010Prop54
  1
strokes_ogs.tif
102
RTVSPost2010PropOp54
 70
     1
102
RTVSPost2010Prop55
280
     0
102
RTVSPost2010PropOp55
 70
     1
102
RTVSPost2010Prop56
140
1.0
102
RTVSPost2010PropOp56
 70
     1
102
RTVSPost2010Prop57
140
1.0
102
RTVSPost2010PropOp57
 70
     1
  0
XRECORD
  5
3F2
102
{ACAD_REACTORS
330
3F1
102
}
330
3F1
100
AcDbXrecord
280
     1
102
RTVSPropertyOp0
 70
     1
102
RTVSPropertyOp1
 70
     1
102
RTVSPropertyOp2
 70
     1
102
RTVSPropertyOp3
 70
     1
102
RTVSPropertyOp4
 70
     1
102
RTVSPropertyOp5
 70
     1
102
RTVSPropertyOp6
 70
     1
102
RTVSPropertyOp7
 70
     1
102
RTVSPropertyOp8
 70
     1
102
RTVSPropertyOp9
 70
     1
102
RTVSPropertyOp10
 70
     1
102
RTVSPropertyOp11
 70
     1
102
RTVSPropertyOp12
 70
     1
102
RTVSPropertyOp13
 70
     1
102
RTVSPropertyOp14
 70
     1
102
RTVSPropertyOp15
 70
     1
102
RTVSPropertyOp16
 70
     1
102
RTVSPropertyOp17
 70
     1
102
RTVSPropertyOp18
 70
     1
102
RTVSPropertyOp19
 70
     1
102
RTVSPropertyOp20
 70
     1
102
RTVSPropertyOp21
 70
     1
102
RTVSPropertyOp22
 70
     1
102
RTVSPropertyOp23
 70
     1
102
RTVSPropertyOp24
 70
     1
102
RTVSPropertyOp25
 70
     1
102
RTVSPropertyOp26
 70
     1
102
RTVSPropertyOp27
 70
     1
102
RTVSPropertyOp28
 70
     1
102
RTVSPropertyOp29
 70
     1
102
RTVSPropertyOp30
 70
     1
102
RTVSPropertyOp31
 70
     1
102
RTVSPropertyOp32
 70
     1
102
RTVSPropertyOp33
 70
     1
102
RTVSPropertyOp34
 70
     1
102
RTVSPropertyOp35
 70
     1
102
RTVSPropertyOp36
 70
     1
102
RTVSPropertyOp37
 70
     1
102
RTVSPropertyOp38
 70
     1
102
RTVSPropertyOp39
 70
     1
102
RTVSPropertyOp40
 70
     1
102
RTVSPropertyOp41
 70
     1
102
RTVSPropertyOp42
 70
     1
102
RTVSPropertyOp43
 70
     1
102
RTVSPropertyOp44
 70
     1
102
RTVSPropertyOp45
 70
     1
102
RTVSPropertyOp46
 70
     1
102
RTVSPropertyOp47
 70
     1
102
RTVSPropertyOp48
 70
     1
102
RTVSPropertyOp49
 70
     1
102
RTVSPropertyOp50
 70
     1
102
RTVSPropertyOp51
 70
     0
102
RTVSPropertyOp52
 70
     0
102
RTVSPropertyOp53
 70
     1
102
RTVSPropertyOp54
 70
     1
102
RTVSPropertyOp55
 70
     1
102
RTVSPropertyOp56
 70
     1
102
RTVSPropertyOp57
 70
     1
102
RTVSPost2010Prop28
280
     0
102
RTVSPost2010PropOp28
 70
     1
102
RTVSPost2010Prop29
280
     1
102
RTVSPost2010PropOp29
 70
     1
102
RTVSPost2010Prop30
280
     1
102
RTVSPost2010PropOp30
 70
     1
102
RTVSPost2010Prop31
280
     0
102
RTVSPost2010PropOp31
 70
     1
102
RTVSPost2010Prop32
280
     0
102
RTVSPost2010PropOp32
 70
     1
102
RTVSPost2010Prop33
280
     0
102
RTVSPost2010PropOp33
 70
     1
102
RTVSPost2010Prop34
280
     0
102
RTVSPost2010PropOp34
 70
     1
102
RTVSPost2010Prop35
280
     0
102
RTVSPost2010PropOp35
 70
     1
102
RTVSPost2010Prop36
280
     0
102
RTVSPost2010PropOp36
 70
     1
102
RTVSPost2010Prop37
 90
       50
102
RTVSPost2010PropOp37
 70
     1
102
RTVSPost2010Prop38
140
0.0
102
RTVSPost2010PropOp38
 70
     1
102
RTVSPost2010Prop39
140
1.0
102
RTVSPost2010PropOp39
 70
     1
102
RTVSPost2010Prop40
 90
        0
102
RTVSPost2010PropOp40
 70
     1
102
RTVSPost2010Prop41ColorIndex
 90
       18
102
RTVSPost2010Prop41ColorRGB
 90
        0
102
RTVSPost2010PropOp41
 70
     1
102
RTVSPost2010Prop42
 90
       50
102
RTVSPost2010PropOp42
 70
     1
102
RTVSPost2010Prop43
 90
        3
102
RTVSPost2010PropOp43
 70
     1
102
RTVSPost2010Prop44ColorIndex
 90
        5
102
RTVSPost2010Prop44ColorRGB
 90
      255
102
RTVSPost2010PropOp44
 70
     1
102
RTVSPost2010Prop45
280
     0
102
RTVSPost2010PropOp45
 70
     1
102
RTVSPost2010Prop46
 90
       50
102
RTVSPost2010PropOp46
 70
     1
102
RTVSPost2010Prop47
 90
       50
102
RTVSPost2010PropOp47
 70
     1
102
RTVSPost2010Prop48
 90
       50
102
RTVSPost2010PropOp48
 70
     1
102
RTVSPost2010Prop49
280
     0
102
RTVSPost2010PropOp49
 70
     1
102
RTVSPost2010Prop50
 90
       50
102
RTVSPost2010PropOp50
 70
     1
102
RTVSPost2010Prop51ColorIndex
 90
      256
102
RTVSPost2010Prop51ColorRGB
 90
-16777216
102
RTVSPost2010PropOp51
 70
     0
102
RTVSPost2010Prop52
140
1.0
102
RTVSPost2010PropOp52
 70
     0
102
RTVSPost2010Prop53
 90
        2
102
RTVSPost2010PropOp53
 70
     1
102
RTVSPost2010Prop54
  1
strokes_ogs.tif
102
RTVSPost2010PropOp54
 70
     1
102
RTVSPost2010Prop55
280
     0
102
RTVSPost2010PropOp55
 70
     1
102
RTVSPost2010Prop56
140
1.0
102
RTVSPost2010PropOp56
 70
     1
102
RTVSPost2010Prop57
140
1.0
102
RTVSPost2010PropOp57
 70
     1
  0
ENDSEC
  0
EOF
