  0
SECTION
  2
HEADER
  9
$ACADVER
  1
AC1015
  9
$EXTMAX
 10
390.0624014536196
 20
310.9819653841728
 30
0
  9
$EXTMIN
 10
-155.4096567993621
 20
-58.69814992472007
 30
0
  9
$LIMMAX
 10
390.0624014536196
 20
310.9819653841728
  9
$LIMMIN
 10
-155.4096567993621
 20
-58.69814992472007
  9
$PLIMMAX
 10
390.0624014536196
 20
310.9819653841728
  9
$PLIMMIN
 10
-155.4096567993621
 20
-58.69814992472007
  9
$TEXTSIZE
 40
3.2
  9
$DIMSHO
 70
     0
  9
$DIMASZ
 40
1.0
  9
$DIMTAD
 70
     1
  9
$DIMTIH
 70
     0
  9
$DIMTOH
 70
     0
  9
$DIMEXE
 40
2.54
  9
$DIMEXO
 40
2.54
  9
$DIMTVP
 40
1.0
  9
$DIMSAH
 70
     1
  9
$DIMDLE
 40
0.0
  9
$DIMTXT
 40
4
  9
$DIMGAP
 40
2
  9
$DIMAUNIT
 70
     1
  9
$DIMDEC
 70
     1
  9
$HANDSEED
  5
     394
  9
$MEASUREMENT
 70
     1
  0
ENDSEC
  0
SECTION
  2
TABLES
  0
TABLE
  2
LTYPE
  5
25
100
AcDbSymbolTable
 70
    48
  0
LTYPE
  5
26
100
AcDbSymbolTableRecord
100
AcDbLinetypeTableRecord
  2
BYBLOCK
 70
    64
  3

 72
    65
 73
     0
 40
0.0
  0
LTYPE
  5
27
100
AcDbSymbolTableRecord
100
AcDbLinetypeTableRecord
  2
BYLAYER
 70
    64
  3

 72
    65
 73
     0
 40
0.0
  0
LTYPE
  5
28
100
AcDbSymbolTableRecord
100
AcDbLinetypeTableRecord
  2
CONTINUOUS
 70
    64
  3
Solid line
 72
    65
 73
     0
 40
0.0
  0
LTYPE
  5
29
100
AcDbSymbolTableRecord
100
AcDbLinetypeTableRecord
  2
DASHED
 70
    64
  3
Dashed __ __ __ __ __ __ __ __ __ __ __ __ __ _
 72
    65
 73
     2
 40
4.5
 49
3.0
 74
     0
 49
-1.5
 74
     0
  0
LTYPE
  5
2a
100
AcDbSymbolTableRecord
100
AcDbLinetypeTableRecord
  2
CENTER
 70
    64
  3
Center ____ _ ____ _ ____ _ ____ _ ____ _ ____
 72
    65
 73
     4
 74
     0
 40
12.0
 49
7.5
 74
     0
 49
-1.5
 74
     0
 49
1.5
 74
     0
 49
-1.5
 74
     0
  0
LTYPE
  5
2b
100
AcDbSymbolTableRecord
100
AcDbLinetypeTableRecord
  2
PHANTOM
 70
    64
  3
Phantom ______  __  __  ______  __  __  ______
 72
    65
 73
     6
 74
     0
 40
15.0
 49
7.5
 74
     0
 49
-1.5
 74
     0
 49
1.5
 74
     0
 49
-1.5
 74
     0
 49
1.5
 74
     0
 49
-1.5
 74
     0
  0
LTYPE
  5
2c
100
AcDbSymbolTableRecord
100
AcDbLinetypeTableRecord
  2
DOT
 70
    64
  3
Dot . . . . . . . . . . . . . . . . . . . . . .
 72
    65
 73
     2
 74
     0
 40
1.5
 49
0.0
 74
     0
 49
-1.5
 74
     0
  0
LTYPE
  5
2d
100
AcDbSymbolTableRecord
100
AcDbLinetypeTableRecord
  2
HIDDEN
 70
    64
  3
Hidden __ __ __ __ __ __ __ __ __ __ __ __ __ _
 72
    65
 73
     2
 74
     0
 40
4.5
 49
3.0
 74
     0
 49
-1.5
 74
     0
  0
LTYPE
  5
2e
100
AcDbSymbolTableRecord
100
AcDbLinetypeTableRecord
  2
BORDER
 70
    64
  3
Border __ __ . __ __ . __ __ . __ __ . __ __ .
 72
    65
 73
     6
 40
3.5
 49
1.0
 74
     0
 49
-0.5
 74
     0
 49
1.0
 74
     0
 49
-0.5
 74
     0
 49
0.0
 74
     0
 49
-0.5
 74
     0
  0
LTYPE
  5
2f
100
AcDbSymbolTableRecord
100
AcDbLinetypeTableRecord
  2
BORDER2
 70
    64
  3
Border (.5x) __.__.__.__.__.__.__.__.__.__.__.
 72
    65
 73
     6
 40
1.75
 49
0.5
 74
     0
 49
-0.25
 74
     0
 49
0.5
 74
     0
 49
-0.25
 74
     0
 49
0.0
 74
     0
 49
-0.25
 74
     0
  0
LTYPE
  5
30
100
AcDbSymbolTableRecord
100
AcDbLinetypeTableRecord
  2
BORDERX2
 70
    64
  3
Border (2x) ____  ____  .  ____  ____  .  ___
 72
    65
 73
     6
 40
7.0
 49
2.0
 74
     0
 49
-1.0
 74
     0
 49
2.0
 74
     0
 49
-1.0
 74
     0
 49
0.0
 74
     0
 49
-1.0
 74
     0
  0
LTYPE
  5
31
100
AcDbSymbolTableRecord
100
AcDbLinetypeTableRecord
  2
CENTER2
 70
    64
  3
Center (.5x) ___ _ ___ _ ___ _ ___ _ ___ _ ___
 72
    65
 73
     4
 40
6.0
 49
3.75
 74
     0
 49
-0.75
 74
     0
 49
0.75
 74
     0
 49
-0.75
 74
     0
  0
LTYPE
  5
32
100
AcDbSymbolTableRecord
100
AcDbLinetypeTableRecord
  2
CENTERX2
 70
    64
  3
Center (2x) ________  __  ________  __  _____
 72
    65
 73
     4
 40
24.0
 49
15.0
 74
     0
 49
-3.0
 74
     0
 49
3.0
 74
     0
 49
-3.0
 74
     0
  0
LTYPE
  5
33
100
AcDbSymbolTableRecord
100
AcDbLinetypeTableRecord
  2
DASHDOT
 70
    64
  3
Dash dot __ . __ . __ . __ . __ . __ . __ . __
 72
    65
 73
     4
 40
6.0
 49
3.0
 74
     0
 49
-1.5
 74
     0
 49
0.0
 74
     0
 49
-1.5
 74
     0
  0
LTYPE
  5
34
100
AcDbSymbolTableRecord
100
AcDbLinetypeTableRecord
  2
DASHDOT2
 70
    64
  3
Dash dot (.5x) _._._._._._._._._._._._._._._.
 72
    65
 73
     4
 40
3.0
 49
1.5
 74
     0
 49
-0.75
 74
     0
 49
0.0
 74
     0
 49
-0.75
 74
     0
  0
LTYPE
  5
35
100
AcDbSymbolTableRecord
100
AcDbLinetypeTableRecord
  2
DASHDOTX2
 70
    64
  3
Dash dot (2x) ____  .  ____  .  ____  .  ___
 72
    65
 73
     4
 40
12.0
 49
6.0
 74
     0
 49
-3.0
 74
     0
 49
0.0
 74
     0
 49
-3.0
 74
     0
  0
LTYPE
  5
36
100
AcDbSymbolTableRecord
100
AcDbLinetypeTableRecord
  2
DASHED2
 70
    64
  3
Dashed (.5x) _ _ _ _ _ _ _ _ _ _ _ _ _ _ _ _ _
 72
    65
 73
     2
 40
2.25
 49
1.5
 74
     0
 49
-0.75
 74
     0
  0
LTYPE
  5
37
100
AcDbSymbolTableRecord
100
AcDbLinetypeTableRecord
  2
DASHEDX2
 70
    64
  3
Dashed (2x) ____  ____  ____  ____  ____  ___
 72
    65
 73
     2
 40
9.0
 49
6.0
 74
     0
 49
-3.0
 74
     0
  0
LTYPE
  5
38
100
AcDbSymbolTableRecord
100
AcDbLinetypeTableRecord
  2
DIVIDE
 70
    64
  3
Divide ____ . . ____ . . ____ . . ____ . . ____
 72
    65
 73
     6
 40
7.5
 49
3.0
 74
     0
 49
-1.5
 74
     0
 49
0.0
 74
     0
 49
-1.5
 74
     0
 49
0.0
 74
     0
 49
-1.5
 74
     0
  0
LTYPE
  5
39
100
AcDbSymbolTableRecord
100
AcDbLinetypeTableRecord
  2
DIVIDE2
 70
    64
  3
Divide (.5x) __..__..__..__..__..__..__..__.._
 72
    65
 73
     6
 40
3.75
 49
1.5
 74
     0
 49
-0.75
 74
     0
 49
0.0
 74
     0
 49
-0.75
 74
     0
 49
0.0
 74
     0
 49
-0.75
 74
     0
  0
LTYPE
  5
3a
100
AcDbSymbolTableRecord
100
AcDbLinetypeTableRecord
  2
DIVIDEX2
 70
    64
  3
Divide (2x) ________  .  .  ________  .  .  _
 72
    65
 73
     6
 40
15.0
 49
6.0
 74
     0
 49
-3.0
 74
     0
 49
0.0
 74
     0
 49
-3.0
 74
     0
 49
0.0
 74
     0
 49
-3.0
 74
     0
  0
LTYPE
  5
3b
100
AcDbSymbolTableRecord
100
AcDbLinetypeTableRecord
  2
DOT2
 70
    64
  3
Dot (.5x) .....................................
 72
    65
 73
     2
 40
0.75
 49
0.0
 74
     0
 49
-0.75
 74
     0
  0
LTYPE
  5
3c
100
AcDbSymbolTableRecord
100
AcDbLinetypeTableRecord
  2
DOTX2
 70
    64
  3
Dot (2x) .  .  .  .  .  .  .  .  .  .  .  .  . 
 72
    65
 73
     2
 40
3.0
 49
0.0
 74
     0
 49
-3.0
 74
     0
  0
LTYPE
  5
3d
100
AcDbSymbolTableRecord
100
AcDbLinetypeTableRecord
  2
HIDDEN2
 70
    64
  3
Hidden (.5x) _ _ _ _ _ _ _ _ _ _ _ _ _ _ _ _ _
 72
    65
 73
     2
 40
2.25
 49
1.5
 74
     0
 49
-0.75
 74
     0
  0
LTYPE
  5
3e
100
AcDbSymbolTableRecord
100
AcDbLinetypeTableRecord
  2
HIDDENX2
 70
    64
  3
Hidden (2x) ____ ____ ____ ____ ____ ____ ____
 72
    65
 73
     2
 40
9.0
 49
6.0
 74
     0
 49
-3.0
 74
     0
  0
LTYPE
  5
3f
100
AcDbSymbolTableRecord
100
AcDbLinetypeTableRecord
  2
PHANTOM2
 70
    64
  3
Phantom (.5x) ___ _ _ ___ _ _ ___ _ _ ___ _ _
 72
    65
 73
     6
 40
7.5
 49
3.75
 74
     0
 49
-0.75
 74
     0
 49
0.75
 74
     0
 49
-0.75
 74
     0
 49
0.75
 74
     0
 49
-0.75
 74
     0
  0
LTYPE
  5
40
100
AcDbSymbolTableRecord
100
AcDbLinetypeTableRecord
  2
PHANTOMX2
 70
    64
  3
Phantom (2x) ____________    ____    ____   _
 72
    65
 73
     6
 40
30.0
 49
15.0
 74
     0
 49
-3.0
 74
     0
 49
3.0
 74
     0
 49
-3.0
 74
     0
 49
3.0
 74
     0
 49
-3.0
 74
     0
  0
LTYPE
  5
41
100
AcDbSymbolTableRecord
100
AcDbLinetypeTableRecord
  2
ACAD_ISO02W100
 70
     0
  3
ISO dash __ __ __ __ __ __ __ __ __ __ __ __ __
 72
    65
 73
     2
 40
15.0
 49
12.0
 74
     0
 49
-3.0
 74
     0
  0
LTYPE
  5
42
100
AcDbSymbolTableRecord
100
AcDbLinetypeTableRecord
  2
ACAD_ISO03W100
 70
     0
  3
ISO dash space __    __    __    __    __    __
 72
    65
 73
     2
 40
30.0
 49
12.0
 74
     0
 49
-18.0
 74
     0
  0
LTYPE
  5
43
100
AcDbSymbolTableRecord
100
AcDbLinetypeTableRecord
  2
ACAD_ISO04W100
 70
     0
  3
ISO long-dash dot ____ . ____ . ____ . ____ . _
 72
    65
 73
     4
 40
30.0
 49
24.0
 74
     0
 49
-3.0
 74
     0
 49
0.0
 74
     0
 49
-3.0
 74
     0
  0
LTYPE
  5
44
100
AcDbSymbolTableRecord
100
AcDbLinetypeTableRecord
  2
ACAD_ISO05W100
 70
     0
  3
ISO long-dash double-dot ____ .. ____ .. ____ .
 72
    65
 73
     6
 40
33.0
 49
24.0
 74
     0
 49
-3.0
 74
     0
 49
0.0
 74
     0
 49
-3.0
 74
     0
 49
0.0
 74
     0
 49
-3.0
 74
     0
  0
LTYPE
  5
45
100
AcDbSymbolTableRecord
100
AcDbLinetypeTableRecord
  2
ACAD_ISO06W100
 70
     0
  3
ISO long-dash triple-dot ____ ... ____ ... ____
 72
    65
 73
     8
 40
36.0
 49
24.0
 74
     0
 49
-3.0
 74
     0
 49
0.0
 74
     0
 49
-3.0
 74
     0
 49
0.0
 74
     0
 49
-3.0
 74
     0
 49
0.0
 74
     0
 49
-3.0
 74
     0
  0
LTYPE
  5
46
100
AcDbSymbolTableRecord
100
AcDbLinetypeTableRecord
  2
ACAD_ISO07W100
 70
     0
  3
ISO dot . . . . . . . . . . . . . . . . . . . .
 72
    65
 73
     2
 40
3.0
 49
0.0
 74
     0
 49
-3.0
 74
     0
  0
LTYPE
  5
47
100
AcDbSymbolTableRecord
100
AcDbLinetypeTableRecord
  2
ACAD_ISO08W100
 70
     0
  3
ISO long-dash short-dash ____ __ ____ __ ____ _
 72
    65
 73
     4
 40
36.0
 49
24.0
 74
     0
 49
-3.0
 74
     0
 49
6.0
 74
     0
 49
-3.0
 74
     0
  0
LTYPE
  5
48
100
AcDbSymbolTableRecord
100
AcDbLinetypeTableRecord
  2
ACAD_ISO09W100
 70
     0
  3
ISO long-dash double-short-dash ____ __ __ ____
 72
    65
 73
     6
 40
45.0
 49
24.0
 74
     0
 49
-3.0
 74
     0
 49
6.0
 74
     0
 49
-3.0
 74
     0
 49
6.0
 74
     0
 49
-3.0
 74
     0
  0
LTYPE
  5
49
100
AcDbSymbolTableRecord
100
AcDbLinetypeTableRecord
  2
ACAD_ISO10W100
 70
     0
  3
ISO dash dot __ . __ . __ . __ . __ . __ . __ .
 72
    65
 73
     4
 40
18.0
 49
12.0
 74
     0
 49
-3.0
 74
     0
 49
0.0
 74
     0
 49
-3.0
 74
     0
  0
LTYPE
  5
4a
100
AcDbSymbolTableRecord
100
AcDbLinetypeTableRecord
  2
ACAD_ISO11W100
 70
     0
  3
ISO double-dash dot __ __ . __ __ . __ __ . __ 
 72
    65
 73
     6
 40
33.0
 49
12.0
 74
     0
 49
-3.0
 74
     0
 49
12.0
 74
     0
 49
-3.0
 74
     0
 49
0.0
 74
     0
 49
-3.0
 74
     0
  0
LTYPE
  5
4b
100
AcDbSymbolTableRecord
100
AcDbLinetypeTableRecord
  2
ACAD_ISO12W100
 70
     0
  3
ISO dash double-dot __ . . __ . . __ . . __ . .
 72
    65
 73
     6
 40
21.0
 49
12.0
 74
     0
 49
-3.0
 74
     0
 49
0.0
 74
     0
 49
-3.0
 74
     0
 49
0.0
 74
     0
 49
-3.0
 74
     0
  0
LTYPE
  5
4c
100
AcDbSymbolTableRecord
100
AcDbLinetypeTableRecord
  2
ACAD_ISO13W100
 70
     0
  3
ISO double-dash double-dot __ __ . . __ __ . . 
 72
    65
 73
     8
 40
36.0
 49
12.0
 74
     0
 49
-3.0
 74
     0
 49
12.0
 74
     0
 49
-3.0
 74
     0
 49
0.0
 74
     0
 49
-3.0
 74
     0
 49
0.0
 74
     0
 49
-3.0
 74
     0
  0
LTYPE
  5
4d
100
AcDbSymbolTableRecord
100
AcDbLinetypeTableRecord
  2
ACAD_ISO14W100
 70
     0
  3
ISO dash triple-dot __ . . . __ . . . __ . . . 
 72
    65
 73
     8
 40
24.0
 49
12.0
 74
     0
 49
-3.0
 74
     0
 49
0.0
 74
     0
 49
-3.0
 74
     0
 49
0.0
 74
     0
 49
-3.0
 74
     0
 49
0.0
 74
     0
 49
-3.0
 74
     0
  0
LTYPE
  5
4e
100
AcDbSymbolTableRecord
100
AcDbLinetypeTableRecord
  2
ACAD_ISO15W100
 70
     0
  3
ISO double-dash triple-dot __ __ . . . __ __ . 
 72
    65
 73
    10
 40
39.0
 49
12.0
 74
     0
 49
-3.0
 74
     0
 49
12.0
 74
     0
 49
-3.0
 74
     0
 49
0.0
 74
     0
 49
-3.0
 74
     0
 49
0.0
 74
     0
 49
-3.0
 74
     0
 49
0.0
 74
     0
 49
-3.0
 74
     0
  0
LTYPE
  5
4f
100
AcDbSymbolTableRecord
100
AcDbLinetypeTableRecord
  2
FENCELINE1
 70
     0
  3
Fenceline circle ----0-----0----0-----0----0---
 72
    65
 73
     4
 40
1.45
 49
0.25
 74
     0
 49
-0.1
 74
     4
 75
   133
340
24
 46
0.1
 50
0.0
 44
-0.1
 45
0.0
 49
-0.1
 74
     0
 49
1.0
 74
     0
  0
LTYPE
  5
50
100
AcDbSymbolTableRecord
100
AcDbLinetypeTableRecord
  2
FENCELINE2
 70
     0
  3
Fenceline square ----[]-----[]----[]-----[]----
 72
    65
 73
     4
 40
1.45
 49
0.25
 74
     0
 49
-0.1
 74
     4
 75
   132
340
24
 46
0.1
 50
0.0
 44
-0.1
 45
0.0
 49
-0.1
 74
     0
 49
1.0
 74
     0
  0
LTYPE
  5
51
100
AcDbSymbolTableRecord
100
AcDbLinetypeTableRecord
  2
TRACKS
 70
     0
  3
Tracks -|-|-|-|-|-|-|-|-|-|-|-|-|-|-|-|-|-|-|-|
 72
    65
 73
     2
 40
0.3
 49
0.15
 74
     4
 75
   130
340
24
 46
0.25
 50
0.0
 44
0.0
 45
0.0
 49
0.15
 74
     0
  0
LTYPE
  5
52
100
AcDbSymbolTableRecord
100
AcDbLinetypeTableRecord
  2
BATTING
 70
     0
  3
Batting SSSSSSSSSSSSSSSSSSSSSSSSSSSSSSSSSSSSSSS
 72
    65
 73
     4
 40
0.4001000000000002
 49
0.0001
 74
     0
 49
-0.1
 74
     4
 75
   134
340
24
 46
0.1
 50
0.0
 44
-0.1
 45
0.0
 49
-0.2
 74
     4
 75
   134
340
24
 46
0.1
 50
180.0
 44
0.1
 45
0.0
 49
-0.1
 74
     0
  0
LTYPE
  5
53
100
AcDbSymbolTableRecord
100
AcDbLinetypeTableRecord
  2
HOT_WATER_SUPPLY
 70
     0
  3
Hot water supply ---- HW ---- HW ---- HW ----
 72
    65
 73
     3
 40
0.9
 49
0.5
 74
     0
 49
-0.2
 74
     2
 75
     1
340
23
 46
0.1
 50
0.0
 44
-0.1
 45
-0.05
  9
HW
 49
-0.2
 74
     0
  0
LTYPE
  5
54
100
AcDbSymbolTableRecord
100
AcDbLinetypeTableRecord
  2
GAS_LINE
 70
     0
  3
Gas line ----GAS----GAS----GAS----GAS----GAS---
 72
    65
 73
     3
 40
0.95
 49
0.5
 74
     0
 49
-0.2
 74
     2
 75
     1
340
23
 46
0.1
 50
0.0
 44
-0.1
 45
-0.05
  9
GAS
 49
-0.25
 74
     0
  0
LTYPE
  5
55
100
AcDbSymbolTableRecord
100
AcDbLinetypeTableRecord
  2
ZIGZAG
 70
     0
  3
Zig zag /\/\/\/\/\/\/\/\/\/\/\/\/\/\/\/\/\/\/\/
 72
    65
 73
     4
 40
0.8001000000000001
 49
0.0001
 74
     0
 49
-0.2
 74
     4
 75
   131
340
24
 46
0.2
 50
0.0
 44
-0.2
 45
0.0
 49
-0.4
 74
     4
 75
   131
340
24
 46
0.2
 50
180.0
 44
0.2
 45
0.0
 49
-0.2
 74
     0
  0
ENDTAB
  0
TABLE
  2
LAYER
  5
c8
100
AcDbSymbolTable
 70
     2
  0
LAYER
  5
c9
100
AcDbSymbolTableRecord
100
AcDbLayerTableRecord
  2
0
 70
     0
 62
     7
  6
CONTINUOUS
390
F
  0
LAYER
  5
ca
100
AcDbSymbolTableRecord
100
AcDbLayerTableRecord
  2
DEFPOINTS
 70
     0
 62
     7
  6
CONTINUOUS
290
0
390
F
  0
ENDTAB
  0
TABLE
  2
STYLE
  5
cb
100
AcDbSymbolTable
 70
     2
  0
STYLE
  5
      23
100
AcDbSymbolTableRecord
100
AcDbTextStyleTableRecord
  2
STANDARD
 70
     0
 40
0.0
 41
1.0
 50
0.0
 71
     0
 42
0.2
  3
txt
  4
BIGFONT
  0
STYLE
  5
24
100
AcDbSymbolTableRecord
100
AcDbTextStyleTableRecord
  2

 70
     1
 40
0.0
 41
1.0
 50
0.0
 71
     0
 42
0.2
  3
ltypeshp.shx
  4

  0
ENDTAB
  0
TABLE
  2
DIMSTYLE
  5
cc
100
AcDbSymbolTable
100
AcDbDimStyleTable
 70
     1
  0
DIMSTYLE
105
cd
100
AcDbSymbolTableRecord
100
AcDbDimStyleTableRecord
  2
DIMSTYLE
 70
     0
  3

  4

  5
_OPEN
  6
_OPEN
  7
_OPEN
 40
1
 41
1
 42
0.009999999776482582
 43
0.38
 44
2.54
 45
0
 46
0
 47
0
 48
0
140
4
141
0.09
142
0
143
25.4
144
1
145
0
146
1
147
2
 71
     0
 72
     0
 73
     0
 74
     0
 75
     0
 76
     0
 78
     0
170
     0
171
     2
 77
     0
172
     0
173
     1
174
     0
175
     0
176
     0
177
     0
178
     0
271
     1
275
     1
340
23
  0
ENDTAB
  0
TABLE
  2
APPID
  5
ce
100
AcDbSymbolTable
 70
     1
  0
APPID
  5
cf
100
AcDbSymbolTableRecord
100
AcDbRegAppTableRecord
  2
ACAD
 70
     0
  0
ENDTAB
  0
TABLE
  2
VIEW
  5
d0
100
AcDbSymbolTable
 70
     0
  0
ENDTAB
  0
TABLE
  2
UCS
  5
d1
100
AcDbSymbolTable
 70
     0
  0
ENDTAB
  0
TABLE
  2
BLOCK_RECORD
  5
d2
100
AcDbSymbolTable
 70
    23
  0
BLOCK_RECORD
  5
d3
100
AcDbSymbolTableRecord
100
AcDbBlockTableRecord
  2
*MODEL_SPACE
  0
BLOCK_RECORD
  5
d4
100
AcDbSymbolTableRecord
100
AcDbBlockTableRecord
  2
*PAPER_SPACE
  0
BLOCK_RECORD
  5
d5
100
AcDbSymbolTableRecord
100
AcDbBlockTableRecord
  2
_OPEN
  0
BLOCK_RECORD
  5
d6
100
AcDbSymbolTableRecord
100
AcDbBlockTableRecord
  2
_OPEN30
  0
BLOCK_RECORD
  5
d7
100
AcDbSymbolTableRecord
100
AcDbBlockTableRecord
  2
KOZU0001
  0
BLOCK_RECORD
  5
d8
100
AcDbSymbolTableRecord
100
AcDbBlockTableRecord
  2
KOZU0002
  0
BLOCK_RECORD
  5
d9
100
AcDbSymbolTableRecord
100
AcDbBlockTableRecord
  2
KOZU0003
  0
BLOCK_RECORD
  5
da
100
AcDbSymbolTableRecord
100
AcDbBlockTableRecord
  2
KOZU0004
  0
BLOCK_RECORD
  5
db
100
AcDbSymbolTableRecord
100
AcDbBlockTableRecord
  2
KOZU0005
  0
BLOCK_RECORD
  5
dc
100
AcDbSymbolTableRecord
100
AcDbBlockTableRecord
  2
KOZU0006
  0
BLOCK_RECORD
  5
dd
100
AcDbSymbolTableRecord
100
AcDbBlockTableRecord
  2
KOZU0007
  0
BLOCK_RECORD
  5
de
100
AcDbSymbolTableRecord
100
AcDbBlockTableRecord
  2
KOZU0008
  0
BLOCK_RECORD
  5
df
100
AcDbSymbolTableRecord
100
AcDbBlockTableRecord
  2
KOZU0009
  0
BLOCK_RECORD
  5
e0
100
AcDbSymbolTableRecord
100
AcDbBlockTableRecord
  2
KOZU0010
  0
BLOCK_RECORD
  5
e1
100
AcDbSymbolTableRecord
100
AcDbBlockTableRecord
  2
KOZU0011
  0
BLOCK_RECORD
  5
e2
100
AcDbSymbolTableRecord
100
AcDbBlockTableRecord
  2
KOZU0012
  0
BLOCK_RECORD
  5
e3
100
AcDbSymbolTableRecord
100
AcDbBlockTableRecord
  2
*D1
  0
BLOCK_RECORD
  5
e4
100
AcDbSymbolTableRecord
100
AcDbBlockTableRecord
  2
*D2
  0
BLOCK_RECORD
  5
e5
100
AcDbSymbolTableRecord
100
AcDbBlockTableRecord
  2
*D3
  0
BLOCK_RECORD
  5
e6
100
AcDbSymbolTableRecord
100
AcDbBlockTableRecord
  2
*D4
  0
BLOCK_RECORD
  5
e7
100
AcDbSymbolTableRecord
100
AcDbBlockTableRecord
  2
*D5
  0
BLOCK_RECORD
  5
e8
100
AcDbSymbolTableRecord
100
AcDbBlockTableRecord
  2
*D6
  0
BLOCK_RECORD
  5
e9
100
AcDbSymbolTableRecord
100
AcDbBlockTableRecord
  2
*D7
  0
ENDTAB
  0
TABLE
  2
VPORT
  5
ea
100
AcDbSymbolTable
 70
     0
  0
ENDTAB
  0
ENDSEC
  0
SECTION
  2
BLOCKS
  0
BLOCK
  8
0
  5
eb
100
AcDbEntity
100
AcDbBlockBegin
  2
*MODEL_SPACE
 70
     0
 10
0
 20
0
  3
*MODEL_SPACE
  0
ENDBLK
  8
0
  5
ec
100
AcDbEntity
100
AcDbBlockEnd
  0
BLOCK
  8
0
  5
ed
 67
     1
100
AcDbEntity
100
AcDbBlockBegin
  2
*PAPER_SPACE
 70
     0
 10
0
 20
0
  3
*PAPER_SPACE
  0
ENDBLK
  8
0
  5
ee
 67
     1
100
AcDbEntity
100
AcDbBlockEnd
  0
BLOCK
  8
0
  5
ef
100
AcDbEntity
100
AcDbBlockBegin
  2
_OPEN
 70
    64
 10
0
 20
0
  3
_OPEN
  0
LINE
  5
f0
100
AcDbEntity
  8
0
  6
BYBLOCK
 62
     0
100
AcDbLine
 10
0
 20
0
 11
-3.12799995302215
 21
-0.5619999915596265
  0
LINE
  5
f1
100
AcDbEntity
  8
0
  6
BYBLOCK
 62
     0
100
AcDbLine
 10
0
 20
0
 11
-3.127999953022157
 21
0.5619999915595884
  0
LINE
  5
f2
100
AcDbEntity
  8
0
  6
BYBLOCK
 62
     0
100
AcDbLine
 10
0
 20
0
 11
-2.99999995494452
 21
0
  0
ENDBLK
  8
0
  5
f3
100
AcDbEntity
100
AcDbBlockEnd
  0
BLOCK
  8
0
  5
f4
100
AcDbEntity
100
AcDbBlockBegin
  2
_OPEN30
 70
    64
 10
0
 20
0
  3
_OPEN30
  0
LINE
  5
f5
100
AcDbEntity
  8
0
  6
BYBLOCK
 62
     0
100
AcDbLine
 10
0
 20
0
 11
-2.999999954944514
 21
-0.9999999849815249
  0
LINE
  5
f6
100
AcDbEntity
  8
0
  6
BYBLOCK
 62
     0
100
AcDbLine
 10
0
 20
0
 11
-2.999999954944526
 21
0.9999999849814883
  0
LINE
  5
f7
100
AcDbEntity
  8
0
  6
BYBLOCK
 62
     0
100
AcDbLine
 10
0
 20
0
 11
-2.99999995494452
 21
0
  0
ENDBLK
  8
0
  5
f8
100
AcDbEntity
100
AcDbBlockEnd
  0
BLOCK
  8
0
  5
f9
100
AcDbEntity
100
AcDbBlockBegin
  2
*D1
 70
    65
 10
0
 20
0
  0
MTEXT
  5
fa
100
AcDbEntity
  8
0
  6
CONTINUOUS
 62
     7
100
AcDbMText
 10
195.7203521728516
 20
58.50932312011719
 40
3.999998092651367
 41
47.99997711181641
 71
     8
 72
     1
  1
{\W0.855331;□５２}
  0
LINE
  5
fb
100
AcDbEntity
  8
0
  6
CONTINUOUS
 62
     7
100
AcDbLine
 10
172.720336869007
 20
58.50932312011719
 11
218.7203522179071
 21
58.50932312011717
  0
INSERT
  5
fc
100
AcDbEntity
  8
0
  6
CONTINUOUS
 62
     7
100
AcDbBlockReference
  2
_OPEN30
 10
169.7203369140625
 20
58.50932312011719
 41
1
 42
1
 43
1
 50
180.0000000000004
  0
INSERT
  5
fd
100
AcDbEntity
  8
0
  6
CONTINUOUS
 62
     7
100
AcDbBlockReference
  2
_OPEN30
 10
221.7203521728516
 20
58.50932312011719
 41
1
 42
1
 43
1
  0
LINE
  5
fe
100
AcDbEntity
  8
0
  6
CONTINUOUS
 62
     7
100
AcDbLine
 10
169.7203369140625
 20
100.9584045410156
 11
169.7203369140625
 21
56.22332312011719
  0
LINE
  5
ff
100
AcDbEntity
  8
0
  6
CONTINUOUS
 62
     7
100
AcDbLine
 10
221.7203521728516
 20
100.9584045410156
 11
221.7203521728516
 21
56.22332312011719
  0
POINT
  5
100
100
AcDbEntity
  8
DEFPOINTS
  6
CONTINUOUS
 62
     7
100
AcDbPoint
 10
169.7203369140625
 20
100.9584045410156
  0
POINT
  5
101
100
AcDbEntity
  8
DEFPOINTS
  6
CONTINUOUS
 62
     7
100
AcDbPoint
 10
221.7203521728516
 20
100.9584045410156
  0
POINT
  5
102
100
AcDbEntity
  8
DEFPOINTS
  6
CONTINUOUS
 62
     7
100
AcDbPoint
 10
221.7203521728516
 20
58.50932312011719
  0
ENDBLK
  8
0
  5
103
100
AcDbEntity
100
AcDbBlockEnd
  0
BLOCK
  8
0
  5
104
100
AcDbEntity
100
AcDbBlockBegin
  2
*D2
 70
    65
 10
0
 20
0
  0
MTEXT
  5
105
100
AcDbEntity
  8
0
  6
CONTINUOUS
 62
     7
100
AcDbMText
 10
39.96294021606445
 20
47.02635192871094
 40
3.999998092651367
 41
31.99998474121094
 71
     8
 72
     1
  1
{\W0.864328;７０}
  0
LINE
  5
106
100
AcDbEntity
  8
0
  6
CONTINUOUS
 62
     7
100
AcDbLine
 10
7.962918713336855
 20
47.02635192871094
 11
71.96292118763361
 21
47.02635192871092
  0
INSERT
  5
107
100
AcDbEntity
  8
0
  6
CONTINUOUS
 62
     7
100
AcDbBlockReference
  2
_OPEN30
 10
4.962918758392334
 20
47.02635192871094
 41
1
 42
1
 43
1
 50
180.0000000000004
  0
INSERT
  5
108
100
AcDbEntity
  8
0
  6
CONTINUOUS
 62
     7
100
AcDbBlockReference
  2
_OPEN30
 10
74.96292114257813
 20
47.02635192871094
 41
1
 42
1
 43
1
  0
LINE
  5
109
100
AcDbEntity
  8
0
  6
CONTINUOUS
 62
     7
100
AcDbLine
 10
4.962921142578125
 20
97.45841217041016
 11
4.962921142578125
 21
43.45510101318359
  0
LINE
  5
10a
100
AcDbEntity
  8
0
  6
CONTINUOUS
 62
     7
100
AcDbLine
 10
74.96295928955078
 20
97.45841217041016
 11
74.96295928955078
 21
43.45510101318359
  0
POINT
  5
10b
100
AcDbEntity
  8
DEFPOINTS
  6
CONTINUOUS
 62
     7
100
AcDbPoint
 10
4.962921142578125
 20
97.45841217041016
  0
POINT
  5
10c
100
AcDbEntity
  8
DEFPOINTS
  6
CONTINUOUS
 62
     7
100
AcDbPoint
 10
74.96295928955078
 20
97.45841217041016
  0
POINT
  5
10d
100
AcDbEntity
  8
DEFPOINTS
  6
CONTINUOUS
 62
     7
100
AcDbPoint
 10
74.96292114257813
 20
47.02635192871094
  0
ENDBLK
  8
0
  5
10e
100
AcDbEntity
100
AcDbBlockEnd
  0
BLOCK
  8
0
  5
10f
100
AcDbEntity
100
AcDbBlockBegin
  2
*D3
 70
    65
 10
0
 20
0
  0
LINE
  5
110
100
AcDbEntity
  8
0
  6
CONTINUOUS
 62
     7
100
AcDbLine
 10
27.96294017100897
 20
58.50932312011719
 11
51.96294026111993
 21
58.50932312011717
  0
INSERT
  5
111
100
AcDbEntity
  8
0
  6
CONTINUOUS
 62
     7
100
AcDbBlockReference
  2
_OPEN
 10
24.96294021606445
 20
58.50932312011719
 41
1
 42
1
 43
1
 50
180.0000000000004
  0
INSERT
  5
112
100
AcDbEntity
  8
0
  6
CONTINUOUS
 62
     7
100
AcDbBlockReference
  2
_OPEN
 10
54.96294021606445
 20
58.50932312011719
 41
1
 42
1
 43
1
  0
LINE
  5
113
100
AcDbEntity
  8
0
  6
CONTINUOUS
 62
     7
100
AcDbLine
 10
24.96294021606445
 20
76.45838928222656
 11
24.96294021606445
 21
56.22332312011719
  0
LINE
  5
114
100
AcDbEntity
  8
0
  6
CONTINUOUS
 62
     7
100
AcDbLine
 10
54.96294021606445
 20
76.45838928222656
 11
54.96294021606445
 21
56.22332312011719
  0
MTEXT
  5
115
100
AcDbEntity
  8
0
  6
CONTINUOUS
 62
     7
100
AcDbMText
 10
39.96294021606445
 20
58.50932312011719
 40
4
 41
88
 71
     8
 72
     1
  1
{\W0.855331;\U+2205３０}
  0
POINT
  5
116
100
AcDbEntity
  8
DEFPOINTS
  6
CONTINUOUS
 62
     7
100
AcDbPoint
 10
24.96294021606445
 20
76.45838928222656
  0
POINT
  5
117
100
AcDbEntity
  8
DEFPOINTS
  6
CONTINUOUS
 62
     7
100
AcDbPoint
 10
54.96294021606445
 20
76.45838928222656
  0
POINT
  5
118
100
AcDbEntity
  8
DEFPOINTS
  6
CONTINUOUS
 62
     7
100
AcDbPoint
 10
54.96294021606445
 20
58.50932312011719
  0
ENDBLK
  8
0
  5
119
100
AcDbEntity
100
AcDbBlockEnd
  0
BLOCK
  8
0
  5
11a
100
AcDbEntity
100
AcDbBlockBegin
  2
*D4
 70
    65
 10
0
 20
0
  0
LINE
  5
11b
100
AcDbEntity
  8
0
  6
CONTINUOUS
 62
     7
100
AcDbLine
 10
92.51469074334102
 20
77.95838923717108
 11
92.51469074334106
 21
107.9584045860711
  0
INSERT
  5
11c
100
AcDbEntity
  8
0
  6
CONTINUOUS
 62
     7
100
AcDbBlockReference
  2
_OPEN
 10
92.51469074334104
 20
74.95838928222656
 41
1
 42
1
 43
1
 50
270.0000000000005
  0
INSERT
  5
11d
100
AcDbEntity
  8
0
  6
CONTINUOUS
 62
     7
100
AcDbBlockReference
  2
_OPEN
 10
92.51469074334104
 20
110.9584045410156
 41
1
 42
1
 43
1
 50
90.00000000000019
  0
LINE
  5
11e
100
AcDbEntity
  8
0
  6
CONTINUOUS
 62
     7
100
AcDbLine
 10
53.46291351318359
 20
74.95838928222656
 11
94.80069074334104
 21
74.95838928222656
  0
LINE
  5
11f
100
AcDbEntity
  8
0
  6
CONTINUOUS
 62
     7
100
AcDbLine
 10
79.32796478271484
 20
110.9584045410156
 11
94.80069074334104
 21
110.9584045410156
  0
MTEXT
  5
120
100
AcDbEntity
  8
0
  6
CONTINUOUS
 62
     7
100
AcDbMText
 10
92.51469074334104
 20
92.95839691162109
 40
4
 41
32
 71
     8
 72
     1
  1
{\W0.864328;３６}
 11
0
 21
1
  0
POINT
  5
121
100
AcDbEntity
  8
DEFPOINTS
  6
CONTINUOUS
 62
     7
100
AcDbPoint
 10
53.46291351318359
 20
74.95838928222656
  0
POINT
  5
122
100
AcDbEntity
  8
DEFPOINTS
  6
CONTINUOUS
 62
     7
100
AcDbPoint
 10
79.32796478271484
 20
110.9584045410156
  0
POINT
  5
123
100
AcDbEntity
  8
DEFPOINTS
  6
CONTINUOUS
 62
     7
100
AcDbPoint
 10
92.51469074334104
 20
110.9584045410156
  0
ENDBLK
  8
0
  5
124
100
AcDbEntity
100
AcDbBlockEnd
  0
BLOCK
  8
0
  5
125
100
AcDbEntity
100
AcDbBlockBegin
  2
*D5
 70
    65
 10
0
 20
0
  0
LINE
  5
126
100
AcDbEntity
  8
0
  6
CONTINUOUS
 62
     7
100
AcDbLine
 10
92.51469074334106
 20
167.9584045860711
 11
92.51469074334102
 21
113.9584044959601
  0
INSERT
  5
127
100
AcDbEntity
  8
0
  6
CONTINUOUS
 62
     7
100
AcDbBlockReference
  2
_OPEN
 10
92.51469074334104
 20
170.9584045410156
 41
1
 42
1
 43
1
 50
90.00000000000019
  0
INSERT
  5
128
100
AcDbEntity
  8
0
  6
CONTINUOUS
 62
     7
100
AcDbBlockReference
  2
_OPEN
 10
92.51469074334104
 20
110.9584045410156
 41
1
 42
1
 43
1
 50
270.0000000000005
  0
LINE
  5
129
100
AcDbEntity
  8
0
  6
CONTINUOUS
 62
     7
100
AcDbLine
 10
65.96292114257813
 20
170.9584045410156
 11
94.80069074334104
 21
170.9584045410156
  0
MTEXT
  5
12a
100
AcDbEntity
  8
0
  6
CONTINUOUS
 62
     7
100
AcDbMText
 10
92.51469074334104
 20
140.9584045410156
 40
4
 41
32
 71
     8
 72
     1
  1
{\W0.864328;６０}
 11
0
 21
1
  0
POINT
  5
12b
100
AcDbEntity
  8
DEFPOINTS
  6
CONTINUOUS
 62
     7
100
AcDbPoint
 10
65.96292114257813
 20
170.9584045410156
  0
POINT
  5
12c
100
AcDbEntity
  8
DEFPOINTS
  6
CONTINUOUS
 62
     7
100
AcDbPoint
 10
79.32796478271484
 20
110.9584045410156
  0
POINT
  5
12d
100
AcDbEntity
  8
DEFPOINTS
  6
CONTINUOUS
 62
     7
100
AcDbPoint
 10
92.51469074334104
 20
110.9584045410156
  0
ENDBLK
  8
0
  5
12e
100
AcDbEntity
100
AcDbBlockEnd
  0
BLOCK
  8
0
  5
12f
100
AcDbEntity
100
AcDbBlockBegin
  2
*D6
 70
    65
 10
0
 20
0
  0
LINE
  5
130
100
AcDbEntity
  8
0
  6
CONTINUOUS
 62
     7
100
AcDbLine
 10
104.1083410882129
 20
167.9584045860711
 11
104.1083410882129
 21
77.95838923717108
  0
INSERT
  5
131
100
AcDbEntity
  8
0
  6
CONTINUOUS
 62
     7
100
AcDbBlockReference
  2
_OPEN
 10
104.1083410882129
 20
170.9584045410156
 41
1
 42
1
 43
1
 50
90.00000000000019
  0
INSERT
  5
132
100
AcDbEntity
  8
0
  6
CONTINUOUS
 62
     7
100
AcDbBlockReference
  2
_OPEN
 10
104.1083410882129
 20
74.95838928222656
 41
1
 42
1
 43
1
 50
270.0000000000005
  0
LINE
  5
133
100
AcDbEntity
  8
0
  6
CONTINUOUS
 62
     7
100
AcDbLine
 10
65.96292114257813
 20
170.9584045410156
 11
106.3943410882129
 21
170.9584045410156
  0
LINE
  5
134
100
AcDbEntity
  8
0
  6
CONTINUOUS
 62
     7
100
AcDbLine
 10
53.46291351318359
 20
74.95838928222656
 11
106.3943410882129
 21
74.95838928222656
  0
MTEXT
  5
135
100
AcDbEntity
  8
0
  6
CONTINUOUS
 62
     7
100
AcDbMText
 10
104.1083410882129
 20
122.9583969116211
 40
4
 41
32
 71
     8
 72
     1
  1
{\W0.864328;９６}
 11
0
 21
1
  0
POINT
  5
136
100
AcDbEntity
  8
DEFPOINTS
  6
CONTINUOUS
 62
     7
100
AcDbPoint
 10
65.96292114257813
 20
170.9584045410156
  0
POINT
  5
137
100
AcDbEntity
  8
DEFPOINTS
  6
CONTINUOUS
 62
     7
100
AcDbPoint
 10
53.46291351318359
 20
74.95838928222656
  0
POINT
  5
138
100
AcDbEntity
  8
DEFPOINTS
  6
CONTINUOUS
 62
     7
100
AcDbPoint
 10
104.1083410882129
 20
74.95838928222656
  0
ENDBLK
  8
0
  5
139
100
AcDbEntity
100
AcDbBlockEnd
  0
BLOCK
  8
0
  5
13a
100
AcDbEntity
100
AcDbBlockBegin
  2
*D7
 70
    65
 10
0
 20
0
  0
LINE
  5
13b
100
AcDbEntity
  8
0
  6
CONTINUOUS
 62
     7
100
AcDbLine
 10
210.7203216552734
 20
105.1405871989934
 11
233.048336115061
 21
105.1405871989934
  0
LINE
  5
13c
100
AcDbEntity
  8
0
  6
CONTINUOUS
 62
     7
100
AcDbLine
 10
183.720321610218
 20
105.1405871989934
 11
207.7203217003289
 21
105.1405871989934
  0
INSERT
  5
13d
100
AcDbEntity
  8
0
  6
CONTINUOUS
 62
     7
100
AcDbBlockReference
  2
_OPEN
 10
180.7203216552734
 20
105.1405871989934
 41
1
 42
1
 43
1
 50
180.0000000000004
  0
INSERT
  5
13e
100
AcDbEntity
  8
0
  6
CONTINUOUS
 62
     7
100
AcDbBlockReference
  2
_OPEN
 10
210.7203216552734
 20
105.1405871989934
 41
1
 42
1
 43
1
  0
LINE
  5
13f
100
AcDbEntity
  8
0
  6
CONTINUOUS
 62
     7
100
AcDbLine
 10
180.7203216552734
 20
103.0879821777344
 11
180.7203216552734
 21
107.4265871989935
  0
LINE
  5
140
100
AcDbEntity
  8
0
  6
CONTINUOUS
 62
     7
100
AcDbLine
 10
210.7203216552734
 20
103.0879821777344
 11
210.7203216552734
 21
107.4265871989935
  0
MTEXT
  5
141
100
AcDbEntity
  8
0
  6
CONTINUOUS
 62
     7
100
AcDbMText
 10
229.6198359991896
 20
105.1405871989934
 40
4
 41
32
 71
     8
 72
     1
  1
{\W0.864328;３０}
  0
POINT
  5
142
100
AcDbEntity
  8
DEFPOINTS
  6
CONTINUOUS
 62
     7
100
AcDbPoint
 10
180.7203216552734
 20
103.0879821777344
  0
POINT
  5
143
100
AcDbEntity
  8
DEFPOINTS
  6
CONTINUOUS
 62
     7
100
AcDbPoint
 10
210.7203216552734
 20
103.0879821777344
  0
POINT
  5
144
100
AcDbEntity
  8
DEFPOINTS
  6
CONTINUOUS
 62
     7
100
AcDbPoint
 10
210.7203216552734
 20
105.1405871989934
  0
ENDBLK
  8
0
  5
145
100
AcDbEntity
100
AcDbBlockEnd
  0
BLOCK
  8
0
  5
146
100
AcDbEntity
100
AcDbBlockBegin
  2
KOZU0001
 70
    64
 10
0
 20
0
  0
POINT
  5
147
100
AcDbEntity
  8
0
  6
CONTINUOUS
 62
     7
100
AcDbPoint
 10
0
 20
0
  0
LINE
  5
148
100
AcDbEntity
  8
0
  6
DASHED
 62
     7
100
AcDbLine
 10
-5.64202202847379
 20
52.50000000000001
 11
-5.903927382087447
 21
59.99997238156373
  0
LINE
  5
149
100
AcDbEntity
  8
0
  6
DASHED
 62
     7
100
AcDbLine
 10
5.642075699340218
 20
52.5
 11
5.903981819145535
 21
60.00002634543607
  0
LINE
  5
14a
100
AcDbEntity
  8
0
  6
DASHED
 62
     3
100
AcDbLine
 10
-6.498561877990495
 20
52.50000000000001
 11
-6.759425048291062
 21
59.97012821856038
  0
LINE
  5
14b
100
AcDbEntity
  8
0
  6
DASHED
 62
     3
100
AcDbLine
 10
6.498577374177726
 20
52.49999999999999
 11
6.75943870344442
 21
59.97010739367208
  0
LINE
  5
14c
100
AcDbEntity
  8
0
  6
CONTINUOUS
 62
     7
100
AcDbLine
 10
-26.00000381469727
 20
19.00001525878906
 11
-26.00000381469727
 21
-10.2705078125
  0
LINE
  5
14d
100
AcDbEntity
  8
0
  6
CENTER
 62
     3
100
AcDbLine
 10
-37.82610321044922
 20
0
 11
39.36502456665039
 21
0
  0
LINE
  5
14e
100
AcDbEntity
  8
0
  6
CONTINUOUS
 62
     7
100
AcDbLine
 10
-35.00001907348633
 20
19.00001525878906
 11
35.00001907348633
 21
19.00001525878906
  0
LINE
  5
14f
100
AcDbEntity
  8
0
  6
CONTINUOUS
 62
     7
100
AcDbLine
 10
35.00001907348633
 20
19
 11
35.00001907348633
 21
-15
  0
LINE
  5
150
100
AcDbEntity
  8
0
  6
CONTINUOUS
 62
     7
100
AcDbLine
 10
-35.00001907348633
 20
19
 11
-35.00001907348633
 21
-15
  0
LINE
  5
151
100
AcDbEntity
  8
0
  6
CONTINUOUS
 62
     7
100
AcDbLine
 10
-16.00000381469727
 20
-15
 11
-16.00000381469727
 21
-19
  0
LINE
  5
152
100
AcDbEntity
  8
0
  6
CONTINUOUS
 62
     7
100
AcDbLine
 10
-16.00001335144043
 20
-19
 11
15.99996566772461
 21
-19
  0
LINE
  5
153
100
AcDbEntity
  8
0
  6
CONTINUOUS
 62
     7
100
AcDbLine
 10
-22.00000762939453
 20
42.00001525878906
 11
-22.00000762939453
 21
19
  0
LINE
  5
154
100
AcDbEntity
  8
0
  6
CONTINUOUS
 62
     7
100
AcDbLine
 10
-14.00001525878906
 20
58.50003051757813
 11
-14.00001525878906
 21
51.00003051757813
  0
LINE
  5
155
100
AcDbEntity
  8
0
  6
CONTINUOUS
 62
     7
100
AcDbLine
 10
-15.99998474121094
 20
42.00001525878906
 11
-15.99998474121094
 21
19
  0
LINE
  5
156
100
AcDbEntity
  8
0
  6
DASHED
 62
     7
100
AcDbLine
 10
-27.00000381469726
 20
-9.314271604339734
 11
-35.00001094362877
 21
-9.593637996155305
  0
LINE
  5
157
100
AcDbEntity
  8
0
  6
DASHED
 62
     7
100
AcDbLine
 10
-27.00000381469726
 20
9.314294976529094
 11
-35.00003152205786
 21
9.593662086959212
  0
LINE
  5
158
100
AcDbEntity
  8
0
  6
DASHED
 62
     3
100
AcDbLine
 10
-27.00000381469726
 20
-10.47695192360792
 11
-35.00002140641032
 21
-10.75631868079186
  0
LINE
  5
159
100
AcDbEntity
  8
0
  6
DASHED
 62
     3
100
AcDbLine
 10
-27.00000381469726
 20
10.47699819793221
 11
-35.00005750777721
 21
10.7563662158036
  0
LINE
  5
15a
100
AcDbEntity
  8
0
  6
DASHED
 62
     7
100
AcDbLine
 10
26.99998092651367
 20
-9.314268368690181
 11
34.99998127657084
 21
-9.593634523782257
  0
LINE
  5
15b
100
AcDbEntity
  8
0
  6
DASHED
 62
     7
100
AcDbLine
 10
26.99998092651367
 20
9.314299374924515
 11
34.9999542319114
 21
9.593664585596317
  0
LINE
  5
15c
100
AcDbEntity
  8
0
  6
CENTER
 62
     3
100
AcDbLine
 10
-19.00001525878906
 20
60
 11
-19.00001525878906
 21
19.00001525878906
  0
LINE
  5
15d
100
AcDbEntity
  8
0
  6
CONTINUOUS
 62
     7
100
AcDbLine
 10
14.00001525878906
 20
58.50003051757813
 11
14.00001525878906
 21
51.00003051757813
  0
LINE
  5
15e
100
AcDbEntity
  8
0
  6
DASHED
 62
     3
100
AcDbLine
 10
26.99998092651367
 20
-10.47697159009331
 11
34.99995376992516
 21
-10.7563367846322
  0
LINE
  5
15f
100
AcDbEntity
  8
0
  6
DASHED
 62
     3
100
AcDbLine
 10
26.99998092651367
 20
10.47698732823766
 11
34.9999806310181
 21
10.75635346078654
  0
LINE
  5
160
100
AcDbEntity
  8
0
  6
CONTINUOUS
 62
     7
100
AcDbLine
 10
10.99998474121094
 20
60
 11
10.99998474121094
 21
51.00003051757813
  0
LINE
  5
161
100
AcDbEntity
  8
0
  6
CONTINUOUS
 62
     7
100
AcDbLine
 10
-10.99998474121094
 20
60
 11
-10.99998474121094
 21
51.00003051757813
  0
LINE
  5
162
100
AcDbEntity
  8
0
  6
CONTINUOUS
 62
     7
100
AcDbLine
 10
-26.00000381469727
 20
51.00003051757813
 11
-10.99998474121094
 21
51.00003051757813
  0
LINE
  5
163
100
AcDbEntity
  8
0
  6
CONTINUOUS
 62
     7
100
AcDbLine
 10
10.99998474121094
 20
51.00003051757813
 11
25.99998092651367
 21
51.00003051757813
  0
LINE
  5
164
100
AcDbEntity
  8
0
  6
CONTINUOUS
 62
     7
100
AcDbLine
 10
24.00005340576172
 20
52.5
 11
14.00001525878906
 21
52.5
  0
LINE
  5
165
100
AcDbEntity
  8
0
  6
CONTINUOUS
 62
     7
100
AcDbLine
 10
24.00005340576172
 20
58.50003051757813
 11
14.00001525878906
 21
58.50003051757813
  0
LINE
  5
166
100
AcDbEntity
  8
0
  6
CONTINUOUS
 62
     7
100
AcDbLine
 10
15.99998474121094
 20
42.00001525878906
 11
15.99998474121094
 21
19
  0
LINE
  5
167
100
AcDbEntity
  8
0
  6
CONTINUOUS
 62
     7
100
AcDbLine
 10
24.00005340576172
 20
58.50003051757813
 11
24.00005340576172
 21
51.00003051757813
  0
LINE
  5
168
100
AcDbEntity
  8
0
  6
CONTINUOUS
 62
     7
100
AcDbLine
 10
-24.00001525878906
 20
58.50003051757813
 11
-24.00001525878906
 21
51.00003051757813
  0
LINE
  5
169
100
AcDbEntity
  8
0
  6
CENTER
 62
     3
100
AcDbLine
 10
19.00001525878906
 20
60
 11
19.00001525878906
 21
19.00001525878906
  0
LINE
  5
16a
100
AcDbEntity
  8
0
  6
CONTINUOUS
 62
     7
100
AcDbLine
 10
-26.00000381469727
 20
60
 11
25.99998092651367
 21
60
  0
LINE
  5
16b
100
AcDbEntity
  8
0
  6
CONTINUOUS
 62
     7
100
AcDbLine
 10
25.99998092651367
 20
19.00001525878906
 11
25.99998092651367
 21
-10.2705078125
  0
LINE
  5
16c
100
AcDbEntity
  8
0
  6
CONTINUOUS
 62
     7
100
AcDbLine
 10
15.99996566772461
 20
-15
 11
15.99996566772461
 21
-19
  0
LINE
  5
16d
100
AcDbEntity
  8
0
  6
CONTINUOUS
 62
     7
100
AcDbLine
 10
-24.00001525878906
 20
58.50003051757813
 11
-14.00001525878906
 21
58.50003051757813
  0
LINE
  5
16e
100
AcDbEntity
  8
0
  6
CENTER
 62
     3
100
AcDbLine
 10
0
 20
65.72636413574219
 11
0
 21
-40.8197021484375
  0
LINE
  5
16f
100
AcDbEntity
  8
0
  6
CONTINUOUS
 62
     7
100
AcDbLine
 10
-35
 20
14.43740844726563
 11
-26.00000381469727
 21
14.43740844726563
  0
LINE
  5
170
100
AcDbEntity
  8
0
  6
CONTINUOUS
 62
     7
100
AcDbLine
 10
-24.00001525878906
 20
52.5
 11
-14.00001525878906
 21
52.5
  0
LINE
  5
171
100
AcDbEntity
  8
0
  6
CONTINUOUS
 62
     7
100
AcDbLine
 10
-35.00001907348633
 20
-15
 11
35.00001907348633
 21
-15
  0
LINE
  5
172
100
AcDbEntity
  8
0
  6
CONTINUOUS
 62
     7
100
AcDbLine
 10
15
 20
-19.00001525878906
 11
15
 21
-36.00001525878906
  0
LINE
  5
173
100
AcDbEntity
  8
0
  6
CONTINUOUS
 62
     7
100
AcDbLine
 10
-15
 20
-19.00001525878906
 11
-15
 21
-36.00001525878906
  0
LINE
  5
174
100
AcDbEntity
  8
0
  6
CONTINUOUS
 62
     7
100
AcDbLine
 10
-15
 20
-36.00001525878906
 11
15
 21
-36.00001525878906
  0
LINE
  5
175
100
AcDbEntity
  8
0
  6
CONTINUOUS
 62
     7
100
AcDbLine
 10
22.50001907348633
 20
42.00001525878906
 11
22.50001907348633
 21
19
  0
LINE
  5
176
100
AcDbEntity
  8
0
  6
CONTINUOUS
 62
     7
100
AcDbLine
 10
-22.5
 20
42.00001525878906
 11
-22.5
 21
19
  0
LINE
  5
177
100
AcDbEntity
  8
0
  6
CONTINUOUS
 62
     7
100
AcDbLine
 10
25.99998092651367
 20
60
 11
25.99998092651367
 21
42.00001525878906
  0
LINE
  5
178
100
AcDbEntity
  8
0
  6
CONTINUOUS
 62
     7
100
AcDbLine
 10
-26.00000381469727
 20
60
 11
-26.00000381469727
 21
42.00001525878906
  0
LINE
  5
179
100
AcDbEntity
  8
0
  6
CONTINUOUS
 62
     7
100
AcDbLine
 10
-26.00001525878906
 20
42.00001525878906
 11
25.99998092651367
 21
42.00001525878906
  0
LINE
  5
17a
100
AcDbEntity
  8
0
  6
CONTINUOUS
 62
     7
100
AcDbLine
 10
22.00004577636719
 20
42.00001525878906
 11
22.00004577636719
 21
19
  0
LINE
  5
17b
100
AcDbEntity
  8
0
  6
CONTINUOUS
 62
     7
100
AcDbLine
 10
25.99998092651367
 20
14.43740844726563
 11
35.00001907348633
 21
14.43740844726563
  0
LINE
  5
17c
100
AcDbEntity
  8
0
  6
CENTER
 62
     3
100
AcDbLine
 10
-2.950000047683716
 20
15.00002288818359
 11
2.950000047683716
 21
15.00002288818359
  0
LINE
  5
17d
100
AcDbEntity
  8
0
  6
CONTINUOUS
 62
     7
100
AcDbLine
 10
1.5
 20
3
 11
1.5
 21
1.5
  0
LINE
  5
17e
100
AcDbEntity
  8
0
  6
CONTINUOUS
 62
     7
100
AcDbLine
 10
-5.999996185302734
 20
0
 11
7.5
 21
0
  0
LINE
  5
17f
100
AcDbEntity
  8
0
  6
CONTINUOUS
 62
     7
100
AcDbLine
 10
-7.499996185302734
 20
1.5
 11
1.5
 21
1.5
  0
LINE
  5
180
100
AcDbEntity
  8
0
  6
CONTINUOUS
 62
     7
100
AcDbLine
 10
1.499997507237095
 20
2.999998193949849
 11
7.499995249601671
 21
-6.772324394610507e-007
  0
LINE
  5
181
100
AcDbEntity
  8
0
  6
CONTINUOUS
 62
     7
100
AcDbLine
 10
-7.500005174474098
 20
1.499988061387088
 11
-6.000008951215023
 21
-8.161871987155678e-006
  0
ARC
  5
182
100
AcDbEntity
  8
0
  6
CONTINUOUS
 62
     7
100
AcDbCircle
 10
-21.00000381469727
 20
-10
 40
5
100
AcDbArc
 50
179.9999776881997
 51
270.0000280040027
  0
ARC
  5
183
100
AcDbEntity
  8
0
  6
CONTINUOUS
 62
     7
100
AcDbCircle
 10
20.99998474121094
 20
-10
 40
5
100
AcDbArc
 50
270.00001798609
 51
360
  0
CIRCLE
  5
184
100
AcDbEntity
  8
0
  6
CONTINUOUS
 62
     7
100
AcDbCircle
 10
0
 20
15.00002288818359
 40
2.950000047683716
  0
MTEXT
  5
185
100
AcDbEntity
  8
0
  6
CONTINUOUS
 62
     7
100
AcDbMText
 10
-14.45089942199342
 20
44.91924075855928
 40
0.5
 41
22
 71
     7
 72
     1
  1
{\W0.844085;ＢＮ－５Ｂ２１－１５Ａ}
  0
INSERT
  5
186
100
AcDbEntity
  8
0
  6
CONTINUOUS
 62
     7
100
AcDbBlockReference
  2
KOZU0007
 10
0
 20
0
  0
ENDBLK
  8
0
  5
187
100
AcDbEntity
100
AcDbBlockEnd
  0
BLOCK
  8
0
  5
188
100
AcDbEntity
100
AcDbBlockBegin
  2
KOZU0002
 70
    64
 10
0
 20
0
  0
POINT
  5
189
100
AcDbEntity
  8
0
  6
CONTINUOUS
 62
     7
100
AcDbPoint
 10
0
 20
0
  0
LINE
  5
18a
100
AcDbEntity
  8
0
  6
CONTINUOUS
 62
     7
100
AcDbLine
 10
-26.00000381469727
 20
-6.000030517578125
 11
-28.99999618530273
 21
-6.000030517578125
  0
LINE
  5
18b
100
AcDbEntity
  8
0
  6
CENTER
 62
     3
100
AcDbLine
 10
38.29538345336914
 20
0
 11
-38.79029846191406
 21
0
  0
LINE
  5
18c
100
AcDbEntity
  8
0
  6
CENTER
 62
     3
100
AcDbLine
 10
0
 20
28.99755859375
 11
0
 21
-29.05058288574219
  0
LINE
  5
18d
100
AcDbEntity
  8
0
  6
CONTINUOUS
 62
     7
100
AcDbLine
 10
25.99995803833008
 20
-19.00003051757813
 11
25.99995803833008
 21
18.99996948242188
  0
LINE
  5
18e
100
AcDbEntity
  8
0
  6
CENTER
 62
     3
100
AcDbLine
 10
2
 20
-21
 11
-2
 21
-21
  0
LINE
  5
18f
100
AcDbEntity
  8
0
  6
CONTINUOUS
 62
     7
100
AcDbLine
 10
-26.00000381469727
 20
5.999969482421875
 11
-28.99999618530273
 21
5.999969482421875
  0
LINE
  5
190
100
AcDbEntity
  8
0
  6
CENTER
 62
     3
100
AcDbLine
 10
-19
 20
-14
 11
-19
 21
-24
  0
LINE
  5
191
100
AcDbEntity
  8
0
  6
CENTER
 62
     3
100
AcDbLine
 10
-14
 20
-19
 11
-24
 21
-19
  0
LINE
  5
192
100
AcDbEntity
  8
0
  6
CONTINUOUS
 62
     7
100
AcDbLine
 10
-19.00001897586448
 20
-16.04998616397276
 11
-21.55478866765233
 21
-17.5249891526343
  0
LINE
  5
193
100
AcDbEntity
  8
0
  6
CONTINUOUS
 62
     7
100
AcDbLine
 10
-21.55477523803711
 20
-17.52499389648438
 11
-21.55477523803711
 21
-20.47500610351563
  0
LINE
  5
194
100
AcDbEntity
  8
0
  6
CONTINUOUS
 62
     7
100
AcDbLine
 10
-21.55478645562702
 20
-20.47503448537859
 11
-19.00000398578522
 21
-21.95004585937625
  0
LINE
  5
195
100
AcDbEntity
  8
0
  6
CONTINUOUS
 62
     7
100
AcDbLine
 10
-19.00002822445478
 20
-21.95000701835708
 11
-16.44524531818146
 21
-20.47499640027766
  0
LINE
  5
196
100
AcDbEntity
  8
0
  6
CONTINUOUS
 62
     7
100
AcDbLine
 10
-16.4454231262207
 20
-20.47500610351563
 11
-16.4454231262207
 21
-17.52499389648438
  0
LINE
  5
197
100
AcDbEntity
  8
0
  6
CONTINUOUS
 62
     7
100
AcDbLine
 10
-16.44518857766423
 20
-17.52497506618539
 11
-18.99997148393755
 21
-16.04996444810598
  0
LINE
  5
198
100
AcDbEntity
  8
0
  6
CENTER
 62
     3
100
AcDbLine
 10
-19
 20
24
 11
-19
 21
14
  0
LINE
  5
199
100
AcDbEntity
  8
0
  6
CENTER
 62
     3
100
AcDbLine
 10
-14
 20
19
 11
-24
 21
19
  0
LINE
  5
19a
100
AcDbEntity
  8
0
  6
CONTINUOUS
 62
     7
100
AcDbLine
 10
-19.00000405092019
 20
21.95000487693741
 11
-21.55477377488769
 21
20.47500194401244
  0
LINE
  5
19b
100
AcDbEntity
  8
0
  6
CONTINUOUS
 62
     7
100
AcDbLine
 10
-21.55477523803711
 20
20.47500610351563
 11
-21.55477523803711
 21
17.52499389648438
  0
LINE
  5
19c
100
AcDbEntity
  8
0
  6
CONTINUOUS
 62
     7
100
AcDbLine
 10
-21.5547814036968
 20
17.52499107126201
 11
-18.99999893385501
 21
16.04997969726435
  0
LINE
  5
19d
100
AcDbEntity
  8
0
  6
CONTINUOUS
 62
     7
100
AcDbLine
 10
-19.00000579881177
 20
16.04997080806762
 11
-16.44522286035863
 21
17.52498137041019
  0
LINE
  5
19e
100
AcDbEntity
  8
0
  6
CONTINUOUS
 62
     7
100
AcDbLine
 10
-16.44522584726401
 20
17.52497869102344
 11
-16.44522393991532
 21
20.47499089805407
  0
LINE
  5
19f
100
AcDbEntity
  8
0
  6
CONTINUOUS
 62
     7
100
AcDbLine
 10
-16.44522635868196
 20
20.47497730168811
 11
-19.0000092971351
 21
21.94998786403067
  0
LINE
  5
1a0
100
AcDbEntity
  8
0
  6
CENTER
 62
     3
100
AcDbLine
 10
19
 20
24
 11
19
 21
14
  0
LINE
  5
1a1
100
AcDbEntity
  8
0
  6
CENTER
 62
     3
100
AcDbLine
 10
24
 20
19
 11
14
 21
19
  0
LINE
  5
1a2
100
AcDbEntity
  8
0
  6
CONTINUOUS
 62
     7
100
AcDbLine
 10
18.99999397287603
 20
21.95000472769312
 11
16.44522428108819
 21
20.47500173903159
  0
LINE
  5
1a3
100
AcDbEntity
  8
0
  6
CONTINUOUS
 62
     7
100
AcDbLine
 10
16.44522476196289
 20
20.47500610351563
 11
16.44522476196289
 21
17.52499389648438
  0
LINE
  5
1a4
100
AcDbEntity
  8
0
  6
CONTINUOUS
 62
     7
100
AcDbLine
 10
16.4452233090387
 20
17.52498043427033
 11
19.00000577888049
 21
16.04996906027268
  0
LINE
  5
1a5
100
AcDbEntity
  8
0
  6
CONTINUOUS
 62
     7
100
AcDbLine
 10
18.99999235370363
 20
16.04997065882329
 11
21.55477525997695
 21
17.52498127690271
  0
LINE
  5
1a6
100
AcDbEntity
  8
0
  6
CONTINUOUS
 62
     7
100
AcDbLine
 10
21.5545768737793
 20
17.52499389648438
 11
21.5545768737793
 21
20.47500610351563
  0
LINE
  5
1a7
100
AcDbEntity
  8
0
  6
CONTINUOUS
 62
     7
100
AcDbLine
 10
21.55477840357283
 20
20.47498120990433
 11
18.99999549729951
 21
21.94999182798375
  0
LINE
  5
1a8
100
AcDbEntity
  8
0
  6
CENTER
 62
     3
100
AcDbLine
 10
19
 20
-14
 11
19
 21
-24
  0
LINE
  5
1a9
100
AcDbEntity
  8
0
  6
CENTER
 62
     3
100
AcDbLine
 10
24
 20
-19
 11
14
 21
-19
  0
LINE
  5
1aa
100
AcDbEntity
  8
0
  6
CONTINUOUS
 62
     7
100
AcDbLine
 10
18.99998573687252
 20
-16.0499867705584
 11
16.44521604508468
 21
-17.52498975921994
  0
LINE
  5
1ab
100
AcDbEntity
  8
0
  6
CONTINUOUS
 62
     7
100
AcDbLine
 10
16.44522476196289
 20
-17.52499389648438
 11
16.44522476196289
 21
-20.47500610351563
  0
LINE
  5
1ac
100
AcDbEntity
  8
0
  6
CONTINUOUS
 62
     7
100
AcDbLine
 10
16.44521927928873
 20
-20.47502809317603
 11
19.00000174913052
 21
-21.95003946717369
  0
LINE
  5
1ad
100
AcDbEntity
  8
0
  6
CONTINUOUS
 62
     7
100
AcDbLine
 10
18.99998411770008
 20
-21.95002083942821
 11
21.5547670239734
 21
-20.47501022134879
  0
LINE
  5
1ae
100
AcDbEntity
  8
0
  6
CONTINUOUS
 62
     7
100
AcDbLine
 10
21.5545768737793
 20
-20.47500610351563
 11
21.5545768737793
 21
-17.52499389648438
  0
LINE
  5
1af
100
AcDbEntity
  8
0
  6
CONTINUOUS
 62
     7
100
AcDbLine
 10
21.55479426899429
 20
-17.52499707386175
 11
19.00001136272097
 21
-16.04998645578233
  0
LINE
  5
1b0
100
AcDbEntity
  8
0
  6
CONTINUOUS
 62
     7
100
AcDbLine
 10
19.0000114440918
 20
-11.00003051757813
 11
25.99995803833008
 21
-11.00003051757813
  0
LINE
  5
1b1
100
AcDbEntity
  8
0
  6
CONTINUOUS
 62
     7
100
AcDbLine
 10
25.99995803833008
 20
10.99996948242188
 11
18.99999618530273
 21
10.99996948242188
  0
LINE
  5
1b2
100
AcDbEntity
  8
0
  6
CONTINUOUS
 62
     7
100
AcDbLine
 10
10.99999618530273
 20
19
 11
10.99999618530273
 21
25.99996948242188
  0
LINE
  5
1b3
100
AcDbEntity
  8
0
  6
CONTINUOUS
 62
     7
100
AcDbLine
 10
-19
 20
11
 11
-26.00000381469727
 21
11
  0
LINE
  5
1b4
100
AcDbEntity
  8
0
  6
CONTINUOUS
 62
     7
100
AcDbLine
 10
-11.00000381469727
 20
-19
 11
-11.00000381469727
 21
-26.00003051757813
  0
LINE
  5
1b5
100
AcDbEntity
  8
0
  6
CONTINUOUS
 62
     7
100
AcDbLine
 10
11.00002670288086
 20
-26.00003051757813
 11
11.00002670288086
 21
-18.99996948242188
  0
LINE
  5
1b6
100
AcDbEntity
  8
0
  6
CONTINUOUS
 62
     7
100
AcDbLine
 10
-11
 20
25.99996948242188
 11
-11
 21
19
  0
LINE
  5
1b7
100
AcDbEntity
  8
0
  6
CONTINUOUS
 62
     7
100
AcDbLine
 10
-26.00000381469727
 20
-11.00003051757813
 11
-18.9999885559082
 21
-11.00003051757813
  0
LINE
  5
1b8
100
AcDbEntity
  8
0
  6
CONTINUOUS
 62
     7
100
AcDbLine
 10
-26.00000381469727
 20
-19.00003051757813
 11
-26.00000381469727
 21
18.99996948242188
  0
LINE
  5
1b9
100
AcDbEntity
  8
0
  6
CONTINUOUS
 62
     7
100
AcDbLine
 10
18.99995803833008
 20
-26.00003051757813
 11
-19.00001525878906
 21
-26.00003051757813
  0
LINE
  5
1ba
100
AcDbEntity
  8
0
  6
CONTINUOUS
 62
     7
100
AcDbLine
 10
18.99995803833008
 20
25.99996948242188
 11
-19.00001525878906
 21
25.99996948242188
  0
LINE
  5
1bb
100
AcDbEntity
  8
0
  6
CONTINUOUS
 62
     7
100
AcDbLine
 10
28.99999618530273
 20
5.999969482421875
 11
25.99995803833008
 21
5.999969482421875
  0
LINE
  5
1bc
100
AcDbEntity
  8
0
  6
CONTINUOUS
 62
     7
100
AcDbLine
 10
28.99999618530273
 20
-6.000030517578125
 11
25.99995803833008
 21
-6.000030517578125
  0
LINE
  5
1bd
100
AcDbEntity
  8
0
  6
CONTINUOUS
 62
     7
100
AcDbLine
 10
-35.00001907348633
 20
15
 11
-35.00001907348633
 21
-15
  0
LINE
  5
1be
100
AcDbEntity
  8
0
  6
CONTINUOUS
 62
     7
100
AcDbLine
 10
34.99999618530273
 20
-15
 11
25.99995803833008
 21
-15
  0
LINE
  5
1bf
100
AcDbEntity
  8
0
  6
CONTINUOUS
 62
     7
100
AcDbLine
 10
34.99999618530273
 20
15
 11
25.99995803833008
 21
15
  0
LINE
  5
1c0
100
AcDbEntity
  8
0
  6
CONTINUOUS
 62
     7
100
AcDbLine
 10
-26.00000381469727
 20
-15
 11
-35.00001907348633
 21
-15
  0
LINE
  5
1c1
100
AcDbEntity
  8
0
  6
CONTINUOUS
 62
     7
100
AcDbLine
 10
-26.00000381469727
 20
15
 11
-35.00001907348633
 21
15
  0
LINE
  5
1c2
100
AcDbEntity
  8
0
  6
CONTINUOUS
 62
     7
100
AcDbLine
 10
34.99999618530273
 20
15
 11
34.99999618530273
 21
-15
  0
LINE
  5
1c3
100
AcDbEntity
  8
0
  6
CENTER
 62
     3
100
AcDbLine
 10
2
 20
21
 11
-2
 21
21
  0
LINE
  5
1c4
100
AcDbEntity
  8
0
  6
DASHED
 62
     7
100
AcDbLine
 10
-35.00001907348633
 20
-10.5
 11
-27.00000381469726
 21
-10.29051222788105
  0
LINE
  5
1c5
100
AcDbEntity
  8
0
  6
DASHED
 62
     7
100
AcDbLine
 10
-35.00001907348633
 20
10.5
 11
-27.00000381469726
 21
10.29051222788105
  0
LINE
  5
1c6
100
AcDbEntity
  8
0
  6
DASHED
 62
     7
100
AcDbLine
 10
-35.00001907348633
 20
9.499657207509131
 11
-27.00000381469726
 21
9.290169435390183
  0
LINE
  5
1c7
100
AcDbEntity
  8
0
  6
DASHED
 62
     7
100
AcDbLine
 10
-35.00001907348633
 20
-9.499657207509131
 11
-27.00000381469726
 21
-9.290169435390183
  0
LINE
  5
1c8
100
AcDbEntity
  8
0
  6
DASHED
 62
     7
100
AcDbLine
 10
35.00001907348633
 20
-10.5
 11
27.00000381469726
 21
-10.29051222788105
  0
LINE
  5
1c9
100
AcDbEntity
  8
0
  6
DASHED
 62
     7
100
AcDbLine
 10
35.00001907348633
 20
10.5
 11
27.00000381469726
 21
10.29051222788105
  0
LINE
  5
1ca
100
AcDbEntity
  8
0
  6
DASHED
 62
     7
100
AcDbLine
 10
35.00001907348633
 20
9.499657207509129
 11
27.00000381469726
 21
9.29016943539018
  0
LINE
  5
1cb
100
AcDbEntity
  8
0
  6
DASHED
 62
     7
100
AcDbLine
 10
35.00001907348633
 20
-9.499657207509129
 11
27.00000381469726
 21
-9.29016943539018
  0
ARC
  5
1cc
100
AcDbEntity
  8
0
  6
CONTINUOUS
 62
     7
100
AcDbCircle
 10
18.99999618530273
 20
19
 40
8
100
AcDbArc
 50
180.0000223118011
 51
270.0000043257117
  0
CIRCLE
  5
1cd
100
AcDbEntity
  8
0
  6
CONTINUOUS
 62
     7
100
AcDbCircle
 10
-19
 20
-19
 40
5
  0
CIRCLE
  5
1ce
100
AcDbEntity
  8
0
  6
CONTINUOUS
 62
     3
100
AcDbCircle
 10
0
 20
0
 40
6.900000095367432
  0
CIRCLE
  5
1cf
100
AcDbEntity
  8
0
  6
CONTINUOUS
 62
     7
100
AcDbCircle
 10
0
 20
0
 40
6.099999904632568
  0
CIRCLE
  5
1d0
100
AcDbEntity
  8
0
  6
CONTINUOUS
 62
     7
100
AcDbCircle
 10
-19
 20
19
 40
5
  0
CIRCLE
  5
1d1
100
AcDbEntity
  8
0
  6
CONTINUOUS
 62
     7
100
AcDbCircle
 10
19
 20
19
 40
5
  0
CIRCLE
  5
1d2
100
AcDbEntity
  8
0
  6
CONTINUOUS
 62
     7
100
AcDbCircle
 10
19
 20
-19
 40
5
  0
ARC
  5
1d3
100
AcDbEntity
  8
0
  6
CONTINUOUS
 62
     7
100
AcDbCircle
 10
18.99999618530273
 20
-19
 40
8
100
AcDbArc
 50
90.00000933466734
 51
179.999991348578
  0
ARC
  5
1d4
100
AcDbEntity
  8
0
  6
CONTINUOUS
 62
     7
100
AcDbCircle
 10
-19
 20
19
 40
8
100
AcDbArc
 50
270.00001798609
 51
360
  0
ARC
  5
1d5
100
AcDbEntity
  8
0
  6
CONTINUOUS
 62
     7
100
AcDbCircle
 10
-19.00000190734863
 20
-19
 40
8
100
AcDbArc
 50
1.366037834002563e-005
 51
89.999995674289
  0
ARC
  5
1d6
100
AcDbEntity
  8
0
  6
CONTINUOUS
 62
     7
100
AcDbCircle
 10
27.99999618530273
 20
0
 40
5
100
AcDbArc
 50
113.5780818967398
 51
246.4218598192819
  0
ARC
  5
1d7
100
AcDbEntity
  8
0
  6
CONTINUOUS
 62
     7
100
AcDbCircle
 10
-28
 20
0
 40
5
100
AcDbArc
 50
293.5781178689192
 51
66.42188213108152
  0
ARC
  5
1d8
100
AcDbEntity
  8
0
  6
CONTINUOUS
 62
     7
100
AcDbCircle
 10
-19.00001525878906
 20
-19.00003051757813
 40
7
100
AcDbArc
 50
179.9999776881997
 51
270.0000280040027
  0
ARC
  5
1d9
100
AcDbEntity
  8
0
  6
CONTINUOUS
 62
     7
100
AcDbCircle
 10
-19.00001525878906
 20
18.99996948242188
 40
7
100
AcDbArc
 50
89.99998201391064
 51
179.9999640278213
  0
ARC
  5
1da
100
AcDbEntity
  8
0
  6
CONTINUOUS
 62
     7
100
AcDbCircle
 10
18.99995803833008
 20
-19.00003051757813
 40
7
100
AcDbArc
 50
270.00001798609
 51
360
  0
ARC
  5
1db
100
AcDbEntity
  8
0
  6
CONTINUOUS
 62
     7
100
AcDbCircle
 10
18.99995803833008
 20
18.99996948242188
 40
7
100
AcDbArc
 50
0
 51
89.99998201391064
  0
ARC
  5
1dc
100
AcDbEntity
  8
0
  6
CONTINUOUS
 62
     7
100
AcDbCircle
 10
-29.00001525878906
 20
0
 40
6.000003814697266
100
AcDbArc
 50
89.99998201391065
 51
270.000000683246
  0
ARC
  5
1dd
100
AcDbEntity
  8
0
  6
CONTINUOUS
 62
     7
100
AcDbCircle
 10
28.99999618530273
 20
0
 40
6.000003814697266
100
AcDbArc
 50
270.00001798609
 51
89.99998201391065
  0
CIRCLE
  5
1de
100
AcDbEntity
  8
0
  6
CONTINUOUS
 62
     3
100
AcDbCircle
 10
0
 20
21
 40
2
  0
CIRCLE
  5
1df
100
AcDbEntity
  8
0
  6
CONTINUOUS
 62
     3
100
AcDbCircle
 10
0
 20
-21
 40
2
  0
CIRCLE
  5
1e0
100
AcDbEntity
  8
0
  6
CONTINUOUS
 62
     7
100
AcDbCircle
 10
0
 20
-21
 40
1.600000023841858
  0
CIRCLE
  5
1e1
100
AcDbEntity
  8
0
  6
CONTINUOUS
 62
     7
100
AcDbCircle
 10
0
 20
21
 40
1.600000023841858
  0
MTEXT
  5
1e2
100
AcDbEntity
  8
0
  6
CONTINUOUS
 62
     7
100
AcDbMText
 10
-14.97220134675503
 20
-9.905674438476561
 40
0.5
 41
22
 71
     7
 72
     1
  1
{\W0.844085;ＢＮ－５Ｂ２１－１５Ａ}
  0
ENDBLK
  8
0
  5
1e3
100
AcDbEntity
100
AcDbBlockEnd
  0
BLOCK
  8
0
  5
1e4
100
AcDbEntity
100
AcDbBlockBegin
  2
KOZU0003
 70
    64
 10
0
 20
0
  0
POINT
  5
1e5
100
AcDbEntity
  8
0
  6
CONTINUOUS
 62
     7
100
AcDbPoint
 10
0
 20
0
  0
POINT
  5
1e6
100
AcDbEntity
  8
0
  6
CONTINUOUS
 62
     7
100
AcDbPoint
 10
-6.5
 20
60
  0
POINT
  5
1e7
100
AcDbEntity
  8
0
  6
CONTINUOUS
 62
     7
100
AcDbPoint
 10
6.5
 20
60
  0
LINE
  5
1e8
100
AcDbEntity
  8
0
  6
CENTER
 62
     3
100
AcDbLine
 10
13.31311272504415
 20
0
 11
-13.19125024087909
 21
0
  0
LINE
  5
1e9
100
AcDbEntity
  8
0
  6
CONTINUOUS
 62
     7
100
AcDbLine
 10
25.99998474121094
 20
19
 11
25.99998474121094
 21
-10
  0
LINE
  5
1ea
100
AcDbEntity
  8
0
  6
CONTINUOUS
 62
     7
100
AcDbLine
 10
-6
 20
19.00001525878906
 11
-6
 21
14.18524932861328
  0
LINE
  5
1eb
100
AcDbEntity
  8
0
  6
CONTINUOUS
 62
     7
100
AcDbLine
 10
15
 20
9.270509831248422
 11
15
 21
-9.270509831248422
  0
LINE
  5
1ec
100
AcDbEntity
  8
0
  6
CONTINUOUS
 62
     7
100
AcDbLine
 10
20.99998474121094
 20
-15
 11
-21.00002288818359
 21
-15
  0
LINE
  5
1ed
100
AcDbEntity
  8
0
  6
CONTINUOUS
 62
     7
100
AcDbLine
 10
25.99998474121094
 20
19.00001525878906
 11
-26.00002288818359
 21
19.00001525878906
  0
LINE
  5
1ee
100
AcDbEntity
  8
0
  6
CONTINUOUS
 62
     7
100
AcDbLine
 10
15.99998474121094
 20
-15
 11
15.99998474121094
 21
-19.00000762939453
  0
LINE
  5
1ef
100
AcDbEntity
  8
0
  6
CONTINUOUS
 62
     7
100
AcDbLine
 10
-26.00002288818359
 20
19
 11
-26.00002288818359
 21
-10
  0
LINE
  5
1f0
100
AcDbEntity
  8
0
  6
CONTINUOUS
 62
     7
100
AcDbLine
 10
-15
 20
9.270509831248422
 11
-15
 21
-9.270509831248422
  0
LINE
  5
1f1
100
AcDbEntity
  8
0
  6
CONTINUOUS
 62
     7
100
AcDbLine
 10
-16
 20
-15
 11
-16
 21
-19.00000762939453
  0
LINE
  5
1f2
100
AcDbEntity
  8
0
  6
CONTINUOUS
 62
     7
100
AcDbLine
 10
15.99998474121094
 20
-19.00000762939453
 11
-16
 21
-19.00000762939453
  0
LINE
  5
1f3
100
AcDbEntity
  8
0
  6
CONTINUOUS
 62
     7
100
AcDbLine
 10
-15
 20
-19.00001525878906
 11
-15
 21
-36.00002288818359
  0
LINE
  5
1f4
100
AcDbEntity
  8
0
  6
CONTINUOUS
 62
     7
100
AcDbLine
 10
15
 20
-19.00001525878906
 11
15
 21
-36.00002288818359
  0
LINE
  5
1f5
100
AcDbEntity
  8
0
  6
CONTINUOUS
 62
     7
100
AcDbLine
 10
15
 20
-36.00002288818359
 11
-15
 21
-36.00002288818359
  0
LINE
  5
1f6
100
AcDbEntity
  8
0
  6
CONTINUOUS
 62
     7
100
AcDbLine
 10
25.99998474121094
 20
51.00003051757813
 11
10.99998474121094
 21
51.00003051757813
  0
LINE
  5
1f7
100
AcDbEntity
  8
0
  6
CENTER
 62
     3
100
AcDbLine
 10
0
 20
66.57949829101563
 11
0
 21
-39.59992218017578
  0
LINE
  5
1f8
100
AcDbEntity
  8
0
  6
CONTINUOUS
 62
     7
100
AcDbLine
 10
25.99992370605469
 20
60
 11
-25.99992370605469
 21
60
  0
LINE
  5
1f9
100
AcDbEntity
  8
0
  6
CONTINUOUS
 62
     7
100
AcDbLine
 10
-25.99998474121094
 20
60
 11
-25.99998474121094
 21
42
  0
LINE
  5
1fa
100
AcDbEntity
  8
0
  6
CONTINUOUS
 62
     7
100
AcDbLine
 10
25.99998474121094
 20
60
 11
25.99998474121094
 21
42
  0
LINE
  5
1fb
100
AcDbEntity
  8
0
  6
CONTINUOUS
 62
     7
100
AcDbLine
 10
25.99998474121094
 20
42
 11
-25.99998474121094
 21
42
  0
LINE
  5
1fc
100
AcDbEntity
  8
0
  6
CENTER
 62
     3
100
AcDbLine
 10
-18.70161437988281
 20
12
 11
-27.12327575683594
 21
12
  0
LINE
  5
1fd
100
AcDbEntity
  8
0
  6
DASHED
 62
     3
100
AcDbLine
 10
-20.00003814697266
 20
9.5
 11
-26.00002288818359
 21
9.5
  0
LINE
  5
1fe
100
AcDbEntity
  8
0
  6
DASHED
 62
     3
100
AcDbLine
 10
-20.00003814697266
 20
14.5
 11
-26.00002288818359
 21
14.5
  0
LINE
  5
1ff
100
AcDbEntity
  8
0
  6
DASHED
 62
     7
100
AcDbLine
 10
-20.00003814697266
 20
9.933006286621094
 11
-26.00002288818359
 21
9.933006286621094
  0
LINE
  5
200
100
AcDbEntity
  8
0
  6
DASHED
 62
     7
100
AcDbLine
 10
-20.00003814697266
 20
14.06700134277344
 11
-26.00002288818359
 21
14.06700134277344
  0
LINE
  5
201
100
AcDbEntity
  8
0
  6
CENTER
 62
     3
100
AcDbLine
 10
19.00001525878906
 20
59.38555927566366
 11
19.00001525878906
 21
19.00001525878906
  0
LINE
  5
202
100
AcDbEntity
  8
0
  6
CONTINUOUS
 62
     7
100
AcDbLine
 10
22.00000762939453
 20
42
 11
22.00000762939453
 21
19
  0
LINE
  5
203
100
AcDbEntity
  8
0
  6
CONTINUOUS
 62
     7
100
AcDbLine
 10
15.99998474121094
 20
42
 11
15.99998474121094
 21
19
  0
LINE
  5
204
100
AcDbEntity
  8
0
  6
CONTINUOUS
 62
     7
100
AcDbLine
 10
24.00001525878906
 20
52.5
 11
14.00001525878906
 21
52.5
  0
LINE
  5
205
100
AcDbEntity
  8
0
  6
CONTINUOUS
 62
     7
100
AcDbLine
 10
24.00001525878906
 20
58.50003051757813
 11
24.00001525878906
 21
51.00003051757813
  0
LINE
  5
206
100
AcDbEntity
  8
0
  6
CONTINUOUS
 62
     7
100
AcDbLine
 10
24.00001525878906
 20
58.50003051757813
 11
14.00001525878906
 21
58.50003051757813
  0
LINE
  5
207
100
AcDbEntity
  8
0
  6
CONTINUOUS
 62
     7
100
AcDbLine
 10
14.00001525878906
 20
58.50003051757813
 11
14.00001525878906
 21
51.00003051757813
  0
LINE
  5
208
100
AcDbEntity
  8
0
  6
CONTINUOUS
 62
     7
100
AcDbLine
 10
10.99998474121094
 20
60
 11
10.99998474121094
 21
51.00003051757813
  0
LINE
  5
209
100
AcDbEntity
  8
0
  6
CONTINUOUS
 62
     7
100
AcDbLine
 10
-10.99998474121094
 20
60
 11
-10.99998474121094
 21
51.00003051757813
  0
LINE
  5
20a
100
AcDbEntity
  8
0
  6
CONTINUOUS
 62
     7
100
AcDbLine
 10
-14.00001525878906
 20
58.50003051757813
 11
-14.00001525878906
 21
51.00003051757813
  0
LINE
  5
20b
100
AcDbEntity
  8
0
  6
CONTINUOUS
 62
     7
100
AcDbLine
 10
-24.00005340576172
 20
58.50003051757813
 11
-14.00001525878906
 21
58.50003051757813
  0
LINE
  5
20c
100
AcDbEntity
  8
0
  6
CONTINUOUS
 62
     7
100
AcDbLine
 10
-24.00005340576172
 20
52.5
 11
-14.00001525878906
 21
52.5
  0
LINE
  5
20d
100
AcDbEntity
  8
0
  6
CONTINUOUS
 62
     7
100
AcDbLine
 10
-24.00005340576172
 20
58.50003051757813
 11
-24.00005340576172
 21
51.00003051757813
  0
LINE
  5
20e
100
AcDbEntity
  8
0
  6
CENTER
 62
     3
100
AcDbLine
 10
-19.00001525878906
 20
59.38555927566367
 11
-19.00001525878906
 21
19.00001525878906
  0
LINE
  5
20f
100
AcDbEntity
  8
0
  6
CONTINUOUS
 62
     7
100
AcDbLine
 10
-25.99998474121094
 20
51.00003051757813
 11
-10.99998474121094
 21
51.00003051757813
  0
LINE
  5
210
100
AcDbEntity
  8
0
  6
CONTINUOUS
 62
     7
100
AcDbLine
 10
-22.00004577636719
 20
42
 11
-22.00004577636719
 21
19
  0
LINE
  5
211
100
AcDbEntity
  8
0
  6
CONTINUOUS
 62
     7
100
AcDbLine
 10
-16
 20
42
 11
-16
 21
19
  0
LINE
  5
212
100
AcDbEntity
  8
0
  6
CONTINUOUS
 62
     7
100
AcDbLine
 10
6
 20
19.00001525878906
 11
6
 21
14.18524932861328
  0
LINE
  5
213
100
AcDbEntity
  8
0
  6
CONTINUOUS
 62
     7
100
AcDbLine
 10
22.5
 20
42
 11
22.5
 21
19.00001525878906
  0
LINE
  5
214
100
AcDbEntity
  8
0
  6
CONTINUOUS
 62
     7
100
AcDbLine
 10
-22.5
 20
42
 11
-22.5
 21
19.00001525878906
  0
LINE
  5
215
100
AcDbEntity
  8
0
  6
CONTINUOUS
 62
     7
100
AcDbLine
 10
-4
 20
60
 11
-4
 21
42
  0
LINE
  5
216
100
AcDbEntity
  8
0
  6
CONTINUOUS
 62
     7
100
AcDbLine
 10
4
 20
60
 11
4
 21
42
  0
LINE
  5
217
100
AcDbEntity
  8
0
  6
CENTER
 62
     3
100
AcDbLine
 10
26.68174743652344
 20
15.00001525878906
 11
15.47846984863281
 21
15.00001525878906
  0
LINE
  5
218
100
AcDbEntity
  8
0
  6
DASHED
 62
     7
100
AcDbLine
 10
22.99998474121094
 20
17.95001220703125
 11
22.99998474121094
 21
12.05001831054688
  0
LINE
  5
219
100
AcDbEntity
  8
0
  6
DASHED
 62
     7
100
AcDbLine
 10
25.99998474121094
 20
12.05001831054688
 11
22.99998474121094
 21
12.05001831054688
  0
LINE
  5
21a
100
AcDbEntity
  8
0
  6
DASHED
 62
     7
100
AcDbLine
 10
25.99998474121094
 20
17.95001220703125
 11
22.99998474121094
 21
17.95001220703125
  0
LINE
  5
21b
100
AcDbEntity
  8
0
  6
DASHED
 62
     7
100
AcDbLine
 10
22.16282653808594
 20
13.50001525878906
 11
15.99998474121094
 21
13.50001525878906
  0
LINE
  5
21c
100
AcDbEntity
  8
0
  6
DASHED
 62
     7
100
AcDbLine
 10
22.16282653808594
 20
16.50001525878906
 11
15.99998474121094
 21
16.50001525878906
  0
LINE
  5
21d
100
AcDbEntity
  8
0
  6
DASHED
 62
     7
100
AcDbLine
 10
22.99998246995254
 20
12.05002625753421
 11
22.16283188495304
 21
13.50001357831464
  0
LINE
  5
21e
100
AcDbEntity
  8
0
  6
DASHED
 62
     7
100
AcDbLine
 10
22.99998305457032
 20
17.94999520581517
 11
22.16283246957082
 21
16.50000788503474
  0
LINE
  5
21f
100
AcDbEntity
  8
0
  6
DASHED
 62
     7
100
AcDbLine
 10
22.16282653808594
 20
16.50001525878906
 11
22.16282653808594
 21
13.50001525878906
  0
LINE
  5
220
100
AcDbEntity
  8
0
  6
DASHED
 62
     7
100
AcDbLine
 10
-6.303605588231099
 20
52.5
 11
-6.499999999999999
 21
60
  0
LINE
  5
221
100
AcDbEntity
  8
0
  6
DASHED
 62
     7
100
AcDbLine
 10
6.499999999999999
 20
60
 11
6.303605588231099
 21
52.5
  0
LINE
  5
222
100
AcDbEntity
  8
0
  6
DASHED
 62
     7
100
AcDbLine
 10
-5.503331354238404
 20
52.5
 11
-5.699725766007306
 21
60
  0
LINE
  5
223
100
AcDbEntity
  8
0
  6
DASHED
 62
     7
100
AcDbLine
 10
5.699725766007306
 20
60
 11
5.503331354238404
 21
52.5
  0
ARC
  5
224
100
AcDbEntity
  8
0
  6
CONTINUOUS
 62
     7
100
AcDbCircle
 10
0
 20
-7.5
 40
22.5
100
AcDbArc
 50
48.1896851042214
 51
131.8103148957786
  0
ARC
  5
225
100
AcDbEntity
  8
0
  6
CONTINUOUS
 62
     7
100
AcDbCircle
 10
0
 20
7.5
 40
22.5
100
AcDbArc
 50
228.1896851042221
 51
311.8103148957793
  0
ARC
  5
226
100
AcDbEntity
  8
0
  6
CONTINUOUS
 62
     7
100
AcDbCircle
 10
20.99998474121094
 20
-10
 40
5
100
AcDbArc
 50
269.9999633445767
 51
359.9999453584874
  0
ARC
  5
227
100
AcDbEntity
  8
0
  6
CONTINUOUS
 62
     7
100
AcDbCircle
 10
-21.00002288818359
 20
-10
 40
5
100
AcDbArc
 50
180.0000086514227
 51
269.9999974955226
  0
CIRCLE
  5
228
100
AcDbEntity
  8
0
  6
CONTINUOUS
 62
     7
100
AcDbCircle
 10
0
 20
0
 40
9.75
  0
CIRCLE
  5
229
100
AcDbEntity
  8
0
  6
CONTINUOUS
 62
     3
100
AcDbCircle
 10
0
 20
0
 40
10.85000038146973
  0
MTEXT
  5
22a
100
AcDbEntity
  8
0
  6
CONTINUOUS
 62
     7
100
AcDbMText
 10
-15.64413849939318
 20
46.96736867568072
 40
0.5
 41
22
 71
     7
 72
     1
  1
{\W0.844085;ＢＮ－５Ｂ２１－１５Ａ}
  0
INSERT
  5
22b
100
AcDbEntity
  8
0
  6
CONTINUOUS
 62
     7
100
AcDbBlockReference
  2
KOZU0008
 10
0
 20
0
  0
INSERT
  5
22c
100
AcDbEntity
  8
0
  6
CONTINUOUS
 62
     3
100
AcDbBlockReference
  2
KOZU0009
 10
0
 20
0
  0
ENDBLK
  8
0
  5
22d
100
AcDbEntity
100
AcDbBlockEnd
  0
BLOCK
  8
0
  5
22e
100
AcDbEntity
100
AcDbBlockBegin
  2
KOZU0004
 70
    64
 10
0
 20
0
  0
POINT
  5
22f
100
AcDbEntity
  8
0
  6
CONTINUOUS
 62
     7
100
AcDbPoint
 10
0
 20
0
  0
POINT
  5
230
100
AcDbEntity
  8
0
  6
CONTINUOUS
 62
     7
100
AcDbPoint
 10
-6.5
 20
60
  0
POINT
  5
231
100
AcDbEntity
  8
0
  6
CONTINUOUS
 62
     7
100
AcDbPoint
 10
6.5
 20
60
  0
LINE
  5
232
100
AcDbEntity
  8
0
  6
CONTINUOUS
 62
     7
100
AcDbLine
 10
-25.99998474121094
 20
51.00003051757813
 11
-10.99998474121094
 21
51.00003051757813
  0
LINE
  5
233
100
AcDbEntity
  8
0
  6
CONTINUOUS
 62
     7
100
AcDbLine
 10
15
 20
-19.00001525878906
 11
15
 21
-36.00002288818359
  0
LINE
  5
234
100
AcDbEntity
  8
0
  6
CONTINUOUS
 62
     7
100
AcDbLine
 10
-15
 20
-19.00001525878906
 11
-15
 21
-36.00002288818359
  0
LINE
  5
235
100
AcDbEntity
  8
0
  6
CONTINUOUS
 62
     7
100
AcDbLine
 10
-15
 20
-36.00002288818359
 11
15
 21
-36.00002288818359
  0
LINE
  5
236
100
AcDbEntity
  8
0
  6
CONTINUOUS
 62
     7
100
AcDbLine
 10
16
 20
-15
 11
16
 21
-19.00000762939453
  0
LINE
  5
237
100
AcDbEntity
  8
0
  6
CONTINUOUS
 62
     7
100
AcDbLine
 10
-15.99998474121094
 20
-19.00000762939453
 11
16
 21
-19.00000762939453
  0
LINE
  5
238
100
AcDbEntity
  8
0
  6
CONTINUOUS
 62
     7
100
AcDbLine
 10
15
 20
9.270509831248422
 11
15
 21
-9.270509831248422
  0
LINE
  5
239
100
AcDbEntity
  8
0
  6
CONTINUOUS
 62
     7
100
AcDbLine
 10
-15.99998474121094
 20
-15
 11
-15.99998474121094
 21
-19.00000762939453
  0
LINE
  5
23a
100
AcDbEntity
  8
0
  6
CONTINUOUS
 62
     7
100
AcDbLine
 10
-15.99998474121094
 20
42
 11
-15.99998474121094
 21
19
  0
LINE
  5
23b
100
AcDbEntity
  8
0
  6
CONTINUOUS
 62
     7
100
AcDbLine
 10
-25.99998474121094
 20
19.00001525878906
 11
26.00001525878906
 21
19.00001525878906
  0
LINE
  5
23c
100
AcDbEntity
  8
0
  6
CONTINUOUS
 62
     7
100
AcDbLine
 10
-22.00001525878906
 20
42
 11
-22.00001525878906
 21
19
  0
LINE
  5
23d
100
AcDbEntity
  8
0
  6
CENTER
 62
     3
100
AcDbLine
 10
-13.21530686071364
 20
0
 11
13.07192418093062
 21
0
  0
LINE
  5
23e
100
AcDbEntity
  8
0
  6
CONTINUOUS
 62
     7
100
AcDbLine
 10
-25.99998474121094
 20
19
 11
-25.99998474121094
 21
-10
  0
LINE
  5
23f
100
AcDbEntity
  8
0
  6
CONTINUOUS
 62
     7
100
AcDbLine
 10
-15
 20
9.270509831248422
 11
-15
 21
-9.270509831248422
  0
LINE
  5
240
100
AcDbEntity
  8
0
  6
CONTINUOUS
 62
     7
100
AcDbLine
 10
-20.99998474121094
 20
-15
 11
21.00001525878906
 21
-15
  0
LINE
  5
241
100
AcDbEntity
  8
0
  6
CONTINUOUS
 62
     7
100
AcDbLine
 10
26.00001525878906
 20
19
 11
26.00001525878906
 21
-10
  0
LINE
  5
242
100
AcDbEntity
  8
0
  6
CENTER
 62
     3
100
AcDbLine
 10
0
 20
65.86280822753906
 11
0
 21
-39.59992218017578
  0
LINE
  5
243
100
AcDbEntity
  8
0
  6
CENTER
 62
     3
100
AcDbLine
 10
-19.00001525878906
 20
59.28502832830888
 11
-19.00001525878906
 21
19.00001525878906
  0
LINE
  5
244
100
AcDbEntity
  8
0
  6
CONTINUOUS
 62
     7
100
AcDbLine
 10
-25.99992370605469
 20
60
 11
25.99992370605469
 21
60
  0
LINE
  5
245
100
AcDbEntity
  8
0
  6
CONTINUOUS
 62
     7
100
AcDbLine
 10
25.99998474121094
 20
60
 11
25.99998474121094
 21
42
  0
LINE
  5
246
100
AcDbEntity
  8
0
  6
CONTINUOUS
 62
     7
100
AcDbLine
 10
-25.99998474121094
 20
60
 11
-25.99998474121094
 21
42
  0
LINE
  5
247
100
AcDbEntity
  8
0
  6
CONTINUOUS
 62
     7
100
AcDbLine
 10
-25.99998474121094
 20
42
 11
25.99998474121094
 21
42
  0
LINE
  5
248
100
AcDbEntity
  8
0
  6
CONTINUOUS
 62
     7
100
AcDbLine
 10
-6.000015258789063
 20
19.00001525878906
 11
-6.000015258789063
 21
14.18524932861328
  0
LINE
  5
249
100
AcDbEntity
  8
0
  6
CENTER
 62
     3
100
AcDbLine
 10
18.70161437988281
 20
12
 11
27.12327575683594
 21
12
  0
LINE
  5
24a
100
AcDbEntity
  8
0
  6
DASHED
 62
     3
100
AcDbLine
 10
20.00004577636719
 20
9.5
 11
26.00001525878906
 21
9.5
  0
LINE
  5
24b
100
AcDbEntity
  8
0
  6
DASHED
 62
     3
100
AcDbLine
 10
20.00004577636719
 20
14.5
 11
26.00001525878906
 21
14.5
  0
LINE
  5
24c
100
AcDbEntity
  8
0
  6
DASHED
 62
     7
100
AcDbLine
 10
20.00004577636719
 20
9.933006286621094
 11
26.00001525878906
 21
9.933006286621094
  0
LINE
  5
24d
100
AcDbEntity
  8
0
  6
DASHED
 62
     7
100
AcDbLine
 10
20.00004577636719
 20
14.06700134277344
 11
26.00001525878906
 21
14.06700134277344
  0
LINE
  5
24e
100
AcDbEntity
  8
0
  6
CONTINUOUS
 62
     7
100
AcDbLine
 10
-24.00001525878906
 20
52.5
 11
-14.00001525878906
 21
52.5
  0
LINE
  5
24f
100
AcDbEntity
  8
0
  6
CONTINUOUS
 62
     7
100
AcDbLine
 10
-24.00001525878906
 20
58.50003051757813
 11
-24.00001525878906
 21
51.00003051757813
  0
LINE
  5
250
100
AcDbEntity
  8
0
  6
CONTINUOUS
 62
     7
100
AcDbLine
 10
-24.00001525878906
 20
58.50003051757813
 11
-14.00001525878906
 21
58.50003051757813
  0
LINE
  5
251
100
AcDbEntity
  8
0
  6
CONTINUOUS
 62
     7
100
AcDbLine
 10
-14.00001525878906
 20
58.50003051757813
 11
-14.00001525878906
 21
51.00003051757813
  0
LINE
  5
252
100
AcDbEntity
  8
0
  6
CONTINUOUS
 62
     7
100
AcDbLine
 10
-10.99998474121094
 20
60
 11
-10.99998474121094
 21
51.00003051757813
  0
LINE
  5
253
100
AcDbEntity
  8
0
  6
CONTINUOUS
 62
     7
100
AcDbLine
 10
10.99998474121094
 20
60
 11
10.99998474121094
 21
51.00003051757813
  0
LINE
  5
254
100
AcDbEntity
  8
0
  6
CONTINUOUS
 62
     7
100
AcDbLine
 10
14.00001525878906
 20
58.50003051757813
 11
14.00001525878906
 21
51.00003051757813
  0
LINE
  5
255
100
AcDbEntity
  8
0
  6
CONTINUOUS
 62
     7
100
AcDbLine
 10
24.00004577636719
 20
58.50003051757813
 11
14.00001525878906
 21
58.50003051757813
  0
LINE
  5
256
100
AcDbEntity
  8
0
  6
CONTINUOUS
 62
     7
100
AcDbLine
 10
24.00004577636719
 20
52.5
 11
14.00001525878906
 21
52.5
  0
LINE
  5
257
100
AcDbEntity
  8
0
  6
CONTINUOUS
 62
     7
100
AcDbLine
 10
24.00004577636719
 20
58.50003051757813
 11
24.00004577636719
 21
51.00003051757813
  0
LINE
  5
258
100
AcDbEntity
  8
0
  6
CENTER
 62
     3
100
AcDbLine
 10
19.00001525878906
 20
59.2850283283089
 11
19.00001525878906
 21
19.00001525878906
  0
LINE
  5
259
100
AcDbEntity
  8
0
  6
CONTINUOUS
 62
     7
100
AcDbLine
 10
25.99998474121094
 20
51.00003051757813
 11
10.99998474121094
 21
51.00003051757813
  0
LINE
  5
25a
100
AcDbEntity
  8
0
  6
CONTINUOUS
 62
     7
100
AcDbLine
 10
22.00004577636719
 20
42
 11
22.00004577636719
 21
19
  0
LINE
  5
25b
100
AcDbEntity
  8
0
  6
CONTINUOUS
 62
     7
100
AcDbLine
 10
16
 20
42
 11
16
 21
19
  0
LINE
  5
25c
100
AcDbEntity
  8
0
  6
CONTINUOUS
 62
     7
100
AcDbLine
 10
-4
 20
60
 11
-4
 21
42
  0
LINE
  5
25d
100
AcDbEntity
  8
0
  6
CONTINUOUS
 62
     7
100
AcDbLine
 10
4
 20
60
 11
4
 21
42
  0
LINE
  5
25e
100
AcDbEntity
  8
0
  6
CONTINUOUS
 62
     7
100
AcDbLine
 10
6
 20
19.00001525878906
 11
6
 21
14.18524932861328
  0
LINE
  5
25f
100
AcDbEntity
  8
0
  6
CONTINUOUS
 62
     7
100
AcDbLine
 10
-22.5
 20
42
 11
-22.5
 21
19.00001525878906
  0
LINE
  5
260
100
AcDbEntity
  8
0
  6
CONTINUOUS
 62
     7
100
AcDbLine
 10
22.5
 20
42
 11
22.5
 21
19.00001525878906
  0
LINE
  5
261
100
AcDbEntity
  8
0
  6
CENTER
 62
     3
100
AcDbLine
 10
-26.68174743652344
 20
15.00001525878906
 11
-15.47846984863281
 21
15.00001525878906
  0
LINE
  5
262
100
AcDbEntity
  8
0
  6
DASHED
 62
     7
100
AcDbLine
 10
-22.99998474121094
 20
17.95001220703125
 11
-22.99998474121094
 21
12.05001831054688
  0
LINE
  5
263
100
AcDbEntity
  8
0
  6
DASHED
 62
     7
100
AcDbLine
 10
-25.99998474121094
 20
12.05001831054688
 11
-22.99998474121094
 21
12.05001831054688
  0
LINE
  5
264
100
AcDbEntity
  8
0
  6
DASHED
 62
     7
100
AcDbLine
 10
-25.99998474121094
 20
17.95001220703125
 11
-22.99998474121094
 21
17.95001220703125
  0
LINE
  5
265
100
AcDbEntity
  8
0
  6
DASHED
 62
     7
100
AcDbLine
 10
-22.16282653808594
 20
13.50001525878906
 11
-15.99998474121094
 21
13.50001525878906
  0
LINE
  5
266
100
AcDbEntity
  8
0
  6
DASHED
 62
     7
100
AcDbLine
 10
-22.16282653808594
 20
16.50001525878906
 11
-15.99998474121094
 21
16.50001525878906
  0
LINE
  5
267
100
AcDbEntity
  8
0
  6
DASHED
 62
     7
100
AcDbLine
 10
-22.99998577815012
 20
12.05002742006218
 11
-22.16283519315063
 21
13.50001474084261
  0
LINE
  5
268
100
AcDbEntity
  8
0
  6
DASHED
 62
     7
100
AcDbLine
 10
-22.99997877219548
 20
17.95000283053931
 11
-22.16282818719598
 21
16.50001550975888
  0
LINE
  5
269
100
AcDbEntity
  8
0
  6
DASHED
 62
     7
100
AcDbLine
 10
-22.16282653808594
 20
16.50001525878906
 11
-22.16282653808594
 21
13.50001525878906
  0
LINE
  5
26a
100
AcDbEntity
  8
0
  6
DASHED
 62
     7
100
AcDbLine
 10
6.499999999999999
 20
60
 11
6.303605588231099
 21
52.5
  0
LINE
  5
26b
100
AcDbEntity
  8
0
  6
DASHED
 62
     7
100
AcDbLine
 10
-6.303605588231099
 20
52.5
 11
-6.499999999999999
 21
60
  0
LINE
  5
26c
100
AcDbEntity
  8
0
  6
DASHED
 62
     7
100
AcDbLine
 10
-5.603365633487491
 20
52.5
 11
-5.799760045256392
 21
60
  0
LINE
  5
26d
100
AcDbEntity
  8
0
  6
DASHED
 62
     7
100
AcDbLine
 10
5.799760045256392
 20
60
 11
5.603365633487491
 21
52.5
  0
ARC
  5
26e
100
AcDbEntity
  8
0
  6
CONTINUOUS
 62
     7
100
AcDbCircle
 10
0
 20
-7.5
 40
22.5
100
AcDbArc
 50
48.1896851042214
 51
131.8103148957786
  0
ARC
  5
26f
100
AcDbEntity
  8
0
  6
CONTINUOUS
 62
     7
100
AcDbCircle
 10
0
 20
7.5
 40
22.5
100
AcDbArc
 50
228.1896851042221
 51
311.8103148957793
  0
ARC
  5
270
100
AcDbEntity
  8
0
  6
CONTINUOUS
 62
     7
100
AcDbCircle
 10
-20.99998474121094
 20
-10
 40
5
100
AcDbArc
 50
180.0000359721794
 51
270.00001798609
  0
ARC
  5
271
100
AcDbEntity
  8
0
  6
CONTINUOUS
 62
     7
100
AcDbCircle
 10
21.00001525878906
 20
-10
 40
5
100
AcDbArc
 50
269.9999633445767
 51
360
  0
CIRCLE
  5
272
100
AcDbEntity
  8
0
  6
CONTINUOUS
 62
     3
100
AcDbCircle
 10
0
 20
0
 40
10.85000038146973
  0
CIRCLE
  5
273
100
AcDbEntity
  8
0
  6
CONTINUOUS
 62
     7
100
AcDbCircle
 10
0
 20
0
 40
9.75
  0
MTEXT
  5
274
100
AcDbEntity
  8
0
  6
CONTINUOUS
 62
     7
100
AcDbMText
 10
-16.08076400921625
 20
46.38136915319106
 40
0.5
 41
22
 71
     7
 72
     1
  1
{\W0.844085;ＢＮ－５Ｂ２１－１５Ａ}
  0
INSERT
  5
275
100
AcDbEntity
  8
0
  6
CONTINUOUS
 62
     7
100
AcDbBlockReference
  2
KOZU0010
 10
0
 20
0
  0
INSERT
  5
276
100
AcDbEntity
  8
0
  6
CONTINUOUS
 62
     3
100
AcDbBlockReference
  2
KOZU0011
 10
0
 20
0
  0
ENDBLK
  8
0
  5
277
100
AcDbEntity
100
AcDbBlockEnd
  0
BLOCK
  8
0
  5
278
100
AcDbEntity
100
AcDbBlockBegin
  2
KOZU0005
 70
    64
 10
0
 20
0
  0
POINT
  5
279
100
AcDbEntity
  8
0
  6
CONTINUOUS
 62
     7
100
AcDbPoint
 10
0
 20
0
  0
POINT
  5
27a
100
AcDbEntity
  8
0
  6
CONTINUOUS
 62
     7
100
AcDbPoint
 10
-6.5
 20
60
  0
POINT
  5
27b
100
AcDbEntity
  8
0
  6
CONTINUOUS
 62
     7
100
AcDbPoint
 10
6.5
 20
60
  0
LINE
  5
27c
100
AcDbEntity
  8
0
  6
CONTINUOUS
 62
     7
100
AcDbLine
 10
-15
 20
-19.00001525878906
 11
-15
 21
-36.00002288818359
  0
LINE
  5
27d
100
AcDbEntity
  8
0
  6
CONTINUOUS
 62
     7
100
AcDbLine
 10
15
 20
-19.00001525878906
 11
15
 21
-36.00002288818359
  0
LINE
  5
27e
100
AcDbEntity
  8
0
  6
CONTINUOUS
 62
     7
100
AcDbLine
 10
15
 20
-36.00002288818359
 11
-15
 21
-36.00002288818359
  0
LINE
  5
27f
100
AcDbEntity
  8
0
  6
CONTINUOUS
 62
     7
100
AcDbLine
 10
-22.50003051757813
 20
42
 11
-22.50003051757813
 21
19
  0
LINE
  5
280
100
AcDbEntity
  8
0
  6
CONTINUOUS
 62
     7
100
AcDbLine
 10
22.5
 20
42
 11
22.5
 21
19
  0
LINE
  5
281
100
AcDbEntity
  8
0
  6
CONTINUOUS
 62
     7
100
AcDbLine
 10
-26
 20
60
 11
-26
 21
42
  0
LINE
  5
282
100
AcDbEntity
  8
0
  6
CONTINUOUS
 62
     7
100
AcDbLine
 10
26
 20
60
 11
26
 21
42
  0
LINE
  5
283
100
AcDbEntity
  8
0
  6
CONTINUOUS
 62
     7
100
AcDbLine
 10
26
 20
42
 11
-26
 21
42
  0
LINE
  5
284
100
AcDbEntity
  8
0
  6
CONTINUOUS
 62
     7
100
AcDbLine
 10
14
 20
58.50003051757813
 11
14
 21
51.00003051757813
  0
LINE
  5
285
100
AcDbEntity
  8
0
  6
CONTINUOUS
 62
     7
100
AcDbLine
 10
16
 20
42
 11
16
 21
19
  0
LINE
  5
286
100
AcDbEntity
  8
0
  6
CONTINUOUS
 62
     7
100
AcDbLine
 10
24
 20
58.50003051757813
 11
14
 21
58.50003051757813
  0
LINE
  5
287
100
AcDbEntity
  8
0
  6
CONTINUOUS
 62
     7
100
AcDbLine
 10
24
 20
52.5
 11
14
 21
52.5
  0
LINE
  5
288
100
AcDbEntity
  8
0
  6
CONTINUOUS
 62
     7
100
AcDbLine
 10
24
 20
58.50003051757813
 11
24
 21
51.00003051757813
  0
LINE
  5
289
100
AcDbEntity
  8
0
  6
CONTINUOUS
 62
     7
100
AcDbLine
 10
21.99996948242188
 20
42
 11
21.99996948242188
 21
19
  0
LINE
  5
28a
100
AcDbEntity
  8
0
  6
CENTER
 62
     3
100
AcDbLine
 10
19
 20
59.2676049861441
 11
19
 21
19.00001525878906
  0
LINE
  5
28b
100
AcDbEntity
  8
0
  6
CONTINUOUS
 62
     7
100
AcDbLine
 10
-14
 20
58.50003051757813
 11
-14
 21
51.00003051757813
  0
LINE
  5
28c
100
AcDbEntity
  8
0
  6
CONTINUOUS
 62
     7
100
AcDbLine
 10
-16.00003051757813
 20
42
 11
-16.00003051757813
 21
19
  0
LINE
  5
28d
100
AcDbEntity
  8
0
  6
CONTINUOUS
 62
     7
100
AcDbLine
 10
-24.00009155273438
 20
58.50003051757813
 11
-14
 21
58.50003051757813
  0
LINE
  5
28e
100
AcDbEntity
  8
0
  6
CONTINUOUS
 62
     7
100
AcDbLine
 10
-24.00009155273438
 20
52.5
 11
-14
 21
52.5
  0
LINE
  5
28f
100
AcDbEntity
  8
0
  6
CONTINUOUS
 62
     7
100
AcDbLine
 10
-24.00009155273438
 20
58.50003051757813
 11
-24.00009155273438
 21
51.00003051757813
  0
LINE
  5
290
100
AcDbEntity
  8
0
  6
CONTINUOUS
 62
     7
100
AcDbLine
 10
-22.00006103515625
 20
42
 11
-22.00006103515625
 21
19
  0
LINE
  5
291
100
AcDbEntity
  8
0
  6
CENTER
 62
     3
100
AcDbLine
 10
-19
 20
59.31488288275939
 11
-19
 21
19.00001525878906
  0
LINE
  5
292
100
AcDbEntity
  8
0
  6
CONTINUOUS
 62
     7
100
AcDbLine
 10
-26
 20
51.00003051757813
 11
-11
 21
51.00003051757813
  0
LINE
  5
293
100
AcDbEntity
  8
0
  6
CENTER
 62
     3
100
AcDbLine
 10
0
 20
66.57949829101563
 11
0
 21
-40.8197021484375
  0
LINE
  5
294
100
AcDbEntity
  8
0
  6
CONTINUOUS
 62
     7
100
AcDbLine
 10
26
 20
60
 11
-26
 21
60
  0
LINE
  5
295
100
AcDbEntity
  8
0
  6
CENTER
 62
     3
100
AcDbLine
 10
37.82608032226563
 20
0
 11
-39.36505126953125
 21
0
  0
LINE
  5
296
100
AcDbEntity
  8
0
  6
CONTINUOUS
 62
     7
100
AcDbLine
 10
-35.00003051757813
 20
19
 11
-35.00003051757813
 21
-15
  0
LINE
  5
297
100
AcDbEntity
  8
0
  6
CONTINUOUS
 62
     7
100
AcDbLine
 10
35
 20
19
 11
35
 21
-15
  0
LINE
  5
298
100
AcDbEntity
  8
0
  6
CONTINUOUS
 62
     7
100
AcDbLine
 10
35
 20
19.00001525878906
 11
-35.00003051757813
 21
19.00001525878906
  0
LINE
  5
299
100
AcDbEntity
  8
0
  6
CONTINUOUS
 62
     7
100
AcDbLine
 10
35
 20
-15
 11
-35.00003051757813
 21
-15
  0
LINE
  5
29a
100
AcDbEntity
  8
0
  6
CONTINUOUS
 62
     7
100
AcDbLine
 10
-16
 20
-15
 11
-16
 21
-19.00000762939453
  0
LINE
  5
29b
100
AcDbEntity
  8
0
  6
CONTINUOUS
 62
     7
100
AcDbLine
 10
16
 20
-15
 11
16
 21
-19.00000762939453
  0
LINE
  5
29c
100
AcDbEntity
  8
0
  6
CONTINUOUS
 62
     7
100
AcDbLine
 10
16
 20
-19.00000762939453
 11
-16
 21
-19.00000762939453
  0
LINE
  5
29d
100
AcDbEntity
  8
0
  6
DASHED
 62
     7
100
AcDbLine
 10
26.99999999999999
 20
-9.314281167625907
 11
34.99996985641578
 21
-9.59364625785661
  0
LINE
  5
29e
100
AcDbEntity
  8
0
  6
DASHED
 62
     7
100
AcDbLine
 10
27
 20
9.314281637680191
 11
34.99999725003278
 21
9.593647684517034
  0
LINE
  5
29f
100
AcDbEntity
  8
0
  6
DASHED
 62
     3
100
AcDbLine
 10
26.99999999999999
 20
-10.47697675498405
 11
35.00004173774195
 21
-10.75634435536586
  0
LINE
  5
2a0
100
AcDbEntity
  8
0
  6
DASHED
 62
     3
100
AcDbLine
 10
27
 20
10.47699249312831
 11
35.0000685988349
 21
10.75636103152011
  0
LINE
  5
2a1
100
AcDbEntity
  8
0
  6
DASHED
 62
     7
100
AcDbLine
 10
-27.00003051757812
 20
-9.314275672039962
 11
-35.00000181629916
 21
-9.593640812637073
  0
LINE
  5
2a2
100
AcDbEntity
  8
0
  6
DASHED
 62
     7
100
AcDbLine
 10
-27.00003051757812
 20
9.314268508049285
 11
-34.99999897719052
 21
9.593633549502542
  0
LINE
  5
2a3
100
AcDbEntity
  8
0
  6
DASHED
 62
     3
100
AcDbLine
 10
-27.00003051757812
 20
-10.47698652748805
 11
-35.00001216712601
 21
-10.75635202954399
  0
LINE
  5
2a4
100
AcDbEntity
  8
0
  6
DASHED
 62
     3
100
AcDbLine
 10
-27.00003051757812
 20
10.47697936349742
 11
-34.99997882902978
 21
10.75634370136143
  0
LINE
  5
2a5
100
AcDbEntity
  8
0
  6
CONTINUOUS
 62
     7
100
AcDbLine
 10
-11
 20
60
 11
-11
 21
51.00003051757813
  0
LINE
  5
2a6
100
AcDbEntity
  8
0
  6
CONTINUOUS
 62
     7
100
AcDbLine
 10
11
 20
60
 11
11
 21
51.00003051757813
  0
LINE
  5
2a7
100
AcDbEntity
  8
0
  6
CONTINUOUS
 62
     7
100
AcDbLine
 10
26
 20
51.00003051757813
 11
11
 21
51.00003051757813
  0
LINE
  5
2a8
100
AcDbEntity
  8
0
  6
CONTINUOUS
 62
     7
100
AcDbLine
 10
26
 20
19.00001525878906
 11
26
 21
-10
  0
LINE
  5
2a9
100
AcDbEntity
  8
0
  6
CONTINUOUS
 62
     7
100
AcDbLine
 10
-26.00003051757813
 20
19.00001525878906
 11
-26.00003051757813
 21
-10.27051544189453
  0
LINE
  5
2aa
100
AcDbEntity
  8
0
  6
CONTINUOUS
 62
     7
100
AcDbLine
 10
35
 20
14.43740844726563
 11
26
 21
14.43740844726563
  0
LINE
  5
2ab
100
AcDbEntity
  8
0
  6
CONTINUOUS
 62
     7
100
AcDbLine
 10
-26.00003051757813
 20
14.43740844726563
 11
-35.00003051757813
 21
14.43740844726563
  0
LINE
  5
2ac
100
AcDbEntity
  8
0
  6
CONTINUOUS
 62
     7
100
AcDbLine
 10
-1.5
 20
3
 11
-1.5
 21
1.5
  0
LINE
  5
2ad
100
AcDbEntity
  8
0
  6
CONTINUOUS
 62
     7
100
AcDbLine
 10
6
 20
0
 11
-7.5
 21
0
  0
LINE
  5
2ae
100
AcDbEntity
  8
0
  6
CONTINUOUS
 62
     7
100
AcDbLine
 10
7.5
 20
1.5
 11
-1.5
 21
1.5
  0
LINE
  5
2af
100
AcDbEntity
  8
0
  6
CONTINUOUS
 62
     7
100
AcDbLine
 10
-1.499992708294928
 20
3.000004164895473
 11
-7.499981067744866
 21
9.985170503767904e-006
  0
LINE
  5
2b0
100
AcDbEntity
  8
0
  6
CONTINUOUS
 62
     7
100
AcDbLine
 10
7.499996151339222
 20
1.500004245777014
 11
6.000005322876756
 21
1.341731454829187e-005
  0
LINE
  5
2b1
100
AcDbEntity
  8
0
  6
CENTER
 62
     3
100
AcDbLine
 10
-2.5
 20
12
 11
2.5
 21
12
  0
LINE
  5
2b2
100
AcDbEntity
  8
0
  6
DASHED
 62
     7
100
AcDbLine
 10
-6.303605588231099
 20
52.5
 11
-6.499999999999999
 21
60
  0
LINE
  5
2b3
100
AcDbEntity
  8
0
  6
DASHED
 62
     7
100
AcDbLine
 10
6.499999999999999
 20
60
 11
6.303605588231099
 21
52.5
  0
LINE
  5
2b4
100
AcDbEntity
  8
0
  6
DASHED
 62
     7
100
AcDbLine
 10
-5.603365633487491
 20
52.5
 11
-5.799760045256392
 21
60
  0
LINE
  5
2b5
100
AcDbEntity
  8
0
  6
DASHED
 62
     7
100
AcDbLine
 10
5.799760045256392
 20
60
 11
5.603365633487491
 21
52.5
  0
ARC
  5
2b6
100
AcDbEntity
  8
0
  6
CONTINUOUS
 62
     7
100
AcDbCircle
 10
21
 20
-10
 40
5
100
AcDbArc
 50
269.9999633445767
 51
360
  0
ARC
  5
2b7
100
AcDbEntity
  8
0
  6
CONTINUOUS
 62
     7
100
AcDbCircle
 10
-21.00003051757813
 20
-10
 40
5
100
AcDbArc
 50
179.9999776881997
 51
269.9999733624894
  0
CIRCLE
  5
2b8
100
AcDbEntity
  8
0
  6
CONTINUOUS
 62
     3
100
AcDbCircle
 10
0
 20
12
 40
2.5
  0
CIRCLE
  5
2b9
100
AcDbEntity
  8
0
  6
CONTINUOUS
 62
     7
100
AcDbCircle
 10
0
 20
12
 40
2.049999952316284
  0
MTEXT
  5
2ba
100
AcDbEntity
  8
0
  6
CONTINUOUS
 62
     7
100
AcDbMText
 10
-16.48934404425761
 20
44.09154620002298
 40
0.5
 41
22
 71
     7
 72
     1
  1
{\W0.844085;ＢＮ－５Ｂ２１－１５Ａ}
  0
INSERT
  5
2bb
100
AcDbEntity
  8
0
  6
CONTINUOUS
 62
     7
100
AcDbBlockReference
  2
KOZU0012
 10
0
 20
0
  0
ENDBLK
  8
0
  5
2bc
100
AcDbEntity
100
AcDbBlockEnd
  0
BLOCK
  8
0
  5
2bd
100
AcDbEntity
100
AcDbBlockBegin
  2
KOZU0006
 70
    64
 10
0
 20
0
  0
POINT
  5
2be
100
AcDbEntity
  8
0
  6
CONTINUOUS
 62
     7
100
AcDbPoint
 10
0
 20
0
  0
LINE
  5
2bf
100
AcDbEntity
  8
0
  6
CENTER
 62
     3
100
AcDbLine
 10
0
 20
28.89432819317606
 11
0
 21
-29.16902680092418
  0
LINE
  5
2c0
100
AcDbEntity
  8
0
  6
CENTER
 62
     3
100
AcDbLine
 10
-41.71219635009766
 20
0
 11
40.7432975769043
 21
0
  0
LINE
  5
2c1
100
AcDbEntity
  8
0
  6
CONTINUOUS
 62
     7
100
AcDbLine
 10
-35.00001907348633
 20
15
 11
-35.00001907348633
 21
-15
  0
LINE
  5
2c2
100
AcDbEntity
  8
0
  6
CONTINUOUS
 62
     7
100
AcDbLine
 10
-26.00000381469727
 20
20.00000381469727
 11
-26.00000381469727
 21
-20
  0
LINE
  5
2c3
100
AcDbEntity
  8
0
  6
CONTINUOUS
 62
     7
100
AcDbLine
 10
25.99998092651367
 20
20.00000381469727
 11
25.99998092651367
 21
-20
  0
LINE
  5
2c4
100
AcDbEntity
  8
0
  6
CONTINUOUS
 62
     7
100
AcDbLine
 10
-20
 20
-26
 11
20.00000381469727
 21
-26
  0
LINE
  5
2c5
100
AcDbEntity
  8
0
  6
CONTINUOUS
 62
     7
100
AcDbLine
 10
-20
 20
26
 11
20.00000381469727
 21
26
  0
LINE
  5
2c6
100
AcDbEntity
  8
0
  6
CONTINUOUS
 62
     7
100
AcDbLine
 10
-35.00001907348633
 20
-15
 11
-26.00000381469727
 21
-15
  0
LINE
  5
2c7
100
AcDbEntity
  8
0
  6
CONTINUOUS
 62
     7
100
AcDbLine
 10
34.99999618530273
 20
15
 11
34.99999618530273
 21
-15
  0
LINE
  5
2c8
100
AcDbEntity
  8
0
  6
CONTINUOUS
 62
     7
100
AcDbLine
 10
-35.00001907348633
 20
15
 11
-26.00000381469727
 21
15
  0
LINE
  5
2c9
100
AcDbEntity
  8
0
  6
CONTINUOUS
 62
     7
100
AcDbLine
 10
25.99998092651367
 20
15
 11
34.99999618530273
 21
15
  0
LINE
  5
2ca
100
AcDbEntity
  8
0
  6
CONTINUOUS
 62
     7
100
AcDbLine
 10
25.99998092651367
 20
-15
 11
34.99999618530273
 21
-15
  0
LINE
  5
2cb
100
AcDbEntity
  8
0
  6
DASHED
 62
     7
100
AcDbLine
 10
-35.00001907348633
 20
-10.5
 11
-27.00000381469726
 21
-10.29051222788105
  0
LINE
  5
2cc
100
AcDbEntity
  8
0
  6
DASHED
 62
     7
100
AcDbLine
 10
-35.00001907348633
 20
10.5
 11
-27.00000381469726
 21
10.29051222788105
  0
LINE
  5
2cd
100
AcDbEntity
  8
0
  6
DASHED
 62
     7
100
AcDbLine
 10
-35.00001907348633
 20
9.499657207509131
 11
-27.00000381469726
 21
9.290169435390183
  0
LINE
  5
2ce
100
AcDbEntity
  8
0
  6
DASHED
 62
     7
100
AcDbLine
 10
-35.00001907348633
 20
-9.499657207509131
 11
-27.00000381469726
 21
-9.290169435390183
  0
LINE
  5
2cf
100
AcDbEntity
  8
0
  6
DASHED
 62
     7
100
AcDbLine
 10
35.00001907348633
 20
-10.5
 11
27.00000381469726
 21
-10.29051222788105
  0
LINE
  5
2d0
100
AcDbEntity
  8
0
  6
DASHED
 62
     7
100
AcDbLine
 10
35.00001907348633
 20
-9.499657207509129
 11
27.00000381469726
 21
-9.29016943539018
  0
LINE
  5
2d1
100
AcDbEntity
  8
0
  6
DASHED
 62
     7
100
AcDbLine
 10
35.00001907348633
 20
10.5
 11
27.00000381469726
 21
10.29051222788105
  0
LINE
  5
2d2
100
AcDbEntity
  8
0
  6
DASHED
 62
     7
100
AcDbLine
 10
35.00001907348633
 20
9.499657207509129
 11
27.00000381469726
 21
9.29016943539018
  0
CIRCLE
  5
2d3
100
AcDbEntity
  8
0
  6
CONTINUOUS
 62
     7
100
AcDbCircle
 10
0
 20
0
 40
15
  0
CIRCLE
  5
2d4
100
AcDbEntity
  8
0
  6
CONTINUOUS
 62
     7
100
AcDbCircle
 10
0
 20
0
 40
15.99998474121094
  0
ARC
  5
2d5
100
AcDbEntity
  8
0
  6
CONTINUOUS
 62
     7
100
AcDbCircle
 10
-20
 20
-20
 40
6
100
AcDbArc
 50
179.9999776881997
 51
270.0000280040027
  0
ARC
  5
2d6
100
AcDbEntity
  8
0
  6
CONTINUOUS
 62
     7
100
AcDbCircle
 10
20
 20
20
 40
6
100
AcDbArc
 50
0
 51
89.99998201391065
  0
ARC
  5
2d7
100
AcDbEntity
  8
0
  6
CONTINUOUS
 62
     7
100
AcDbCircle
 10
-20
 20
20
 40
6
100
AcDbArc
 50
89.99998201391065
 51
179.9999640278213
  0
ARC
  5
2d8
100
AcDbEntity
  8
0
  6
CONTINUOUS
 62
     7
100
AcDbCircle
 10
20
 20
-20
 40
6
100
AcDbArc
 50
270.00001798609
 51
360
  0
MTEXT
  5
2d9
100
AcDbEntity
  8
0
  6
CONTINUOUS
 62
     7
100
AcDbMText
 10
-19.88521149295218
 20
20.11638959099265
 40
0.5
 41
22
 71
     7
 72
     1
  1
{\W0.844085;ＢＮ－５Ｂ２１－１５Ａ}
  0
ENDBLK
  8
0
  5
2da
100
AcDbEntity
100
AcDbBlockEnd
  0
BLOCK
  8
0
  5
2db
100
AcDbEntity
100
AcDbBlockBegin
  2
KOZU0007
 70
    64
 10
0
 20
0
  0
LINE
  5
2dc
100
AcDbEntity
  8
0
  6
CONTINUOUS
 62
     7
100
AcDbLine
 10
-2.693632019935439
 20
-33.00001525878906
 11
-1.999969482421875
 21
-32.30635133394904
  0
LINE
  5
2dd
100
AcDbEntity
  8
0
  6
CONTINUOUS
 62
     7
100
AcDbLine
 10
-4.377428333552324
 20
-33.00001525878906
 11
-1.999969482421875
 21
-30.62255165273616
  0
LINE
  5
2de
100
AcDbEntity
  8
0
  6
CONTINUOUS
 62
     7
100
AcDbLine
 10
-6.061224647169208
 20
-33.00001525878906
 11
-1.999969482421875
 21
-28.93875197152327
  0
LINE
  5
2df
100
AcDbEntity
  8
0
  6
CONTINUOUS
 62
     7
100
AcDbLine
 10
-7.745020960786091
 20
-33.00001525878906
 11
-1.999969482421875
 21
-27.2549522903104
  0
LINE
  5
2e0
100
AcDbEntity
  8
0
  6
CONTINUOUS
 62
     7
100
AcDbLine
 10
-9.428817274402976
 20
-33.00001525878906
 11
-1.999969482421875
 21
-25.57115260909752
  0
LINE
  5
2e1
100
AcDbEntity
  8
0
  6
CONTINUOUS
 62
     7
100
AcDbLine
 10
-11.11261358801986
 20
-33.00001525878906
 11
-1.999969482421873
 21
-23.88735292788464
  0
LINE
  5
2e2
100
AcDbEntity
  8
0
  6
CONTINUOUS
 62
     7
100
AcDbLine
 10
-11.99996948242188
 20
-32.20357324669176
 11
-2.796429901616751
 21
-23.00001525878906
  0
LINE
  5
2e3
100
AcDbEntity
  8
0
  6
CONTINUOUS
 62
     7
100
AcDbLine
 10
-11.99996948242188
 20
-30.51977356547888
 11
-4.480226215233637
 21
-23.00001525878906
  0
LINE
  5
2e4
100
AcDbEntity
  8
0
  6
CONTINUOUS
 62
     7
100
AcDbLine
 10
-11.99996948242188
 20
-28.835973884266
 11
-6.164022528850522
 21
-23.00001525878906
  0
LINE
  5
2e5
100
AcDbEntity
  8
0
  6
CONTINUOUS
 62
     7
100
AcDbLine
 10
-11.99996948242188
 20
-27.15217420305312
 11
-7.847818842467407
 21
-23.00001525878906
  0
LINE
  5
2e6
100
AcDbEntity
  8
0
  6
CONTINUOUS
 62
     7
100
AcDbLine
 10
-11.99996948242188
 20
-25.46837452184024
 11
-9.531615156084291
 21
-23.00001525878906
  0
LINE
  5
2e7
100
AcDbEntity
  8
0
  6
CONTINUOUS
 62
     7
100
AcDbLine
 10
-11.99996948242188
 20
-23.78457484062736
 11
-11.21541146970118
 21
-23.00001525878906
  0
LINE
  5
2e8
100
AcDbEntity
  8
0
  6
CONTINUOUS
 62
     7
100
AcDbLine
 10
-1.999969482421873
 20
-23.24399565423116
 11
-2.243950365825256
 21
-23.00001525878906
  0
LINE
  5
2e9
100
AcDbEntity
  8
0
  6
CONTINUOUS
 62
     7
100
AcDbLine
 10
-1.999969482421873
 20
-24.92779196784805
 11
-3.927750047038137
 21
-23.00001525878906
  0
LINE
  5
2ea
100
AcDbEntity
  8
0
  6
CONTINUOUS
 62
     7
100
AcDbLine
 10
-1.999969482421875
 20
-26.61158828146494
 11
-5.611549728251021
 21
-23.00001525878906
  0
LINE
  5
2eb
100
AcDbEntity
  8
0
  6
CONTINUOUS
 62
     7
100
AcDbLine
 10
-1.999969482421875
 20
-28.29538459508182
 11
-7.295349409463901
 21
-23.00001525878906
  0
LINE
  5
2ec
100
AcDbEntity
  8
0
  6
CONTINUOUS
 62
     7
100
AcDbLine
 10
-1.999969482421873
 20
-29.97918090869871
 11
-8.97914909067678
 21
-23.00001525878906
  0
LINE
  5
2ed
100
AcDbEntity
  8
0
  6
CONTINUOUS
 62
     7
100
AcDbLine
 10
-1.999969482421873
 20
-31.66297722231559
 11
-10.66294877188966
 21
-23.00001525878906
  0
LINE
  5
2ee
100
AcDbEntity
  8
0
  6
CONTINUOUS
 62
     7
100
AcDbLine
 10
-2.346728453082537
 20
-33.00001525878906
 11
-11.99996948242188
 21
-23.34679353591248
  0
LINE
  5
2ef
100
AcDbEntity
  8
0
  6
CONTINUOUS
 62
     7
100
AcDbLine
 10
-4.030528134295416
 20
-33.00001525878906
 11
-11.99996948242188
 21
-25.03058984952936
  0
LINE
  5
2f0
100
AcDbEntity
  8
0
  6
CONTINUOUS
 62
     7
100
AcDbLine
 10
-5.714327815508296
 20
-33.00001525878906
 11
-11.99996948242188
 21
-26.71438616314625
  0
LINE
  5
2f1
100
AcDbEntity
  8
0
  6
CONTINUOUS
 62
     7
100
AcDbLine
 10
-7.398127496721179
 20
-33.00001525878906
 11
-11.99996948242188
 21
-28.39818247676314
  0
LINE
  5
2f2
100
AcDbEntity
  8
0
  6
CONTINUOUS
 62
     7
100
AcDbLine
 10
-9.081927177934059
 20
-33.00001525878906
 11
-11.99996948242188
 21
-30.08197879038002
  0
LINE
  5
2f3
100
AcDbEntity
  8
0
  6
CONTINUOUS
 62
     7
100
AcDbLine
 10
-10.76572685914694
 20
-33.00001525878906
 11
-11.99996948242188
 21
-31.76577510399691
  0
ENDBLK
  8
0
  5
2f4
100
AcDbEntity
100
AcDbBlockEnd
  0
BLOCK
  8
0
  5
2f5
100
AcDbEntity
100
AcDbBlockBegin
  2
KOZU0008
 70
    64
 10
0
 20
0
  0
LINE
  5
2f6
100
AcDbEntity
  8
0
  6
CONTINUOUS
 62
     7
100
AcDbLine
 10
-2.693632019935439
 20
-33.00001525878906
 11
-2.000007629394535
 21
-32.30638948099799
  0
LINE
  5
2f7
100
AcDbEntity
  8
0
  6
CONTINUOUS
 62
     7
100
AcDbLine
 10
-4.377428333552324
 20
-33.00001525878906
 11
-2.000007629394531
 21
-30.62258979978511
  0
LINE
  5
2f8
100
AcDbEntity
  8
0
  6
CONTINUOUS
 62
     7
100
AcDbLine
 10
-6.061224647169208
 20
-33.00001525878906
 11
-2.000007629394533
 21
-28.93879011857223
  0
LINE
  5
2f9
100
AcDbEntity
  8
0
  6
CONTINUOUS
 62
     7
100
AcDbLine
 10
-7.745020960786091
 20
-33.00001525878906
 11
-2.000007629394531
 21
-27.25499043735935
  0
LINE
  5
2fa
100
AcDbEntity
  8
0
  6
CONTINUOUS
 62
     7
100
AcDbLine
 10
-9.428817274402976
 20
-33.00001525878906
 11
-2.000007629394533
 21
-25.57119075614647
  0
LINE
  5
2fb
100
AcDbEntity
  8
0
  6
CONTINUOUS
 62
     7
100
AcDbLine
 10
-11.11261358801986
 20
-33.00001525878906
 11
-2.000007629394533
 21
-23.88739107493359
  0
LINE
  5
2fc
100
AcDbEntity
  8
0
  6
CONTINUOUS
 62
     7
100
AcDbLine
 10
-12.00000762939453
 20
-32.20361139374071
 11
-2.796437530996023
 21
-23.00002288818359
  0
LINE
  5
2fd
100
AcDbEntity
  8
0
  6
CONTINUOUS
 62
     7
100
AcDbLine
 10
-12.00000762939453
 20
-30.51981171252783
 11
-4.48023384461291
 21
-23.00002288818359
  0
LINE
  5
2fe
100
AcDbEntity
  8
0
  6
CONTINUOUS
 62
     7
100
AcDbLine
 10
-12.00000762939453
 20
-28.83601203131495
 11
-6.164030158229796
 21
-23.00002288818359
  0
LINE
  5
2ff
100
AcDbEntity
  8
0
  6
CONTINUOUS
 62
     7
100
AcDbLine
 10
-12.00000762939453
 20
-27.15221235010207
 11
-7.847826471846678
 21
-23.00002288818359
  0
LINE
  5
300
100
AcDbEntity
  8
0
  6
CONTINUOUS
 62
     7
100
AcDbLine
 10
-12.00000762939453
 20
-25.46841266888918
 11
-9.531622785463563
 21
-23.00002288818359
  0
LINE
  5
301
100
AcDbEntity
  8
0
  6
CONTINUOUS
 62
     7
100
AcDbLine
 10
-12.00000762939453
 20
-23.7846129876763
 11
-11.21541909908045
 21
-23.00002288818359
  0
LINE
  5
302
100
AcDbEntity
  8
0
  6
CONTINUOUS
 62
     7
100
AcDbLine
 10
-2.000007629394531
 20
-23.2439575073348
 11
-2.243942736415466
 21
-23.00002288818359
  0
LINE
  5
303
100
AcDbEntity
  8
0
  6
CONTINUOUS
 62
     7
100
AcDbLine
 10
-2.000007629394533
 20
-24.92775382095169
 11
-3.927742417628346
 21
-23.00002288818359
  0
LINE
  5
304
100
AcDbEntity
  8
0
  6
CONTINUOUS
 62
     7
100
AcDbLine
 10
-2.000007629394535
 20
-26.61155013456857
 11
-5.61154209884123
 21
-23.00002288818359
  0
LINE
  5
305
100
AcDbEntity
  8
0
  6
CONTINUOUS
 62
     7
100
AcDbLine
 10
-2.000007629394533
 20
-28.29534644818546
 11
-7.29534178005411
 21
-23.00002288818359
  0
LINE
  5
306
100
AcDbEntity
  8
0
  6
CONTINUOUS
 62
     7
100
AcDbLine
 10
-2.000007629394533
 20
-29.97914276180234
 11
-8.979141461266989
 21
-23.00002288818359
  0
LINE
  5
307
100
AcDbEntity
  8
0
  6
CONTINUOUS
 62
     7
100
AcDbLine
 10
-2.000007629394531
 20
-31.66293907541922
 11
-10.66294114247987
 21
-23.00002288818359
  0
LINE
  5
308
100
AcDbEntity
  8
0
  6
CONTINUOUS
 62
     7
100
AcDbLine
 10
-2.346728453082537
 20
-33.00001525878906
 11
-12.00000762939453
 21
-23.34675538901612
  0
LINE
  5
309
100
AcDbEntity
  8
0
  6
CONTINUOUS
 62
     7
100
AcDbLine
 10
-4.030528134295416
 20
-33.00001525878906
 11
-12.00000762939453
 21
-25.03055170263301
  0
LINE
  5
30a
100
AcDbEntity
  8
0
  6
CONTINUOUS
 62
     7
100
AcDbLine
 10
-5.714327815508296
 20
-33.00001525878906
 11
-12.00000762939453
 21
-26.71434801624989
  0
LINE
  5
30b
100
AcDbEntity
  8
0
  6
CONTINUOUS
 62
     7
100
AcDbLine
 10
-7.398127496721179
 20
-33.00001525878906
 11
-12.00000762939453
 21
-28.39814432986677
  0
LINE
  5
30c
100
AcDbEntity
  8
0
  6
CONTINUOUS
 62
     7
100
AcDbLine
 10
-9.081927177934059
 20
-33.00001525878906
 11
-12.00000762939453
 21
-30.08194064348366
  0
LINE
  5
30d
100
AcDbEntity
  8
0
  6
CONTINUOUS
 62
     7
100
AcDbLine
 10
-10.76572685914694
 20
-33.00001525878906
 11
-12.00000762939453
 21
-31.76573695710054
  0
ENDBLK
  8
0
  5
30e
100
AcDbEntity
100
AcDbBlockEnd
  0
BLOCK
  8
0
  5
30f
100
AcDbEntity
100
AcDbBlockBegin
  2
KOZU0009
 70
    64
 10
0
 20
0
  0
LINE
  5
310
100
AcDbEntity
  8
0
  6
CONTINUOUS
 62
     3
100
AcDbLine
 10
25.0235969319143
 20
12.05001831054688
 11
25.99998474121094
 21
13.02640811530045
  0
LINE
  5
311
100
AcDbEntity
  8
0
  6
CONTINUOUS
 62
     3
100
AcDbLine
 10
23.22754807847798
 20
12.05001831054688
 11
25.99998474121095
 21
14.82246063934601
  0
LINE
  5
312
100
AcDbEntity
  8
0
  6
CONTINUOUS
 62
     3
100
AcDbLine
 10
22.99998474121094
 20
13.61850703225114
 11
25.99998474121095
 21
16.61851316339158
  0
LINE
  5
313
100
AcDbEntity
  8
0
  6
CONTINUOUS
 62
     3
100
AcDbLine
 10
22.99998474121094
 20
15.4145595562967
 11
25.53543221021732
 21
17.95001220703125
  0
LINE
  5
314
100
AcDbEntity
  8
0
  6
CONTINUOUS
 62
     3
100
AcDbLine
 10
22.99998474121094
 20
17.21061208034227
 11
23.73938335678101
 21
17.95001220703125
  0
LINE
  5
315
100
AcDbEntity
  8
0
  6
CONTINUOUS
 62
     3
100
AcDbLine
 10
25.99998474121094
 20
17.92079959229549
 11
25.97077206677296
 21
17.95001220703125
  0
LINE
  5
316
100
AcDbEntity
  8
0
  6
CONTINUOUS
 62
     3
100
AcDbLine
 10
25.99998474121094
 20
16.12475073885917
 11
24.1747195427274
 21
17.95001220703125
  0
LINE
  5
317
100
AcDbEntity
  8
0
  6
CONTINUOUS
 62
     3
100
AcDbLine
 10
25.99998474121094
 20
14.32870188542286
 11
22.99998474121094
 21
17.32869575429496
  0
LINE
  5
318
100
AcDbEntity
  8
0
  6
CONTINUOUS
 62
     3
100
AcDbLine
 10
25.99998474121094
 20
12.53265303198654
 11
22.99998474121094
 21
15.53264690085864
  0
LINE
  5
319
100
AcDbEntity
  8
0
  6
CONTINUOUS
 62
     3
100
AcDbLine
 10
24.68656792497212
 20
12.05001831054688
 11
22.99998474121094
 21
13.73659804742232
  0
ENDBLK
  8
0
  5
31a
100
AcDbEntity
100
AcDbBlockEnd
  0
BLOCK
  8
0
  5
31b
100
AcDbEntity
100
AcDbBlockBegin
  2
KOZU0010
 70
    64
 10
0
 20
0
  0
LINE
  5
31c
100
AcDbEntity
  8
0
  6
CONTINUOUS
 62
     7
100
AcDbLine
 10
10.77673848899964
 20
-33.00001525878906
 11
12.00001525878906
 21
-31.77673604244366
  0
LINE
  5
31d
100
AcDbEntity
  8
0
  6
CONTINUOUS
 62
     7
100
AcDbLine
 10
9.092942175382751
 20
-33.00001525878906
 11
12.00001525878906
 21
-30.09293636123077
  0
LINE
  5
31e
100
AcDbEntity
  8
0
  6
CONTINUOUS
 62
     7
100
AcDbLine
 10
7.409145861765866
 20
-33.00001525878906
 11
12.00001525878906
 21
-28.4091366800179
  0
LINE
  5
31f
100
AcDbEntity
  8
0
  6
CONTINUOUS
 62
     7
100
AcDbLine
 10
5.725349548148982
 20
-33.00001525878906
 11
12.00001525878906
 21
-26.72533699880501
  0
LINE
  5
320
100
AcDbEntity
  8
0
  6
CONTINUOUS
 62
     7
100
AcDbLine
 10
4.041553234532101
 20
-33.00001525878906
 11
12.00001525878906
 21
-25.04153731759213
  0
LINE
  5
321
100
AcDbEntity
  8
0
  6
CONTINUOUS
 62
     7
100
AcDbLine
 10
2.357756920915215
 20
-33.00001525878906
 11
12.00001525878906
 21
-23.35773763637925
  0
LINE
  5
322
100
AcDbEntity
  8
0
  6
CONTINUOUS
 62
     7
100
AcDbLine
 10
2.000015258789063
 20
-31.67395795518637
 11
10.67393297793905
 21
-23.00002288818359
  0
LINE
  5
323
100
AcDbEntity
  8
0
  6
CONTINUOUS
 62
     7
100
AcDbLine
 10
2.000015258789061
 20
-29.99015827397349
 11
8.990136664322169
 21
-23.00002288818359
  0
LINE
  5
324
100
AcDbEntity
  8
0
  6
CONTINUOUS
 62
     7
100
AcDbLine
 10
2.000015258789061
 20
-28.30635859276061
 11
7.306340350705281
 21
-23.00002288818359
  0
LINE
  5
325
100
AcDbEntity
  8
0
  6
CONTINUOUS
 62
     7
100
AcDbLine
 10
2.000015258789063
 20
-26.62255891154773
 11
5.622544037088398
 21
-23.00002288818359
  0
LINE
  5
326
100
AcDbEntity
  8
0
  6
CONTINUOUS
 62
     7
100
AcDbLine
 10
2.000015258789061
 20
-24.93875923033485
 11
3.938747723471511
 21
-23.00002288818359
  0
LINE
  5
327
100
AcDbEntity
  8
0
  6
CONTINUOUS
 62
     7
100
AcDbLine
 10
2.000015258789061
 20
-23.25495954912197
 11
2.254951409854627
 21
-23.00002288818359
  0
LINE
  5
328
100
AcDbEntity
  8
0
  6
CONTINUOUS
 62
     7
100
AcDbLine
 10
12.00001525878906
 20
-23.77358188656553
 11
11.22645471328758
 21
-23.00002288818359
  0
LINE
  5
329
100
AcDbEntity
  8
0
  6
CONTINUOUS
 62
     7
100
AcDbLine
 10
12.00001525878906
 20
-25.45737820018242
 11
9.542655032074695
 21
-23.00002288818359
  0
LINE
  5
32a
100
AcDbEntity
  8
0
  6
CONTINUOUS
 62
     7
100
AcDbLine
 10
12.00001525878906
 20
-27.14117451379931
 11
7.858855350861816
 21
-23.00002288818359
  0
LINE
  5
32b
100
AcDbEntity
  8
0
  6
CONTINUOUS
 62
     7
100
AcDbLine
 10
12.00001525878906
 20
-28.82497082741619
 11
6.175055669648934
 21
-23.00002288818359
  0
LINE
  5
32c
100
AcDbEntity
  8
0
  6
CONTINUOUS
 62
     7
100
AcDbLine
 10
12.00001525878906
 20
-30.50876714103307
 11
4.491255988436052
 21
-23.00002288818359
  0
LINE
  5
32d
100
AcDbEntity
  8
0
  6
CONTINUOUS
 62
     7
100
AcDbLine
 10
12.00001525878906
 20
-32.19256345464996
 11
2.807456307223173
 21
-23.00002288818359
  0
LINE
  5
32e
100
AcDbEntity
  8
0
  6
CONTINUOUS
 62
     7
100
AcDbLine
 10
11.12366899662051
 20
-33.00001525878906
 11
2.000015258789064
 21
-23.87637976824685
  0
LINE
  5
32f
100
AcDbEntity
  8
0
  6
CONTINUOUS
 62
     7
100
AcDbLine
 10
9.439869315407629
 20
-33.00001525878906
 11
2.000015258789063
 21
-25.56017608186373
  0
LINE
  5
330
100
AcDbEntity
  8
0
  6
CONTINUOUS
 62
     7
100
AcDbLine
 10
7.756069634194748
 20
-33.00001525878906
 11
2.000015258789063
 21
-27.24397239548062
  0
LINE
  5
331
100
AcDbEntity
  8
0
  6
CONTINUOUS
 62
     7
100
AcDbLine
 10
6.072269952981868
 20
-33.00001525878906
 11
2.000015258789061
 21
-28.9277687090975
  0
LINE
  5
332
100
AcDbEntity
  8
0
  6
CONTINUOUS
 62
     7
100
AcDbLine
 10
4.388470271768986
 20
-33.00001525878906
 11
2.000015258789061
 21
-30.61156502271439
  0
LINE
  5
333
100
AcDbEntity
  8
0
  6
CONTINUOUS
 62
     7
100
AcDbLine
 10
2.704670590556106
 20
-33.00001525878906
 11
2.000015258789063
 21
-32.29536133633128
  0
ENDBLK
  8
0
  5
334
100
AcDbEntity
100
AcDbBlockEnd
  0
BLOCK
  8
0
  5
335
100
AcDbEntity
100
AcDbBlockBegin
  2
KOZU0011
 70
    64
 10
0
 20
0
  0
LINE
  5
336
100
AcDbEntity
  8
0
  6
CONTINUOUS
 62
     3
100
AcDbLine
 10
-23.46972211086628
 20
12.05001831054688
 11
-22.99998474121094
 21
12.51975664021081
  0
LINE
  5
337
100
AcDbEntity
  8
0
  6
CONTINUOUS
 62
     3
100
AcDbLine
 10
-25.2657709643026
 20
12.05001831054688
 11
-22.99998474121094
 21
14.31580916425637
  0
LINE
  5
338
100
AcDbEntity
  8
0
  6
CONTINUOUS
 62
     3
100
AcDbLine
 10
-25.99998474121094
 20
13.1118555571615
 11
-22.99998474121094
 21
16.11186168830194
  0
LINE
  5
339
100
AcDbEntity
  8
0
  6
CONTINUOUS
 62
     3
100
AcDbLine
 10
-25.99998474121094
 20
14.90790808120707
 11
-22.99998474121094
 21
17.9079142123475
  0
LINE
  5
33a
100
AcDbEntity
  8
0
  6
CONTINUOUS
 62
     3
100
AcDbLine
 10
-25.99998474121094
 20
16.70396060525263
 11
-24.75393568599957
 21
17.95001220703125
  0
LINE
  5
33b
100
AcDbEntity
  8
0
  6
CONTINUOUS
 62
     3
100
AcDbLine
 10
-22.99998474121094
 20
16.63130103680715
 11
-24.31869860650284
 21
17.95001220703125
  0
LINE
  5
33c
100
AcDbEntity
  8
0
  6
CONTINUOUS
 62
     3
100
AcDbLine
 10
-22.99998474121094
 20
14.83525218337083
 11
-25.99998474121094
 21
17.83524605224293
  0
LINE
  5
33d
100
AcDbEntity
  8
0
  6
CONTINUOUS
 62
     3
100
AcDbLine
 10
-22.99998474121094
 20
13.03920332993451
 11
-25.99998474121094
 21
16.03919719880661
  0
LINE
  5
33e
100
AcDbEntity
  8
0
  6
CONTINUOUS
 62
     3
100
AcDbLine
 10
-23.80685022425811
 20
12.05001831054688
 11
-25.99998474121094
 21
14.24314834537029
  0
LINE
  5
33f
100
AcDbEntity
  8
0
  6
CONTINUOUS
 62
     3
100
AcDbLine
 10
-25.60290274830368
 20
12.05001831054688
 11
-25.99998474121094
 21
12.44709949193398
  0
ENDBLK
  8
0
  5
340
100
AcDbEntity
100
AcDbBlockEnd
  0
BLOCK
  8
0
  5
341
100
AcDbEntity
100
AcDbBlockBegin
  2
KOZU0012
 70
    64
 10
0
 20
0
  0
LINE
  5
342
100
AcDbEntity
  8
0
  6
CONTINUOUS
 62
     7
100
AcDbLine
 10
10.77673848899964
 20
-33.00001525878906
 11
11.99996948242188
 21
-31.77678181890239
  0
LINE
  5
343
100
AcDbEntity
  8
0
  6
CONTINUOUS
 62
     7
100
AcDbLine
 10
9.092942175382751
 20
-33.00001525878906
 11
11.99996948242188
 21
-30.09298213768951
  0
LINE
  5
344
100
AcDbEntity
  8
0
  6
CONTINUOUS
 62
     7
100
AcDbLine
 10
7.409145861765866
 20
-33.00001525878906
 11
11.99996948242188
 21
-28.40918245647663
  0
LINE
  5
345
100
AcDbEntity
  8
0
  6
CONTINUOUS
 62
     7
100
AcDbLine
 10
5.725349548148982
 20
-33.00001525878906
 11
11.99996948242187
 21
-26.72538277526375
  0
LINE
  5
346
100
AcDbEntity
  8
0
  6
CONTINUOUS
 62
     7
100
AcDbLine
 10
4.041553234532101
 20
-33.00001525878906
 11
11.99996948242188
 21
-25.04158309405087
  0
LINE
  5
347
100
AcDbEntity
  8
0
  6
CONTINUOUS
 62
     7
100
AcDbLine
 10
2.357756920915215
 20
-33.00001525878906
 11
11.99996948242188
 21
-23.35778341283799
  0
LINE
  5
348
100
AcDbEntity
  8
0
  6
CONTINUOUS
 62
     7
100
AcDbLine
 10
1.999969482421875
 20
-31.67400373164512
 11
10.67393297793905
 21
-23.00002288818359
  0
LINE
  5
349
100
AcDbEntity
  8
0
  6
CONTINUOUS
 62
     7
100
AcDbLine
 10
1.999969482421873
 20
-29.99020405043223
 11
8.990136664322169
 21
-23.00002288818359
  0
LINE
  5
34a
100
AcDbEntity
  8
0
  6
CONTINUOUS
 62
     7
100
AcDbLine
 10
1.999969482421873
 20
-28.30640436921935
 11
7.306340350705281
 21
-23.00002288818359
  0
LINE
  5
34b
100
AcDbEntity
  8
0
  6
CONTINUOUS
 62
     7
100
AcDbLine
 10
1.999969482421875
 20
-26.62260468800647
 11
5.622544037088398
 21
-23.00002288818359
  0
LINE
  5
34c
100
AcDbEntity
  8
0
  6
CONTINUOUS
 62
     7
100
AcDbLine
 10
1.999969482421873
 20
-24.93880500679359
 11
3.938747723471511
 21
-23.00002288818359
  0
LINE
  5
34d
100
AcDbEntity
  8
0
  6
CONTINUOUS
 62
     7
100
AcDbLine
 10
1.999969482421873
 20
-23.25500532558071
 11
2.254951409854627
 21
-23.00002288818359
  0
LINE
  5
34e
100
AcDbEntity
  8
0
  6
CONTINUOUS
 62
     7
100
AcDbLine
 10
11.99996948242188
 20
-23.7735361102899
 11
11.22645471328758
 21
-23.00002288818359
  0
LINE
  5
34f
100
AcDbEntity
  8
0
  6
CONTINUOUS
 62
     7
100
AcDbLine
 10
11.99996948242187
 20
-25.45733242390678
 11
9.542655032074695
 21
-23.00002288818359
  0
LINE
  5
350
100
AcDbEntity
  8
0
  6
CONTINUOUS
 62
     7
100
AcDbLine
 10
11.99996948242187
 20
-27.14112873752367
 11
7.858855350861816
 21
-23.00002288818359
  0
LINE
  5
351
100
AcDbEntity
  8
0
  6
CONTINUOUS
 62
     7
100
AcDbLine
 10
11.99996948242188
 20
-28.82492505114055
 11
6.175055669648934
 21
-23.00002288818359
  0
LINE
  5
352
100
AcDbEntity
  8
0
  6
CONTINUOUS
 62
     7
100
AcDbLine
 10
11.99996948242187
 20
-30.50872136475744
 11
4.491255988436052
 21
-23.00002288818359
  0
LINE
  5
353
100
AcDbEntity
  8
0
  6
CONTINUOUS
 62
     7
100
AcDbLine
 10
11.99996948242187
 20
-32.19251767837433
 11
2.807456307223173
 21
-23.00002288818359
  0
LINE
  5
354
100
AcDbEntity
  8
0
  6
CONTINUOUS
 62
     7
100
AcDbLine
 10
11.12366899662051
 20
-33.00001525878906
 11
1.999969482421875
 21
-23.87633399197122
  0
LINE
  5
355
100
AcDbEntity
  8
0
  6
CONTINUOUS
 62
     7
100
AcDbLine
 10
9.439869315407629
 20
-33.00001525878906
 11
1.999969482421871
 21
-25.5601303055881
  0
LINE
  5
356
100
AcDbEntity
  8
0
  6
CONTINUOUS
 62
     7
100
AcDbLine
 10
7.756069634194748
 20
-33.00001525878906
 11
1.999969482421875
 21
-27.24392661920498
  0
LINE
  5
357
100
AcDbEntity
  8
0
  6
CONTINUOUS
 62
     7
100
AcDbLine
 10
6.072269952981868
 20
-33.00001525878906
 11
1.999969482421875
 21
-28.92772293282187
  0
LINE
  5
358
100
AcDbEntity
  8
0
  6
CONTINUOUS
 62
     7
100
AcDbLine
 10
4.388470271768986
 20
-33.00001525878906
 11
1.999969482421873
 21
-30.61151924643875
  0
LINE
  5
359
100
AcDbEntity
  8
0
  6
CONTINUOUS
 62
     7
100
AcDbLine
 10
2.704670590556106
 20
-33.00001525878906
 11
1.999969482421875
 21
-32.29531556005564
  0
ENDBLK
  8
0
  5
35a
100
AcDbEntity
100
AcDbBlockEnd
  0
ENDSEC
  0
SECTION
  2
ENTITIES
  0
LINE
  5
35b
100
AcDbEntity
  8
0
  6
CONTINUOUS
 62
     7
100
AcDbLine
 10
180.2014749903149
 20
17.24799788863568
 11
287.6431406397289
 21
17.24799788863568
  0
LINE
  5
35c
100
AcDbEntity
  8
0
  6
CONTINUOUS
 62
     7
100
AcDbLine
 10
180.2015055078931
 20
17.24799788863568
 11
180.2015055078931
 21
-18.67558609573932
  0
LINE
  5
35d
100
AcDbEntity
  8
0
  6
CONTINUOUS
 62
     7
100
AcDbLine
 10
180.2014749903149
 20
-18.67558609573932
 11
287.6431406397289
 21
-18.67558609573932
  0
LINE
  5
35e
100
AcDbEntity
  8
0
  6
CONTINUOUS
 62
     7
100
AcDbLine
 10
287.6431406397289
 20
17.24799788863568
 11
287.6431406397289
 21
-18.67558609573932
  0
MTEXT
  5
35f
100
AcDbEntity
  8
0
  6
CONTINUOUS
 62
     7
100
AcDbMText
 10
184.89823302216
 20
-3.077006689001038
 40
6
 41
72
 71
     7
 72
     1
  1
{\W0.855331;品　名}
  0
MTEXT
  5
360
100
AcDbEntity
  8
0
  6
CONTINUOUS
 62
     7
100
AcDbMText
 10
184.89823302216
 20
-14.19807755081745
 40
6
 41
72
 71
     7
 72
     1
  1
{\W0.855331;型　番}
  0
MTEXT
  5
361
100
AcDbEntity
  8
0
  6
CONTINUOUS
 62
     7
100
AcDbMText
 10
214.5982604879803
 20
-14.19807755081745
 40
6
 41
264
 71
     7
 72
     1
  1
{\W0.844085;ＢＮ－５Ｂ２１－１５Ａ}
  0
MTEXT
  5
362
100
AcDbEntity
  8
0
  6
CONTINUOUS
 62
     7
100
AcDbMText
 10
214.5982604879803
 20
-3.077006689001038
 40
6
 41
168
 71
     7
 72
     1
  1
{\W0.846334;シリンダ操作弁}
  0
MTEXT
  5
363
100
AcDbEntity
  8
0
  6
CONTINUOUS
 62
     7
100
AcDbMText
 10
210.9797051467483
 20
7.142567201092767
 40
6
 41
192
 71
     7
 72
     1
  1
{\W0.845552;日本精器株式会社}
  0
MTEXT
  5
364
100
AcDbEntity
  8
0
  6
CONTINUOUS
 62
     7
100
AcDbMText
 10
84.15761743951725
 20
180.723733585499
 40
8
 41
64
 71
     7
 72
     1
  1
{\W0.864328;＊１}
  0
MTEXT
  5
365
100
AcDbEntity
  8
0
  6
CONTINUOUS
 62
     7
100
AcDbMText
 10
82.55650544166565
 20
220.0100402832031
 40
8
 41
64
 71
     7
 72
     1
  1
{\W0.864328;＊２}
  0
MTEXT
  5
366
100
AcDbEntity
  8
0
  6
CONTINUOUS
 62
     7
100
AcDbMText
 10
-66.37504771992019
 20
182.0270467037625
 40
8
 41
64
 71
     7
 72
     1
  1
{\W0.864328;＊３}
  0
MTEXT
  5
367
100
AcDbEntity
  8
0
  6
CONTINUOUS
 62
     7
100
AcDbMText
 10
154.5365258257477
 20
181.3753901446307
 40
8
 41
64
 71
     7
 72
     1
  1
{\W0.864328;＊４}
  0
MTEXT
  5
368
100
AcDbEntity
  8
0
  6
CONTINUOUS
 62
     7
100
AcDbMText
 10
287.4744638886276
 20
180.0720770263672
 40
8
 41
64
 71
     7
 72
     1
  1
{\W0.864328;＊５}
  0
MTEXT
  5
369
100
AcDbEntity
  8
0
  6
CONTINUOUS
 62
     7
100
AcDbMText
 10
84.15761743951725
 20
9.989715092976866
 40
8
 41
64
 71
     7
 72
     1
  1
{\W0.864328;＊６}
  0
INSERT
  5
36a
100
AcDbEntity
  8
0
  6
CONTINUOUS
 62
     7
100
AcDbBlockReference
  2
KOZU0001
 10
39.96294021606445
 20
110.9584045410156
  0
INSERT
  5
36b
100
AcDbEntity
  8
0
  6
CONTINUOUS
 62
     7
100
AcDbBlockReference
  2
KOZU0002
 10
39.96294021606445
 20
244.6476745605469
  0
INSERT
  5
36c
100
AcDbEntity
  8
0
  6
CONTINUOUS
 62
     7
100
AcDbBlockReference
  2
KOZU0003
 10
-99.54444885253906
 20
110.9584045410156
  0
INSERT
  5
36d
100
AcDbEntity
  8
0
  6
CONTINUOUS
 62
     7
100
AcDbBlockReference
  2
KOZU0004
 10
195.7203216552734
 20
110.9584045410156
  0
INSERT
  5
36e
100
AcDbEntity
  8
0
  6
CONTINUOUS
 62
     7
100
AcDbBlockReference
  2
KOZU0005
 10
331.4777221679688
 20
110.9584045410156
  0
INSERT
  5
36f
100
AcDbEntity
  8
0
  6
CONTINUOUS
 62
     7
100
AcDbBlockReference
  2
KOZU0006
 10
39.96294021606445
 20
-13.84051513671875
  0
LINE
  5
370
100
AcDbEntity
  8
0
  6
CONTINUOUS
 62
     7
100
AcDbLine
 10
39.96291568561776
 20
170.9583668127549
 11
30.34223324192756
 21
186.904239583354
  0
LINE
  5
371
100
AcDbEntity
  8
0
  6
CONTINUOUS
 62
     7
100
AcDbLine
 10
39.96291568561776
 20
170.9583668127549
 11
37.55690551216754
 21
173.0104668943504
  0
LINE
  5
372
100
AcDbEntity
  8
0
  6
CONTINUOUS
 62
     7
100
AcDbLine
 10
39.96291568561776
 20
170.9583668127549
 11
39.26936759581487
 21
174.0436529821014
  0
MTEXT
  5
373
100
AcDbEntity
  8
0
  6
CONTINUOUS
 62
     7
100
AcDbMText
 10
-1.275944352149963
 20
184.9042510986328
 40
4
 41
80
 71
     7
 72
     1
  1
{\W0.848905;Ｒｃ１／４}
  0
MTEXT
  5
374
100
AcDbEntity
  8
0
  6
CONTINUOUS
 62
     7
100
AcDbMText
 10
-1.275944352149963
 20
178.9042510986328
 40
4
 41
48
 71
     7
 72
     1
  1
{\W0.855331;操作口}
  0
LINE
  5
375
100
AcDbEntity
  8
0
  6
CONTINUOUS
 62
     7
100
AcDbLine
 10
39.96291568561776
 20
170.9583668127549
 11
30.34223324192756
 21
186.904239583354
  0
LINE
  5
376
100
AcDbEntity
  8
0
  6
CONTINUOUS
 62
     7
100
AcDbLine
 10
30.34223175048828
 20
186.9042510986328
 11
19.86705589294434
 21
186.9042510986328
  0
LINE
  5
377
100
AcDbEntity
  8
0
  6
CONTINUOUS
 62
     7
100
AcDbLine
 10
169.7160222527958
 20
125.977217481262
 11
157.632562492045
 21
135.3915490282124
  0
LINE
  5
378
100
AcDbEntity
  8
0
  6
CONTINUOUS
 62
     7
100
AcDbLine
 10
169.7160222527958
 20
125.977217481262
 11
166.734898430021
 21
127.0321584525562
  0
LINE
  5
379
100
AcDbEntity
  8
0
  6
CONTINUOUS
 62
     7
100
AcDbLine
 10
169.7160222527958
 20
125.977217481262
 11
167.9640877773525
 21
128.6098445519622
  0
MTEXT
  5
37a
100
AcDbEntity
  8
0
  6
CONTINUOUS
 62
     7
100
AcDbMText
 10
152.4558086873177
 20
135.3915525623905
 40
4
 41
96
 71
     6
 72
     1
  1
{\W0.847393;シリンダＥＸ}
  0
LINE
  5
37b
100
AcDbEntity
  8
0
  6
CONTINUOUS
 62
     7
100
AcDbLine
 10
169.7160222527958
 20
125.977217481262
 11
157.632562492045
 21
135.3915490282124
  0
LINE
  5
37c
100
AcDbEntity
  8
0
  6
CONTINUOUS
 62
     7
100
AcDbLine
 10
157.632562492045
 20
135.3915490282124
 11
153.5988140584115
 21
135.3915490282124
  0
DIMENSION
  5
37d
100
AcDbEntity
  8
0
  6
CONTINUOUS
 62
     7
100
AcDbDimension
  2
*D1
 70
     0
 10
221.7203521728516
 20
58.50932312011719
 11
195.7203521728516
 21
58.50932312011719
  3
DIMSTYLE
100
AcDbAlignedDimension
 13
169.7203369140625
 23
100.9584045410156
 14
221.7203521728516
 24
100.9584045410156
 50
0
100
AcDbRotatedDimension
1001
ACAD
1000
DSTYLE
1002
{
1070
     6
1000
_OPEN30
1070
     7
1000
_OPEN30
1070
    77
1070
     1
1070
   172
1070
     1
1070
    42
1040
0
1002
}
  0
DIMENSION
  5
37e
100
AcDbEntity
  8
0
  6
CONTINUOUS
 62
     7
100
AcDbDimension
  2
*D2
 70
     0
 10
74.96295928955078
 20
47.02635192871094
 11
39.96294021606445
 21
47.02635192871094
  3
DIMSTYLE
100
AcDbAlignedDimension
 13
4.962921142578125
 23
97.45841217041016
 14
74.96295928955078
 24
97.45841217041016
 50
0
100
AcDbRotatedDimension
1001
ACAD
1000
DSTYLE
1002
{
1070
     6
1000
_OPEN30
1070
     7
1000
_OPEN30
1070
    77
1070
     1
1070
   172
1070
     1
1070
    42
1040
0
1002
}
  0
LINE
  5
37f
100
AcDbEntity
  8
0
  6
CONTINUOUS
 62
     7
100
AcDbLine
 10
9.134392314748979
 20
121.577283949674
 11
4.225241791088905
 21
138.3364876849443
  0
LINE
  5
380
100
AcDbEntity
  8
0
  6
CONTINUOUS
 62
     7
100
AcDbLine
 10
9.134392314748979
 20
121.577283949674
 11
7.715740643480754
 21
124.4211642446632
  0
LINE
  5
381
100
AcDbEntity
  8
0
  6
CONTINUOUS
 62
     7
100
AcDbLine
 10
9.134392314748979
 20
121.577283949674
 11
8.794415732540537
 21
124.737132620128
  0
MTEXT
  5
382
100
AcDbEntity
  8
0
  6
CONTINUOUS
 62
     7
100
AcDbMText
 10
-3.702652558304811
 20
138.3364954464606
 40
4
 41
112
 71
     6
 72
     1
  1
{\W0.846334;２－Ｒｃ１／２}
  0
LINE
  5
383
100
AcDbEntity
  8
0
  6
CONTINUOUS
 62
     7
100
AcDbLine
 10
9.134392314748979
 20
121.577283949674
 11
4.225241791088905
 21
138.3364876849443
  0
LINE
  5
384
100
AcDbEntity
  8
0
  6
CONTINUOUS
 62
     7
100
AcDbLine
 10
4.225241791088903
 20
138.3364876849443
 11
-2.55965267083838
 21
138.3364876849443
  0
LINE
  5
385
100
AcDbEntity
  8
0
  6
CONTINUOUS
 62
     7
100
AcDbLine
 10
219.316815901511
 20
125.4584317937442
 11
222.816418567887
 21
136.1810862772142
  0
LINE
  5
386
100
AcDbEntity
  8
0
  6
CONTINUOUS
 62
     7
100
AcDbLine
 10
219.316815901511
 20
125.4584317937442
 11
219.7530687372458
 21
128.6064329309633
  0
LINE
  5
387
100
AcDbEntity
  8
0
  6
CONTINUOUS
 62
     7
100
AcDbLine
 10
219.316815901511
 20
125.4584317937442
 11
220.8215984152904
 21
128.2576919250723
  0
MTEXT
  5
388
100
AcDbEntity
  8
0
  6
CONTINUOUS
 62
     7
100
AcDbMText
 10
226.1410522460938
 20
136.1810913085938
 40
4
 41
80
 71
     4
 72
     1
  1
{\W0.848905;Ｍ５ドレン}
  0
LINE
  5
389
100
AcDbEntity
  8
0
  6
CONTINUOUS
 62
     7
100
AcDbLine
 10
219.316815901511
 20
125.4584317937442
 11
222.816418567887
 21
136.1810862772142
  0
LINE
  5
38a
100
AcDbEntity
  8
0
  6
CONTINUOUS
 62
     7
100
AcDbLine
 10
222.8164215087891
 20
136.1810913085938
 11
224.998046875
 21
136.1810913085938
  0
DIMENSION
  5
38b
100
AcDbEntity
  8
0
  6
CONTINUOUS
 62
     7
100
AcDbDimension
  2
*D3
 70
     0
 10
54.96294021606445
 20
58.50932312011719
 11
39.96294021606445
 21
58.50932312011719
  3
DIMSTYLE
100
AcDbAlignedDimension
 13
24.96294021606445
 23
76.45838928222656
 14
54.96294021606445
 24
76.45838928222656
 50
0
100
AcDbRotatedDimension
1001
ACAD
1000
DSTYLE
1002
{
1070
    77
1070
     1
1070
   172
1070
     1
1070
    42
1040
0
1002
}
  0
DIMENSION
  5
38c
100
AcDbEntity
  8
0
  6
CONTINUOUS
 62
     7
100
AcDbDimension
  2
*D4
 70
     0
 10
92.51469074334104
 20
110.9584045410156
 11
92.51469074334104
 21
92.95839691162109
  3
DIMSTYLE
100
AcDbAlignedDimension
 13
53.46291351318359
 23
74.95838928222656
 14
79.32796478271484
 24
110.9584045410156
 50
90
100
AcDbRotatedDimension
1001
ACAD
1000
DSTYLE
1002
{
1070
    77
1070
     1
1070
   172
1070
     1
1070
    42
1040
0
1002
}
  0
DIMENSION
  5
38d
100
AcDbEntity
  8
0
  6
CONTINUOUS
 62
     7
100
AcDbDimension
  2
*D5
 70
     0
 10
92.51469074334104
 20
110.9584045410156
 11
92.51469074334104
 21
140.9584045410156
  3
DIMSTYLE
100
AcDbAlignedDimension
 13
65.96292114257813
 23
170.9584045410156
 14
79.32796478271484
 24
110.9584045410156
 50
90
100
AcDbRotatedDimension
1001
ACAD
1000
DSTYLE
1002
{
1070
    77
1070
     1
1070
   172
1070
     1
1070
    76
1070
     1
1002
}
  0
DIMENSION
  5
38e
100
AcDbEntity
  8
0
  6
CONTINUOUS
 62
     7
100
AcDbDimension
  2
*D6
 70
     0
 10
104.1083410882129
 20
74.95838928222656
 11
104.1083410882129
 21
122.9583969116211
  3
DIMSTYLE
100
AcDbAlignedDimension
 13
65.96292114257813
 23
170.9584045410156
 14
53.46291351318359
 24
74.95838928222656
 50
90
100
AcDbRotatedDimension
1001
ACAD
1000
DSTYLE
1002
{
1070
    77
1070
     1
1070
   172
1070
     1
1070
    42
1040
0
1002
}
  0
DIMENSION
  5
38f
100
AcDbEntity
  8
0
  6
CONTINUOUS
 62
     7
100
AcDbDimension
  2
*D7
 70
     0
 10
210.7203216552734
 20
105.1405871989934
 11
229.6198359991896
 21
105.1405871989934
  3
DIMSTYLE
100
AcDbAlignedDimension
 13
180.7203216552734
 23
103.0879821777344
 14
210.7203216552734
 24
103.0879821777344
 50
0
100
AcDbRotatedDimension
1001
ACAD
1000
DSTYLE
1002
{
1070
    77
1070
     1
1070
   172
1070
     1
1070
    42
1040
0
1002
}
  0
ENDSEC
  0
SECTION
  2
OBJECTS
  0
DICTIONARY
  5
390
100
AcDbDictionary
  3
ACAD_GROUP
350
391
  3
ACAD_MLINESTYLE
350
392
  0
DICTIONARY
  5
391
102
{ACAD_REACTORS
330
390
102
}
100
AcDbDictionary
  0
DICTIONARY
  5
392
102
{ACAD_REACTORS
330
390
102
}
100
AcDbDictionary
  3
STANDARD
350
393
  0
MLINESTYLE
  5
393
102
{ACAD_REACTORS
330
392
102
}
100
AcDbMlineStyle
  2
STANDARD
 70
     0
  3

 62
     0
 51
90
 52
90
 71
     2
 49
0.5
 62
   256
  6
BYLAYER
 49
-0.5
 62
   256
  6
BYLAYER
  0
ENDSEC
  0
EOF
