  0
SECTION
  2
HEADER
  9
$ACADVER
  1
AC1015
  9
$EXTMAX
 10
434.6426894348705
 20
359.4733640763736
 30
0
  9
$EXTMIN
 10
-203.0684032439619
 20
-95.33592748138267
 30
0
  9
$LIMMAX
 10
434.6426894348705
 20
359.4733640763736
  9
$LIMMIN
 10
-203.0684032439619
 20
-95.33592748138267
  9
$PLIMMAX
 10
434.6426894348705
 20
359.4733640763736
  9
$PLIMMIN
 10
-203.0684032439619
 20
-95.33592748138267
  9
$TEXTSIZE
 40
3.2
  9
$DIMSHO
 70
     0
  9
$DIMASZ
 40
1.0
  9
$DIMTAD
 70
     1
  9
$DIMTIH
 70
     0
  9
$DIMTOH
 70
     0
  9
$DIMEXE
 40
2.54
  9
$DIMEXO
 40
2.54
  9
$DIMTVP
 40
1.0
  9
$DIMSAH
 70
     1
  9
$DIMDLE
 40
0.0
  9
$DIMTXT
 40
4
  9
$DIMGAP
 40
2
  9
$DIMAUNIT
 70
     1
  9
$DIMDEC
 70
     1
  9
$HANDSEED
  5
     388
  9
$MEASUREMENT
 70
     1
  0
ENDSEC
  0
SECTION
  2
TABLES
  0
TABLE
  2
LTYPE
  5
25
100
AcDbSymbolTable
 70
    48
  0
LTYPE
  5
26
100
AcDbSymbolTableRecord
100
AcDbLinetypeTableRecord
  2
BYBLOCK
 70
    64
  3

 72
    65
 73
     0
 40
0.0
  0
LTYPE
  5
27
100
AcDbSymbolTableRecord
100
AcDbLinetypeTableRecord
  2
BYLAYER
 70
    64
  3

 72
    65
 73
     0
 40
0.0
  0
LTYPE
  5
28
100
AcDbSymbolTableRecord
100
AcDbLinetypeTableRecord
  2
CONTINUOUS
 70
    64
  3
Solid line
 72
    65
 73
     0
 40
0.0
  0
LTYPE
  5
29
100
AcDbSymbolTableRecord
100
AcDbLinetypeTableRecord
  2
DASHED
 70
    64
  3
Dashed __ __ __ __ __ __ __ __ __ __ __ __ __ _
 72
    65
 73
     2
 40
4.5
 49
3.0
 74
     0
 49
-1.5
 74
     0
  0
LTYPE
  5
2a
100
AcDbSymbolTableRecord
100
AcDbLinetypeTableRecord
  2
CENTER
 70
    64
  3
Center ____ _ ____ _ ____ _ ____ _ ____ _ ____
 72
    65
 73
     4
 74
     0
 40
12.0
 49
7.5
 74
     0
 49
-1.5
 74
     0
 49
1.5
 74
     0
 49
-1.5
 74
     0
  0
LTYPE
  5
2b
100
AcDbSymbolTableRecord
100
AcDbLinetypeTableRecord
  2
PHANTOM
 70
    64
  3
Phantom ______  __  __  ______  __  __  ______
 72
    65
 73
     6
 74
     0
 40
15.0
 49
7.5
 74
     0
 49
-1.5
 74
     0
 49
1.5
 74
     0
 49
-1.5
 74
     0
 49
1.5
 74
     0
 49
-1.5
 74
     0
  0
LTYPE
  5
2c
100
AcDbSymbolTableRecord
100
AcDbLinetypeTableRecord
  2
DOT
 70
    64
  3
Dot . . . . . . . . . . . . . . . . . . . . . .
 72
    65
 73
     2
 74
     0
 40
1.5
 49
0.0
 74
     0
 49
-1.5
 74
     0
  0
LTYPE
  5
2d
100
AcDbSymbolTableRecord
100
AcDbLinetypeTableRecord
  2
HIDDEN
 70
    64
  3
Hidden __ __ __ __ __ __ __ __ __ __ __ __ __ _
 72
    65
 73
     2
 74
     0
 40
4.5
 49
3.0
 74
     0
 49
-1.5
 74
     0
  0
LTYPE
  5
2e
100
AcDbSymbolTableRecord
100
AcDbLinetypeTableRecord
  2
BORDER
 70
    64
  3
Border __ __ . __ __ . __ __ . __ __ . __ __ .
 72
    65
 73
     6
 40
3.5
 49
1.0
 74
     0
 49
-0.5
 74
     0
 49
1.0
 74
     0
 49
-0.5
 74
     0
 49
0.0
 74
     0
 49
-0.5
 74
     0
  0
LTYPE
  5
2f
100
AcDbSymbolTableRecord
100
AcDbLinetypeTableRecord
  2
BORDER2
 70
    64
  3
Border (.5x) __.__.__.__.__.__.__.__.__.__.__.
 72
    65
 73
     6
 40
1.75
 49
0.5
 74
     0
 49
-0.25
 74
     0
 49
0.5
 74
     0
 49
-0.25
 74
     0
 49
0.0
 74
     0
 49
-0.25
 74
     0
  0
LTYPE
  5
30
100
AcDbSymbolTableRecord
100
AcDbLinetypeTableRecord
  2
BORDERX2
 70
    64
  3
Border (2x) ____  ____  .  ____  ____  .  ___
 72
    65
 73
     6
 40
7.0
 49
2.0
 74
     0
 49
-1.0
 74
     0
 49
2.0
 74
     0
 49
-1.0
 74
     0
 49
0.0
 74
     0
 49
-1.0
 74
     0
  0
LTYPE
  5
31
100
AcDbSymbolTableRecord
100
AcDbLinetypeTableRecord
  2
CENTER2
 70
    64
  3
Center (.5x) ___ _ ___ _ ___ _ ___ _ ___ _ ___
 72
    65
 73
     4
 40
6.0
 49
3.75
 74
     0
 49
-0.75
 74
     0
 49
0.75
 74
     0
 49
-0.75
 74
     0
  0
LTYPE
  5
32
100
AcDbSymbolTableRecord
100
AcDbLinetypeTableRecord
  2
CENTERX2
 70
    64
  3
Center (2x) ________  __  ________  __  _____
 72
    65
 73
     4
 40
24.0
 49
15.0
 74
     0
 49
-3.0
 74
     0
 49
3.0
 74
     0
 49
-3.0
 74
     0
  0
LTYPE
  5
33
100
AcDbSymbolTableRecord
100
AcDbLinetypeTableRecord
  2
DASHDOT
 70
    64
  3
Dash dot __ . __ . __ . __ . __ . __ . __ . __
 72
    65
 73
     4
 40
6.0
 49
3.0
 74
     0
 49
-1.5
 74
     0
 49
0.0
 74
     0
 49
-1.5
 74
     0
  0
LTYPE
  5
34
100
AcDbSymbolTableRecord
100
AcDbLinetypeTableRecord
  2
DASHDOT2
 70
    64
  3
Dash dot (.5x) _._._._._._._._._._._._._._._.
 72
    65
 73
     4
 40
3.0
 49
1.5
 74
     0
 49
-0.75
 74
     0
 49
0.0
 74
     0
 49
-0.75
 74
     0
  0
LTYPE
  5
35
100
AcDbSymbolTableRecord
100
AcDbLinetypeTableRecord
  2
DASHDOTX2
 70
    64
  3
Dash dot (2x) ____  .  ____  .  ____  .  ___
 72
    65
 73
     4
 40
12.0
 49
6.0
 74
     0
 49
-3.0
 74
     0
 49
0.0
 74
     0
 49
-3.0
 74
     0
  0
LTYPE
  5
36
100
AcDbSymbolTableRecord
100
AcDbLinetypeTableRecord
  2
DASHED2
 70
    64
  3
Dashed (.5x) _ _ _ _ _ _ _ _ _ _ _ _ _ _ _ _ _
 72
    65
 73
     2
 40
2.25
 49
1.5
 74
     0
 49
-0.75
 74
     0
  0
LTYPE
  5
37
100
AcDbSymbolTableRecord
100
AcDbLinetypeTableRecord
  2
DASHEDX2
 70
    64
  3
Dashed (2x) ____  ____  ____  ____  ____  ___
 72
    65
 73
     2
 40
9.0
 49
6.0
 74
     0
 49
-3.0
 74
     0
  0
LTYPE
  5
38
100
AcDbSymbolTableRecord
100
AcDbLinetypeTableRecord
  2
DIVIDE
 70
    64
  3
Divide ____ . . ____ . . ____ . . ____ . . ____
 72
    65
 73
     6
 40
7.5
 49
3.0
 74
     0
 49
-1.5
 74
     0
 49
0.0
 74
     0
 49
-1.5
 74
     0
 49
0.0
 74
     0
 49
-1.5
 74
     0
  0
LTYPE
  5
39
100
AcDbSymbolTableRecord
100
AcDbLinetypeTableRecord
  2
DIVIDE2
 70
    64
  3
Divide (.5x) __..__..__..__..__..__..__..__.._
 72
    65
 73
     6
 40
3.75
 49
1.5
 74
     0
 49
-0.75
 74
     0
 49
0.0
 74
     0
 49
-0.75
 74
     0
 49
0.0
 74
     0
 49
-0.75
 74
     0
  0
LTYPE
  5
3a
100
AcDbSymbolTableRecord
100
AcDbLinetypeTableRecord
  2
DIVIDEX2
 70
    64
  3
Divide (2x) ________  .  .  ________  .  .  _
 72
    65
 73
     6
 40
15.0
 49
6.0
 74
     0
 49
-3.0
 74
     0
 49
0.0
 74
     0
 49
-3.0
 74
     0
 49
0.0
 74
     0
 49
-3.0
 74
     0
  0
LTYPE
  5
3b
100
AcDbSymbolTableRecord
100
AcDbLinetypeTableRecord
  2
DOT2
 70
    64
  3
Dot (.5x) .....................................
 72
    65
 73
     2
 40
0.75
 49
0.0
 74
     0
 49
-0.75
 74
     0
  0
LTYPE
  5
3c
100
AcDbSymbolTableRecord
100
AcDbLinetypeTableRecord
  2
DOTX2
 70
    64
  3
Dot (2x) .  .  .  .  .  .  .  .  .  .  .  .  . 
 72
    65
 73
     2
 40
3.0
 49
0.0
 74
     0
 49
-3.0
 74
     0
  0
LTYPE
  5
3d
100
AcDbSymbolTableRecord
100
AcDbLinetypeTableRecord
  2
HIDDEN2
 70
    64
  3
Hidden (.5x) _ _ _ _ _ _ _ _ _ _ _ _ _ _ _ _ _
 72
    65
 73
     2
 40
2.25
 49
1.5
 74
     0
 49
-0.75
 74
     0
  0
LTYPE
  5
3e
100
AcDbSymbolTableRecord
100
AcDbLinetypeTableRecord
  2
HIDDENX2
 70
    64
  3
Hidden (2x) ____ ____ ____ ____ ____ ____ ____
 72
    65
 73
     2
 40
9.0
 49
6.0
 74
     0
 49
-3.0
 74
     0
  0
LTYPE
  5
3f
100
AcDbSymbolTableRecord
100
AcDbLinetypeTableRecord
  2
PHANTOM2
 70
    64
  3
Phantom (.5x) ___ _ _ ___ _ _ ___ _ _ ___ _ _
 72
    65
 73
     6
 40
7.5
 49
3.75
 74
     0
 49
-0.75
 74
     0
 49
0.75
 74
     0
 49
-0.75
 74
     0
 49
0.75
 74
     0
 49
-0.75
 74
     0
  0
LTYPE
  5
40
100
AcDbSymbolTableRecord
100
AcDbLinetypeTableRecord
  2
PHANTOMX2
 70
    64
  3
Phantom (2x) ____________    ____    ____   _
 72
    65
 73
     6
 40
30.0
 49
15.0
 74
     0
 49
-3.0
 74
     0
 49
3.0
 74
     0
 49
-3.0
 74
     0
 49
3.0
 74
     0
 49
-3.0
 74
     0
  0
LTYPE
  5
41
100
AcDbSymbolTableRecord
100
AcDbLinetypeTableRecord
  2
ACAD_ISO02W100
 70
     0
  3
ISO dash __ __ __ __ __ __ __ __ __ __ __ __ __
 72
    65
 73
     2
 40
15.0
 49
12.0
 74
     0
 49
-3.0
 74
     0
  0
LTYPE
  5
42
100
AcDbSymbolTableRecord
100
AcDbLinetypeTableRecord
  2
ACAD_ISO03W100
 70
     0
  3
ISO dash space __    __    __    __    __    __
 72
    65
 73
     2
 40
30.0
 49
12.0
 74
     0
 49
-18.0
 74
     0
  0
LTYPE
  5
43
100
AcDbSymbolTableRecord
100
AcDbLinetypeTableRecord
  2
ACAD_ISO04W100
 70
     0
  3
ISO long-dash dot ____ . ____ . ____ . ____ . _
 72
    65
 73
     4
 40
30.0
 49
24.0
 74
     0
 49
-3.0
 74
     0
 49
0.0
 74
     0
 49
-3.0
 74
     0
  0
LTYPE
  5
44
100
AcDbSymbolTableRecord
100
AcDbLinetypeTableRecord
  2
ACAD_ISO05W100
 70
     0
  3
ISO long-dash double-dot ____ .. ____ .. ____ .
 72
    65
 73
     6
 40
33.0
 49
24.0
 74
     0
 49
-3.0
 74
     0
 49
0.0
 74
     0
 49
-3.0
 74
     0
 49
0.0
 74
     0
 49
-3.0
 74
     0
  0
LTYPE
  5
45
100
AcDbSymbolTableRecord
100
AcDbLinetypeTableRecord
  2
ACAD_ISO06W100
 70
     0
  3
ISO long-dash triple-dot ____ ... ____ ... ____
 72
    65
 73
     8
 40
36.0
 49
24.0
 74
     0
 49
-3.0
 74
     0
 49
0.0
 74
     0
 49
-3.0
 74
     0
 49
0.0
 74
     0
 49
-3.0
 74
     0
 49
0.0
 74
     0
 49
-3.0
 74
     0
  0
LTYPE
  5
46
100
AcDbSymbolTableRecord
100
AcDbLinetypeTableRecord
  2
ACAD_ISO07W100
 70
     0
  3
ISO dot . . . . . . . . . . . . . . . . . . . .
 72
    65
 73
     2
 40
3.0
 49
0.0
 74
     0
 49
-3.0
 74
     0
  0
LTYPE
  5
47
100
AcDbSymbolTableRecord
100
AcDbLinetypeTableRecord
  2
ACAD_ISO08W100
 70
     0
  3
ISO long-dash short-dash ____ __ ____ __ ____ _
 72
    65
 73
     4
 40
36.0
 49
24.0
 74
     0
 49
-3.0
 74
     0
 49
6.0
 74
     0
 49
-3.0
 74
     0
  0
LTYPE
  5
48
100
AcDbSymbolTableRecord
100
AcDbLinetypeTableRecord
  2
ACAD_ISO09W100
 70
     0
  3
ISO long-dash double-short-dash ____ __ __ ____
 72
    65
 73
     6
 40
45.0
 49
24.0
 74
     0
 49
-3.0
 74
     0
 49
6.0
 74
     0
 49
-3.0
 74
     0
 49
6.0
 74
     0
 49
-3.0
 74
     0
  0
LTYPE
  5
49
100
AcDbSymbolTableRecord
100
AcDbLinetypeTableRecord
  2
ACAD_ISO10W100
 70
     0
  3
ISO dash dot __ . __ . __ . __ . __ . __ . __ .
 72
    65
 73
     4
 40
18.0
 49
12.0
 74
     0
 49
-3.0
 74
     0
 49
0.0
 74
     0
 49
-3.0
 74
     0
  0
LTYPE
  5
4a
100
AcDbSymbolTableRecord
100
AcDbLinetypeTableRecord
  2
ACAD_ISO11W100
 70
     0
  3
ISO double-dash dot __ __ . __ __ . __ __ . __ 
 72
    65
 73
     6
 40
33.0
 49
12.0
 74
     0
 49
-3.0
 74
     0
 49
12.0
 74
     0
 49
-3.0
 74
     0
 49
0.0
 74
     0
 49
-3.0
 74
     0
  0
LTYPE
  5
4b
100
AcDbSymbolTableRecord
100
AcDbLinetypeTableRecord
  2
ACAD_ISO12W100
 70
     0
  3
ISO dash double-dot __ . . __ . . __ . . __ . .
 72
    65
 73
     6
 40
21.0
 49
12.0
 74
     0
 49
-3.0
 74
     0
 49
0.0
 74
     0
 49
-3.0
 74
     0
 49
0.0
 74
     0
 49
-3.0
 74
     0
  0
LTYPE
  5
4c
100
AcDbSymbolTableRecord
100
AcDbLinetypeTableRecord
  2
ACAD_ISO13W100
 70
     0
  3
ISO double-dash double-dot __ __ . . __ __ . . 
 72
    65
 73
     8
 40
36.0
 49
12.0
 74
     0
 49
-3.0
 74
     0
 49
12.0
 74
     0
 49
-3.0
 74
     0
 49
0.0
 74
     0
 49
-3.0
 74
     0
 49
0.0
 74
     0
 49
-3.0
 74
     0
  0
LTYPE
  5
4d
100
AcDbSymbolTableRecord
100
AcDbLinetypeTableRecord
  2
ACAD_ISO14W100
 70
     0
  3
ISO dash triple-dot __ . . . __ . . . __ . . . 
 72
    65
 73
     8
 40
24.0
 49
12.0
 74
     0
 49
-3.0
 74
     0
 49
0.0
 74
     0
 49
-3.0
 74
     0
 49
0.0
 74
     0
 49
-3.0
 74
     0
 49
0.0
 74
     0
 49
-3.0
 74
     0
  0
LTYPE
  5
4e
100
AcDbSymbolTableRecord
100
AcDbLinetypeTableRecord
  2
ACAD_ISO15W100
 70
     0
  3
ISO double-dash triple-dot __ __ . . . __ __ . 
 72
    65
 73
    10
 40
39.0
 49
12.0
 74
     0
 49
-3.0
 74
     0
 49
12.0
 74
     0
 49
-3.0
 74
     0
 49
0.0
 74
     0
 49
-3.0
 74
     0
 49
0.0
 74
     0
 49
-3.0
 74
     0
 49
0.0
 74
     0
 49
-3.0
 74
     0
  0
LTYPE
  5
4f
100
AcDbSymbolTableRecord
100
AcDbLinetypeTableRecord
  2
FENCELINE1
 70
     0
  3
Fenceline circle ----0-----0----0-----0----0---
 72
    65
 73
     4
 40
1.45
 49
0.25
 74
     0
 49
-0.1
 74
     4
 75
   133
340
24
 46
0.1
 50
0.0
 44
-0.1
 45
0.0
 49
-0.1
 74
     0
 49
1.0
 74
     0
  0
LTYPE
  5
50
100
AcDbSymbolTableRecord
100
AcDbLinetypeTableRecord
  2
FENCELINE2
 70
     0
  3
Fenceline square ----[]-----[]----[]-----[]----
 72
    65
 73
     4
 40
1.45
 49
0.25
 74
     0
 49
-0.1
 74
     4
 75
   132
340
24
 46
0.1
 50
0.0
 44
-0.1
 45
0.0
 49
-0.1
 74
     0
 49
1.0
 74
     0
  0
LTYPE
  5
51
100
AcDbSymbolTableRecord
100
AcDbLinetypeTableRecord
  2
TRACKS
 70
     0
  3
Tracks -|-|-|-|-|-|-|-|-|-|-|-|-|-|-|-|-|-|-|-|
 72
    65
 73
     2
 40
0.3
 49
0.15
 74
     4
 75
   130
340
24
 46
0.25
 50
0.0
 44
0.0
 45
0.0
 49
0.15
 74
     0
  0
LTYPE
  5
52
100
AcDbSymbolTableRecord
100
AcDbLinetypeTableRecord
  2
BATTING
 70
     0
  3
Batting SSSSSSSSSSSSSSSSSSSSSSSSSSSSSSSSSSSSSSS
 72
    65
 73
     4
 40
0.4001000000000002
 49
0.0001
 74
     0
 49
-0.1
 74
     4
 75
   134
340
24
 46
0.1
 50
0.0
 44
-0.1
 45
0.0
 49
-0.2
 74
     4
 75
   134
340
24
 46
0.1
 50
180.0
 44
0.1
 45
0.0
 49
-0.1
 74
     0
  0
LTYPE
  5
53
100
AcDbSymbolTableRecord
100
AcDbLinetypeTableRecord
  2
HOT_WATER_SUPPLY
 70
     0
  3
Hot water supply ---- HW ---- HW ---- HW ----
 72
    65
 73
     3
 40
0.9
 49
0.5
 74
     0
 49
-0.2
 74
     2
 75
     1
340
23
 46
0.1
 50
0.0
 44
-0.1
 45
-0.05
  9
HW
 49
-0.2
 74
     0
  0
LTYPE
  5
54
100
AcDbSymbolTableRecord
100
AcDbLinetypeTableRecord
  2
GAS_LINE
 70
     0
  3
Gas line ----GAS----GAS----GAS----GAS----GAS---
 72
    65
 73
     3
 40
0.95
 49
0.5
 74
     0
 49
-0.2
 74
     2
 75
     1
340
23
 46
0.1
 50
0.0
 44
-0.1
 45
-0.05
  9
GAS
 49
-0.25
 74
     0
  0
LTYPE
  5
55
100
AcDbSymbolTableRecord
100
AcDbLinetypeTableRecord
  2
ZIGZAG
 70
     0
  3
Zig zag /\/\/\/\/\/\/\/\/\/\/\/\/\/\/\/\/\/\/\/
 72
    65
 73
     4
 40
0.8001000000000001
 49
0.0001
 74
     0
 49
-0.2
 74
     4
 75
   131
340
24
 46
0.2
 50
0.0
 44
-0.2
 45
0.0
 49
-0.4
 74
     4
 75
   131
340
24
 46
0.2
 50
180.0
 44
0.2
 45
0.0
 49
-0.2
 74
     0
  0
ENDTAB
  0
TABLE
  2
LAYER
  5
c8
100
AcDbSymbolTable
 70
     2
  0
LAYER
  5
c9
100
AcDbSymbolTableRecord
100
AcDbLayerTableRecord
  2
0
 70
     0
 62
     7
  6
CONTINUOUS
390
F
  0
LAYER
  5
ca
100
AcDbSymbolTableRecord
100
AcDbLayerTableRecord
  2
DEFPOINTS
 70
     0
 62
     7
  6
CONTINUOUS
290
0
390
F
  0
ENDTAB
  0
TABLE
  2
STYLE
  5
cb
100
AcDbSymbolTable
 70
     2
  0
STYLE
  5
      23
100
AcDbSymbolTableRecord
100
AcDbTextStyleTableRecord
  2
STANDARD
 70
     0
 40
0.0
 41
1.0
 50
0.0
 71
     0
 42
0.2
  3
txt
  4
BIGFONT
  0
STYLE
  5
24
100
AcDbSymbolTableRecord
100
AcDbTextStyleTableRecord
  2

 70
     1
 40
0.0
 41
1.0
 50
0.0
 71
     0
 42
0.2
  3
ltypeshp.shx
  4

  0
ENDTAB
  0
TABLE
  2
DIMSTYLE
  5
cc
100
AcDbSymbolTable
100
AcDbDimStyleTable
 70
     1
  0
DIMSTYLE
105
cd
100
AcDbSymbolTableRecord
100
AcDbDimStyleTableRecord
  2
DIMSTYLE
 70
     0
  3

  4

  5
_OPEN
  6
_OPEN
  7
_OPEN
 40
1
 41
1
 42
0.009999999776482582
 43
0.38
 44
2.54
 45
0
 46
0
 47
0
 48
0
140
4
141
0.09
142
0
143
25.4
144
1
145
0
146
1
147
2
 71
     0
 72
     0
 73
     0
 74
     0
 75
     0
 76
     0
 78
     0
170
     0
171
     2
 77
     0
172
     0
173
     1
174
     0
175
     0
176
     0
177
     0
178
     0
271
     1
275
     1
340
23
  0
ENDTAB
  0
TABLE
  2
APPID
  5
ce
100
AcDbSymbolTable
 70
     1
  0
APPID
  5
cf
100
AcDbSymbolTableRecord
100
AcDbRegAppTableRecord
  2
ACAD
 70
     0
  0
ENDTAB
  0
TABLE
  2
VIEW
  5
d0
100
AcDbSymbolTable
 70
     0
  0
ENDTAB
  0
TABLE
  2
UCS
  5
d1
100
AcDbSymbolTable
 70
     0
  0
ENDTAB
  0
TABLE
  2
BLOCK_RECORD
  5
d2
100
AcDbSymbolTable
 70
    23
  0
BLOCK_RECORD
  5
d3
100
AcDbSymbolTableRecord
100
AcDbBlockTableRecord
  2
*MODEL_SPACE
  0
BLOCK_RECORD
  5
d4
100
AcDbSymbolTableRecord
100
AcDbBlockTableRecord
  2
*PAPER_SPACE
  0
BLOCK_RECORD
  5
d5
100
AcDbSymbolTableRecord
100
AcDbBlockTableRecord
  2
_OPEN
  0
BLOCK_RECORD
  5
d6
100
AcDbSymbolTableRecord
100
AcDbBlockTableRecord
  2
_OPEN30
  0
BLOCK_RECORD
  5
d7
100
AcDbSymbolTableRecord
100
AcDbBlockTableRecord
  2
KOZU0001
  0
BLOCK_RECORD
  5
d8
100
AcDbSymbolTableRecord
100
AcDbBlockTableRecord
  2
KOZU0002
  0
BLOCK_RECORD
  5
d9
100
AcDbSymbolTableRecord
100
AcDbBlockTableRecord
  2
KOZU0003
  0
BLOCK_RECORD
  5
da
100
AcDbSymbolTableRecord
100
AcDbBlockTableRecord
  2
KOZU0004
  0
BLOCK_RECORD
  5
db
100
AcDbSymbolTableRecord
100
AcDbBlockTableRecord
  2
KOZU0005
  0
BLOCK_RECORD
  5
dc
100
AcDbSymbolTableRecord
100
AcDbBlockTableRecord
  2
KOZU0006
  0
BLOCK_RECORD
  5
dd
100
AcDbSymbolTableRecord
100
AcDbBlockTableRecord
  2
KOZU0007
  0
BLOCK_RECORD
  5
de
100
AcDbSymbolTableRecord
100
AcDbBlockTableRecord
  2
KOZU0008
  0
BLOCK_RECORD
  5
df
100
AcDbSymbolTableRecord
100
AcDbBlockTableRecord
  2
KOZU0009
  0
BLOCK_RECORD
  5
e0
100
AcDbSymbolTableRecord
100
AcDbBlockTableRecord
  2
KOZU0010
  0
BLOCK_RECORD
  5
e1
100
AcDbSymbolTableRecord
100
AcDbBlockTableRecord
  2
KOZU0011
  0
BLOCK_RECORD
  5
e2
100
AcDbSymbolTableRecord
100
AcDbBlockTableRecord
  2
KOZU0012
  0
BLOCK_RECORD
  5
e3
100
AcDbSymbolTableRecord
100
AcDbBlockTableRecord
  2
*D1
  0
BLOCK_RECORD
  5
e4
100
AcDbSymbolTableRecord
100
AcDbBlockTableRecord
  2
*D2
  0
BLOCK_RECORD
  5
e5
100
AcDbSymbolTableRecord
100
AcDbBlockTableRecord
  2
*D3
  0
BLOCK_RECORD
  5
e6
100
AcDbSymbolTableRecord
100
AcDbBlockTableRecord
  2
*D4
  0
BLOCK_RECORD
  5
e7
100
AcDbSymbolTableRecord
100
AcDbBlockTableRecord
  2
*D5
  0
BLOCK_RECORD
  5
e8
100
AcDbSymbolTableRecord
100
AcDbBlockTableRecord
  2
*D6
  0
BLOCK_RECORD
  5
e9
100
AcDbSymbolTableRecord
100
AcDbBlockTableRecord
  2
*D7
  0
ENDTAB
  0
TABLE
  2
VPORT
  5
ea
100
AcDbSymbolTable
 70
     0
  0
ENDTAB
  0
ENDSEC
  0
SECTION
  2
BLOCKS
  0
BLOCK
  8
0
  5
eb
100
AcDbEntity
100
AcDbBlockBegin
  2
*MODEL_SPACE
 70
     0
 10
0
 20
0
  3
*MODEL_SPACE
  0
ENDBLK
  8
0
  5
ec
100
AcDbEntity
100
AcDbBlockEnd
  0
BLOCK
  8
0
  5
ed
 67
     1
100
AcDbEntity
100
AcDbBlockBegin
  2
*PAPER_SPACE
 70
     0
 10
0
 20
0
  3
*PAPER_SPACE
  0
ENDBLK
  8
0
  5
ee
 67
     1
100
AcDbEntity
100
AcDbBlockEnd
  0
BLOCK
  8
0
  5
ef
100
AcDbEntity
100
AcDbBlockBegin
  2
_OPEN
 70
    64
 10
0
 20
0
  3
_OPEN
  0
LINE
  5
f0
100
AcDbEntity
  8
0
  6
BYBLOCK
 62
     0
100
AcDbLine
 10
0
 20
0
 11
-3.12799995302215
 21
-0.5619999915596265
  0
LINE
  5
f1
100
AcDbEntity
  8
0
  6
BYBLOCK
 62
     0
100
AcDbLine
 10
0
 20
0
 11
-3.127999953022157
 21
0.5619999915595884
  0
LINE
  5
f2
100
AcDbEntity
  8
0
  6
BYBLOCK
 62
     0
100
AcDbLine
 10
0
 20
0
 11
-2.99999995494452
 21
0
  0
ENDBLK
  8
0
  5
f3
100
AcDbEntity
100
AcDbBlockEnd
  0
BLOCK
  8
0
  5
f4
100
AcDbEntity
100
AcDbBlockBegin
  2
_OPEN30
 70
    64
 10
0
 20
0
  3
_OPEN30
  0
LINE
  5
f5
100
AcDbEntity
  8
0
  6
BYBLOCK
 62
     0
100
AcDbLine
 10
0
 20
0
 11
-2.999999954944514
 21
-0.9999999849815249
  0
LINE
  5
f6
100
AcDbEntity
  8
0
  6
BYBLOCK
 62
     0
100
AcDbLine
 10
0
 20
0
 11
-2.999999954944526
 21
0.9999999849814883
  0
LINE
  5
f7
100
AcDbEntity
  8
0
  6
BYBLOCK
 62
     0
100
AcDbLine
 10
0
 20
0
 11
-2.99999995494452
 21
0
  0
ENDBLK
  8
0
  5
f8
100
AcDbEntity
100
AcDbBlockEnd
  0
BLOCK
  8
0
  5
f9
100
AcDbEntity
100
AcDbBlockBegin
  2
*D1
 70
    65
 10
0
 20
0
  0
MTEXT
  5
fa
100
AcDbEntity
  8
0
  6
CONTINUOUS
 62
     7
100
AcDbMText
 10
28.45013427734375
 20
33.03852081298828
 40
5
 41
60
 71
     8
 72
     1
  1
{\W0.855331;１００}
  0
LINE
  5
fb
100
AcDbEntity
  8
0
  6
CONTINUOUS
 62
     7
100
AcDbLine
 10
-18.54986767506036
 20
33.03852081298828
 11
75.45013432239924
 21
33.03852081298826
  0
INSERT
  5
fc
100
AcDbEntity
  8
0
  6
CONTINUOUS
 62
     7
100
AcDbBlockReference
  2
_OPEN30
 10
-21.54986763000488
 20
33.03852081298828
 41
1
 42
1
 43
1
 50
180.0000000000004
  0
INSERT
  5
fd
100
AcDbEntity
  8
0
  6
CONTINUOUS
 62
     7
100
AcDbBlockReference
  2
_OPEN30
 10
78.45013427734375
 20
33.03852081298828
 41
1
 42
1
 43
1
  0
LINE
  5
fe
100
AcDbEntity
  8
0
  6
CONTINUOUS
 62
     7
100
AcDbLine
 10
-21.54983520507813
 20
82.44750213623047
 11
-21.54983520507813
 21
29.46726799011231
  0
LINE
  5
ff
100
AcDbEntity
  8
0
  6
CONTINUOUS
 62
     7
100
AcDbLine
 10
78.45016479492188
 20
82.44750213623047
 11
78.45016479492188
 21
29.46726799011231
  0
POINT
  5
100
100
AcDbEntity
  8
DEFPOINTS
  6
CONTINUOUS
 62
     7
100
AcDbPoint
 10
-21.54983520507813
 20
82.44750213623047
  0
POINT
  5
101
100
AcDbEntity
  8
DEFPOINTS
  6
CONTINUOUS
 62
     7
100
AcDbPoint
 10
78.45016479492188
 20
82.44750213623047
  0
POINT
  5
102
100
AcDbEntity
  8
DEFPOINTS
  6
CONTINUOUS
 62
     7
100
AcDbPoint
 10
78.45013427734375
 20
33.03852081298828
  0
ENDBLK
  8
0
  5
103
100
AcDbEntity
100
AcDbBlockEnd
  0
BLOCK
  8
0
  5
104
100
AcDbEntity
100
AcDbBlockBegin
  2
*D2
 70
    65
 10
0
 20
0
  0
MTEXT
  5
105
100
AcDbEntity
  8
0
  6
CONTINUOUS
 62
     7
100
AcDbMText
 10
197.8251495361328
 20
33.03852081298828
 40
5
 41
60
 71
     8
 72
     1
  1
{\W0.855331;□６０}
  0
LINE
  5
106
100
AcDbEntity
  8
0
  6
CONTINUOUS
 62
     7
100
AcDbLine
 10
170.8251342322883
 20
33.03852081298828
 11
224.8251495811883
 21
33.03852081298826
  0
INSERT
  5
107
100
AcDbEntity
  8
0
  6
CONTINUOUS
 62
     7
100
AcDbBlockReference
  2
_OPEN30
 10
167.8251342773438
 20
33.03852081298828
 41
1
 42
1
 43
1
 50
180.0000000000004
  0
INSERT
  5
108
100
AcDbEntity
  8
0
  6
CONTINUOUS
 62
     7
100
AcDbBlockReference
  2
_OPEN30
 10
227.8251495361328
 20
33.03852081298828
 41
1
 42
1
 43
1
  0
LINE
  5
109
100
AcDbEntity
  8
0
  6
CONTINUOUS
 62
     7
100
AcDbLine
 10
167.8251647949219
 20
83.44749450683594
 11
167.8251647949219
 21
29.46726799011231
  0
LINE
  5
10a
100
AcDbEntity
  8
0
  6
CONTINUOUS
 62
     7
100
AcDbLine
 10
227.8251647949219
 20
83.44749450683594
 11
227.8251647949219
 21
29.46726799011231
  0
POINT
  5
10b
100
AcDbEntity
  8
DEFPOINTS
  6
CONTINUOUS
 62
     7
100
AcDbPoint
 10
167.8251647949219
 20
83.44749450683594
  0
POINT
  5
10c
100
AcDbEntity
  8
DEFPOINTS
  6
CONTINUOUS
 62
     7
100
AcDbPoint
 10
227.8251647949219
 20
83.44749450683594
  0
POINT
  5
10d
100
AcDbEntity
  8
DEFPOINTS
  6
CONTINUOUS
 62
     7
100
AcDbPoint
 10
227.8251495361328
 20
33.03852081298828
  0
ENDBLK
  8
0
  5
10e
100
AcDbEntity
100
AcDbBlockEnd
  0
BLOCK
  8
0
  5
10f
100
AcDbEntity
100
AcDbBlockBegin
  2
*D3
 70
    65
 10
0
 20
0
  0
LINE
  5
110
100
AcDbEntity
  8
0
  6
CONTINUOUS
 62
     7
100
AcDbLine
 10
8.950149491077333
 20
44.17739105224609
 11
47.95014958118829
 21
44.17739105224607
  0
INSERT
  5
111
100
AcDbEntity
  8
0
  6
CONTINUOUS
 62
     7
100
AcDbBlockReference
  2
_OPEN
 10
5.950149536132813
 20
44.17739105224609
 41
1
 42
1
 43
1
 50
180.0000000000004
  0
INSERT
  5
112
100
AcDbEntity
  8
0
  6
CONTINUOUS
 62
     7
100
AcDbBlockReference
  2
_OPEN
 10
50.95014953613281
 20
44.17739105224609
 41
1
 42
1
 43
1
  0
LINE
  5
113
100
AcDbEntity
  8
0
  6
CONTINUOUS
 62
     7
100
AcDbLine
 10
5.950149536132813
 20
63.447509765625
 11
5.950149536132813
 21
41.89139105224609
  0
LINE
  5
114
100
AcDbEntity
  8
0
  6
CONTINUOUS
 62
     7
100
AcDbLine
 10
50.95014953613281
 20
63.44067383770017
 11
50.95014953613281
 21
41.89139105224609
  0
MTEXT
  5
115
100
AcDbEntity
  8
0
  6
CONTINUOUS
 62
     7
100
AcDbMText
 10
28.45014953613281
 20
44.17739105224609
 40
5
 41
110
 71
     8
 72
     1
  1
{\W0.855331;\U+2205４５}
  0
POINT
  5
116
100
AcDbEntity
  8
DEFPOINTS
  6
CONTINUOUS
 62
     7
100
AcDbPoint
 10
5.950149536132813
 20
63.447509765625
  0
POINT
  5
117
100
AcDbEntity
  8
DEFPOINTS
  6
CONTINUOUS
 62
     7
100
AcDbPoint
 10
50.95014953613281
 20
63.44067383770017
  0
POINT
  5
118
100
AcDbEntity
  8
DEFPOINTS
  6
CONTINUOUS
 62
     7
100
AcDbPoint
 10
50.95014953613281
 20
44.17739105224609
  0
ENDBLK
  8
0
  5
119
100
AcDbEntity
100
AcDbBlockEnd
  0
BLOCK
  8
0
  5
11a
100
AcDbEntity
100
AcDbBlockBegin
  2
*D4
 70
    65
 10
0
 20
0
  0
LINE
  5
11b
100
AcDbEntity
  8
0
  6
CONTINUOUS
 62
     7
100
AcDbLine
 10
96.42138574013991
 20
64.44750590587225
 11
96.42138574013995
 21
100.4475098106805
  0
INSERT
  5
11c
100
AcDbEntity
  8
0
  6
CONTINUOUS
 62
     7
100
AcDbBlockReference
  2
_OPEN
 10
96.42138574013993
 20
61.44750595092773
 41
1
 42
1
 43
1
 50
270.0000000000005
  0
INSERT
  5
11d
100
AcDbEntity
  8
0
  6
CONTINUOUS
 62
     7
100
AcDbBlockReference
  2
_OPEN
 10
96.42138574013993
 20
103.447509765625
 41
1
 42
1
 43
1
 50
90.00000000000019
  0
LINE
  5
11e
100
AcDbEntity
  8
0
  6
CONTINUOUS
 62
     7
100
AcDbLine
 10
48.95012283325195
 20
61.44750595092773
 11
98.70738574013993
 21
61.44750595092773
  0
LINE
  5
11f
100
AcDbEntity
  8
0
  6
CONTINUOUS
 62
     7
100
AcDbLine
 10
81.46904373168945
 20
103.447509765625
 11
98.70738574013993
 21
103.447509765625
  0
MTEXT
  5
120
100
AcDbEntity
  8
0
  6
CONTINUOUS
 62
     7
100
AcDbMText
 10
96.42138574013993
 20
82.44750785827637
 40
5
 41
40
 71
     8
 72
     1
  1
{\W0.864328;４２}
 11
0
 21
1
  0
POINT
  5
121
100
AcDbEntity
  8
DEFPOINTS
  6
CONTINUOUS
 62
     7
100
AcDbPoint
 10
48.95012283325195
 20
61.44750595092773
  0
POINT
  5
122
100
AcDbEntity
  8
DEFPOINTS
  6
CONTINUOUS
 62
     7
100
AcDbPoint
 10
81.46904373168945
 20
103.447509765625
  0
POINT
  5
123
100
AcDbEntity
  8
DEFPOINTS
  6
CONTINUOUS
 62
     7
100
AcDbPoint
 10
96.42138574013993
 20
103.447509765625
  0
ENDBLK
  8
0
  5
124
100
AcDbEntity
100
AcDbBlockEnd
  0
BLOCK
  8
0
  5
125
100
AcDbEntity
100
AcDbBlockBegin
  2
*D5
 70
    65
 10
0
 20
0
  0
LINE
  5
126
100
AcDbEntity
  8
0
  6
CONTINUOUS
 62
     7
100
AcDbLine
 10
96.42138574013991
 20
106.4475097205695
 11
96.42138574013995
 21
176.4475250694696
  0
INSERT
  5
127
100
AcDbEntity
  8
0
  6
CONTINUOUS
 62
     7
100
AcDbBlockReference
  2
_OPEN
 10
96.42138574013993
 20
103.447509765625
 41
1
 42
1
 43
1
 50
270.0000000000005
  0
INSERT
  5
128
100
AcDbEntity
  8
0
  6
CONTINUOUS
 62
     7
100
AcDbBlockReference
  2
_OPEN
 10
96.42138574013993
 20
179.4475250244141
 41
1
 42
1
 43
1
 50
90.00000000000019
  0
LINE
  5
129
100
AcDbEntity
  8
0
  6
CONTINUOUS
 62
     7
100
AcDbLine
 10
58.45013427734375
 20
179.4475250244141
 11
98.70738574013993
 21
179.4475250244141
  0
MTEXT
  5
12a
100
AcDbEntity
  8
0
  6
CONTINUOUS
 62
     7
100
AcDbMText
 10
96.42138574013993
 20
141.4475173950195
 40
5
 41
40
 71
     8
 72
     1
  1
{\W0.864328;７６}
 11
0
 21
1
  0
POINT
  5
12b
100
AcDbEntity
  8
DEFPOINTS
  6
CONTINUOUS
 62
     7
100
AcDbPoint
 10
81.46904373168945
 20
103.447509765625
  0
POINT
  5
12c
100
AcDbEntity
  8
DEFPOINTS
  6
CONTINUOUS
 62
     7
100
AcDbPoint
 10
58.45013427734375
 20
179.4475250244141
  0
POINT
  5
12d
100
AcDbEntity
  8
DEFPOINTS
  6
CONTINUOUS
 62
     7
100
AcDbPoint
 10
96.42138574013993
 20
179.4475250244141
  0
ENDBLK
  8
0
  5
12e
100
AcDbEntity
100
AcDbBlockEnd
  0
BLOCK
  8
0
  5
12f
100
AcDbEntity
100
AcDbBlockBegin
  2
*D6
 70
    65
 10
0
 20
0
  0
LINE
  5
130
100
AcDbEntity
  8
0
  6
CONTINUOUS
 62
     7
100
AcDbLine
 10
106.9526496411933
 20
176.4475250694696
 11
106.9526496411933
 21
64.44750590587225
  0
INSERT
  5
131
100
AcDbEntity
  8
0
  6
CONTINUOUS
 62
     7
100
AcDbBlockReference
  2
_OPEN
 10
106.9526496411933
 20
179.4475250244141
 41
1
 42
1
 43
1
 50
90.00000000000019
  0
INSERT
  5
132
100
AcDbEntity
  8
0
  6
CONTINUOUS
 62
     7
100
AcDbBlockReference
  2
_OPEN
 10
106.9526496411933
 20
61.44750595092773
 41
1
 42
1
 43
1
 50
270.0000000000005
  0
LINE
  5
133
100
AcDbEntity
  8
0
  6
CONTINUOUS
 62
     7
100
AcDbLine
 10
58.45013427734375
 20
179.4475250244141
 11
109.2386496411933
 21
179.4475250244141
  0
LINE
  5
134
100
AcDbEntity
  8
0
  6
CONTINUOUS
 62
     7
100
AcDbLine
 10
48.95012283325195
 20
61.44750595092773
 11
109.2386496411933
 21
61.44750595092773
  0
MTEXT
  5
135
100
AcDbEntity
  8
0
  6
CONTINUOUS
 62
     7
100
AcDbMText
 10
106.9526496411933
 20
120.4475154876709
 40
5
 41
60
 71
     8
 72
     1
  1
{\W0.855331;１１８}
 11
0
 21
1
  0
POINT
  5
136
100
AcDbEntity
  8
DEFPOINTS
  6
CONTINUOUS
 62
     7
100
AcDbPoint
 10
58.45013427734375
 20
179.4475250244141
  0
POINT
  5
137
100
AcDbEntity
  8
DEFPOINTS
  6
CONTINUOUS
 62
     7
100
AcDbPoint
 10
48.95012283325195
 20
61.44750595092773
  0
POINT
  5
138
100
AcDbEntity
  8
DEFPOINTS
  6
CONTINUOUS
 62
     7
100
AcDbPoint
 10
106.9526496411933
 20
61.44750595092773
  0
ENDBLK
  8
0
  5
139
100
AcDbEntity
100
AcDbBlockEnd
  0
BLOCK
  8
0
  5
13a
100
AcDbEntity
100
AcDbBlockBegin
  2
*D7
 70
    65
 10
0
 20
0
  0
LINE
  5
13b
100
AcDbEntity
  8
0
  6
CONTINUOUS
 62
     7
100
AcDbLine
 10
219.8251724243164
 20
94.22135023580167
 11
244.6992339797472
 21
94.22135023580167
  0
LINE
  5
13c
100
AcDbEntity
  8
0
  6
CONTINUOUS
 62
     7
100
AcDbLine
 10
178.8251761939582
 20
94.22135023580167
 11
216.8251724693719
 21
94.22135023580165
  0
INSERT
  5
13d
100
AcDbEntity
  8
0
  6
CONTINUOUS
 62
     7
100
AcDbBlockReference
  2
_OPEN
 10
175.8251762390137
 20
94.22135023580167
 41
1
 42
1
 43
1
 50
180.0000000000004
  0
INSERT
  5
13e
100
AcDbEntity
  8
0
  6
CONTINUOUS
 62
     7
100
AcDbBlockReference
  2
_OPEN
 10
219.8251724243164
 20
94.22135023580167
 41
1
 42
1
 43
1
  0
LINE
  5
13f
100
AcDbEntity
  8
0
  6
CONTINUOUS
 62
     7
100
AcDbLine
 10
175.8251762390137
 20
91.70987224578857
 11
175.8251762390137
 21
96.50735023580167
  0
LINE
  5
140
100
AcDbEntity
  8
0
  6
CONTINUOUS
 62
     7
100
AcDbLine
 10
219.8251724243164
 20
91.70987224578857
 11
219.8251724243164
 21
96.50735023580167
  0
MTEXT
  5
141
100
AcDbEntity
  8
0
  6
CONTINUOUS
 62
     7
100
AcDbMText
 10
240.4136087604021
 20
94.22135023580167
 40
5
 41
40
 71
     8
 72
     1
  1
{\W0.864328;４４}
  0
POINT
  5
142
100
AcDbEntity
  8
DEFPOINTS
  6
CONTINUOUS
 62
     7
100
AcDbPoint
 10
175.8251762390137
 20
91.70987224578857
  0
POINT
  5
143
100
AcDbEntity
  8
DEFPOINTS
  6
CONTINUOUS
 62
     7
100
AcDbPoint
 10
219.8251724243164
 20
91.70987224578857
  0
POINT
  5
144
100
AcDbEntity
  8
DEFPOINTS
  6
CONTINUOUS
 62
     7
100
AcDbPoint
 10
219.8251724243164
 20
94.22135023580167
  0
ENDBLK
  8
0
  5
145
100
AcDbEntity
100
AcDbBlockEnd
  0
BLOCK
  8
0
  5
146
100
AcDbEntity
100
AcDbBlockBegin
  2
KOZU0001
 70
    64
 10
0
 20
0
  0
POINT
  5
147
100
AcDbEntity
  8
0
  6
CONTINUOUS
 62
     7
100
AcDbPoint
 10
0
 20
0
  0
LINE
  5
148
100
AcDbEntity
  8
0
  6
CENTER
 62
     3
100
AcDbLine
 10
0
 20
79.62499237060547
 11
0
 21
-45.5286865234375
  0
LINE
  5
149
100
AcDbEntity
  8
0
  6
CONTINUOUS
 62
     7
100
AcDbLine
 10
50.00001907348633
 20
22.00000762939453
 11
50.00001907348633
 21
-21.99999809265137
  0
LINE
  5
14a
100
AcDbEntity
  8
0
  6
CONTINUOUS
 62
     7
100
AcDbLine
 10
-49.99998092651367
 20
22.00000762939453
 11
-49.99998092651367
 21
-21.99999809265137
  0
LINE
  5
14b
100
AcDbEntity
  8
0
  6
CONTINUOUS
 62
     7
100
AcDbLine
 10
-40
 20
25.9999942779541
 11
40
 21
25.9999942779541
  0
LINE
  5
14c
100
AcDbEntity
  8
0
  6
CONTINUOUS
 62
     7
100
AcDbLine
 10
-49.99998092651367
 20
-21.99999809265137
 11
50.00001907348633
 21
-21.99999809265137
  0
LINE
  5
14d
100
AcDbEntity
  8
0
  6
CENTER
 62
     3
100
AcDbLine
 10
-53.14596557617188
 20
0
 11
53.01889419555664
 21
0
  0
LINE
  5
14e
100
AcDbEntity
  8
0
  6
CONTINUOUS
 62
     7
100
AcDbLine
 10
-49.99998092651367
 20
22.00000762939453
 11
-30
 21
22.00000762939453
  0
LINE
  5
14f
100
AcDbEntity
  8
0
  6
CONTINUOUS
 62
     7
100
AcDbLine
 10
30
 20
22.00000762939453
 11
50.00001907348633
 21
22.00000762939453
  0
LINE
  5
150
100
AcDbEntity
  8
0
  6
CONTINUOUS
 62
     7
100
AcDbLine
 10
-24.00003336043317
 20
-21.99999809265137
 11
-23.00001760133475
 21
-26.00000018141069
  0
LINE
  5
151
100
AcDbEntity
  8
0
  6
CONTINUOUS
 62
     7
100
AcDbLine
 10
24.00003336043317
 20
-21.99999809265137
 11
23.00001621351488
 21
-26.00000573260563
  0
LINE
  5
152
100
AcDbEntity
  8
0
  6
DASHED
 62
     7
100
AcDbLine
 10
-37.99998092651367
 20
11.74443969770494
 11
-49.99998671966387
 21
12.16348911430791
  0
LINE
  5
153
100
AcDbEntity
  8
0
  6
DASHED
 62
     7
100
AcDbLine
 10
-50.0000093942081
 20
-12.16349563165414
 11
-37.99998092651367
 21
-11.74444542323867
  0
LINE
  5
154
100
AcDbEntity
  8
0
  6
DASHED
 62
     3
100
AcDbLine
 10
-37.99998092651367
 20
12.90714291910806
 11
-49.99995158827128
 21
13.32619110889583
  0
LINE
  5
155
100
AcDbEntity
  8
0
  6
DASHED
 62
     3
100
AcDbLine
 10
-49.99997045044204
 20
-13.32619749311105
 11
-37.99998092651367
 21
-12.9071486446418
  0
LINE
  5
156
100
AcDbEntity
  8
0
  6
DASHED
 62
     7
100
AcDbLine
 10
38.00001907348631
 20
-11.74445057238274
 11
49.99998257446291
 21
-12.16349851211054
  0
LINE
  5
157
100
AcDbEntity
  8
0
  6
DASHED
 62
     7
100
AcDbLine
 10
50.00000534885538
 20
12.16350217017668
 11
38.00001907348632
 21
11.74445343514961
  0
LINE
  5
158
100
AcDbEntity
  8
0
  6
DASHED
 62
     3
100
AcDbLine
 10
38.00001907348632
 20
-12.90715379378587
 11
49.99999319155176
 21
-13.32620210427056
  0
LINE
  5
159
100
AcDbEntity
  8
0
  6
DASHED
 62
     3
100
AcDbLine
 10
49.99998944574381
 20
13.32620006495282
 11
38.00001907348631
 21
12.90715188527462
  0
LINE
  5
15a
100
AcDbEntity
  8
0
  6
CONTINUOUS
 62
     7
100
AcDbLine
 10
-23.00001907348633
 20
-25.9999942779541
 11
23.00002098083496
 21
-25.9999942779541
  0
LINE
  5
15b
100
AcDbEntity
  8
0
  6
CONTINUOUS
 62
     7
100
AcDbLine
 10
-22.5
 20
-42.00000381469727
 11
22.5
 21
-42.00000381469727
  0
LINE
  5
15c
100
AcDbEntity
  8
0
  6
CONTINUOUS
 62
     7
100
AcDbLine
 10
22.5
 20
-25.9999942779541
 11
22.5
 21
-42.00000381469727
  0
LINE
  5
15d
100
AcDbEntity
  8
0
  6
CONTINUOUS
 62
     7
100
AcDbLine
 10
-22.5
 20
-25.9999942779541
 11
-22.5
 21
-42.00000381469727
  0
LINE
  5
15e
100
AcDbEntity
  8
0
  6
CONTINUOUS
 62
     7
100
AcDbLine
 10
27.5
 20
56.00000381469727
 11
27.5
 21
26.00000381469727
  0
LINE
  5
15f
100
AcDbEntity
  8
0
  6
CONTINUOUS
 62
     7
100
AcDbLine
 10
-27.49998092651367
 20
56.00000381469727
 11
-27.49998092651367
 21
26.00000381469727
  0
LINE
  5
160
100
AcDbEntity
  8
0
  6
CONTINUOUS
 62
     7
100
AcDbLine
 10
30
 20
76
 11
30
 21
56.00000381469727
  0
LINE
  5
161
100
AcDbEntity
  8
0
  6
CONTINUOUS
 62
     7
100
AcDbLine
 10
-29.99998092651367
 20
76
 11
-29.99998092651367
 21
56.00000381469727
  0
LINE
  5
162
100
AcDbEntity
  8
0
  6
CONTINUOUS
 62
     7
100
AcDbLine
 10
-30.00002861022949
 20
55.99999237060547
 11
30
 21
55.99999237060547
  0
LINE
  5
163
100
AcDbEntity
  8
0
  6
CONTINUOUS
 62
     7
100
AcDbLine
 10
-30.00002861022949
 20
76.00001525878906
 11
29.99998474121094
 21
76.00001525878906
  0
LINE
  5
164
100
AcDbEntity
  8
0
  6
CONTINUOUS
 62
     7
100
AcDbLine
 10
-30
 20
25.9999942779541
 11
-30
 21
-21.99999809265137
  0
LINE
  5
165
100
AcDbEntity
  8
0
  6
CONTINUOUS
 62
     7
100
AcDbLine
 10
-17.99999237060547
 20
74.5
 11
-27.99999237060547
 21
74.5
  0
LINE
  5
166
100
AcDbEntity
  8
0
  6
CONTINUOUS
 62
     7
100
AcDbLine
 10
-17.99999237060547
 20
68.5
 11
-27.99999237060547
 21
68.5
  0
LINE
  5
167
100
AcDbEntity
  8
0
  6
CONTINUOUS
 62
     7
100
AcDbLine
 10
-17.99999237060547
 20
74.5
 11
-17.99999237060547
 21
67
  0
LINE
  5
168
100
AcDbEntity
  8
0
  6
CONTINUOUS
 62
     7
100
AcDbLine
 10
-20
 20
56.00000381469727
 11
-20
 21
26.00000381469727
  0
LINE
  5
169
100
AcDbEntity
  8
0
  6
CONTINUOUS
 62
     7
100
AcDbLine
 10
-27.99999237060547
 20
74.5
 11
-27.99999237060547
 21
67
  0
LINE
  5
16a
100
AcDbEntity
  8
0
  6
CENTER
 62
     3
100
AcDbLine
 10
-22.99999237060547
 20
75.32681200011302
 11
-22.99999237060547
 21
25.9999942779541
  0
LINE
  5
16b
100
AcDbEntity
  8
0
  6
CONTINUOUS
 62
     7
100
AcDbLine
 10
-15
 20
67
 11
-29.99998092651367
 21
67
  0
LINE
  5
16c
100
AcDbEntity
  8
0
  6
CONTINUOUS
 62
     7
100
AcDbLine
 10
18.0000114440918
 20
74.5
 11
28.0000114440918
 21
74.5
  0
LINE
  5
16d
100
AcDbEntity
  8
0
  6
CONTINUOUS
 62
     7
100
AcDbLine
 10
18.0000114440918
 20
68.5
 11
28.0000114440918
 21
68.5
  0
LINE
  5
16e
100
AcDbEntity
  8
0
  6
CONTINUOUS
 62
     7
100
AcDbLine
 10
18.0000114440918
 20
74.5
 11
18.0000114440918
 21
67
  0
LINE
  5
16f
100
AcDbEntity
  8
0
  6
CONTINUOUS
 62
     7
100
AcDbLine
 10
20
 20
56.00000381469727
 11
20
 21
26.00000381469727
  0
LINE
  5
170
100
AcDbEntity
  8
0
  6
CONTINUOUS
 62
     7
100
AcDbLine
 10
28.0000114440918
 20
74.5
 11
28.0000114440918
 21
67
  0
LINE
  5
171
100
AcDbEntity
  8
0
  6
CONTINUOUS
 62
     7
100
AcDbLine
 10
26.00002288818359
 20
56.00000381469727
 11
26.00002288818359
 21
26.00000381469727
  0
LINE
  5
172
100
AcDbEntity
  8
0
  6
CENTER
 62
     3
100
AcDbLine
 10
23.0000114440918
 20
75.51006432655392
 11
23.0000114440918
 21
25.9999942779541
  0
LINE
  5
173
100
AcDbEntity
  8
0
  6
CONTINUOUS
 62
     7
100
AcDbLine
 10
15
 20
67
 11
30
 21
67
  0
LINE
  5
174
100
AcDbEntity
  8
0
  6
CONTINUOUS
 62
     7
100
AcDbLine
 10
-25.99998474121094
 20
56.00000381469727
 11
-25.99998474121094
 21
26.00000381469727
  0
LINE
  5
175
100
AcDbEntity
  8
0
  6
CONTINUOUS
 62
     7
100
AcDbLine
 10
15
 20
76
 11
15
 21
67
  0
LINE
  5
176
100
AcDbEntity
  8
0
  6
CONTINUOUS
 62
     7
100
AcDbLine
 10
-15
 20
76
 11
-15
 21
67
  0
LINE
  5
177
100
AcDbEntity
  8
0
  6
CONTINUOUS
 62
     7
100
AcDbLine
 10
1.500000596046448
 20
2.999999284744263
 11
1.500000596046448
 21
1.499999642372131
  0
LINE
  5
178
100
AcDbEntity
  8
0
  6
CONTINUOUS
 62
     7
100
AcDbLine
 10
30
 20
25.9999942779541
 11
30
 21
-21.99999809265137
  0
LINE
  5
179
100
AcDbEntity
  8
0
  6
CONTINUOUS
 62
     7
100
AcDbLine
 10
40
 20
25.9999942779541
 11
40
 21
22.00000762939453
  0
LINE
  5
17a
100
AcDbEntity
  8
0
  6
CONTINUOUS
 62
     7
100
AcDbLine
 10
-40
 20
25.9999942779541
 11
-40
 21
22.00000762939453
  0
LINE
  5
17b
100
AcDbEntity
  8
0
  6
CONTINUOUS
 62
     7
100
AcDbLine
 10
-49.99998092651367
 20
-13.5967493057251
 11
-30
 21
-13.5967493057251
  0
LINE
  5
17c
100
AcDbEntity
  8
0
  6
CONTINUOUS
 62
     7
100
AcDbLine
 10
-49.99998092651367
 20
13.59675407409668
 11
-30
 21
13.59675407409668
  0
LINE
  5
17d
100
AcDbEntity
  8
0
  6
CONTINUOUS
 62
     7
100
AcDbLine
 10
30
 20
13.59675407409668
 11
50.00001907348633
 21
13.59675407409668
  0
LINE
  5
17e
100
AcDbEntity
  8
0
  6
CONTINUOUS
 62
     7
100
AcDbLine
 10
30
 20
-13.5967493057251
 11
50.00001907348633
 21
-13.5967493057251
  0
LINE
  5
17f
100
AcDbEntity
  8
0
  6
DASHED
 62
     3
100
AcDbLine
 10
6.498592998436799
 20
68.5
 11
6.76049858086143
 21
76.00001095683305
  0
LINE
  5
180
100
AcDbEntity
  8
0
  6
DASHED
 62
     7
100
AcDbLine
 10
5.642073192742494
 20
68.50000000000001
 11
5.903979576646639
 21
76.00003390825347
  0
LINE
  5
181
100
AcDbEntity
  8
0
  6
DASHED
 62
     3
100
AcDbLine
 10
-6.498563631701115
 20
68.50000000000003
 11
-6.76047061173462
 21
76.00001895603717
  0
LINE
  5
182
100
AcDbEntity
  8
0
  6
DASHED
 62
     7
100
AcDbLine
 10
-5.642013762500334
 20
68.50000000000003
 11
-5.90392025376945
 21
76.00000495968558
  0
LINE
  5
183
100
AcDbEntity
  8
0
  6
CONTINUOUS
 62
     7
100
AcDbLine
 10
-5.999997615814209
 20
0
 11
7.499999046325684
 21
0
  0
LINE
  5
184
100
AcDbEntity
  8
0
  6
CONTINUOUS
 62
     7
100
AcDbLine
 10
-7.499997615814209
 20
1.499999642372131
 11
1.500000596046448
 21
1.499999642372131
  0
LINE
  5
185
100
AcDbEntity
  8
0
  6
CONTINUOUS
 62
     7
100
AcDbLine
 10
1.500001131669815
 20
2.999999355943327
 11
7.49999899056423
 21
4.26496119754205e-007
  0
LINE
  5
186
100
AcDbEntity
  8
0
  6
CONTINUOUS
 62
     7
100
AcDbLine
 10
-7.499997637859996
 20
1.499999932181745
 11
-5.999997705678251
 21
0
  0
LINE
  5
187
100
AcDbEntity
  8
0
  6
CENTER
 62
     3
100
AcDbLine
 10
-2.950000047683716
 20
21.9999942779541
 11
2.950000047683716
 21
21.9999942779541
  0
CIRCLE
  5
188
100
AcDbEntity
  8
0
  6
CONTINUOUS
 62
     7
100
AcDbCircle
 10
0
 20
21.9999942779541
 40
2.950000047683716
  0
MTEXT
  5
189
100
AcDbEntity
  8
0
  6
CONTINUOUS
 62
     7
100
AcDbMText
 10
-16.58569626468069
 20
58.31972639196059
 40
0.5
 41
22
 71
     7
 72
     1
  1
{\W0.844085;ＢＮ－５Ｂ２１－２０Ａ}
  0
INSERT
  5
18a
100
AcDbEntity
  8
0
  6
CONTINUOUS
 62
     7
100
AcDbBlockReference
  2
KOZU0007
 10
0
 20
0
  0
ENDBLK
  8
0
  5
18b
100
AcDbEntity
100
AcDbBlockEnd
  0
BLOCK
  8
0
  5
18c
100
AcDbEntity
100
AcDbBlockBegin
  2
KOZU0002
 70
    64
 10
0
 20
0
  0
POINT
  5
18d
100
AcDbEntity
  8
0
  6
CONTINUOUS
 62
     7
100
AcDbPoint
 10
0
 20
0
  0
LINE
  5
18e
100
AcDbEntity
  8
0
  6
CONTINUOUS
 62
     7
100
AcDbLine
 10
-23
 20
30.00001907348633
 11
23.00000190734863
 21
30.00001907348633
  0
LINE
  5
18f
100
AcDbEntity
  8
0
  6
CENTER
 62
     3
100
AcDbLine
 10
-53.64030838012695
 20
0
 11
53.29008865356445
 21
0
  0
LINE
  5
190
100
AcDbEntity
  8
0
  6
CONTINUOUS
 62
     7
100
AcDbLine
 10
-50
 20
21.9999885559082
 11
-30
 21
21.9999885559082
  0
LINE
  5
191
100
AcDbEntity
  8
0
  6
CONTINUOUS
 62
     7
100
AcDbLine
 10
-50
 20
-22.00000762939453
 11
-30
 21
-22.00000762939453
  0
LINE
  5
192
100
AcDbEntity
  8
0
  6
CENTER
 62
     3
100
AcDbLine
 10
0
 20
33.82787704467773
 11
0
 21
-33.24583053588867
  0
LINE
  5
193
100
AcDbEntity
  8
0
  6
CENTER
 62
     3
100
AcDbLine
 10
23.00000190734863
 20
-18.0000114440918
 11
23.00000190734863
 21
-28.0000114440918
  0
LINE
  5
194
100
AcDbEntity
  8
0
  6
CENTER
 62
     3
100
AcDbLine
 10
18.00000190738501
 20
-22.99999237060547
 11
28.00000190731225
 21
-22.99999237060547
  0
LINE
  5
195
100
AcDbEntity
  8
0
  6
CENTER
 62
     3
100
AcDbLine
 10
18.00000190734863
 20
23.0000114440918
 11
28.00000190734863
 21
23.0000114440918
  0
LINE
  5
196
100
AcDbEntity
  8
0
  6
CONTINUOUS
 62
     7
100
AcDbLine
 10
-30
 20
23.0000114440918
 11
-30
 21
3.999996185302734
  0
LINE
  5
197
100
AcDbEntity
  8
0
  6
CONTINUOUS
 62
     7
100
AcDbLine
 10
-23
 20
-30
 11
23.00000190734863
 21
-30
  0
LINE
  5
198
100
AcDbEntity
  8
0
  6
CENTER
 62
     3
100
AcDbLine
 10
-23
 20
-18.0000114440918
 11
-23
 21
-28.0000114440918
  0
LINE
  5
199
100
AcDbEntity
  8
0
  6
CONTINUOUS
 62
     7
100
AcDbLine
 10
30
 20
23.0000114440918
 11
30
 21
4
  0
LINE
  5
19a
100
AcDbEntity
  8
0
  6
CENTER
 62
     3
100
AcDbLine
 10
23.00000190734863
 20
28.0000114440918
 11
23.00000190734863
 21
18.0000114440918
  0
LINE
  5
19b
100
AcDbEntity
  8
0
  6
CENTER
 62
     3
100
AcDbLine
 10
-23
 20
28.0000114440918
 11
-23
 21
18.0000114440918
  0
LINE
  5
19c
100
AcDbEntity
  8
0
  6
CENTER
 62
     3
100
AcDbLine
 10
-28
 20
23.0000114440918
 11
-18
 21
23.0000114440918
  0
LINE
  5
19d
100
AcDbEntity
  8
0
  6
CENTER
 62
     3
100
AcDbLine
 10
-27.99999999996362
 20
-22.99999237060547
 11
-18.00000000003638
 21
-22.99999237060547
  0
LINE
  5
19e
100
AcDbEntity
  8
0
  6
CONTINUOUS
 62
     7
100
AcDbLine
 10
30
 20
21.9999885559082
 11
50
 21
21.9999885559082
  0
LINE
  5
19f
100
AcDbEntity
  8
0
  6
CONTINUOUS
 62
     7
100
AcDbLine
 10
30
 20
-22.00000762939453
 11
50
 21
-22.00000762939453
  0
LINE
  5
1a0
100
AcDbEntity
  8
0
  6
CONTINUOUS
 62
     7
100
AcDbLine
 10
-30
 20
15
 11
-23
 21
15
  0
LINE
  5
1a1
100
AcDbEntity
  8
0
  6
CONTINUOUS
 62
     7
100
AcDbLine
 10
15
 20
30.00001907348633
 11
15
 21
23.0000114440918
  0
LINE
  5
1a2
100
AcDbEntity
  8
0
  6
CONTINUOUS
 62
     7
100
AcDbLine
 10
-15
 20
30.00001907348633
 11
-15
 21
23.0000114440918
  0
LINE
  5
1a3
100
AcDbEntity
  8
0
  6
CONTINUOUS
 62
     7
100
AcDbLine
 10
-30
 20
-15
 11
-23
 21
-15
  0
LINE
  5
1a4
100
AcDbEntity
  8
0
  6
CONTINUOUS
 62
     7
100
AcDbLine
 10
23.00000190734863
 20
15
 11
30
 21
15
  0
LINE
  5
1a5
100
AcDbEntity
  8
0
  6
CONTINUOUS
 62
     7
100
AcDbLine
 10
23.00000190734863
 20
-15
 11
30
 21
-15
  0
LINE
  5
1a6
100
AcDbEntity
  8
0
  6
CONTINUOUS
 62
     7
100
AcDbLine
 10
-15
 20
-22.99999237060547
 11
-15
 21
-30
  0
LINE
  5
1a7
100
AcDbEntity
  8
0
  6
CONTINUOUS
 62
     7
100
AcDbLine
 10
15
 20
-22.99999237060547
 11
15
 21
-30
  0
LINE
  5
1a8
100
AcDbEntity
  8
0
  6
CONTINUOUS
 62
     7
100
AcDbLine
 10
-30
 20
-3.999996185302734
 11
-30
 21
-22.99999237060547
  0
LINE
  5
1a9
100
AcDbEntity
  8
0
  6
CONTINUOUS
 62
     7
100
AcDbLine
 10
-50
 20
21.9999885559082
 11
-50
 21
-22.00000762939453
  0
LINE
  5
1aa
100
AcDbEntity
  8
0
  6
CONTINUOUS
 62
     7
100
AcDbLine
 10
24.4749920619884
 20
20.44523276364173
 11
25.94999198123563
 21
23.00001303722658
  0
LINE
  5
1ab
100
AcDbEntity
  8
0
  6
CONTINUOUS
 62
     7
100
AcDbLine
 10
25.94999525537787
 20
22.99997448858095
 11
24.47499608173325
 21
25.55475078780776
  0
LINE
  5
1ac
100
AcDbEntity
  8
0
  6
CONTINUOUS
 62
     7
100
AcDbLine
 10
20.04997830882038
 20
23.00000831785935
 11
21.5249783347237
 21
20.44523196007992
  0
LINE
  5
1ad
100
AcDbEntity
  8
0
  6
CONTINUOUS
 62
     7
100
AcDbLine
 10
21.52499319565825
 20
25.55480275355428
 11
20.04999573160287
 21
23.00002766971278
  0
LINE
  5
1ae
100
AcDbEntity
  8
0
  6
CONTINUOUS
 62
     7
100
AcDbLine
 10
24.47500228881836
 20
25.55479049682617
 11
21.52500152587891
 21
25.55479049682617
  0
LINE
  5
1af
100
AcDbEntity
  8
0
  6
CONTINUOUS
 62
     7
100
AcDbLine
 10
20.05000197950078
 20
-23.00000546600424
 11
21.52502227097516
 21
-20.44519400720723
  0
LINE
  5
1b0
100
AcDbEntity
  8
0
  6
CONTINUOUS
 62
     7
100
AcDbLine
 10
-24.47499847412109
 20
-25.55479049682617
 11
-21.52499961853027
 21
-25.55479049682617
  0
LINE
  5
1b1
100
AcDbEntity
  8
0
  6
CONTINUOUS
 62
     7
100
AcDbLine
 10
-25.95001429341311
 20
-23.00000254890688
 11
-24.4750148813501
 21
-25.5547792610869
  0
LINE
  5
1b2
100
AcDbEntity
  8
0
  6
CONTINUOUS
 62
     7
100
AcDbLine
 10
-24.47496065924299
 20
-20.44519363118825
 11
-25.94998537398261
 21
-23.00001685191772
  0
LINE
  5
1b3
100
AcDbEntity
  8
0
  6
CONTINUOUS
 62
     7
100
AcDbLine
 10
-24.47499847412109
 20
25.55479049682617
 11
-21.52499961853027
 21
25.55479049682617
  0
LINE
  5
1b4
100
AcDbEntity
  8
0
  6
CONTINUOUS
 62
     7
100
AcDbLine
 10
-21.52499732519101
 20
25.55480036937166
 11
-20.04999986113563
 21
23.00002528553016
  0
LINE
  5
1b5
100
AcDbEntity
  8
0
  6
CONTINUOUS
 62
     7
100
AcDbLine
 10
-20.04999698982943
 20
23.00001029367437
 11
-21.52499796940668
 21
20.44523228408235
  0
LINE
  5
1b6
100
AcDbEntity
  8
0
  6
CONTINUOUS
 62
     7
100
AcDbLine
 10
-24.4749920619884
 20
20.44523276364173
 11
-25.94998816654449
 21
23.00000642997356
  0
LINE
  5
1b7
100
AcDbEntity
  8
0
  6
CONTINUOUS
 62
     7
100
AcDbLine
 10
-25.94999607212448
 20
23.00000359153591
 11
-24.47499689847986
 21
25.55477989076272
  0
LINE
  5
1b8
100
AcDbEntity
  8
0
  6
CONTINUOUS
 62
     7
100
AcDbLine
 10
21.52500157333893
 20
-25.55477148772048
 11
20.05000410928355
 21
-22.99999640387898
  0
LINE
  5
1b9
100
AcDbEntity
  8
0
  6
CONTINUOUS
 62
     7
100
AcDbLine
 10
24.47500228881836
 20
-25.55479049682617
 11
21.52500152587891
 21
-25.55479049682617
  0
LINE
  5
1ba
100
AcDbEntity
  8
0
  6
CONTINUOUS
 62
     7
100
AcDbLine
 10
25.9500172901569
 20
-23.00002024659105
 11
24.47501811651228
 21
-25.55479654581786
  0
LINE
  5
1bb
100
AcDbEntity
  8
0
  6
CONTINUOUS
 62
     7
100
AcDbLine
 10
24.47497177932762
 20
-20.44519381826409
 11
25.94999744774002
 21
-23.00001869080681
  0
LINE
  5
1bc
100
AcDbEntity
  8
0
  6
CONTINUOUS
 62
     7
100
AcDbLine
 10
-20.04999625745719
 20
-23.00001537687979
 11
-21.52502227097516
 21
-20.44519400720723
  0
LINE
  5
1bd
100
AcDbEntity
  8
0
  6
CONTINUOUS
 62
     7
100
AcDbLine
 10
-21.52499744380617
 20
-25.5547738719031
 11
-20.04999997975079
 21
-22.9999987880616
  0
LINE
  5
1be
100
AcDbEntity
  8
0
  6
CONTINUOUS
 62
     7
100
AcDbLine
 10
30
 20
-6.000003814697266
 11
32.99999618530273
 21
-6.000003814697266
  0
LINE
  5
1bf
100
AcDbEntity
  8
0
  6
CONTINUOUS
 62
     7
100
AcDbLine
 10
30
 20
6.000003814697266
 11
32.99999618530273
 21
6.000003814697266
  0
LINE
  5
1c0
100
AcDbEntity
  8
0
  6
CONTINUOUS
 62
     7
100
AcDbLine
 10
-32.99999618530273
 20
-6.000003814697266
 11
-30
 21
-6.000003814697266
  0
LINE
  5
1c1
100
AcDbEntity
  8
0
  6
CONTINUOUS
 62
     7
100
AcDbLine
 10
-32.99999618530273
 20
6.000003814697266
 11
-30
 21
6.000003814697266
  0
LINE
  5
1c2
100
AcDbEntity
  8
0
  6
CONTINUOUS
 62
     7
100
AcDbLine
 10
50
 20
21.9999885559082
 11
50
 21
-22.00000762939453
  0
LINE
  5
1c3
100
AcDbEntity
  8
0
  6
CONTINUOUS
 62
     7
100
AcDbLine
 10
-24.47499847412109
 20
20.44523239135742
 11
-21.52499961853027
 21
20.44523239135742
  0
LINE
  5
1c4
100
AcDbEntity
  8
0
  6
CONTINUOUS
 62
     7
100
AcDbLine
 10
24.47500228881836
 20
20.44523239135742
 11
21.52500152587891
 21
20.44523239135742
  0
LINE
  5
1c5
100
AcDbEntity
  8
0
  6
CONTINUOUS
 62
     7
100
AcDbLine
 10
-24.47499847412109
 20
-20.44519424438477
 11
-21.52499961853027
 21
-20.44519424438477
  0
LINE
  5
1c6
100
AcDbEntity
  8
0
  6
CONTINUOUS
 62
     7
100
AcDbLine
 10
24.47500228881836
 20
-20.44519424438477
 11
21.52500152587891
 21
-20.44519424438477
  0
LINE
  5
1c7
100
AcDbEntity
  8
0
  6
CENTER
 62
     3
100
AcDbLine
 10
-2
 20
21
 11
2
 21
21
  0
LINE
  5
1c8
100
AcDbEntity
  8
0
  6
CENTER
 62
     3
100
AcDbLine
 10
-2
 20
-21
 11
2
 21
-21
  0
LINE
  5
1c9
100
AcDbEntity
  8
0
  6
CONTINUOUS
 62
     7
100
AcDbLine
 10
30
 20
-4
 11
30
 21
-22.99999237060547
  0
LINE
  5
1ca
100
AcDbEntity
  8
0
  6
DASHED
 62
     7
100
AcDbLine
 10
-49.99999999999999
 20
13.5
 11
-35
 21
13.1072111764622
  0
LINE
  5
1cb
100
AcDbEntity
  8
0
  6
DASHED
 62
     7
100
AcDbLine
 10
-49.99999999999999
 20
-13.5
 11
-35
 21
-13.1072111764622
  0
LINE
  5
1cc
100
AcDbEntity
  8
0
  6
DASHED
 62
     7
100
AcDbLine
 10
-49.99999999999999
 20
12.29958864901096
 11
-35
 21
11.90679982547316
  0
LINE
  5
1cd
100
AcDbEntity
  8
0
  6
DASHED
 62
     7
100
AcDbLine
 10
-49.99999999999999
 20
-12.29958864901096
 11
-35
 21
-11.90679982547316
  0
LINE
  5
1ce
100
AcDbEntity
  8
0
  6
DASHED
 62
     7
100
AcDbLine
 10
49.99999999999999
 20
13.5
 11
35
 21
13.1072111764622
  0
LINE
  5
1cf
100
AcDbEntity
  8
0
  6
DASHED
 62
     7
100
AcDbLine
 10
49.99999999999999
 20
-13.5
 11
35
 21
-13.1072111764622
  0
LINE
  5
1d0
100
AcDbEntity
  8
0
  6
DASHED
 62
     7
100
AcDbLine
 10
49.99999999999999
 20
12.29958864901096
 11
35
 21
11.90679982547316
  0
LINE
  5
1d1
100
AcDbEntity
  8
0
  6
DASHED
 62
     7
100
AcDbLine
 10
49.99999999999999
 20
-12.29958864901096
 11
35
 21
-11.90679982547316
  0
ARC
  5
1d2
100
AcDbEntity
  8
0
  6
CONTINUOUS
 62
     7
100
AcDbCircle
 10
23.00000190734863
 20
23.0000114440918
 40
7
100
AcDbArc
 50
359.9996877626959
 51
89.99998201391064
  0
ARC
  5
1d3
100
AcDbEntity
  8
0
  6
CONTINUOUS
 62
     7
100
AcDbCircle
 10
-23
 20
-22.99999237060547
 40
7
100
AcDbArc
 50
180.0001315948278
 51
270.00001798609
  0
ARC
  5
1d4
100
AcDbEntity
  8
0
  6
CONTINUOUS
 62
     7
100
AcDbCircle
 10
-23
 20
23.0000114440918
 40
7
100
AcDbArc
 50
89.99998201391064
 51
180.0002782165238
  0
ARC
  5
1d5
100
AcDbEntity
  8
0
  6
CONTINUOUS
 62
     7
100
AcDbCircle
 10
23.00000190734863
 20
-22.99999237060547
 40
7
100
AcDbArc
 50
270.00001798609
 51
359.9998438813483
  0
ARC
  5
1d6
100
AcDbEntity
  8
0
  6
CONTINUOUS
 62
     7
100
AcDbCircle
 10
-23
 20
23.0000114440918
 40
8
100
AcDbArc
 50
270.00001798609
 51
360
  0
ARC
  5
1d7
100
AcDbEntity
  8
0
  6
CONTINUOUS
 62
     7
100
AcDbCircle
 10
23.00000190734863
 20
23.0000114440918
 40
8
100
AcDbArc
 50
179.9999776881997
 51
270.0000006832461
  0
ARC
  5
1d8
100
AcDbEntity
  8
0
  6
CONTINUOUS
 62
     7
100
AcDbCircle
 10
23.00000190734863
 20
-23.0000114440918
 40
8
100
AcDbArc
 50
89.99998201391065
 51
179.9998820655513
  0
ARC
  5
1d9
100
AcDbEntity
  8
0
  6
CONTINUOUS
 62
     7
100
AcDbCircle
 10
-23
 20
-23.0000114440918
 40
8
100
AcDbArc
 50
0.0001366037964279364
 51
89.99998201391065
  0
ARC
  5
1da
100
AcDbEntity
  8
0
  6
CONTINUOUS
 62
     7
100
AcDbCircle
 10
-33
 20
0
 40
5
100
AcDbArc
 50
306.8699187107633
 51
53.13008128923739
  0
CIRCLE
  5
1db
100
AcDbEntity
  8
0
  6
CONTINUOUS
 62
     7
100
AcDbCircle
 10
23.00000190734863
 20
23.0000114440918
 40
5
  0
CIRCLE
  5
1dc
100
AcDbEntity
  8
0
  6
CONTINUOUS
 62
     7
100
AcDbCircle
 10
-23
 20
23.0000114440918
 40
5
  0
CIRCLE
  5
1dd
100
AcDbEntity
  8
0
  6
CONTINUOUS
 62
     7
100
AcDbCircle
 10
-23
 20
-23.0000114440918
 40
5
  0
CIRCLE
  5
1de
100
AcDbEntity
  8
0
  6
CONTINUOUS
 62
     7
100
AcDbCircle
 10
23.00000190734863
 20
-23.0000114440918
 40
5
  0
ARC
  5
1df
100
AcDbEntity
  8
0
  6
CONTINUOUS
 62
     7
100
AcDbCircle
 10
-32.99999618530273
 20
0
 40
6.000003814697266
100
AcDbArc
 50
89.99998201391065
 51
270.0000006832461
  0
ARC
  5
1e0
100
AcDbEntity
  8
0
  6
CONTINUOUS
 62
     7
100
AcDbCircle
 10
32.99999618530273
 20
0
 40
6.000003814697266
100
AcDbArc
 50
270.00001798609
 51
89.99998201391065
  0
CIRCLE
  5
1e1
100
AcDbEntity
  8
0
  6
CONTINUOUS
 62
     3
100
AcDbCircle
 10
0
 20
-21
 40
2
  0
CIRCLE
  5
1e2
100
AcDbEntity
  8
0
  6
CONTINUOUS
 62
     3
100
AcDbCircle
 10
0
 20
21
 40
2
  0
CIRCLE
  5
1e3
100
AcDbEntity
  8
0
  6
CONTINUOUS
 62
     7
100
AcDbCircle
 10
0
 20
21
 40
1.600000023841858
  0
CIRCLE
  5
1e4
100
AcDbEntity
  8
0
  6
CONTINUOUS
 62
     7
100
AcDbCircle
 10
0
 20
-21
 40
1.600000023841858
  0
CIRCLE
  5
1e5
100
AcDbEntity
  8
0
  6
CONTINUOUS
 62
     3
100
AcDbCircle
 10
0
 20
0
 40
6.900000095367432
  0
CIRCLE
  5
1e6
100
AcDbEntity
  8
0
  6
CONTINUOUS
 62
     7
100
AcDbCircle
 10
0
 20
0
 40
6.099999904632568
  0
ARC
  5
1e7
100
AcDbEntity
  8
0
  6
CONTINUOUS
 62
     7
100
AcDbCircle
 10
33
 20
0
 40
5
100
AcDbArc
 50
126.8699187107627
 51
233.1300812892382
  0
MTEXT
  5
1e8
100
AcDbEntity
  8
0
  6
CONTINUOUS
 62
     7
100
AcDbMText
 10
-24.97366856459309
 20
9.746983292523552
 40
0.5
 41
22
 71
     7
 72
     1
  1
{\W0.844085;ＢＮ－５Ｂ２１－２０Ａ}
  0
ENDBLK
  8
0
  5
1e9
100
AcDbEntity
100
AcDbBlockEnd
  0
BLOCK
  8
0
  5
1ea
100
AcDbEntity
100
AcDbBlockBegin
  2
KOZU0003
 70
    64
 10
0
 20
0
  0
POINT
  5
1eb
100
AcDbEntity
  8
0
  6
CONTINUOUS
 62
     7
100
AcDbPoint
 10
0
 20
0
  0
LINE
  5
1ec
100
AcDbEntity
  8
0
  6
CENTER
 62
     3
100
AcDbLine
 10
0
 20
82.59999084472656
 11
0
 21
-46.80644607543945
  0
LINE
  5
1ed
100
AcDbEntity
  8
0
  6
CENTER
 62
     3
100
AcDbLine
 10
18.27959426049834
 20
0
 11
-18.34477910294685
 21
0
  0
LINE
  5
1ee
100
AcDbEntity
  8
0
  6
CONTINUOUS
 62
     7
100
AcDbLine
 10
30
 20
26.00000381469727
 11
30
 21
-22.00000190734863
  0
LINE
  5
1ef
100
AcDbEntity
  8
0
  6
CONTINUOUS
 62
     7
100
AcDbLine
 10
30.00002861022949
 20
25.9999942779541
 11
-29.99998092651367
 21
25.9999942779541
  0
LINE
  5
1f0
100
AcDbEntity
  8
0
  6
CONTINUOUS
 62
     7
100
AcDbLine
 10
30
 20
-22.00000190734863
 11
-30
 21
-22.00000190734863
  0
LINE
  5
1f1
100
AcDbEntity
  8
0
  6
CONTINUOUS
 62
     7
100
AcDbLine
 10
21.9999885559082
 20
13.59675417370251
 11
21.9999885559082
 21
-13.59674940533093
  0
LINE
  5
1f2
100
AcDbEntity
  8
0
  6
CONTINUOUS
 62
     7
100
AcDbLine
 10
5.999984741210938
 20
26.00000381469727
 11
5.999984741210938
 21
21.44996048582603
  0
LINE
  5
1f3
100
AcDbEntity
  8
0
  6
CONTINUOUS
 62
     7
100
AcDbLine
 10
-30
 20
26.00000381469727
 11
-30
 21
-22.00000190734863
  0
LINE
  5
1f4
100
AcDbEntity
  8
0
  6
CONTINUOUS
 62
     7
100
AcDbLine
 10
-22.00000762939453
 20
13.59673711386037
 11
-22.00000762939453
 21
-13.59673234548879
  0
LINE
  5
1f5
100
AcDbEntity
  8
0
  6
CONTINUOUS
 62
     7
100
AcDbLine
 10
-5.999984741210938
 20
26.00000381469727
 11
-5.999984741210938
 21
21.44996048582603
  0
LINE
  5
1f6
100
AcDbEntity
  8
0
  6
CONTINUOUS
 62
     7
100
AcDbLine
 10
24.00000476618185
 20
-22.00000190734863
 11
23.00000181496067
 21
-26.00001322071945
  0
LINE
  5
1f7
100
AcDbEntity
  8
0
  6
CONTINUOUS
 62
     7
100
AcDbLine
 10
-23.99996347913219
 20
-22.00000190734863
 11
-22.9999634191616
 21
-26.00000165571852
  0
LINE
  5
1f8
100
AcDbEntity
  8
0
  6
CONTINUOUS
 62
     7
100
AcDbLine
 10
-22.99997329711914
 20
-25.9999942779541
 11
23.00003051757813
 21
-25.9999942779541
  0
LINE
  5
1f9
100
AcDbEntity
  8
0
  6
CONTINUOUS
 62
     7
100
AcDbLine
 10
22.5
 20
-42.00000381469727
 11
-22.5
 21
-42.00000381469727
  0
LINE
  5
1fa
100
AcDbEntity
  8
0
  6
CONTINUOUS
 62
     7
100
AcDbLine
 10
-22.5
 20
-25.9999942779541
 11
-22.5
 21
-42.00000381469727
  0
LINE
  5
1fb
100
AcDbEntity
  8
0
  6
CONTINUOUS
 62
     7
100
AcDbLine
 10
22.5
 20
-25.9999942779541
 11
22.5
 21
-42.00000381469727
  0
LINE
  5
1fc
100
AcDbEntity
  8
0
  6
CONTINUOUS
 62
     7
100
AcDbLine
 10
30
 20
76
 11
-30
 21
76
  0
LINE
  5
1fd
100
AcDbEntity
  8
0
  6
CONTINUOUS
 62
     7
100
AcDbLine
 10
-30
 20
76
 11
-30
 21
56.00000381469727
  0
LINE
  5
1fe
100
AcDbEntity
  8
0
  6
CONTINUOUS
 62
     7
100
AcDbLine
 10
30
 20
76
 11
30
 21
56.00000381469727
  0
LINE
  5
1ff
100
AcDbEntity
  8
0
  6
CONTINUOUS
 62
     7
100
AcDbLine
 10
30.00003814697266
 20
55.99999237060547
 11
-29.99998092651367
 21
55.99999237060547
  0
LINE
  5
200
100
AcDbEntity
  8
0
  6
CENTER
 62
     3
100
AcDbLine
 10
-23.41176986694336
 20
18.00000190734863
 11
-30
 21
18.00000190734863
  0
LINE
  5
201
100
AcDbEntity
  8
0
  6
DASHED
 62
     3
100
AcDbLine
 10
-23.99997711181641
 20
15.50000190734863
 11
-29.99998092651367
 21
15.50000190734863
  0
LINE
  5
202
100
AcDbEntity
  8
0
  6
DASHED
 62
     3
100
AcDbLine
 10
-23.99997711181641
 20
20.50000190734863
 11
-29.99998092651367
 21
20.50000190734863
  0
LINE
  5
203
100
AcDbEntity
  8
0
  6
DASHED
 62
     7
100
AcDbLine
 10
-23.99997711181641
 20
15.93299865722656
 11
-29.99998092651367
 21
15.93299865722656
  0
LINE
  5
204
100
AcDbEntity
  8
0
  6
DASHED
 62
     7
100
AcDbLine
 10
-23.99997711181641
 20
20.06699562072754
 11
-29.99998092651367
 21
20.06699562072754
  0
LINE
  5
205
100
AcDbEntity
  8
0
  6
CONTINUOUS
 62
     7
100
AcDbLine
 10
17.99999237060547
 20
74.5
 11
27.99999237060547
 21
74.5
  0
LINE
  5
206
100
AcDbEntity
  8
0
  6
CONTINUOUS
 62
     7
100
AcDbLine
 10
17.99999237060547
 20
68.5
 11
27.99999237060547
 21
68.5
  0
LINE
  5
207
100
AcDbEntity
  8
0
  6
CONTINUOUS
 62
     7
100
AcDbLine
 10
17.99999237060547
 20
74.5
 11
17.99999237060547
 21
67
  0
LINE
  5
208
100
AcDbEntity
  8
0
  6
CONTINUOUS
 62
     7
100
AcDbLine
 10
27.99999237060547
 20
74.5
 11
27.99999237060547
 21
67
  0
LINE
  5
209
100
AcDbEntity
  8
0
  6
CENTER
 62
     3
100
AcDbLine
 10
22.99999237060547
 20
76
 11
22.99999237060547
 21
25.9999942779541
  0
LINE
  5
20a
100
AcDbEntity
  8
0
  6
CONTINUOUS
 62
     7
100
AcDbLine
 10
15
 20
67
 11
30
 21
67
  0
LINE
  5
20b
100
AcDbEntity
  8
0
  6
CONTINUOUS
 62
     7
100
AcDbLine
 10
-18.0000114440918
 20
74.5
 11
-28.0000114440918
 21
74.5
  0
LINE
  5
20c
100
AcDbEntity
  8
0
  6
CONTINUOUS
 62
     7
100
AcDbLine
 10
-18.0000114440918
 20
68.5
 11
-28.0000114440918
 21
68.5
  0
LINE
  5
20d
100
AcDbEntity
  8
0
  6
CONTINUOUS
 62
     7
100
AcDbLine
 10
-18.0000114440918
 20
74.5
 11
-18.0000114440918
 21
67
  0
LINE
  5
20e
100
AcDbEntity
  8
0
  6
CONTINUOUS
 62
     7
100
AcDbLine
 10
-28.0000114440918
 20
74.5
 11
-28.0000114440918
 21
67
  0
LINE
  5
20f
100
AcDbEntity
  8
0
  6
CENTER
 62
     3
100
AcDbLine
 10
-23.0000114440918
 20
76
 11
-23.0000114440918
 21
25.9999942779541
  0
LINE
  5
210
100
AcDbEntity
  8
0
  6
CONTINUOUS
 62
     7
100
AcDbLine
 10
-15
 20
67
 11
-30
 21
67
  0
LINE
  5
211
100
AcDbEntity
  8
0
  6
CONTINUOUS
 62
     7
100
AcDbLine
 10
-15
 20
76
 11
-15
 21
67
  0
LINE
  5
212
100
AcDbEntity
  8
0
  6
CONTINUOUS
 62
     7
100
AcDbLine
 10
15
 20
76
 11
15
 21
67
  0
LINE
  5
213
100
AcDbEntity
  8
0
  6
CONTINUOUS
 62
     7
100
AcDbLine
 10
25.99998474121094
 20
56.00000381469727
 11
25.99998474121094
 21
26.00000381469727
  0
LINE
  5
214
100
AcDbEntity
  8
0
  6
CONTINUOUS
 62
     7
100
AcDbLine
 10
20
 20
56.00000381469727
 11
20
 21
26.00000381469727
  0
LINE
  5
215
100
AcDbEntity
  8
0
  6
CONTINUOUS
 62
     7
100
AcDbLine
 10
-20
 20
56.00000381469727
 11
-20
 21
26.00000381469727
  0
LINE
  5
216
100
AcDbEntity
  8
0
  6
CONTINUOUS
 62
     7
100
AcDbLine
 10
-26.00002288818359
 20
56.00000381469727
 11
-26.00002288818359
 21
26.00000381469727
  0
LINE
  5
217
100
AcDbEntity
  8
0
  6
CONTINUOUS
 62
     7
100
AcDbLine
 10
-27.5
 20
55.99999237060547
 11
-27.5
 21
25.9999942779541
  0
LINE
  5
218
100
AcDbEntity
  8
0
  6
CONTINUOUS
 62
     7
100
AcDbLine
 10
27.5
 20
55.99999237060547
 11
27.5
 21
25.9999942779541
  0
LINE
  5
219
100
AcDbEntity
  8
0
  6
CONTINUOUS
 62
     7
100
AcDbLine
 10
-3.999996185302734
 20
76
 11
-3.999996185302734
 21
55.99999237060547
  0
LINE
  5
21a
100
AcDbEntity
  8
0
  6
CONTINUOUS
 62
     7
100
AcDbLine
 10
3.999996185302734
 20
76
 11
3.999996185302734
 21
55.99999237060547
  0
LINE
  5
21b
100
AcDbEntity
  8
0
  6
CENTER
 62
     3
100
AcDbLine
 10
30
 20
21.9999942779541
 11
19.47848701477051
 21
21.9999942779541
  0
LINE
  5
21c
100
AcDbEntity
  8
0
  6
DASHED
 62
     7
100
AcDbLine
 10
27
 20
24.94999122619629
 11
27
 21
19.04999923706055
  0
LINE
  5
21d
100
AcDbEntity
  8
0
  6
DASHED
 62
     7
100
AcDbLine
 10
30
 20
19.04999923706055
 11
27
 21
19.04999923706055
  0
LINE
  5
21e
100
AcDbEntity
  8
0
  6
DASHED
 62
     7
100
AcDbLine
 10
30
 20
24.94999122619629
 11
27
 21
24.94999122619629
  0
LINE
  5
21f
100
AcDbEntity
  8
0
  6
DASHED
 62
     7
100
AcDbLine
 10
26.162841796875
 20
20.4999942779541
 11
20.00000190734863
 21
20.4999942779541
  0
LINE
  5
220
100
AcDbEntity
  8
0
  6
DASHED
 62
     7
100
AcDbLine
 10
26.162841796875
 20
23.4999942779541
 11
20.00000190734863
 21
23.4999942779541
  0
LINE
  5
221
100
AcDbEntity
  8
0
  6
DASHED
 62
     7
100
AcDbLine
 10
26.99999898531436
 20
19.04999855887473
 11
26.16284327431534
 21
20.49999475814661
  0
LINE
  5
222
100
AcDbEntity
  8
0
  6
DASHED
 62
     7
100
AcDbLine
 10
26.99999713726299
 20
24.94998429647458
 11
26.1628465522635
 21
23.49999697569415
  0
LINE
  5
223
100
AcDbEntity
  8
0
  6
DASHED
 62
     7
100
AcDbLine
 10
26.162841796875
 20
23.4999942779541
 11
26.162841796875
 21
20.4999942779541
  0
ARC
  5
224
100
AcDbEntity
  8
0
  6
CONTINUOUS
 62
     7
100
AcDbCircle
 10
0
 20
-11.00000381469727
 40
33
100
AcDbArc
 50
48.18971176213693
 51
131.8103326677284
  0
ARC
  5
225
100
AcDbEntity
  8
0
  6
CONTINUOUS
 62
     7
100
AcDbCircle
 10
0
 20
11.00000858306885
 40
33
100
AcDbArc
 50
228.1896673322723
 51
311.8102882378638
  0
CIRCLE
  5
226
100
AcDbEntity
  8
0
  6
CONTINUOUS
 62
     7
100
AcDbCircle
 10
0
 20
0
 40
11.50000476837158
  0
CIRCLE
  5
227
100
AcDbEntity
  8
0
  6
CONTINUOUS
 62
     3
100
AcDbCircle
 10
0
 20
0
 40
13.32619857788086
  0
MTEXT
  5
228
100
AcDbEntity
  8
0
  6
CONTINUOUS
 62
     7
100
AcDbMText
 10
-18.10218142057166
 20
59.66580366695628
 40
0.5
 41
22
 71
     7
 72
     1
  1
{\W0.844085;ＢＮ－５Ｂ２１－２０Ａ}
  0
INSERT
  5
229
100
AcDbEntity
  8
0
  6
CONTINUOUS
 62
     7
100
AcDbBlockReference
  2
KOZU0008
 10
0
 20
0
  0
INSERT
  5
22a
100
AcDbEntity
  8
0
  6
CONTINUOUS
 62
     3
100
AcDbBlockReference
  2
KOZU0009
 10
0
 20
0
  0
ENDBLK
  8
0
  5
22b
100
AcDbEntity
100
AcDbBlockEnd
  0
BLOCK
  8
0
  5
22c
100
AcDbEntity
100
AcDbBlockBegin
  2
KOZU0004
 70
    64
 10
0
 20
0
  0
POINT
  5
22d
100
AcDbEntity
  8
0
  6
CONTINUOUS
 62
     7
100
AcDbPoint
 10
0
 20
0
  0
LINE
  5
22e
100
AcDbEntity
  8
0
  6
CENTER
 62
     3
100
AcDbLine
 10
0
 20
80.40087247561236
 11
0
 21
-46.80644607543945
  0
LINE
  5
22f
100
AcDbEntity
  8
0
  6
CENTER
 62
     3
100
AcDbLine
 10
-17.911878505324
 20
0
 11
17.88937593486767
 21
0
  0
LINE
  5
230
100
AcDbEntity
  8
0
  6
CONTINUOUS
 62
     7
100
AcDbLine
 10
-30
 20
26.00000381469727
 11
-30
 21
-22.00000190734863
  0
LINE
  5
231
100
AcDbEntity
  8
0
  6
CONTINUOUS
 62
     7
100
AcDbLine
 10
-30.00002861022949
 20
25.9999942779541
 11
29.99998092651367
 21
25.9999942779541
  0
LINE
  5
232
100
AcDbEntity
  8
0
  6
CONTINUOUS
 62
     7
100
AcDbLine
 10
-30
 20
-22.00000190734863
 11
30
 21
-22.00000190734863
  0
LINE
  5
233
100
AcDbEntity
  8
0
  6
CONTINUOUS
 62
     7
100
AcDbLine
 10
-21.9999885559082
 20
13.59675417370251
 11
-21.9999885559082
 21
-13.59674940533093
  0
LINE
  5
234
100
AcDbEntity
  8
0
  6
CONTINUOUS
 62
     7
100
AcDbLine
 10
-5.999984741210938
 20
26.00000381469727
 11
-5.999984741210938
 21
21.44996048582603
  0
LINE
  5
235
100
AcDbEntity
  8
0
  6
CONTINUOUS
 62
     7
100
AcDbLine
 10
30
 20
26.00000381469727
 11
30
 21
-22.00000190734863
  0
LINE
  5
236
100
AcDbEntity
  8
0
  6
CONTINUOUS
 62
     7
100
AcDbLine
 10
22.00000762939453
 20
13.59673711386037
 11
22.00000762939453
 21
-13.59673234548879
  0
LINE
  5
237
100
AcDbEntity
  8
0
  6
CONTINUOUS
 62
     7
100
AcDbLine
 10
5.999984741210938
 20
26.00000381469727
 11
5.999984741210938
 21
21.44996048582603
  0
LINE
  5
238
100
AcDbEntity
  8
0
  6
CONTINUOUS
 62
     7
100
AcDbLine
 10
-24.00000476618178
 20
-22.00000190734864
 11
-23.0000018149606
 21
-26.00001322071946
  0
LINE
  5
239
100
AcDbEntity
  8
0
  6
CONTINUOUS
 62
     7
100
AcDbLine
 10
23.99996347913235
 20
-22.00000190734864
 11
22.99996341916176
 21
-26.00000165571856
  0
LINE
  5
23a
100
AcDbEntity
  8
0
  6
CONTINUOUS
 62
     7
100
AcDbLine
 10
22.99997329711914
 20
-25.9999942779541
 11
-23.00003051757813
 21
-25.9999942779541
  0
LINE
  5
23b
100
AcDbEntity
  8
0
  6
CONTINUOUS
 62
     7
100
AcDbLine
 10
-22.5
 20
-42.00000381469727
 11
22.5
 21
-42.00000381469727
  0
LINE
  5
23c
100
AcDbEntity
  8
0
  6
CONTINUOUS
 62
     7
100
AcDbLine
 10
22.5
 20
-25.9999942779541
 11
22.5
 21
-42.00000381469727
  0
LINE
  5
23d
100
AcDbEntity
  8
0
  6
CONTINUOUS
 62
     7
100
AcDbLine
 10
-22.5
 20
-25.9999942779541
 11
-22.5
 21
-42.00000381469727
  0
LINE
  5
23e
100
AcDbEntity
  8
0
  6
CONTINUOUS
 62
     7
100
AcDbLine
 10
-30
 20
76
 11
30
 21
76
  0
LINE
  5
23f
100
AcDbEntity
  8
0
  6
CONTINUOUS
 62
     7
100
AcDbLine
 10
30
 20
76
 11
30
 21
56.00000381469727
  0
LINE
  5
240
100
AcDbEntity
  8
0
  6
CONTINUOUS
 62
     7
100
AcDbLine
 10
-30
 20
76
 11
-30
 21
56.00000381469727
  0
LINE
  5
241
100
AcDbEntity
  8
0
  6
CONTINUOUS
 62
     7
100
AcDbLine
 10
-30.00003814697266
 20
55.99999237060547
 11
29.99998092651367
 21
55.99999237060547
  0
LINE
  5
242
100
AcDbEntity
  8
0
  6
CENTER
 62
     3
100
AcDbLine
 10
23.41176986694336
 20
18.00000190734863
 11
30
 21
18.00000190734863
  0
LINE
  5
243
100
AcDbEntity
  8
0
  6
DASHED
 62
     3
100
AcDbLine
 10
23.99997711181641
 20
15.50000190734863
 11
29.99998092651367
 21
15.50000190734863
  0
LINE
  5
244
100
AcDbEntity
  8
0
  6
DASHED
 62
     3
100
AcDbLine
 10
23.99997711181641
 20
20.50000190734863
 11
29.99998092651367
 21
20.50000190734863
  0
LINE
  5
245
100
AcDbEntity
  8
0
  6
DASHED
 62
     7
100
AcDbLine
 10
23.99997711181641
 20
15.93299865722656
 11
29.99998092651367
 21
15.93299865722656
  0
LINE
  5
246
100
AcDbEntity
  8
0
  6
DASHED
 62
     7
100
AcDbLine
 10
23.99997711181641
 20
20.06699562072754
 11
29.99998092651367
 21
20.06699562072754
  0
LINE
  5
247
100
AcDbEntity
  8
0
  6
CONTINUOUS
 62
     7
100
AcDbLine
 10
-17.99999237060547
 20
74.5
 11
-27.99999237060547
 21
74.5
  0
LINE
  5
248
100
AcDbEntity
  8
0
  6
CONTINUOUS
 62
     7
100
AcDbLine
 10
-17.99999237060547
 20
68.5
 11
-27.99999237060547
 21
68.5
  0
LINE
  5
249
100
AcDbEntity
  8
0
  6
CONTINUOUS
 62
     7
100
AcDbLine
 10
-17.99999237060547
 20
74.5
 11
-17.99999237060547
 21
67
  0
LINE
  5
24a
100
AcDbEntity
  8
0
  6
CONTINUOUS
 62
     7
100
AcDbLine
 10
-27.99999237060547
 20
74.5
 11
-27.99999237060547
 21
67
  0
LINE
  5
24b
100
AcDbEntity
  8
0
  6
CENTER
 62
     3
100
AcDbLine
 10
-22.99999237060547
 20
75.36023499939833
 11
-22.99999237060547
 21
25.9999942779541
  0
LINE
  5
24c
100
AcDbEntity
  8
0
  6
CONTINUOUS
 62
     7
100
AcDbLine
 10
-15
 20
67
 11
-30
 21
67
  0
LINE
  5
24d
100
AcDbEntity
  8
0
  6
CONTINUOUS
 62
     7
100
AcDbLine
 10
18.0000114440918
 20
74.5
 11
28.0000114440918
 21
74.5
  0
LINE
  5
24e
100
AcDbEntity
  8
0
  6
CONTINUOUS
 62
     7
100
AcDbLine
 10
18.0000114440918
 20
68.5
 11
28.0000114440918
 21
68.5
  0
LINE
  5
24f
100
AcDbEntity
  8
0
  6
CONTINUOUS
 62
     7
100
AcDbLine
 10
18.0000114440918
 20
74.5
 11
18.0000114440918
 21
67
  0
LINE
  5
250
100
AcDbEntity
  8
0
  6
CONTINUOUS
 62
     7
100
AcDbLine
 10
28.0000114440918
 20
74.5
 11
28.0000114440918
 21
67
  0
LINE
  5
251
100
AcDbEntity
  8
0
  6
CENTER
 62
     3
100
AcDbLine
 10
23.0000114440918
 20
75.36023499939833
 11
23.0000114440918
 21
25.9999942779541
  0
LINE
  5
252
100
AcDbEntity
  8
0
  6
CONTINUOUS
 62
     7
100
AcDbLine
 10
15
 20
67
 11
30
 21
67
  0
LINE
  5
253
100
AcDbEntity
  8
0
  6
CONTINUOUS
 62
     7
100
AcDbLine
 10
15
 20
76
 11
15
 21
67
  0
LINE
  5
254
100
AcDbEntity
  8
0
  6
CONTINUOUS
 62
     7
100
AcDbLine
 10
-15
 20
76
 11
-15
 21
67
  0
LINE
  5
255
100
AcDbEntity
  8
0
  6
CONTINUOUS
 62
     7
100
AcDbLine
 10
-25.99998474121094
 20
56.00000381469727
 11
-25.99998474121094
 21
26.00000381469727
  0
LINE
  5
256
100
AcDbEntity
  8
0
  6
CONTINUOUS
 62
     7
100
AcDbLine
 10
-20
 20
56.00000381469727
 11
-20
 21
26.00000381469727
  0
LINE
  5
257
100
AcDbEntity
  8
0
  6
CONTINUOUS
 62
     7
100
AcDbLine
 10
20
 20
56.00000381469727
 11
20
 21
26.00000381469727
  0
LINE
  5
258
100
AcDbEntity
  8
0
  6
CONTINUOUS
 62
     7
100
AcDbLine
 10
26.00002288818359
 20
56.00000381469727
 11
26.00002288818359
 21
26.00000381469727
  0
LINE
  5
259
100
AcDbEntity
  8
0
  6
CONTINUOUS
 62
     7
100
AcDbLine
 10
27.5
 20
55.99999237060547
 11
27.5
 21
25.9999942779541
  0
LINE
  5
25a
100
AcDbEntity
  8
0
  6
CONTINUOUS
 62
     7
100
AcDbLine
 10
-27.5
 20
55.99999237060547
 11
-27.5
 21
25.9999942779541
  0
LINE
  5
25b
100
AcDbEntity
  8
0
  6
CONTINUOUS
 62
     7
100
AcDbLine
 10
3.999996185302734
 20
76
 11
3.999996185302734
 21
55.99999237060547
  0
LINE
  5
25c
100
AcDbEntity
  8
0
  6
CONTINUOUS
 62
     7
100
AcDbLine
 10
-3.999996185302734
 20
76
 11
-3.999996185302734
 21
55.99999237060547
  0
LINE
  5
25d
100
AcDbEntity
  8
0
  6
CENTER
 62
     3
100
AcDbLine
 10
-30
 20
21.9999942779541
 11
-19.47848701477051
 21
21.9999942779541
  0
LINE
  5
25e
100
AcDbEntity
  8
0
  6
DASHED
 62
     7
100
AcDbLine
 10
-27
 20
24.94999122619629
 11
-27
 21
19.04999923706055
  0
LINE
  5
25f
100
AcDbEntity
  8
0
  6
DASHED
 62
     7
100
AcDbLine
 10
-30
 20
19.04999923706055
 11
-27
 21
19.04999923706055
  0
LINE
  5
260
100
AcDbEntity
  8
0
  6
DASHED
 62
     7
100
AcDbLine
 10
-30
 20
24.94999122619629
 11
-27
 21
24.94999122619629
  0
LINE
  5
261
100
AcDbEntity
  8
0
  6
DASHED
 62
     7
100
AcDbLine
 10
-26.162841796875
 20
20.4999942779541
 11
-20.00000190734863
 21
20.4999942779541
  0
LINE
  5
262
100
AcDbEntity
  8
0
  6
DASHED
 62
     7
100
AcDbLine
 10
-26.162841796875
 20
23.4999942779541
 11
-20.00000190734863
 21
23.4999942779541
  0
LINE
  5
263
100
AcDbEntity
  8
0
  6
DASHED
 62
     7
100
AcDbLine
 10
-26.99999898531435
 20
19.04999855887472
 11
-26.16284327431533
 21
20.4999947581466
  0
LINE
  5
264
100
AcDbEntity
  8
0
  6
DASHED
 62
     7
100
AcDbLine
 10
-26.99999713726302
 20
24.94998429647453
 11
-26.16284655226352
 21
23.49999697569412
  0
LINE
  5
265
100
AcDbEntity
  8
0
  6
DASHED
 62
     7
100
AcDbLine
 10
-26.162841796875
 20
23.4999942779541
 11
-26.162841796875
 21
20.4999942779541
  0
ARC
  5
266
100
AcDbEntity
  8
0
  6
CONTINUOUS
 62
     7
100
AcDbCircle
 10
0
 20
-11.00000381469727
 40
33
100
AcDbArc
 50
48.18966733227155
 51
131.8102882378631
  0
ARC
  5
267
100
AcDbEntity
  8
0
  6
CONTINUOUS
 62
     7
100
AcDbCircle
 10
0
 20
11.00000858306885
 40
33
100
AcDbArc
 50
228.1897117621377
 51
311.8103326677291
  0
CIRCLE
  5
268
100
AcDbEntity
  8
0
  6
CONTINUOUS
 62
     7
100
AcDbCircle
 10
0
 20
0
 40
11.50000476837158
  0
CIRCLE
  5
269
100
AcDbEntity
  8
0
  6
CONTINUOUS
 62
     3
100
AcDbCircle
 10
0
 20
0
 40
13.32619857788086
  0
MTEXT
  5
26a
100
AcDbEntity
  8
0
  6
CONTINUOUS
 62
     7
100
AcDbMText
 10
-17.87977446328191
 20
60.12253226785098
 40
0.5
 41
22
 71
     7
 72
     1
  1
{\W0.844085;ＢＮ－５Ｂ２１－２０Ａ}
  0
INSERT
  5
26b
100
AcDbEntity
  8
0
  6
CONTINUOUS
 62
     7
100
AcDbBlockReference
  2
KOZU0010
 10
0
 20
0
  0
INSERT
  5
26c
100
AcDbEntity
  8
0
  6
CONTINUOUS
 62
     3
100
AcDbBlockReference
  2
KOZU0011
 10
0
 20
0
  0
ENDBLK
  8
0
  5
26d
100
AcDbEntity
100
AcDbBlockEnd
  0
BLOCK
  8
0
  5
26e
100
AcDbEntity
100
AcDbBlockBegin
  2
KOZU0005
 70
    64
 10
0
 20
0
  0
POINT
  5
26f
100
AcDbEntity
  8
0
  6
CONTINUOUS
 62
     7
100
AcDbPoint
 10
0
 20
0
  0
LINE
  5
270
100
AcDbEntity
  8
0
  6
CENTER
 62
     3
100
AcDbLine
 10
0
 20
81.07809377896584
 11
0
 21
-45.5286865234375
  0
LINE
  5
271
100
AcDbEntity
  8
0
  6
CONTINUOUS
 62
     7
100
AcDbLine
 10
-50
 20
22.00000762939453
 11
-50
 21
-21.99999809265137
  0
LINE
  5
272
100
AcDbEntity
  8
0
  6
CONTINUOUS
 62
     7
100
AcDbLine
 10
50
 20
22.00000762939453
 11
50
 21
-21.99999809265137
  0
LINE
  5
273
100
AcDbEntity
  8
0
  6
CONTINUOUS
 62
     7
100
AcDbLine
 10
40
 20
25.9999942779541
 11
-40
 21
25.9999942779541
  0
LINE
  5
274
100
AcDbEntity
  8
0
  6
CONTINUOUS
 62
     7
100
AcDbLine
 10
50
 20
-21.99999809265137
 11
-50
 21
-21.99999809265137
  0
LINE
  5
275
100
AcDbEntity
  8
0
  6
CENTER
 62
     3
100
AcDbLine
 10
53.14598083496094
 20
0
 11
-53.01889419555664
 21
0
  0
LINE
  5
276
100
AcDbEntity
  8
0
  6
CONTINUOUS
 62
     7
100
AcDbLine
 10
50
 20
22.00000762939453
 11
30
 21
22.00000762939453
  0
LINE
  5
277
100
AcDbEntity
  8
0
  6
CONTINUOUS
 62
     7
100
AcDbLine
 10
-30
 20
22.00000762939453
 11
-50
 21
22.00000762939453
  0
LINE
  5
278
100
AcDbEntity
  8
0
  6
CONTINUOUS
 62
     7
100
AcDbLine
 10
24.00010807039898
 20
-21.99999809265137
 11
23.00009069211041
 21
-26.00000665807264
  0
LINE
  5
279
100
AcDbEntity
  8
0
  6
CONTINUOUS
 62
     7
100
AcDbLine
 10
-24.00000976781239
 20
-21.99999809265136
 11
-22.99999123309536
 21
-26.00001128371599
  0
LINE
  5
27a
100
AcDbEntity
  8
0
  6
DASHED
 62
     7
100
AcDbLine
 10
34.00000812176288
 20
11.60475757595002
 11
49.9999676577966
 21
12.16348844865286
  0
LINE
  5
27b
100
AcDbEntity
  8
0
  6
DASHED
 62
     7
100
AcDbLine
 10
50.00004798390118
 20
-12.16348361965713
 11
34.00005032413291
 21
-11.6047514156442
  0
LINE
  5
27c
100
AcDbEntity
  8
0
  6
DASHED
 62
     3
100
AcDbLine
 10
34.00005686258631
 20
12.76746249942012
 11
50.00001639862002
 21
13.32619337212297
  0
LINE
  5
27d
100
AcDbEntity
  8
0
  6
DASHED
 62
     3
100
AcDbLine
 10
50.00002001129696
 20
-13.32619922381416
 11
34.00002235152869
 21
-12.76746701980123
  0
LINE
  5
27e
100
AcDbEntity
  8
0
  6
DASHED
 62
     7
100
AcDbLine
 10
-33.9999925727243
 20
-11.60476562126626
 11
-49.99993304689074
 21
-12.16349582831406
  0
LINE
  5
27f
100
AcDbEntity
  8
0
  6
DASHED
 62
     7
100
AcDbLine
 10
-49.99998197537337
 20
12.16351566779108
 11
-33.99996525373782
 21
11.60478279812311
  0
LINE
  5
280
100
AcDbEntity
  8
0
  6
DASHED
 62
     3
100
AcDbLine
 10
-34.00004164637524
 20
-12.76746101380273
 11
-50.00000118240895
 21
-13.32619188650557
  0
LINE
  5
281
100
AcDbEntity
  8
0
  6
DASHED
 62
     3
100
AcDbLine
 10
-49.99997386342247
 20
13.32620906336243
 11
-34.00003338925603
 21
12.76747885631462
  0
LINE
  5
282
100
AcDbEntity
  8
0
  6
CONTINUOUS
 62
     7
100
AcDbLine
 10
23.00003051757813
 20
-25.9999942779541
 11
-23.00003051757813
 21
-25.9999942779541
  0
LINE
  5
283
100
AcDbEntity
  8
0
  6
CONTINUOUS
 62
     7
100
AcDbLine
 10
22.5
 20
-42.00000381469727
 11
-22.5
 21
-42.00000381469727
  0
LINE
  5
284
100
AcDbEntity
  8
0
  6
CONTINUOUS
 62
     7
100
AcDbLine
 10
-22.5
 20
-25.9999942779541
 11
-22.5
 21
-42.00000381469727
  0
LINE
  5
285
100
AcDbEntity
  8
0
  6
CONTINUOUS
 62
     7
100
AcDbLine
 10
22.5
 20
-25.9999942779541
 11
22.5
 21
-42.00000381469727
  0
LINE
  5
286
100
AcDbEntity
  8
0
  6
CONTINUOUS
 62
     7
100
AcDbLine
 10
-27.5
 20
56.00000381469727
 11
-27.5
 21
26.00000381469727
  0
LINE
  5
287
100
AcDbEntity
  8
0
  6
CONTINUOUS
 62
     7
100
AcDbLine
 10
27.5
 20
56.00000381469727
 11
27.5
 21
26.00000381469727
  0
LINE
  5
288
100
AcDbEntity
  8
0
  6
CONTINUOUS
 62
     7
100
AcDbLine
 10
-30
 20
76
 11
-30
 21
56.00000381469727
  0
LINE
  5
289
100
AcDbEntity
  8
0
  6
CONTINUOUS
 62
     7
100
AcDbLine
 10
30
 20
76
 11
30
 21
56.00000381469727
  0
LINE
  5
28a
100
AcDbEntity
  8
0
  6
CONTINUOUS
 62
     7
100
AcDbLine
 10
30
 20
55.99999237060547
 11
-30
 21
55.99999237060547
  0
LINE
  5
28b
100
AcDbEntity
  8
0
  6
CONTINUOUS
 62
     7
100
AcDbLine
 10
30
 20
76.00001525878906
 11
-30
 21
76.00001525878906
  0
LINE
  5
28c
100
AcDbEntity
  8
0
  6
CONTINUOUS
 62
     7
100
AcDbLine
 10
18.00003051757813
 20
74.5
 11
28.00003051757813
 21
74.5
  0
LINE
  5
28d
100
AcDbEntity
  8
0
  6
CONTINUOUS
 62
     7
100
AcDbLine
 10
18.00003051757813
 20
68.50001525878906
 11
28.00003051757813
 21
68.50001525878906
  0
LINE
  5
28e
100
AcDbEntity
  8
0
  6
CONTINUOUS
 62
     7
100
AcDbLine
 10
18.00003051757813
 20
74.5
 11
18.00003051757813
 21
67
  0
LINE
  5
28f
100
AcDbEntity
  8
0
  6
CONTINUOUS
 62
     7
100
AcDbLine
 10
20
 20
56.00000381469727
 11
20
 21
26.00000381469727
  0
LINE
  5
290
100
AcDbEntity
  8
0
  6
CONTINUOUS
 62
     7
100
AcDbLine
 10
28.00003051757813
 20
74.5
 11
28.00003051757813
 21
67
  0
LINE
  5
291
100
AcDbEntity
  8
0
  6
CENTER
 62
     3
100
AcDbLine
 10
23.00003051757813
 20
76
 11
23.00003051757813
 21
25.9999942779541
  0
LINE
  5
292
100
AcDbEntity
  8
0
  6
CONTINUOUS
 62
     7
100
AcDbLine
 10
15
 20
67
 11
30
 21
67
  0
LINE
  5
293
100
AcDbEntity
  8
0
  6
CONTINUOUS
 62
     7
100
AcDbLine
 10
-17.99999237060547
 20
74.5
 11
-27.99999237060547
 21
74.5
  0
LINE
  5
294
100
AcDbEntity
  8
0
  6
CONTINUOUS
 62
     7
100
AcDbLine
 10
-17.99999237060547
 20
68.50001525878906
 11
-27.99999237060547
 21
68.50001525878906
  0
LINE
  5
295
100
AcDbEntity
  8
0
  6
CONTINUOUS
 62
     7
100
AcDbLine
 10
-17.99999237060547
 20
74.5
 11
-17.99999237060547
 21
67
  0
LINE
  5
296
100
AcDbEntity
  8
0
  6
CONTINUOUS
 62
     7
100
AcDbLine
 10
-20
 20
56.00000381469727
 11
-20
 21
26.00000381469727
  0
LINE
  5
297
100
AcDbEntity
  8
0
  6
CONTINUOUS
 62
     7
100
AcDbLine
 10
-27.99999237060547
 20
74.5
 11
-27.99999237060547
 21
67
  0
LINE
  5
298
100
AcDbEntity
  8
0
  6
CONTINUOUS
 62
     7
100
AcDbLine
 10
-25.99998474121094
 20
56.00000381469727
 11
-25.99998474121094
 21
26.00000381469727
  0
LINE
  5
299
100
AcDbEntity
  8
0
  6
CENTER
 62
     3
100
AcDbLine
 10
-22.99999237060547
 20
76
 11
-22.99999237060547
 21
25.9999942779541
  0
LINE
  5
29a
100
AcDbEntity
  8
0
  6
CONTINUOUS
 62
     7
100
AcDbLine
 10
-15
 20
67
 11
-30
 21
67
  0
LINE
  5
29b
100
AcDbEntity
  8
0
  6
CONTINUOUS
 62
     7
100
AcDbLine
 10
25.99998474121094
 20
56.00000381469727
 11
25.99998474121094
 21
26.00000381469727
  0
LINE
  5
29c
100
AcDbEntity
  8
0
  6
CONTINUOUS
 62
     7
100
AcDbLine
 10
-15
 20
76
 11
-15
 21
67
  0
LINE
  5
29d
100
AcDbEntity
  8
0
  6
CONTINUOUS
 62
     7
100
AcDbLine
 10
15
 20
76
 11
15
 21
67
  0
LINE
  5
29e
100
AcDbEntity
  8
0
  6
CONTINUOUS
 62
     7
100
AcDbLine
 10
30
 20
25.9999942779541
 11
30
 21
-21.99999809265137
  0
LINE
  5
29f
100
AcDbEntity
  8
0
  6
CONTINUOUS
 62
     7
100
AcDbLine
 10
-30
 20
25.9999942779541
 11
-30
 21
-21.99999809265137
  0
LINE
  5
2a0
100
AcDbEntity
  8
0
  6
CONTINUOUS
 62
     7
100
AcDbLine
 10
40
 20
25.9999942779541
 11
40
 21
22.00000762939453
  0
LINE
  5
2a1
100
AcDbEntity
  8
0
  6
CONTINUOUS
 62
     7
100
AcDbLine
 10
-39.99998092651367
 20
25.9999942779541
 11
-39.99998092651367
 21
22.00000762939453
  0
LINE
  5
2a2
100
AcDbEntity
  8
0
  6
CONTINUOUS
 62
     7
100
AcDbLine
 10
50
 20
-13.59675407409668
 11
30
 21
-13.59675407409668
  0
LINE
  5
2a3
100
AcDbEntity
  8
0
  6
CONTINUOUS
 62
     7
100
AcDbLine
 10
50
 20
13.59674453735352
 11
30
 21
13.59674453735352
  0
LINE
  5
2a4
100
AcDbEntity
  8
0
  6
CONTINUOUS
 62
     7
100
AcDbLine
 10
-30
 20
13.59674453735352
 11
-50.00001907348633
 21
13.59674453735352
  0
LINE
  5
2a5
100
AcDbEntity
  8
0
  6
CONTINUOUS
 62
     7
100
AcDbLine
 10
-30
 20
-13.59675407409668
 11
-50.00001907348633
 21
-13.59675407409668
  0
LINE
  5
2a6
100
AcDbEntity
  8
0
  6
CONTINUOUS
 62
     7
100
AcDbLine
 10
-1.500000596046448
 20
2.999999284744263
 11
-1.500000596046448
 21
1.499999642372131
  0
LINE
  5
2a7
100
AcDbEntity
  8
0
  6
CONTINUOUS
 62
     7
100
AcDbLine
 10
5.999997615814209
 20
0
 11
-7.499999046325684
 21
0
  0
LINE
  5
2a8
100
AcDbEntity
  8
0
  6
CONTINUOUS
 62
     7
100
AcDbLine
 10
7.499997615814209
 20
1.499999642372131
 11
-1.500000596046448
 21
1.499999642372131
  0
LINE
  5
2a9
100
AcDbEntity
  8
0
  6
CONTINUOUS
 62
     7
100
AcDbLine
 10
-1.500001131669714
 20
2.999999355943378
 11
-7.49999899056423
 21
4.26496119754205e-007
  0
LINE
  5
2aa
100
AcDbEntity
  8
0
  6
CONTINUOUS
 62
     7
100
AcDbLine
 10
7.499997637859996
 20
1.499999932181745
 11
5.999997705678251
 21
0
  0
LINE
  5
2ab
100
AcDbEntity
  8
0
  6
CENTER
 62
     3
100
AcDbLine
 10
-2.5
 20
18.00000190734863
 11
2.5
 21
18.00000190734863
  0
CIRCLE
  5
2ac
100
AcDbEntity
  8
0
  6
CONTINUOUS
 62
     3
100
AcDbCircle
 10
0
 20
18.00000190734863
 40
2.5
  0
CIRCLE
  5
2ad
100
AcDbEntity
  8
0
  6
CONTINUOUS
 62
     7
100
AcDbCircle
 10
0
 20
18.00000190734863
 40
2.049999952316284
  0
MTEXT
  5
2ae
100
AcDbEntity
  8
0
  6
CONTINUOUS
 62
     7
100
AcDbMText
 10
-17.25239596812164
 20
60.05213149126838
 40
0.5
 41
22
 71
     7
 72
     1
  1
{\W0.844085;ＢＮ－５Ｂ２１－２０Ａ}
  0
INSERT
  5
2af
100
AcDbEntity
  8
0
  6
CONTINUOUS
 62
     7
100
AcDbBlockReference
  2
KOZU0012
 10
0
 20
0
  0
ENDBLK
  8
0
  5
2b0
100
AcDbEntity
100
AcDbBlockEnd
  0
BLOCK
  8
0
  5
2b1
100
AcDbEntity
100
AcDbBlockBegin
  2
KOZU0006
 70
    64
 10
0
 20
0
  0
POINT
  5
2b2
100
AcDbEntity
  8
0
  6
CONTINUOUS
 62
     7
100
AcDbPoint
 10
0
 20
0
  0
LINE
  5
2b3
100
AcDbEntity
  8
0
  6
CENTER
 62
     3
100
AcDbLine
 10
-55.26393890380859
 20
0
 11
54.67672348022461
 21
0
  0
LINE
  5
2b4
100
AcDbEntity
  8
0
  6
CENTER
 62
     3
100
AcDbLine
 10
0
 20
33.88817596435547
 11
0
 21
-34.53264236450195
  0
LINE
  5
2b5
100
AcDbEntity
  8
0
  6
CONTINUOUS
 62
     7
100
AcDbLine
 10
30
 20
23
 11
30
 21
-23.00000190734863
  0
LINE
  5
2b6
100
AcDbEntity
  8
0
  6
CONTINUOUS
 62
     7
100
AcDbLine
 10
-30
 20
23
 11
-30
 21
-23.00000190734863
  0
LINE
  5
2b7
100
AcDbEntity
  8
0
  6
CONTINUOUS
 62
     7
100
AcDbLine
 10
-23
 20
30
 11
23.00000190734863
 21
30
  0
LINE
  5
2b8
100
AcDbEntity
  8
0
  6
CONTINUOUS
 62
     7
100
AcDbLine
 10
-23
 20
-30
 11
23.00000190734863
 21
-30
  0
LINE
  5
2b9
100
AcDbEntity
  8
0
  6
CONTINUOUS
 62
     7
100
AcDbLine
 10
-50
 20
-21.99999809265137
 11
-30
 21
-21.99999809265137
  0
LINE
  5
2ba
100
AcDbEntity
  8
0
  6
CONTINUOUS
 62
     7
100
AcDbLine
 10
-50
 20
22
 11
-50
 21
-21.99999809265137
  0
LINE
  5
2bb
100
AcDbEntity
  8
0
  6
CONTINUOUS
 62
     7
100
AcDbLine
 10
-50
 20
22
 11
-30
 21
22
  0
LINE
  5
2bc
100
AcDbEntity
  8
0
  6
CONTINUOUS
 62
     7
100
AcDbLine
 10
50
 20
22
 11
50
 21
-21.99999809265137
  0
LINE
  5
2bd
100
AcDbEntity
  8
0
  6
CONTINUOUS
 62
     7
100
AcDbLine
 10
30
 20
22
 11
50
 21
22
  0
LINE
  5
2be
100
AcDbEntity
  8
0
  6
CONTINUOUS
 62
     7
100
AcDbLine
 10
30
 20
-21.99999809265137
 11
50
 21
-21.99999809265137
  0
LINE
  5
2bf
100
AcDbEntity
  8
0
  6
DASHED
 62
     7
100
AcDbLine
 10
-49.99999999999999
 20
-13.5
 11
-35
 21
-13.1072111764622
  0
LINE
  5
2c0
100
AcDbEntity
  8
0
  6
DASHED
 62
     7
100
AcDbLine
 10
-49.99999999999999
 20
13.5
 11
-35
 21
13.1072111764622
  0
LINE
  5
2c1
100
AcDbEntity
  8
0
  6
DASHED
 62
     7
100
AcDbLine
 10
-49.99999999999999
 20
12.29958864901096
 11
-35
 21
11.90679982547316
  0
LINE
  5
2c2
100
AcDbEntity
  8
0
  6
DASHED
 62
     7
100
AcDbLine
 10
-49.99999999999999
 20
-12.29958864901096
 11
-35
 21
-11.90679982547316
  0
LINE
  5
2c3
100
AcDbEntity
  8
0
  6
DASHED
 62
     7
100
AcDbLine
 10
49.99999999999999
 20
13.5
 11
35
 21
13.1072111764622
  0
LINE
  5
2c4
100
AcDbEntity
  8
0
  6
DASHED
 62
     7
100
AcDbLine
 10
49.99999999999999
 20
-13.5
 11
35
 21
-13.1072111764622
  0
LINE
  5
2c5
100
AcDbEntity
  8
0
  6
DASHED
 62
     7
100
AcDbLine
 10
49.99999999999999
 20
12.29958864901096
 11
35
 21
11.90679982547316
  0
LINE
  5
2c6
100
AcDbEntity
  8
0
  6
DASHED
 62
     7
100
AcDbLine
 10
49.99999999999999
 20
-12.29958864901096
 11
35
 21
-11.90679982547316
  0
CIRCLE
  5
2c7
100
AcDbEntity
  8
0
  6
CONTINUOUS
 62
     7
100
AcDbCircle
 10
0
 20
0
 40
22.5
  0
ARC
  5
2c8
100
AcDbEntity
  8
0
  6
CONTINUOUS
 62
     7
100
AcDbCircle
 10
-23
 20
-23.00000190734863
 40
7
100
AcDbArc
 50
179.9999776881997
 51
270.0000280040027
  0
ARC
  5
2c9
100
AcDbEntity
  8
0
  6
CONTINUOUS
 62
     7
100
AcDbCircle
 10
23.00000190734863
 20
23
 40
7
100
AcDbArc
 50
0
 51
89.99998201391064
  0
ARC
  5
2ca
100
AcDbEntity
  8
0
  6
CONTINUOUS
 62
     7
100
AcDbCircle
 10
-23
 20
23
 40
7
100
AcDbArc
 50
89.99998201391064
 51
179.9999640278213
  0
ARC
  5
2cb
100
AcDbEntity
  8
0
  6
CONTINUOUS
 62
     7
100
AcDbCircle
 10
23.00000190734863
 20
-23.00000190734863
 40
7
100
AcDbArc
 50
270.00001798609
 51
360
  0
CIRCLE
  5
2cc
100
AcDbEntity
  8
0
  6
CONTINUOUS
 62
     7
100
AcDbCircle
 10
0
 20
0
 40
24
  0
MTEXT
  5
2cd
100
AcDbEntity
  8
0
  6
CONTINUOUS
 62
     7
100
AcDbMText
 10
-24.37920909373199
 20
25.50817284527947
 40
0.5
 41
22
 71
     7
 72
     1
  1
{\W0.844085;ＢＮ－５Ｂ２１－２０Ａ}
  0
ENDBLK
  8
0
  5
2ce
100
AcDbEntity
100
AcDbBlockEnd
  0
BLOCK
  8
0
  5
2cf
100
AcDbEntity
100
AcDbBlockBegin
  2
KOZU0007
 70
    64
 10
0
 20
0
  0
LINE
  5
2d0
100
AcDbEntity
  8
0
  6
CONTINUOUS
 62
     7
100
AcDbLine
 10
-9.693610390570161
 20
-40.00000762939453
 11
-9.500015258789063
 21
-39.80641211042278
  0
LINE
  5
2d1
100
AcDbEntity
  8
0
  6
CONTINUOUS
 62
     7
100
AcDbLine
 10
-11.37740670418705
 20
-40.00000762939453
 11
-9.500015258789063
 21
-38.1226124292099
  0
LINE
  5
2d2
100
AcDbEntity
  8
0
  6
CONTINUOUS
 62
     7
100
AcDbLine
 10
-13.06120301780393
 20
-40.00000762939453
 11
-9.500015258789063
 21
-36.43881274799702
  0
LINE
  5
2d3
100
AcDbEntity
  8
0
  6
CONTINUOUS
 62
     7
100
AcDbLine
 10
-14.74499933142082
 20
-40.00000762939453
 11
-9.500015258789061
 21
-34.75501306678414
  0
LINE
  5
2d4
100
AcDbEntity
  8
0
  6
CONTINUOUS
 62
     7
100
AcDbLine
 10
-16.4287956450377
 20
-40.00000762939453
 11
-9.500015258789064
 21
-33.07121338557126
  0
LINE
  5
2d5
100
AcDbEntity
  8
0
  6
CONTINUOUS
 62
     7
100
AcDbLine
 10
-18.11259195865459
 20
-40.00000762939453
 11
-9.500015258789064
 21
-31.38741370435838
  0
LINE
  5
2d6
100
AcDbEntity
  8
0
  6
CONTINUOUS
 62
     7
100
AcDbLine
 10
-19.50001525878906
 20
-39.70363402316551
 11
-9.796410179596293
 21
-30.00000953674316
  0
LINE
  5
2d7
100
AcDbEntity
  8
0
  6
CONTINUOUS
 62
     7
100
AcDbLine
 10
-19.50001525878907
 20
-38.01983434195262
 11
-11.48020649321318
 21
-30.00000953674316
  0
LINE
  5
2d8
100
AcDbEntity
  8
0
  6
CONTINUOUS
 62
     7
100
AcDbLine
 10
-19.50001525878906
 20
-36.33603466073974
 11
-13.16400280683006
 21
-30.00000953674316
  0
LINE
  5
2d9
100
AcDbEntity
  8
0
  6
CONTINUOUS
 62
     7
100
AcDbLine
 10
-19.50001525878906
 20
-34.65223497952685
 11
-14.84779912044695
 21
-30.00000953674316
  0
LINE
  5
2da
100
AcDbEntity
  8
0
  6
CONTINUOUS
 62
     7
100
AcDbLine
 10
-19.50001525878906
 20
-32.96843529831398
 11
-16.53159543406383
 21
-30.00000953674316
  0
LINE
  5
2db
100
AcDbEntity
  8
0
  6
CONTINUOUS
 62
     7
100
AcDbLine
 10
-19.50001525878906
 20
-31.2846356171011
 11
-18.21539174768072
 21
-30.00000953674316
  0
LINE
  5
2dc
100
AcDbEntity
  8
0
  6
CONTINUOUS
 62
     7
100
AcDbLine
 10
-9.500015258789064
 20
-30.8981317004925
 11
-10.39813921878453
 21
-30.00000953674316
  0
LINE
  5
2dd
100
AcDbEntity
  8
0
  6
CONTINUOUS
 62
     7
100
AcDbLine
 10
-9.500015258789064
 20
-32.58192801410938
 11
-12.0819388999974
 21
-30.00000953674316
  0
LINE
  5
2de
100
AcDbEntity
  8
0
  6
CONTINUOUS
 62
     7
100
AcDbLine
 10
-9.500015258789064
 20
-34.26572432772627
 11
-13.76573858121028
 21
-30.00000953674316
  0
LINE
  5
2df
100
AcDbEntity
  8
0
  6
CONTINUOUS
 62
     7
100
AcDbLine
 10
-9.500015258789059
 20
-35.94952064134316
 11
-15.44953826242316
 21
-30.00000953674316
  0
LINE
  5
2e0
100
AcDbEntity
  8
0
  6
CONTINUOUS
 62
     7
100
AcDbLine
 10
-9.500015258789059
 20
-37.63331695496004
 11
-17.13333794363604
 21
-30.00000953674316
  0
LINE
  5
2e1
100
AcDbEntity
  8
0
  6
CONTINUOUS
 62
     7
100
AcDbLine
 10
-9.500015258789061
 20
-39.31711326857692
 11
-18.81713762484892
 21
-30.00000953674316
  0
LINE
  5
2e2
100
AcDbEntity
  8
0
  6
CONTINUOUS
 62
     7
100
AcDbLine
 10
-10.50091921339424
 20
-40.00000762939453
 11
-19.50001525878906
 21
-31.00092958217381
  0
LINE
  5
2e3
100
AcDbEntity
  8
0
  6
CONTINUOUS
 62
     7
100
AcDbLine
 10
-12.18471889460712
 20
-40.00000762939453
 11
-19.50001525878906
 21
-32.68472589579069
  0
LINE
  5
2e4
100
AcDbEntity
  8
0
  6
CONTINUOUS
 62
     7
100
AcDbLine
 10
-13.86851857582001
 20
-40.00000762939453
 11
-19.50001525878906
 21
-34.36852220940758
  0
LINE
  5
2e5
100
AcDbEntity
  8
0
  6
CONTINUOUS
 62
     7
100
AcDbLine
 10
-15.55231825703289
 20
-40.00000762939453
 11
-19.50001525878906
 21
-36.05231852302447
  0
LINE
  5
2e6
100
AcDbEntity
  8
0
  6
CONTINUOUS
 62
     7
100
AcDbLine
 10
-17.23611793824576
 20
-40.00000762939453
 11
-19.50001525878906
 21
-37.73611483664135
  0
LINE
  5
2e7
100
AcDbEntity
  8
0
  6
CONTINUOUS
 62
     7
100
AcDbLine
 10
-18.91991761945865
 20
-40.00000762939453
 11
-19.50001525878906
 21
-39.41991115025823
  0
ENDBLK
  8
0
  5
2e8
100
AcDbEntity
100
AcDbBlockEnd
  0
BLOCK
  8
0
  5
2e9
100
AcDbEntity
100
AcDbBlockBegin
  2
KOZU0008
 70
    64
 10
0
 20
0
  0
LINE
  5
2ea
100
AcDbEntity
  8
0
  6
CONTINUOUS
 62
     7
100
AcDbLine
 10
-9.693610390570161
 20
-40.00000762939453
 11
-9.500015258789063
 21
-39.80641211042278
  0
LINE
  5
2eb
100
AcDbEntity
  8
0
  6
CONTINUOUS
 62
     7
100
AcDbLine
 10
-11.37740670418705
 20
-40.00000762939453
 11
-9.500015258789063
 21
-38.1226124292099
  0
LINE
  5
2ec
100
AcDbEntity
  8
0
  6
CONTINUOUS
 62
     7
100
AcDbLine
 10
-13.06120301780393
 20
-40.00000762939453
 11
-9.500015258789063
 21
-36.43881274799702
  0
LINE
  5
2ed
100
AcDbEntity
  8
0
  6
CONTINUOUS
 62
     7
100
AcDbLine
 10
-14.74499933142082
 20
-40.00000762939453
 11
-9.500015258789061
 21
-34.75501306678414
  0
LINE
  5
2ee
100
AcDbEntity
  8
0
  6
CONTINUOUS
 62
     7
100
AcDbLine
 10
-16.4287956450377
 20
-40.00000762939453
 11
-9.500015258789064
 21
-33.07121338557126
  0
LINE
  5
2ef
100
AcDbEntity
  8
0
  6
CONTINUOUS
 62
     7
100
AcDbLine
 10
-18.11259195865459
 20
-40.00000762939453
 11
-9.500015258789064
 21
-31.38741370435838
  0
LINE
  5
2f0
100
AcDbEntity
  8
0
  6
CONTINUOUS
 62
     7
100
AcDbLine
 10
-19.50001525878906
 20
-39.70363402316551
 11
-9.796410179596293
 21
-30.00000953674316
  0
LINE
  5
2f1
100
AcDbEntity
  8
0
  6
CONTINUOUS
 62
     7
100
AcDbLine
 10
-19.50001525878907
 20
-38.01983434195262
 11
-11.48020649321318
 21
-30.00000953674316
  0
LINE
  5
2f2
100
AcDbEntity
  8
0
  6
CONTINUOUS
 62
     7
100
AcDbLine
 10
-19.50001525878906
 20
-36.33603466073974
 11
-13.16400280683006
 21
-30.00000953674316
  0
LINE
  5
2f3
100
AcDbEntity
  8
0
  6
CONTINUOUS
 62
     7
100
AcDbLine
 10
-19.50001525878906
 20
-34.65223497952685
 11
-14.84779912044695
 21
-30.00000953674316
  0
LINE
  5
2f4
100
AcDbEntity
  8
0
  6
CONTINUOUS
 62
     7
100
AcDbLine
 10
-19.50001525878906
 20
-32.96843529831398
 11
-16.53159543406383
 21
-30.00000953674316
  0
LINE
  5
2f5
100
AcDbEntity
  8
0
  6
CONTINUOUS
 62
     7
100
AcDbLine
 10
-19.50001525878906
 20
-31.2846356171011
 11
-18.21539174768072
 21
-30.00000953674316
  0
LINE
  5
2f6
100
AcDbEntity
  8
0
  6
CONTINUOUS
 62
     7
100
AcDbLine
 10
-9.500015258789064
 20
-30.8981317004925
 11
-10.39813921878453
 21
-30.00000953674316
  0
LINE
  5
2f7
100
AcDbEntity
  8
0
  6
CONTINUOUS
 62
     7
100
AcDbLine
 10
-9.500015258789064
 20
-32.58192801410938
 11
-12.0819388999974
 21
-30.00000953674316
  0
LINE
  5
2f8
100
AcDbEntity
  8
0
  6
CONTINUOUS
 62
     7
100
AcDbLine
 10
-9.500015258789064
 20
-34.26572432772627
 11
-13.76573858121028
 21
-30.00000953674316
  0
LINE
  5
2f9
100
AcDbEntity
  8
0
  6
CONTINUOUS
 62
     7
100
AcDbLine
 10
-9.500015258789059
 20
-35.94952064134316
 11
-15.44953826242316
 21
-30.00000953674316
  0
LINE
  5
2fa
100
AcDbEntity
  8
0
  6
CONTINUOUS
 62
     7
100
AcDbLine
 10
-9.500015258789059
 20
-37.63331695496004
 11
-17.13333794363604
 21
-30.00000953674316
  0
LINE
  5
2fb
100
AcDbEntity
  8
0
  6
CONTINUOUS
 62
     7
100
AcDbLine
 10
-9.500015258789061
 20
-39.31711326857692
 11
-18.81713762484892
 21
-30.00000953674316
  0
LINE
  5
2fc
100
AcDbEntity
  8
0
  6
CONTINUOUS
 62
     7
100
AcDbLine
 10
-10.50091921339424
 20
-40.00000762939453
 11
-19.50001525878906
 21
-31.00092958217381
  0
LINE
  5
2fd
100
AcDbEntity
  8
0
  6
CONTINUOUS
 62
     7
100
AcDbLine
 10
-12.18471889460712
 20
-40.00000762939453
 11
-19.50001525878906
 21
-32.68472589579069
  0
LINE
  5
2fe
100
AcDbEntity
  8
0
  6
CONTINUOUS
 62
     7
100
AcDbLine
 10
-13.86851857582001
 20
-40.00000762939453
 11
-19.50001525878906
 21
-34.36852220940758
  0
LINE
  5
2ff
100
AcDbEntity
  8
0
  6
CONTINUOUS
 62
     7
100
AcDbLine
 10
-15.55231825703289
 20
-40.00000762939453
 11
-19.50001525878906
 21
-36.05231852302447
  0
LINE
  5
300
100
AcDbEntity
  8
0
  6
CONTINUOUS
 62
     7
100
AcDbLine
 10
-17.23611793824576
 20
-40.00000762939453
 11
-19.50001525878906
 21
-37.73611483664135
  0
LINE
  5
301
100
AcDbEntity
  8
0
  6
CONTINUOUS
 62
     7
100
AcDbLine
 10
-18.91991761945865
 20
-40.00000762939453
 11
-19.50001525878906
 21
-39.41991115025823
  0
ENDBLK
  8
0
  5
302
100
AcDbEntity
100
AcDbBlockEnd
  0
BLOCK
  8
0
  5
303
100
AcDbEntity
100
AcDbBlockBegin
  2
KOZU0009
 70
    64
 10
0
 20
0
  0
LINE
  5
304
100
AcDbEntity
  8
0
  6
CONTINUOUS
 62
     3
100
AcDbLine
 10
28.43146584562921
 20
19.04999923706055
 11
30
 21
20.61853659706573
  0
LINE
  5
305
100
AcDbEntity
  8
0
  6
CONTINUOUS
 62
     3
100
AcDbLine
 10
27
 20
19.41458298997086
 11
30
 21
22.41458912111129
  0
LINE
  5
306
100
AcDbEntity
  8
0
  6
CONTINUOUS
 62
     3
100
AcDbLine
 10
27
 20
21.21063551401643
 11
30
 21
24.21064164515686
  0
LINE
  5
307
100
AcDbEntity
  8
0
  6
CONTINUOUS
 62
     3
100
AcDbLine
 10
27
 20
23.00668803806199
 11
28.94329921658751
 21
24.94999122619629
  0
LINE
  5
308
100
AcDbEntity
  8
0
  6
CONTINUOUS
 62
     3
100
AcDbLine
 10
27.00000000000001
 20
24.80274056210756
 11
27.14725036315119
 21
24.9499912261963
  0
LINE
  5
309
100
AcDbEntity
  8
0
  6
CONTINUOUS
 62
     3
100
AcDbLine
 10
30
 20
24.69708562899272
 11
29.74709388592986
 21
24.94999122619629
  0
LINE
  5
30a
100
AcDbEntity
  8
0
  6
CONTINUOUS
 62
     3
100
AcDbLine
 10
30
 20
22.9010367755564
 11
27.95104136188429
 21
24.94999122619629
  0
LINE
  5
30b
100
AcDbEntity
  8
0
  6
CONTINUOUS
 62
     3
100
AcDbLine
 10
30
 20
21.10498792212009
 11
27
 21
24.10498179099218
  0
LINE
  5
30c
100
AcDbEntity
  8
0
  6
CONTINUOUS
 62
     3
100
AcDbLine
 10
30
 20
19.30893906868377
 11
27
 21
22.30893293755587
  0
LINE
  5
30d
100
AcDbEntity
  8
0
  6
CONTINUOUS
 62
     3
100
AcDbLine
 10
28.46288783677649
 20
19.04999923706055
 11
27
 21
20.51288408411955
  0
ENDBLK
  8
0
  5
30e
100
AcDbEntity
100
AcDbBlockEnd
  0
BLOCK
  8
0
  5
30f
100
AcDbEntity
100
AcDbBlockBegin
  2
KOZU0010
 70
    64
 10
0
 20
0
  0
LINE
  5
310
100
AcDbEntity
  8
0
  6
CONTINUOUS
 62
     7
100
AcDbLine
 10
18.93092694091688
 20
-40.00000762939453
 11
19.50001525878906
 21
-39.43091817334457
  0
LINE
  5
311
100
AcDbEntity
  8
0
  6
CONTINUOUS
 62
     7
100
AcDbLine
 10
17.2471306273
 20
-40.00000762939453
 11
19.50001525878906
 21
-37.7471184921317
  0
LINE
  5
312
100
AcDbEntity
  8
0
  6
CONTINUOUS
 62
     7
100
AcDbLine
 10
15.56333431368311
 20
-40.00000762939453
 11
19.50001525878906
 21
-36.06331881091882
  0
LINE
  5
313
100
AcDbEntity
  8
0
  6
CONTINUOUS
 62
     7
100
AcDbLine
 10
13.87953800006623
 20
-40.00000762939453
 11
19.50001525878906
 21
-34.37951912970593
  0
LINE
  5
314
100
AcDbEntity
  8
0
  6
CONTINUOUS
 62
     7
100
AcDbLine
 10
12.19574168644934
 20
-40.00000762939453
 11
19.50001525878906
 21
-32.69571944849305
  0
LINE
  5
315
100
AcDbEntity
  8
0
  6
CONTINUOUS
 62
     7
100
AcDbLine
 10
10.51194537283246
 20
-40.00000762939453
 11
19.50001525878906
 21
-31.01191976728017
  0
LINE
  5
316
100
AcDbEntity
  8
0
  6
CONTINUOUS
 62
     7
100
AcDbLine
 10
9.500015258789063
 20
-39.3281400860873
 11
18.82812715189075
 21
-30.00000953674316
  0
LINE
  5
317
100
AcDbEntity
  8
0
  6
CONTINUOUS
 62
     7
100
AcDbLine
 10
9.500015258789066
 20
-37.64434040487441
 11
17.14433083827387
 21
-30.00000953674316
  0
LINE
  5
318
100
AcDbEntity
  8
0
  6
CONTINUOUS
 62
     7
100
AcDbLine
 10
9.500015258789059
 20
-35.96054072366154
 11
15.46053452465698
 21
-30.00000953674316
  0
LINE
  5
319
100
AcDbEntity
  8
0
  6
CONTINUOUS
 62
     7
100
AcDbLine
 10
9.500015258789063
 20
-34.27674104244866
 11
13.77673821104009
 21
-30.00000953674316
  0
LINE
  5
31a
100
AcDbEntity
  8
0
  6
CONTINUOUS
 62
     7
100
AcDbLine
 10
9.500015258789059
 20
-32.59294136123577
 11
12.09294189742321
 21
-30.00000953674316
  0
LINE
  5
31b
100
AcDbEntity
  8
0
  6
CONTINUOUS
 62
     7
100
AcDbLine
 10
9.500015258789061
 20
-30.9091416800229
 11
10.40914558380632
 21
-30.00000953674316
  0
LINE
  5
31c
100
AcDbEntity
  8
0
  6
CONTINUOUS
 62
     7
100
AcDbLine
 10
19.50001525878906
 20
-31.27356688658053
 11
18.22645536183444
 21
-30.00000953674316
  0
LINE
  5
31d
100
AcDbEntity
  8
0
  6
CONTINUOUS
 62
     7
100
AcDbLine
 10
19.50001525878907
 20
-32.95736320019742
 11
16.54265568062157
 21
-30.00000953674317
  0
LINE
  5
31e
100
AcDbEntity
  8
0
  6
CONTINUOUS
 62
     7
100
AcDbLine
 10
19.50001525878906
 20
-34.6411595138143
 11
14.85885599940868
 21
-30.00000953674316
  0
LINE
  5
31f
100
AcDbEntity
  8
0
  6
CONTINUOUS
 62
     7
100
AcDbLine
 10
19.50001525878906
 20
-36.32495582743119
 11
13.1750563181958
 21
-30.00000953674316
  0
LINE
  5
320
100
AcDbEntity
  8
0
  6
CONTINUOUS
 62
     7
100
AcDbLine
 10
19.50001525878907
 20
-38.00875214104808
 11
11.49125663698292
 21
-30.00000953674316
  0
LINE
  5
321
100
AcDbEntity
  8
0
  6
CONTINUOUS
 62
     7
100
AcDbLine
 10
19.50001525878906
 20
-39.69254845466496
 11
9.807456955770039
 21
-30.00000953674316
  0
LINE
  5
322
100
AcDbEntity
  8
0
  6
CONTINUOUS
 62
     7
100
AcDbLine
 10
18.12367536722471
 20
-40.00000762939453
 11
9.500015258789061
 21
-31.37636476826185
  0
LINE
  5
323
100
AcDbEntity
  8
0
  6
CONTINUOUS
 62
     7
100
AcDbLine
 10
16.43987568601184
 20
-40.00000762939453
 11
9.500015258789059
 21
-33.06016108187873
  0
LINE
  5
324
100
AcDbEntity
  8
0
  6
CONTINUOUS
 62
     7
100
AcDbLine
 10
14.75607600479895
 20
-40.00000762939453
 11
9.500015258789064
 21
-34.74395739549562
  0
LINE
  5
325
100
AcDbEntity
  8
0
  6
CONTINUOUS
 62
     7
100
AcDbLine
 10
13.07227632358607
 20
-40.00000762939453
 11
9.500015258789057
 21
-36.4277537091125
  0
LINE
  5
326
100
AcDbEntity
  8
0
  6
CONTINUOUS
 62
     7
100
AcDbLine
 10
11.3884766423732
 20
-40.00000762939453
 11
9.500015258789059
 21
-38.11155002272938
  0
LINE
  5
327
100
AcDbEntity
  8
0
  6
CONTINUOUS
 62
     7
100
AcDbLine
 10
9.704676961160315
 20
-40.00000762939453
 11
9.500015258789057
 21
-39.79534633634627
  0
ENDBLK
  8
0
  5
328
100
AcDbEntity
100
AcDbBlockEnd
  0
BLOCK
  8
0
  5
329
100
AcDbEntity
100
AcDbBlockBegin
  2
KOZU0011
 70
    64
 10
0
 20
0
  0
LINE
  5
32a
100
AcDbEntity
  8
0
  6
CONTINUOUS
 62
     3
100
AcDbLine
 10
-27.24604861089662
 20
19.04999923706055
 11
-27
 21
19.29604835081003
  0
LINE
  5
32b
100
AcDbEntity
  8
0
  6
CONTINUOUS
 62
     3
100
AcDbLine
 10
-29.04209746433294
 20
19.04999923706055
 11
-27.00000000000001
 21
21.09210087485559
  0
LINE
  5
32c
100
AcDbEntity
  8
0
  6
CONTINUOUS
 62
     3
100
AcDbLine
 10
-30
 20
19.88814726776073
 11
-27.00000000000001
 21
22.88815339890115
  0
LINE
  5
32d
100
AcDbEntity
  8
0
  6
CONTINUOUS
 62
     3
100
AcDbLine
 10
-30
 20
21.68419979180629
 11
-27
 21
24.68420592294672
  0
LINE
  5
32e
100
AcDbEntity
  8
0
  6
CONTINUOUS
 62
     3
100
AcDbLine
 10
-30
 20
23.48025231585185
 11
-28.53026409337465
 21
24.94999122619629
  0
LINE
  5
32f
100
AcDbEntity
  8
0
  6
CONTINUOUS
 62
     3
100
AcDbLine
 10
-27
 20
24.22340582760046
 11
-27.72658688352821
 21
24.94999122619629
  0
LINE
  5
330
100
AcDbEntity
  8
0
  6
CONTINUOUS
 62
     3
100
AcDbLine
 10
-27
 20
22.42735697416414
 11
-29.52263940757377
 21
24.94999122619629
  0
LINE
  5
331
100
AcDbEntity
  8
0
  6
CONTINUOUS
 62
     3
100
AcDbLine
 10
-27
 20
20.63130812072783
 11
-30
 21
23.63130198959993
  0
LINE
  5
332
100
AcDbEntity
  8
0
  6
CONTINUOUS
 62
     3
100
AcDbLine
 10
-27.21474040863602
 20
19.04999923706055
 11
-30
 21
21.8352531361636
  0
LINE
  5
333
100
AcDbEntity
  8
0
  6
CONTINUOUS
 62
     3
100
AcDbLine
 10
-29.01079293268158
 20
19.04999923706055
 11
-30
 21
20.03920428272729
  0
ENDBLK
  8
0
  5
334
100
AcDbEntity
100
AcDbBlockEnd
  0
BLOCK
  8
0
  5
335
100
AcDbEntity
100
AcDbBlockBegin
  2
KOZU0012
 70
    64
 10
0
 20
0
  0
LINE
  5
336
100
AcDbEntity
  8
0
  6
CONTINUOUS
 62
     7
100
AcDbLine
 10
18.93092694091688
 20
-40.00000762939453
 11
19.50001525878906
 21
-39.43091817334457
  0
LINE
  5
337
100
AcDbEntity
  8
0
  6
CONTINUOUS
 62
     7
100
AcDbLine
 10
17.2471306273
 20
-40.00000762939453
 11
19.50001525878906
 21
-37.7471184921317
  0
LINE
  5
338
100
AcDbEntity
  8
0
  6
CONTINUOUS
 62
     7
100
AcDbLine
 10
15.56333431368311
 20
-40.00000762939453
 11
19.50001525878906
 21
-36.06331881091882
  0
LINE
  5
339
100
AcDbEntity
  8
0
  6
CONTINUOUS
 62
     7
100
AcDbLine
 10
13.87953800006623
 20
-40.00000762939453
 11
19.50001525878906
 21
-34.37951912970593
  0
LINE
  5
33a
100
AcDbEntity
  8
0
  6
CONTINUOUS
 62
     7
100
AcDbLine
 10
12.19574168644934
 20
-40.00000762939453
 11
19.50001525878906
 21
-32.69571944849305
  0
LINE
  5
33b
100
AcDbEntity
  8
0
  6
CONTINUOUS
 62
     7
100
AcDbLine
 10
10.51194537283246
 20
-40.00000762939453
 11
19.50001525878906
 21
-31.01191976728017
  0
LINE
  5
33c
100
AcDbEntity
  8
0
  6
CONTINUOUS
 62
     7
100
AcDbLine
 10
9.500015258789063
 20
-39.3281400860873
 11
18.82812715189075
 21
-30.00000953674316
  0
LINE
  5
33d
100
AcDbEntity
  8
0
  6
CONTINUOUS
 62
     7
100
AcDbLine
 10
9.500015258789066
 20
-37.64434040487441
 11
17.14433083827387
 21
-30.00000953674316
  0
LINE
  5
33e
100
AcDbEntity
  8
0
  6
CONTINUOUS
 62
     7
100
AcDbLine
 10
9.500015258789059
 20
-35.96054072366154
 11
15.46053452465698
 21
-30.00000953674316
  0
LINE
  5
33f
100
AcDbEntity
  8
0
  6
CONTINUOUS
 62
     7
100
AcDbLine
 10
9.500015258789063
 20
-34.27674104244866
 11
13.77673821104009
 21
-30.00000953674316
  0
LINE
  5
340
100
AcDbEntity
  8
0
  6
CONTINUOUS
 62
     7
100
AcDbLine
 10
9.500015258789059
 20
-32.59294136123577
 11
12.09294189742321
 21
-30.00000953674316
  0
LINE
  5
341
100
AcDbEntity
  8
0
  6
CONTINUOUS
 62
     7
100
AcDbLine
 10
9.500015258789061
 20
-30.9091416800229
 11
10.40914558380632
 21
-30.00000953674316
  0
LINE
  5
342
100
AcDbEntity
  8
0
  6
CONTINUOUS
 62
     7
100
AcDbLine
 10
19.50001525878906
 20
-31.27356688658053
 11
18.22645536183444
 21
-30.00000953674316
  0
LINE
  5
343
100
AcDbEntity
  8
0
  6
CONTINUOUS
 62
     7
100
AcDbLine
 10
19.50001525878907
 20
-32.95736320019742
 11
16.54265568062157
 21
-30.00000953674317
  0
LINE
  5
344
100
AcDbEntity
  8
0
  6
CONTINUOUS
 62
     7
100
AcDbLine
 10
19.50001525878906
 20
-34.6411595138143
 11
14.85885599940868
 21
-30.00000953674316
  0
LINE
  5
345
100
AcDbEntity
  8
0
  6
CONTINUOUS
 62
     7
100
AcDbLine
 10
19.50001525878906
 20
-36.32495582743119
 11
13.1750563181958
 21
-30.00000953674316
  0
LINE
  5
346
100
AcDbEntity
  8
0
  6
CONTINUOUS
 62
     7
100
AcDbLine
 10
19.50001525878907
 20
-38.00875214104808
 11
11.49125663698292
 21
-30.00000953674316
  0
LINE
  5
347
100
AcDbEntity
  8
0
  6
CONTINUOUS
 62
     7
100
AcDbLine
 10
19.50001525878906
 20
-39.69254845466496
 11
9.807456955770039
 21
-30.00000953674316
  0
LINE
  5
348
100
AcDbEntity
  8
0
  6
CONTINUOUS
 62
     7
100
AcDbLine
 10
18.12367536722471
 20
-40.00000762939453
 11
9.500015258789061
 21
-31.37636476826185
  0
LINE
  5
349
100
AcDbEntity
  8
0
  6
CONTINUOUS
 62
     7
100
AcDbLine
 10
16.43987568601184
 20
-40.00000762939453
 11
9.500015258789059
 21
-33.06016108187873
  0
LINE
  5
34a
100
AcDbEntity
  8
0
  6
CONTINUOUS
 62
     7
100
AcDbLine
 10
14.75607600479895
 20
-40.00000762939453
 11
9.500015258789064
 21
-34.74395739549562
  0
LINE
  5
34b
100
AcDbEntity
  8
0
  6
CONTINUOUS
 62
     7
100
AcDbLine
 10
13.07227632358607
 20
-40.00000762939453
 11
9.500015258789057
 21
-36.4277537091125
  0
LINE
  5
34c
100
AcDbEntity
  8
0
  6
CONTINUOUS
 62
     7
100
AcDbLine
 10
11.3884766423732
 20
-40.00000762939453
 11
9.500015258789059
 21
-38.11155002272938
  0
LINE
  5
34d
100
AcDbEntity
  8
0
  6
CONTINUOUS
 62
     7
100
AcDbLine
 10
9.704676961160315
 20
-40.00000762939453
 11
9.500015258789057
 21
-39.79534633634627
  0
ENDBLK
  8
0
  5
34e
100
AcDbEntity
100
AcDbBlockEnd
  0
ENDSEC
  0
SECTION
  2
ENTITIES
  0
LINE
  5
34f
100
AcDbEntity
  8
0
  6
CONTINUOUS
 62
     7
100
AcDbLine
 10
156.9736470944457
 20
-23.79793985284911
 11
274.4152974850707
 21
-23.79793985284911
  0
LINE
  5
350
100
AcDbEntity
  8
0
  6
CONTINUOUS
 62
     7
100
AcDbLine
 10
156.9736776120239
 20
-23.79793985284911
 11
156.9736776120239
 21
-59.72152383722411
  0
LINE
  5
351
100
AcDbEntity
  8
0
  6
CONTINUOUS
 62
     7
100
AcDbLine
 10
156.9736470944457
 20
-59.72152383722411
 11
274.4152974850707
 21
-59.72152383722411
  0
LINE
  5
352
100
AcDbEntity
  8
0
  6
CONTINUOUS
 62
     7
100
AcDbLine
 10
274.4152974850707
 20
-23.79793985284911
 11
274.4152974850707
 21
-59.72152383722411
  0
MTEXT
  5
353
100
AcDbEntity
  8
0
  6
CONTINUOUS
 62
     7
100
AcDbMText
 10
161.6704051262908
 20
-55.24401529230224
 40
6
 41
72
 71
     7
 72
     1
  1
{\W0.855331;型　番}
  0
MTEXT
  5
354
100
AcDbEntity
  8
0
  6
CONTINUOUS
 62
     7
100
AcDbMText
 10
161.6704051262908
 20
-44.12294443048583
 40
6
 41
72
 71
     7
 72
     1
  1
{\W0.855331;品　名}
  0
MTEXT
  5
355
100
AcDbEntity
  8
0
  6
CONTINUOUS
 62
     7
100
AcDbMText
 10
191.3704173333221
 20
-55.24401529230224
 40
6
 41
264
 71
     7
 72
     1
  1
{\W0.844085;ＢＮ－５Ｂ２１－２０Ａ}
  0
MTEXT
  5
356
100
AcDbEntity
  8
0
  6
CONTINUOUS
 62
     7
100
AcDbMText
 10
191.3704173333221
 20
-44.12294443048583
 40
6
 41
168
 71
     7
 72
     1
  1
{\W0.846334;シリンダ操作弁}
  0
MTEXT
  5
357
100
AcDbEntity
  8
0
  6
CONTINUOUS
 62
     7
100
AcDbMText
 10
190.5585582024627
 20
-33.33061273492919
 40
6
 41
192
 71
     7
 72
     1
  1
{\W0.845552;日本精器株式会社}
  0
MTEXT
  5
358
100
AcDbEntity
  8
0
  6
CONTINUOUS
 62
     7
100
AcDbMText
 10
69.75939666430153
 20
187.8938409169515
 40
8
 41
64
 71
     7
 72
     1
  1
{\W0.864328;＊１}
  0
MTEXT
  5
359
100
AcDbEntity
  8
0
  6
CONTINUOUS
 62
     7
100
AcDbMText
 10
69.29084992408752
 20
220.2704772949219
 40
8
 41
64
 71
     7
 72
     1
  1
{\W0.864328;＊２}
  0
MTEXT
  5
35a
100
AcDbEntity
  8
0
  6
CONTINUOUS
 62
     7
100
AcDbMText
 10
-95.89865020645996
 20
184.922396130032
 40
8
 41
64
 71
     7
 72
     1
  1
{\W0.864328;＊３}
  0
MTEXT
  5
35b
100
AcDbEntity
  8
0
  6
CONTINUOUS
 62
     7
100
AcDbMText
 10
159.7883775340186
 20
186.4081185234918
 40
8
 41
64
 71
     7
 72
     1
  1
{\W0.864328;＊４}
  0
MTEXT
  5
35c
100
AcDbEntity
  8
0
  6
CONTINUOUS
 62
     7
100
AcDbMText
 10
313.4178691916997
 20
185.6652573267619
 40
8
 41
64
 71
     7
 72
     1
  1
{\W0.864328;＊５}
  0
MTEXT
  5
35d
100
AcDbEntity
  8
0
  6
CONTINUOUS
 62
     7
100
AcDbMText
 10
73.4737026479509
 20
-11.19295980665422
 40
8
 41
64
 71
     7
 72
     1
  1
{\W0.864328;＊６}
  0
INSERT
  5
35e
100
AcDbEntity
  8
0
  6
CONTINUOUS
 62
     7
100
AcDbBlockReference
  2
KOZU0001
 10
28.45014953613281
 20
103.447509765625
  0
INSERT
  5
35f
100
AcDbEntity
  8
0
  6
CONTINUOUS
 62
     7
100
AcDbBlockReference
  2
KOZU0002
 10
28.45014953613281
 20
255.7184448242188
  0
INSERT
  5
360
100
AcDbEntity
  8
0
  6
CONTINUOUS
 62
     7
100
AcDbBlockReference
  2
KOZU0003
 10
-125.9248657226563
 20
103.447509765625
  0
INSERT
  5
361
100
AcDbEntity
  8
0
  6
CONTINUOUS
 62
     7
100
AcDbBlockReference
  2
KOZU0005
 10
353.4501647949219
 20
103.447509765625
  0
INSERT
  5
362
100
AcDbEntity
  8
0
  6
CONTINUOUS
 62
     7
100
AcDbBlockReference
  2
KOZU0006
 10
28.45014953613281
 20
-40.59835052490234
  0
INSERT
  5
363
100
AcDbEntity
  8
0
  6
CONTINUOUS
 62
     7
100
AcDbBlockReference
  2
KOZU0004
 10
197.8251647949219
 20
103.447509765625
  0
LINE
  5
364
100
AcDbEntity
  8
0
  6
CONTINUOUS
 62
     7
100
AcDbLine
 10
167.5372621814969
 20
126.1005693938245
 11
159.860993586752
 21
138.7859013777156
  0
LINE
  5
365
100
AcDbEntity
  8
0
  6
CONTINUOUS
 62
     7
100
AcDbLine
 10
167.5372621814969
 20
126.1005693938245
 11
165.1285545313938
 21
128.1495025689098
  0
LINE
  5
366
100
AcDbEntity
  8
0
  6
CONTINUOUS
 62
     7
100
AcDbLine
 10
167.5372621814969
 20
126.1005693938245
 11
166.8396559664656
 21
129.1849405239545
  0
MTEXT
  5
367
100
AcDbEntity
  8
0
  6
CONTINUOUS
 62
     7
100
AcDbMText
 10
152.4878387451172
 20
138.7859039306641
 40
5
 41
120
 71
     6
 72
     1
  1
{\W0.847393;シリンダＥＸ}
  0
LINE
  5
368
100
AcDbEntity
  8
0
  6
CONTINUOUS
 62
     7
100
AcDbLine
 10
167.5372621814969
 20
126.1005693938245
 11
159.860993586752
 21
138.7859013777156
  0
LINE
  5
369
100
AcDbEntity
  8
0
  6
CONTINUOUS
 62
     7
100
AcDbLine
 10
159.860993586752
 20
138.7859013777157
 11
153.6308441162109
 21
138.7859013777157
  0
DIMENSION
  5
36a
100
AcDbEntity
  8
0
  6
CONTINUOUS
 62
     7
100
AcDbDimension
  2
*D1
 70
     0
 10
78.45016479492188
 20
33.03852081298828
 11
28.45013427734375
 21
33.03852081298828
  3
DIMSTYLE
100
AcDbAlignedDimension
 13
-21.54983520507813
 23
82.44750213623047
 14
78.45016479492188
 24
82.44750213623047
 50
0
100
AcDbRotatedDimension
1001
ACAD
1000
DSTYLE
1002
{
1070
     6
1000
_OPEN30
1070
     7
1000
_OPEN30
1070
    77
1070
     1
1070
   172
1070
     1
1070
    42
1040
0
1002
}
  0
DIMENSION
  5
36b
100
AcDbEntity
  8
0
  6
CONTINUOUS
 62
     7
100
AcDbDimension
  2
*D2
 70
     0
 10
227.8251647949219
 20
33.03852081298828
 11
197.8251495361328
 21
33.03852081298828
  3
DIMSTYLE
100
AcDbAlignedDimension
 13
167.8251647949219
 23
83.44749450683594
 14
227.8251647949219
 24
83.44749450683594
 50
0
100
AcDbRotatedDimension
1001
ACAD
1000
DSTYLE
1002
{
1070
     6
1000
_OPEN30
1070
     7
1000
_OPEN30
1070
    77
1070
     1
1070
   172
1070
     1
1070
    42
1040
0
1002
}
  0
LINE
  5
36c
100
AcDbEntity
  8
0
  6
CONTINUOUS
 62
     7
100
AcDbLine
 10
-14.61805301358681
 20
116.5316282199598
 11
-22.83045444323254
 21
137.2130160308785
  0
LINE
  5
36d
100
AcDbEntity
  8
0
  6
CONTINUOUS
 62
     7
100
AcDbLine
 10
-14.61805301358681
 20
116.5316282199598
 11
-16.29479601038477
 21
119.2313986952611
  0
LINE
  5
36e
100
AcDbEntity
  8
0
  6
CONTINUOUS
 62
     7
100
AcDbLine
 10
-14.61805301358681
 20
116.5316282199598
 11
-15.2501437658315
 21
119.6462211271543
  0
MTEXT
  5
36f
100
AcDbEntity
  8
0
  6
CONTINUOUS
 62
     7
100
AcDbMText
 10
-30.85204696655273
 20
137.2130279541016
 40
5
 41
140
 71
     6
 72
     1
  1
{\W0.846334;２－Ｒｃ３／４}
  0
LINE
  5
370
100
AcDbEntity
  8
0
  6
CONTINUOUS
 62
     7
100
AcDbLine
 10
-14.61805301358681
 20
116.5316282199598
 11
-22.83045444323254
 21
137.2130160308785
  0
LINE
  5
371
100
AcDbEntity
  8
0
  6
CONTINUOUS
 62
     7
100
AcDbLine
 10
-22.83045444323254
 20
137.2130160308785
 11
-29.70904731750488
 21
137.2130160308785
  0
LINE
  5
372
100
AcDbEntity
  8
0
  6
CONTINUOUS
 62
     7
100
AcDbLine
 10
224.7362019517387
 20
123.9474831537013
 11
228.4121829118186
 21
137.7906809679485
  0
LINE
  5
373
100
AcDbEntity
  8
0
  6
CONTINUOUS
 62
     7
100
AcDbLine
 10
224.7362019517387
 20
123.9474831537013
 11
224.9958265839685
 21
127.1149462942855
  0
LINE
  5
374
100
AcDbEntity
  8
0
  6
CONTINUOUS
 62
     7
100
AcDbLine
 10
224.7362019517387
 20
123.9474831537013
 11
226.0821776249874
 21
126.826472070603
  0
MTEXT
  5
375
100
AcDbEntity
  8
0
  6
CONTINUOUS
 62
     7
100
AcDbMText
 10
231.4544067382813
 20
137.7906799316406
 40
5
 41
100
 71
     4
 72
     1
  1
{\W0.848905;Ｍ５ドレン}
  0
LINE
  5
376
100
AcDbEntity
  8
0
  6
CONTINUOUS
 62
     7
100
AcDbLine
 10
224.7362019517387
 20
123.9474831537013
 11
228.4121829118186
 21
137.7906809679485
  0
LINE
  5
377
100
AcDbEntity
  8
0
  6
CONTINUOUS
 62
     7
100
AcDbLine
 10
228.4121829118185
 20
137.7906809679485
 11
230.3114013671876
 21
137.7906809679485
  0
LINE
  5
378
100
AcDbEntity
  8
0
  6
CONTINUOUS
 62
     7
100
AcDbLine
 10
28.55311061515224
 20
179.2360742934063
 11
18.93241917916282
 21
195.181950549086
  0
LINE
  5
379
100
AcDbEntity
  8
0
  6
CONTINUOUS
 62
     7
100
AcDbLine
 10
28.55311061515224
 20
179.2360742934063
 11
26.1470997916801
 21
181.2881736128753
  0
LINE
  5
37a
100
AcDbEntity
  8
0
  6
CONTINUOUS
 62
     7
100
AcDbLine
 10
28.55311061515224
 20
179.2360742934063
 11
27.85956154805592
 21
182.3213602430647
  0
MTEXT
  5
37b
100
AcDbEntity
  8
0
  6
CONTINUOUS
 62
     7
100
AcDbMText
 10
-17.68576550483704
 20
192.6819458007813
 40
5
 41
100
 71
     7
 72
     1
  1
{\W0.848905;Ｒｃ１／４}
  0
MTEXT
  5
37c
100
AcDbEntity
  8
0
  6
CONTINUOUS
 62
     7
100
AcDbMText
 10
-17.68576550483704
 20
185.1819458007813
 40
5
 41
60
 71
     7
 72
     1
  1
{\W0.855331;操作口}
  0
LINE
  5
37d
100
AcDbEntity
  8
0
  6
CONTINUOUS
 62
     7
100
AcDbLine
 10
28.55311061515224
 20
179.2360742934063
 11
18.93241917916282
 21
195.181950549086
  0
LINE
  5
37e
100
AcDbEntity
  8
0
  6
CONTINUOUS
 62
     7
100
AcDbLine
 10
18.93241917916282
 20
195.181950549086
 11
8.457235336303711
 21
195.181950549086
  0
DIMENSION
  5
37f
100
AcDbEntity
  8
0
  6
CONTINUOUS
 62
     7
100
AcDbDimension
  2
*D3
 70
     0
 10
50.95014953613281
 20
44.17739105224609
 11
28.45014953613281
 21
44.17739105224609
  3
DIMSTYLE
100
AcDbAlignedDimension
 13
5.950149536132813
 23
63.447509765625
 14
50.95014953613281
 24
63.44067383770017
 50
0
100
AcDbRotatedDimension
1001
ACAD
1000
DSTYLE
1002
{
1070
    77
1070
     1
1070
   172
1070
     1
1070
    42
1040
0
1002
}
  0
DIMENSION
  5
380
100
AcDbEntity
  8
0
  6
CONTINUOUS
 62
     7
100
AcDbDimension
  2
*D4
 70
     0
 10
96.42138574013993
 20
103.447509765625
 11
96.42138574013993
 21
82.44750785827637
  3
DIMSTYLE
100
AcDbAlignedDimension
 13
48.95012283325195
 23
61.44750595092773
 14
81.46904373168945
 24
103.447509765625
 50
90
100
AcDbRotatedDimension
1001
ACAD
1000
DSTYLE
1002
{
1070
    77
1070
     1
1070
   172
1070
     1
1070
    42
1040
0
1002
}
  0
DIMENSION
  5
381
100
AcDbEntity
  8
0
  6
CONTINUOUS
 62
     7
100
AcDbDimension
  2
*D5
 70
     0
 10
96.42138574013993
 20
179.4475250244141
 11
96.42138574013993
 21
141.4475173950195
  3
DIMSTYLE
100
AcDbAlignedDimension
 13
81.46904373168945
 23
103.447509765625
 14
58.45013427734375
 24
179.4475250244141
 50
90
100
AcDbRotatedDimension
1001
ACAD
1000
DSTYLE
1002
{
1070
    77
1070
     1
1070
   172
1070
     1
1070
    75
1070
     1
1002
}
  0
DIMENSION
  5
382
100
AcDbEntity
  8
0
  6
CONTINUOUS
 62
     7
100
AcDbDimension
  2
*D6
 70
     0
 10
106.9526496411933
 20
61.44750595092773
 11
106.9526496411933
 21
120.4475154876709
  3
DIMSTYLE
100
AcDbAlignedDimension
 13
58.45013427734375
 23
179.4475250244141
 14
48.95012283325195
 24
61.44750595092773
 50
90
100
AcDbRotatedDimension
1001
ACAD
1000
DSTYLE
1002
{
1070
    77
1070
     1
1070
   172
1070
     1
1070
    42
1040
0
1002
}
  0
DIMENSION
  5
383
100
AcDbEntity
  8
0
  6
CONTINUOUS
 62
     7
100
AcDbDimension
  2
*D7
 70
     0
 10
219.8251724243164
 20
94.22135023580167
 11
240.4136087604021
 21
94.22135023580167
  3
DIMSTYLE
100
AcDbAlignedDimension
 13
175.8251762390137
 23
91.70987224578857
 14
219.8251724243164
 24
91.70987224578857
 50
0
100
AcDbRotatedDimension
1001
ACAD
1000
DSTYLE
1002
{
1070
    77
1070
     1
1070
   172
1070
     1
1070
    42
1040
0
1002
}
  0
ENDSEC
  0
SECTION
  2
OBJECTS
  0
DICTIONARY
  5
384
100
AcDbDictionary
  3
ACAD_GROUP
350
385
  3
ACAD_MLINESTYLE
350
386
  0
DICTIONARY
  5
385
102
{ACAD_REACTORS
330
384
102
}
100
AcDbDictionary
  0
DICTIONARY
  5
386
102
{ACAD_REACTORS
330
384
102
}
100
AcDbDictionary
  3
STANDARD
350
387
  0
MLINESTYLE
  5
387
102
{ACAD_REACTORS
330
386
102
}
100
AcDbMlineStyle
  2
STANDARD
 70
     0
  3

 62
     0
 51
90
 52
90
 71
     2
 49
0.5
 62
   256
  6
BYLAYER
 49
-0.5
 62
   256
  6
BYLAYER
  0
ENDSEC
  0
EOF
