  0
SECTION
  2
HEADER
  9
$ACADVER
  1
AC1015
  9
$EXTMAX
 10
458.4796678988068
 20
372.7206881575261
 30
0
  9
$EXTMIN
 10
-229.5128561123644
 20
-106.1935882970035
 30
0
  9
$LIMMAX
 10
458.4796678988068
 20
372.7206881575261
  9
$LIMMIN
 10
-229.5128561123644
 20
-106.1935882970035
  9
$PLIMMAX
 10
458.4796678988068
 20
372.7206881575261
  9
$PLIMMIN
 10
-229.5128561123644
 20
-106.1935882970035
  9
$TEXTSIZE
 40
3.2
  9
$DIMSHO
 70
     0
  9
$DIMASZ
 40
1.0
  9
$DIMTAD
 70
     1
  9
$DIMTIH
 70
     0
  9
$DIMTOH
 70
     0
  9
$DIMEXE
 40
2.54
  9
$DIMEXO
 40
2.54
  9
$DIMTVP
 40
1.0
  9
$DIMSAH
 70
     1
  9
$DIMDLE
 40
0.0
  9
$DIMTXT
 40
4
  9
$DIMGAP
 40
2
  9
$DIMAUNIT
 70
     1
  9
$DIMDEC
 70
     1
  9
$HANDSEED
  5
     550
  9
$MEASUREMENT
 70
     1
  0
ENDSEC
  0
SECTION
  2
TABLES
  0
TABLE
  2
LTYPE
  5
25
100
AcDbSymbolTable
 70
    48
  0
LTYPE
  5
26
100
AcDbSymbolTableRecord
100
AcDbLinetypeTableRecord
  2
BYBLOCK
 70
    64
  3

 72
    65
 73
     0
 40
0.0
  0
LTYPE
  5
27
100
AcDbSymbolTableRecord
100
AcDbLinetypeTableRecord
  2
BYLAYER
 70
    64
  3

 72
    65
 73
     0
 40
0.0
  0
LTYPE
  5
28
100
AcDbSymbolTableRecord
100
AcDbLinetypeTableRecord
  2
CONTINUOUS
 70
    64
  3
Solid line
 72
    65
 73
     0
 40
0.0
  0
LTYPE
  5
29
100
AcDbSymbolTableRecord
100
AcDbLinetypeTableRecord
  2
DASHED
 70
    64
  3
Dashed __ __ __ __ __ __ __ __ __ __ __ __ __ _
 72
    65
 73
     2
 40
4.5
 49
3.0
 74
     0
 49
-1.5
 74
     0
  0
LTYPE
  5
2a
100
AcDbSymbolTableRecord
100
AcDbLinetypeTableRecord
  2
CENTER
 70
    64
  3
Center ____ _ ____ _ ____ _ ____ _ ____ _ ____
 72
    65
 73
     4
 74
     0
 40
12.0
 49
7.5
 74
     0
 49
-1.5
 74
     0
 49
1.5
 74
     0
 49
-1.5
 74
     0
  0
LTYPE
  5
2b
100
AcDbSymbolTableRecord
100
AcDbLinetypeTableRecord
  2
PHANTOM
 70
    64
  3
Phantom ______  __  __  ______  __  __  ______
 72
    65
 73
     6
 74
     0
 40
15.0
 49
7.5
 74
     0
 49
-1.5
 74
     0
 49
1.5
 74
     0
 49
-1.5
 74
     0
 49
1.5
 74
     0
 49
-1.5
 74
     0
  0
LTYPE
  5
2c
100
AcDbSymbolTableRecord
100
AcDbLinetypeTableRecord
  2
DOT
 70
    64
  3
Dot . . . . . . . . . . . . . . . . . . . . . .
 72
    65
 73
     2
 74
     0
 40
1.5
 49
0.0
 74
     0
 49
-1.5
 74
     0
  0
LTYPE
  5
2d
100
AcDbSymbolTableRecord
100
AcDbLinetypeTableRecord
  2
HIDDEN
 70
    64
  3
Hidden __ __ __ __ __ __ __ __ __ __ __ __ __ _
 72
    65
 73
     2
 74
     0
 40
4.5
 49
3.0
 74
     0
 49
-1.5
 74
     0
  0
LTYPE
  5
2e
100
AcDbSymbolTableRecord
100
AcDbLinetypeTableRecord
  2
BORDER
 70
    64
  3
Border __ __ . __ __ . __ __ . __ __ . __ __ .
 72
    65
 73
     6
 40
3.5
 49
1.0
 74
     0
 49
-0.5
 74
     0
 49
1.0
 74
     0
 49
-0.5
 74
     0
 49
0.0
 74
     0
 49
-0.5
 74
     0
  0
LTYPE
  5
2f
100
AcDbSymbolTableRecord
100
AcDbLinetypeTableRecord
  2
BORDER2
 70
    64
  3
Border (.5x) __.__.__.__.__.__.__.__.__.__.__.
 72
    65
 73
     6
 40
1.75
 49
0.5
 74
     0
 49
-0.25
 74
     0
 49
0.5
 74
     0
 49
-0.25
 74
     0
 49
0.0
 74
     0
 49
-0.25
 74
     0
  0
LTYPE
  5
30
100
AcDbSymbolTableRecord
100
AcDbLinetypeTableRecord
  2
BORDERX2
 70
    64
  3
Border (2x) ____  ____  .  ____  ____  .  ___
 72
    65
 73
     6
 40
7.0
 49
2.0
 74
     0
 49
-1.0
 74
     0
 49
2.0
 74
     0
 49
-1.0
 74
     0
 49
0.0
 74
     0
 49
-1.0
 74
     0
  0
LTYPE
  5
31
100
AcDbSymbolTableRecord
100
AcDbLinetypeTableRecord
  2
CENTER2
 70
    64
  3
Center (.5x) ___ _ ___ _ ___ _ ___ _ ___ _ ___
 72
    65
 73
     4
 40
6.0
 49
3.75
 74
     0
 49
-0.75
 74
     0
 49
0.75
 74
     0
 49
-0.75
 74
     0
  0
LTYPE
  5
32
100
AcDbSymbolTableRecord
100
AcDbLinetypeTableRecord
  2
CENTERX2
 70
    64
  3
Center (2x) ________  __  ________  __  _____
 72
    65
 73
     4
 40
24.0
 49
15.0
 74
     0
 49
-3.0
 74
     0
 49
3.0
 74
     0
 49
-3.0
 74
     0
  0
LTYPE
  5
33
100
AcDbSymbolTableRecord
100
AcDbLinetypeTableRecord
  2
DASHDOT
 70
    64
  3
Dash dot __ . __ . __ . __ . __ . __ . __ . __
 72
    65
 73
     4
 40
6.0
 49
3.0
 74
     0
 49
-1.5
 74
     0
 49
0.0
 74
     0
 49
-1.5
 74
     0
  0
LTYPE
  5
34
100
AcDbSymbolTableRecord
100
AcDbLinetypeTableRecord
  2
DASHDOT2
 70
    64
  3
Dash dot (.5x) _._._._._._._._._._._._._._._.
 72
    65
 73
     4
 40
3.0
 49
1.5
 74
     0
 49
-0.75
 74
     0
 49
0.0
 74
     0
 49
-0.75
 74
     0
  0
LTYPE
  5
35
100
AcDbSymbolTableRecord
100
AcDbLinetypeTableRecord
  2
DASHDOTX2
 70
    64
  3
Dash dot (2x) ____  .  ____  .  ____  .  ___
 72
    65
 73
     4
 40
12.0
 49
6.0
 74
     0
 49
-3.0
 74
     0
 49
0.0
 74
     0
 49
-3.0
 74
     0
  0
LTYPE
  5
36
100
AcDbSymbolTableRecord
100
AcDbLinetypeTableRecord
  2
DASHED2
 70
    64
  3
Dashed (.5x) _ _ _ _ _ _ _ _ _ _ _ _ _ _ _ _ _
 72
    65
 73
     2
 40
2.25
 49
1.5
 74
     0
 49
-0.75
 74
     0
  0
LTYPE
  5
37
100
AcDbSymbolTableRecord
100
AcDbLinetypeTableRecord
  2
DASHEDX2
 70
    64
  3
Dashed (2x) ____  ____  ____  ____  ____  ___
 72
    65
 73
     2
 40
9.0
 49
6.0
 74
     0
 49
-3.0
 74
     0
  0
LTYPE
  5
38
100
AcDbSymbolTableRecord
100
AcDbLinetypeTableRecord
  2
DIVIDE
 70
    64
  3
Divide ____ . . ____ . . ____ . . ____ . . ____
 72
    65
 73
     6
 40
7.5
 49
3.0
 74
     0
 49
-1.5
 74
     0
 49
0.0
 74
     0
 49
-1.5
 74
     0
 49
0.0
 74
     0
 49
-1.5
 74
     0
  0
LTYPE
  5
39
100
AcDbSymbolTableRecord
100
AcDbLinetypeTableRecord
  2
DIVIDE2
 70
    64
  3
Divide (.5x) __..__..__..__..__..__..__..__.._
 72
    65
 73
     6
 40
3.75
 49
1.5
 74
     0
 49
-0.75
 74
     0
 49
0.0
 74
     0
 49
-0.75
 74
     0
 49
0.0
 74
     0
 49
-0.75
 74
     0
  0
LTYPE
  5
3a
100
AcDbSymbolTableRecord
100
AcDbLinetypeTableRecord
  2
DIVIDEX2
 70
    64
  3
Divide (2x) ________  .  .  ________  .  .  _
 72
    65
 73
     6
 40
15.0
 49
6.0
 74
     0
 49
-3.0
 74
     0
 49
0.0
 74
     0
 49
-3.0
 74
     0
 49
0.0
 74
     0
 49
-3.0
 74
     0
  0
LTYPE
  5
3b
100
AcDbSymbolTableRecord
100
AcDbLinetypeTableRecord
  2
DOT2
 70
    64
  3
Dot (.5x) .....................................
 72
    65
 73
     2
 40
0.75
 49
0.0
 74
     0
 49
-0.75
 74
     0
  0
LTYPE
  5
3c
100
AcDbSymbolTableRecord
100
AcDbLinetypeTableRecord
  2
DOTX2
 70
    64
  3
Dot (2x) .  .  .  .  .  .  .  .  .  .  .  .  . 
 72
    65
 73
     2
 40
3.0
 49
0.0
 74
     0
 49
-3.0
 74
     0
  0
LTYPE
  5
3d
100
AcDbSymbolTableRecord
100
AcDbLinetypeTableRecord
  2
HIDDEN2
 70
    64
  3
Hidden (.5x) _ _ _ _ _ _ _ _ _ _ _ _ _ _ _ _ _
 72
    65
 73
     2
 40
2.25
 49
1.5
 74
     0
 49
-0.75
 74
     0
  0
LTYPE
  5
3e
100
AcDbSymbolTableRecord
100
AcDbLinetypeTableRecord
  2
HIDDENX2
 70
    64
  3
Hidden (2x) ____ ____ ____ ____ ____ ____ ____
 72
    65
 73
     2
 40
9.0
 49
6.0
 74
     0
 49
-3.0
 74
     0
  0
LTYPE
  5
3f
100
AcDbSymbolTableRecord
100
AcDbLinetypeTableRecord
  2
PHANTOM2
 70
    64
  3
Phantom (.5x) ___ _ _ ___ _ _ ___ _ _ ___ _ _
 72
    65
 73
     6
 40
7.5
 49
3.75
 74
     0
 49
-0.75
 74
     0
 49
0.75
 74
     0
 49
-0.75
 74
     0
 49
0.75
 74
     0
 49
-0.75
 74
     0
  0
LTYPE
  5
40
100
AcDbSymbolTableRecord
100
AcDbLinetypeTableRecord
  2
PHANTOMX2
 70
    64
  3
Phantom (2x) ____________    ____    ____   _
 72
    65
 73
     6
 40
30.0
 49
15.0
 74
     0
 49
-3.0
 74
     0
 49
3.0
 74
     0
 49
-3.0
 74
     0
 49
3.0
 74
     0
 49
-3.0
 74
     0
  0
LTYPE
  5
41
100
AcDbSymbolTableRecord
100
AcDbLinetypeTableRecord
  2
ACAD_ISO02W100
 70
     0
  3
ISO dash __ __ __ __ __ __ __ __ __ __ __ __ __
 72
    65
 73
     2
 40
15.0
 49
12.0
 74
     0
 49
-3.0
 74
     0
  0
LTYPE
  5
42
100
AcDbSymbolTableRecord
100
AcDbLinetypeTableRecord
  2
ACAD_ISO03W100
 70
     0
  3
ISO dash space __    __    __    __    __    __
 72
    65
 73
     2
 40
30.0
 49
12.0
 74
     0
 49
-18.0
 74
     0
  0
LTYPE
  5
43
100
AcDbSymbolTableRecord
100
AcDbLinetypeTableRecord
  2
ACAD_ISO04W100
 70
     0
  3
ISO long-dash dot ____ . ____ . ____ . ____ . _
 72
    65
 73
     4
 40
30.0
 49
24.0
 74
     0
 49
-3.0
 74
     0
 49
0.0
 74
     0
 49
-3.0
 74
     0
  0
LTYPE
  5
44
100
AcDbSymbolTableRecord
100
AcDbLinetypeTableRecord
  2
ACAD_ISO05W100
 70
     0
  3
ISO long-dash double-dot ____ .. ____ .. ____ .
 72
    65
 73
     6
 40
33.0
 49
24.0
 74
     0
 49
-3.0
 74
     0
 49
0.0
 74
     0
 49
-3.0
 74
     0
 49
0.0
 74
     0
 49
-3.0
 74
     0
  0
LTYPE
  5
45
100
AcDbSymbolTableRecord
100
AcDbLinetypeTableRecord
  2
ACAD_ISO06W100
 70
     0
  3
ISO long-dash triple-dot ____ ... ____ ... ____
 72
    65
 73
     8
 40
36.0
 49
24.0
 74
     0
 49
-3.0
 74
     0
 49
0.0
 74
     0
 49
-3.0
 74
     0
 49
0.0
 74
     0
 49
-3.0
 74
     0
 49
0.0
 74
     0
 49
-3.0
 74
     0
  0
LTYPE
  5
46
100
AcDbSymbolTableRecord
100
AcDbLinetypeTableRecord
  2
ACAD_ISO07W100
 70
     0
  3
ISO dot . . . . . . . . . . . . . . . . . . . .
 72
    65
 73
     2
 40
3.0
 49
0.0
 74
     0
 49
-3.0
 74
     0
  0
LTYPE
  5
47
100
AcDbSymbolTableRecord
100
AcDbLinetypeTableRecord
  2
ACAD_ISO08W100
 70
     0
  3
ISO long-dash short-dash ____ __ ____ __ ____ _
 72
    65
 73
     4
 40
36.0
 49
24.0
 74
     0
 49
-3.0
 74
     0
 49
6.0
 74
     0
 49
-3.0
 74
     0
  0
LTYPE
  5
48
100
AcDbSymbolTableRecord
100
AcDbLinetypeTableRecord
  2
ACAD_ISO09W100
 70
     0
  3
ISO long-dash double-short-dash ____ __ __ ____
 72
    65
 73
     6
 40
45.0
 49
24.0
 74
     0
 49
-3.0
 74
     0
 49
6.0
 74
     0
 49
-3.0
 74
     0
 49
6.0
 74
     0
 49
-3.0
 74
     0
  0
LTYPE
  5
49
100
AcDbSymbolTableRecord
100
AcDbLinetypeTableRecord
  2
ACAD_ISO10W100
 70
     0
  3
ISO dash dot __ . __ . __ . __ . __ . __ . __ .
 72
    65
 73
     4
 40
18.0
 49
12.0
 74
     0
 49
-3.0
 74
     0
 49
0.0
 74
     0
 49
-3.0
 74
     0
  0
LTYPE
  5
4a
100
AcDbSymbolTableRecord
100
AcDbLinetypeTableRecord
  2
ACAD_ISO11W100
 70
     0
  3
ISO double-dash dot __ __ . __ __ . __ __ . __ 
 72
    65
 73
     6
 40
33.0
 49
12.0
 74
     0
 49
-3.0
 74
     0
 49
12.0
 74
     0
 49
-3.0
 74
     0
 49
0.0
 74
     0
 49
-3.0
 74
     0
  0
LTYPE
  5
4b
100
AcDbSymbolTableRecord
100
AcDbLinetypeTableRecord
  2
ACAD_ISO12W100
 70
     0
  3
ISO dash double-dot __ . . __ . . __ . . __ . .
 72
    65
 73
     6
 40
21.0
 49
12.0
 74
     0
 49
-3.0
 74
     0
 49
0.0
 74
     0
 49
-3.0
 74
     0
 49
0.0
 74
     0
 49
-3.0
 74
     0
  0
LTYPE
  5
4c
100
AcDbSymbolTableRecord
100
AcDbLinetypeTableRecord
  2
ACAD_ISO13W100
 70
     0
  3
ISO double-dash double-dot __ __ . . __ __ . . 
 72
    65
 73
     8
 40
36.0
 49
12.0
 74
     0
 49
-3.0
 74
     0
 49
12.0
 74
     0
 49
-3.0
 74
     0
 49
0.0
 74
     0
 49
-3.0
 74
     0
 49
0.0
 74
     0
 49
-3.0
 74
     0
  0
LTYPE
  5
4d
100
AcDbSymbolTableRecord
100
AcDbLinetypeTableRecord
  2
ACAD_ISO14W100
 70
     0
  3
ISO dash triple-dot __ . . . __ . . . __ . . . 
 72
    65
 73
     8
 40
24.0
 49
12.0
 74
     0
 49
-3.0
 74
     0
 49
0.0
 74
     0
 49
-3.0
 74
     0
 49
0.0
 74
     0
 49
-3.0
 74
     0
 49
0.0
 74
     0
 49
-3.0
 74
     0
  0
LTYPE
  5
4e
100
AcDbSymbolTableRecord
100
AcDbLinetypeTableRecord
  2
ACAD_ISO15W100
 70
     0
  3
ISO double-dash triple-dot __ __ . . . __ __ . 
 72
    65
 73
    10
 40
39.0
 49
12.0
 74
     0
 49
-3.0
 74
     0
 49
12.0
 74
     0
 49
-3.0
 74
     0
 49
0.0
 74
     0
 49
-3.0
 74
     0
 49
0.0
 74
     0
 49
-3.0
 74
     0
 49
0.0
 74
     0
 49
-3.0
 74
     0
  0
LTYPE
  5
4f
100
AcDbSymbolTableRecord
100
AcDbLinetypeTableRecord
  2
FENCELINE1
 70
     0
  3
Fenceline circle ----0-----0----0-----0----0---
 72
    65
 73
     4
 40
1.45
 49
0.25
 74
     0
 49
-0.1
 74
     4
 75
   133
340
24
 46
0.1
 50
0.0
 44
-0.1
 45
0.0
 49
-0.1
 74
     0
 49
1.0
 74
     0
  0
LTYPE
  5
50
100
AcDbSymbolTableRecord
100
AcDbLinetypeTableRecord
  2
FENCELINE2
 70
     0
  3
Fenceline square ----[]-----[]----[]-----[]----
 72
    65
 73
     4
 40
1.45
 49
0.25
 74
     0
 49
-0.1
 74
     4
 75
   132
340
24
 46
0.1
 50
0.0
 44
-0.1
 45
0.0
 49
-0.1
 74
     0
 49
1.0
 74
     0
  0
LTYPE
  5
51
100
AcDbSymbolTableRecord
100
AcDbLinetypeTableRecord
  2
TRACKS
 70
     0
  3
Tracks -|-|-|-|-|-|-|-|-|-|-|-|-|-|-|-|-|-|-|-|
 72
    65
 73
     2
 40
0.3
 49
0.15
 74
     4
 75
   130
340
24
 46
0.25
 50
0.0
 44
0.0
 45
0.0
 49
0.15
 74
     0
  0
LTYPE
  5
52
100
AcDbSymbolTableRecord
100
AcDbLinetypeTableRecord
  2
BATTING
 70
     0
  3
Batting SSSSSSSSSSSSSSSSSSSSSSSSSSSSSSSSSSSSSSS
 72
    65
 73
     4
 40
0.4001000000000002
 49
0.0001
 74
     0
 49
-0.1
 74
     4
 75
   134
340
24
 46
0.1
 50
0.0
 44
-0.1
 45
0.0
 49
-0.2
 74
     4
 75
   134
340
24
 46
0.1
 50
180.0
 44
0.1
 45
0.0
 49
-0.1
 74
     0
  0
LTYPE
  5
53
100
AcDbSymbolTableRecord
100
AcDbLinetypeTableRecord
  2
HOT_WATER_SUPPLY
 70
     0
  3
Hot water supply ---- HW ---- HW ---- HW ----
 72
    65
 73
     3
 40
0.9
 49
0.5
 74
     0
 49
-0.2
 74
     2
 75
     1
340
23
 46
0.1
 50
0.0
 44
-0.1
 45
-0.05
  9
HW
 49
-0.2
 74
     0
  0
LTYPE
  5
54
100
AcDbSymbolTableRecord
100
AcDbLinetypeTableRecord
  2
GAS_LINE
 70
     0
  3
Gas line ----GAS----GAS----GAS----GAS----GAS---
 72
    65
 73
     3
 40
0.95
 49
0.5
 74
     0
 49
-0.2
 74
     2
 75
     1
340
23
 46
0.1
 50
0.0
 44
-0.1
 45
-0.05
  9
GAS
 49
-0.25
 74
     0
  0
LTYPE
  5
55
100
AcDbSymbolTableRecord
100
AcDbLinetypeTableRecord
  2
ZIGZAG
 70
     0
  3
Zig zag /\/\/\/\/\/\/\/\/\/\/\/\/\/\/\/\/\/\/\/
 72
    65
 73
     4
 40
0.8001000000000001
 49
0.0001
 74
     0
 49
-0.2
 74
     4
 75
   131
340
24
 46
0.2
 50
0.0
 44
-0.2
 45
0.0
 49
-0.4
 74
     4
 75
   131
340
24
 46
0.2
 50
180.0
 44
0.2
 45
0.0
 49
-0.2
 74
     0
  0
ENDTAB
  0
TABLE
  2
LAYER
  5
c8
100
AcDbSymbolTable
 70
     2
  0
LAYER
  5
c9
100
AcDbSymbolTableRecord
100
AcDbLayerTableRecord
  2
0
 70
     0
 62
     7
  6
CONTINUOUS
390
F
  0
LAYER
  5
ca
100
AcDbSymbolTableRecord
100
AcDbLayerTableRecord
  2
DEFPOINTS
 70
     0
 62
     7
  6
CONTINUOUS
290
0
390
F
  0
ENDTAB
  0
TABLE
  2
STYLE
  5
cb
100
AcDbSymbolTable
 70
     2
  0
STYLE
  5
      23
100
AcDbSymbolTableRecord
100
AcDbTextStyleTableRecord
  2
STANDARD
 70
     0
 40
0.0
 41
1.0
 50
0.0
 71
     0
 42
0.2
  3
txt
  4
BIGFONT
  0
STYLE
  5
24
100
AcDbSymbolTableRecord
100
AcDbTextStyleTableRecord
  2

 70
     1
 40
0.0
 41
1.0
 50
0.0
 71
     0
 42
0.2
  3
ltypeshp.shx
  4

  0
ENDTAB
  0
TABLE
  2
DIMSTYLE
  5
cc
100
AcDbSymbolTable
100
AcDbDimStyleTable
 70
     1
  0
DIMSTYLE
105
cd
100
AcDbSymbolTableRecord
100
AcDbDimStyleTableRecord
  2
DIMSTYLE
 70
     0
  3

  4

  5
_OPEN
  6
_OPEN
  7
_OPEN
 40
1
 41
1
 42
0.009999999776482582
 43
0.38
 44
2.54
 45
0
 46
0
 47
0
 48
0
140
4
141
0.09
142
0
143
25.4
144
1
145
0
146
1
147
2
 71
     0
 72
     0
 73
     0
 74
     0
 75
     0
 76
     0
 78
     0
170
     0
171
     2
 77
     0
172
     0
173
     1
174
     0
175
     0
176
     0
177
     0
178
     0
271
     1
275
     1
340
23
  0
ENDTAB
  0
TABLE
  2
APPID
  5
ce
100
AcDbSymbolTable
 70
     1
  0
APPID
  5
cf
100
AcDbSymbolTableRecord
100
AcDbRegAppTableRecord
  2
ACAD
 70
     0
  0
ENDTAB
  0
TABLE
  2
VIEW
  5
d0
100
AcDbSymbolTable
 70
     0
  0
ENDTAB
  0
TABLE
  2
UCS
  5
d1
100
AcDbSymbolTable
 70
     0
  0
ENDTAB
  0
TABLE
  2
BLOCK_RECORD
  5
d2
100
AcDbSymbolTable
 70
    24
  0
BLOCK_RECORD
  5
d3
100
AcDbSymbolTableRecord
100
AcDbBlockTableRecord
  2
*MODEL_SPACE
  0
BLOCK_RECORD
  5
d4
100
AcDbSymbolTableRecord
100
AcDbBlockTableRecord
  2
*PAPER_SPACE
  0
BLOCK_RECORD
  5
d5
100
AcDbSymbolTableRecord
100
AcDbBlockTableRecord
  2
_OPEN
  0
BLOCK_RECORD
  5
d6
100
AcDbSymbolTableRecord
100
AcDbBlockTableRecord
  2
_OPEN30
  0
BLOCK_RECORD
  5
d7
100
AcDbSymbolTableRecord
100
AcDbBlockTableRecord
  2
KOZU0001
  0
BLOCK_RECORD
  5
d8
100
AcDbSymbolTableRecord
100
AcDbBlockTableRecord
  2
KOZU0002
  0
BLOCK_RECORD
  5
d9
100
AcDbSymbolTableRecord
100
AcDbBlockTableRecord
  2
KOZU0003
  0
BLOCK_RECORD
  5
da
100
AcDbSymbolTableRecord
100
AcDbBlockTableRecord
  2
KOZU0004
  0
BLOCK_RECORD
  5
db
100
AcDbSymbolTableRecord
100
AcDbBlockTableRecord
  2
KOZU0005
  0
BLOCK_RECORD
  5
dc
100
AcDbSymbolTableRecord
100
AcDbBlockTableRecord
  2
KOZU0006
  0
BLOCK_RECORD
  5
dd
100
AcDbSymbolTableRecord
100
AcDbBlockTableRecord
  2
KOZU0007
  0
BLOCK_RECORD
  5
de
100
AcDbSymbolTableRecord
100
AcDbBlockTableRecord
  2
KOZU0008
  0
BLOCK_RECORD
  5
df
100
AcDbSymbolTableRecord
100
AcDbBlockTableRecord
  2
KOZU0009
  0
BLOCK_RECORD
  5
e0
100
AcDbSymbolTableRecord
100
AcDbBlockTableRecord
  2
KOZU0010
  0
BLOCK_RECORD
  5
e1
100
AcDbSymbolTableRecord
100
AcDbBlockTableRecord
  2
KOZU0011
  0
BLOCK_RECORD
  5
e2
100
AcDbSymbolTableRecord
100
AcDbBlockTableRecord
  2
KOZU0012
  0
BLOCK_RECORD
  5
e3
100
AcDbSymbolTableRecord
100
AcDbBlockTableRecord
  2
*D1
  0
BLOCK_RECORD
  5
e4
100
AcDbSymbolTableRecord
100
AcDbBlockTableRecord
  2
*D2
  0
BLOCK_RECORD
  5
e5
100
AcDbSymbolTableRecord
100
AcDbBlockTableRecord
  2
*D3
  0
BLOCK_RECORD
  5
e6
100
AcDbSymbolTableRecord
100
AcDbBlockTableRecord
  2
*D4
  0
BLOCK_RECORD
  5
e7
100
AcDbSymbolTableRecord
100
AcDbBlockTableRecord
  2
*D5
  0
BLOCK_RECORD
  5
e8
100
AcDbSymbolTableRecord
100
AcDbBlockTableRecord
  2
*D6
  0
BLOCK_RECORD
  5
e9
100
AcDbSymbolTableRecord
100
AcDbBlockTableRecord
  2
*D7
  0
BLOCK_RECORD
  5
ea
100
AcDbSymbolTableRecord
100
AcDbBlockTableRecord
  2
*D8
  0
ENDTAB
  0
TABLE
  2
VPORT
  5
eb
100
AcDbSymbolTable
 70
     0
  0
ENDTAB
  0
ENDSEC
  0
SECTION
  2
BLOCKS
  0
BLOCK
  8
0
  5
ec
100
AcDbEntity
100
AcDbBlockBegin
  2
*MODEL_SPACE
 70
     0
 10
0
 20
0
  3
*MODEL_SPACE
  0
ENDBLK
  8
0
  5
ed
100
AcDbEntity
100
AcDbBlockEnd
  0
BLOCK
  8
0
  5
ee
 67
     1
100
AcDbEntity
100
AcDbBlockBegin
  2
*PAPER_SPACE
 70
     0
 10
0
 20
0
  3
*PAPER_SPACE
  0
ENDBLK
  8
0
  5
ef
 67
     1
100
AcDbEntity
100
AcDbBlockEnd
  0
BLOCK
  8
0
  5
f0
100
AcDbEntity
100
AcDbBlockBegin
  2
_OPEN
 70
    64
 10
0
 20
0
  3
_OPEN
  0
LINE
  5
f1
100
AcDbEntity
  8
0
  6
BYBLOCK
 62
     0
100
AcDbLine
 10
0
 20
0
 11
-3.12799995302215
 21
-0.5619999915596265
  0
LINE
  5
f2
100
AcDbEntity
  8
0
  6
BYBLOCK
 62
     0
100
AcDbLine
 10
0
 20
0
 11
-3.127999953022157
 21
0.5619999915595884
  0
LINE
  5
f3
100
AcDbEntity
  8
0
  6
BYBLOCK
 62
     0
100
AcDbLine
 10
0
 20
0
 11
-2.99999995494452
 21
0
  0
ENDBLK
  8
0
  5
f4
100
AcDbEntity
100
AcDbBlockEnd
  0
BLOCK
  8
0
  5
f5
100
AcDbEntity
100
AcDbBlockBegin
  2
_OPEN30
 70
    64
 10
0
 20
0
  3
_OPEN30
  0
LINE
  5
f6
100
AcDbEntity
  8
0
  6
BYBLOCK
 62
     0
100
AcDbLine
 10
0
 20
0
 11
-2.999999954944514
 21
-0.9999999849815249
  0
LINE
  5
f7
100
AcDbEntity
  8
0
  6
BYBLOCK
 62
     0
100
AcDbLine
 10
0
 20
0
 11
-2.999999954944526
 21
0.9999999849814883
  0
LINE
  5
f8
100
AcDbEntity
  8
0
  6
BYBLOCK
 62
     0
100
AcDbLine
 10
0
 20
0
 11
-2.99999995494452
 21
0
  0
ENDBLK
  8
0
  5
f9
100
AcDbEntity
100
AcDbBlockEnd
  0
BLOCK
  8
0
  5
fa
100
AcDbEntity
100
AcDbBlockBegin
  2
*D1
 70
    65
 10
0
 20
0
  0
MTEXT
  5
fb
100
AcDbEntity
  8
0
  6
CONTINUOUS
 62
     7
100
AcDbMText
 10
237.8523864746094
 20
38.95844268798828
 40
5
 41
40
 71
     8
 72
     1
  1
{\W0.864328;３６}
 11
0
 21
1
  0
LINE
  5
fc
100
AcDbEntity
  8
0
  6
CONTINUOUS
 62
     7
100
AcDbLine
 10
237.8523864746094
 20
53.95845417713556
 11
237.8523864746094
 21
23.95843501353827
  0
INSERT
  5
fd
100
AcDbEntity
  8
0
  6
CONTINUOUS
 62
     7
100
AcDbBlockReference
  2
_OPEN30
 10
237.8523864746094
 20
56.95845413208008
 41
1
 42
1
 43
1
 50
90.00000000000019
  0
INSERT
  5
fe
100
AcDbEntity
  8
0
  6
CONTINUOUS
 62
     7
100
AcDbBlockReference
  2
_OPEN30
 10
237.8523864746094
 20
20.95843505859375
 41
1
 42
1
 43
1
 50
270.0000000000005
  0
LINE
  5
ff
100
AcDbEntity
  8
0
  6
CONTINUOUS
 62
     7
100
AcDbLine
 10
228.7352600097656
 20
56.95845031738281
 11
239.4852905273438
 21
56.95845031738281
  0
LINE
  5
100
100
AcDbEntity
  8
0
  6
CONTINUOUS
 62
     7
100
AcDbLine
 10
213.5953369140625
 20
20.95843505859375
 11
239.4852905273438
 21
20.95843505859375
  0
POINT
  5
101
100
AcDbEntity
  8
DEFPOINTS
  6
CONTINUOUS
 62
     7
100
AcDbPoint
 10
228.7352600097656
 20
56.95845031738281
  0
POINT
  5
102
100
AcDbEntity
  8
DEFPOINTS
  6
CONTINUOUS
 62
     7
100
AcDbPoint
 10
213.5953369140625
 20
20.95843505859375
  0
POINT
  5
103
100
AcDbEntity
  8
DEFPOINTS
  6
CONTINUOUS
 62
     7
100
AcDbPoint
 10
237.8523864746094
 20
20.95843505859375
  0
ENDBLK
  8
0
  5
104
100
AcDbEntity
100
AcDbBlockEnd
  0
BLOCK
  8
0
  5
105
100
AcDbEntity
100
AcDbBlockBegin
  2
*D2
 70
    65
 10
0
 20
0
  0
MTEXT
  5
106
100
AcDbEntity
  8
0
  6
CONTINUOUS
 62
     7
100
AcDbMText
 10
175.7203521728516
 20
-6.973602294921875
 40
5
 41
60
 71
     8
 72
     1
  1
{\W0.855331;□５２}
  0
LINE
  5
107
100
AcDbEntity
  8
0
  6
CONTINUOUS
 62
     7
100
AcDbLine
 10
152.720336869007
 20
-6.973602294921875
 11
198.7203522179071
 21
-6.973602294921894
  0
INSERT
  5
108
100
AcDbEntity
  8
0
  6
CONTINUOUS
 62
     7
100
AcDbBlockReference
  2
_OPEN30
 10
149.7203369140625
 20
-6.973602294921875
 41
1
 42
1
 43
1
 50
180.0000000000004
  0
INSERT
  5
109
100
AcDbEntity
  8
0
  6
CONTINUOUS
 62
     7
100
AcDbBlockReference
  2
_OPEN30
 10
201.7203521728516
 20
-6.973602294921875
 41
1
 42
1
 43
1
  0
LINE
  5
10a
100
AcDbEntity
  8
0
  6
CONTINUOUS
 62
     7
100
AcDbLine
 10
149.7203369140625
 20
46.95845413208008
 11
149.7203369140625
 21
-10.54485321044922
  0
LINE
  5
10b
100
AcDbEntity
  8
0
  6
CONTINUOUS
 62
     7
100
AcDbLine
 10
201.7203521728516
 20
46.95845413208008
 11
201.7203521728516
 21
-10.54485321044922
  0
POINT
  5
10c
100
AcDbEntity
  8
DEFPOINTS
  6
CONTINUOUS
 62
     7
100
AcDbPoint
 10
149.7203369140625
 20
46.95845413208008
  0
POINT
  5
10d
100
AcDbEntity
  8
DEFPOINTS
  6
CONTINUOUS
 62
     7
100
AcDbPoint
 10
201.7203521728516
 20
46.95845413208008
  0
POINT
  5
10e
100
AcDbEntity
  8
DEFPOINTS
  6
CONTINUOUS
 62
     7
100
AcDbPoint
 10
201.7203521728516
 20
-6.973602294921875
  0
ENDBLK
  8
0
  5
10f
100
AcDbEntity
100
AcDbBlockEnd
  0
BLOCK
  8
0
  5
110
100
AcDbEntity
100
AcDbBlockBegin
  2
*D3
 70
    65
 10
0
 20
0
  0
MTEXT
  5
111
100
AcDbEntity
  8
0
  6
CONTINUOUS
 62
     7
100
AcDbMText
 10
-10.03707885742188
 20
3.159873962402344
 40
5
 41
40
 71
     8
 72
     1
  1
{\W0.864328;７０}
  0
LINE
  5
112
100
AcDbEntity
  8
0
  6
CONTINUOUS
 62
     7
100
AcDbLine
 10
-42.03707890247735
 20
3.159873962402344
 11
21.9629211876336
 21
3.159873962402326
  0
INSERT
  5
113
100
AcDbEntity
  8
0
  6
CONTINUOUS
 62
     7
100
AcDbBlockReference
  2
_OPEN30
 10
-45.03707885742188
 20
3.159873962402344
 41
1
 42
1
 43
1
 50
180.0000000000004
  0
INSERT
  5
114
100
AcDbEntity
  8
0
  6
CONTINUOUS
 62
     7
100
AcDbBlockReference
  2
_OPEN30
 10
24.96292114257813
 20
3.159873962402344
 41
1
 42
1
 43
1
  0
LINE
  5
115
100
AcDbEntity
  8
0
  6
CONTINUOUS
 62
     7
100
AcDbLine
 10
-45.03707885742188
 20
43.45845794677734
 11
-45.03707885742188
 21
0.3028738498687744
  0
LINE
  5
116
100
AcDbEntity
  8
0
  6
CONTINUOUS
 62
     7
100
AcDbLine
 10
24.96295928955078
 20
43.45845794677734
 11
24.96295928955078
 21
0.3028738498687744
  0
POINT
  5
117
100
AcDbEntity
  8
DEFPOINTS
  6
CONTINUOUS
 62
     7
100
AcDbPoint
 10
-45.03707885742188
 20
43.45845794677734
  0
POINT
  5
118
100
AcDbEntity
  8
DEFPOINTS
  6
CONTINUOUS
 62
     7
100
AcDbPoint
 10
24.96295928955078
 20
43.45845794677734
  0
POINT
  5
119
100
AcDbEntity
  8
DEFPOINTS
  6
CONTINUOUS
 62
     7
100
AcDbPoint
 10
24.96292114257813
 20
3.159873962402344
  0
ENDBLK
  8
0
  5
11a
100
AcDbEntity
100
AcDbBlockEnd
  0
BLOCK
  8
0
  5
11b
100
AcDbEntity
100
AcDbBlockBegin
  2
*D4
 70
    65
 10
0
 20
0
  0
MTEXT
  5
11c
100
AcDbEntity
  8
0
  6
CONTINUOUS
 62
     7
100
AcDbMText
 10
237.8523864746094
 20
132.4584808349609
 40
5
 41
60
 71
     8
 72
     1
  1
{\W0.855331;１５１}
 11
0
 21
1
  0
LINE
  5
11d
100
AcDbEntity
  8
0
  6
CONTINUOUS
 62
     7
100
AcDbLine
 10
237.8523864746094
 20
59.9584540870246
 11
237.8523864746094
 21
204.9585266563836
  0
INSERT
  5
11e
100
AcDbEntity
  8
0
  6
CONTINUOUS
 62
     7
100
AcDbBlockReference
  2
_OPEN30
 10
237.8523864746094
 20
56.95845413208008
 41
1
 42
1
 43
1
 50
270.0000000000005
  0
INSERT
  5
11f
100
AcDbEntity
  8
0
  6
CONTINUOUS
 62
     7
100
AcDbBlockReference
  2
_OPEN30
 10
237.8523864746094
 20
207.9585266113281
 41
1
 42
1
 43
1
 50
90.00000000000019
  0
LINE
  5
120
100
AcDbEntity
  8
0
  6
CONTINUOUS
 62
     7
100
AcDbLine
 10
184.2657241821289
 20
56.95845031738281
 11
239.4852905273438
 21
56.95845031738281
  0
LINE
  5
121
100
AcDbEntity
  8
0
  6
CONTINUOUS
 62
     7
100
AcDbLine
 10
219.70458984375
 20
207.9584655761719
 11
239.4852905273438
 21
207.9584655761719
  0
POINT
  5
122
100
AcDbEntity
  8
DEFPOINTS
  6
CONTINUOUS
 62
     7
100
AcDbPoint
 10
184.2657241821289
 20
56.95845031738281
  0
POINT
  5
123
100
AcDbEntity
  8
DEFPOINTS
  6
CONTINUOUS
 62
     7
100
AcDbPoint
 10
219.70458984375
 20
207.9584655761719
  0
POINT
  5
124
100
AcDbEntity
  8
DEFPOINTS
  6
CONTINUOUS
 62
     7
100
AcDbPoint
 10
237.8523864746094
 20
207.9585266113281
  0
ENDBLK
  8
0
  5
125
100
AcDbEntity
100
AcDbBlockEnd
  0
BLOCK
  8
0
  5
126
100
AcDbEntity
100
AcDbBlockBegin
  2
*D5
 70
    65
 10
0
 20
0
  0
MTEXT
  5
127
100
AcDbEntity
  8
0
  6
CONTINUOUS
 62
     7
100
AcDbMText
 10
250.2425842285156
 20
114.45849609375
 40
5
 41
60
 71
     8
 72
     1
  1
{\W0.855331;１８７}
 11
0
 21
1
  0
LINE
  5
128
100
AcDbEntity
  8
0
  6
CONTINUOUS
 62
     7
100
AcDbLine
 10
250.2425842285156
 20
23.95843501353827
 11
250.2425842285157
 21
204.9585266563836
  0
INSERT
  5
129
100
AcDbEntity
  8
0
  6
CONTINUOUS
 62
     7
100
AcDbBlockReference
  2
_OPEN30
 10
250.2425842285156
 20
20.95843505859375
 41
1
 42
1
 43
1
 50
270.0000000000005
  0
INSERT
  5
12a
100
AcDbEntity
  8
0
  6
CONTINUOUS
 62
     7
100
AcDbBlockReference
  2
_OPEN30
 10
250.2425842285156
 20
207.9585266113281
 41
1
 42
1
 43
1
 50
90.00000000000019
  0
LINE
  5
12b
100
AcDbEntity
  8
0
  6
CONTINUOUS
 62
     7
100
AcDbLine
 10
190.7203216552734
 20
20.95843505859375
 11
253.8138122558594
 21
20.95843505859375
  0
LINE
  5
12c
100
AcDbEntity
  8
0
  6
CONTINUOUS
 62
     7
100
AcDbLine
 10
195.7203216552734
 20
207.9584655761719
 11
253.8138122558594
 21
207.9584655761719
  0
POINT
  5
12d
100
AcDbEntity
  8
DEFPOINTS
  6
CONTINUOUS
 62
     7
100
AcDbPoint
 10
190.7203216552734
 20
20.95843505859375
  0
POINT
  5
12e
100
AcDbEntity
  8
DEFPOINTS
  6
CONTINUOUS
 62
     7
100
AcDbPoint
 10
195.7203216552734
 20
207.9584655761719
  0
POINT
  5
12f
100
AcDbEntity
  8
DEFPOINTS
  6
CONTINUOUS
 62
     7
100
AcDbPoint
 10
250.2425842285156
 20
207.9585266113281
  0
ENDBLK
  8
0
  5
130
100
AcDbEntity
100
AcDbBlockEnd
  0
BLOCK
  8
0
  5
131
100
AcDbEntity
100
AcDbBlockBegin
  2
*D6
 70
    65
 10
0
 20
0
  0
LINE
  5
132
100
AcDbEntity
  8
0
  6
CONTINUOUS
 62
     7
100
AcDbLine
 10
163.720321610218
 20
4.509368896484375
 11
187.7203217003289
 21
4.509368896484356
  0
INSERT
  5
133
100
AcDbEntity
  8
0
  6
CONTINUOUS
 62
     7
100
AcDbBlockReference
  2
_OPEN30
 10
160.7203216552734
 20
4.509368896484375
 41
1
 42
1
 43
1
 50
180.0000000000004
  0
INSERT
  5
134
100
AcDbEntity
  8
0
  6
CONTINUOUS
 62
     7
100
AcDbBlockReference
  2
_OPEN30
 10
190.7203216552734
 20
4.509368896484375
 41
1
 42
1
 43
1
  0
LINE
  5
135
100
AcDbEntity
  8
0
  6
CONTINUOUS
 62
     7
100
AcDbLine
 10
160.7203216552734
 20
22.45843887329102
 11
160.7203216552734
 21
0.9381195902824402
  0
LINE
  5
136
100
AcDbEntity
  8
0
  6
CONTINUOUS
 62
     7
100
AcDbLine
 10
190.7203216552734
 20
22.45843887329102
 11
190.7203216552734
 21
0.9381195902824402
  0
MTEXT
  5
137
100
AcDbEntity
  8
0
  6
CONTINUOUS
 62
     7
100
AcDbMText
 10
175.7203216552734
 20
4.509368896484375
 40
5
 41
110
 71
     8
 72
     1
  1
{\W0.855331;\U+2205３０}
  0
POINT
  5
138
100
AcDbEntity
  8
DEFPOINTS
  6
CONTINUOUS
 62
     7
100
AcDbPoint
 10
160.7203216552734
 20
22.45843887329102
  0
POINT
  5
139
100
AcDbEntity
  8
DEFPOINTS
  6
CONTINUOUS
 62
     7
100
AcDbPoint
 10
190.7203216552734
 20
22.45843887329102
  0
POINT
  5
13a
100
AcDbEntity
  8
DEFPOINTS
  6
CONTINUOUS
 62
     7
100
AcDbPoint
 10
190.7203216552734
 20
4.509368896484375
  0
ENDBLK
  8
0
  5
13b
100
AcDbEntity
100
AcDbBlockEnd
  0
BLOCK
  8
0
  5
13c
100
AcDbEntity
100
AcDbBlockBegin
  2
*D7
 70
    65
 10
0
 20
0
  0
LINE
  5
13d
100
AcDbEntity
  8
0
  6
CONTINUOUS
 62
     7
100
AcDbLine
 10
-7.037063643688292
 20
220.9530029296875
 11
86.96292118763361
 21
220.9530029296875
  0
INSERT
  5
13e
100
AcDbEntity
  8
0
  6
CONTINUOUS
 62
     7
100
AcDbBlockReference
  2
_OPEN30
 10
-10.03706359863281
 20
220.9530029296875
 41
1
 42
1
 43
1
 50
180.0000000000004
  0
INSERT
  5
13f
100
AcDbEntity
  8
0
  6
CONTINUOUS
 62
     7
100
AcDbBlockReference
  2
_OPEN30
 10
89.96292114257813
 20
220.9530029296875
 41
1
 42
1
 43
1
  0
LINE
  5
140
100
AcDbEntity
  8
0
  6
CONTINUOUS
 62
     7
100
AcDbLine
 10
-10.03706359863281
 20
207.9584808349609
 11
-10.03706359863281
 21
223.8099975585938
  0
LINE
  5
141
100
AcDbEntity
  8
0
  6
CONTINUOUS
 62
     7
100
AcDbLine
 10
89.96292114257813
 20
155.9584350585938
 11
89.96292114257813
 21
223.8099975585938
  0
MTEXT
  5
142
100
AcDbEntity
  8
0
  6
CONTINUOUS
 62
     7
100
AcDbMText
 10
39.96292877197266
 20
220.9530029296875
 40
5
 41
60
 71
     8
 72
     1
  1
{\W0.855331;１００}
  0
POINT
  5
143
100
AcDbEntity
  8
DEFPOINTS
  6
CONTINUOUS
 62
     7
100
AcDbPoint
 10
-10.03706359863281
 20
207.9584808349609
  0
POINT
  5
144
100
AcDbEntity
  8
DEFPOINTS
  6
CONTINUOUS
 62
     7
100
AcDbPoint
 10
89.96292114257813
 20
155.9584350585938
  0
POINT
  5
145
100
AcDbEntity
  8
DEFPOINTS
  6
CONTINUOUS
 62
     7
100
AcDbPoint
 10
89.96292114257813
 20
220.9530029296875
  0
ENDBLK
  8
0
  5
146
100
AcDbEntity
100
AcDbBlockEnd
  0
BLOCK
  8
0
  5
147
100
AcDbEntity
100
AcDbBlockBegin
  2
*D8
 70
    65
 10
0
 20
0
  0
LINE
  5
148
100
AcDbEntity
  8
0
  6
CONTINUOUS
 62
     7
100
AcDbLine
 10
160.7203216552734
 20
61.79971843087293
 11
135.0462473211929
 21
61.79971843087293
  0
LINE
  5
149
100
AcDbEntity
  8
0
  6
CONTINUOUS
 62
     7
100
AcDbLine
 10
163.720321610218
 20
61.79971843087293
 11
187.7203217003289
 21
61.79971843087291
  0
INSERT
  5
14a
100
AcDbEntity
  8
0
  6
CONTINUOUS
 62
     7
100
AcDbBlockReference
  2
_OPEN
 10
160.7203216552734
 20
61.79971843087293
 41
1
 42
1
 43
1
 50
180.0000000000004
  0
INSERT
  5
14b
100
AcDbEntity
  8
0
  6
CONTINUOUS
 62
     7
100
AcDbBlockReference
  2
_OPEN
 10
190.7203216552734
 20
61.79971843087293
 41
1
 42
1
 43
1
  0
LINE
  5
14c
100
AcDbEntity
  8
0
  6
CONTINUOUS
 62
     7
100
AcDbLine
 10
160.7203216552734
 20
64.82887649536133
 11
160.7203216552734
 21
59.51371843087293
  0
LINE
  5
14d
100
AcDbEntity
  8
0
  6
CONTINUOUS
 62
     7
100
AcDbLine
 10
190.7203216552734
 20
64.82887649536133
 11
190.7203216552734
 21
59.51371843087293
  0
MTEXT
  5
14e
100
AcDbEntity
  8
0
  6
CONTINUOUS
 62
     7
100
AcDbMText
 10
139.331872540538
 20
61.79971843087293
 40
5
 41
40
 71
     8
 72
     1
  1
{\W0.864328;３０}
  0
POINT
  5
14f
100
AcDbEntity
  8
DEFPOINTS
  6
CONTINUOUS
 62
     7
100
AcDbPoint
 10
160.7203216552734
 20
64.82887649536133
  0
POINT
  5
150
100
AcDbEntity
  8
DEFPOINTS
  6
CONTINUOUS
 62
     7
100
AcDbPoint
 10
190.7203216552734
 20
64.82887649536133
  0
POINT
  5
151
100
AcDbEntity
  8
DEFPOINTS
  6
CONTINUOUS
 62
     7
100
AcDbPoint
 10
190.7203216552734
 20
61.79971843087293
  0
ENDBLK
  8
0
  5
152
100
AcDbEntity
100
AcDbBlockEnd
  0
BLOCK
  8
0
  5
153
100
AcDbEntity
100
AcDbBlockBegin
  2
KOZU0001
 70
    64
 10
0
 20
0
  0
POINT
  5
154
100
AcDbEntity
  8
0
  6
CONTINUOUS
 62
     7
100
AcDbPoint
 10
0
 20
0
  0
LINE
  5
155
100
AcDbEntity
  8
0
  6
CONTINUOUS
 62
     7
100
AcDbLine
 10
15
 20
-19.00001907348633
 11
15
 21
-36.00002288818359
  0
LINE
  5
156
100
AcDbEntity
  8
0
  6
CONTINUOUS
 62
     7
100
AcDbLine
 10
-15
 20
-19.00001907348633
 11
-15
 21
-36.00002288818359
  0
LINE
  5
157
100
AcDbEntity
  8
0
  6
CONTINUOUS
 62
     7
100
AcDbLine
 10
-15
 20
-36.00002288818359
 11
15
 21
-36.00002288818359
  0
LINE
  5
158
100
AcDbEntity
  8
0
  6
CONTINUOUS
 62
     7
100
AcDbLine
 10
22.50001907348633
 20
42.00000762939453
 11
22.50001907348633
 21
19.0000057220459
  0
LINE
  5
159
100
AcDbEntity
  8
0
  6
CONTINUOUS
 62
     7
100
AcDbLine
 10
-22.5
 20
42.00000762939453
 11
-22.5
 21
19.0000057220459
  0
LINE
  5
15a
100
AcDbEntity
  8
0
  6
CONTINUOUS
 62
     7
100
AcDbLine
 10
25.99998474121094
 20
107.0000152587891
 11
25.99998474121094
 21
42.00000762939453
  0
LINE
  5
15b
100
AcDbEntity
  8
0
  6
CONTINUOUS
 62
     7
100
AcDbLine
 10
-26.00000381469727
 20
107.0000152587891
 11
-26.00000381469727
 21
42.00000762939453
  0
LINE
  5
15c
100
AcDbEntity
  8
0
  6
CONTINUOUS
 62
     7
100
AcDbLine
 10
-26.00001525878906
 20
42.00000762939453
 11
25.99998474121094
 21
42.00000762939453
  0
LINE
  5
15d
100
AcDbEntity
  8
0
  6
CONTINUOUS
 62
     7
100
AcDbLine
 10
-25.5000114440918
 20
109.3000106811523
 11
-25.5000114440918
 21
107.0000152587891
  0
LINE
  5
15e
100
AcDbEntity
  8
0
  6
CONTINUOUS
 62
     7
100
AcDbLine
 10
-18.50000381469727
 20
109.3000106811523
 11
-18.50000381469727
 21
107.0000152587891
  0
LINE
  5
15f
100
AcDbEntity
  8
0
  6
CONTINUOUS
 62
     7
100
AcDbLine
 10
-35
 20
14.43740844726563
 11
-26.00000381469727
 21
14.43740844726563
  0
LINE
  5
160
100
AcDbEntity
  8
0
  6
CONTINUOUS
 62
     7
100
AcDbLine
 10
-35
 20
9.270505905151367
 11
-26.00000381469727
 21
9.270505905151367
  0
LINE
  5
161
100
AcDbEntity
  8
0
  6
CONTINUOUS
 62
     7
100
AcDbLine
 10
-14.00001525878906
 20
58.50002288818359
 11
-14.00001525878906
 21
51.00002288818359
  0
LINE
  5
162
100
AcDbEntity
  8
0
  6
CONTINUOUS
 62
     7
100
AcDbLine
 10
-15.99998474121094
 20
42.00000762939453
 11
-15.99998474121094
 21
19.0000057220459
  0
LINE
  5
163
100
AcDbEntity
  8
0
  6
CONTINUOUS
 62
     7
100
AcDbLine
 10
-24.00001525878906
 20
58.50002288818359
 11
-14.00001525878906
 21
58.50002288818359
  0
LINE
  5
164
100
AcDbEntity
  8
0
  6
CONTINUOUS
 62
     7
100
AcDbLine
 10
-24.00001525878906
 20
52.5
 11
-14.00001525878906
 21
52.5
  0
LINE
  5
165
100
AcDbEntity
  8
0
  6
CONTINUOUS
 62
     7
100
AcDbLine
 10
-24.00001525878906
 20
58.50002288818359
 11
-24.00001525878906
 21
51.00002288818359
  0
LINE
  5
166
100
AcDbEntity
  8
0
  6
CONTINUOUS
 62
     7
100
AcDbLine
 10
-22.00000762939453
 20
42.00000762939453
 11
-22.00000762939453
 21
19.0000057220459
  0
LINE
  5
167
100
AcDbEntity
  8
0
  6
CENTER
 62
     3
100
AcDbLine
 10
-19.00001525878906
 20
59.27830854403291
 11
-19.00001525878906
 21
19.00001525878906
  0
LINE
  5
168
100
AcDbEntity
  8
0
  6
CONTINUOUS
 62
     7
100
AcDbLine
 10
15.99998474121094
 20
42.00000762939453
 11
15.99998474121094
 21
19.0000057220459
  0
LINE
  5
169
100
AcDbEntity
  8
0
  6
CONTINUOUS
 62
     7
100
AcDbLine
 10
22.00004577636719
 20
42.00000762939453
 11
22.00004577636719
 21
19.0000057220459
  0
LINE
  5
16a
100
AcDbEntity
  8
0
  6
CENTER
 62
     3
100
AcDbLine
 10
19.00001525878906
 20
59.27830854403291
 11
19.00001525878906
 21
19.00001525878906
  0
LINE
  5
16b
100
AcDbEntity
  8
0
  6
CONTINUOUS
 62
     7
100
AcDbLine
 10
25.99998474121094
 20
51.00002288818359
 11
10.99998474121094
 21
51.00002288818359
  0
LINE
  5
16c
100
AcDbEntity
  8
0
  6
CENTER
 62
     3
100
AcDbLine
 10
0
 20
154.0056304931641
 11
0
 21
-40.81970596313477
  0
LINE
  5
16d
100
AcDbEntity
  8
0
  6
CONTINUOUS
 62
     7
100
AcDbLine
 10
25.99998474121094
 20
14.43740844726563
 11
35.00001907348633
 21
14.43740844726563
  0
LINE
  5
16e
100
AcDbEntity
  8
0
  6
CONTINUOUS
 62
     7
100
AcDbLine
 10
25.99998474121094
 20
9.270505905151367
 11
35.00001907348633
 21
9.270505905151367
  0
LINE
  5
16f
100
AcDbEntity
  8
0
  6
CONTINUOUS
 62
     7
100
AcDbLine
 10
25.99998474121094
 20
-9.270515441894531
 11
35.00001907348633
 21
-9.270515441894531
  0
LINE
  5
170
100
AcDbEntity
  8
0
  6
CONTINUOUS
 62
     7
100
AcDbLine
 10
-26.00001525878906
 20
60
 11
25.99997520446777
 21
60
  0
LINE
  5
171
100
AcDbEntity
  8
0
  6
CONTINUOUS
 62
     7
100
AcDbLine
 10
-35
 20
-9.270515441894531
 11
-26.00000381469727
 21
-9.270515441894531
  0
LINE
  5
172
100
AcDbEntity
  8
0
  6
CONTINUOUS
 62
     7
100
AcDbLine
 10
-25.5000114440918
 20
108
 11
-18.50000381469727
 21
108
  0
LINE
  5
173
100
AcDbEntity
  8
0
  6
CENTER
 62
     3
100
AcDbLine
 10
-37.82610321044922
 20
0
 11
39.36502456665039
 21
0
  0
LINE
  5
174
100
AcDbEntity
  8
0
  6
CONTINUOUS
 62
     7
100
AcDbLine
 10
35.00001907348633
 20
19.0000057220459
 11
35.00001907348633
 21
-15
  0
LINE
  5
175
100
AcDbEntity
  8
0
  6
CONTINUOUS
 62
     7
100
AcDbLine
 10
-35.00001907348633
 20
19.0000057220459
 11
-35.00001907348633
 21
-15
  0
LINE
  5
176
100
AcDbEntity
  8
0
  6
CONTINUOUS
 62
     7
100
AcDbLine
 10
-35.00001907348633
 20
19.00001525878906
 11
35.00001907348633
 21
19.00001525878906
  0
LINE
  5
177
100
AcDbEntity
  8
0
  6
CONTINUOUS
 62
     7
100
AcDbLine
 10
-35.00001907348633
 20
-15
 11
35.00001907348633
 21
-15
  0
LINE
  5
178
100
AcDbEntity
  8
0
  6
CONTINUOUS
 62
     7
100
AcDbLine
 10
15.99996566772461
 20
-15
 11
15.99996566772461
 21
-19.00000762939453
  0
LINE
  5
179
100
AcDbEntity
  8
0
  6
CONTINUOUS
 62
     7
100
AcDbLine
 10
-16.00000381469727
 20
-15
 11
-16.00000381469727
 21
-19.00000762939453
  0
LINE
  5
17a
100
AcDbEntity
  8
0
  6
CONTINUOUS
 62
     7
100
AcDbLine
 10
-16.00001335144043
 20
-19.0000057220459
 11
15.99996566772461
 21
-19.0000057220459
  0
LINE
  5
17b
100
AcDbEntity
  8
0
  6
DASHED
 62
     7
100
AcDbLine
 10
-27.00000381469726
 20
-9.314284935012982
 11
-35.00000692493362
 21
-9.593651186492632
  0
LINE
  5
17c
100
AcDbEntity
  8
0
  6
DASHED
 62
     7
100
AcDbLine
 10
-27.00000381469726
 20
9.314281117990488
 11
-35.00003374467881
 21
9.593648306036236
  0
LINE
  5
17d
100
AcDbEntity
  8
0
  6
DASHED
 62
     7
100
AcDbLine
 10
-27.00000381469726
 20
-10.47696907130364
 11
-35.00001439530406
 21
-10.75633558365437
  0
LINE
  5
17e
100
AcDbEntity
  8
0
  6
DASHED
 62
     7
100
AcDbLine
 10
-27.00000381469726
 20
10.47698433939362
 11
-35.00005579888804
 21
10.75635229758928
  0
LINE
  5
17f
100
AcDbEntity
  8
0
  6
DASHED
 62
     7
100
AcDbLine
 10
26.99998474121093
 20
-9.314274726395961
 11
34.9999843835204
 21
-9.593640856772943
  0
LINE
  5
180
100
AcDbEntity
  8
0
  6
DASHED
 62
     7
100
AcDbLine
 10
26.99998474121093
 20
9.314280451929701
 11
34.99995749720971
 21
9.593645643416068
  0
LINE
  5
181
100
AcDbEntity
  8
0
  6
DASHED
 62
     7
100
AcDbLine
 10
26.99998474121093
 20
-10.47698749035532
 11
34.99995273167373
 21
-10.75635251542551
  0
LINE
  5
182
100
AcDbEntity
  8
0
  6
DASHED
 62
     7
100
AcDbLine
 10
26.99998474121093
 20
10.47697890205471
 11
34.99999115495306
 21
10.75634526889532
  0
LINE
  5
183
100
AcDbEntity
  8
0
  6
CONTINUOUS
 62
     7
100
AcDbLine
 10
10.99998474121094
 20
60
 11
10.99998474121094
 21
51.00002288818359
  0
LINE
  5
184
100
AcDbEntity
  8
0
  6
CONTINUOUS
 62
     7
100
AcDbLine
 10
-10.99998474121094
 20
60
 11
-10.99998474121094
 21
51.00002288818359
  0
LINE
  5
185
100
AcDbEntity
  8
0
  6
CONTINUOUS
 62
     7
100
AcDbLine
 10
-26.00000381469727
 20
51.00002288818359
 11
-10.99998474121094
 21
51.00002288818359
  0
LINE
  5
186
100
AcDbEntity
  8
0
  6
CONTINUOUS
 62
     7
100
AcDbLine
 10
25.99998474121094
 20
19.00001525878906
 11
25.99998474121094
 21
-10.27051448822022
  0
LINE
  5
187
100
AcDbEntity
  8
0
  6
CONTINUOUS
 62
     7
100
AcDbLine
 10
-26.00000381469727
 20
19.00001525878906
 11
-26.00000381469727
 21
-10.27051448822022
  0
LINE
  5
188
100
AcDbEntity
  8
0
  6
CONTINUOUS
 62
     7
100
AcDbLine
 10
25.99989891052246
 20
69.00001525878906
 11
-26.00005149841309
 21
69.00001525878906
  0
LINE
  5
189
100
AcDbEntity
  8
0
  6
CONTINUOUS
 62
     7
100
AcDbLine
 10
-27.00007312595861
 20
73.74998811483471
 11
-26.00006703138373
 21
72.99998352527697
  0
LINE
  5
18a
100
AcDbEntity
  8
0
  6
CONTINUOUS
 62
     7
100
AcDbLine
 10
-27.00006484985352
 20
92.25002288818359
 11
-27.00006484985352
 21
73.74999237060547
  0
LINE
  5
18b
100
AcDbEntity
  8
0
  6
CONTINUOUS
 62
     7
100
AcDbLine
 10
-26.00012623071624
 20
92.9999630689606
 11
-27.00012622177554
 21
92.24996305703968
  0
LINE
  5
18c
100
AcDbEntity
  8
0
  6
CONTINUOUS
 62
     7
100
AcDbLine
 10
25.99998474121094
 20
100
 11
-26.00000381469727
 21
100
  0
LINE
  5
18d
100
AcDbEntity
  8
0
  6
CONTINUOUS
 62
     7
100
AcDbLine
 10
-24.99997164697741
 20
151.0000305175781
 11
24.9999720503932
 21
151.0000305175781
  0
LINE
  5
18e
100
AcDbEntity
  8
0
  6
CONTINUOUS
 62
     7
100
AcDbLine
 10
-16.50067571927786
 20
151.0000305175781
 11
-17.49937362207937
 21
107.0000152587891
  0
LINE
  5
18f
100
AcDbEntity
  8
0
  6
CONTINUOUS
 62
     7
100
AcDbLine
 10
-26.00000381469727
 20
107.0000152587891
 11
-17.49937362207937
 21
107.0000152587891
  0
LINE
  5
190
100
AcDbEntity
  8
0
  6
CONTINUOUS
 62
     7
100
AcDbLine
 10
16.50050973720764
 20
151.0000305175781
 11
17.49920764000915
 21
107.0000152587891
  0
LINE
  5
191
100
AcDbEntity
  8
0
  6
CONTINUOUS
 62
     7
100
AcDbLine
 10
25.99998474121094
 20
107.0000152587891
 11
17.49920764000915
 21
107.0000152587891
  0
LINE
  5
192
100
AcDbEntity
  8
0
  6
CONTINUOUS
 62
     7
100
AcDbLine
 10
28.99999618530273
 20
99.50000762939453
 11
25.99989891052246
 21
99.50000762939453
  0
LINE
  5
193
100
AcDbEntity
  8
0
  6
CONTINUOUS
 62
     7
100
AcDbLine
 10
28.99999618530273
 20
99.50000762939453
 11
28.99999618530273
 21
72.5
  0
LINE
  5
194
100
AcDbEntity
  8
0
  6
CONTINUOUS
 62
     7
100
AcDbLine
 10
28.99999618530273
 20
72.5
 11
25.99989891052246
 21
72.5
  0
LINE
  5
195
100
AcDbEntity
  8
0
  6
CONTINUOUS
 62
     7
100
AcDbLine
 10
-18.7000846862793
 20
92.70000457763672
 11
-18.7000846862793
 21
74.30000305175781
  0
LINE
  5
196
100
AcDbEntity
  8
0
  6
CONTINUOUS
 62
     7
100
AcDbLine
 10
18.69997024536133
 20
92.70000457763672
 11
-18.7000846862793
 21
92.70000457763672
  0
LINE
  5
197
100
AcDbEntity
  8
0
  6
CONTINUOUS
 62
     7
100
AcDbLine
 10
18.69997024536133
 20
92.70000457763672
 11
18.69997024536133
 21
74.30000305175781
  0
LINE
  5
198
100
AcDbEntity
  8
0
  6
CONTINUOUS
 62
     7
100
AcDbLine
 10
18.69997024536133
 20
74.30000305175781
 11
-18.7000846862793
 21
74.30000305175781
  0
LINE
  5
199
100
AcDbEntity
  8
0
  6
CONTINUOUS
 62
     7
100
AcDbLine
 10
-7.0001220703125
 20
81
 11
-7.0001220703125
 21
74.30000305175781
  0
LINE
  5
19a
100
AcDbEntity
  8
0
  6
CENTER
 62
     3
100
AcDbLine
 10
6.999988555908203
 20
81
 11
-7.0001220703125
 21
81
  0
LINE
  5
19b
100
AcDbEntity
  8
0
  6
CONTINUOUS
 62
     7
100
AcDbLine
 10
6.999988555908203
 20
81
 11
6.999988555908203
 21
74.30000305175781
  0
LINE
  5
19c
100
AcDbEntity
  8
0
  6
CONTINUOUS
 62
     7
100
AcDbLine
 10
-0.0001224384723741423
 20
78.11496474127941
 11
2.499961644631618
 21
79.55838898556311
  0
LINE
  5
19d
100
AcDbEntity
  8
0
  6
CONTINUOUS
 62
     7
100
AcDbLine
 10
-2.500083404368098
 20
79.55835356758885
 11
-8.521550695661517e-005
 21
78.11497891437028
  0
LINE
  5
19e
100
AcDbEntity
  8
0
  6
CONTINUOUS
 62
     7
100
AcDbLine
 10
-2.5
 20
82.44164276123047
 11
-2.5
 21
79.55837249755859
  0
LINE
  5
19f
100
AcDbEntity
  8
0
  6
CONTINUOUS
 62
     7
100
AcDbLine
 10
-2.500057817472126
 20
82.44162282208129
 11
-8.936123351332981e-005
 21
83.88498030916193
  0
LINE
  5
1a0
100
AcDbEntity
  8
0
  6
CONTINUOUS
 62
     7
100
AcDbLine
 10
-6.999770929638771e-005
 20
83.88500183776401
 11
2.499928191151845
 21
82.44162718454544
  0
LINE
  5
1a1
100
AcDbEntity
  8
0
  6
CONTINUOUS
 62
     7
100
AcDbLine
 10
2.5
 20
82.44164276123047
 11
2.5
 21
79.55837249755859
  0
LINE
  5
1a2
100
AcDbEntity
  8
0
  6
CONTINUOUS
 62
     7
100
AcDbLine
 10
-25.99997472393448
 20
107.0000112117272
 11
-24.99997164697741
 21
151.0000305175782
  0
LINE
  5
1a3
100
AcDbEntity
  8
0
  6
CONTINUOUS
 62
     7
100
AcDbLine
 10
25.99995614309427
 20
107.0000060847064
 11
24.99997205039319
 21
151.0000305175781
  0
LINE
  5
1a4
100
AcDbEntity
  8
0
  6
CENTER
 62
     3
100
AcDbLine
 10
-22.00004577636719
 20
111.8004735079461
 11
-22.00004577636719
 21
107.0000152587891
  0
LINE
  5
1a5
100
AcDbEntity
  8
0
  6
CENTER
 62
     3
100
AcDbLine
 10
-2.950000047683716
 20
15.00001621246338
 11
2.950000047683716
 21
15.00001621246338
  0
LINE
  5
1a6
100
AcDbEntity
  8
0
  6
DASHED
 62
     7
100
AcDbLine
 10
-19.7000846862793
 20
77.35098352995239
 11
-27.00005491743758
 21
77.09606296413632
  0
LINE
  5
1a7
100
AcDbEntity
  8
0
  6
DASHED
 62
     7
100
AcDbLine
 10
-19.70008468627929
 20
88.64906498623192
 11
-27.00008724228311
 21
88.90398668085641
  0
LINE
  5
1a8
100
AcDbEntity
  8
0
  6
DASHED
 62
     7
100
AcDbLine
 10
-19.7000846862793
 20
76.49445131670785
 11
-26.97019011634297
 21
76.24057365267795
  0
LINE
  5
1a9
100
AcDbEntity
  8
0
  6
DASHED
 62
     7
100
AcDbLine
 10
-19.70008468627929
 20
89.5055742973415
 11
-26.97018321005326
 21
89.75945172019846
  0
LINE
  5
1aa
100
AcDbEntity
  8
0
  6
CENTER
 62
     3
100
AcDbLine
 10
-29.75
 20
83.00000762939453
 11
-19.7000846862793
 21
83.00000762939453
  0
LINE
  5
1ab
100
AcDbEntity
  8
0
  6
CONTINUOUS
 62
     7
100
AcDbLine
 10
1.500000596046448
 20
2.999999284744263
 11
1.500000596046448
 21
1.499999642372131
  0
LINE
  5
1ac
100
AcDbEntity
  8
0
  6
CONTINUOUS
 62
     7
100
AcDbLine
 10
-5.999997615814209
 20
0
 11
7.499999046325684
 21
0
  0
LINE
  5
1ad
100
AcDbEntity
  8
0
  6
CONTINUOUS
 62
     7
100
AcDbLine
 10
-7.499997615814209
 20
1.499999642372131
 11
1.500000596046448
 21
1.499999642372131
  0
LINE
  5
1ae
100
AcDbEntity
  8
0
  6
CONTINUOUS
 62
     7
100
AcDbLine
 10
1.500001131669714
 20
2.999999355943378
 11
7.49999899056423
 21
4.26496119754205e-007
  0
LINE
  5
1af
100
AcDbEntity
  8
0
  6
CONTINUOUS
 62
     7
100
AcDbLine
 10
-7.499997300685207
 20
1.499999595006957
 11
-5.999997705678251
 21
0
  0
LINE
  5
1b0
100
AcDbEntity
  8
0
  6
CENTER
 62
     3
100
AcDbLine
 10
103.1492309570313
 20
86.00001525878906
 11
25.9998722076416
 21
86.00001525878906
  0
LINE
  5
1b1
100
AcDbEntity
  8
0
  6
CONTINUOUS
 62
     7
100
AcDbLine
 10
31.9999885559082
 20
96.50001525878906
 11
28.99999237060547
 21
96.50001525878906
  0
LINE
  5
1b2
100
AcDbEntity
  8
0
  6
CONTINUOUS
 62
     7
100
AcDbLine
 10
28.99999930940865
 20
95.30000669964321
 11
31.07846819786447
 21
96.5000112934334
  0
LINE
  5
1b3
100
AcDbEntity
  8
0
  6
CONTINUOUS
 62
     7
100
AcDbLine
 10
31.9999885559082
 20
103.0000152587891
 11
31.9999885559082
 21
72.00001525878906
  0
LINE
  5
1b4
100
AcDbEntity
  8
0
  6
CONTINUOUS
 62
     7
100
AcDbLine
 10
99.99998474121094
 20
100.0000152587891
 11
31.9999885559082
 21
100.0000152587891
  0
LINE
  5
1b5
100
AcDbEntity
  8
0
  6
CONTINUOUS
 62
     7
100
AcDbLine
 10
77.99998474121094
 20
101.0000152587891
 11
31.9999885559082
 21
101.0000152587891
  0
LINE
  5
1b6
100
AcDbEntity
  8
0
  6
CONTINUOUS
 62
     7
100
AcDbLine
 10
77.99998474121094
 20
103.0000152587891
 11
31.9999885559082
 21
103.0000152587891
  0
LINE
  5
1b7
100
AcDbEntity
  8
0
  6
CONTINUOUS
 62
     7
100
AcDbLine
 10
32.99999152422635
 20
103.0000186934976
 11
33.9999910122017
 21
109.0000152587891
  0
LINE
  5
1b8
100
AcDbEntity
  8
0
  6
CONTINUOUS
 62
     7
100
AcDbLine
 10
75.99998261988223
 20
109.0000152587891
 11
33.9999910122017
 21
109.0000152587891
  0
LINE
  5
1b9
100
AcDbEntity
  8
0
  6
CONTINUOUS
 62
     7
100
AcDbLine
 10
41.99998380630738
 20
103.0000126475498
 11
42.99998430194077
 21
109.0000152587891
  0
LINE
  5
1ba
100
AcDbEntity
  8
0
  6
CENTER
 62
     3
100
AcDbLine
 10
54.9999885559082
 20
111.1228408813477
 11
54.9999885559082
 21
70.47084045410156
  0
LINE
  5
1bb
100
AcDbEntity
  8
0
  6
CONTINUOUS
 62
     7
100
AcDbLine
 10
28.99999903736934
 20
76.7000095873351
 11
31.07845471132626
 21
75.50001262293955
  0
LINE
  5
1bc
100
AcDbEntity
  8
0
  6
CONTINUOUS
 62
     7
100
AcDbLine
 10
31.9999885559082
 20
75.50001525878906
 11
28.99999237060547
 21
75.50001525878906
  0
LINE
  5
1bd
100
AcDbEntity
  8
0
  6
CONTINUOUS
 62
     7
100
AcDbLine
 10
99.99998474121094
 20
72.00001525878906
 11
31.9999885559082
 21
72.00001525878906
  0
LINE
  5
1be
100
AcDbEntity
  8
0
  6
CONTINUOUS
 62
     7
100
AcDbLine
 10
40.9999885559082
 20
95.00001525878906
 11
40.9999885559082
 21
72.00001525878906
  0
LINE
  5
1bf
100
AcDbEntity
  8
0
  6
CONTINUOUS
 62
     7
100
AcDbLine
 10
68.99998474121094
 20
95.00001525878906
 11
68.99998474121094
 21
72.00001525878906
  0
LINE
  5
1c0
100
AcDbEntity
  8
0
  6
CONTINUOUS
 62
     7
100
AcDbLine
 10
77.99998474121094
 20
103.0000152587891
 11
77.99998474121094
 21
72.00001525878906
  0
LINE
  5
1c1
100
AcDbEntity
  8
0
  6
CONTINUOUS
 62
     7
100
AcDbLine
 10
99.99998474121094
 20
100.0000152587891
 11
99.99998474121094
 21
72.00001525878906
  0
LINE
  5
1c2
100
AcDbEntity
  8
0
  6
DASHED
 62
     7
100
AcDbLine
 10
99.99998474121094
 20
96.50001525878906
 11
84.99998474121094
 21
96.50001525878906
  0
LINE
  5
1c3
100
AcDbEntity
  8
0
  6
DASHED
 62
     7
100
AcDbLine
 10
99.99998474121094
 20
95.30001068115234
 11
84.99998474121094
 21
95.30001068115234
  0
LINE
  5
1c4
100
AcDbEntity
  8
0
  6
DASHED
 62
     7
100
AcDbLine
 10
99.99998474121094
 20
76.70001220703125
 11
84.99998474121094
 21
76.70001220703125
  0
LINE
  5
1c5
100
AcDbEntity
  8
0
  6
DASHED
 62
     7
100
AcDbLine
 10
99.99998474121094
 20
75.50001525878906
 11
84.99998474121094
 21
75.50001525878906
  0
LINE
  5
1c6
100
AcDbEntity
  8
0
  6
CONTINUOUS
 62
     7
100
AcDbLine
 10
75.99998474121094
 20
84.00001525878906
 11
68.99998474121094
 21
84.00001525878906
  0
LINE
  5
1c7
100
AcDbEntity
  8
0
  6
CONTINUOUS
 62
     7
100
AcDbLine
 10
75.99998474121094
 20
95.00001525878906
 11
75.99998474121094
 21
84.00001525878906
  0
LINE
  5
1c8
100
AcDbEntity
  8
0
  6
CONTINUOUS
 62
     7
100
AcDbLine
 10
77.99998474121094
 20
95.00001525878906
 11
31.9999885559082
 21
95.00001525878906
  0
LINE
  5
1c9
100
AcDbEntity
  8
0
  6
CONTINUOUS
 62
     7
100
AcDbLine
 10
33.9999885559082
 20
95.00001525878906
 11
33.9999885559082
 21
84.00001525878906
  0
LINE
  5
1ca
100
AcDbEntity
  8
0
  6
CONTINUOUS
 62
     7
100
AcDbLine
 10
40.9999885559082
 20
84.00001525878906
 11
33.9999885559082
 21
84.00001525878906
  0
LINE
  5
1cb
100
AcDbEntity
  8
0
  6
CONTINUOUS
 62
     7
100
AcDbLine
 10
67.99997914166211
 20
103.0000187424921
 11
66.99997966185249
 21
109.0000152587891
  0
LINE
  5
1cc
100
AcDbEntity
  8
0
  6
CONTINUOUS
 62
     7
100
AcDbLine
 10
76.99998208499343
 20
103.0000188306826
 11
75.99998261988225
 21
109.0000152587891
  0
LINE
  5
1cd
100
AcDbEntity
  8
0
  6
CONTINUOUS
 62
     7
100
AcDbLine
 10
25.5000114440918
 20
109.3000106811523
 11
25.5000114440918
 21
107.0000152587891
  0
LINE
  5
1ce
100
AcDbEntity
  8
0
  6
CONTINUOUS
 62
     7
100
AcDbLine
 10
18.50000381469727
 20
109.3000106811523
 11
18.50000381469727
 21
107.0000152587891
  0
LINE
  5
1cf
100
AcDbEntity
  8
0
  6
CONTINUOUS
 62
     7
100
AcDbLine
 10
25.5000114440918
 20
108
 11
18.50000381469727
 21
108
  0
LINE
  5
1d0
100
AcDbEntity
  8
0
  6
CENTER
 62
     3
100
AcDbLine
 10
22.00004577636719
 20
111.8004735079461
 11
22.00004577636719
 21
107.0000152587891
  0
LINE
  5
1d1
100
AcDbEntity
  8
0
  6
CONTINUOUS
 62
     7
100
AcDbLine
 10
14.00001525878906
 20
58.50002288818359
 11
14.00001525878906
 21
51.00002288818359
  0
LINE
  5
1d2
100
AcDbEntity
  8
0
  6
CONTINUOUS
 62
     7
100
AcDbLine
 10
24.00001525878906
 20
58.50002288818359
 11
14.00001525878906
 21
58.50002288818359
  0
LINE
  5
1d3
100
AcDbEntity
  8
0
  6
CONTINUOUS
 62
     7
100
AcDbLine
 10
24.00001525878906
 20
52.5
 11
14.00001525878906
 21
52.5
  0
LINE
  5
1d4
100
AcDbEntity
  8
0
  6
CONTINUOUS
 62
     7
100
AcDbLine
 10
24.00001525878906
 20
58.50002288818359
 11
24.00001525878906
 21
51.00002288818359
  0
LINE
  5
1d5
100
AcDbEntity
  8
0
  6
CONTINUOUS
 62
     7
100
AcDbLine
 10
41.49995422363281
 20
105.3000106811523
 11
41.49995422363281
 21
103.0000152587891
  0
LINE
  5
1d6
100
AcDbEntity
  8
0
  6
CONTINUOUS
 62
     7
100
AcDbLine
 10
34.49994659423828
 20
105.3000106811523
 11
34.49994659423828
 21
103.0000152587891
  0
LINE
  5
1d7
100
AcDbEntity
  8
0
  6
CONTINUOUS
 62
     7
100
AcDbLine
 10
41.49995422363281
 20
104
 11
34.49994659423828
 21
104
  0
LINE
  5
1d8
100
AcDbEntity
  8
0
  6
CENTER
 62
     3
100
AcDbLine
 10
37.9999885559082
 20
107.8004735079461
 11
37.9999885559082
 21
103.0000152587891
  0
LINE
  5
1d9
100
AcDbEntity
  8
0
  6
CONTINUOUS
 62
     7
100
AcDbLine
 10
68.50002288818359
 20
105.3000106811523
 11
68.50002288818359
 21
103.0000152587891
  0
LINE
  5
1da
100
AcDbEntity
  8
0
  6
CONTINUOUS
 62
     7
100
AcDbLine
 10
75.50003051757813
 20
105.3000106811523
 11
75.50003051757813
 21
103.0000152587891
  0
LINE
  5
1db
100
AcDbEntity
  8
0
  6
CENTER
 62
     3
100
AcDbLine
 10
71.9999885559082
 20
107.8004735079461
 11
71.9999885559082
 21
103.0000152587891
  0
LINE
  5
1dc
100
AcDbEntity
  8
0
  6
CONTINUOUS
 62
     7
100
AcDbLine
 10
68.50002288818359
 20
104
 11
75.50003051757813
 21
104
  0
ARC
  5
1dd
100
AcDbEntity
  8
0
  6
CONTINUOUS
 62
     7
100
AcDbCircle
 10
-21.00000381469727
 20
-10
 40
5
100
AcDbArc
 50
179.9999776881997
 51
270.0000280040027
  0
ARC
  5
1de
100
AcDbEntity
  8
0
  6
CONTINUOUS
 62
     7
100
AcDbCircle
 10
20.99998474121094
 20
-10
 40
5
100
AcDbArc
 50
270.00001798609
 51
360
  0
ARC
  5
1df
100
AcDbEntity
  8
0
  6
CONTINUOUS
 62
     7
100
AcDbCircle
 10
0
 20
81
 40
7.000005722045898
100
AcDbArc
 50
0
 51
180.0000186693354
  0
CIRCLE
  5
1e0
100
AcDbEntity
  8
0
  6
CONTINUOUS
 62
     7
100
AcDbCircle
 10
0
 20
81
 40
5.000003337860107
  0
CIRCLE
  5
1e1
100
AcDbEntity
  8
0
  6
CONTINUOUS
 62
     7
100
AcDbCircle
 10
0
 20
81
 40
4.250003337860107
  0
CIRCLE
  5
1e2
100
AcDbEntity
  8
0
  6
CONTINUOUS
 62
     7
100
AcDbCircle
 10
0
 20
15.00001621246338
 40
2.950000047683716
  0
ARC
  5
1e3
100
AcDbEntity
  8
0
  6
CONTINUOUS
 62
     7
100
AcDbCircle
 10
-22.00000762939453
 20
105.2385060014487
 40
5.361515360991737
100
AcDbArc
 50
49.24686302497598
 51
130.753136975024
  0
ARC
  5
1e4
100
AcDbEntity
  8
0
  6
CONTINUOUS
 62
     7
100
AcDbCircle
 10
22.00000762939453
 20
105.2385060014487
 40
5.361515360991737
100
AcDbArc
 50
49.24686302497602
 51
130.753136975024
  0
ARC
  5
1e5
100
AcDbEntity
  8
0
  6
CONTINUOUS
 62
     7
100
AcDbCircle
 10
37.99995040893555
 20
101.2385060014487
 40
5.361515360991737
100
AcDbArc
 50
49.24686302497604
 51
130.753136975024
  0
ARC
  5
1e6
100
AcDbEntity
  8
0
  6
CONTINUOUS
 62
     7
100
AcDbCircle
 10
72.00002670288086
 20
101.2385060014487
 40
5.361515360991737
100
AcDbArc
 50
49.24686302497598
 51
130.753136975024
  0
MTEXT
  5
1e7
100
AcDbEntity
  8
0
  6
CONTINUOUS
 62
     7
100
AcDbMText
 10
-13.83938060700893
 20
141.5364227294922
 40
0.5
 41
36
 71
     7
 72
     1
  1
{\W0.8426;ＢＮ－５ＢＰ２１－１５－Ｇ／Ｈ＊＊＊}
  0
INSERT
  5
1e8
100
AcDbEntity
  8
0
  6
CONTINUOUS
 62
     7
100
AcDbBlockReference
  2
KOZU0007
 10
0
 20
0
  0
ENDBLK
  8
0
  5
1e9
100
AcDbEntity
100
AcDbBlockEnd
  0
BLOCK
  8
0
  5
1ea
100
AcDbEntity
100
AcDbBlockBegin
  2
KOZU0002
 70
    64
 10
0
 20
0
  0
POINT
  5
1eb
100
AcDbEntity
  8
0
  6
CONTINUOUS
 62
     7
100
AcDbPoint
 10
0
 20
0
  0
LINE
  5
1ec
100
AcDbEntity
  8
0
  6
CONTINUOUS
 62
     7
100
AcDbLine
 10
3.85009765625
 20
25.7499885559082
 11
3.85009765625
 21
20.99998474121094
  0
LINE
  5
1ed
100
AcDbEntity
  8
0
  6
CENTER
 62
     3
100
AcDbLine
 10
0
 20
28.99755477905273
 11
0
 21
-29.05057907104492
  0
LINE
  5
1ee
100
AcDbEntity
  8
0
  6
CONTINUOUS
 62
     7
100
AcDbLine
 10
25.70815969617875
 20
20.99998474121094
 11
-25.70821691663774
 21
20.99998474121094
  0
LINE
  5
1ef
100
AcDbEntity
  8
0
  6
CONTINUOUS
 62
     7
100
AcDbLine
 10
25.99996566772461
 20
18.99997711181641
 11
25.99996566772461
 21
-19.00001525878906
  0
LINE
  5
1f0
100
AcDbEntity
  8
0
  6
CONTINUOUS
 62
     7
100
AcDbLine
 10
28.99993896484375
 20
13.49998474121094
 11
25.99996566772461
 21
13.49998474121094
  0
LINE
  5
1f1
100
AcDbEntity
  8
0
  6
CONTINUOUS
 62
     7
100
AcDbLine
 10
28.99993896484375
 20
-13.50002288818359
 11
28.99993896484375
 21
13.49998474121094
  0
LINE
  5
1f2
100
AcDbEntity
  8
0
  6
CONTINUOUS
 62
     7
100
AcDbLine
 10
28.99993896484375
 20
-13.50002288818359
 11
25.99996566772461
 21
-13.50002288818359
  0
LINE
  5
1f3
100
AcDbEntity
  8
0
  6
CONTINUOUS
 62
     3
100
AcDbLine
 10
-20.55039716048183
 20
17.44956804172945
 11
-23.44953364000839
 21
14.55043107344498
  0
LINE
  5
1f4
100
AcDbEntity
  8
0
  6
CONTINUOUS
 62
     3
100
AcDbLine
 10
-23.44954737137773
 20
17.44955431035783
 11
-20.55043737707858
 21
14.55044480481205
  0
LINE
  5
1f5
100
AcDbEntity
  8
0
  6
CONTINUOUS
 62
     7
100
AcDbLine
 10
25.70815969617875
 20
-21.00002288818359
 11
-25.70821691663774
 21
-21.00002288818359
  0
LINE
  5
1f6
100
AcDbEntity
  8
0
  6
CONTINUOUS
 62
     7
100
AcDbLine
 10
-26.00000321881453
 20
-10.00000479226053
 11
-27.00000145152923
 21
-9.250000846434784
  0
LINE
  5
1f7
100
AcDbEntity
  8
0
  6
CONTINUOUS
 62
     7
100
AcDbLine
 10
-27.00000762939453
 20
9.249992370605469
 11
-27.00000762939453
 21
-9.250030517578125
  0
LINE
  5
1f8
100
AcDbEntity
  8
0
  6
CONTINUOUS
 62
     7
100
AcDbLine
 10
-26.00002303133049
 20
10.00001282689304
 11
-27.0000060738324
 21
9.250022006044821
  0
LINE
  5
1f9
100
AcDbEntity
  8
0
  6
CONTINUOUS
 62
     3
100
AcDbLine
 10
-23.44953118698285
 20
-14.55050515909653
 11
-20.5504211926837
 21
-17.44961466464231
  0
LINE
  5
1fa
100
AcDbEntity
  8
0
  6
PHANTOM
 62
     3
100
AcDbLine
 10
4.499988555908203
 20
25.49999237060547
 11
4.499988555908203
 21
20.99998474121094
  0
LINE
  5
1fb
100
AcDbEntity
  8
0
  6
CENTER
 62
     3
100
AcDbLine
 10
-4.250011444091797
 20
25.75000762939453
 11
-4.250011444091797
 21
20.99998474121094
  0
LINE
  5
1fc
100
AcDbEntity
  8
0
  6
PHANTOM
 62
     3
100
AcDbLine
 10
-4.000015258789063
 20
25.7499885559082
 11
-4.000015258789063
 21
20.99998474121094
  0
LINE
  5
1fd
100
AcDbEntity
  8
0
  6
PHANTOM
 62
     3
100
AcDbLine
 10
-4.499969482421875
 20
25.7499885559082
 11
-4.499969482421875
 21
20.99998474121094
  0
LINE
  5
1fe
100
AcDbEntity
  8
0
  6
CONTINUOUS
 62
     7
100
AcDbLine
 10
-5
 20
25.75000762939453
 11
5
 21
25.75000762939453
  0
LINE
  5
1ff
100
AcDbEntity
  8
0
  6
CONTINUOUS
 62
     7
100
AcDbLine
 10
-3.849945068359375
 20
25.7499885559082
 11
-3.849945068359375
 21
20.99998474121094
  0
LINE
  5
200
100
AcDbEntity
  8
0
  6
CONTINUOUS
 62
     7
100
AcDbLine
 10
-17.5
 20
11.50001525878906
 11
-26.00000381469727
 21
11.50001525878906
  0
LINE
  5
201
100
AcDbEntity
  8
0
  6
CONTINUOUS
 62
     7
100
AcDbLine
 10
-17.5
 20
20.99998474121094
 11
-17.5
 21
11.50001525878906
  0
LINE
  5
202
100
AcDbEntity
  8
0
  6
CONTINUOUS
 62
     7
100
AcDbLine
 10
-5
 20
26.74999237060547
 11
-5
 21
25.7499885559082
  0
LINE
  5
203
100
AcDbEntity
  8
0
  6
CONTINUOUS
 62
     7
100
AcDbLine
 10
-5
 20
26.74999237060547
 11
5
 21
26.74999237060547
  0
LINE
  5
204
100
AcDbEntity
  8
0
  6
CONTINUOUS
 62
     7
100
AcDbLine
 10
5
 20
26.74999237060547
 11
5
 21
25.7499885559082
  0
LINE
  5
205
100
AcDbEntity
  8
0
  6
CENTER
 62
     3
100
AcDbLine
 10
4.250030517578125
 20
25.75000762939453
 11
4.250030517578125
 21
20.99998474121094
  0
LINE
  5
206
100
AcDbEntity
  8
0
  6
PHANTOM
 62
     3
100
AcDbLine
 10
3.999996185302734
 20
25.49999237060547
 11
3.999996185302734
 21
20.99998474121094
  0
LINE
  5
207
100
AcDbEntity
  8
0
  6
CONTINUOUS
 62
     3
100
AcDbLine
 10
-20.55040795007227
 20
-14.55046445374414
 11
-23.44954442959882
 21
-17.44960142202861
  0
LINE
  5
208
100
AcDbEntity
  8
0
  6
CENTER
 62
     3
100
AcDbLine
 10
102.2446441650391
 20
-1.9073486328125e-005
 11
-37.36870574951172
 21
-1.9073486328125e-005
  0
LINE
  5
209
100
AcDbEntity
  8
0
  6
CONTINUOUS
 62
     7
100
AcDbLine
 10
-17.5
 20
-11.50001525878906
 11
-26.00000762939453
 21
-11.50001525878906
  0
LINE
  5
20a
100
AcDbEntity
  8
0
  6
CONTINUOUS
 62
     7
100
AcDbLine
 10
-17.5
 20
-21.00002288818359
 11
-17.5
 21
-11.50001525878906
  0
LINE
  5
20b
100
AcDbEntity
  8
0
  6
CONTINUOUS
 62
     7
100
AcDbLine
 10
-26.00000381469727
 20
9.200019836425781
 11
25.99996566772461
 21
9.200019836425781
  0
LINE
  5
20c
100
AcDbEntity
  8
0
  6
CONTINUOUS
 62
     7
100
AcDbLine
 10
-26.00000381469727
 20
6.800003051757813
 11
25.99996566772461
 21
6.800003051757813
  0
LINE
  5
20d
100
AcDbEntity
  8
0
  6
CONTINUOUS
 62
     7
100
AcDbLine
 10
-26.00000381469727
 20
5.200004577636719
 11
25.99996566772461
 21
5.200004577636719
  0
LINE
  5
20e
100
AcDbEntity
  8
0
  6
CONTINUOUS
 62
     7
100
AcDbLine
 10
-26.00000381469727
 20
2.79998779296875
 11
25.99996566772461
 21
2.79998779296875
  0
LINE
  5
20f
100
AcDbEntity
  8
0
  6
CONTINUOUS
 62
     7
100
AcDbLine
 10
-26.00000381469727
 20
1.199989318847656
 11
25.99996566772461
 21
1.199989318847656
  0
LINE
  5
210
100
AcDbEntity
  8
0
  6
CONTINUOUS
 62
     7
100
AcDbLine
 10
17.5
 20
11.50001525878906
 11
25.99996566772461
 21
11.50001525878906
  0
LINE
  5
211
100
AcDbEntity
  8
0
  6
CONTINUOUS
 62
     7
100
AcDbLine
 10
17.5
 20
20.99998474121094
 11
17.5
 21
11.50001525878906
  0
LINE
  5
212
100
AcDbEntity
  8
0
  6
CONTINUOUS
 62
     7
100
AcDbLine
 10
-26.00000381469727
 20
-9.200019836425781
 11
25.99996566772461
 21
-9.200019836425781
  0
LINE
  5
213
100
AcDbEntity
  8
0
  6
CONTINUOUS
 62
     7
100
AcDbLine
 10
-26.00000381469727
 20
-6.800003051757813
 11
25.99996566772461
 21
-6.800003051757813
  0
LINE
  5
214
100
AcDbEntity
  8
0
  6
CONTINUOUS
 62
     7
100
AcDbLine
 10
-26.00000381469727
 20
-5.200004577636719
 11
25.99996566772461
 21
-5.200004577636719
  0
LINE
  5
215
100
AcDbEntity
  8
0
  6
CONTINUOUS
 62
     7
100
AcDbLine
 10
-26.00000381469727
 20
-2.800025939941406
 11
25.99996566772461
 21
-2.800025939941406
  0
LINE
  5
216
100
AcDbEntity
  8
0
  6
CONTINUOUS
 62
     7
100
AcDbLine
 10
-26.00000381469727
 20
-1.200027465820313
 11
25.99996566772461
 21
-1.200027465820313
  0
LINE
  5
217
100
AcDbEntity
  8
0
  6
CONTINUOUS
 62
     7
100
AcDbLine
 10
17.5
 20
-11.50001525878906
 11
25.99996566772461
 21
-11.50001525878906
  0
LINE
  5
218
100
AcDbEntity
  8
0
  6
CONTINUOUS
 62
     7
100
AcDbLine
 10
17.5
 20
-20.90002059936523
 11
17.5
 21
-11.50001525878906
  0
LINE
  5
219
100
AcDbEntity
  8
0
  6
CONTINUOUS
 62
     3
100
AcDbLine
 10
23.44957747273629
 20
17.44950364134285
 11
20.55044099320974
 21
14.55036667305838
  0
LINE
  5
21a
100
AcDbEntity
  8
0
  6
CONTINUOUS
 62
     3
100
AcDbLine
 10
20.55046755422415
 20
17.44953053953659
 11
23.44957771711071
 21
14.55042086540343
  0
LINE
  5
21b
100
AcDbEntity
  8
0
  6
CONTINUOUS
 62
     7
100
AcDbLine
 10
-26.00000381469727
 20
-19.00001525878906
 11
-26.00000381469727
 21
18.99997711181641
  0
LINE
  5
21c
100
AcDbEntity
  8
0
  6
CONTINUOUS
 62
     3
100
AcDbLine
 10
20.55053111167155
 20
-14.55046705834016
 11
23.4496411059707
 21
-17.44957656388594
  0
LINE
  5
21d
100
AcDbEntity
  8
0
  6
CONTINUOUS
 62
     3
100
AcDbLine
 10
23.44967424189863
 20
-14.55047389463121
 11
20.55053793095945
 21
-17.44961069432828
  0
LINE
  5
21e
100
AcDbEntity
  8
0
  6
CONTINUOUS
 62
     7
100
AcDbLine
 10
18.99996757507324
 20
25.99998474121094
 11
5
 21
25.99998474121094
  0
LINE
  5
21f
100
AcDbEntity
  8
0
  6
CONTINUOUS
 62
     7
100
AcDbLine
 10
18.99996757507324
 20
-26.00002288818359
 11
-18.9999942779541
 21
-26.00002288818359
  0
LINE
  5
220
100
AcDbEntity
  8
0
  6
CONTINUOUS
 62
     7
100
AcDbLine
 10
-5
 20
25.99998474121094
 11
-18.9999942779541
 21
25.99998474121094
  0
LINE
  5
221
100
AcDbEntity
  8
0
  6
CONTINUOUS
 62
     7
100
AcDbLine
 10
-27.00001525878906
 20
5.999984741210938
 11
-28.99999618530273
 21
5.999984741210938
  0
LINE
  5
222
100
AcDbEntity
  8
0
  6
CONTINUOUS
 62
     7
100
AcDbLine
 10
-27.00001525878906
 20
-6.000022888183594
 11
-28.99999618530273
 21
-6.000022888183594
  0
LINE
  5
223
100
AcDbEntity
  8
0
  6
CONTINUOUS
 62
     7
100
AcDbLine
 10
-35.00001907348633
 20
15
 11
-35.00001907348633
 21
-15
  0
LINE
  5
224
100
AcDbEntity
  8
0
  6
CONTINUOUS
 62
     7
100
AcDbLine
 10
32.00006103515625
 20
-15
 11
25.99996566772461
 21
-15
  0
LINE
  5
225
100
AcDbEntity
  8
0
  6
CONTINUOUS
 62
     7
100
AcDbLine
 10
32.00006103515625
 20
15
 11
25.99996566772461
 21
15
  0
LINE
  5
226
100
AcDbEntity
  8
0
  6
CONTINUOUS
 62
     7
100
AcDbLine
 10
-26.00000381469727
 20
-15
 11
-35.00001907348633
 21
-15
  0
LINE
  5
227
100
AcDbEntity
  8
0
  6
CONTINUOUS
 62
     7
100
AcDbLine
 10
-26.00000381469727
 20
15
 11
-35.00001907348633
 21
15
  0
LINE
  5
228
100
AcDbEntity
  8
0
  6
CONTINUOUS
 62
     7
100
AcDbLine
 10
31.07840203152989
 20
10.49998209605137
 11
28.9999364466988
 21
9.299979409609835
  0
LINE
  5
229
100
AcDbEntity
  8
0
  6
CONTINUOUS
 62
     7
100
AcDbLine
 10
32.00006103515625
 20
10.49998092651367
 11
28.99993896484375
 21
10.49998092651367
  0
LINE
  5
22a
100
AcDbEntity
  8
0
  6
CONTINUOUS
 62
     7
100
AcDbLine
 10
32.00006103515625
 20
16.99998092651367
 11
32.00006103515625
 21
-17.00001907348633
  0
LINE
  5
22b
100
AcDbEntity
  8
0
  6
CONTINUOUS
 62
     7
100
AcDbLine
 10
39.41425794232332
 20
15.58577541669757
 11
36.58582867531903
 21
18.41420444528311
  0
LINE
  5
22c
100
AcDbEntity
  8
0
  6
CONTINUOUS
 62
     7
100
AcDbLine
 10
39.41424588832319
 20
18.41419112687592
 11
36.58581864436772
 21
15.58576412133902
  0
LINE
  5
22d
100
AcDbEntity
  8
0
  6
CONTINUOUS
 62
     7
100
AcDbLine
 10
38.00003051757813
 20
12.99998092651367
 11
33.00003051757813
 21
12.99998092651367
  0
LINE
  5
22e
100
AcDbEntity
  8
0
  6
CONTINUOUS
 62
     7
100
AcDbLine
 10
33.00003051757813
 20
12.99998092651367
 11
33.00003051757813
 21
-13.00001907348633
  0
LINE
  5
22f
100
AcDbEntity
  8
0
  6
CONTINUOUS
 62
     7
100
AcDbLine
 10
42.00003051757813
 20
21.99998092651367
 11
42.00003051757813
 21
16.99998092651367
  0
LINE
  5
230
100
AcDbEntity
  8
0
  6
CONTINUOUS
 62
     7
100
AcDbLine
 10
68.00003051757813
 20
21.99998092651367
 11
42.00003051757813
 21
21.99998092651367
  0
LINE
  5
231
100
AcDbEntity
  8
0
  6
CONTINUOUS
 62
     7
100
AcDbLine
 10
72
 20
22.99998092651367
 11
38.00006103515625
 21
22.99998092651367
  0
LINE
  5
232
100
AcDbEntity
  8
0
  6
CENTER
 62
     3
100
AcDbLine
 10
55.00003051757813
 20
24.92627906799316
 11
55.00003051757813
 21
-24.89517974853516
  0
LINE
  5
233
100
AcDbEntity
  8
0
  6
CONTINUOUS
 62
     7
100
AcDbLine
 10
38.00003051757813
 20
-13.00001907348633
 11
33.00003051757813
 21
-13.00001907348633
  0
LINE
  5
234
100
AcDbEntity
  8
0
  6
CONTINUOUS
 62
     7
100
AcDbLine
 10
39.41425465486913
 20
-18.41422551870393
 11
36.58582471351524
 21
-15.58579581576884
  0
LINE
  5
235
100
AcDbEntity
  8
0
  6
CONTINUOUS
 62
     7
100
AcDbLine
 10
39.41425119882613
 20
-15.58580913417609
 11
36.58582193182184
 21
-18.41423816276163
  0
LINE
  5
236
100
AcDbEntity
  8
0
  6
CONTINUOUS
 62
     7
100
AcDbLine
 10
72
 20
-23.00001907348633
 11
38.00006103515625
 21
-23.00001907348633
  0
LINE
  5
237
100
AcDbEntity
  8
0
  6
CONTINUOUS
 62
     7
100
AcDbLine
 10
42.00003051757813
 20
-17.00001907348633
 11
42.00003051757813
 21
-22.00001907348633
  0
LINE
  5
238
100
AcDbEntity
  8
0
  6
CONTINUOUS
 62
     7
100
AcDbLine
 10
68.00003051757813
 20
-22.00001907348633
 11
42.00003051757813
 21
-22.00001907348633
  0
LINE
  5
239
100
AcDbEntity
  8
0
  6
CONTINUOUS
 62
     7
100
AcDbLine
 10
68.00003051757813
 20
-17.00001907348633
 11
68.00003051757813
 21
-22.00001907348633
  0
LINE
  5
23a
100
AcDbEntity
  8
0
  6
CONTINUOUS
 62
     7
100
AcDbLine
 10
77.00003051757813
 20
-13.00001907348633
 11
72.00003051757813
 21
-13.00001907348633
  0
LINE
  5
23b
100
AcDbEntity
  8
0
  6
CONTINUOUS
 62
     7
100
AcDbLine
 10
73.41426233376629
 20
-18.41422610875952
 11
70.58582699761556
 21
-15.58579101102805
  0
LINE
  5
23c
100
AcDbEntity
  8
0
  6
CONTINUOUS
 62
     7
100
AcDbLine
 10
73.41426359817011
 20
-15.58581326456773
 11
70.58583365681622
 21
-18.41424296750283
  0
LINE
  5
23d
100
AcDbEntity
  8
0
  6
CONTINUOUS
 62
     7
100
AcDbLine
 10
78
 20
16.99998092651367
 11
78
 21
-17.00001907348633
  0
LINE
  5
23e
100
AcDbEntity
  8
0
  6
CONTINUOUS
 62
     7
100
AcDbLine
 10
77.00003051757813
 20
12.99998092651367
 11
77.00003051757813
 21
-13.00001907348633
  0
LINE
  5
23f
100
AcDbEntity
  8
0
  6
CONTINUOUS
 62
     7
100
AcDbLine
 10
77.00003051757813
 20
12.99998092651367
 11
72.00003051757813
 21
12.99998092651367
  0
LINE
  5
240
100
AcDbEntity
  8
0
  6
CONTINUOUS
 62
     7
100
AcDbLine
 10
73.41426090077329
 20
15.58577819838965
 11
70.58583365681781
 21
18.41420520392656
  0
LINE
  5
241
100
AcDbEntity
  8
0
  6
CONTINUOUS
 62
     7
100
AcDbLine
 10
73.41425424156989
 20
18.4141910425819
 11
70.58582699761442
 21
15.585764037045
  0
LINE
  5
242
100
AcDbEntity
  8
0
  6
CONTINUOUS
 62
     7
100
AcDbLine
 10
68.00003051757813
 20
21.99998092651367
 11
68.00003051757813
 21
16.99998092651367
  0
LINE
  5
243
100
AcDbEntity
  8
0
  6
CONTINUOUS
 62
     7
100
AcDbLine
 10
100
 20
13.99998092651367
 11
78
 21
13.99998092651367
  0
LINE
  5
244
100
AcDbEntity
  8
0
  6
CONTINUOUS
 62
     7
100
AcDbLine
 10
100
 20
13.99998092651367
 11
100
 21
-14.00001907348633
  0
LINE
  5
245
100
AcDbEntity
  8
0
  6
DASHED
 62
     7
100
AcDbLine
 10
100
 20
10.49998092651367
 11
88.50001525878906
 21
10.49998092651367
  0
LINE
  5
246
100
AcDbEntity
  8
0
  6
DASHED
 62
     7
100
AcDbLine
 10
100
 20
9.299981117248535
 11
88.50001525878906
 21
9.299981117248535
  0
LINE
  5
247
100
AcDbEntity
  8
0
  6
DASHED
 62
     7
100
AcDbLine
 10
100
 20
-9.300019264221191
 11
88.50001525878906
 21
-9.300019264221191
  0
LINE
  5
248
100
AcDbEntity
  8
0
  6
DASHED
 62
     7
100
AcDbLine
 10
100
 20
-10.50001907348633
 11
88.50001525878906
 21
-10.50001907348633
  0
LINE
  5
249
100
AcDbEntity
  8
0
  6
CONTINUOUS
 62
     7
100
AcDbLine
 10
100
 20
-14.00001907348633
 11
78
 21
-14.00001907348633
  0
LINE
  5
24a
100
AcDbEntity
  8
0
  6
CONTINUOUS
 62
     7
100
AcDbLine
 10
31.07839855672803
 20
-10.50001863216234
 11
28.99993627552166
 21
-9.300017853069472
  0
LINE
  5
24b
100
AcDbEntity
  8
0
  6
CONTINUOUS
 62
     7
100
AcDbLine
 10
32.00006103515625
 20
-10.50001907348633
 11
28.99993896484375
 21
-10.50001907348633
  0
CIRCLE
  5
24c
100
AcDbEntity
  8
0
  6
CONTINUOUS
 62
    20
100
AcDbCircle
 10
4.249992370605469
 20
25.49999237060547
 40
0.2500001490116119
  0
CIRCLE
  5
24d
100
AcDbEntity
  8
0
  6
CONTINUOUS
 62
     7
100
AcDbCircle
 10
-21.99996948242188
 20
-16.00002288818359
 40
3.500001192092896
  0
CIRCLE
  5
24e
100
AcDbEntity
  8
0
  6
CONTINUOUS
 62
     7
100
AcDbCircle
 10
-22.00004577636719
 20
15.99998474121094
 40
3.500001192092896
  0
ARC
  5
24f
100
AcDbEntity
  8
0
  6
CONTINUOUS
 62
    20
100
AcDbCircle
 10
-4.250011444091797
 20
25.75000762939453
 40
0.2500001490116119
100
AcDbArc
 50
179.9999776881997
 51
360
  0
ARC
  5
250
100
AcDbEntity
  8
0
  6
CONTINUOUS
 62
     7
100
AcDbCircle
 10
-19.00001525878906
 20
-19.00001525878906
 40
7
100
AcDbArc
 50
179.9999776881997
 51
270.0000280040027
  0
CIRCLE
  5
251
100
AcDbEntity
  8
0
  6
CONTINUOUS
 62
     7
100
AcDbCircle
 10
21.9999885559082
 20
15.99998474121094
 40
3.500001192092896
  0
CIRCLE
  5
252
100
AcDbEntity
  8
0
  6
CONTINUOUS
 62
     7
100
AcDbCircle
 10
22.00004577636719
 20
-16.00002288818359
 40
3.500001192092896
  0
ARC
  5
253
100
AcDbEntity
  8
0
  6
CONTINUOUS
 62
     7
100
AcDbCircle
 10
-19.00001525878906
 20
18.99997711181641
 40
7
100
AcDbArc
 50
89.99998201391064
 51
179.9999640278213
  0
ARC
  5
254
100
AcDbEntity
  8
0
  6
CONTINUOUS
 62
     7
100
AcDbCircle
 10
18.99995803833008
 20
-19.00001525878906
 40
7
100
AcDbArc
 50
270.00001798609
 51
360
  0
ARC
  5
255
100
AcDbEntity
  8
0
  6
CONTINUOUS
 62
     7
100
AcDbCircle
 10
18.99995803833008
 20
18.99997711181641
 40
7
100
AcDbArc
 50
0
 51
89.99998201391064
  0
ARC
  5
256
100
AcDbEntity
  8
0
  6
CONTINUOUS
 62
     7
100
AcDbCircle
 10
-29.00001525878906
 20
0
 40
6.000003814697266
100
AcDbArc
 50
89.99998201391065
 51
270.000000683246
  0
ARC
  5
257
100
AcDbEntity
  8
0
  6
CONTINUOUS
 62
     7
100
AcDbCircle
 10
38.00006103515625
 20
16.99998092651367
 40
6
100
AcDbArc
 50
90.000036655424
 51
180.0000186693354
  0
CIRCLE
  5
258
100
AcDbEntity
  8
0
  6
CONTINUOUS
 62
     7
100
AcDbCircle
 10
38.00003051757813
 20
16.99998092651367
 40
3.5
  0
ARC
  5
259
100
AcDbEntity
  8
0
  6
CONTINUOUS
 62
     7
100
AcDbCircle
 10
38.00003051757813
 20
16.99998092651367
 40
4
100
AcDbArc
 50
270.00001798609
 51
5.46415133601103e-005
  0
ARC
  5
25a
100
AcDbEntity
  8
0
  6
CONTINUOUS
 62
     7
100
AcDbCircle
 10
38.00003051757813
 20
-17.00001907348633
 40
4
100
AcDbArc
 50
5.46415133601103e-005
 51
90.00003665542401
  0
CIRCLE
  5
25b
100
AcDbEntity
  8
0
  6
CONTINUOUS
 62
     7
100
AcDbCircle
 10
38.00003051757813
 20
-17.00001907348633
 40
3.5
  0
ARC
  5
25c
100
AcDbEntity
  8
0
  6
CONTINUOUS
 62
     7
100
AcDbCircle
 10
38.00006103515625
 20
-17.00001907348633
 40
6
100
AcDbArc
 50
180.0000186693354
 51
270.000000683246
  0
ARC
  5
25d
100
AcDbEntity
  8
0
  6
CONTINUOUS
 62
     7
100
AcDbCircle
 10
72.00003051757813
 20
-17.00001907348633
 40
4
100
AcDbArc
 50
90.00003665542391
 51
180.0000186693354
  0
CIRCLE
  5
25e
100
AcDbEntity
  8
0
  6
CONTINUOUS
 62
     7
100
AcDbCircle
 10
72.00003051757813
 20
-17.00001907348633
 40
3.5
  0
ARC
  5
25f
100
AcDbEntity
  8
0
  6
CONTINUOUS
 62
     7
100
AcDbCircle
 10
72
 20
-17.00001907348633
 40
6
100
AcDbArc
 50
270.00001798609
 51
5.46415133601103e-005
  0
CIRCLE
  5
260
100
AcDbEntity
  8
0
  6
CONTINUOUS
 62
     7
100
AcDbCircle
 10
72.00003051757813
 20
16.99998092651367
 40
3.5
  0
ARC
  5
261
100
AcDbEntity
  8
0
  6
CONTINUOUS
 62
     7
100
AcDbCircle
 10
72.00003051757813
 20
16.99998092651367
 40
4
100
AcDbArc
 50
180.0000186693354
 51
270.000000683246
  0
ARC
  5
262
100
AcDbEntity
  8
0
  6
CONTINUOUS
 62
     7
100
AcDbCircle
 10
72
 20
16.99998092651367
 40
6
100
AcDbArc
 50
5.46415133601103e-005
 51
90.00003665542405
  0
MTEXT
  5
263
100
AcDbEntity
  8
0
  6
CONTINUOUS
 62
     7
100
AcDbMText
 10
-12.94777332246304
 20
14.59875583648682
 40
0.5
 41
36
 71
     7
 72
     1
  1
{\W0.8426;ＢＮ－５ＢＰ２１－１５－Ｇ／Ｈ＊＊＊}
  0
ENDBLK
  8
0
  5
264
100
AcDbEntity
100
AcDbBlockEnd
  0
BLOCK
  8
0
  5
265
100
AcDbEntity
100
AcDbBlockBegin
  2
KOZU0003
 70
    64
 10
0
 20
0
  0
POINT
  5
266
100
AcDbEntity
  8
0
  6
CONTINUOUS
 62
     7
100
AcDbPoint
 10
0
 20
0
  0
LINE
  5
267
100
AcDbEntity
  8
0
  6
CONTINUOUS
 62
     7
100
AcDbLine
 10
25.99998474121094
 20
19.0000057220459
 11
25.99998474121094
 21
-10
  0
LINE
  5
268
100
AcDbEntity
  8
0
  6
CENTER
 62
     3
100
AcDbLine
 10
11.6158137386622
 20
0
 11
-11.6427082813946
 21
0
  0
LINE
  5
269
100
AcDbEntity
  8
0
  6
CONTINUOUS
 62
     7
100
AcDbLine
 10
-6.000003814697266
 20
19.00001525878906
 11
-6.000003814697266
 21
14.18524742126465
  0
LINE
  5
26a
100
AcDbEntity
  8
0
  6
CONTINUOUS
 62
     7
100
AcDbLine
 10
15
 20
9.270509831248422
 11
15
 21
-9.270509831248422
  0
LINE
  5
26b
100
AcDbEntity
  8
0
  6
CONTINUOUS
 62
     7
100
AcDbLine
 10
20.99998474121094
 20
-15
 11
-21.00002288818359
 21
-15
  0
LINE
  5
26c
100
AcDbEntity
  8
0
  6
CONTINUOUS
 62
     7
100
AcDbLine
 10
25.99998474121094
 20
19.00001525878906
 11
-26.00002288818359
 21
19.00001525878906
  0
LINE
  5
26d
100
AcDbEntity
  8
0
  6
CONTINUOUS
 62
     7
100
AcDbLine
 10
15.99998474121094
 20
-15
 11
15.99998474121094
 21
-19.00000762939453
  0
LINE
  5
26e
100
AcDbEntity
  8
0
  6
CONTINUOUS
 62
     7
100
AcDbLine
 10
-26.00002288818359
 20
19.0000057220459
 11
-26.00002288818359
 21
-10
  0
LINE
  5
26f
100
AcDbEntity
  8
0
  6
CONTINUOUS
 62
     7
100
AcDbLine
 10
-15
 20
9.270509831248422
 11
-15
 21
-9.270509831248422
  0
LINE
  5
270
100
AcDbEntity
  8
0
  6
CONTINUOUS
 62
     7
100
AcDbLine
 10
-16.00000381469727
 20
-15
 11
-16.00000381469727
 21
-19.00000762939453
  0
LINE
  5
271
100
AcDbEntity
  8
0
  6
CONTINUOUS
 62
     7
100
AcDbLine
 10
15.99998474121094
 20
-19.0000057220459
 11
-16.00000381469727
 21
-19.0000057220459
  0
LINE
  5
272
100
AcDbEntity
  8
0
  6
CONTINUOUS
 62
     7
100
AcDbLine
 10
-15
 20
-19.00001907348633
 11
-15
 21
-36.00002288818359
  0
LINE
  5
273
100
AcDbEntity
  8
0
  6
CONTINUOUS
 62
     7
100
AcDbLine
 10
15
 20
-19.00001907348633
 11
15
 21
-36.00002288818359
  0
LINE
  5
274
100
AcDbEntity
  8
0
  6
CONTINUOUS
 62
     7
100
AcDbLine
 10
15
 20
-36.00002288818359
 11
-15
 21
-36.00002288818359
  0
LINE
  5
275
100
AcDbEntity
  8
0
  6
CONTINUOUS
 62
     7
100
AcDbLine
 10
25.99998474121094
 20
51.00002288818359
 11
10.99998474121094
 21
51.00002288818359
  0
LINE
  5
276
100
AcDbEntity
  8
0
  6
CENTER
 62
     3
100
AcDbLine
 10
0
 20
155.0618438720703
 11
0
 21
-39.59992218017578
  0
LINE
  5
277
100
AcDbEntity
  8
0
  6
CONTINUOUS
 62
     7
100
AcDbLine
 10
25.99992752075195
 20
69.00001525878906
 11
-25.99992752075195
 21
69.00001525878906
  0
LINE
  5
278
100
AcDbEntity
  8
0
  6
CONTINUOUS
 62
     7
100
AcDbLine
 10
25.99992752075195
 20
60
 11
-25.99992752075195
 21
60
  0
LINE
  5
279
100
AcDbEntity
  8
0
  6
CONTINUOUS
 62
     7
100
AcDbLine
 10
25.99994659423828
 20
69.00000762939453
 11
25.99994659423828
 21
60
  0
LINE
  5
27a
100
AcDbEntity
  8
0
  6
CONTINUOUS
 62
     7
100
AcDbLine
 10
-25.99994659423828
 20
69.00000762939453
 11
-25.99994659423828
 21
60
  0
LINE
  5
27b
100
AcDbEntity
  8
0
  6
CONTINUOUS
 62
     7
100
AcDbLine
 10
-12.20001220703125
 20
107.0000152587891
 11
-19.79999542236328
 21
107.0000152587891
  0
LINE
  5
27c
100
AcDbEntity
  8
0
  6
CONTINUOUS
 62
     7
100
AcDbLine
 10
20.99998474121094
 20
107.0000152587891
 11
11.49960205094529
 21
107.0000152587891
  0
LINE
  5
27d
100
AcDbEntity
  8
0
  6
CONTINUOUS
 62
     7
100
AcDbLine
 10
-25.75004577636719
 20
76
 11
-25.75004577636719
 21
85.99998474121094
  0
LINE
  5
27e
100
AcDbEntity
  8
0
  6
CONTINUOUS
 62
     7
100
AcDbLine
 10
-26.75003051757813
 20
75.99998474121094
 11
-26.75003051757813
 21
85.99998474121094
  0
LINE
  5
27f
100
AcDbEntity
  8
0
  6
CONTINUOUS
 62
     7
100
AcDbLine
 10
-25.75000762939453
 20
77.15000152587891
 11
-20.99998474121094
 21
77.15000152587891
  0
LINE
  5
280
100
AcDbEntity
  8
0
  6
CONTINUOUS
 62
     7
100
AcDbLine
 10
-26.75003051757813
 20
75.99998474121094
 11
-25.75000762939453
 21
75.99998474121094
  0
LINE
  5
281
100
AcDbEntity
  8
0
  6
CONTINUOUS
 62
     7
100
AcDbLine
 10
-25.75000762939453
 20
84.85008239746094
 11
-20.99998474121094
 21
84.85008239746094
  0
LINE
  5
282
100
AcDbEntity
  8
0
  6
CONTINUOUS
 62
     7
100
AcDbLine
 10
-26.75003051757813
 20
85.99998474121094
 11
-25.75000762939453
 21
85.99998474121094
  0
LINE
  5
283
100
AcDbEntity
  8
0
  6
PHANTOM
 62
     7
100
AcDbLine
 10
-25.49999237060547
 20
85
 11
-20.99998474121094
 21
85
  0
LINE
  5
284
100
AcDbEntity
  8
0
  6
PHANTOM
 62
     7
100
AcDbLine
 10
-25.75000762939453
 20
76.99996948242188
 11
-20.99998474121094
 21
76.99996948242188
  0
LINE
  5
285
100
AcDbEntity
  8
0
  6
PHANTOM
 62
     7
100
AcDbLine
 10
-25.49999237060547
 20
85.49995422363281
 11
-20.99998474121094
 21
85.49995422363281
  0
LINE
  5
286
100
AcDbEntity
  8
0
  6
PHANTOM
 62
     7
100
AcDbLine
 10
-25.75000762939453
 20
76.49997711181641
 11
-20.99998474121094
 21
76.49997711181641
  0
LINE
  5
287
100
AcDbEntity
  8
0
  6
CENTER
 62
     3
100
AcDbLine
 10
-25.75004577636719
 20
85.24997711181641
 11
-20.99998474121094
 21
85.24997711181641
  0
LINE
  5
288
100
AcDbEntity
  8
0
  6
CENTER
 62
     3
100
AcDbLine
 10
-25.75004577636719
 20
76.74999237060547
 11
-20.99998474121094
 21
76.74999237060547
  0
LINE
  5
289
100
AcDbEntity
  8
0
  6
CENTER
 62
     3
100
AcDbLine
 10
-28.05618286132813
 20
80.99998474121094
 11
-20.99998474121094
 21
80.99998474121094
  0
LINE
  5
28a
100
AcDbEntity
  8
0
  6
CONTINUOUS
 62
     7
100
AcDbLine
 10
-20.99998474121094
 20
69.00000762939453
 11
-20.99998474121094
 21
107.0000534057617
  0
LINE
  5
28b
100
AcDbEntity
  8
0
  6
CONTINUOUS
 62
     7
100
AcDbLine
 10
20.99998474121094
 20
69.00000762939453
 11
20.99998474121094
 21
107.0000534057617
  0
LINE
  5
28c
100
AcDbEntity
  8
0
  6
CONTINUOUS
 62
     7
100
AcDbLine
 10
-20.99998474121094
 20
100
 11
20.99998474121094
 21
100
  0
LINE
  5
28d
100
AcDbEntity
  8
0
  6
CONTINUOUS
 62
     7
100
AcDbLine
 10
-20.99998474121094
 20
107.0000534057617
 11
-11.4994049631542
 21
107.0000534057617
  0
LINE
  5
28e
100
AcDbEntity
  8
0
  6
CONTINUOUS
 62
     7
100
AcDbLine
 10
-10.80032404269603
 20
151.0000305175781
 11
-11.4994049631542
 21
107.0000534057617
  0
LINE
  5
28f
100
AcDbEntity
  8
0
  6
CONTINUOUS
 62
     7
100
AcDbLine
 10
10.80052052439998
 20
151.0000305175781
 11
11.49960205094529
 21
107.0000152587891
  0
LINE
  5
290
100
AcDbEntity
  8
0
  6
CONTINUOUS
 62
     7
100
AcDbLine
 10
-25.99998474121094
 20
60
 11
-25.99998474121094
 21
42.00000762939453
  0
LINE
  5
291
100
AcDbEntity
  8
0
  6
CONTINUOUS
 62
     7
100
AcDbLine
 10
25.99998474121094
 20
60
 11
25.99998474121094
 21
42.00000762939453
  0
LINE
  5
292
100
AcDbEntity
  8
0
  6
CONTINUOUS
 62
     7
100
AcDbLine
 10
25.99998474121094
 20
42.00000762939453
 11
-25.99998474121094
 21
42.00000762939453
  0
LINE
  5
293
100
AcDbEntity
  8
0
  6
CENTER
 62
     3
100
AcDbLine
 10
-21.00002288818359
 20
11.99999809265137
 11
-27.1232795715332
 21
11.99999809265137
  0
LINE
  5
294
100
AcDbEntity
  8
0
  6
DASHED
 62
     7
100
AcDbLine
 10
-21.00002288818359
 20
9.499998092651367
 11
-26.00002288818359
 21
9.499998092651367
  0
LINE
  5
295
100
AcDbEntity
  8
0
  6
DASHED
 62
     7
100
AcDbLine
 10
-21.00002288818359
 20
14.49999809265137
 11
-26.00002288818359
 21
14.49999809265137
  0
LINE
  5
296
100
AcDbEntity
  8
0
  6
DASHED
 62
     7
100
AcDbLine
 10
-21.00002288818359
 20
9.933004379272461
 11
-26.00002288818359
 21
9.933004379272461
  0
LINE
  5
297
100
AcDbEntity
  8
0
  6
DASHED
 62
     7
100
AcDbLine
 10
-21.00002288818359
 20
14.06700134277344
 11
-26.00002288818359
 21
14.06700134277344
  0
LINE
  5
298
100
AcDbEntity
  8
0
  6
CENTER
 62
     3
100
AcDbLine
 10
19.00001525878906
 20
59.52223409331804
 11
19.00001525878906
 21
19.00001525878906
  0
LINE
  5
299
100
AcDbEntity
  8
0
  6
CONTINUOUS
 62
     7
100
AcDbLine
 10
22.00000762939453
 20
42.00000762939453
 11
22.00000762939453
 21
19.0000057220459
  0
LINE
  5
29a
100
AcDbEntity
  8
0
  6
CONTINUOUS
 62
     7
100
AcDbLine
 10
15.99998474121094
 20
42.00000762939453
 11
15.99998474121094
 21
19.0000057220459
  0
LINE
  5
29b
100
AcDbEntity
  8
0
  6
CONTINUOUS
 62
     7
100
AcDbLine
 10
10.99998474121094
 20
60
 11
10.99998474121094
 21
51.00002288818359
  0
LINE
  5
29c
100
AcDbEntity
  8
0
  6
CONTINUOUS
 62
     7
100
AcDbLine
 10
-10.99998474121094
 20
60
 11
-10.99998474121094
 21
51.00002288818359
  0
LINE
  5
29d
100
AcDbEntity
  8
0
  6
CONTINUOUS
 62
     7
100
AcDbLine
 10
-14.00001525878906
 20
58.35565567016602
 11
-14.00001525878906
 21
51.00002288818359
  0
LINE
  5
29e
100
AcDbEntity
  8
0
  6
CONTINUOUS
 62
     7
100
AcDbLine
 10
-24.00005340576172
 20
58.50002288818359
 11
-14.00001525878906
 21
58.50002288818359
  0
LINE
  5
29f
100
AcDbEntity
  8
0
  6
CONTINUOUS
 62
     7
100
AcDbLine
 10
-24.00005340576172
 20
52.5
 11
-14.00001525878906
 21
52.5
  0
LINE
  5
2a0
100
AcDbEntity
  8
0
  6
CONTINUOUS
 62
     7
100
AcDbLine
 10
-24.00005340576172
 20
58.35565567016602
 11
-24.00005340576172
 21
51.00002288818359
  0
LINE
  5
2a1
100
AcDbEntity
  8
0
  6
CENTER
 62
     3
100
AcDbLine
 10
-19.00001525878906
 20
59.43065671453579
 11
-19.00001525878906
 21
19.00001525878906
  0
LINE
  5
2a2
100
AcDbEntity
  8
0
  6
CONTINUOUS
 62
     7
100
AcDbLine
 10
-25.99998474121094
 20
51.00002288818359
 11
-10.99998474121094
 21
51.00002288818359
  0
LINE
  5
2a3
100
AcDbEntity
  8
0
  6
CONTINUOUS
 62
     7
100
AcDbLine
 10
-22.00004577636719
 20
42.00000762939453
 11
-22.00004577636719
 21
19.0000057220459
  0
LINE
  5
2a4
100
AcDbEntity
  8
0
  6
CONTINUOUS
 62
     7
100
AcDbLine
 10
-16.00000381469727
 20
42.00000762939453
 11
-16.00000381469727
 21
19.0000057220459
  0
LINE
  5
2a5
100
AcDbEntity
  8
0
  6
CONTINUOUS
 62
     7
100
AcDbLine
 10
9.213394028019758
 20
151.0000305175781
 11
8.79978979066941
 21
148.5000320405114
  0
LINE
  5
2a6
100
AcDbEntity
  8
0
  6
CONTINUOUS
 62
     7
100
AcDbLine
 10
8.800048828125
 20
148.5000305175781
 11
7.199935913085938
 21
148.5000305175781
  0
LINE
  5
2a7
100
AcDbEntity
  8
0
  6
CONTINUOUS
 62
     7
100
AcDbLine
 10
6.786294609225412
 20
151.0000305175781
 11
5.213525426166194
 21
151.0000305175781
  0
LINE
  5
2a8
100
AcDbEntity
  8
0
  6
CONTINUOUS
 62
     7
100
AcDbLine
 10
5.213525426166193
 20
151.0000305175781
 11
4.799922799645092
 21
148.5000474056355
  0
LINE
  5
2a9
100
AcDbEntity
  8
0
  6
CONTINUOUS
 62
     7
100
AcDbLine
 10
7.199901682014403
 20
148.5000205305774
 11
6.786294609225411
 21
151.0000305175781
  0
LINE
  5
2aa
100
AcDbEntity
  8
0
  6
CONTINUOUS
 62
     7
100
AcDbLine
 10
20.00003696838702
 20
151.0000305175781
 11
9.21339402801976
 21
151.0000305175781
  0
LINE
  5
2ab
100
AcDbEntity
  8
0
  6
CONTINUOUS
 62
     7
100
AcDbLine
 10
4.800033569335938
 20
148.5000305175781
 11
3.199958801269531
 21
148.5000305175781
  0
LINE
  5
2ac
100
AcDbEntity
  8
0
  6
CONTINUOUS
 62
     7
100
AcDbLine
 10
2.786279620367833
 20
151.0000305175781
 11
1.213431650138537
 21
151.0000305175781
  0
LINE
  5
2ad
100
AcDbEntity
  8
0
  6
CONTINUOUS
 62
     7
100
AcDbLine
 10
1.213431650138539
 20
151.0000305175782
 11
0.7998303503086994
 21
148.5000403647666
  0
LINE
  5
2ae
100
AcDbEntity
  8
0
  6
CONTINUOUS
 62
     7
100
AcDbLine
 10
2.786279620367832
 20
151.0000305175781
 11
3.19988603170777
 21
148.5000141842727
  0
LINE
  5
2af
100
AcDbEntity
  8
0
  6
CONTINUOUS
 62
     7
100
AcDbLine
 10
-0.8000564575195313
 20
148.5000305175781
 11
0.7999038696289063
 21
148.5000305175781
  0
LINE
  5
2b0
100
AcDbEntity
  8
0
  6
CONTINUOUS
 62
     7
100
AcDbLine
 10
-1.213598599561728
 20
151.0000305175781
 11
-0.7999958237977403
 21
148.5000370722002
  0
LINE
  5
2b1
100
AcDbEntity
  8
0
  6
CONTINUOUS
 62
     7
100
AcDbLine
 10
-2.786273678223752
 20
151.0000305175781
 11
-1.213598599561731
 21
151.0000305175781
  0
LINE
  5
2b2
100
AcDbEntity
  8
0
  6
CONTINUOUS
 62
     7
100
AcDbLine
 10
-2.786273678223754
 20
151.0000305175781
 11
-3.199884746107529
 21
148.4999898409391
  0
LINE
  5
2b3
100
AcDbEntity
  8
0
  6
CONTINUOUS
 62
     7
100
AcDbLine
 10
-4.800033569335938
 20
148.5000305175781
 11
-3.199958801269531
 21
148.5000305175781
  0
LINE
  5
2b4
100
AcDbEntity
  8
0
  6
CONTINUOUS
 62
     7
100
AcDbLine
 10
-5.213822222906423
 20
151.0000305175781
 11
-4.800208950841618
 21
148.4999774308863
  0
LINE
  5
2b5
100
AcDbEntity
  8
0
  6
CONTINUOUS
 62
     7
100
AcDbLine
 10
-6.786549156674797
 20
151.0000305175781
 11
-5.21382222290642
 21
151.0000305175781
  0
LINE
  5
2b6
100
AcDbEntity
  8
0
  6
CONTINUOUS
 62
     7
100
AcDbLine
 10
-7.200158021807535
 20
148.5000031553004
 11
-6.786549156674795
 21
151.0000305175782
  0
LINE
  5
2b7
100
AcDbEntity
  8
0
  6
CONTINUOUS
 62
     7
100
AcDbLine
 10
-8.800048828125
 20
148.5000305175781
 11
-7.199935913085938
 21
148.5000305175781
  0
LINE
  5
2b8
100
AcDbEntity
  8
0
  6
CONTINUOUS
 62
     7
100
AcDbLine
 10
-9.213586388924849
 20
151.0000305175781
 11
-8.799977026738343
 21
148.50000106384
  0
LINE
  5
2b9
100
AcDbEntity
  8
0
  6
CONTINUOUS
 62
     7
100
AcDbLine
 10
-19.99998736451698
 20
151.0000305175781
 11
-9.213586388924846
 21
151.0000305175781
  0
LINE
  5
2ba
100
AcDbEntity
  8
0
  6
DASHED
 62
     7
100
AcDbLine
 10
-20.16231536865234
 20
147.4999694824219
 11
-12.25971221923828
 21
147.4999694824219
  0
LINE
  5
2bb
100
AcDbEntity
  8
0
  6
DASHED
 62
     7
100
AcDbLine
 10
-20.19760131835938
 20
145.5
 11
-12.25971221923828
 21
145.5
  0
LINE
  5
2bc
100
AcDbEntity
  8
0
  6
CENTER
 62
     3
100
AcDbLine
 10
-22.28153228759766
 20
146.4999847412109
 11
-11.54308319091797
 21
146.4999847412109
  0
LINE
  5
2bd
100
AcDbEntity
  8
0
  6
CONTINUOUS
 62
     7
100
AcDbLine
 10
8.799781799316406
 20
101
 11
-8.800010681152344
 21
101
  0
LINE
  5
2be
100
AcDbEntity
  8
0
  6
CONTINUOUS
 62
     7
100
AcDbLine
 10
8.799781799316406
 20
148.5000305175781
 11
8.799781799316406
 21
101
  0
LINE
  5
2bf
100
AcDbEntity
  8
0
  6
CONTINUOUS
 62
     7
100
AcDbLine
 10
7.199897766113281
 20
148.5000305175781
 11
7.199897766113281
 21
101
  0
LINE
  5
2c0
100
AcDbEntity
  8
0
  6
CONTINUOUS
 62
     7
100
AcDbLine
 10
4.799919128417969
 20
148.5000305175781
 11
4.799919128417969
 21
101
  0
LINE
  5
2c1
100
AcDbEntity
  8
0
  6
CONTINUOUS
 62
     7
100
AcDbLine
 10
3.199882507324219
 20
148.5000305175781
 11
3.199882507324219
 21
101
  0
LINE
  5
2c2
100
AcDbEntity
  8
0
  6
CONTINUOUS
 62
     7
100
AcDbLine
 10
0.7999038696289063
 20
148.5000305175781
 11
0.7999038696289063
 21
101
  0
LINE
  5
2c3
100
AcDbEntity
  8
0
  6
CONTINUOUS
 62
     7
100
AcDbLine
 10
-0.7999801635742188
 20
148.5000305175781
 11
-0.7999801635742188
 21
101
  0
LINE
  5
2c4
100
AcDbEntity
  8
0
  6
CONTINUOUS
 62
     7
100
AcDbLine
 10
-3.199920654296875
 20
148.5000305175781
 11
-3.199920654296875
 21
101
  0
LINE
  5
2c5
100
AcDbEntity
  8
0
  6
CONTINUOUS
 62
     7
100
AcDbLine
 10
-4.800186157226563
 20
148.5000305175781
 11
-4.800186157226563
 21
101
  0
LINE
  5
2c6
100
AcDbEntity
  8
0
  6
CONTINUOUS
 62
     7
100
AcDbLine
 10
-7.200164794921875
 20
148.5000305175781
 11
-7.200164794921875
 21
101
  0
LINE
  5
2c7
100
AcDbEntity
  8
0
  6
CONTINUOUS
 62
     7
100
AcDbLine
 10
-8.800010681152344
 20
148.5000305175781
 11
-8.800010681152344
 21
101
  0
LINE
  5
2c8
100
AcDbEntity
  8
0
  6
CONTINUOUS
 62
     7
100
AcDbLine
 10
-19.50000762939453
 20
108.0000381469727
 11
-12.49996185302734
 21
108.0000381469727
  0
LINE
  5
2c9
100
AcDbEntity
  8
0
  6
CENTER
 62
     3
100
AcDbLine
 10
-15.99998474121094
 20
111.5857442592681
 11
-15.99998474121094
 21
107.0000534057617
  0
LINE
  5
2ca
100
AcDbEntity
  8
0
  6
CONTINUOUS
 62
     7
100
AcDbLine
 10
-12.49996185302734
 20
109.300048828125
 11
-12.49996185302734
 21
107.0000534057617
  0
LINE
  5
2cb
100
AcDbEntity
  8
0
  6
CONTINUOUS
 62
     7
100
AcDbLine
 10
-19.50000762939453
 20
109.300048828125
 11
-19.50000762939453
 21
107.0000534057617
  0
LINE
  5
2cc
100
AcDbEntity
  8
0
  6
CONTINUOUS
 62
     7
100
AcDbLine
 10
-19.99998736451698
 20
151.0000305175781
 11
-20.99997244225073
 21
107.0000420981083
  0
LINE
  5
2cd
100
AcDbEntity
  8
0
  6
CONTINUOUS
 62
     7
100
AcDbLine
 10
20.00003696838701
 20
151.0000305175781
 11
21.00002265609635
 21
107.000015258789
  0
LINE
  5
2ce
100
AcDbEntity
  8
0
  6
CENTER
 62
     3
100
AcDbLine
 10
-10.0000762939424
 20
83.00000762939453
 11
10.0000762939424
 21
83.00000762939453
  0
LINE
  5
2cf
100
AcDbEntity
  8
0
  6
CONTINUOUS
 62
     7
100
AcDbLine
 10
6.000003814697266
 20
19.00001525878906
 11
6.000003814697266
 21
14.18524742126465
  0
LINE
  5
2d0
100
AcDbEntity
  8
0
  6
CONTINUOUS
 62
     7
100
AcDbLine
 10
22.5
 20
42.00000762939453
 11
22.5
 21
19.00001525878906
  0
LINE
  5
2d1
100
AcDbEntity
  8
0
  6
CONTINUOUS
 62
     7
100
AcDbLine
 10
-22.5
 20
42.00000762939453
 11
-22.5
 21
19.00001525878906
  0
LINE
  5
2d2
100
AcDbEntity
  8
0
  6
CONTINUOUS
 62
     7
100
AcDbLine
 10
-3.999996185302734
 20
60
 11
-3.999996185302734
 21
42.00000762939453
  0
LINE
  5
2d3
100
AcDbEntity
  8
0
  6
CONTINUOUS
 62
     7
100
AcDbLine
 10
3.999996185302734
 20
60
 11
3.999996185302734
 21
42.00000762939453
  0
LINE
  5
2d4
100
AcDbEntity
  8
0
  6
CENTER
 62
     3
100
AcDbLine
 10
26.68174743652344
 20
15.00001621246338
 11
15.47847175598145
 21
15.00001621246338
  0
LINE
  5
2d5
100
AcDbEntity
  8
0
  6
DASHED
 62
     7
100
AcDbLine
 10
22.99998474121094
 20
17.95001220703125
 11
22.99998474121094
 21
12.05001926422119
  0
LINE
  5
2d6
100
AcDbEntity
  8
0
  6
DASHED
 62
     7
100
AcDbLine
 10
25.99998474121094
 20
12.05001926422119
 11
22.99998474121094
 21
12.05001926422119
  0
LINE
  5
2d7
100
AcDbEntity
  8
0
  6
DASHED
 62
     7
100
AcDbLine
 10
25.99998474121094
 20
17.95001220703125
 11
22.99998474121094
 21
17.95001220703125
  0
LINE
  5
2d8
100
AcDbEntity
  8
0
  6
DASHED
 62
     7
100
AcDbLine
 10
22.16282653808594
 20
13.50001621246338
 11
15.99998664855957
 21
13.50001621246338
  0
LINE
  5
2d9
100
AcDbEntity
  8
0
  6
DASHED
 62
     7
100
AcDbLine
 10
22.16282653808594
 20
16.50001525878906
 11
15.99998664855957
 21
16.50001525878906
  0
LINE
  5
2da
100
AcDbEntity
  8
0
  6
DASHED
 62
     7
100
AcDbLine
 10
22.99998427646438
 20
12.05001993130535
 11
22.16282865487233
 21
13.50001597571982
  0
LINE
  5
2db
100
AcDbEntity
  8
0
  6
DASHED
 62
     7
100
AcDbLine
 10
22.99998208882491
 20
17.95000639333451
 11
22.16283150382541
 21
16.50001907255408
  0
LINE
  5
2dc
100
AcDbEntity
  8
0
  6
DASHED
 62
     7
100
AcDbLine
 10
22.16282653808594
 20
16.50001525878906
 11
22.16282653808594
 21
13.50001621246338
  0
LINE
  5
2dd
100
AcDbEntity
  8
0
  6
CONTINUOUS
 62
     7
100
AcDbLine
 10
-23
 20
95
 11
-21
 21
95
  0
LINE
  5
2de
100
AcDbEntity
  8
0
  6
CONTINUOUS
 62
     7
100
AcDbLine
 10
23
 20
103
 11
23
 21
74
  0
LINE
  5
2df
100
AcDbEntity
  8
0
  6
CONTINUOUS
 62
     7
100
AcDbLine
 10
-23
 20
103
 11
-21
 21
103
  0
LINE
  5
2e0
100
AcDbEntity
  8
0
  6
CONTINUOUS
 62
     7
100
AcDbLine
 10
22.00000688233251
 20
103.000001359167
 11
20.94739483686604
 21
109.31567325033
  0
LINE
  5
2e1
100
AcDbEntity
  8
0
  6
CONTINUOUS
 62
     7
100
AcDbLine
 10
-23
 20
101
 11
-21
 21
101
  0
LINE
  5
2e2
100
AcDbEntity
  8
0
  6
CONTINUOUS
 62
     7
100
AcDbLine
 10
-23
 20
100
 11
-21
 21
100
  0
LINE
  5
2e3
100
AcDbEntity
  8
0
  6
CONTINUOUS
 62
     7
100
AcDbLine
 10
-21.99999684821473
 20
102.9999919521814
 11
-20.94733923279493
 21
109.3159372630478
  0
LINE
  5
2e4
100
AcDbEntity
  8
0
  6
CONTINUOUS
 62
     7
100
AcDbLine
 10
-23
 20
103
 11
-23
 21
85.49995422363281
  0
LINE
  5
2e5
100
AcDbEntity
  8
0
  6
CONTINUOUS
 62
     7
100
AcDbLine
 10
21
 20
95
 11
23
 21
95
  0
LINE
  5
2e6
100
AcDbEntity
  8
0
  6
CONTINUOUS
 62
     7
100
AcDbLine
 10
21
 20
100
 11
23
 21
100
  0
LINE
  5
2e7
100
AcDbEntity
  8
0
  6
CONTINUOUS
 62
     7
100
AcDbLine
 10
21
 20
101
 11
23
 21
101
  0
LINE
  5
2e8
100
AcDbEntity
  8
0
  6
CONTINUOUS
 62
     7
100
AcDbLine
 10
21
 20
103
 11
23
 21
103
  0
LINE
  5
2e9
100
AcDbEntity
  8
0
  6
CONTINUOUS
 62
     7
100
AcDbLine
 10
-23
 20
76.49997711181641
 11
-23
 21
74
  0
LINE
  5
2ea
100
AcDbEntity
  8
0
  6
CONTINUOUS
 62
     7
100
AcDbLine
 10
19.50000762939453
 20
109.300048828125
 11
19.50000762939453
 21
107.0000534057617
  0
LINE
  5
2eb
100
AcDbEntity
  8
0
  6
CONTINUOUS
 62
     7
100
AcDbLine
 10
12.49996185302734
 20
109.300048828125
 11
12.49996185302734
 21
107.0000534057617
  0
LINE
  5
2ec
100
AcDbEntity
  8
0
  6
CENTER
 62
     3
100
AcDbLine
 10
15.99998474121094
 20
111.5857442592681
 11
15.99998474121094
 21
107.0000534057617
  0
LINE
  5
2ed
100
AcDbEntity
  8
0
  6
CONTINUOUS
 62
     7
100
AcDbLine
 10
19.50000762939453
 20
108.0000381469727
 11
12.49996185302734
 21
108.0000381469727
  0
LINE
  5
2ee
100
AcDbEntity
  8
0
  6
CONTINUOUS
 62
     7
100
AcDbLine
 10
24.00005340576172
 20
58.35565567016602
 11
24.00005340576172
 21
51.00002288818359
  0
LINE
  5
2ef
100
AcDbEntity
  8
0
  6
CONTINUOUS
 62
     7
100
AcDbLine
 10
24.00005340576172
 20
52.5
 11
14.00001525878906
 21
52.5
  0
LINE
  5
2f0
100
AcDbEntity
  8
0
  6
CONTINUOUS
 62
     7
100
AcDbLine
 10
24.00005340576172
 20
58.50002288818359
 11
14.00001525878906
 21
58.50002288818359
  0
LINE
  5
2f1
100
AcDbEntity
  8
0
  6
CONTINUOUS
 62
     7
100
AcDbLine
 10
14.00001525878906
 20
58.35565567016602
 11
14.00001525878906
 21
51.00002288818359
  0
ARC
  5
2f2
100
AcDbEntity
  8
0
  6
CONTINUOUS
 62
     7
100
AcDbCircle
 10
0
 20
-7.5
 40
22.5
100
AcDbArc
 50
48.1896851042214
 51
131.8103148957786
  0
ARC
  5
2f3
100
AcDbEntity
  8
0
  6
CONTINUOUS
 62
     7
100
AcDbCircle
 10
0
 20
7.5
 40
22.5
100
AcDbArc
 50
228.1896851042221
 51
311.8103148957793
  0
ARC
  5
2f4
100
AcDbEntity
  8
0
  6
CONTINUOUS
 62
     7
100
AcDbCircle
 10
20.99998474121094
 20
-10
 40
5
100
AcDbArc
 50
269.9999633445767
 51
359.9999453584874
  0
ARC
  5
2f5
100
AcDbEntity
  8
0
  6
CONTINUOUS
 62
     7
100
AcDbCircle
 10
-21.00002288818359
 20
-10
 40
5
100
AcDbArc
 50
180.0000086514227
 51
269.9999974955226
  0
CIRCLE
  5
2f6
100
AcDbEntity
  8
0
  6
CONTINUOUS
 62
     7
100
AcDbCircle
 10
0
 20
0
 40
8.545402526855469
  0
CIRCLE
  5
2f7
100
AcDbEntity
  8
0
  6
CONTINUOUS
 62
     7
100
AcDbCircle
 10
0
 20
0
 40
7.68885087966919
  0
CIRCLE
  5
2f8
100
AcDbEntity
  8
0
  6
CONTINUOUS
 62
     7
100
AcDbCircle
 10
-25.49999237060547
 20
85.25001525878906
 40
0.2500001192092896
  0
ARC
  5
2f9
100
AcDbEntity
  8
0
  6
CONTINUOUS
 62
     7
100
AcDbCircle
 10
-25.75000762939453
 20
76.74999237060547
 40
0.2500001192092896
100
AcDbArc
 50
269.9912411930067
 51
89.99992737239722
  0
CIRCLE
  5
2fa
100
AcDbEntity
  8
0
  6
CONTINUOUS
 62
     7
100
AcDbCircle
 10
0
 20
83.00000762939453
 40
6.760492324829102
  0
CIRCLE
  5
2fb
100
AcDbEntity
  8
0
  6
CONTINUOUS
 62
     7
100
AcDbCircle
 10
0
 20
83
 40
10.00007629394531
  0
CIRCLE
  5
2fc
100
AcDbEntity
  8
0
  6
CONTINUOUS
 62
     7
100
AcDbCircle
 10
0
 20
83.00000762939453
 40
5.903968811035156
  0
ARC
  5
2fd
100
AcDbEntity
  8
0
  6
CONTINUOUS
 62
     7
100
AcDbCircle
 10
-21
 20
74
 40
2
100
AcDbArc
 50
179.9999813306655
 51
270.00001798609
  0
ARC
  5
2fe
100
AcDbEntity
  8
0
  6
CONTINUOUS
 62
     7
100
AcDbCircle
 10
21
 20
74
 40
2
100
AcDbArc
 50
270.00001798609
 51
360
  0
ARC
  5
2ff
100
AcDbEntity
  8
0
  6
CONTINUOUS
 62
     7
100
AcDbCircle
 10
-15.99998474121094
 20
105.2384927963937
 40
5.361566712883647
100
AcDbArc
 50
49.24706685652239
 51
130.7529331434776
  0
ARC
  5
300
100
AcDbEntity
  8
0
  6
CONTINUOUS
 62
     7
100
AcDbCircle
 10
15.99998474121094
 20
105.2384927963937
 40
5.361566712883647
100
AcDbArc
 50
49.24706685652241
 51
130.7529331434777
  0
MTEXT
  5
301
100
AcDbEntity
  8
0
  6
CONTINUOUS
 62
     7
100
AcDbMText
 10
-17.43485294282436
 20
93.83547210693359
 40
0.5
 41
36
 71
     7
 72
     1
  1
{\W0.8426;ＢＮ－５ＢＰ２１－１５－Ｇ／Ｈ＊＊＊}
  0
INSERT
  5
302
100
AcDbEntity
  8
0
  6
CONTINUOUS
 62
     7
100
AcDbBlockReference
  2
KOZU0008
 10
0
 20
0
  0
INSERT
  5
303
100
AcDbEntity
  8
0
  6
CONTINUOUS
 62
     3
100
AcDbBlockReference
  2
KOZU0009
 10
0
 20
0
  0
ENDBLK
  8
0
  5
304
100
AcDbEntity
100
AcDbBlockEnd
  0
BLOCK
  8
0
  5
305
100
AcDbEntity
100
AcDbBlockBegin
  2
KOZU0004
 70
    64
 10
0
 20
0
  0
POINT
  5
306
100
AcDbEntity
  8
0
  6
CONTINUOUS
 62
     7
100
AcDbPoint
 10
0
 20
0
  0
LINE
  5
307
100
AcDbEntity
  8
0
  6
CONTINUOUS
 62
     7
100
AcDbLine
 10
-25.99998474121094
 20
51.00002288818359
 11
-10.99998474121094
 21
51.00002288818359
  0
LINE
  5
308
100
AcDbEntity
  8
0
  6
CONTINUOUS
 62
     7
100
AcDbLine
 10
-15.99998474121094
 20
42.00000762939453
 11
-15.99998474121094
 21
19.0000057220459
  0
LINE
  5
309
100
AcDbEntity
  8
0
  6
CONTINUOUS
 62
     7
100
AcDbLine
 10
-22.00000762939453
 20
42.00000762939453
 11
-22.00000762939453
 21
19.0000057220459
  0
LINE
  5
30a
100
AcDbEntity
  8
0
  6
CENTER
 62
     3
100
AcDbLine
 10
-12.14364536461312
 20
0
 11
11.62153395615569
 21
0
  0
LINE
  5
30b
100
AcDbEntity
  8
0
  6
CONTINUOUS
 62
     7
100
AcDbLine
 10
-25.99998474121094
 20
19.0000057220459
 11
-25.99998474121094
 21
-10
  0
LINE
  5
30c
100
AcDbEntity
  8
0
  6
CONTINUOUS
 62
     7
100
AcDbLine
 10
-15
 20
9.270509831248422
 11
-15
 21
-9.270509831248422
  0
LINE
  5
30d
100
AcDbEntity
  8
0
  6
CONTINUOUS
 62
     7
100
AcDbLine
 10
-20.99998474121094
 20
-15
 11
21.00002288818359
 21
-15
  0
LINE
  5
30e
100
AcDbEntity
  8
0
  6
CONTINUOUS
 62
     7
100
AcDbLine
 10
-25.99998474121094
 20
19.00001525878906
 11
26.00002288818359
 21
19.00001525878906
  0
LINE
  5
30f
100
AcDbEntity
  8
0
  6
CONTINUOUS
 62
     7
100
AcDbLine
 10
-15.99998474121094
 20
-15
 11
-15.99998474121094
 21
-19.00000762939453
  0
LINE
  5
310
100
AcDbEntity
  8
0
  6
CONTINUOUS
 62
     7
100
AcDbLine
 10
26.00002288818359
 20
19.0000057220459
 11
26.00002288818359
 21
-10
  0
LINE
  5
311
100
AcDbEntity
  8
0
  6
CONTINUOUS
 62
     7
100
AcDbLine
 10
15
 20
9.270509831248422
 11
15
 21
-9.270509831248422
  0
LINE
  5
312
100
AcDbEntity
  8
0
  6
CONTINUOUS
 62
     7
100
AcDbLine
 10
16.00000381469727
 20
-15
 11
16.00000381469727
 21
-19.00000762939453
  0
LINE
  5
313
100
AcDbEntity
  8
0
  6
CONTINUOUS
 62
     7
100
AcDbLine
 10
-15.99998474121094
 20
-19.0000057220459
 11
16.00000381469727
 21
-19.0000057220459
  0
LINE
  5
314
100
AcDbEntity
  8
0
  6
CONTINUOUS
 62
     7
100
AcDbLine
 10
15
 20
-19.00001907348633
 11
15
 21
-36.00002288818359
  0
LINE
  5
315
100
AcDbEntity
  8
0
  6
CONTINUOUS
 62
     7
100
AcDbLine
 10
-15
 20
-19.00001907348633
 11
-15
 21
-36.00002288818359
  0
LINE
  5
316
100
AcDbEntity
  8
0
  6
CONTINUOUS
 62
     7
100
AcDbLine
 10
-15
 20
-36.00002288818359
 11
15
 21
-36.00002288818359
  0
LINE
  5
317
100
AcDbEntity
  8
0
  6
CENTER
 62
     3
100
AcDbLine
 10
0
 20
155.0618438720703
 11
0
 21
-39.59992218017578
  0
LINE
  5
318
100
AcDbEntity
  8
0
  6
CENTER
 62
     3
100
AcDbLine
 10
-19.00001525878906
 20
59.23015043876485
 11
-19.00001525878906
 21
19.00001525878906
  0
LINE
  5
319
100
AcDbEntity
  8
0
  6
CONTINUOUS
 62
     7
100
AcDbLine
 10
-25.99992752075195
 20
69.00001525878906
 11
25.99992752075195
 21
69.00001525878906
  0
LINE
  5
31a
100
AcDbEntity
  8
0
  6
CONTINUOUS
 62
     7
100
AcDbLine
 10
-25.99992752075195
 20
60
 11
25.99992752075195
 21
60
  0
LINE
  5
31b
100
AcDbEntity
  8
0
  6
CONTINUOUS
 62
     7
100
AcDbLine
 10
-25.99994659423828
 20
69.00000762939453
 11
-25.99994659423828
 21
60
  0
LINE
  5
31c
100
AcDbEntity
  8
0
  6
CONTINUOUS
 62
     7
100
AcDbLine
 10
25.99994659423828
 20
69.00000762939453
 11
25.99994659423828
 21
60
  0
LINE
  5
31d
100
AcDbEntity
  8
0
  6
CENTER
 62
     3
100
AcDbLine
 10
14
 20
85.99998474121094
 11
-14
 21
85.99998474121094
  0
LINE
  5
31e
100
AcDbEntity
  8
0
  6
CENTER
 62
     3
100
AcDbLine
 10
15.99998474121094
 20
112.1055679321289
 11
15.99998474121094
 21
108.9999847412109
  0
LINE
  5
31f
100
AcDbEntity
  8
0
  6
CENTER
 62
     3
100
AcDbLine
 10
-15.99998474121094
 20
112.1055679321289
 11
-15.99998474121094
 21
108.9999847412109
  0
LINE
  5
320
100
AcDbEntity
  8
0
  6
CONTINUOUS
 62
     7
100
AcDbLine
 10
25.75000762939453
 20
77.15000152587891
 11
23
 21
77.15000152587891
  0
LINE
  5
321
100
AcDbEntity
  8
0
  6
CONTINUOUS
 62
     7
100
AcDbLine
 10
26.75003051757813
 20
75.99998474121094
 11
25.75000762939453
 21
75.99998474121094
  0
LINE
  5
322
100
AcDbEntity
  8
0
  6
CONTINUOUS
 62
     7
100
AcDbLine
 10
25.75004577636719
 20
86.00001525878906
 11
25.75004577636719
 21
75.99998474121094
  0
LINE
  5
323
100
AcDbEntity
  8
0
  6
CONTINUOUS
 62
     7
100
AcDbLine
 10
26.75003051757813
 20
85.99998474121094
 11
26.75003051757813
 21
75.99998474121094
  0
LINE
  5
324
100
AcDbEntity
  8
0
  6
CONTINUOUS
 62
     7
100
AcDbLine
 10
25.75000762939453
 20
84.85008239746094
 11
23
 21
84.85008239746094
  0
LINE
  5
325
100
AcDbEntity
  8
0
  6
CONTINUOUS
 62
     7
100
AcDbLine
 10
26.75003051757813
 20
85.99998474121094
 11
25.75000762939453
 21
85.99998474121094
  0
LINE
  5
326
100
AcDbEntity
  8
0
  6
PHANTOM
 62
     7
100
AcDbLine
 10
25.49999237060547
 20
85
 11
23
 21
85
  0
LINE
  5
327
100
AcDbEntity
  8
0
  6
PHANTOM
 62
     7
100
AcDbLine
 10
25.75000762939453
 20
76.99996948242188
 11
23
 21
76.99996948242188
  0
LINE
  5
328
100
AcDbEntity
  8
0
  6
PHANTOM
 62
     7
100
AcDbLine
 10
25.49999237060547
 20
85.49995422363281
 11
23
 21
85.49995422363281
  0
LINE
  5
329
100
AcDbEntity
  8
0
  6
PHANTOM
 62
     7
100
AcDbLine
 10
25.75000762939453
 20
76.49997711181641
 11
23
 21
76.49997711181641
  0
LINE
  5
32a
100
AcDbEntity
  8
0
  6
CENTER
 62
     3
100
AcDbLine
 10
25.75004577636719
 20
85.24997711181641
 11
23
 21
85.24997711181641
  0
LINE
  5
32b
100
AcDbEntity
  8
0
  6
CENTER
 62
     3
100
AcDbLine
 10
25.75004577636719
 20
76.74999237060547
 11
23
 21
76.74999237060547
  0
LINE
  5
32c
100
AcDbEntity
  8
0
  6
CENTER
 62
     3
100
AcDbLine
 10
28.05618286132813
 20
80.99998474121094
 11
23
 21
80.99998474121094
  0
LINE
  5
32d
100
AcDbEntity
  8
0
  6
CONTINUOUS
 62
     7
100
AcDbLine
 10
20.99998474121094
 20
69.00000762939453
 11
20.99998474121094
 21
71.99998474121094
  0
LINE
  5
32e
100
AcDbEntity
  8
0
  6
CONTINUOUS
 62
     7
100
AcDbLine
 10
-20.99998474121094
 20
69.00000762939453
 11
-20.99998474121094
 21
71.99998474121094
  0
LINE
  5
32f
100
AcDbEntity
  8
0
  6
CONTINUOUS
 62
     7
100
AcDbLine
 10
20.99998474121094
 20
100
 11
-20.99998474121094
 21
100
  0
LINE
  5
330
100
AcDbEntity
  8
0
  6
CONTINUOUS
 62
     7
100
AcDbLine
 10
10.80032022751732
 20
151.0000305175781
 11
11.46762578991761
 21
108.9999864411958
  0
LINE
  5
331
100
AcDbEntity
  8
0
  6
CONTINUOUS
 62
     7
100
AcDbLine
 10
-10.80051384783722
 20
151.0000305175781
 11
-11.46781936137326
 21
108.9999895166999
  0
LINE
  5
332
100
AcDbEntity
  8
0
  6
CONTINUOUS
 62
     7
100
AcDbLine
 10
25.99998474121094
 20
60
 11
25.99998474121094
 21
42.00000762939453
  0
LINE
  5
333
100
AcDbEntity
  8
0
  6
CONTINUOUS
 62
     7
100
AcDbLine
 10
-25.99998474121094
 20
60
 11
-25.99998474121094
 21
42.00000762939453
  0
LINE
  5
334
100
AcDbEntity
  8
0
  6
CONTINUOUS
 62
     7
100
AcDbLine
 10
-25.99998474121094
 20
42.00000762939453
 11
25.99998474121094
 21
42.00000762939453
  0
LINE
  5
335
100
AcDbEntity
  8
0
  6
CONTINUOUS
 62
     7
100
AcDbLine
 10
-6.000022888183594
 20
19.00001525878906
 11
-6.000022888183594
 21
14.18524742126465
  0
LINE
  5
336
100
AcDbEntity
  8
0
  6
CENTER
 62
     3
100
AcDbLine
 10
18.70161056518555
 20
11.99999809265137
 11
27.1232795715332
 21
11.99999809265137
  0
LINE
  5
337
100
AcDbEntity
  8
0
  6
DASHED
 62
     7
100
AcDbLine
 10
20.00003814697266
 20
9.499998092651367
 11
26.00002288818359
 21
9.499998092651367
  0
LINE
  5
338
100
AcDbEntity
  8
0
  6
DASHED
 62
     7
100
AcDbLine
 10
20.00003814697266
 20
14.49999809265137
 11
26.00002288818359
 21
14.49999809265137
  0
LINE
  5
339
100
AcDbEntity
  8
0
  6
DASHED
 62
     7
100
AcDbLine
 10
20.00003814697266
 20
9.933004379272461
 11
26.00002288818359
 21
9.933004379272461
  0
LINE
  5
33a
100
AcDbEntity
  8
0
  6
DASHED
 62
     7
100
AcDbLine
 10
20.00003814697266
 20
14.06700134277344
 11
26.00002288818359
 21
14.06700134277344
  0
LINE
  5
33b
100
AcDbEntity
  8
0
  6
CONTINUOUS
 62
     7
100
AcDbLine
 10
-24.00001525878906
 20
52.5
 11
-14.00001525878906
 21
52.5
  0
LINE
  5
33c
100
AcDbEntity
  8
0
  6
CONTINUOUS
 62
     7
100
AcDbLine
 10
-24.00001525878906
 20
58.50002288818359
 11
-24.00001525878906
 21
51.00002288818359
  0
LINE
  5
33d
100
AcDbEntity
  8
0
  6
CONTINUOUS
 62
     7
100
AcDbLine
 10
-24.00001525878906
 20
58.50002288818359
 11
-14.00001525878906
 21
58.50002288818359
  0
LINE
  5
33e
100
AcDbEntity
  8
0
  6
CONTINUOUS
 62
     7
100
AcDbLine
 10
-14.00001525878906
 20
58.50002288818359
 11
-14.00001525878906
 21
51.00002288818359
  0
LINE
  5
33f
100
AcDbEntity
  8
0
  6
CONTINUOUS
 62
     7
100
AcDbLine
 10
-10.99998474121094
 20
60
 11
-10.99998474121094
 21
51.00002288818359
  0
LINE
  5
340
100
AcDbEntity
  8
0
  6
CENTER
 62
     3
100
AcDbLine
 10
19.00001525878906
 20
59.37245690176346
 11
19.00001525878906
 21
19.00001525878906
  0
LINE
  5
341
100
AcDbEntity
  8
0
  6
CONTINUOUS
 62
     7
100
AcDbLine
 10
22.00004577636719
 20
42.00000762939453
 11
22.00004577636719
 21
19.0000057220459
  0
LINE
  5
342
100
AcDbEntity
  8
0
  6
CONTINUOUS
 62
     7
100
AcDbLine
 10
16.00000381469727
 20
42.00000762939453
 11
16.00000381469727
 21
19.0000057220459
  0
LINE
  5
343
100
AcDbEntity
  8
0
  6
CONTINUOUS
 62
     7
100
AcDbLine
 10
19.99999118019929
 20
151.0000305175781
 11
20.95452368234688
 21
108.9999847412109
  0
LINE
  5
344
100
AcDbEntity
  8
0
  6
CONTINUOUS
 62
     7
100
AcDbLine
 10
-20.00002742918123
 20
151.0000305175781
 11
-20.95455993132882
 21
108.9999847412109
  0
LINE
  5
345
100
AcDbEntity
  8
0
  6
CONTINUOUS
 62
     7
100
AcDbLine
 10
-9.213394028019758
 20
151.0000305175781
 11
-8.799792281256062
 21
148.5000470946677
  0
LINE
  5
346
100
AcDbEntity
  8
0
  6
CONTINUOUS
 62
     7
100
AcDbLine
 10
-8.800048828125
 20
148.5000305175781
 11
-7.199935913085938
 21
148.5000305175781
  0
LINE
  5
347
100
AcDbEntity
  8
0
  6
CONTINUOUS
 62
     7
100
AcDbLine
 10
-6.7862984757765
 20
151.0000305175781
 11
-5.213529292717282
 21
151.0000305175781
  0
LINE
  5
348
100
AcDbEntity
  8
0
  6
CONTINUOUS
 62
     7
100
AcDbLine
 10
-5.213529292717283
 20
151.0000305175781
 11
-4.799929053776051
 21
148.5000618371429
  0
LINE
  5
349
100
AcDbEntity
  8
0
  6
CONTINUOUS
 62
     7
100
AcDbLine
 10
-7.199910426737471
 20
148.4999910449147
 11
-6.786298475776501
 21
151.0000305175781
  0
LINE
  5
34a
100
AcDbEntity
  8
0
  6
CONTINUOUS
 62
     7
100
AcDbLine
 10
-20.00002742918124
 20
151.0000305175781
 11
-9.21339402801976
 21
151.0000305175781
  0
LINE
  5
34b
100
AcDbEntity
  8
0
  6
CONTINUOUS
 62
     7
100
AcDbLine
 10
-4.800033569335938
 20
148.5000305175781
 11
-3.199958801269531
 21
148.5000305175781
  0
LINE
  5
34c
100
AcDbEntity
  8
0
  6
CONTINUOUS
 62
     7
100
AcDbLine
 10
-2.786279620367833
 20
151.0000305175781
 11
-1.2134123173862
 21
151.0000305175781
  0
LINE
  5
34d
100
AcDbEntity
  8
0
  6
CONTINUOUS
 62
     7
100
AcDbLine
 10
-1.213412317386201
 20
151.0000305175782
 11
-0.7998065514564239
 21
148.5000133696728
  0
LINE
  5
34e
100
AcDbEntity
  8
0
  6
CONTINUOUS
 62
     7
100
AcDbLine
 10
-2.786279620367832
 20
151.0000305175781
 11
-3.199883541125693
 21
148.5000292384298
  0
LINE
  5
34f
100
AcDbEntity
  8
0
  6
CONTINUOUS
 62
     7
100
AcDbLine
 10
-0.8000564575195313
 20
148.5000305175781
 11
0.7999801635742188
 21
148.5000305175781
  0
LINE
  5
350
100
AcDbEntity
  8
0
  6
CONTINUOUS
 62
     7
100
AcDbLine
 10
1.213614065764528
 20
151.0000305175782
 11
0.800010877954648
 21
148.5000345816173
  0
LINE
  5
351
100
AcDbEntity
  8
0
  6
CONTINUOUS
 62
     7
100
AcDbLine
 10
2.786283344600798
 20
151.0000305175781
 11
1.213614065764528
 21
151.0000305175781
  0
LINE
  5
352
100
AcDbEntity
  8
0
  6
CONTINUOUS
 62
     7
100
AcDbLine
 10
2.786283344600804
 20
151.0000305175781
 11
3.199894154955306
 21
148.4999913975552
  0
LINE
  5
353
100
AcDbEntity
  8
0
  6
CONTINUOUS
 62
     7
100
AcDbLine
 10
4.800033569335938
 20
148.5000305175781
 11
3.199958801269531
 21
148.5000305175781
  0
LINE
  5
354
100
AcDbEntity
  8
0
  6
CONTINUOUS
 62
     7
100
AcDbLine
 10
5.213831889283561
 20
151.0000305175782
 11
4.800220850275952
 21
148.4999909284259
  0
LINE
  5
355
100
AcDbEntity
  8
0
  6
CONTINUOUS
 62
     7
100
AcDbLine
 10
6.786558823051842
 20
151.0000305175781
 11
5.21383188928356
 21
151.0000305175781
  0
LINE
  5
356
100
AcDbEntity
  8
0
  6
CONTINUOUS
 62
     7
100
AcDbLine
 10
7.200162449483784
 20
148.5000348202294
 11
6.786558823051845
 21
151.0000305175781
  0
LINE
  5
357
100
AcDbEntity
  8
0
  6
CONTINUOUS
 62
     7
100
AcDbLine
 10
8.800048828125
 20
148.5000305175781
 11
7.199935913085938
 21
148.5000305175781
  0
LINE
  5
358
100
AcDbEntity
  8
0
  6
CONTINUOUS
 62
     7
100
AcDbLine
 10
9.213586388924849
 20
151.0000305175781
 11
8.799977026738343
 21
148.50000106384
  0
LINE
  5
359
100
AcDbEntity
  8
0
  6
CONTINUOUS
 62
     7
100
AcDbLine
 10
19.99999118019929
 20
151.0000305175781
 11
9.213586388924846
 21
151.0000305175781
  0
LINE
  5
35a
100
AcDbEntity
  8
0
  6
DASHED
 62
     7
100
AcDbLine
 10
20.16231536865234
 20
147.4999694824219
 11
15.46926187777474
 21
147.4999694824219
  0
LINE
  5
35b
100
AcDbEntity
  8
0
  6
DASHED
 62
     7
100
AcDbLine
 10
20.19760131835938
 20
145.5
 11
15.46926187777474
 21
145.5
  0
LINE
  5
35c
100
AcDbEntity
  8
0
  6
CENTER
 62
     3
100
AcDbLine
 10
22.28153228759766
 20
146.4999847412109
 11
15.46926187777474
 21
146.4999847412109
  0
LINE
  5
35d
100
AcDbEntity
  8
0
  6
CONTINUOUS
 62
     7
100
AcDbLine
 10
-8.799781799316406
 20
148.5000305175781
 11
-8.799781799316406
 21
108.9999847412109
  0
LINE
  5
35e
100
AcDbEntity
  8
0
  6
CONTINUOUS
 62
     7
100
AcDbLine
 10
-7.199897766113281
 20
148.5000305175781
 11
-7.199897766113281
 21
108.9999847412109
  0
LINE
  5
35f
100
AcDbEntity
  8
0
  6
CONTINUOUS
 62
     7
100
AcDbLine
 10
-4.799919128417969
 20
148.5000305175781
 11
-4.799919128417969
 21
108.9999847412109
  0
LINE
  5
360
100
AcDbEntity
  8
0
  6
CONTINUOUS
 62
     7
100
AcDbLine
 10
-3.199882507324219
 20
148.5000305175781
 11
-3.199882507324219
 21
108.9999847412109
  0
LINE
  5
361
100
AcDbEntity
  8
0
  6
CONTINUOUS
 62
     7
100
AcDbLine
 10
-0.7999038696289063
 20
148.5000305175781
 11
-0.7999038696289063
 21
108.9999847412109
  0
LINE
  5
362
100
AcDbEntity
  8
0
  6
CONTINUOUS
 62
     7
100
AcDbLine
 10
0.7999801635742188
 20
148.5000305175781
 11
0.7999801635742188
 21
108.9999847412109
  0
LINE
  5
363
100
AcDbEntity
  8
0
  6
CONTINUOUS
 62
     7
100
AcDbLine
 10
3.199920654296875
 20
148.5000305175781
 11
3.199920654296875
 21
108.9999847412109
  0
LINE
  5
364
100
AcDbEntity
  8
0
  6
CONTINUOUS
 62
     7
100
AcDbLine
 10
4.800186157226563
 20
148.5000305175781
 11
4.800186157226563
 21
108.9999847412109
  0
LINE
  5
365
100
AcDbEntity
  8
0
  6
CONTINUOUS
 62
     7
100
AcDbLine
 10
7.200164794921875
 20
148.5000305175781
 11
7.200164794921875
 21
108.9999847412109
  0
LINE
  5
366
100
AcDbEntity
  8
0
  6
CONTINUOUS
 62
     7
100
AcDbLine
 10
8.800010681152344
 20
148.5000305175781
 11
8.800010681152344
 21
108.9999847412109
  0
LINE
  5
367
100
AcDbEntity
  8
0
  6
CONTINUOUS
 62
     7
100
AcDbLine
 10
-3.999996185302734
 20
60
 11
-3.999996185302734
 21
42.00000762939453
  0
LINE
  5
368
100
AcDbEntity
  8
0
  6
CONTINUOUS
 62
     7
100
AcDbLine
 10
3.999996185302734
 20
60
 11
3.999996185302734
 21
42.00000762939453
  0
LINE
  5
369
100
AcDbEntity
  8
0
  6
CONTINUOUS
 62
     7
100
AcDbLine
 10
6.000003814697266
 20
19.00001525878906
 11
6.000003814697266
 21
14.18524742126465
  0
LINE
  5
36a
100
AcDbEntity
  8
0
  6
CONTINUOUS
 62
     7
100
AcDbLine
 10
-22.5
 20
42.00000762939453
 11
-22.5
 21
19.00001525878906
  0
LINE
  5
36b
100
AcDbEntity
  8
0
  6
CONTINUOUS
 62
     7
100
AcDbLine
 10
22.5
 20
42.00000762939453
 11
22.5
 21
19.00001525878906
  0
LINE
  5
36c
100
AcDbEntity
  8
0
  6
CENTER
 62
     3
100
AcDbLine
 10
-26.68174743652344
 20
15.00001621246338
 11
-15.47847175598145
 21
15.00001621246338
  0
LINE
  5
36d
100
AcDbEntity
  8
0
  6
DASHED
 62
     7
100
AcDbLine
 10
-22.99998474121094
 20
17.95001220703125
 11
-22.99998474121094
 21
12.05001926422119
  0
LINE
  5
36e
100
AcDbEntity
  8
0
  6
DASHED
 62
     7
100
AcDbLine
 10
-25.99998474121094
 20
12.05001926422119
 11
-22.99998474121094
 21
12.05001926422119
  0
LINE
  5
36f
100
AcDbEntity
  8
0
  6
DASHED
 62
     7
100
AcDbLine
 10
-25.99998474121094
 20
17.95001220703125
 11
-22.99998474121094
 21
17.95001220703125
  0
LINE
  5
370
100
AcDbEntity
  8
0
  6
DASHED
 62
     7
100
AcDbLine
 10
-22.16282653808594
 20
13.50001621246338
 11
-15.99998664855957
 21
13.50001621246338
  0
LINE
  5
371
100
AcDbEntity
  8
0
  6
DASHED
 62
     7
100
AcDbLine
 10
-22.16282653808594
 20
16.50001525878906
 11
-15.99998664855957
 21
16.50001525878906
  0
LINE
  5
372
100
AcDbEntity
  8
0
  6
DASHED
 62
     7
100
AcDbLine
 10
-22.99998427646438
 20
12.05001993130535
 11
-22.16282865487233
 21
13.50001597571982
  0
LINE
  5
373
100
AcDbEntity
  8
0
  6
DASHED
 62
     7
100
AcDbLine
 10
-22.99998208882491
 20
17.95000639333451
 11
-22.16283150382541
 21
16.50001907255408
  0
LINE
  5
374
100
AcDbEntity
  8
0
  6
DASHED
 62
     7
100
AcDbLine
 10
-22.16282653808594
 20
16.50001525878906
 11
-22.16282653808594
 21
13.50001621246338
  0
LINE
  5
375
100
AcDbEntity
  8
0
  6
CONTINUOUS
 62
     7
100
AcDbLine
 10
-14
 20
94.99998474121094
 11
-14
 21
71.99998474121094
  0
LINE
  5
376
100
AcDbEntity
  8
0
  6
CONTINUOUS
 62
     7
100
AcDbLine
 10
-21
 20
83.99998474121094
 11
-14
 21
83.99998474121094
  0
LINE
  5
377
100
AcDbEntity
  8
0
  6
CONTINUOUS
 62
     7
100
AcDbLine
 10
-21
 20
94.99998474121094
 11
-21
 21
83.99998474121094
  0
LINE
  5
378
100
AcDbEntity
  8
0
  6
CONTINUOUS
 62
     7
100
AcDbLine
 10
-23
 20
94.99998474121094
 11
-10.72380828857422
 21
94.99998474121094
  0
LINE
  5
379
100
AcDbEntity
  8
0
  6
CONTINUOUS
 62
     7
100
AcDbLine
 10
10.72380828857422
 20
94.99998474121094
 11
23
 21
94.99998474121094
  0
LINE
  5
37a
100
AcDbEntity
  8
0
  6
CONTINUOUS
 62
     7
100
AcDbLine
 10
14
 20
94.99998474121094
 11
14
 21
71.99998474121094
  0
LINE
  5
37b
100
AcDbEntity
  8
0
  6
CONTINUOUS
 62
     7
100
AcDbLine
 10
14
 20
83.99998474121094
 11
21
 21
83.99998474121094
  0
LINE
  5
37c
100
AcDbEntity
  8
0
  6
CONTINUOUS
 62
     7
100
AcDbLine
 10
21
 20
94.99998474121094
 11
21
 21
83.99998474121094
  0
LINE
  5
37d
100
AcDbEntity
  8
0
  6
CONTINUOUS
 62
     7
100
AcDbLine
 10
23
 20
102.9999847412109
 11
23
 21
71.99998474121094
  0
LINE
  5
37e
100
AcDbEntity
  8
0
  6
CONTINUOUS
 62
     7
100
AcDbLine
 10
-23
 20
102.9999847412109
 11
23
 21
102.9999847412109
  0
LINE
  5
37f
100
AcDbEntity
  8
0
  6
CONTINUOUS
 62
     7
100
AcDbLine
 10
22.00000562806793
 20
102.9999856808578
 11
21.00000572424894
 21
108.9999847412109
  0
LINE
  5
380
100
AcDbEntity
  8
0
  6
CONTINUOUS
 62
     7
100
AcDbLine
 10
-20.9999979896164
 20
108.9999847412109
 11
21.00000572424894
 21
108.9999847412109
  0
LINE
  5
381
100
AcDbEntity
  8
0
  6
CONTINUOUS
 62
     7
100
AcDbLine
 10
13.0000077017956
 20
102.9999786942113
 11
12.00000663353546
 21
108.999984741211
  0
LINE
  5
382
100
AcDbEntity
  8
0
  6
CONTINUOUS
 62
     7
100
AcDbLine
 10
-23
 20
100.9999847412109
 11
23
 21
100.9999847412109
  0
LINE
  5
383
100
AcDbEntity
  8
0
  6
CONTINUOUS
 62
     7
100
AcDbLine
 10
-23
 20
99.99998474121094
 11
23
 21
99.99998474121094
  0
LINE
  5
384
100
AcDbEntity
  8
0
  6
CONTINUOUS
 62
     7
100
AcDbLine
 10
-12.99999265061881
 20
102.9999761856817
 11
-11.99999116427037
 21
108.999984741211
  0
LINE
  5
385
100
AcDbEntity
  8
0
  6
CONTINUOUS
 62
     7
100
AcDbLine
 10
-21.99999935674434
 20
102.9999769010046
 11
-20.99999798961639
 21
108.999984741211
  0
LINE
  5
386
100
AcDbEntity
  8
0
  6
CONTINUOUS
 62
     7
100
AcDbLine
 10
-20.5
 20
103.9999847412109
 11
-13.5
 21
103.9999847412109
  0
LINE
  5
387
100
AcDbEntity
  8
0
  6
CONTINUOUS
 62
     7
100
AcDbLine
 10
-20.5
 20
105.2999877929688
 11
-20.5
 21
102.9999847412109
  0
LINE
  5
388
100
AcDbEntity
  8
0
  6
CENTER
 62
     3
100
AcDbLine
 10
-17
 20
107.6967242838244
 11
-17
 21
102.9999847412109
  0
LINE
  5
389
100
AcDbEntity
  8
0
  6
CONTINUOUS
 62
     7
100
AcDbLine
 10
-13.5
 20
105.2999877929688
 11
-13.5
 21
102.9999847412109
  0
LINE
  5
38a
100
AcDbEntity
  8
0
  6
CONTINUOUS
 62
     7
100
AcDbLine
 10
-23
 20
102.9999847412109
 11
-23
 21
71.99998474121094
  0
LINE
  5
38b
100
AcDbEntity
  8
0
  6
CONTINUOUS
 62
     7
100
AcDbLine
 10
-23
 20
71.99998474121094
 11
23
 21
71.99998474121094
  0
LINE
  5
38c
100
AcDbEntity
  8
0
  6
CENTER
 62
     3
100
AcDbLine
 10
17
 20
107.6967242838244
 11
17
 21
102.9999847412109
  0
LINE
  5
38d
100
AcDbEntity
  8
0
  6
CONTINUOUS
 62
     7
100
AcDbLine
 10
20.5
 20
103.9999847412109
 11
13.5
 21
103.9999847412109
  0
LINE
  5
38e
100
AcDbEntity
  8
0
  6
CONTINUOUS
 62
     7
100
AcDbLine
 10
20.5
 20
105.2999877929688
 11
20.5
 21
102.9999847412109
  0
LINE
  5
38f
100
AcDbEntity
  8
0
  6
CONTINUOUS
 62
     7
100
AcDbLine
 10
13.5
 20
105.2999877929688
 11
13.5
 21
102.9999847412109
  0
LINE
  5
390
100
AcDbEntity
  8
0
  6
CONTINUOUS
 62
     7
100
AcDbLine
 10
-19.49998474121094
 20
109.3000564575195
 11
-19.49998474121094
 21
108.9999847412109
  0
LINE
  5
391
100
AcDbEntity
  8
0
  6
CONTINUOUS
 62
     7
100
AcDbLine
 10
-12.49998474121094
 20
109.3000564575195
 11
-12.49998474121094
 21
108.9999847412109
  0
LINE
  5
392
100
AcDbEntity
  8
0
  6
CONTINUOUS
 62
     7
100
AcDbLine
 10
19.49998474121094
 20
109.3000564575195
 11
19.49998474121094
 21
108.9999847412109
  0
LINE
  5
393
100
AcDbEntity
  8
0
  6
CONTINUOUS
 62
     7
100
AcDbLine
 10
12.49998474121094
 20
109.3000564575195
 11
12.49998474121094
 21
108.9999847412109
  0
LINE
  5
394
100
AcDbEntity
  8
0
  6
CONTINUOUS
 62
     7
100
AcDbLine
 10
10.99998474121094
 20
60
 11
10.99998474121094
 21
51.00002288818359
  0
LINE
  5
395
100
AcDbEntity
  8
0
  6
CONTINUOUS
 62
     7
100
AcDbLine
 10
14.00001525878906
 20
58.50002288818359
 11
14.00001525878906
 21
51.00002288818359
  0
LINE
  5
396
100
AcDbEntity
  8
0
  6
CONTINUOUS
 62
     7
100
AcDbLine
 10
24.00001525878906
 20
58.50002288818359
 11
14.00001525878906
 21
58.50002288818359
  0
LINE
  5
397
100
AcDbEntity
  8
0
  6
CONTINUOUS
 62
     7
100
AcDbLine
 10
24.00001525878906
 20
58.50002288818359
 11
24.00001525878906
 21
51.00002288818359
  0
LINE
  5
398
100
AcDbEntity
  8
0
  6
CONTINUOUS
 62
     7
100
AcDbLine
 10
24.00001525878906
 20
52.5
 11
14.00001525878906
 21
52.5
  0
LINE
  5
399
100
AcDbEntity
  8
0
  6
CONTINUOUS
 62
     7
100
AcDbLine
 10
25.99998474121094
 20
51.00002288818359
 11
10.99998474121094
 21
51.00002288818359
  0
ARC
  5
39a
100
AcDbEntity
  8
0
  6
CONTINUOUS
 62
     7
100
AcDbCircle
 10
0
 20
-7.5
 40
22.5
100
AcDbArc
 50
48.1896851042214
 51
131.8103148957786
  0
ARC
  5
39b
100
AcDbEntity
  8
0
  6
CONTINUOUS
 62
     7
100
AcDbCircle
 10
0
 20
7.5
 40
22.5
100
AcDbArc
 50
228.1896851042221
 51
311.8103148957793
  0
ARC
  5
39c
100
AcDbEntity
  8
0
  6
CONTINUOUS
 62
     7
100
AcDbCircle
 10
-20.99998474121094
 20
-10
 40
5
100
AcDbArc
 50
180.0000359721794
 51
270.00001798609
  0
ARC
  5
39d
100
AcDbEntity
  8
0
  6
CONTINUOUS
 62
     7
100
AcDbCircle
 10
21.00002288818359
 20
-10
 40
5
100
AcDbArc
 50
269.9999633445767
 51
359.9999640278226
  0
CIRCLE
  5
39e
100
AcDbEntity
  8
0
  6
CONTINUOUS
 62
     7
100
AcDbCircle
 10
0
 20
0
 40
8.545402526855469
  0
CIRCLE
  5
39f
100
AcDbEntity
  8
0
  6
CONTINUOUS
 62
     7
100
AcDbCircle
 10
0
 20
0
 40
7.68885087966919
  0
CIRCLE
  5
3a0
100
AcDbEntity
  8
0
  6
CONTINUOUS
 62
     7
100
AcDbCircle
 10
25.49999237060547
 20
85.25001525878906
 40
0.2500001192092896
  0
ARC
  5
3a1
100
AcDbEntity
  8
0
  6
CONTINUOUS
 62
     7
100
AcDbCircle
 10
25.75000762939453
 20
76.74999237060547
 40
0.2500001192092896
100
AcDbArc
 50
90.00003665542394
 51
270.008716004627
  0
CIRCLE
  5
3a2
100
AcDbEntity
  8
0
  6
CONTINUOUS
 62
     7
100
AcDbCircle
 10
0
 20
85.99998474121094
 40
9.299999237060547
  0
CIRCLE
  5
3a3
100
AcDbEntity
  8
0
  6
CONTINUOUS
 62
     7
100
AcDbCircle
 10
0
 20
85.99998474121094
 40
10.5
  0
CIRCLE
  5
3a4
100
AcDbEntity
  8
0
  6
CONTINUOUS
 62
     7
100
AcDbCircle
 10
0
 20
85.99998474121094
 40
13
  0
CIRCLE
  5
3a5
100
AcDbEntity
  8
0
  6
CONTINUOUS
 62
     7
100
AcDbCircle
 10
0
 20
85.99998474121094
 40
14
  0
ARC
  5
3a6
100
AcDbEntity
  8
0
  6
CONTINUOUS
 62
     7
100
AcDbCircle
 10
-17
 20
101.2384619176481
 40
5.361528927078479
100
AcDbArc
 50
49.24704176963351
 51
130.7529582303665
  0
ARC
  5
3a7
100
AcDbEntity
  8
0
  6
CONTINUOUS
 62
     7
100
AcDbCircle
 10
17
 20
101.2384619176481
 40
5.361528927078479
100
AcDbArc
 50
49.24704176963355
 51
130.7529582303665
  0
ARC
  5
3a8
100
AcDbEntity
  8
0
  6
CONTINUOUS
 62
     7
100
AcDbCircle
 10
-15.99998474121094
 20
105.2385305821989
 40
5.361528927078479
100
AcDbArc
 50
49.24704176963351
 51
130.7529582303665
  0
ARC
  5
3a9
100
AcDbEntity
  8
0
  6
CONTINUOUS
 62
     7
100
AcDbCircle
 10
15.99998474121094
 20
105.2385305821989
 40
5.361528927078479
100
AcDbArc
 50
49.24704176963349
 51
130.7529582303665
  0
MTEXT
  5
3aa
100
AcDbEntity
  8
0
  6
CONTINUOUS
 62
     7
100
AcDbMText
 10
-22.03587375581265
 20
65.30406188964844
 40
0.5
 41
36
 71
     7
 72
     1
  1
{\W0.8426;ＢＮ－５ＢＰ２１－１５－Ｇ／Ｈ＊＊＊}
  0
INSERT
  5
3ab
100
AcDbEntity
  8
0
  6
CONTINUOUS
 62
     7
100
AcDbBlockReference
  2
KOZU0010
 10
0
 20
0
  0
INSERT
  5
3ac
100
AcDbEntity
  8
0
  6
CONTINUOUS
 62
     3
100
AcDbBlockReference
  2
KOZU0011
 10
0
 20
0
  0
ENDBLK
  8
0
  5
3ad
100
AcDbEntity
100
AcDbBlockEnd
  0
BLOCK
  8
0
  5
3ae
100
AcDbEntity
100
AcDbBlockBegin
  2
KOZU0005
 70
    64
 10
0
 20
0
  0
POINT
  5
3af
100
AcDbEntity
  8
0
  6
CONTINUOUS
 62
     7
100
AcDbPoint
 10
0
 20
0
  0
LINE
  5
3b0
100
AcDbEntity
  8
0
  6
CONTINUOUS
 62
     7
100
AcDbLine
 10
-5.999984741210938
 20
81
 11
-5.999984741210938
 21
74.30000305175781
  0
LINE
  5
3b1
100
AcDbEntity
  8
0
  6
CONTINUOUS
 62
     7
100
AcDbLine
 10
5.999984741210938
 20
81
 11
5.999984741210938
 21
74.30000305175781
  0
LINE
  5
3b2
100
AcDbEntity
  8
0
  6
CONTINUOUS
 62
     7
100
AcDbLine
 10
-15
 20
-19.00001907348633
 11
-15
 21
-36.00002288818359
  0
LINE
  5
3b3
100
AcDbEntity
  8
0
  6
CONTINUOUS
 62
     7
100
AcDbLine
 10
15
 20
-19.00001907348633
 11
15
 21
-36.00002288818359
  0
LINE
  5
3b4
100
AcDbEntity
  8
0
  6
CONTINUOUS
 62
     7
100
AcDbLine
 10
15
 20
-36.00002288818359
 11
-15
 21
-36.00002288818359
  0
LINE
  5
3b5
100
AcDbEntity
  8
0
  6
CONTINUOUS
 62
     7
100
AcDbLine
 10
-22.50003814697266
 20
42.00000762939453
 11
-22.50003814697266
 21
19.0000057220459
  0
LINE
  5
3b6
100
AcDbEntity
  8
0
  6
CONTINUOUS
 62
     7
100
AcDbLine
 10
22.5
 20
42.00000762939453
 11
22.5
 21
19.0000057220459
  0
LINE
  5
3b7
100
AcDbEntity
  8
0
  6
CONTINUOUS
 62
     7
100
AcDbLine
 10
-25.99998474121094
 20
107.0000152587891
 11
-25.99998474121094
 21
42.00000762939453
  0
LINE
  5
3b8
100
AcDbEntity
  8
0
  6
CONTINUOUS
 62
     7
100
AcDbLine
 10
25.99998474121094
 20
107.0000152587891
 11
25.99998474121094
 21
42.00000762939453
  0
LINE
  5
3b9
100
AcDbEntity
  8
0
  6
CONTINUOUS
 62
     7
100
AcDbLine
 10
25.99998474121094
 20
42.00000762939453
 11
-25.99998474121094
 21
42.00000762939453
  0
LINE
  5
3ba
100
AcDbEntity
  8
0
  6
CONTINUOUS
 62
     7
100
AcDbLine
 10
15.99998474121094
 20
42.00000762939453
 11
15.99998474121094
 21
19.0000057220459
  0
LINE
  5
3bb
100
AcDbEntity
  8
0
  6
CONTINUOUS
 62
     7
100
AcDbLine
 10
21.99996948242188
 20
42.00000762939453
 11
21.99996948242188
 21
19.0000057220459
  0
LINE
  5
3bc
100
AcDbEntity
  8
0
  6
CENTER
 62
     3
100
AcDbLine
 10
19.00001525878906
 20
59.31919097900391
 11
19.00001525878906
 21
19.00001525878906
  0
LINE
  5
3bd
100
AcDbEntity
  8
0
  6
CONTINUOUS
 62
     7
100
AcDbLine
 10
-14.00001525878906
 20
58.50002288818359
 11
-14.00001525878906
 21
51.00002288818359
  0
LINE
  5
3be
100
AcDbEntity
  8
0
  6
CONTINUOUS
 62
     7
100
AcDbLine
 10
-16.00002288818359
 20
42.00000762939453
 11
-16.00002288818359
 21
19.0000057220459
  0
LINE
  5
3bf
100
AcDbEntity
  8
0
  6
CONTINUOUS
 62
     7
100
AcDbLine
 10
-24.00009155273438
 20
58.50002288818359
 11
-14.00001525878906
 21
58.50002288818359
  0
LINE
  5
3c0
100
AcDbEntity
  8
0
  6
CONTINUOUS
 62
     7
100
AcDbLine
 10
-24.00009155273438
 20
52.5
 11
-14.00001525878906
 21
52.5
  0
LINE
  5
3c1
100
AcDbEntity
  8
0
  6
CONTINUOUS
 62
     7
100
AcDbLine
 10
-24.00009155273438
 20
58.50002288818359
 11
-24.00009155273438
 21
51.00002288818359
  0
LINE
  5
3c2
100
AcDbEntity
  8
0
  6
CONTINUOUS
 62
     7
100
AcDbLine
 10
-22.00004577636719
 20
42.00000762939453
 11
-22.00004577636719
 21
19.0000057220459
  0
LINE
  5
3c3
100
AcDbEntity
  8
0
  6
CENTER
 62
     3
100
AcDbLine
 10
-19.00001525878906
 20
59.21792221069336
 11
-19.00001525878906
 21
19.00001525878906
  0
LINE
  5
3c4
100
AcDbEntity
  8
0
  6
CONTINUOUS
 62
     7
100
AcDbLine
 10
-25.99998474121094
 20
51.00002288818359
 11
-10.99998474121094
 21
51.00002288818359
  0
LINE
  5
3c5
100
AcDbEntity
  8
0
  6
CENTER
 62
     3
100
AcDbLine
 10
0
 20
154.0056304931641
 11
0
 21
-40.81970596313477
  0
LINE
  5
3c6
100
AcDbEntity
  8
0
  6
CONTINUOUS
 62
     7
100
AcDbLine
 10
25.99998474121094
 20
60
 11
-25.99998474121094
 21
60
  0
LINE
  5
3c7
100
AcDbEntity
  8
0
  6
CENTER
 62
     3
100
AcDbLine
 10
37.82608032226563
 20
0
 11
-38.27042770385742
 21
0
  0
LINE
  5
3c8
100
AcDbEntity
  8
0
  6
CONTINUOUS
 62
     7
100
AcDbLine
 10
-35.00003814697266
 20
19.0000057220459
 11
-35.00003814697266
 21
-15
  0
LINE
  5
3c9
100
AcDbEntity
  8
0
  6
CONTINUOUS
 62
     7
100
AcDbLine
 10
35
 20
19.0000057220459
 11
35
 21
-15
  0
LINE
  5
3ca
100
AcDbEntity
  8
0
  6
CONTINUOUS
 62
     7
100
AcDbLine
 10
35
 20
19.00001525878906
 11
-35.00003814697266
 21
19.00001525878906
  0
LINE
  5
3cb
100
AcDbEntity
  8
0
  6
CONTINUOUS
 62
     7
100
AcDbLine
 10
35
 20
-15
 11
-35.00003814697266
 21
-15
  0
LINE
  5
3cc
100
AcDbEntity
  8
0
  6
CONTINUOUS
 62
     7
100
AcDbLine
 10
-15.99998474121094
 20
-15
 11
-15.99998474121094
 21
-19.00000762939453
  0
LINE
  5
3cd
100
AcDbEntity
  8
0
  6
CONTINUOUS
 62
     7
100
AcDbLine
 10
15.99998474121094
 20
-15
 11
15.99998474121094
 21
-19.00000762939453
  0
LINE
  5
3ce
100
AcDbEntity
  8
0
  6
CONTINUOUS
 62
     7
100
AcDbLine
 10
15.99998474121094
 20
-19.0000057220459
 11
-15.99998474121094
 21
-19.0000057220459
  0
LINE
  5
3cf
100
AcDbEntity
  8
0
  6
DASHED
 62
     7
100
AcDbLine
 10
26.99998474121093
 20
-9.314282360440945
 11
34.99997268013802
 21
-9.593648082126828
  0
LINE
  5
3d0
100
AcDbEntity
  8
0
  6
DASHED
 62
     7
100
AcDbLine
 10
26.99998474121093
 20
9.314278543418453
 11
35.00000712463013
 21
9.593645467932449
  0
LINE
  5
3d1
100
AcDbEntity
  8
0
  6
DASHED
 62
     7
100
AcDbLine
 10
26.99998474121093
 20
-10.47697603928784
 11
35.00002175378896
 21
-10.7563434746633
  0
LINE
  5
3d2
100
AcDbEntity
  8
0
  6
DASHED
 62
     7
100
AcDbLine
 10
26.99998474121093
 20
10.47699607865593
 11
35.00005536621226
 21
10.75636468780301
  0
LINE
  5
3d3
100
AcDbEntity
  8
0
  6
DASHED
 62
     7
100
AcDbLine
 10
-27.00002288818359
 20
-9.314275104261915
 11
-35.00002635291116
 21
-9.593641368120672
  0
LINE
  5
3d4
100
AcDbEntity
  8
0
  6
DASHED
 62
     7
100
AcDbLine
 10
-27.00002288818359
 20
9.314274150006293
 11
-35.00000732432664
 21
9.593639749372267
  0
LINE
  5
3d5
100
AcDbEntity
  8
0
  6
DASHED
 62
     7
100
AcDbLine
 10
-27.00002288818359
 20
-10.47699073098814
 11
-34.99999841358969
 21
-10.75635601918434
  0
LINE
  5
3d6
100
AcDbEntity
  8
0
  6
DASHED
 62
     7
100
AcDbLine
 10
-27.00002288818359
 20
10.47698214268753
 11
-34.99996058939991
 21
10.75634611003398
  0
LINE
  5
3d7
100
AcDbEntity
  8
0
  6
CONTINUOUS
 62
     7
100
AcDbLine
 10
-10.99998474121094
 20
60
 11
-10.99998474121094
 21
51.00002288818359
  0
LINE
  5
3d8
100
AcDbEntity
  8
0
  6
CONTINUOUS
 62
     7
100
AcDbLine
 10
25.99998474121094
 20
19.00001525878906
 11
25.99998474121094
 21
-10
  0
LINE
  5
3d9
100
AcDbEntity
  8
0
  6
CONTINUOUS
 62
     7
100
AcDbLine
 10
-26.00002288818359
 20
19.00001525878906
 11
-26.00002288818359
 21
-10.27051448822022
  0
LINE
  5
3da
100
AcDbEntity
  8
0
  6
CONTINUOUS
 62
     7
100
AcDbLine
 10
35
 20
14.43740844726563
 11
25.99998474121094
 21
14.43740844726563
  0
LINE
  5
3db
100
AcDbEntity
  8
0
  6
CONTINUOUS
 62
     7
100
AcDbLine
 10
35
 20
9.270505905151367
 11
25.99998474121094
 21
9.270505905151367
  0
LINE
  5
3dc
100
AcDbEntity
  8
0
  6
CONTINUOUS
 62
     7
100
AcDbLine
 10
35
 20
-9.270515441894531
 11
25.99998474121094
 21
-9.270515441894531
  0
LINE
  5
3dd
100
AcDbEntity
  8
0
  6
CONTINUOUS
 62
     7
100
AcDbLine
 10
-26.00002288818359
 20
14.43740844726563
 11
-35.00003814697266
 21
14.43740844726563
  0
LINE
  5
3de
100
AcDbEntity
  8
0
  6
CONTINUOUS
 62
     7
100
AcDbLine
 10
-26.00002288818359
 20
9.270505905151367
 11
-35.00003814697266
 21
9.270505905151367
  0
LINE
  5
3df
100
AcDbEntity
  8
0
  6
CONTINUOUS
 62
     7
100
AcDbLine
 10
-26.00002288818359
 20
-9.270515441894531
 11
-35.00003814697266
 21
-9.270515441894531
  0
LINE
  5
3e0
100
AcDbEntity
  8
0
  6
CONTINUOUS
 62
     7
100
AcDbLine
 10
-25.99990844726563
 20
69.00001525878906
 11
26.00002288818359
 21
69.00001525878906
  0
LINE
  5
3e1
100
AcDbEntity
  8
0
  6
CONTINUOUS
 62
     7
100
AcDbLine
 10
27.00004718601755
 20
73.74995912313517
 11
26.00004719495824
 21
72.99995911121424
  0
LINE
  5
3e2
100
AcDbEntity
  8
0
  6
CONTINUOUS
 62
     7
100
AcDbLine
 10
27.00004577636719
 20
92.25002288818359
 11
27.00004577636719
 21
73.74999237060547
  0
LINE
  5
3e3
100
AcDbEntity
  8
0
  6
CONTINUOUS
 62
     7
100
AcDbLine
 10
26.00013538598982
 20
92.99997527599174
 11
27.00013537704912
 21
92.24997526407081
  0
LINE
  5
3e4
100
AcDbEntity
  8
0
  6
CONTINUOUS
 62
     7
100
AcDbLine
 10
-25.99998474121094
 20
100
 11
25.99998474121094
 21
100
  0
LINE
  5
3e5
100
AcDbEntity
  8
0
  6
CONTINUOUS
 62
     7
100
AcDbLine
 10
24.9999105960599
 20
151.0000305175781
 11
-25.00002737778664
 21
151.0000305175781
  0
LINE
  5
3e6
100
AcDbEntity
  8
0
  6
CONTINUOUS
 62
     7
100
AcDbLine
 10
16.50067190359809
 20
151.0000305175781
 11
17.49936980639959
 21
107.0000152587891
  0
LINE
  5
3e7
100
AcDbEntity
  8
0
  6
CONTINUOUS
 62
     7
100
AcDbLine
 10
25.99998474121094
 20
107.0000152587891
 11
17.49936980639959
 21
107.0000152587891
  0
LINE
  5
3e8
100
AcDbEntity
  8
0
  6
CENTER
 62
     3
100
AcDbLine
 10
1.999969482421875
 20
146.5000610351563
 11
-2.000007629394531
 21
146.5000610351563
  0
LINE
  5
3e9
100
AcDbEntity
  8
0
  6
CONTINUOUS
 62
     7
100
AcDbLine
 10
-16.50051927640708
 20
151.0000305175781
 11
-17.49921717920858
 21
107.0000152587891
  0
LINE
  5
3ea
100
AcDbEntity
  8
0
  6
CONTINUOUS
 62
     7
100
AcDbLine
 10
-25.99998474121094
 20
107.0000152587891
 11
-17.49921717920859
 21
107.0000152587891
  0
LINE
  5
3eb
100
AcDbEntity
  8
0
  6
CONTINUOUS
 62
     7
100
AcDbLine
 10
-29.00001525878906
 20
99.50000762939453
 11
-25.99990844726563
 21
99.50000762939453
  0
LINE
  5
3ec
100
AcDbEntity
  8
0
  6
CONTINUOUS
 62
     7
100
AcDbLine
 10
-29.00001525878906
 20
99.50000762939453
 11
-29.00001525878906
 21
72.5
  0
LINE
  5
3ed
100
AcDbEntity
  8
0
  6
CONTINUOUS
 62
     7
100
AcDbLine
 10
-29.00001525878906
 20
72.5
 11
-25.99990844726563
 21
72.5
  0
LINE
  5
3ee
100
AcDbEntity
  8
0
  6
CONTINUOUS
 62
     7
100
AcDbLine
 10
18.70006561279297
 20
92.70000457763672
 11
18.70006561279297
 21
74.30000305175781
  0
LINE
  5
3ef
100
AcDbEntity
  8
0
  6
CONTINUOUS
 62
     7
100
AcDbLine
 10
-18.69998931884766
 20
92.70000457763672
 11
18.70006561279297
 21
92.70000457763672
  0
LINE
  5
3f0
100
AcDbEntity
  8
0
  6
CONTINUOUS
 62
     7
100
AcDbLine
 10
-18.69998931884766
 20
92.70000457763672
 11
-18.69998931884766
 21
74.30000305175781
  0
LINE
  5
3f1
100
AcDbEntity
  8
0
  6
CONTINUOUS
 62
     7
100
AcDbLine
 10
-18.69998931884766
 20
74.30000305175781
 11
18.70006561279297
 21
74.30000305175781
  0
LINE
  5
3f2
100
AcDbEntity
  8
0
  6
CENTER
 62
     3
100
AcDbLine
 10
-5.999984741210938
 20
81
 11
5.999984741210938
 21
81
  0
LINE
  5
3f3
100
AcDbEntity
  8
0
  6
CONTINUOUS
 62
     7
100
AcDbLine
 10
25.99991422458849
 20
106.9999869426444
 11
24.9999105960599
 21
151.0000305175781
  0
LINE
  5
3f4
100
AcDbEntity
  8
0
  6
CONTINUOUS
 62
     7
100
AcDbLine
 10
-26.00001196196836
 20
106.9999844592024
 11
-25.00002737778664
 21
151.0000305175781
  0
LINE
  5
3f5
100
AcDbEntity
  8
0
  6
DASHED
 62
     7
100
AcDbLine
 10
19.70006561279296
 20
77.35098419601317
 11
27.00001869988976
 21
77.09606422888091
  0
LINE
  5
3f6
100
AcDbEntity
  8
0
  6
DASHED
 62
     7
100
AcDbLine
 10
19.70006561279297
 20
88.64908722230608
 11
27.00004069501559
 21
88.90400795752504
  0
LINE
  5
3f7
100
AcDbEntity
  8
0
  6
DASHED
 62
     7
100
AcDbLine
 10
19.70006561279297
 20
76.49444434872366
 11
26.97018222533404
 21
76.24056629419306
  0
LINE
  5
3f8
100
AcDbEntity
  8
0
  6
DASHED
 62
     7
100
AcDbLine
 10
19.70006561279297
 20
89.50559653341566
 11
26.97020528550794
 21
89.75947539322524
  0
LINE
  5
3f9
100
AcDbEntity
  8
0
  6
CENTER
 62
     3
100
AcDbLine
 10
29.22499847412109
 20
83.00000762939453
 11
19.70006561279297
 21
83.00000762939453
  0
LINE
  5
3fa
100
AcDbEntity
  8
0
  6
CONTINUOUS
 62
     7
100
AcDbLine
 10
-1.500000596046448
 20
2.999999284744263
 11
-1.500000596046448
 21
1.499999642372131
  0
LINE
  5
3fb
100
AcDbEntity
  8
0
  6
CONTINUOUS
 62
     7
100
AcDbLine
 10
5.999997615814209
 20
0
 11
-7.499999046325684
 21
0
  0
LINE
  5
3fc
100
AcDbEntity
  8
0
  6
CONTINUOUS
 62
     7
100
AcDbLine
 10
7.499997615814209
 20
1.499999642372131
 11
-1.500000596046448
 21
1.499999642372131
  0
LINE
  5
3fd
100
AcDbEntity
  8
0
  6
CONTINUOUS
 62
     7
100
AcDbLine
 10
-1.50000113166951
 20
2.99999935594348
 11
-7.49999899056423
 21
4.26496119754205e-007
  0
LINE
  5
3fe
100
AcDbEntity
  8
0
  6
CONTINUOUS
 62
     7
100
AcDbLine
 10
7.499997637859996
 20
1.499999932181745
 11
5.999997705678251
 21
0
  0
LINE
  5
3ff
100
AcDbEntity
  8
0
  6
CENTER
 62
     3
100
AcDbLine
 10
-2.5
 20
11.99999809265137
 11
2.5
 21
11.99999809265137
  0
LINE
  5
400
100
AcDbEntity
  8
0
  6
CENTER
 62
     3
100
AcDbLine
 10
-103.1492462158203
 20
86
 11
-25.99989128112793
 21
86
  0
LINE
  5
401
100
AcDbEntity
  8
0
  6
CONTINUOUS
 62
     7
100
AcDbLine
 10
-32.00000762939453
 20
96.5
 11
-29.0000114440918
 21
96.5
  0
LINE
  5
402
100
AcDbEntity
  8
0
  6
CONTINUOUS
 62
     7
100
AcDbLine
 10
-29.0000107535006
 20
95.29998687789487
 11
-31.07848624920587
 21
96.49999528638237
  0
LINE
  5
403
100
AcDbEntity
  8
0
  6
CONTINUOUS
 62
     7
100
AcDbLine
 10
-32.00000762939453
 20
103
 11
-32.00000762939453
 21
72
  0
LINE
  5
404
100
AcDbEntity
  8
0
  6
CONTINUOUS
 62
     7
100
AcDbLine
 10
-100.0000076293945
 20
100
 11
-32.00000762939453
 21
100
  0
LINE
  5
405
100
AcDbEntity
  8
0
  6
CONTINUOUS
 62
     7
100
AcDbLine
 10
-78.00000762939453
 20
101
 11
-32.00000762939453
 21
101
  0
LINE
  5
406
100
AcDbEntity
  8
0
  6
CONTINUOUS
 62
     7
100
AcDbLine
 10
-78.00000762939453
 20
103
 11
-32.00000762939453
 21
103
  0
LINE
  5
407
100
AcDbEntity
  8
0
  6
CONTINUOUS
 62
     7
100
AcDbLine
 10
-33.00000877036626
 20
103.0000003498757
 11
-34.00000877248046
 21
109
  0
LINE
  5
408
100
AcDbEntity
  8
0
  6
CONTINUOUS
 62
     7
100
AcDbLine
 10
-76.00000063227898
 20
109
 11
-34.00000877248046
 21
109
  0
LINE
  5
409
100
AcDbEntity
  8
0
  6
CONTINUOUS
 62
     7
100
AcDbLine
 10
-42.00000324741066
 20
103.0000016727331
 11
-43.0000030290486
 21
109
  0
LINE
  5
40a
100
AcDbEntity
  8
0
  6
CENTER
 62
     3
100
AcDbLine
 10
-55.00000762939453
 20
111.1228256225586
 11
-55.00000762939453
 21
70.4708251953125
  0
LINE
  5
40b
100
AcDbEntity
  8
0
  6
CONTINUOUS
 62
     7
100
AcDbLine
 10
-29.00001339260801
 20
76.69999248966802
 11
-31.07846989247111
 21
75.49999504843531
  0
LINE
  5
40c
100
AcDbEntity
  8
0
  6
CONTINUOUS
 62
     7
100
AcDbLine
 10
-32.00000762939453
 20
75.5
 11
-29.0000114440918
 21
75.5
  0
LINE
  5
40d
100
AcDbEntity
  8
0
  6
CONTINUOUS
 62
     7
100
AcDbLine
 10
-100.0000076293945
 20
72
 11
-32.00000762939453
 21
72
  0
LINE
  5
40e
100
AcDbEntity
  8
0
  6
CONTINUOUS
 62
     7
100
AcDbLine
 10
-41.00000762939453
 20
95
 11
-41.00000762939453
 21
72
  0
LINE
  5
40f
100
AcDbEntity
  8
0
  6
CONTINUOUS
 62
     7
100
AcDbLine
 10
-69.00000762939453
 20
95
 11
-69.00000762939453
 21
72
  0
LINE
  5
410
100
AcDbEntity
  8
0
  6
CONTINUOUS
 62
     7
100
AcDbLine
 10
-78.00000762939453
 20
103
 11
-78.00000762939453
 21
72
  0
LINE
  5
411
100
AcDbEntity
  8
0
  6
CONTINUOUS
 62
     7
100
AcDbLine
 10
-100.0000076293945
 20
100
 11
-100.0000076293945
 21
72
  0
LINE
  5
412
100
AcDbEntity
  8
0
  6
DASHED
 62
     7
100
AcDbLine
 10
-100.0000076293945
 20
96.5
 11
-89.00000762939453
 21
96.5
  0
LINE
  5
413
100
AcDbEntity
  8
0
  6
DASHED
 62
     7
100
AcDbLine
 10
-100.0000076293945
 20
95.29999542236328
 11
-89.00000762939453
 21
95.29999542236328
  0
LINE
  5
414
100
AcDbEntity
  8
0
  6
DASHED
 62
     7
100
AcDbLine
 10
-100.0000076293945
 20
76.69999694824219
 11
-89.00000762939453
 21
76.69999694824219
  0
LINE
  5
415
100
AcDbEntity
  8
0
  6
DASHED
 62
     7
100
AcDbLine
 10
-100.0000076293945
 20
75.5
 11
-89.00000762939453
 21
75.5
  0
LINE
  5
416
100
AcDbEntity
  8
0
  6
CONTINUOUS
 62
     7
100
AcDbLine
 10
-76.00000762939453
 20
84
 11
-69.00000762939453
 21
84
  0
LINE
  5
417
100
AcDbEntity
  8
0
  6
CONTINUOUS
 62
     7
100
AcDbLine
 10
-76.00000762939453
 20
95
 11
-76.00000762939453
 21
84
  0
LINE
  5
418
100
AcDbEntity
  8
0
  6
CONTINUOUS
 62
     7
100
AcDbLine
 10
-78.00000762939453
 20
95
 11
-32.00000762939453
 21
95
  0
LINE
  5
419
100
AcDbEntity
  8
0
  6
CONTINUOUS
 62
     7
100
AcDbLine
 10
-34.00000762939453
 20
95
 11
-34.00000762939453
 21
84
  0
LINE
  5
41a
100
AcDbEntity
  8
0
  6
CONTINUOUS
 62
     7
100
AcDbLine
 10
-41.00000762939453
 20
84
 11
-34.00000762939453
 21
84
  0
LINE
  5
41b
100
AcDbEntity
  8
0
  6
CONTINUOUS
 62
     7
100
AcDbLine
 10
-67.99999795563332
 20
102.9999986742565
 11
-66.99999767424924
 21
109
  0
LINE
  5
41c
100
AcDbEntity
  8
0
  6
CONTINUOUS
 62
     7
100
AcDbLine
 10
-75.50000762939453
 20
104
 11
-68.50000762939453
 21
104
  0
LINE
  5
41d
100
AcDbEntity
  8
0
  6
CONTINUOUS
 62
     7
100
AcDbLine
 10
-68.50000762939453
 20
105.2999992370606
 11
-68.50000762939453
 21
103
  0
LINE
  5
41e
100
AcDbEntity
  8
0
  6
CENTER
 62
     3
100
AcDbLine
 10
-72.00000762939453
 20
107.5370423435727
 11
-72.00000762939453
 21
103
  0
LINE
  5
41f
100
AcDbEntity
  8
0
  6
CONTINUOUS
 62
     7
100
AcDbLine
 10
-75.50000762939453
 20
105.2999992370606
 11
-75.50000762939453
 21
103
  0
LINE
  5
420
100
AcDbEntity
  8
0
  6
CONTINUOUS
 62
     7
100
AcDbLine
 10
-77.00000089896464
 20
102.999998762447
 11
-76.00000063227898
 21
109
  0
LINE
  5
421
100
AcDbEntity
  8
0
  6
CONTINUOUS
 62
     7
100
AcDbLine
 10
-34.50000762939453
 20
104
 11
-41.50000762939453
 21
104
  0
LINE
  5
422
100
AcDbEntity
  8
0
  6
CONTINUOUS
 62
     7
100
AcDbLine
 10
-41.50000762939453
 20
105.2999992370606
 11
-41.50000762939453
 21
103
  0
LINE
  5
423
100
AcDbEntity
  8
0
  6
CENTER
 62
     3
100
AcDbLine
 10
-38.00000762939453
 20
107.5370423435727
 11
-38.00000762939453
 21
103
  0
LINE
  5
424
100
AcDbEntity
  8
0
  6
CONTINUOUS
 62
     7
100
AcDbLine
 10
-34.50000762939453
 20
105.2999992370606
 11
-34.50000762939453
 21
103
  0
LINE
  5
425
100
AcDbEntity
  8
0
  6
CONTINUOUS
 62
     7
100
AcDbLine
 10
-18.50000762939453
 20
109.3000144958496
 11
-18.50000762939453
 21
107.0000152587891
  0
LINE
  5
426
100
AcDbEntity
  8
0
  6
CENTER
 62
     3
100
AcDbLine
 10
-22.00000762939453
 20
111.5370576023618
 11
-22.00000762939453
 21
107.0000152587891
  0
LINE
  5
427
100
AcDbEntity
  8
0
  6
CONTINUOUS
 62
     7
100
AcDbLine
 10
-25.50000762939453
 20
109.3000144958496
 11
-25.50000762939453
 21
107.0000152587891
  0
LINE
  5
428
100
AcDbEntity
  8
0
  6
CONTINUOUS
 62
     7
100
AcDbLine
 10
-18.50000762939453
 20
108.0000152587891
 11
-25.50000762939453
 21
108.0000152587891
  0
LINE
  5
429
100
AcDbEntity
  8
0
  6
CONTINUOUS
 62
     7
100
AcDbLine
 10
25.50000762939453
 20
109.3000144958496
 11
25.50000762939453
 21
107.0000152587891
  0
LINE
  5
42a
100
AcDbEntity
  8
0
  6
CONTINUOUS
 62
     7
100
AcDbLine
 10
25.50000762939453
 20
108.0000152587891
 11
18.50000762939453
 21
108.0000152587891
  0
LINE
  5
42b
100
AcDbEntity
  8
0
  6
CENTER
 62
     3
100
AcDbLine
 10
22.00000762939453
 20
111.5370576023618
 11
22.00000762939453
 21
107.0000152587891
  0
LINE
  5
42c
100
AcDbEntity
  8
0
  6
CONTINUOUS
 62
     7
100
AcDbLine
 10
18.50000762939453
 20
109.3000144958496
 11
18.50000762939453
 21
107.0000152587891
  0
LINE
  5
42d
100
AcDbEntity
  8
0
  6
CONTINUOUS
 62
     7
100
AcDbLine
 10
10.99998474121094
 20
60
 11
10.99998474121094
 21
51.00002288818359
  0
LINE
  5
42e
100
AcDbEntity
  8
0
  6
CONTINUOUS
 62
     7
100
AcDbLine
 10
25.99998474121094
 20
51.00002288818359
 11
10.99998474121094
 21
51.00002288818359
  0
LINE
  5
42f
100
AcDbEntity
  8
0
  6
CONTINUOUS
 62
     7
100
AcDbLine
 10
24.00009155273438
 20
58.50002288818359
 11
24.00009155273438
 21
51.00002288818359
  0
LINE
  5
430
100
AcDbEntity
  8
0
  6
CONTINUOUS
 62
     7
100
AcDbLine
 10
24.00009155273438
 20
52.5
 11
14.00001525878906
 21
52.5
  0
LINE
  5
431
100
AcDbEntity
  8
0
  6
CONTINUOUS
 62
     7
100
AcDbLine
 10
24.00009155273438
 20
58.50002288818359
 11
14.00001525878906
 21
58.50002288818359
  0
LINE
  5
432
100
AcDbEntity
  8
0
  6
CONTINUOUS
 62
     7
100
AcDbLine
 10
14.00001525878906
 20
58.50002288818359
 11
14.00001525878906
 21
51.00002288818359
  0
ARC
  5
433
100
AcDbEntity
  8
0
  6
CONTINUOUS
 62
     7
100
AcDbCircle
 10
0
 20
80.99998474121094
 40
6
100
AcDbArc
 50
0
 51
179.9999640278213
  0
CIRCLE
  5
434
100
AcDbEntity
  8
0
  6
CONTINUOUS
 62
     7
100
AcDbCircle
 10
0
 20
80.99998474121094
 40
5
  0
ARC
  5
435
100
AcDbEntity
  8
0
  6
CONTINUOUS
 62
     7
100
AcDbCircle
 10
20.99998474121094
 20
-10
 40
5
100
AcDbArc
 50
269.9999633445767
 51
360
  0
ARC
  5
436
100
AcDbEntity
  8
0
  6
CONTINUOUS
 62
     7
100
AcDbCircle
 10
-21.00002288818359
 20
-10
 40
5
100
AcDbArc
 50
179.9999776881997
 51
269.9999733624894
  0
CIRCLE
  5
437
100
AcDbEntity
  8
0
  6
CONTINUOUS
 62
     7
100
AcDbCircle
 10
0
 20
146.5000610351563
 40
1
  0
CIRCLE
  5
438
100
AcDbEntity
  8
0
  6
CONTINUOUS
 62
     7
100
AcDbCircle
 10
0
 20
11.99999809265137
 40
2.5
  0
CIRCLE
  5
439
100
AcDbEntity
  8
0
  6
CONTINUOUS
 62
     7
100
AcDbCircle
 10
0
 20
11.99999809265137
 40
2.049999952316284
  0
ARC
  5
43a
100
AcDbEntity
  8
0
  6
CONTINUOUS
 62
     7
100
AcDbCircle
 10
-72.00000762939453
 20
101.2384576289595
 40
5.361540845161571
100
AcDbArc
 50
49.24715152300847
 51
130.7528484769915
  0
ARC
  5
43b
100
AcDbEntity
  8
0
  6
CONTINUOUS
 62
     7
100
AcDbCircle
 10
-38.00000762939453
 20
101.2384576289595
 40
5.361540845161571
100
AcDbArc
 50
49.24715152300853
 51
130.7528484769915
  0
ARC
  5
43c
100
AcDbEntity
  8
0
  6
CONTINUOUS
 62
     7
100
AcDbCircle
 10
-22.00000762939453
 20
105.2384728877486
 40
5.361540845161571
100
AcDbArc
 50
49.2471515230085
 51
130.7528484769916
  0
ARC
  5
43d
100
AcDbEntity
  8
0
  6
CONTINUOUS
 62
     7
100
AcDbCircle
 10
22.00000762939453
 20
105.2384728877486
 40
5.361540845161571
100
AcDbArc
 50
49.2471515230085
 51
130.7528484769916
  0
MTEXT
  5
43e
100
AcDbEntity
  8
0
  6
CONTINUOUS
 62
     7
100
AcDbMText
 10
-14.18346820771694
 20
141.0906219482422
 40
0.5
 41
36
 71
     7
 72
     1
  1
{\W0.8426;ＢＮ－５ＢＰ２１－１５－Ｇ／Ｈ＊＊＊}
  0
INSERT
  5
43f
100
AcDbEntity
  8
0
  6
CONTINUOUS
 62
     7
100
AcDbBlockReference
  2
KOZU0012
 10
0
 20
0
  0
ENDBLK
  8
0
  5
440
100
AcDbEntity
100
AcDbBlockEnd
  0
BLOCK
  8
0
  5
441
100
AcDbEntity
100
AcDbBlockBegin
  2
KOZU0006
 70
    64
 10
0
 20
0
  0
POINT
  5
442
100
AcDbEntity
  8
0
  6
CONTINUOUS
 62
     7
100
AcDbPoint
 10
0
 20
0
  0
LINE
  5
443
100
AcDbEntity
  8
0
  6
CENTER
 62
     3
100
AcDbLine
 10
0
 20
26.00000381469727
 11
0
 21
-26.00000381469727
  0
LINE
  5
444
100
AcDbEntity
  8
0
  6
CENTER
 62
     3
100
AcDbLine
 10
-38.67499923706055
 20
0
 11
103.4249954223633
 21
0
  0
LINE
  5
445
100
AcDbEntity
  8
0
  6
CONTINUOUS
 62
     7
100
AcDbLine
 10
-35.00001907348633
 20
15
 11
-35.00001907348633
 21
-15
  0
LINE
  5
446
100
AcDbEntity
  8
0
  6
CONTINUOUS
 62
     7
100
AcDbLine
 10
-26.00000381469727
 20
20.00000381469727
 11
-26.00000381469727
 21
-20
  0
LINE
  5
447
100
AcDbEntity
  8
0
  6
CONTINUOUS
 62
     7
100
AcDbLine
 10
25.99998474121094
 20
20.00000381469727
 11
25.99998474121094
 21
-20
  0
LINE
  5
448
100
AcDbEntity
  8
0
  6
CONTINUOUS
 62
     7
100
AcDbLine
 10
-20
 20
-26.00000381469727
 11
20.00000381469727
 21
-26.00000381469727
  0
LINE
  5
449
100
AcDbEntity
  8
0
  6
CONTINUOUS
 62
     7
100
AcDbLine
 10
-20
 20
26.00000381469727
 11
20.00000381469727
 21
26.00000381469727
  0
LINE
  5
44a
100
AcDbEntity
  8
0
  6
CONTINUOUS
 62
     7
100
AcDbLine
 10
-35.00001907348633
 20
-15
 11
-26.00000381469727
 21
-15
  0
LINE
  5
44b
100
AcDbEntity
  8
0
  6
CONTINUOUS
 62
     7
100
AcDbLine
 10
35
 20
15
 11
35
 21
-15
  0
LINE
  5
44c
100
AcDbEntity
  8
0
  6
CONTINUOUS
 62
     7
100
AcDbLine
 10
-35.00001907348633
 20
15
 11
-26.00000381469727
 21
15
  0
LINE
  5
44d
100
AcDbEntity
  8
0
  6
CONTINUOUS
 62
     7
100
AcDbLine
 10
25.99998474121094
 20
15
 11
35
 21
15
  0
LINE
  5
44e
100
AcDbEntity
  8
0
  6
CONTINUOUS
 62
     7
100
AcDbLine
 10
25.99998474121094
 20
-15
 11
35
 21
-15
  0
LINE
  5
44f
100
AcDbEntity
  8
0
  6
CONTINUOUS
 62
     7
100
AcDbLine
 10
72
 20
23
 11
38
 21
23
  0
LINE
  5
450
100
AcDbEntity
  8
0
  6
CONTINUOUS
 62
     7
100
AcDbLine
 10
69
 20
23
 11
69
 21
17
  0
LINE
  5
451
100
AcDbEntity
  8
0
  6
CONTINUOUS
 62
     7
100
AcDbLine
 10
72
 20
21
 11
69
 21
21
  0
LINE
  5
452
100
AcDbEntity
  8
0
  6
CONTINUOUS
 62
     7
100
AcDbLine
 10
76
 20
17
 11
76
 21
14
  0
LINE
  5
453
100
AcDbEntity
  8
0
  6
CONTINUOUS
 62
     7
100
AcDbLine
 10
78
 20
17
 11
78
 21
-17
  0
LINE
  5
454
100
AcDbEntity
  8
0
  6
CONTINUOUS
 62
     7
100
AcDbLine
 10
78
 20
14
 11
72
 21
14
  0
LINE
  5
455
100
AcDbEntity
  8
0
  6
CENTER
 62
     3
100
AcDbLine
 10
55
 20
23
 11
55
 21
-23
  0
LINE
  5
456
100
AcDbEntity
  8
0
  6
CONTINUOUS
 62
     7
100
AcDbLine
 10
72
 20
-23
 11
38
 21
-23
  0
LINE
  5
457
100
AcDbEntity
  8
0
  6
CONTINUOUS
 62
     7
100
AcDbLine
 10
72
 20
-21
 11
69
 21
-21
  0
LINE
  5
458
100
AcDbEntity
  8
0
  6
CONTINUOUS
 62
     7
100
AcDbLine
 10
69
 20
-17
 11
69
 21
-23
  0
LINE
  5
459
100
AcDbEntity
  8
0
  6
CONTINUOUS
 62
     7
100
AcDbLine
 10
78
 20
-14
 11
72
 21
-14
  0
LINE
  5
45a
100
AcDbEntity
  8
0
  6
CONTINUOUS
 62
     7
100
AcDbLine
 10
76
 20
-14
 11
76
 21
-17
  0
LINE
  5
45b
100
AcDbEntity
  8
0
  6
CONTINUOUS
 62
     7
100
AcDbLine
 10
100
 20
-14
 11
78
 21
-14
  0
LINE
  5
45c
100
AcDbEntity
  8
0
  6
CONTINUOUS
 62
     7
100
AcDbLine
 10
100
 20
14
 11
100
 21
-14
  0
LINE
  5
45d
100
AcDbEntity
  8
0
  6
CONTINUOUS
 62
     7
100
AcDbLine
 10
100
 20
14
 11
78
 21
14
  0
LINE
  5
45e
100
AcDbEntity
  8
0
  6
CONTINUOUS
 62
     7
100
AcDbLine
 10
32
 20
17
 11
32
 21
15
  0
LINE
  5
45f
100
AcDbEntity
  8
0
  6
CONTINUOUS
 62
     7
100
AcDbLine
 10
35
 20
-14
 11
38
 21
-14
  0
LINE
  5
460
100
AcDbEntity
  8
0
  6
CONTINUOUS
 62
     7
100
AcDbLine
 10
34
 20
-15
 11
34
 21
-17
  0
LINE
  5
461
100
AcDbEntity
  8
0
  6
CONTINUOUS
 62
     7
100
AcDbLine
 10
38
 20
-21
 11
41
 21
-21
  0
LINE
  5
462
100
AcDbEntity
  8
0
  6
CONTINUOUS
 62
     7
100
AcDbLine
 10
41
 20
-17
 11
41
 21
-23
  0
LINE
  5
463
100
AcDbEntity
  8
0
  6
CONTINUOUS
 62
     7
100
AcDbLine
 10
35
 20
14
 11
38
 21
14
  0
LINE
  5
464
100
AcDbEntity
  8
0
  6
CONTINUOUS
 62
     7
100
AcDbLine
 10
41
 20
23
 11
41
 21
17
  0
LINE
  5
465
100
AcDbEntity
  8
0
  6
CONTINUOUS
 62
     7
100
AcDbLine
 10
38
 20
21
 11
41
 21
21
  0
LINE
  5
466
100
AcDbEntity
  8
0
  6
CONTINUOUS
 62
     7
100
AcDbLine
 10
34
 20
17
 11
34
 21
15
  0
LINE
  5
467
100
AcDbEntity
  8
0
  6
CONTINUOUS
 62
     7
100
AcDbLine
 10
32
 20
-15
 11
32
 21
-17
  0
LINE
  5
468
100
AcDbEntity
  8
0
  6
DASHED
 62
     7
100
AcDbLine
 10
89
 20
10.5
 11
100
 21
10.5
  0
LINE
  5
469
100
AcDbEntity
  8
0
  6
DASHED
 62
     7
100
AcDbLine
 10
89
 20
-10.5
 11
100
 21
-10.5
  0
LINE
  5
46a
100
AcDbEntity
  8
0
  6
DASHED
 62
     7
100
AcDbLine
 10
89
 20
-9.300000190734863
 11
100
 21
-9.300000190734863
  0
LINE
  5
46b
100
AcDbEntity
  8
0
  6
DASHED
 62
     7
100
AcDbLine
 10
89
 20
9.300000190734863
 11
100
 21
9.300000190734863
  0
LINE
  5
46c
100
AcDbEntity
  8
0
  6
DASHED
 62
     7
100
AcDbLine
 10
-35.00002009542121
 20
-10.70000024812408
 11
-27.00001966807372
 21
-10.49051286770108
  0
LINE
  5
46d
100
AcDbEntity
  8
0
  6
DASHED
 62
     7
100
AcDbLine
 10
-35.00002009542121
 20
10.70000024812408
 11
-27.00001966807372
 21
10.49051286770108
  0
LINE
  5
46e
100
AcDbEntity
  8
0
  6
DASHED
 62
     7
100
AcDbLine
 10
-35.00001772055138
 20
-9.499589025760173
 11
-27.00001919989893
 21
-9.290101695265733
  0
LINE
  5
46f
100
AcDbEntity
  8
0
  6
DASHED
 62
     7
100
AcDbLine
 10
-35.00001772055138
 20
9.499589025760173
 11
-27.00001919989893
 21
9.290101695265733
  0
LINE
  5
470
100
AcDbEntity
  8
0
  6
DASHED
 62
     7
100
AcDbLine
 10
35.00002009542121
 20
-10.70000024812408
 11
27.00001966807372
 21
-10.49051286770108
  0
LINE
  5
471
100
AcDbEntity
  8
0
  6
DASHED
 62
     7
100
AcDbLine
 10
35.00001772055138
 20
-9.499589025760173
 11
27.00001919989893
 21
-9.290101695265733
  0
LINE
  5
472
100
AcDbEntity
  8
0
  6
DASHED
 62
     7
100
AcDbLine
 10
35.00001772055138
 20
9.499589025760173
 11
27.00001919989893
 21
9.290101695265733
  0
LINE
  5
473
100
AcDbEntity
  8
0
  6
DASHED
 62
     7
100
AcDbLine
 10
35.00002009542121
 20
10.70000024812408
 11
27.00001966807372
 21
10.49051286770108
  0
CIRCLE
  5
474
100
AcDbEntity
  8
0
  6
CONTINUOUS
 62
     7
100
AcDbCircle
 10
0
 20
0
 40
15
  0
CIRCLE
  5
475
100
AcDbEntity
  8
0
  6
CONTINUOUS
 62
     7
100
AcDbCircle
 10
0
 20
0
 40
15.99998474121094
  0
ARC
  5
476
100
AcDbEntity
  8
0
  6
CONTINUOUS
 62
     7
100
AcDbCircle
 10
-20
 20
-20
 40
6
100
AcDbArc
 50
179.9999776881997
 51
270.0000280040027
  0
ARC
  5
477
100
AcDbEntity
  8
0
  6
CONTINUOUS
 62
     7
100
AcDbCircle
 10
20
 20
20.00000381469727
 40
6
100
AcDbArc
 50
0
 51
89.99998201391065
  0
ARC
  5
478
100
AcDbEntity
  8
0
  6
CONTINUOUS
 62
     7
100
AcDbCircle
 10
-20
 20
20.00000381469727
 40
6
100
AcDbArc
 50
89.99998201391065
 51
179.9999640278213
  0
ARC
  5
479
100
AcDbEntity
  8
0
  6
CONTINUOUS
 62
     7
100
AcDbCircle
 10
20
 20
-20
 40
6
100
AcDbArc
 50
270.00001798609
 51
360
  0
ARC
  5
47a
100
AcDbEntity
  8
0
  6
CONTINUOUS
 62
     7
100
AcDbCircle
 10
72
 20
17
 40
6
100
AcDbArc
 50
5.46415133601103e-005
 51
90.00003665542405
  0
ARC
  5
47b
100
AcDbEntity
  8
0
  6
CONTINUOUS
 62
     7
100
AcDbCircle
 10
72
 20
17
 40
4
100
AcDbArc
 50
5.46415133601103e-005
 51
90.00003665542391
  0
ARC
  5
47c
100
AcDbEntity
  8
0
  6
CONTINUOUS
 62
     7
100
AcDbCircle
 10
72
 20
17
 40
3
100
AcDbArc
 50
180.0000186693354
 51
270.0000006832461
  0
ARC
  5
47d
100
AcDbEntity
  8
0
  6
CONTINUOUS
 62
     7
100
AcDbCircle
 10
72
 20
-17
 40
3
100
AcDbArc
 50
90.00003665542405
 51
180.0000186693354
  0
ARC
  5
47e
100
AcDbEntity
  8
0
  6
CONTINUOUS
 62
     7
100
AcDbCircle
 10
72
 20
-17
 40
4
100
AcDbArc
 50
270.0000179860901
 51
5.46415133601103e-005
  0
ARC
  5
47f
100
AcDbEntity
  8
0
  6
CONTINUOUS
 62
     7
100
AcDbCircle
 10
72
 20
-17
 40
6
100
AcDbArc
 50
270.00001798609
 51
5.46415133601103e-005
  0
ARC
  5
480
100
AcDbEntity
  8
0
  6
CONTINUOUS
 62
     7
100
AcDbCircle
 10
38
 20
-17
 40
6
100
AcDbArc
 50
180.0000186693354
 51
270.0000553247593
  0
ARC
  5
481
100
AcDbEntity
  8
0
  6
CONTINUOUS
 62
     7
100
AcDbCircle
 10
38
 20
-17
 40
4
100
AcDbArc
 50
180.0000186693354
 51
270.0000553247594
  0
ARC
  5
482
100
AcDbEntity
  8
0
  6
CONTINUOUS
 62
     7
100
AcDbCircle
 10
38
 20
-17
 40
3
100
AcDbArc
 50
5.46415133601103e-005
 51
90.00003665542405
  0
ARC
  5
483
100
AcDbEntity
  8
0
  6
CONTINUOUS
 62
     7
100
AcDbCircle
 10
38
 20
17
 40
3
100
AcDbArc
 50
270.0000726276033
 51
5.46415133601103e-005
  0
ARC
  5
484
100
AcDbEntity
  8
0
  6
CONTINUOUS
 62
     7
100
AcDbCircle
 10
38
 20
17
 40
4
100
AcDbArc
 50
90.00003665542401
 51
180.0000186693354
  0
ARC
  5
485
100
AcDbEntity
  8
0
  6
CONTINUOUS
 62
     7
100
AcDbCircle
 10
38
 20
17
 40
6
100
AcDbArc
 50
90.000036655424
 51
180.0000186693354
  0
MTEXT
  5
486
100
AcDbEntity
  8
0
  6
CONTINUOUS
 62
     7
100
AcDbMText
 10
-17.85161052644253
 20
19.57712364196777
 40
0.5
 41
36
 71
     7
 72
     1
  1
{\W0.8426;ＢＮ－５ＢＰ２１－１５－Ｇ／Ｈ＊＊＊}
  0
ENDBLK
  8
0
  5
487
100
AcDbEntity
100
AcDbBlockEnd
  0
BLOCK
  8
0
  5
488
100
AcDbEntity
100
AcDbBlockBegin
  2
KOZU0007
 70
    64
 10
0
 20
0
  0
LINE
  5
489
100
AcDbEntity
  8
0
  6
CONTINUOUS
 62
     7
100
AcDbLine
 10
-2.693635834625074
 20
-33.00001907348633
 11
-1.999969482421875
 21
-32.30635133394904
  0
LINE
  5
48a
100
AcDbEntity
  8
0
  6
CONTINUOUS
 62
     7
100
AcDbLine
 10
-4.377432148241958
 20
-33.00001907348633
 11
-1.999969482421875
 21
-30.62255165273616
  0
LINE
  5
48b
100
AcDbEntity
  8
0
  6
CONTINUOUS
 62
     7
100
AcDbLine
 10
-6.061228461858846
 20
-33.00001907348633
 11
-1.999969482421875
 21
-28.93875197152327
  0
LINE
  5
48c
100
AcDbEntity
  8
0
  6
CONTINUOUS
 62
     7
100
AcDbLine
 10
-7.745024775475729
 20
-33.00001907348633
 11
-1.999969482421875
 21
-27.2549522903104
  0
LINE
  5
48d
100
AcDbEntity
  8
0
  6
CONTINUOUS
 62
     7
100
AcDbLine
 10
-9.428821089092613
 20
-33.00001907348633
 11
-1.999969482421875
 21
-25.57115260909752
  0
LINE
  5
48e
100
AcDbEntity
  8
0
  6
CONTINUOUS
 62
     7
100
AcDbLine
 10
-11.1126174027095
 20
-33.00001907348633
 11
-1.999969482421873
 21
-23.88735292788464
  0
LINE
  5
48f
100
AcDbEntity
  8
0
  6
CONTINUOUS
 62
     7
100
AcDbLine
 10
-11.99996948242188
 20
-32.20357324669176
 11
-2.796435623651204
 21
-23.00002098083496
  0
LINE
  5
490
100
AcDbEntity
  8
0
  6
CONTINUOUS
 62
     7
100
AcDbLine
 10
-11.99996948242188
 20
-30.51977356547888
 11
-4.480231937268091
 21
-23.00002098083496
  0
LINE
  5
491
100
AcDbEntity
  8
0
  6
CONTINUOUS
 62
     7
100
AcDbLine
 10
-11.99996948242188
 20
-28.835973884266
 11
-6.164028250884977
 21
-23.00002098083496
  0
LINE
  5
492
100
AcDbEntity
  8
0
  6
CONTINUOUS
 62
     7
100
AcDbLine
 10
-11.99996948242188
 20
-27.15217420305312
 11
-7.847824564501861
 21
-23.00002098083496
  0
LINE
  5
493
100
AcDbEntity
  8
0
  6
CONTINUOUS
 62
     7
100
AcDbLine
 10
-11.99996948242188
 20
-25.46837452184024
 11
-9.531620878118742
 21
-23.00002098083496
  0
LINE
  5
494
100
AcDbEntity
  8
0
  6
CONTINUOUS
 62
     7
100
AcDbLine
 10
-11.99996948242188
 20
-23.78457484062736
 11
-11.21541719173563
 21
-23.00002098083496
  0
LINE
  5
495
100
AcDbEntity
  8
0
  6
CONTINUOUS
 62
     7
100
AcDbLine
 10
-1.999969482421873
 20
-23.24399565423116
 11
-2.243944643767915
 21
-23.00002098083496
  0
LINE
  5
496
100
AcDbEntity
  8
0
  6
CONTINUOUS
 62
     7
100
AcDbLine
 10
-1.999969482421873
 20
-24.92779196784805
 11
-3.927744324980795
 21
-23.00002098083496
  0
LINE
  5
497
100
AcDbEntity
  8
0
  6
CONTINUOUS
 62
     7
100
AcDbLine
 10
-1.999969482421875
 20
-26.61158828146494
 11
-5.611544006193677
 21
-23.00002098083496
  0
LINE
  5
498
100
AcDbEntity
  8
0
  6
CONTINUOUS
 62
     7
100
AcDbLine
 10
-1.999969482421875
 20
-28.29538459508182
 11
-7.295343687406557
 21
-23.00002098083496
  0
LINE
  5
499
100
AcDbEntity
  8
0
  6
CONTINUOUS
 62
     7
100
AcDbLine
 10
-1.999969482421873
 20
-29.97918090869871
 11
-8.979143368619438
 21
-23.00002098083496
  0
LINE
  5
49a
100
AcDbEntity
  8
0
  6
CONTINUOUS
 62
     7
100
AcDbLine
 10
-1.999969482421873
 20
-31.66297722231559
 11
-10.66294304983232
 21
-23.00002098083496
  0
LINE
  5
49b
100
AcDbEntity
  8
0
  6
CONTINUOUS
 62
     7
100
AcDbLine
 10
-2.346724638377641
 20
-33.00001907348633
 11
-11.99996948242188
 21
-23.34679353591248
  0
LINE
  5
49c
100
AcDbEntity
  8
0
  6
CONTINUOUS
 62
     7
100
AcDbLine
 10
-4.030524319590519
 20
-33.00001907348633
 11
-11.99996948242188
 21
-25.03058984952936
  0
LINE
  5
49d
100
AcDbEntity
  8
0
  6
CONTINUOUS
 62
     7
100
AcDbLine
 10
-5.714324000803403
 20
-33.00001907348633
 11
-11.99996948242188
 21
-26.71438616314625
  0
LINE
  5
49e
100
AcDbEntity
  8
0
  6
CONTINUOUS
 62
     7
100
AcDbLine
 10
-7.398123682016284
 20
-33.00001907348633
 11
-11.99996948242188
 21
-28.39818247676314
  0
LINE
  5
49f
100
AcDbEntity
  8
0
  6
CONTINUOUS
 62
     7
100
AcDbLine
 10
-9.081923363229162
 20
-33.00001907348633
 11
-11.99996948242188
 21
-30.08197879038002
  0
LINE
  5
4a0
100
AcDbEntity
  8
0
  6
CONTINUOUS
 62
     7
100
AcDbLine
 10
-10.76572304444204
 20
-33.00001907348633
 11
-11.99996948242188
 21
-31.76577510399691
  0
ENDBLK
  8
0
  5
4a1
100
AcDbEntity
100
AcDbBlockEnd
  0
BLOCK
  8
0
  5
4a2
100
AcDbEntity
100
AcDbBlockBegin
  2
KOZU0008
 70
    64
 10
0
 20
0
  0
LINE
  5
4a3
100
AcDbEntity
  8
0
  6
CONTINUOUS
 62
     7
100
AcDbLine
 10
-2.693635834625074
 20
-33.00001907348633
 11
-2.000007629394535
 21
-32.30638948099799
  0
LINE
  5
4a4
100
AcDbEntity
  8
0
  6
CONTINUOUS
 62
     7
100
AcDbLine
 10
-4.377432148241958
 20
-33.00001907348633
 11
-2.000007629394531
 21
-30.62258979978511
  0
LINE
  5
4a5
100
AcDbEntity
  8
0
  6
CONTINUOUS
 62
     7
100
AcDbLine
 10
-6.061228461858846
 20
-33.00001907348633
 11
-2.000007629394533
 21
-28.93879011857223
  0
LINE
  5
4a6
100
AcDbEntity
  8
0
  6
CONTINUOUS
 62
     7
100
AcDbLine
 10
-7.745024775475729
 20
-33.00001907348633
 11
-2.000007629394531
 21
-27.25499043735935
  0
LINE
  5
4a7
100
AcDbEntity
  8
0
  6
CONTINUOUS
 62
     7
100
AcDbLine
 10
-9.428821089092613
 20
-33.00001907348633
 11
-2.000007629394533
 21
-25.57119075614647
  0
LINE
  5
4a8
100
AcDbEntity
  8
0
  6
CONTINUOUS
 62
     7
100
AcDbLine
 10
-11.1126174027095
 20
-33.00001907348633
 11
-2.000007629394533
 21
-23.88739107493359
  0
LINE
  5
4a9
100
AcDbEntity
  8
0
  6
CONTINUOUS
 62
     7
100
AcDbLine
 10
-12.00000762939453
 20
-32.20361139374071
 11
-2.796435623651204
 21
-23.00002098083496
  0
LINE
  5
4aa
100
AcDbEntity
  8
0
  6
CONTINUOUS
 62
     7
100
AcDbLine
 10
-12.00000762939453
 20
-30.51981171252783
 11
-4.480231937268091
 21
-23.00002098083496
  0
LINE
  5
4ab
100
AcDbEntity
  8
0
  6
CONTINUOUS
 62
     7
100
AcDbLine
 10
-12.00000762939453
 20
-28.83601203131495
 11
-6.164028250884977
 21
-23.00002098083496
  0
LINE
  5
4ac
100
AcDbEntity
  8
0
  6
CONTINUOUS
 62
     7
100
AcDbLine
 10
-12.00000762939453
 20
-27.15221235010207
 11
-7.847824564501861
 21
-23.00002098083496
  0
LINE
  5
4ad
100
AcDbEntity
  8
0
  6
CONTINUOUS
 62
     7
100
AcDbLine
 10
-12.00000762939453
 20
-25.46841266888918
 11
-9.531620878118742
 21
-23.00002098083496
  0
LINE
  5
4ae
100
AcDbEntity
  8
0
  6
CONTINUOUS
 62
     7
100
AcDbLine
 10
-12.00000762939453
 20
-23.7846129876763
 11
-11.21541719173563
 21
-23.00002098083496
  0
LINE
  5
4af
100
AcDbEntity
  8
0
  6
CONTINUOUS
 62
     7
100
AcDbLine
 10
-2.000007629394531
 20
-23.2439575073348
 11
-2.243944643767915
 21
-23.00002098083496
  0
LINE
  5
4b0
100
AcDbEntity
  8
0
  6
CONTINUOUS
 62
     7
100
AcDbLine
 10
-2.000007629394533
 20
-24.92775382095169
 11
-3.927744324980795
 21
-23.00002098083496
  0
LINE
  5
4b1
100
AcDbEntity
  8
0
  6
CONTINUOUS
 62
     7
100
AcDbLine
 10
-2.000007629394535
 20
-26.61155013456857
 11
-5.611544006193677
 21
-23.00002098083496
  0
LINE
  5
4b2
100
AcDbEntity
  8
0
  6
CONTINUOUS
 62
     7
100
AcDbLine
 10
-2.000007629394533
 20
-28.29534644818546
 11
-7.295343687406557
 21
-23.00002098083496
  0
LINE
  5
4b3
100
AcDbEntity
  8
0
  6
CONTINUOUS
 62
     7
100
AcDbLine
 10
-2.000007629394533
 20
-29.97914276180234
 11
-8.979143368619438
 21
-23.00002098083496
  0
LINE
  5
4b4
100
AcDbEntity
  8
0
  6
CONTINUOUS
 62
     7
100
AcDbLine
 10
-2.000007629394531
 20
-31.66293907541922
 11
-10.66294304983232
 21
-23.00002098083496
  0
LINE
  5
4b5
100
AcDbEntity
  8
0
  6
CONTINUOUS
 62
     7
100
AcDbLine
 10
-2.346724638377641
 20
-33.00001907348633
 11
-12.00000762939453
 21
-23.34675538901612
  0
LINE
  5
4b6
100
AcDbEntity
  8
0
  6
CONTINUOUS
 62
     7
100
AcDbLine
 10
-4.030524319590519
 20
-33.00001907348633
 11
-12.00000762939453
 21
-25.03055170263301
  0
LINE
  5
4b7
100
AcDbEntity
  8
0
  6
CONTINUOUS
 62
     7
100
AcDbLine
 10
-5.714324000803403
 20
-33.00001907348633
 11
-12.00000762939453
 21
-26.71434801624989
  0
LINE
  5
4b8
100
AcDbEntity
  8
0
  6
CONTINUOUS
 62
     7
100
AcDbLine
 10
-7.398123682016284
 20
-33.00001907348633
 11
-12.00000762939453
 21
-28.39814432986677
  0
LINE
  5
4b9
100
AcDbEntity
  8
0
  6
CONTINUOUS
 62
     7
100
AcDbLine
 10
-9.081923363229162
 20
-33.00001907348633
 11
-12.00000762939453
 21
-30.08194064348366
  0
LINE
  5
4ba
100
AcDbEntity
  8
0
  6
CONTINUOUS
 62
     7
100
AcDbLine
 10
-10.76572304444204
 20
-33.00001907348633
 11
-12.00000762939453
 21
-31.76573695710054
  0
ENDBLK
  8
0
  5
4bb
100
AcDbEntity
100
AcDbBlockEnd
  0
BLOCK
  8
0
  5
4bc
100
AcDbEntity
100
AcDbBlockBegin
  2
KOZU0009
 70
    64
 10
0
 20
0
  0
LINE
  5
4bd
100
AcDbEntity
  8
0
  6
CONTINUOUS
 62
     3
100
AcDbLine
 10
25.02359788558666
 20
12.05001926422119
 11
25.99998474121094
 21
13.02640811530045
  0
LINE
  5
4be
100
AcDbEntity
  8
0
  6
CONTINUOUS
 62
     3
100
AcDbLine
 10
23.22754903215035
 20
12.05001926422119
 11
25.99998474121095
 21
14.82246063934601
  0
LINE
  5
4bf
100
AcDbEntity
  8
0
  6
CONTINUOUS
 62
     3
100
AcDbLine
 10
22.99998474121094
 20
13.61850703225114
 11
25.99998474121095
 21
16.61851316339158
  0
LINE
  5
4c0
100
AcDbEntity
  8
0
  6
CONTINUOUS
 62
     3
100
AcDbLine
 10
22.99998474121094
 20
15.4145595562967
 11
25.53543221021732
 21
17.95001220703125
  0
LINE
  5
4c1
100
AcDbEntity
  8
0
  6
CONTINUOUS
 62
     3
100
AcDbLine
 10
22.99998474121094
 20
17.21061208034227
 11
23.73938335678101
 21
17.95001220703125
  0
LINE
  5
4c2
100
AcDbEntity
  8
0
  6
CONTINUOUS
 62
     3
100
AcDbLine
 10
25.99998474121094
 20
17.92079959229549
 11
25.97077206677296
 21
17.95001220703125
  0
LINE
  5
4c3
100
AcDbEntity
  8
0
  6
CONTINUOUS
 62
     3
100
AcDbLine
 10
25.99998474121094
 20
16.12475073885917
 11
24.1747195427274
 21
17.95001220703125
  0
LINE
  5
4c4
100
AcDbEntity
  8
0
  6
CONTINUOUS
 62
     3
100
AcDbLine
 10
25.99998474121094
 20
14.32870188542286
 11
22.99998474121094
 21
17.32869575429496
  0
LINE
  5
4c5
100
AcDbEntity
  8
0
  6
CONTINUOUS
 62
     3
100
AcDbLine
 10
25.99998474121094
 20
12.53265303198654
 11
22.99998474121094
 21
15.53264690085864
  0
LINE
  5
4c6
100
AcDbEntity
  8
0
  6
CONTINUOUS
 62
     3
100
AcDbLine
 10
24.68656697129586
 20
12.05001926422119
 11
22.99998474121094
 21
13.73659804742232
  0
ENDBLK
  8
0
  5
4c7
100
AcDbEntity
100
AcDbBlockEnd
  0
BLOCK
  8
0
  5
4c8
100
AcDbEntity
100
AcDbBlockBegin
  2
KOZU0010
 70
    64
 10
0
 20
0
  0
LINE
  5
4c9
100
AcDbEntity
  8
0
  6
CONTINUOUS
 62
     7
100
AcDbLine
 10
10.77673467431
 20
-33.00001907348633
 11
12.00000762939453
 21
-31.77674367185345
  0
LINE
  5
4ca
100
AcDbEntity
  8
0
  6
CONTINUOUS
 62
     7
100
AcDbLine
 10
9.092938360693117
 20
-33.00001907348633
 11
12.00000762939453
 21
-30.09294399064056
  0
LINE
  5
4cb
100
AcDbEntity
  8
0
  6
CONTINUOUS
 62
     7
100
AcDbLine
 10
7.40914204707623
 20
-33.00001907348633
 11
12.00000762939453
 21
-28.40914430942768
  0
LINE
  5
4cc
100
AcDbEntity
  8
0
  6
CONTINUOUS
 62
     7
100
AcDbLine
 10
5.725345733459346
 20
-33.00001907348633
 11
12.00000762939453
 21
-26.7253446282148
  0
LINE
  5
4cd
100
AcDbEntity
  8
0
  6
CONTINUOUS
 62
     7
100
AcDbLine
 10
4.041549419842463
 20
-33.00001907348633
 11
12.00000762939453
 21
-25.04154494700192
  0
LINE
  5
4ce
100
AcDbEntity
  8
0
  6
CONTINUOUS
 62
     7
100
AcDbLine
 10
2.357753106225578
 20
-33.00001907348633
 11
12.00000762939453
 21
-23.35774526578904
  0
LINE
  5
4cf
100
AcDbEntity
  8
0
  6
CONTINUOUS
 62
     7
100
AcDbLine
 10
2.000007629394531
 20
-31.67396558459616
 11
10.67393488528387
 21
-23.00002098083496
  0
LINE
  5
4d0
100
AcDbEntity
  8
0
  6
CONTINUOUS
 62
     7
100
AcDbLine
 10
2.000007629394531
 20
-29.99016590338328
 11
8.990138571666986
 21
-23.00002098083496
  0
LINE
  5
4d1
100
AcDbEntity
  8
0
  6
CONTINUOUS
 62
     7
100
AcDbLine
 10
2.000007629394533
 20
-28.3063662221704
 11
7.306342258050099
 21
-23.00002098083496
  0
LINE
  5
4d2
100
AcDbEntity
  8
0
  6
CONTINUOUS
 62
     7
100
AcDbLine
 10
2.000007629394531
 20
-26.62256654095752
 11
5.622545944433215
 21
-23.00002098083496
  0
LINE
  5
4d3
100
AcDbEntity
  8
0
  6
CONTINUOUS
 62
     7
100
AcDbLine
 10
2.000007629394533
 20
-24.93876685974464
 11
3.93874963081633
 21
-23.00002098083496
  0
LINE
  5
4d4
100
AcDbEntity
  8
0
  6
CONTINUOUS
 62
     7
100
AcDbLine
 10
2.00000762939453
 20
-23.25496717853176
 11
2.254953317199444
 21
-23.00002098083496
  0
LINE
  5
4d5
100
AcDbEntity
  8
0
  6
CONTINUOUS
 62
     7
100
AcDbLine
 10
12.00000762939453
 20
-23.77357425718627
 11
11.22645280593513
 21
-23.00002098083496
  0
LINE
  5
4d6
100
AcDbEntity
  8
0
  6
CONTINUOUS
 62
     7
100
AcDbLine
 10
12.00000762939453
 20
-25.45737057080315
 11
9.542653124722246
 21
-23.00002098083496
  0
LINE
  5
4d7
100
AcDbEntity
  8
0
  6
CONTINUOUS
 62
     7
100
AcDbLine
 10
12.00000762939453
 20
-27.14116688442003
 11
7.858853443509368
 21
-23.00002098083496
  0
LINE
  5
4d8
100
AcDbEntity
  8
0
  6
CONTINUOUS
 62
     7
100
AcDbLine
 10
12.00000762939453
 20
-28.82496319803692
 11
6.175053762296487
 21
-23.00002098083496
  0
LINE
  5
4d9
100
AcDbEntity
  8
0
  6
CONTINUOUS
 62
     7
100
AcDbLine
 10
12.00000762939453
 20
-30.5087595116538
 11
4.491254081083605
 21
-23.00002098083496
  0
LINE
  5
4da
100
AcDbEntity
  8
0
  6
CONTINUOUS
 62
     7
100
AcDbLine
 10
12.00000762939453
 20
-32.19255582527069
 11
2.807454399870727
 21
-23.00002098083496
  0
LINE
  5
4db
100
AcDbEntity
  8
0
  6
CONTINUOUS
 62
     7
100
AcDbLine
 10
11.1236728113254
 20
-33.00001907348633
 11
2.000007629394533
 21
-23.87637213886758
  0
LINE
  5
4dc
100
AcDbEntity
  8
0
  6
CONTINUOUS
 62
     7
100
AcDbLine
 10
9.439873130112522
 20
-33.00001907348633
 11
2.000007629394531
 21
-25.56016845248446
  0
LINE
  5
4dd
100
AcDbEntity
  8
0
  6
CONTINUOUS
 62
     7
100
AcDbLine
 10
7.756073448899645
 20
-33.00001907348633
 11
2.000007629394533
 21
-27.24396476610135
  0
LINE
  5
4de
100
AcDbEntity
  8
0
  6
CONTINUOUS
 62
     7
100
AcDbLine
 10
6.072273767686765
 20
-33.00001907348633
 11
2.000007629394535
 21
-28.92776107971823
  0
LINE
  5
4df
100
AcDbEntity
  8
0
  6
CONTINUOUS
 62
     7
100
AcDbLine
 10
4.388474086473883
 20
-33.00001907348633
 11
2.00000762939453
 21
-30.61155739333512
  0
LINE
  5
4e0
100
AcDbEntity
  8
0
  6
CONTINUOUS
 62
     7
100
AcDbLine
 10
2.704674405261002
 20
-33.00001907348633
 11
2.000007629394535
 21
-32.29535370695201
  0
ENDBLK
  8
0
  5
4e1
100
AcDbEntity
100
AcDbBlockEnd
  0
BLOCK
  8
0
  5
4e2
100
AcDbEntity
100
AcDbBlockBegin
  2
KOZU0011
 70
    64
 10
0
 20
0
  0
LINE
  5
4e3
100
AcDbEntity
  8
0
  6
CONTINUOUS
 62
     3
100
AcDbLine
 10
-23.46972115719391
 20
12.0500192642212
 11
-22.99998474121094
 21
12.51975664021081
  0
LINE
  5
4e4
100
AcDbEntity
  8
0
  6
CONTINUOUS
 62
     3
100
AcDbLine
 10
-25.26577001063023
 20
12.05001926422119
 11
-22.99998474121094
 21
14.31580916425637
  0
LINE
  5
4e5
100
AcDbEntity
  8
0
  6
CONTINUOUS
 62
     3
100
AcDbLine
 10
-25.99998474121094
 20
13.1118555571615
 11
-22.99998474121094
 21
16.11186168830194
  0
LINE
  5
4e6
100
AcDbEntity
  8
0
  6
CONTINUOUS
 62
     3
100
AcDbLine
 10
-25.99998474121094
 20
14.90790808120707
 11
-22.99998474121094
 21
17.9079142123475
  0
LINE
  5
4e7
100
AcDbEntity
  8
0
  6
CONTINUOUS
 62
     3
100
AcDbLine
 10
-25.99998474121094
 20
16.70396060525263
 11
-24.75393568599957
 21
17.95001220703125
  0
LINE
  5
4e8
100
AcDbEntity
  8
0
  6
CONTINUOUS
 62
     3
100
AcDbLine
 10
-22.99998474121094
 20
16.63130103680715
 11
-24.31869860650284
 21
17.95001220703125
  0
LINE
  5
4e9
100
AcDbEntity
  8
0
  6
CONTINUOUS
 62
     3
100
AcDbLine
 10
-22.99998474121094
 20
14.83525218337083
 11
-25.99998474121094
 21
17.83524605224293
  0
LINE
  5
4ea
100
AcDbEntity
  8
0
  6
CONTINUOUS
 62
     3
100
AcDbLine
 10
-22.99998474121094
 20
13.03920332993451
 11
-25.99998474121094
 21
16.03919719880661
  0
LINE
  5
4eb
100
AcDbEntity
  8
0
  6
CONTINUOUS
 62
     3
100
AcDbLine
 10
-23.80685117793438
 20
12.0500192642212
 11
-25.99998474121094
 21
14.24314834537029
  0
LINE
  5
4ec
100
AcDbEntity
  8
0
  6
CONTINUOUS
 62
     3
100
AcDbLine
 10
-25.60290370197995
 20
12.0500192642212
 11
-25.99998474121094
 21
12.44709949193398
  0
ENDBLK
  8
0
  5
4ed
100
AcDbEntity
100
AcDbBlockEnd
  0
BLOCK
  8
0
  5
4ee
100
AcDbEntity
100
AcDbBlockBegin
  2
KOZU0012
 70
    64
 10
0
 20
0
  0
LINE
  5
4ef
100
AcDbEntity
  8
0
  6
CONTINUOUS
 62
     7
100
AcDbLine
 10
10.77673467431
 20
-33.00001907348633
 11
11.99996948242188
 21
-31.77678181890239
  0
LINE
  5
4f0
100
AcDbEntity
  8
0
  6
CONTINUOUS
 62
     7
100
AcDbLine
 10
9.092938360693117
 20
-33.00001907348633
 11
11.99996948242188
 21
-30.09298213768951
  0
LINE
  5
4f1
100
AcDbEntity
  8
0
  6
CONTINUOUS
 62
     7
100
AcDbLine
 10
7.40914204707623
 20
-33.00001907348633
 11
11.99996948242188
 21
-28.40918245647663
  0
LINE
  5
4f2
100
AcDbEntity
  8
0
  6
CONTINUOUS
 62
     7
100
AcDbLine
 10
5.725345733459346
 20
-33.00001907348633
 11
11.99996948242187
 21
-26.72538277526375
  0
LINE
  5
4f3
100
AcDbEntity
  8
0
  6
CONTINUOUS
 62
     7
100
AcDbLine
 10
4.041549419842463
 20
-33.00001907348633
 11
11.99996948242188
 21
-25.04158309405087
  0
LINE
  5
4f4
100
AcDbEntity
  8
0
  6
CONTINUOUS
 62
     7
100
AcDbLine
 10
2.357753106225578
 20
-33.00001907348633
 11
11.99996948242188
 21
-23.35778341283799
  0
LINE
  5
4f5
100
AcDbEntity
  8
0
  6
CONTINUOUS
 62
     7
100
AcDbLine
 10
1.999969482421875
 20
-31.67400373164512
 11
10.67393488528387
 21
-23.00002098083496
  0
LINE
  5
4f6
100
AcDbEntity
  8
0
  6
CONTINUOUS
 62
     7
100
AcDbLine
 10
1.999969482421873
 20
-29.99020405043223
 11
8.990138571666986
 21
-23.00002098083496
  0
LINE
  5
4f7
100
AcDbEntity
  8
0
  6
CONTINUOUS
 62
     7
100
AcDbLine
 10
1.999969482421873
 20
-28.30640436921935
 11
7.306342258050099
 21
-23.00002098083496
  0
LINE
  5
4f8
100
AcDbEntity
  8
0
  6
CONTINUOUS
 62
     7
100
AcDbLine
 10
1.999969482421875
 20
-26.62260468800647
 11
5.622545944433215
 21
-23.00002098083496
  0
LINE
  5
4f9
100
AcDbEntity
  8
0
  6
CONTINUOUS
 62
     7
100
AcDbLine
 10
1.999969482421873
 20
-24.93880500679359
 11
3.93874963081633
 21
-23.00002098083496
  0
LINE
  5
4fa
100
AcDbEntity
  8
0
  6
CONTINUOUS
 62
     7
100
AcDbLine
 10
1.999969482421873
 20
-23.25500532558071
 11
2.254953317199444
 21
-23.00002098083496
  0
LINE
  5
4fb
100
AcDbEntity
  8
0
  6
CONTINUOUS
 62
     7
100
AcDbLine
 10
11.99996948242188
 20
-23.7735361102899
 11
11.22645280593513
 21
-23.00002098083496
  0
LINE
  5
4fc
100
AcDbEntity
  8
0
  6
CONTINUOUS
 62
     7
100
AcDbLine
 10
11.99996948242187
 20
-25.45733242390678
 11
9.542653124722246
 21
-23.00002098083496
  0
LINE
  5
4fd
100
AcDbEntity
  8
0
  6
CONTINUOUS
 62
     7
100
AcDbLine
 10
11.99996948242187
 20
-27.14112873752367
 11
7.858853443509368
 21
-23.00002098083496
  0
LINE
  5
4fe
100
AcDbEntity
  8
0
  6
CONTINUOUS
 62
     7
100
AcDbLine
 10
11.99996948242188
 20
-28.82492505114055
 11
6.175053762296487
 21
-23.00002098083496
  0
LINE
  5
4ff
100
AcDbEntity
  8
0
  6
CONTINUOUS
 62
     7
100
AcDbLine
 10
11.99996948242187
 20
-30.50872136475744
 11
4.491254081083605
 21
-23.00002098083496
  0
LINE
  5
500
100
AcDbEntity
  8
0
  6
CONTINUOUS
 62
     7
100
AcDbLine
 10
11.99996948242187
 20
-32.19251767837433
 11
2.807454399870727
 21
-23.00002098083496
  0
LINE
  5
501
100
AcDbEntity
  8
0
  6
CONTINUOUS
 62
     7
100
AcDbLine
 10
11.1236728113254
 20
-33.00001907348633
 11
1.999969482421875
 21
-23.87633399197122
  0
LINE
  5
502
100
AcDbEntity
  8
0
  6
CONTINUOUS
 62
     7
100
AcDbLine
 10
9.439873130112522
 20
-33.00001907348633
 11
1.999969482421871
 21
-25.5601303055881
  0
LINE
  5
503
100
AcDbEntity
  8
0
  6
CONTINUOUS
 62
     7
100
AcDbLine
 10
7.756073448899645
 20
-33.00001907348633
 11
1.999969482421875
 21
-27.24392661920498
  0
LINE
  5
504
100
AcDbEntity
  8
0
  6
CONTINUOUS
 62
     7
100
AcDbLine
 10
6.072273767686765
 20
-33.00001907348633
 11
1.999969482421875
 21
-28.92772293282187
  0
LINE
  5
505
100
AcDbEntity
  8
0
  6
CONTINUOUS
 62
     7
100
AcDbLine
 10
4.388474086473883
 20
-33.00001907348633
 11
1.999969482421873
 21
-30.61151924643875
  0
LINE
  5
506
100
AcDbEntity
  8
0
  6
CONTINUOUS
 62
     7
100
AcDbLine
 10
2.704674405261002
 20
-33.00001907348633
 11
1.999969482421875
 21
-32.29531556005564
  0
ENDBLK
  8
0
  5
507
100
AcDbEntity
100
AcDbBlockEnd
  0
ENDSEC
  0
SECTION
  2
ENTITIES
  0
LINE
  5
508
100
AcDbEntity
  8
0
  6
CONTINUOUS
 62
     7
100
AcDbLine
 10
213.8460693359375
 20
-34.3175048828125
 11
356.2877197265625
 21
-34.3175048828125
  0
LINE
  5
509
100
AcDbEntity
  8
0
  6
CONTINUOUS
 62
     7
100
AcDbLine
 10
213.8460998535156
 20
-34.3175048828125
 11
213.8460998535156
 21
-70.2410888671875
  0
LINE
  5
50a
100
AcDbEntity
  8
0
  6
CONTINUOUS
 62
     7
100
AcDbLine
 10
213.8460693359375
 20
-70.2410888671875
 11
356.2877197265625
 21
-70.2410888671875
  0
LINE
  5
50b
100
AcDbEntity
  8
0
  6
CONTINUOUS
 62
     7
100
AcDbLine
 10
356.2877197265625
 20
-34.3175048828125
 11
356.2877197265625
 21
-70.2410888671875
  0
MTEXT
  5
50c
100
AcDbEntity
  8
0
  6
CONTINUOUS
 62
     7
100
AcDbMText
 10
218.5428273677826
 20
-54.64250946044922
 40
6
 41
72
 71
     7
 72
     1
  1
{\W0.855331;品　名}
  0
MTEXT
  5
50d
100
AcDbEntity
  8
0
  6
CONTINUOUS
 62
     7
100
AcDbMText
 10
218.5428273677826
 20
-65.76358032226563
 40
6
 41
72
 71
     7
 72
     1
  1
{\W0.855331;型　番}
  0
MTEXT
  5
50e
100
AcDbEntity
  8
0
  6
CONTINUOUS
 62
     7
100
AcDbMText
 10
248.2428548336029
 20
-65.76358032226563
 40
6
 41
432
 71
     7
 72
     1
  1
{\W0.842599;ＢＮ－５ＢＰ２１－１５－Ｇ／Ｈ＊＊＊}
  0
MTEXT
  5
50f
100
AcDbEntity
  8
0
  6
CONTINUOUS
 62
     7
100
AcDbMText
 10
248.2428548336029
 20
-54.64250946044922
 40
6
 41
168
 71
     7
 72
     1
  1
{\W0.846334;シリンダ操作弁}
  0
MTEXT
  5
510
100
AcDbEntity
  8
0
  6
CONTINUOUS
 62
     7
100
AcDbMText
 10
254.0221974849701
 20
-43.94406127929688
 40
6
 41
192
 71
     7
 72
     1
  1
{\W0.845552;日本精器株式会社}
  0
MTEXT
  5
511
100
AcDbEntity
  8
0
  6
CONTINUOUS
 62
     7
100
AcDbMText
 10
208.0513657331467
 20
201.0096130371094
 40
5
 41
40
 71
     7
 72
     1
  1
{\W0.864328;ＥＸ}
  0
MTEXT
  5
512
100
AcDbEntity
  8
0
  6
CONTINUOUS
 62
     7
100
AcDbMText
 10
98.82486422415133
 20
215.3867639852453
 40
8
 41
64
 71
     7
 72
     1
  1
{\W0.864328;＊１}
  0
MTEXT
  5
513
100
AcDbEntity
  8
0
  6
CONTINUOUS
 62
     7
100
AcDbMText
 10
96.35422931017699
 20
256.5640125514843
 40
8
 41
64
 71
     7
 72
     1
  1
{\W0.864328;＊２}
  0
MTEXT
  5
514
100
AcDbEntity
  8
0
  6
CONTINUOUS
 62
     7
100
AcDbMText
 10
-122.7087330622144
 20
212.0925840999462
 40
8
 41
64
 71
     7
 72
     1
  1
{\W0.864328;＊３}
  0
MTEXT
  5
515
100
AcDbEntity
  8
0
  6
CONTINUOUS
 62
     7
100
AcDbMText
 10
143.2962926756894
 20
215.3867639852453
 40
8
 41
64
 71
     7
 72
     1
  1
{\W0.864328;＊４}
  0
MTEXT
  5
516
100
AcDbEntity
  8
0
  6
CONTINUOUS
 62
     7
100
AcDbMText
 10
318.7113715678675
 20
213.7396740425958
 40
8
 41
64
 71
     7
 72
     1
  1
{\W0.864328;＊５}
  0
MTEXT
  5
517
100
AcDbEntity
  8
0
  6
CONTINUOUS
 62
     7
100
AcDbMText
 10
98.00131925282655
 20
-37.44154221146195
 40
8
 41
64
 71
     7
 72
     1
  1
{\W0.864328;＊６}
  0
LINE
  5
518
100
AcDbEntity
  8
0
  6
CONTINUOUS
 62
     7
100
AcDbLine
 10
200.0893706058472
 20
202.8846140106453
 11
202.5893706058471
 21
202.8846135238773
  0
LINE
  5
519
100
AcDbEntity
  8
0
  6
CONTINUOUS
 62
     7
100
AcDbLine
 10
200.0893708492312
 20
204.1346140106453
 11
202.5893708492311
 21
204.1346135238773
  0
LINE
  5
51a
100
AcDbEntity
  8
0
  6
CONTINUOUS
 62
     7
100
AcDbLine
 10
205.0893570499271
 20
203.5096116562289
 11
202.5893652029833
 21
206.0096044767057
  0
LINE
  5
51b
100
AcDbEntity
  8
0
  6
CONTINUOUS
 62
     7
100
AcDbLine
 10
202.5893639244595
 20
201.0096195042943
 11
205.0893570499271
 21
203.5096116562289
  0
LINE
  5
51c
100
AcDbEntity
  8
0
  6
CONTINUOUS
 62
     7
100
AcDbLine
 10
202.5893702407712
 20
201.0096135238774
 11
202.5893706058471
 21
202.8846135238773
  0
LINE
  5
51d
100
AcDbEntity
  8
0
  6
CONTINUOUS
 62
     7
100
AcDbLine
 10
200.0893706058472
 20
202.8846140106453
 11
200.0893708492312
 21
204.1346140106453
  0
LINE
  5
51e
100
AcDbEntity
  8
0
  6
CONTINUOUS
 62
     7
100
AcDbLine
 10
202.5893708492311
 20
204.1346135238773
 11
202.5893712143071
 21
206.0096135238773
  0
INSERT
  5
51f
100
AcDbEntity
  8
0
  6
CONTINUOUS
 62
     7
100
AcDbBlockReference
  2
KOZU0001
 10
-10.03706359863281
 20
56.95845031738281
  0
INSERT
  5
520
100
AcDbEntity
  8
0
  6
CONTINUOUS
 62
     7
100
AcDbBlockReference
  2
KOZU0002
 10
-10.03706359863281
 20
284.6476745605469
  0
INSERT
  5
521
100
AcDbEntity
  8
0
  6
CONTINUOUS
 62
     7
100
AcDbBlockReference
  2
KOZU0003
 10
-149.5444488525391
 20
56.95845031738281
  0
INSERT
  5
522
100
AcDbEntity
  8
0
  6
CONTINUOUS
 62
     7
100
AcDbBlockReference
  2
KOZU0004
 10
175.7203216552734
 20
56.95845031738281
  0
INSERT
  5
523
100
AcDbEntity
  8
0
  6
CONTINUOUS
 62
     7
100
AcDbBlockReference
  2
KOZU0005
 10
371.4777221679688
 20
56.95845031738281
  0
INSERT
  5
524
100
AcDbEntity
  8
0
  6
CONTINUOUS
 62
     7
100
AcDbBlockReference
  2
KOZU0006
 10
-10.03706359863281
 20
-59.84048461914063
  0
LINE
  5
525
100
AcDbEntity
  8
0
  6
CONTINUOUS
 62
     7
100
AcDbLine
 10
-32.94596737723067
 20
146.6805575550027
 11
-42.56663011445983
 21
162.6263976629791
  0
LINE
  5
526
100
AcDbEntity
  8
0
  6
CONTINUOUS
 62
     7
100
AcDbLine
 10
-32.94596737723067
 20
146.6805575550027
 11
-35.35197755068089
 21
148.7326576365982
  0
LINE
  5
527
100
AcDbEntity
  8
0
  6
CONTINUOUS
 62
     7
100
AcDbLine
 10
-32.94596737723067
 20
146.6805575550027
 11
-33.63951546703356
 21
149.7658437243492
  0
MTEXT
  5
528
100
AcDbEntity
  8
0
  6
CONTINUOUS
 62
     7
100
AcDbMText
 10
-79.18483471870422
 20
160.1264038085938
 40
5
 41
100
 71
     7
 72
     1
  1
{\W0.848905;Ｒｃ１／４}
  0
MTEXT
  5
529
100
AcDbEntity
  8
0
  6
CONTINUOUS
 62
     7
100
AcDbMText
 10
-79.18483471870422
 20
152.6264038085938
 40
5
 41
60
 71
     7
 72
     1
  1
{\W0.855331;操作口}
  0
LINE
  5
52a
100
AcDbEntity
  8
0
  6
CONTINUOUS
 62
     7
100
AcDbLine
 10
-32.94596737723067
 20
146.6805575550027
 11
-42.56663011445983
 21
162.6263976629791
  0
LINE
  5
52b
100
AcDbEntity
  8
0
  6
CONTINUOUS
 62
     7
100
AcDbLine
 10
-42.56663011445984
 20
162.6263976629791
 11
-53.04183197021484
 21
162.6263976629791
  0
LINE
  5
52c
100
AcDbEntity
  8
0
  6
CONTINUOUS
 62
     7
100
AcDbLine
 10
149.5367306846336
 20
72.22512921285497
 11
143.2316163048243
 21
83.13642945261759
  0
LINE
  5
52d
100
AcDbEntity
  8
0
  6
CONTINUOUS
 62
     7
100
AcDbLine
 10
149.5367306846336
 20
72.22512921285497
 11
147.1699164827093
 21
74.32231547859286
  0
LINE
  5
52e
100
AcDbEntity
  8
0
  6
CONTINUOUS
 62
     7
100
AcDbLine
 10
149.5367306846336
 20
72.22512921285497
 11
148.9015910825369
 21
75.32296674659985
  0
MTEXT
  5
52f
100
AcDbEntity
  8
0
  6
CONTINUOUS
 62
     7
100
AcDbMText
 10
138.0548553466797
 20
83.13643646240234
 40
5
 41
120
 71
     6
 72
     1
  1
{\W0.847393;シリンダＥＸ}
  0
LINE
  5
530
100
AcDbEntity
  8
0
  6
CONTINUOUS
 62
     7
100
AcDbLine
 10
149.5367306846336
 20
72.22512921285497
 11
143.2316163048243
 21
83.13642945261759
  0
LINE
  5
531
100
AcDbEntity
  8
0
  6
CONTINUOUS
 62
     7
100
AcDbLine
 10
143.2316163048242
 20
83.13642945261756
 11
139.1978607177734
 21
83.13642945261756
  0
DIMENSION
  5
532
100
AcDbEntity
  8
0
  6
CONTINUOUS
 62
     7
100
AcDbDimension
  2
*D1
 70
     0
 10
237.8523864746094
 20
20.95843505859375
 11
237.8523864746094
 21
38.95844268798828
  3
DIMSTYLE
100
AcDbAlignedDimension
 13
228.7352600097656
 23
56.95845031738281
 14
213.5953369140625
 24
20.95843505859375
 50
90
100
AcDbRotatedDimension
1001
ACAD
1000
DSTYLE
1002
{
1070
     6
1000
_OPEN30
1070
     7
1000
_OPEN30
1070
    77
1070
     1
1070
   172
1070
     1
1070
    42
1040
0
1002
}
  0
DIMENSION
  5
533
100
AcDbEntity
  8
0
  6
CONTINUOUS
 62
     7
100
AcDbDimension
  2
*D2
 70
     0
 10
201.7203521728516
 20
-6.973602294921875
 11
175.7203521728516
 21
-6.973602294921875
  3
DIMSTYLE
100
AcDbAlignedDimension
 13
149.7203369140625
 23
46.95845413208008
 14
201.7203521728516
 24
46.95845413208008
 50
0
100
AcDbRotatedDimension
1001
ACAD
1000
DSTYLE
1002
{
1070
     6
1000
_OPEN30
1070
     7
1000
_OPEN30
1070
    77
1070
     1
1070
   172
1070
     1
1070
    42
1040
0
1002
}
  0
DIMENSION
  5
534
100
AcDbEntity
  8
0
  6
CONTINUOUS
 62
     7
100
AcDbDimension
  2
*D3
 70
     0
 10
24.96295928955078
 20
3.159873962402344
 11
-10.03707885742188
 21
3.159873962402344
  3
DIMSTYLE
100
AcDbAlignedDimension
 13
-45.03707885742188
 23
43.45845794677734
 14
24.96295928955078
 24
43.45845794677734
 50
0
100
AcDbRotatedDimension
1001
ACAD
1000
DSTYLE
1002
{
1070
     6
1000
_OPEN30
1070
     7
1000
_OPEN30
1070
    77
1070
     1
1070
   172
1070
     1
1070
    42
1040
0
1002
}
  0
DIMENSION
  5
535
100
AcDbEntity
  8
0
  6
CONTINUOUS
 62
     7
100
AcDbDimension
  2
*D4
 70
     0
 10
237.8523864746094
 20
207.9585266113281
 11
237.8523864746094
 21
132.4584808349609
  3
DIMSTYLE
100
AcDbAlignedDimension
 13
184.2657241821289
 23
56.95845031738281
 14
219.70458984375
 24
207.9584655761719
 50
90
100
AcDbRotatedDimension
1001
ACAD
1000
DSTYLE
1002
{
1070
     6
1000
_OPEN30
1070
     7
1000
_OPEN30
1070
    77
1070
     1
1070
   172
1070
     1
1070
    42
1040
0
1002
}
  0
DIMENSION
  5
536
100
AcDbEntity
  8
0
  6
CONTINUOUS
 62
     7
100
AcDbDimension
  2
*D5
 70
     0
 10
250.2425842285156
 20
207.9585266113281
 11
250.2425842285156
 21
114.45849609375
  3
DIMSTYLE
100
AcDbAlignedDimension
 13
190.7203216552734
 23
20.95843505859375
 14
195.7203216552734
 24
207.9584655761719
 50
90
100
AcDbRotatedDimension
1001
ACAD
1000
DSTYLE
1002
{
1070
     6
1000
_OPEN30
1070
     7
1000
_OPEN30
1070
    77
1070
     1
1070
   172
1070
     1
1070
    42
1040
0
1002
}
  0
LINE
  5
537
100
AcDbEntity
  8
0
  6
CONTINUOUS
 62
     7
100
AcDbLine
 10
-39.23046213082431
 20
67.51205464901827
 11
-44.13961928711068
 21
84.27128029136516
  0
LINE
  5
538
100
AcDbEntity
  8
0
  6
CONTINUOUS
 62
     7
100
AcDbLine
 10
-39.23046213082431
 20
67.51205464901827
 11
-40.64911383577844
 21
70.35593492720339
  0
LINE
  5
539
100
AcDbEntity
  8
0
  6
CONTINUOUS
 62
     7
100
AcDbLine
 10
-39.23046213082431
 20
67.51205464901827
 11
-39.57043875046133
 21
70.67190331544515
  0
MTEXT
  5
53a
100
AcDbEntity
  8
0
  6
CONTINUOUS
 62
     7
100
AcDbMText
 10
-52.0675048828125
 20
84.27127838134766
 40
5
 41
140
 71
     6
 72
     1
  1
{\W0.846334;２－Ｒｃ１／２}
  0
LINE
  5
53b
100
AcDbEntity
  8
0
  6
CONTINUOUS
 62
     7
100
AcDbLine
 10
-39.23046213082431
 20
67.51205464901827
 11
-44.13961928711068
 21
84.27128029136516
  0
LINE
  5
53c
100
AcDbEntity
  8
0
  6
CONTINUOUS
 62
     7
100
AcDbLine
 10
-44.13961928711068
 20
84.27128029136514
 11
-50.92450332641602
 21
84.27128029136514
  0
LINE
  5
53d
100
AcDbEntity
  8
0
  6
CONTINUOUS
 62
     7
100
AcDbLine
 10
199.3167917983008
 20
71.45847941408528
 11
202.8163944646768
 21
82.18113389755524
  0
LINE
  5
53e
100
AcDbEntity
  8
0
  6
CONTINUOUS
 62
     7
100
AcDbLine
 10
199.3167917983008
 20
71.45847941408528
 11
199.7530446340356
 21
74.6064805513044
  0
LINE
  5
53f
100
AcDbEntity
  8
0
  6
CONTINUOUS
 62
     7
100
AcDbLine
 10
199.3167917983008
 20
71.45847941408528
 11
200.8215743120803
 21
74.25773954541342
  0
MTEXT
  5
540
100
AcDbEntity
  8
0
  6
CONTINUOUS
 62
     7
100
AcDbMText
 10
206.1410369873047
 20
82.18113708496094
 40
5
 41
100
 71
     4
 72
     1
  1
{\W0.848905;Ｍ５ドレン}
  0
LINE
  5
541
100
AcDbEntity
  8
0
  6
CONTINUOUS
 62
     7
100
AcDbLine
 10
199.3167917983008
 20
71.45847941408528
 11
202.8163944646768
 21
82.18113389755524
  0
LINE
  5
542
100
AcDbEntity
  8
0
  6
CONTINUOUS
 62
     7
100
AcDbLine
 10
202.8163944646768
 20
82.18113389755523
 11
204.9980316162109
 21
82.18113389755523
  0
DIMENSION
  5
543
100
AcDbEntity
  8
0
  6
CONTINUOUS
 62
     7
100
AcDbDimension
  2
*D6
 70
     0
 10
190.7203216552734
 20
4.509368896484375
 11
175.7203216552734
 21
4.509368896484375
  3
DIMSTYLE
100
AcDbAlignedDimension
 13
160.7203216552734
 23
22.45843887329102
 14
190.7203216552734
 24
22.45843887329102
 50
0
100
AcDbRotatedDimension
1001
ACAD
1000
DSTYLE
1002
{
1070
     6
1000
_OPEN30
1070
     7
1000
_OPEN30
1070
    77
1070
     1
1070
   172
1070
     1
1070
    42
1040
0
1002
}
  0
DIMENSION
  5
544
100
AcDbEntity
  8
0
  6
CONTINUOUS
 62
     7
100
AcDbDimension
  2
*D7
 70
     0
 10
89.96292114257813
 20
220.9530029296875
 11
39.96292877197266
 21
220.9530029296875
  3
DIMSTYLE
100
AcDbAlignedDimension
 13
-10.03706359863281
 23
207.9584808349609
 14
89.96292114257813
 24
155.9584350585938
 50
0
100
AcDbRotatedDimension
1001
ACAD
1000
DSTYLE
1002
{
1070
     6
1000
_OPEN30
1070
     7
1000
_OPEN30
1070
    77
1070
     1
1070
   172
1070
     1
1070
    42
1040
0
1002
}
  0
LINE
  5
545
100
AcDbEntity
  8
0
  6
CONTINUOUS
 62
     7
100
AcDbLine
 10
81.59213572919923
 20
153.2999021931884
 11
97.11124352831212
 21
172.5371200852684
  0
LINE
  5
546
100
AcDbEntity
  8
0
  6
CONTINUOUS
 62
     7
100
AcDbLine
 10
81.59213572919923
 20
153.2999021931884
 11
83.11873571749955
 21
156.087323971883
  0
LINE
  5
547
100
AcDbEntity
  8
0
  6
CONTINUOUS
 62
     7
100
AcDbLine
 10
81.59213572919923
 20
153.2999021931884
 11
83.99355589883537
 21
155.3815863348113
  0
MTEXT
  5
548
100
AcDbEntity
  8
0
  6
CONTINUOUS
 62
     7
100
AcDbMText
 10
102.4459381103516
 20
172.5371246337891
 40
5
 41
80
 71
     4
 72
     1
  1
{\W0.851241;Ｇ１／２}
  0
LINE
  5
549
100
AcDbEntity
  8
0
  6
CONTINUOUS
 62
     7
100
AcDbLine
 10
81.59213572919923
 20
153.2999021931884
 11
97.11124352831212
 21
172.5371200852684
  0
LINE
  5
54a
100
AcDbEntity
  8
0
  6
CONTINUOUS
 62
     7
100
AcDbLine
 10
97.11124352831213
 20
172.5371200852684
 11
101.3029403686523
 21
172.5371200852684
  0
DIMENSION
  5
54b
100
AcDbEntity
  8
0
  6
CONTINUOUS
 62
     7
100
AcDbDimension
  2
*D8
 70
     0
 10
190.7203216552734
 20
61.79971843087293
 11
139.331872540538
 21
61.79971843087293
  3
DIMSTYLE
100
AcDbAlignedDimension
 13
160.7203216552734
 23
64.82887649536133
 14
190.7203216552734
 24
64.82887649536133
 50
0
100
AcDbRotatedDimension
1001
ACAD
1000
DSTYLE
1002
{
1070
    77
1070
     1
1070
   172
1070
     1
1070
    42
1040
0
1002
}
  0
ENDSEC
  0
SECTION
  2
OBJECTS
  0
DICTIONARY
  5
54c
100
AcDbDictionary
  3
ACAD_GROUP
350
54d
  3
ACAD_MLINESTYLE
350
54e
  0
DICTIONARY
  5
54d
102
{ACAD_REACTORS
330
54c
102
}
100
AcDbDictionary
  0
DICTIONARY
  5
54e
102
{ACAD_REACTORS
330
54c
102
}
100
AcDbDictionary
  3
STANDARD
350
54f
  0
MLINESTYLE
  5
54f
102
{ACAD_REACTORS
330
54e
102
}
100
AcDbMlineStyle
  2
STANDARD
 70
     0
  3

 62
     0
 51
90
 52
90
 71
     2
 49
0.5
 62
   256
  6
BYLAYER
 49
-0.5
 62
   256
  6
BYLAYER
  0
ENDSEC
  0
EOF
