  0
SECTION
  2
HEADER
  9
$ACADVER
  1
AC1015
  9
$EXTMAX
 10
449.2396890137154
 20
380.1659574286668
 30
0
  9
$EXTMIN
 10
-206.6969939242492
 20
-109.2243021070801
 30
0
  9
$LIMMAX
 10
449.2396890137154
 20
380.1659574286668
  9
$LIMMIN
 10
-206.6969939242492
 20
-109.2243021070801
  9
$PLIMMAX
 10
449.2396890137154
 20
380.1659574286668
  9
$PLIMMIN
 10
-206.6969939242492
 20
-109.2243021070801
  9
$TEXTSIZE
 40
3.2
  9
$DIMSHO
 70
     0
  9
$DIMASZ
 40
1.0
  9
$DIMTAD
 70
     1
  9
$DIMTIH
 70
     0
  9
$DIMTOH
 70
     0
  9
$DIMEXE
 40
2.54
  9
$DIMEXO
 40
2.54
  9
$DIMTVP
 40
1.0
  9
$DIMSAH
 70
     1
  9
$DIMDLE
 40
0.0
  9
$DIMTXT
 40
4
  9
$DIMGAP
 40
2
  9
$DIMAUNIT
 70
     1
  9
$DIMDEC
 70
     1
  9
$HANDSEED
  5
     4cb
  9
$MEASUREMENT
 70
     1
  0
ENDSEC
  0
SECTION
  2
TABLES
  0
TABLE
  2
LTYPE
  5
25
100
AcDbSymbolTable
 70
    48
  0
LTYPE
  5
26
100
AcDbSymbolTableRecord
100
AcDbLinetypeTableRecord
  2
BYBLOCK
 70
    64
  3

 72
    65
 73
     0
 40
0.0
  0
LTYPE
  5
27
100
AcDbSymbolTableRecord
100
AcDbLinetypeTableRecord
  2
BYLAYER
 70
    64
  3

 72
    65
 73
     0
 40
0.0
  0
LTYPE
  5
28
100
AcDbSymbolTableRecord
100
AcDbLinetypeTableRecord
  2
CONTINUOUS
 70
    64
  3
Solid line
 72
    65
 73
     0
 40
0.0
  0
LTYPE
  5
29
100
AcDbSymbolTableRecord
100
AcDbLinetypeTableRecord
  2
DASHED
 70
    64
  3
Dashed __ __ __ __ __ __ __ __ __ __ __ __ __ _
 72
    65
 73
     2
 40
4.5
 49
3.0
 74
     0
 49
-1.5
 74
     0
  0
LTYPE
  5
2a
100
AcDbSymbolTableRecord
100
AcDbLinetypeTableRecord
  2
CENTER
 70
    64
  3
Center ____ _ ____ _ ____ _ ____ _ ____ _ ____
 72
    65
 73
     4
 74
     0
 40
12.0
 49
7.5
 74
     0
 49
-1.5
 74
     0
 49
1.5
 74
     0
 49
-1.5
 74
     0
  0
LTYPE
  5
2b
100
AcDbSymbolTableRecord
100
AcDbLinetypeTableRecord
  2
PHANTOM
 70
    64
  3
Phantom ______  __  __  ______  __  __  ______
 72
    65
 73
     6
 74
     0
 40
15.0
 49
7.5
 74
     0
 49
-1.5
 74
     0
 49
1.5
 74
     0
 49
-1.5
 74
     0
 49
1.5
 74
     0
 49
-1.5
 74
     0
  0
LTYPE
  5
2c
100
AcDbSymbolTableRecord
100
AcDbLinetypeTableRecord
  2
DOT
 70
    64
  3
Dot . . . . . . . . . . . . . . . . . . . . . .
 72
    65
 73
     2
 74
     0
 40
1.5
 49
0.0
 74
     0
 49
-1.5
 74
     0
  0
LTYPE
  5
2d
100
AcDbSymbolTableRecord
100
AcDbLinetypeTableRecord
  2
HIDDEN
 70
    64
  3
Hidden __ __ __ __ __ __ __ __ __ __ __ __ __ _
 72
    65
 73
     2
 74
     0
 40
4.5
 49
3.0
 74
     0
 49
-1.5
 74
     0
  0
LTYPE
  5
2e
100
AcDbSymbolTableRecord
100
AcDbLinetypeTableRecord
  2
BORDER
 70
    64
  3
Border __ __ . __ __ . __ __ . __ __ . __ __ .
 72
    65
 73
     6
 40
3.5
 49
1.0
 74
     0
 49
-0.5
 74
     0
 49
1.0
 74
     0
 49
-0.5
 74
     0
 49
0.0
 74
     0
 49
-0.5
 74
     0
  0
LTYPE
  5
2f
100
AcDbSymbolTableRecord
100
AcDbLinetypeTableRecord
  2
BORDER2
 70
    64
  3
Border (.5x) __.__.__.__.__.__.__.__.__.__.__.
 72
    65
 73
     6
 40
1.75
 49
0.5
 74
     0
 49
-0.25
 74
     0
 49
0.5
 74
     0
 49
-0.25
 74
     0
 49
0.0
 74
     0
 49
-0.25
 74
     0
  0
LTYPE
  5
30
100
AcDbSymbolTableRecord
100
AcDbLinetypeTableRecord
  2
BORDERX2
 70
    64
  3
Border (2x) ____  ____  .  ____  ____  .  ___
 72
    65
 73
     6
 40
7.0
 49
2.0
 74
     0
 49
-1.0
 74
     0
 49
2.0
 74
     0
 49
-1.0
 74
     0
 49
0.0
 74
     0
 49
-1.0
 74
     0
  0
LTYPE
  5
31
100
AcDbSymbolTableRecord
100
AcDbLinetypeTableRecord
  2
CENTER2
 70
    64
  3
Center (.5x) ___ _ ___ _ ___ _ ___ _ ___ _ ___
 72
    65
 73
     4
 40
6.0
 49
3.75
 74
     0
 49
-0.75
 74
     0
 49
0.75
 74
     0
 49
-0.75
 74
     0
  0
LTYPE
  5
32
100
AcDbSymbolTableRecord
100
AcDbLinetypeTableRecord
  2
CENTERX2
 70
    64
  3
Center (2x) ________  __  ________  __  _____
 72
    65
 73
     4
 40
24.0
 49
15.0
 74
     0
 49
-3.0
 74
     0
 49
3.0
 74
     0
 49
-3.0
 74
     0
  0
LTYPE
  5
33
100
AcDbSymbolTableRecord
100
AcDbLinetypeTableRecord
  2
DASHDOT
 70
    64
  3
Dash dot __ . __ . __ . __ . __ . __ . __ . __
 72
    65
 73
     4
 40
6.0
 49
3.0
 74
     0
 49
-1.5
 74
     0
 49
0.0
 74
     0
 49
-1.5
 74
     0
  0
LTYPE
  5
34
100
AcDbSymbolTableRecord
100
AcDbLinetypeTableRecord
  2
DASHDOT2
 70
    64
  3
Dash dot (.5x) _._._._._._._._._._._._._._._.
 72
    65
 73
     4
 40
3.0
 49
1.5
 74
     0
 49
-0.75
 74
     0
 49
0.0
 74
     0
 49
-0.75
 74
     0
  0
LTYPE
  5
35
100
AcDbSymbolTableRecord
100
AcDbLinetypeTableRecord
  2
DASHDOTX2
 70
    64
  3
Dash dot (2x) ____  .  ____  .  ____  .  ___
 72
    65
 73
     4
 40
12.0
 49
6.0
 74
     0
 49
-3.0
 74
     0
 49
0.0
 74
     0
 49
-3.0
 74
     0
  0
LTYPE
  5
36
100
AcDbSymbolTableRecord
100
AcDbLinetypeTableRecord
  2
DASHED2
 70
    64
  3
Dashed (.5x) _ _ _ _ _ _ _ _ _ _ _ _ _ _ _ _ _
 72
    65
 73
     2
 40
2.25
 49
1.5
 74
     0
 49
-0.75
 74
     0
  0
LTYPE
  5
37
100
AcDbSymbolTableRecord
100
AcDbLinetypeTableRecord
  2
DASHEDX2
 70
    64
  3
Dashed (2x) ____  ____  ____  ____  ____  ___
 72
    65
 73
     2
 40
9.0
 49
6.0
 74
     0
 49
-3.0
 74
     0
  0
LTYPE
  5
38
100
AcDbSymbolTableRecord
100
AcDbLinetypeTableRecord
  2
DIVIDE
 70
    64
  3
Divide ____ . . ____ . . ____ . . ____ . . ____
 72
    65
 73
     6
 40
7.5
 49
3.0
 74
     0
 49
-1.5
 74
     0
 49
0.0
 74
     0
 49
-1.5
 74
     0
 49
0.0
 74
     0
 49
-1.5
 74
     0
  0
LTYPE
  5
39
100
AcDbSymbolTableRecord
100
AcDbLinetypeTableRecord
  2
DIVIDE2
 70
    64
  3
Divide (.5x) __..__..__..__..__..__..__..__.._
 72
    65
 73
     6
 40
3.75
 49
1.5
 74
     0
 49
-0.75
 74
     0
 49
0.0
 74
     0
 49
-0.75
 74
     0
 49
0.0
 74
     0
 49
-0.75
 74
     0
  0
LTYPE
  5
3a
100
AcDbSymbolTableRecord
100
AcDbLinetypeTableRecord
  2
DIVIDEX2
 70
    64
  3
Divide (2x) ________  .  .  ________  .  .  _
 72
    65
 73
     6
 40
15.0
 49
6.0
 74
     0
 49
-3.0
 74
     0
 49
0.0
 74
     0
 49
-3.0
 74
     0
 49
0.0
 74
     0
 49
-3.0
 74
     0
  0
LTYPE
  5
3b
100
AcDbSymbolTableRecord
100
AcDbLinetypeTableRecord
  2
DOT2
 70
    64
  3
Dot (.5x) .....................................
 72
    65
 73
     2
 40
0.75
 49
0.0
 74
     0
 49
-0.75
 74
     0
  0
LTYPE
  5
3c
100
AcDbSymbolTableRecord
100
AcDbLinetypeTableRecord
  2
DOTX2
 70
    64
  3
Dot (2x) .  .  .  .  .  .  .  .  .  .  .  .  . 
 72
    65
 73
     2
 40
3.0
 49
0.0
 74
     0
 49
-3.0
 74
     0
  0
LTYPE
  5
3d
100
AcDbSymbolTableRecord
100
AcDbLinetypeTableRecord
  2
HIDDEN2
 70
    64
  3
Hidden (.5x) _ _ _ _ _ _ _ _ _ _ _ _ _ _ _ _ _
 72
    65
 73
     2
 40
2.25
 49
1.5
 74
     0
 49
-0.75
 74
     0
  0
LTYPE
  5
3e
100
AcDbSymbolTableRecord
100
AcDbLinetypeTableRecord
  2
HIDDENX2
 70
    64
  3
Hidden (2x) ____ ____ ____ ____ ____ ____ ____
 72
    65
 73
     2
 40
9.0
 49
6.0
 74
     0
 49
-3.0
 74
     0
  0
LTYPE
  5
3f
100
AcDbSymbolTableRecord
100
AcDbLinetypeTableRecord
  2
PHANTOM2
 70
    64
  3
Phantom (.5x) ___ _ _ ___ _ _ ___ _ _ ___ _ _
 72
    65
 73
     6
 40
7.5
 49
3.75
 74
     0
 49
-0.75
 74
     0
 49
0.75
 74
     0
 49
-0.75
 74
     0
 49
0.75
 74
     0
 49
-0.75
 74
     0
  0
LTYPE
  5
40
100
AcDbSymbolTableRecord
100
AcDbLinetypeTableRecord
  2
PHANTOMX2
 70
    64
  3
Phantom (2x) ____________    ____    ____   _
 72
    65
 73
     6
 40
30.0
 49
15.0
 74
     0
 49
-3.0
 74
     0
 49
3.0
 74
     0
 49
-3.0
 74
     0
 49
3.0
 74
     0
 49
-3.0
 74
     0
  0
LTYPE
  5
41
100
AcDbSymbolTableRecord
100
AcDbLinetypeTableRecord
  2
ACAD_ISO02W100
 70
     0
  3
ISO dash __ __ __ __ __ __ __ __ __ __ __ __ __
 72
    65
 73
     2
 40
15.0
 49
12.0
 74
     0
 49
-3.0
 74
     0
  0
LTYPE
  5
42
100
AcDbSymbolTableRecord
100
AcDbLinetypeTableRecord
  2
ACAD_ISO03W100
 70
     0
  3
ISO dash space __    __    __    __    __    __
 72
    65
 73
     2
 40
30.0
 49
12.0
 74
     0
 49
-18.0
 74
     0
  0
LTYPE
  5
43
100
AcDbSymbolTableRecord
100
AcDbLinetypeTableRecord
  2
ACAD_ISO04W100
 70
     0
  3
ISO long-dash dot ____ . ____ . ____ . ____ . _
 72
    65
 73
     4
 40
30.0
 49
24.0
 74
     0
 49
-3.0
 74
     0
 49
0.0
 74
     0
 49
-3.0
 74
     0
  0
LTYPE
  5
44
100
AcDbSymbolTableRecord
100
AcDbLinetypeTableRecord
  2
ACAD_ISO05W100
 70
     0
  3
ISO long-dash double-dot ____ .. ____ .. ____ .
 72
    65
 73
     6
 40
33.0
 49
24.0
 74
     0
 49
-3.0
 74
     0
 49
0.0
 74
     0
 49
-3.0
 74
     0
 49
0.0
 74
     0
 49
-3.0
 74
     0
  0
LTYPE
  5
45
100
AcDbSymbolTableRecord
100
AcDbLinetypeTableRecord
  2
ACAD_ISO06W100
 70
     0
  3
ISO long-dash triple-dot ____ ... ____ ... ____
 72
    65
 73
     8
 40
36.0
 49
24.0
 74
     0
 49
-3.0
 74
     0
 49
0.0
 74
     0
 49
-3.0
 74
     0
 49
0.0
 74
     0
 49
-3.0
 74
     0
 49
0.0
 74
     0
 49
-3.0
 74
     0
  0
LTYPE
  5
46
100
AcDbSymbolTableRecord
100
AcDbLinetypeTableRecord
  2
ACAD_ISO07W100
 70
     0
  3
ISO dot . . . . . . . . . . . . . . . . . . . .
 72
    65
 73
     2
 40
3.0
 49
0.0
 74
     0
 49
-3.0
 74
     0
  0
LTYPE
  5
47
100
AcDbSymbolTableRecord
100
AcDbLinetypeTableRecord
  2
ACAD_ISO08W100
 70
     0
  3
ISO long-dash short-dash ____ __ ____ __ ____ _
 72
    65
 73
     4
 40
36.0
 49
24.0
 74
     0
 49
-3.0
 74
     0
 49
6.0
 74
     0
 49
-3.0
 74
     0
  0
LTYPE
  5
48
100
AcDbSymbolTableRecord
100
AcDbLinetypeTableRecord
  2
ACAD_ISO09W100
 70
     0
  3
ISO long-dash double-short-dash ____ __ __ ____
 72
    65
 73
     6
 40
45.0
 49
24.0
 74
     0
 49
-3.0
 74
     0
 49
6.0
 74
     0
 49
-3.0
 74
     0
 49
6.0
 74
     0
 49
-3.0
 74
     0
  0
LTYPE
  5
49
100
AcDbSymbolTableRecord
100
AcDbLinetypeTableRecord
  2
ACAD_ISO10W100
 70
     0
  3
ISO dash dot __ . __ . __ . __ . __ . __ . __ .
 72
    65
 73
     4
 40
18.0
 49
12.0
 74
     0
 49
-3.0
 74
     0
 49
0.0
 74
     0
 49
-3.0
 74
     0
  0
LTYPE
  5
4a
100
AcDbSymbolTableRecord
100
AcDbLinetypeTableRecord
  2
ACAD_ISO11W100
 70
     0
  3
ISO double-dash dot __ __ . __ __ . __ __ . __ 
 72
    65
 73
     6
 40
33.0
 49
12.0
 74
     0
 49
-3.0
 74
     0
 49
12.0
 74
     0
 49
-3.0
 74
     0
 49
0.0
 74
     0
 49
-3.0
 74
     0
  0
LTYPE
  5
4b
100
AcDbSymbolTableRecord
100
AcDbLinetypeTableRecord
  2
ACAD_ISO12W100
 70
     0
  3
ISO dash double-dot __ . . __ . . __ . . __ . .
 72
    65
 73
     6
 40
21.0
 49
12.0
 74
     0
 49
-3.0
 74
     0
 49
0.0
 74
     0
 49
-3.0
 74
     0
 49
0.0
 74
     0
 49
-3.0
 74
     0
  0
LTYPE
  5
4c
100
AcDbSymbolTableRecord
100
AcDbLinetypeTableRecord
  2
ACAD_ISO13W100
 70
     0
  3
ISO double-dash double-dot __ __ . . __ __ . . 
 72
    65
 73
     8
 40
36.0
 49
12.0
 74
     0
 49
-3.0
 74
     0
 49
12.0
 74
     0
 49
-3.0
 74
     0
 49
0.0
 74
     0
 49
-3.0
 74
     0
 49
0.0
 74
     0
 49
-3.0
 74
     0
  0
LTYPE
  5
4d
100
AcDbSymbolTableRecord
100
AcDbLinetypeTableRecord
  2
ACAD_ISO14W100
 70
     0
  3
ISO dash triple-dot __ . . . __ . . . __ . . . 
 72
    65
 73
     8
 40
24.0
 49
12.0
 74
     0
 49
-3.0
 74
     0
 49
0.0
 74
     0
 49
-3.0
 74
     0
 49
0.0
 74
     0
 49
-3.0
 74
     0
 49
0.0
 74
     0
 49
-3.0
 74
     0
  0
LTYPE
  5
4e
100
AcDbSymbolTableRecord
100
AcDbLinetypeTableRecord
  2
ACAD_ISO15W100
 70
     0
  3
ISO double-dash triple-dot __ __ . . . __ __ . 
 72
    65
 73
    10
 40
39.0
 49
12.0
 74
     0
 49
-3.0
 74
     0
 49
12.0
 74
     0
 49
-3.0
 74
     0
 49
0.0
 74
     0
 49
-3.0
 74
     0
 49
0.0
 74
     0
 49
-3.0
 74
     0
 49
0.0
 74
     0
 49
-3.0
 74
     0
  0
LTYPE
  5
4f
100
AcDbSymbolTableRecord
100
AcDbLinetypeTableRecord
  2
FENCELINE1
 70
     0
  3
Fenceline circle ----0-----0----0-----0----0---
 72
    65
 73
     4
 40
1.45
 49
0.25
 74
     0
 49
-0.1
 74
     4
 75
   133
340
24
 46
0.1
 50
0.0
 44
-0.1
 45
0.0
 49
-0.1
 74
     0
 49
1.0
 74
     0
  0
LTYPE
  5
50
100
AcDbSymbolTableRecord
100
AcDbLinetypeTableRecord
  2
FENCELINE2
 70
     0
  3
Fenceline square ----[]-----[]----[]-----[]----
 72
    65
 73
     4
 40
1.45
 49
0.25
 74
     0
 49
-0.1
 74
     4
 75
   132
340
24
 46
0.1
 50
0.0
 44
-0.1
 45
0.0
 49
-0.1
 74
     0
 49
1.0
 74
     0
  0
LTYPE
  5
51
100
AcDbSymbolTableRecord
100
AcDbLinetypeTableRecord
  2
TRACKS
 70
     0
  3
Tracks -|-|-|-|-|-|-|-|-|-|-|-|-|-|-|-|-|-|-|-|
 72
    65
 73
     2
 40
0.3
 49
0.15
 74
     4
 75
   130
340
24
 46
0.25
 50
0.0
 44
0.0
 45
0.0
 49
0.15
 74
     0
  0
LTYPE
  5
52
100
AcDbSymbolTableRecord
100
AcDbLinetypeTableRecord
  2
BATTING
 70
     0
  3
Batting SSSSSSSSSSSSSSSSSSSSSSSSSSSSSSSSSSSSSSS
 72
    65
 73
     4
 40
0.4001000000000002
 49
0.0001
 74
     0
 49
-0.1
 74
     4
 75
   134
340
24
 46
0.1
 50
0.0
 44
-0.1
 45
0.0
 49
-0.2
 74
     4
 75
   134
340
24
 46
0.1
 50
180.0
 44
0.1
 45
0.0
 49
-0.1
 74
     0
  0
LTYPE
  5
53
100
AcDbSymbolTableRecord
100
AcDbLinetypeTableRecord
  2
HOT_WATER_SUPPLY
 70
     0
  3
Hot water supply ---- HW ---- HW ---- HW ----
 72
    65
 73
     3
 40
0.9
 49
0.5
 74
     0
 49
-0.2
 74
     2
 75
     1
340
23
 46
0.1
 50
0.0
 44
-0.1
 45
-0.05
  9
HW
 49
-0.2
 74
     0
  0
LTYPE
  5
54
100
AcDbSymbolTableRecord
100
AcDbLinetypeTableRecord
  2
GAS_LINE
 70
     0
  3
Gas line ----GAS----GAS----GAS----GAS----GAS---
 72
    65
 73
     3
 40
0.95
 49
0.5
 74
     0
 49
-0.2
 74
     2
 75
     1
340
23
 46
0.1
 50
0.0
 44
-0.1
 45
-0.05
  9
GAS
 49
-0.25
 74
     0
  0
LTYPE
  5
55
100
AcDbSymbolTableRecord
100
AcDbLinetypeTableRecord
  2
ZIGZAG
 70
     0
  3
Zig zag /\/\/\/\/\/\/\/\/\/\/\/\/\/\/\/\/\/\/\/
 72
    65
 73
     4
 40
0.8001000000000001
 49
0.0001
 74
     0
 49
-0.2
 74
     4
 75
   131
340
24
 46
0.2
 50
0.0
 44
-0.2
 45
0.0
 49
-0.4
 74
     4
 75
   131
340
24
 46
0.2
 50
180.0
 44
0.2
 45
0.0
 49
-0.2
 74
     0
  0
ENDTAB
  0
TABLE
  2
LAYER
  5
c8
100
AcDbSymbolTable
 70
     2
  0
LAYER
  5
c9
100
AcDbSymbolTableRecord
100
AcDbLayerTableRecord
  2
0
 70
     0
 62
     7
  6
CONTINUOUS
390
F
  0
LAYER
  5
ca
100
AcDbSymbolTableRecord
100
AcDbLayerTableRecord
  2
DEFPOINTS
 70
     0
 62
     7
  6
CONTINUOUS
290
0
390
F
  0
ENDTAB
  0
TABLE
  2
STYLE
  5
cb
100
AcDbSymbolTable
 70
     2
  0
STYLE
  5
      23
100
AcDbSymbolTableRecord
100
AcDbTextStyleTableRecord
  2
STANDARD
 70
     0
 40
0.0
 41
1.0
 50
0.0
 71
     0
 42
0.2
  3
txt
  4
BIGFONT
  0
STYLE
  5
24
100
AcDbSymbolTableRecord
100
AcDbTextStyleTableRecord
  2

 70
     1
 40
0.0
 41
1.0
 50
0.0
 71
     0
 42
0.2
  3
ltypeshp.shx
  4

  0
ENDTAB
  0
TABLE
  2
DIMSTYLE
  5
cc
100
AcDbSymbolTable
100
AcDbDimStyleTable
 70
     1
  0
DIMSTYLE
105
cd
100
AcDbSymbolTableRecord
100
AcDbDimStyleTableRecord
  2
DIMSTYLE
 70
     0
  3

  4

  5
_OPEN
  6
_OPEN
  7
_OPEN
 40
1
 41
1
 42
0.009999999776482582
 43
0.38
 44
2.54
 45
0
 46
0
 47
0
 48
0
140
4
141
0.09
142
0
143
25.4
144
1
145
0
146
1
147
2
 71
     0
 72
     0
 73
     0
 74
     0
 75
     0
 76
     0
 78
     0
170
     0
171
     2
 77
     0
172
     0
173
     1
174
     0
175
     0
176
     0
177
     0
178
     0
271
     1
275
     1
340
23
  0
ENDTAB
  0
TABLE
  2
APPID
  5
ce
100
AcDbSymbolTable
 70
     1
  0
APPID
  5
cf
100
AcDbSymbolTableRecord
100
AcDbRegAppTableRecord
  2
ACAD
 70
     0
  0
ENDTAB
  0
TABLE
  2
VIEW
  5
d0
100
AcDbSymbolTable
 70
     0
  0
ENDTAB
  0
TABLE
  2
UCS
  5
d1
100
AcDbSymbolTable
 70
     0
  0
ENDTAB
  0
TABLE
  2
BLOCK_RECORD
  5
d2
100
AcDbSymbolTable
 70
    23
  0
BLOCK_RECORD
  5
d3
100
AcDbSymbolTableRecord
100
AcDbBlockTableRecord
  2
*MODEL_SPACE
  0
BLOCK_RECORD
  5
d4
100
AcDbSymbolTableRecord
100
AcDbBlockTableRecord
  2
*PAPER_SPACE
  0
BLOCK_RECORD
  5
d5
100
AcDbSymbolTableRecord
100
AcDbBlockTableRecord
  2
_OPEN
  0
BLOCK_RECORD
  5
d6
100
AcDbSymbolTableRecord
100
AcDbBlockTableRecord
  2
_OPEN30
  0
BLOCK_RECORD
  5
d7
100
AcDbSymbolTableRecord
100
AcDbBlockTableRecord
  2
KOZU0001
  0
BLOCK_RECORD
  5
d8
100
AcDbSymbolTableRecord
100
AcDbBlockTableRecord
  2
KOZU0002
  0
BLOCK_RECORD
  5
d9
100
AcDbSymbolTableRecord
100
AcDbBlockTableRecord
  2
KOZU0003
  0
BLOCK_RECORD
  5
da
100
AcDbSymbolTableRecord
100
AcDbBlockTableRecord
  2
KOZU0004
  0
BLOCK_RECORD
  5
db
100
AcDbSymbolTableRecord
100
AcDbBlockTableRecord
  2
KOZU0005
  0
BLOCK_RECORD
  5
dc
100
AcDbSymbolTableRecord
100
AcDbBlockTableRecord
  2
KOZU0006
  0
BLOCK_RECORD
  5
dd
100
AcDbSymbolTableRecord
100
AcDbBlockTableRecord
  2
KOZU0007
  0
BLOCK_RECORD
  5
de
100
AcDbSymbolTableRecord
100
AcDbBlockTableRecord
  2
KOZU0008
  0
BLOCK_RECORD
  5
df
100
AcDbSymbolTableRecord
100
AcDbBlockTableRecord
  2
KOZU0009
  0
BLOCK_RECORD
  5
e0
100
AcDbSymbolTableRecord
100
AcDbBlockTableRecord
  2
KOZU0010
  0
BLOCK_RECORD
  5
e1
100
AcDbSymbolTableRecord
100
AcDbBlockTableRecord
  2
KOZU0011
  0
BLOCK_RECORD
  5
e2
100
AcDbSymbolTableRecord
100
AcDbBlockTableRecord
  2
KOZU0012
  0
BLOCK_RECORD
  5
e3
100
AcDbSymbolTableRecord
100
AcDbBlockTableRecord
  2
*D1
  0
BLOCK_RECORD
  5
e4
100
AcDbSymbolTableRecord
100
AcDbBlockTableRecord
  2
*D2
  0
BLOCK_RECORD
  5
e5
100
AcDbSymbolTableRecord
100
AcDbBlockTableRecord
  2
*D3
  0
BLOCK_RECORD
  5
e6
100
AcDbSymbolTableRecord
100
AcDbBlockTableRecord
  2
*D4
  0
BLOCK_RECORD
  5
e7
100
AcDbSymbolTableRecord
100
AcDbBlockTableRecord
  2
*D5
  0
BLOCK_RECORD
  5
e8
100
AcDbSymbolTableRecord
100
AcDbBlockTableRecord
  2
*D6
  0
BLOCK_RECORD
  5
e9
100
AcDbSymbolTableRecord
100
AcDbBlockTableRecord
  2
*D7
  0
ENDTAB
  0
TABLE
  2
VPORT
  5
ea
100
AcDbSymbolTable
 70
     0
  0
ENDTAB
  0
ENDSEC
  0
SECTION
  2
BLOCKS
  0
BLOCK
  8
0
  5
eb
100
AcDbEntity
100
AcDbBlockBegin
  2
*MODEL_SPACE
 70
     0
 10
0
 20
0
  3
*MODEL_SPACE
  0
ENDBLK
  8
0
  5
ec
100
AcDbEntity
100
AcDbBlockEnd
  0
BLOCK
  8
0
  5
ed
 67
     1
100
AcDbEntity
100
AcDbBlockBegin
  2
*PAPER_SPACE
 70
     0
 10
0
 20
0
  3
*PAPER_SPACE
  0
ENDBLK
  8
0
  5
ee
 67
     1
100
AcDbEntity
100
AcDbBlockEnd
  0
BLOCK
  8
0
  5
ef
100
AcDbEntity
100
AcDbBlockBegin
  2
_OPEN
 70
    64
 10
0
 20
0
  3
_OPEN
  0
LINE
  5
f0
100
AcDbEntity
  8
0
  6
BYBLOCK
 62
     0
100
AcDbLine
 10
0
 20
0
 11
-3.12799995302215
 21
-0.5619999915596265
  0
LINE
  5
f1
100
AcDbEntity
  8
0
  6
BYBLOCK
 62
     0
100
AcDbLine
 10
0
 20
0
 11
-3.127999953022157
 21
0.5619999915595884
  0
LINE
  5
f2
100
AcDbEntity
  8
0
  6
BYBLOCK
 62
     0
100
AcDbLine
 10
0
 20
0
 11
-2.99999995494452
 21
0
  0
ENDBLK
  8
0
  5
f3
100
AcDbEntity
100
AcDbBlockEnd
  0
BLOCK
  8
0
  5
f4
100
AcDbEntity
100
AcDbBlockBegin
  2
_OPEN30
 70
    64
 10
0
 20
0
  3
_OPEN30
  0
LINE
  5
f5
100
AcDbEntity
  8
0
  6
BYBLOCK
 62
     0
100
AcDbLine
 10
0
 20
0
 11
-2.999999954944514
 21
-0.9999999849815249
  0
LINE
  5
f6
100
AcDbEntity
  8
0
  6
BYBLOCK
 62
     0
100
AcDbLine
 10
0
 20
0
 11
-2.999999954944526
 21
0.9999999849814883
  0
LINE
  5
f7
100
AcDbEntity
  8
0
  6
BYBLOCK
 62
     0
100
AcDbLine
 10
0
 20
0
 11
-2.99999995494452
 21
0
  0
ENDBLK
  8
0
  5
f8
100
AcDbEntity
100
AcDbBlockEnd
  0
BLOCK
  8
0
  5
f9
100
AcDbEntity
100
AcDbBlockBegin
  2
*D1
 70
    65
 10
0
 20
0
  0
MTEXT
  5
fa
100
AcDbEntity
  8
0
  6
CONTINUOUS
 62
     7
100
AcDbMText
 10
28.45013337656657
 20
-2.885065035744532
 40
5
 41
60
 71
     8
 72
     1
  1
{\W0.855331;１００}
  0
LINE
  5
fb
100
AcDbEntity
  8
0
  6
CONTINUOUS
 62
     7
100
AcDbLine
 10
-18.54986830761662
 20
-2.885065035744532
 11
75.45013506074976
 21
-2.88506503574455
  0
INSERT
  5
fc
100
AcDbEntity
  8
0
  6
CONTINUOUS
 62
     7
100
AcDbBlockReference
  2
_OPEN30
 10
-21.54986826256114
 20
-2.885065035744532
 41
1
 42
1
 43
1
 50
180.0000000000004
  0
INSERT
  5
fd
100
AcDbEntity
  8
0
  6
CONTINUOUS
 62
     7
100
AcDbBlockReference
  2
_OPEN30
 10
78.45013501569427
 20
-2.885065035744532
 41
1
 42
1
 43
1
  0
LINE
  5
fe
100
AcDbEntity
  8
0
  6
CONTINUOUS
 62
     7
100
AcDbLine
 10
-21.54983488396056
 20
45.52391938084484
 11
-21.54983488396056
 21
-6.45631542121894
  0
LINE
  5
ff
100
AcDbEntity
  8
0
  6
CONTINUOUS
 62
     7
100
AcDbLine
 10
78.45016362592334
 20
45.52391938084484
 11
78.45016362592334
 21
-6.45631542121894
  0
POINT
  5
100
100
AcDbEntity
  8
DEFPOINTS
  6
CONTINUOUS
 62
     7
100
AcDbPoint
 10
-21.54983488396056
 20
45.52391938084484
  0
POINT
  5
101
100
AcDbEntity
  8
DEFPOINTS
  6
CONTINUOUS
 62
     7
100
AcDbPoint
 10
78.45016362592334
 20
45.52391938084484
  0
POINT
  5
102
100
AcDbEntity
  8
DEFPOINTS
  6
CONTINUOUS
 62
     7
100
AcDbPoint
 10
78.45013501569427
 20
-2.885065035744532
  0
ENDBLK
  8
0
  5
103
100
AcDbEntity
100
AcDbBlockEnd
  0
BLOCK
  8
0
  5
104
100
AcDbEntity
100
AcDbBlockBegin
  2
*D2
 70
    65
 10
0
 20
0
  0
MTEXT
  5
105
100
AcDbEntity
  8
0
  6
CONTINUOUS
 62
     7
100
AcDbMText
 10
248.4960137531755
 20
46.52392318064089
 40
5
 41
40
 71
     8
 72
     1
  1
{\W0.864328;４２}
 11
0
 21
1
  0
LINE
  5
106
100
AcDbEntity
  8
0
  6
CONTINUOUS
 62
     7
100
AcDbLine
 10
248.4960137531755
 20
28.52391486544107
 11
248.4960137531756
 21
64.52391719072618
  0
INSERT
  5
107
100
AcDbEntity
  8
0
  6
CONTINUOUS
 62
     7
100
AcDbBlockReference
  2
_OPEN30
 10
248.4960137531755
 20
25.52391491049655
 41
1
 42
1
 43
1
 50
270.0000000000005
  0
INSERT
  5
108
100
AcDbEntity
  8
0
  6
CONTINUOUS
 62
     7
100
AcDbBlockReference
  2
_OPEN30
 10
248.4960137531755
 20
67.52391714567069
 41
1
 42
1
 43
1
 50
90.00000000000019
  0
LINE
  5
109
100
AcDbEntity
  8
0
  6
CONTINUOUS
 62
     7
100
AcDbLine
 10
227.7000965520725
 20
25.52391491049655
 11
250.1287995259643
 21
25.52391491049655
  0
LINE
  5
10a
100
AcDbEntity
  8
0
  6
CONTINUOUS
 62
     7
100
AcDbLine
 10
240.1237642746603
 20
67.52391714567069
 11
250.1287995259643
 21
67.52391714567069
  0
POINT
  5
10b
100
AcDbEntity
  8
DEFPOINTS
  6
CONTINUOUS
 62
     7
100
AcDbPoint
 10
227.7000965520725
 20
25.52391491049655
  0
POINT
  5
10c
100
AcDbEntity
  8
DEFPOINTS
  6
CONTINUOUS
 62
     7
100
AcDbPoint
 10
240.1237642746603
 20
67.52391714567069
  0
POINT
  5
10d
100
AcDbEntity
  8
DEFPOINTS
  6
CONTINUOUS
 62
     7
100
AcDbPoint
 10
248.4960137531755
 20
67.52391714567069
  0
ENDBLK
  8
0
  5
10e
100
AcDbEntity
100
AcDbBlockEnd
  0
BLOCK
  8
0
  5
10f
100
AcDbEntity
100
AcDbBlockBegin
  2
*D3
 70
    65
 10
0
 20
0
  0
MTEXT
  5
110
100
AcDbEntity
  8
0
  6
CONTINUOUS
 62
     7
100
AcDbMText
 10
248.4960137531755
 20
151.023929252864
 40
5
 41
60
 71
     8
 72
     1
  1
{\W0.855331;１６７}
 11
0
 21
1
  0
LINE
  5
111
100
AcDbEntity
  8
0
  6
CONTINUOUS
 62
     7
100
AcDbLine
 10
248.4960137531755
 20
70.52391710061521
 11
248.4960137531756
 21
231.5239604785988
  0
INSERT
  5
112
100
AcDbEntity
  8
0
  6
CONTINUOUS
 62
     7
100
AcDbBlockReference
  2
_OPEN30
 10
248.4960137531755
 20
67.52391714567069
 41
1
 42
1
 43
1
 50
270.0000000000005
  0
INSERT
  5
113
100
AcDbEntity
  8
0
  6
CONTINUOUS
 62
     7
100
AcDbBlockReference
  2
_OPEN30
 10
248.4960137531755
 20
234.5239604335433
 41
1
 42
1
 43
1
 50
90.00000000000019
  0
LINE
  5
114
100
AcDbEntity
  8
0
  6
CONTINUOUS
 62
     7
100
AcDbLine
 10
199.3251615863269
 20
67.52391714567069
 11
250.1287995259643
 21
67.52391714567069
  0
LINE
  5
115
100
AcDbEntity
  8
0
  6
CONTINUOUS
 62
     7
100
AcDbLine
 10
226.809364753822
 20
234.5239222865712
 11
250.1287995259643
 21
234.5239222865712
  0
POINT
  5
116
100
AcDbEntity
  8
DEFPOINTS
  6
CONTINUOUS
 62
     7
100
AcDbPoint
 10
199.3251615863269
 20
67.52391714567069
  0
POINT
  5
117
100
AcDbEntity
  8
DEFPOINTS
  6
CONTINUOUS
 62
     7
100
AcDbPoint
 10
226.809364753822
 20
234.5239222865712
  0
POINT
  5
118
100
AcDbEntity
  8
DEFPOINTS
  6
CONTINUOUS
 62
     7
100
AcDbPoint
 10
248.4960137531755
 20
234.5239604335433
  0
ENDBLK
  8
0
  5
119
100
AcDbEntity
100
AcDbBlockEnd
  0
BLOCK
  8
0
  5
11a
100
AcDbEntity
100
AcDbBlockBegin
  2
*D4
 70
    65
 10
0
 20
0
  0
MTEXT
  5
11b
100
AcDbEntity
  8
0
  6
CONTINUOUS
 62
     7
100
AcDbMText
 10
262.5055655463701
 20
130.0239448245772
 40
5
 41
60
 71
     8
 72
     1
  1
{\W0.855331;２０９}
 11
0
 21
1
  0
LINE
  5
11c
100
AcDbEntity
  8
0
  6
CONTINUOUS
 62
     7
100
AcDbLine
 10
262.5055655463701
 20
28.52391486544107
 11
262.5055655463701
 21
231.5239604785988
  0
INSERT
  5
11d
100
AcDbEntity
  8
0
  6
CONTINUOUS
 62
     7
100
AcDbBlockReference
  2
_OPEN30
 10
262.5055655463701
 20
25.52391491049655
 41
1
 42
1
 43
1
 50
270.0000000000005
  0
INSERT
  5
11e
100
AcDbEntity
  8
0
  6
CONTINUOUS
 62
     7
100
AcDbBlockReference
  2
_OPEN30
 10
262.5055655463701
 20
234.5239604335433
 41
1
 42
1
 43
1
 50
90.00000000000019
  0
LINE
  5
11f
100
AcDbEntity
  8
0
  6
CONTINUOUS
 62
     7
100
AcDbLine
 10
205.3251617353386
 20
25.52391491049655
 11
266.0767897058012
 21
25.52391491049655
  0
LINE
  5
120
100
AcDbEntity
  8
0
  6
CONTINUOUS
 62
     7
100
AcDbLine
 10
202.9257171910149
 20
234.5239222865712
 11
266.0767897058012
 21
234.5239222865712
  0
POINT
  5
121
100
AcDbEntity
  8
DEFPOINTS
  6
CONTINUOUS
 62
     7
100
AcDbPoint
 10
205.3251617353386
 20
25.52391491049655
  0
POINT
  5
122
100
AcDbEntity
  8
DEFPOINTS
  6
CONTINUOUS
 62
     7
100
AcDbPoint
 10
202.9257171910149
 20
234.5239222865712
  0
POINT
  5
123
100
AcDbEntity
  8
DEFPOINTS
  6
CONTINUOUS
 62
     7
100
AcDbPoint
 10
262.5055655463701
 20
234.5239604335433
  0
ENDBLK
  8
0
  5
124
100
AcDbEntity
100
AcDbBlockEnd
  0
BLOCK
  8
0
  5
125
100
AcDbEntity
100
AcDbBlockBegin
  2
*D5
 70
    65
 10
0
 20
0
  0
MTEXT
  5
126
100
AcDbEntity
  8
0
  6
CONTINUOUS
 62
     7
100
AcDbMText
 10
182.8251429971286
 20
-2.885065035744532
 40
5
 41
60
 71
     8
 72
     1
  1
{\W0.855331;□６０}
  0
LINE
  5
127
100
AcDbEntity
  8
0
  6
CONTINUOUS
 62
     7
100
AcDbLine
 10
155.8251338623649
 20
-2.885065035744532
 11
209.8251425951493
 21
-2.88506503574455
  0
INSERT
  5
128
100
AcDbEntity
  8
0
  6
CONTINUOUS
 62
     7
100
AcDbBlockReference
  2
_OPEN30
 10
152.8251339074204
 20
-2.885065035744532
 41
1
 42
1
 43
1
 50
180.0000000000004
  0
INSERT
  5
129
100
AcDbEntity
  8
0
  6
CONTINUOUS
 62
     7
100
AcDbBlockReference
  2
_OPEN30
 10
212.8251425500938
 20
-2.885065035744532
 41
1
 42
1
 43
1
  0
LINE
  5
12a
100
AcDbEntity
  8
0
  6
CONTINUOUS
 62
     7
100
AcDbLine
 10
152.8251625176495
 20
45.52391461247333
 11
152.8251625176495
 21
-6.45631542121894
  0
LINE
  5
12b
100
AcDbEntity
  8
0
  6
CONTINUOUS
 62
     7
100
AcDbLine
 10
212.8251616235799
 20
45.52391461247333
 11
212.8251616235799
 21
-6.45631542121894
  0
POINT
  5
12c
100
AcDbEntity
  8
DEFPOINTS
  6
CONTINUOUS
 62
     7
100
AcDbPoint
 10
152.8251625176495
 20
45.52391461247333
  0
POINT
  5
12d
100
AcDbEntity
  8
DEFPOINTS
  6
CONTINUOUS
 62
     7
100
AcDbPoint
 10
212.8251616235799
 20
45.52391461247333
  0
POINT
  5
12e
100
AcDbEntity
  8
DEFPOINTS
  6
CONTINUOUS
 62
     7
100
AcDbPoint
 10
212.8251425500938
 20
-2.885065035744532
  0
ENDBLK
  8
0
  5
12f
100
AcDbEntity
100
AcDbBlockEnd
  0
BLOCK
  8
0
  5
130
100
AcDbEntity
100
AcDbBlockBegin
  2
*D6
 70
    65
 10
0
 20
0
  0
LINE
  5
131
100
AcDbEntity
  8
0
  6
CONTINUOUS
 62
     7
100
AcDbLine
 10
163.3251623608353
 20
8.253805514368333
 11
202.325161780394
 21
8.253805514368315
  0
INSERT
  5
132
100
AcDbEntity
  8
0
  6
CONTINUOUS
 62
     7
100
AcDbBlockReference
  2
_OPEN30
 10
160.3251624058908
 20
8.253805514368333
 41
1
 42
1
 43
1
 50
180.0000000000004
  0
INSERT
  5
133
100
AcDbEntity
  8
0
  6
CONTINUOUS
 62
     7
100
AcDbBlockReference
  2
_OPEN30
 10
205.3251617353385
 20
8.253805514368333
 41
1
 42
1
 43
1
  0
LINE
  5
134
100
AcDbEntity
  8
0
  6
CONTINUOUS
 62
     7
100
AcDbLine
 10
160.3251624058908
 20
25.52391491049655
 11
160.3251624058908
 21
4.682555426917144
  0
LINE
  5
135
100
AcDbEntity
  8
0
  6
CONTINUOUS
 62
     7
100
AcDbLine
 10
205.3251617353386
 20
25.52391491049655
 11
205.3251617353386
 21
4.682555426917144
  0
MTEXT
  5
136
100
AcDbEntity
  8
0
  6
CONTINUOUS
 62
     7
100
AcDbMText
 10
182.8251620706147
 20
8.253805514368333
 40
5
 41
110
 71
     8
 72
     1
  1
{\W0.855331;\U+2205４５}
  0
POINT
  5
137
100
AcDbEntity
  8
DEFPOINTS
  6
CONTINUOUS
 62
     7
100
AcDbPoint
 10
160.3251624058908
 20
25.52391491049655
  0
POINT
  5
138
100
AcDbEntity
  8
DEFPOINTS
  6
CONTINUOUS
 62
     7
100
AcDbPoint
 10
205.3251617353386
 20
25.52391491049655
  0
POINT
  5
139
100
AcDbEntity
  8
DEFPOINTS
  6
CONTINUOUS
 62
     7
100
AcDbPoint
 10
205.3251617353385
 20
8.253805514368333
  0
ENDBLK
  8
0
  5
13a
100
AcDbEntity
100
AcDbBlockEnd
  0
BLOCK
  8
0
  5
13b
100
AcDbEntity
100
AcDbBlockBegin
  2
*D7
 70
    65
 10
0
 20
0
  0
LINE
  5
13c
100
AcDbEntity
  8
0
  6
CONTINUOUS
 62
     7
100
AcDbLine
 10
160.8251738425318
 20
77.24208417784173
 11
136.4610879430821
 21
77.24208417784173
  0
LINE
  5
13d
100
AcDbEntity
  8
0
  6
CONTINUOUS
 62
     7
100
AcDbLine
 10
163.8251737974763
 20
77.24208417784173
 11
201.825169417239
 21
77.24208417784172
  0
INSERT
  5
13e
100
AcDbEntity
  8
0
  6
CONTINUOUS
 62
     7
100
AcDbBlockReference
  2
_OPEN
 10
160.8251738425318
 20
77.24208417784173
 41
1
 42
1
 43
1
 50
180.0000000000004
  0
INSERT
  5
13f
100
AcDbEntity
  8
0
  6
CONTINUOUS
 62
     7
100
AcDbBlockReference
  2
_OPEN
 10
204.8251693721836
 20
77.24208417784173
 41
1
 42
1
 43
1
  0
LINE
  5
140
100
AcDbEntity
  8
0
  6
CONTINUOUS
 62
     7
100
AcDbLine
 10
160.8251738425318
 20
79.2615592589742
 11
160.8251738425318
 21
74.95608417784173
  0
LINE
  5
141
100
AcDbEntity
  8
0
  6
CONTINUOUS
 62
     7
100
AcDbLine
 10
204.8251693721836
 20
79.2615592589742
 11
204.8251693721836
 21
74.95608417784173
  0
MTEXT
  5
142
100
AcDbEntity
  8
0
  6
CONTINUOUS
 62
     7
100
AcDbMText
 10
140.7467131624271
 20
77.24208417784173
 40
5
 41
40
 71
     8
 72
     1
  1
{\W0.864328;４４}
  0
POINT
  5
143
100
AcDbEntity
  8
DEFPOINTS
  6
CONTINUOUS
 62
     7
100
AcDbPoint
 10
160.8251738425318
 20
79.2615592589742
  0
POINT
  5
144
100
AcDbEntity
  8
DEFPOINTS
  6
CONTINUOUS
 62
     7
100
AcDbPoint
 10
204.8251693721836
 20
79.2615592589742
  0
POINT
  5
145
100
AcDbEntity
  8
DEFPOINTS
  6
CONTINUOUS
 62
     7
100
AcDbPoint
 10
204.8251693721836
 20
77.24208417784173
  0
ENDBLK
  8
0
  5
146
100
AcDbEntity
100
AcDbBlockEnd
  0
BLOCK
  8
0
  5
147
100
AcDbEntity
100
AcDbBlockBegin
  2
KOZU0001
 70
    64
 10
0
 20
0
  0
POINT
  5
148
100
AcDbEntity
  8
0
  6
CONTINUOUS
 62
     7
100
AcDbPoint
 10
0
 20
0
  0
LINE
  5
149
100
AcDbEntity
  8
0
  6
CENTER
 62
     3
100
AcDbLine
 10
0
 20
171.5398572155854
 11
0
 21
-45.52868775235582
  0
LINE
  5
14a
100
AcDbEntity
  8
0
  6
CONTINUOUS
 62
     7
100
AcDbLine
 10
50.00001832842799
 20
22.00000730156887
 11
50.00001832842799
 21
-21.99999776482586
  0
LINE
  5
14b
100
AcDbEntity
  8
0
  6
CONTINUOUS
 62
     7
100
AcDbLine
 10
-49.99998018145591
 20
22.00000730156887
 11
-49.99998018145591
 21
-21.99999776482586
  0
LINE
  5
14c
100
AcDbEntity
  8
0
  6
CONTINUOUS
 62
     7
100
AcDbLine
 10
-39.99999940395356
 20
25.999993890524
 11
39.99999940395356
 21
25.999993890524
  0
LINE
  5
14d
100
AcDbEntity
  8
0
  6
CONTINUOUS
 62
     7
100
AcDbLine
 10
-49.99998018145591
 20
-21.99999776482586
 11
50.00001832842799
 21
-21.99999776482586
  0
LINE
  5
14e
100
AcDbEntity
  8
0
  6
CENTER
 62
     3
100
AcDbLine
 10
-53.14596573790959
 20
0
 11
53.01889340551356
 21
0
  0
LINE
  5
14f
100
AcDbEntity
  8
0
  6
CONTINUOUS
 62
     7
100
AcDbLine
 10
-49.99998018145591
 20
22.00000730156887
 11
-29.99999955296517
 21
22.00000730156887
  0
LINE
  5
150
100
AcDbEntity
  8
0
  6
CONTINUOUS
 62
     7
100
AcDbLine
 10
29.99999955296517
 20
22.00000730156887
 11
50.00001832842799
 21
22.00000730156887
  0
LINE
  5
151
100
AcDbEntity
  8
0
  6
CONTINUOUS
 62
     7
100
AcDbLine
 10
-24.00003339748501
 20
-21.99999776482586
 11
-23.00001746171753
 21
-26.0000005602507
  0
LINE
  5
152
100
AcDbEntity
  8
0
  6
CONTINUOUS
 62
     7
100
AcDbLine
 10
24.00003399858306
 20
-21.99999776482586
 11
23.00001664871332
 21
-26.00000621657356
  0
LINE
  5
153
100
AcDbEntity
  8
0
  6
CONTINUOUS
 62
     7
100
AcDbLine
 10
-23.00001944601507
 20
-25.999993890524
 11
23.00002063810794
 21
-25.999993890524
  0
LINE
  5
154
100
AcDbEntity
  8
0
  6
CONTINUOUS
 62
     7
100
AcDbLine
 10
-22.49999966472388
 20
-42.00000223517414
 11
22.49999966472388
 21
-42.00000223517414
  0
LINE
  5
155
100
AcDbEntity
  8
0
  6
CONTINUOUS
 62
     7
100
AcDbLine
 10
22.49999966472388
 20
-25.999993890524
 11
22.49999966472388
 21
-42.00000223517414
  0
LINE
  5
156
100
AcDbEntity
  8
0
  6
CONTINUOUS
 62
     7
100
AcDbLine
 10
-22.49999966472388
 20
-25.999993890524
 11
-22.49999966472388
 21
-42.00000223517414
  0
LINE
  5
157
100
AcDbEntity
  8
0
  6
CONTINUOUS
 62
     7
100
AcDbLine
 10
27.49999959021807
 20
56.0000029802322
 11
27.49999959021807
 21
26.00000342726702
  0
LINE
  5
158
100
AcDbEntity
  8
0
  6
CONTINUOUS
 62
     7
100
AcDbLine
 10
-27.49998051673203
 20
56.0000029802322
 11
-27.49998051673203
 21
26.00000342726702
  0
LINE
  5
159
100
AcDbEntity
  8
0
  6
CONTINUOUS
 62
     7
100
AcDbLine
 10
29.99999955296517
 20
76.00000268220897
 11
29.99999955296517
 21
56.0000029802322
  0
LINE
  5
15a
100
AcDbEntity
  8
0
  6
CONTINUOUS
 62
     7
100
AcDbLine
 10
-29.99998047947913
 20
76.00000268220897
 11
-29.99998047947913
 21
56.0000029802322
  0
LINE
  5
15b
100
AcDbEntity
  8
0
  6
CONTINUOUS
 62
     7
100
AcDbLine
 10
-30.00002816319424
 20
55.99999344348917
 11
29.99999955296516
 21
55.99999344348917
  0
LINE
  5
15c
100
AcDbEntity
  8
0
  6
CONTINUOUS
 62
     7
100
AcDbLine
 10
-30.00002816319424
 20
76.00001221895199
 11
29.99998524785063
 21
76.00001221895199
  0
LINE
  5
15d
100
AcDbEntity
  8
0
  6
CONTINUOUS
 62
     7
100
AcDbLine
 10
-29.99999955296517
 20
25.999993890524
 11
-29.99999955296517
 21
-21.99999776482586
  0
LINE
  5
15e
100
AcDbEntity
  8
0
  6
CONTINUOUS
 62
     7
100
AcDbLine
 10
-17.99999210238469
 20
74.4999969825149
 11
-27.99999195337308
 21
74.4999969825149
  0
LINE
  5
15f
100
AcDbEntity
  8
0
  6
CONTINUOUS
 62
     7
100
AcDbLine
 10
-17.99999210238469
 20
68.50000279396768
 11
-27.99999195337308
 21
68.50000279396768
  0
LINE
  5
160
100
AcDbEntity
  8
0
  6
CONTINUOUS
 62
     7
100
AcDbLine
 10
-17.99999210238469
 20
74.4999969825149
 11
-17.99999210238469
 21
66.99999709427361
  0
LINE
  5
161
100
AcDbEntity
  8
0
  6
CONTINUOUS
 62
     7
100
AcDbLine
 10
-19.99999970197678
 20
56.0000029802322
 11
-19.99999970197678
 21
26.00000342726702
  0
LINE
  5
162
100
AcDbEntity
  8
0
  6
CONTINUOUS
 62
     7
100
AcDbLine
 10
-27.99999195337308
 20
74.4999969825149
 11
-27.99999195337308
 21
66.99999709427361
  0
LINE
  5
163
100
AcDbEntity
  8
0
  6
CENTER
 62
     3
100
AcDbLine
 10
-22.99999202787888
 20
75.39998103988695
 11
-22.99999202787888
 21
25.999993890524
  0
LINE
  5
164
100
AcDbEntity
  8
0
  6
CONTINUOUS
 62
     7
100
AcDbLine
 10
-14.99999977648259
 20
66.99999709427361
 11
-29.99998047947913
 21
66.99999709427361
  0
LINE
  5
165
100
AcDbEntity
  8
0
  6
CONTINUOUS
 62
     7
100
AcDbLine
 10
19.99999970197678
 20
56.0000029802322
 11
19.99999970197678
 21
26.00000342726702
  0
LINE
  5
166
100
AcDbEntity
  8
0
  6
CONTINUOUS
 62
     7
100
AcDbLine
 10
26.00002250075307
 20
56.0000029802322
 11
26.00002250075307
 21
26.00000342726702
  0
LINE
  5
167
100
AcDbEntity
  8
0
  6
CENTER
 62
     3
100
AcDbLine
 10
23.00001110136493
 20
76.00000268220897
 11
23.00001110136493
 21
25.999993890524
  0
LINE
  5
168
100
AcDbEntity
  8
0
  6
CONTINUOUS
 62
     7
100
AcDbLine
 10
-25.99998435378098
 20
56.0000029802322
 11
-25.99998435378098
 21
26.00000342726702
  0
LINE
  5
169
100
AcDbEntity
  8
0
  6
CONTINUOUS
 62
     7
100
AcDbLine
 10
-14.99999977648259
 20
76.00000268220897
 11
-14.99999977648259
 21
66.99999709427361
  0
LINE
  5
16a
100
AcDbEntity
  8
0
  6
CONTINUOUS
 62
     7
100
AcDbLine
 10
-7.499997838110631
 20
1.499999934080317
 11
-5.99999790403028
 21
-3.375077994860476e-014
  0
LINE
  5
16b
100
AcDbEntity
  8
0
  6
CONTINUOUS
 62
     7
100
AcDbLine
 10
1.500001162958527
 20
2.999999418520791
 11
7.49999914700788
 21
4.264961139810453e-007
  0
LINE
  5
16c
100
AcDbEntity
  8
0
  6
CONTINUOUS
 62
     7
100
AcDbLine
 10
-7.499997446918837
 20
1.499999664723873
 11
1.500000541424434
 21
1.499999664723873
  0
LINE
  5
16d
100
AcDbEntity
  8
0
  6
CONTINUOUS
 62
     7
100
AcDbLine
 10
-5.999997782194956
 20
-1.4210854715202e-014
 11
7.499999200319948
 21
-1.4210854715202e-014
  0
LINE
  5
16e
100
AcDbEntity
  8
0
  6
CONTINUOUS
 62
     7
100
AcDbLine
 10
1.500000541424434
 20
2.999999329447732
 11
1.500000541424434
 21
1.499999664723859
  0
LINE
  5
16f
100
AcDbEntity
  8
0
  6
CONTINUOUS
 62
     7
100
AcDbLine
 10
29.99999955296517
 20
25.999993890524
 11
29.99999955296517
 21
-21.99999776482586
  0
LINE
  5
170
100
AcDbEntity
  8
0
  6
CONTINUOUS
 62
     7
100
AcDbLine
 10
39.99999940395356
 20
25.999993890524
 11
39.99999940395356
 21
22.00000730156887
  0
LINE
  5
171
100
AcDbEntity
  8
0
  6
CONTINUOUS
 62
     7
100
AcDbLine
 10
-39.99999940395356
 20
25.999993890524
 11
-39.99999940395356
 21
22.00000730156887
  0
LINE
  5
172
100
AcDbEntity
  8
0
  6
CONTINUOUS
 62
     7
100
AcDbLine
 10
-49.99998018145591
 20
-13.59674910311775
 11
-29.99999955296517
 21
-13.59674910311775
  0
LINE
  5
173
100
AcDbEntity
  8
0
  6
CONTINUOUS
 62
     7
100
AcDbLine
 10
-49.99998018145591
 20
13.59675387148926
 11
-29.99999955296517
 21
13.59675387148926
  0
LINE
  5
174
100
AcDbEntity
  8
0
  6
CONTINUOUS
 62
     7
100
AcDbLine
 10
29.99999955296517
 20
13.59675387148926
 11
50.00001832842799
 21
13.59675387148926
  0
LINE
  5
175
100
AcDbEntity
  8
0
  6
CONTINUOUS
 62
     7
100
AcDbLine
 10
29.99999955296517
 20
-13.59674910311775
 11
50.00001832842799
 21
-13.59674910311775
  0
LINE
  5
176
100
AcDbEntity
  8
0
  6
CONTINUOUS
 62
     7
100
AcDbLine
 10
25.99989852309378
 20
84.99998919665829
 11
-26.00005155801696
 21
84.99998919665829
  0
LINE
  5
177
100
AcDbEntity
  8
0
  6
CONTINUOUS
 62
     7
100
AcDbLine
 10
-26.00000342726703
 20
122.9999905377628
 11
-26.00000342726703
 21
76.00001221895199
  0
LINE
  5
178
100
AcDbEntity
  8
0
  6
CONTINUOUS
 62
     7
100
AcDbLine
 10
-27.00007783145933
 20
89.74996622040837
 11
-26.00007022590684
 21
88.99996049761739
  0
LINE
  5
179
100
AcDbEntity
  8
0
  6
CONTINUOUS
 62
     7
100
AcDbLine
 10
-27.0000644475212
 20
108.2500060163437
 11
-27.0000644475212
 21
89.74996433034592
  0
LINE
  5
17a
100
AcDbEntity
  8
0
  6
CONTINUOUS
 62
     7
100
AcDbLine
 10
-26.0001256945574
 20
108.999944999219
 11
-27.00012567071555
 21
108.249944998474
  0
LINE
  5
17b
100
AcDbEntity
  8
0
  6
DASHED
 62
     3
100
AcDbLine
 10
-19.70008440762633
 20
105.5055588490599
 11
-27.00006431536645
 21
105.7604797527896
  0
LINE
  5
17c
100
AcDbEntity
  8
0
  6
DASHED
 62
     7
100
AcDbLine
 10
-19.70008440762633
 20
104.649038099646
 11
-27.00008647032102
 21
104.9039597770438
  0
LINE
  5
17d
100
AcDbEntity
  8
0
  6
CENTER
 62
     3
100
AcDbLine
 10
-27.93154145879237
 20
98.9999756366018
 11
-19.70008440762633
 21
98.9999756366018
  0
LINE
  5
17e
100
AcDbEntity
  8
0
  6
DASHED
 62
     3
100
AcDbLine
 10
-19.70008440762632
 20
92.49442007352197
 11
-27.00006482617837
 21
92.23949915195428
  0
LINE
  5
17f
100
AcDbEntity
  8
0
  6
DASHED
 62
     7
100
AcDbLine
 10
-19.70008440762632
 20
93.3509694506042
 11
-27.0000573019233
 21
93.09604879178929
  0
LINE
  5
180
100
AcDbEntity
  8
0
  6
CONTINUOUS
 62
     7
100
AcDbLine
 10
-18.70008440762633
 20
108.6999876990916
 11
-18.70008440762633
 21
90.29996737390805
  0
LINE
  5
181
100
AcDbEntity
  8
0
  6
CONTINUOUS
 62
     7
100
AcDbLine
 10
18.69996996671006
 20
108.6999876990916
 11
-18.70008440762633
 21
108.6999876990916
  0
LINE
  5
182
100
AcDbEntity
  8
0
  6
CONTINUOUS
 62
     7
100
AcDbLine
 10
18.69996996671006
 20
108.6999876990916
 11
18.69996996671006
 21
90.29996737390805
  0
LINE
  5
183
100
AcDbEntity
  8
0
  6
CONTINUOUS
 62
     7
100
AcDbLine
 10
18.69996996671006
 20
90.29996737390805
 11
-18.70008440762633
 21
90.29996737390805
  0
LINE
  5
184
100
AcDbEntity
  8
0
  6
DASHED
 62
     3
100
AcDbLine
 10
29.00002436339818
 20
112.4999792501333
 11
20.18934219793465
 21
112.4999792501333
  0
LINE
  5
185
100
AcDbEntity
  8
0
  6
DASHED
 62
     3
100
AcDbLine
 10
29.00002436339818
 20
111.300009022653
 11
20.18934219793465
 21
111.300009022653
  0
LINE
  5
186
100
AcDbEntity
  8
0
  6
DASHED
 62
     3
100
AcDbLine
 10
29.00002436339818
 20
92.69996504932693
 11
20.18934219793465
 21
92.69996504932693
  0
LINE
  5
187
100
AcDbEntity
  8
0
  6
DASHED
 62
     3
100
AcDbLine
 10
29.00002436339818
 20
91.49996621161749
 11
20.18934219793465
 21
91.49996621161749
  0
LINE
  5
188
100
AcDbEntity
  8
0
  6
CONTINUOUS
 62
     7
100
AcDbLine
 10
-7.000121966002556
 20
96.99998711049575
 11
-7.000121966002556
 21
90.29996737390805
  0
LINE
  5
189
100
AcDbEntity
  8
0
  6
CENTER
 62
     3
100
AcDbLine
 10
5.000004097819267
 20
96.99996803700971
 11
-5.000004097819267
 21
96.99996803700971
  0
LINE
  5
18a
100
AcDbEntity
  8
0
  6
CONTINUOUS
 62
     7
100
AcDbLine
 10
-2.499999962747097
 20
98.44161840615244
 11
-2.499999962747097
 21
95.55835581483906
  0
LINE
  5
18b
100
AcDbEntity
  8
0
  6
CONTINUOUS
 62
     7
100
AcDbLine
 10
-2.500057614025565
 20
98.4415875689475
 11
-8.093597769232019e-005
 21
99.88494980289202
  0
LINE
  5
18c
100
AcDbEntity
  8
0
  6
CONTINUOUS
 62
     7
100
AcDbLine
 10
-7.812779171700868e-005
 20
99.88496411160894
 11
2.49991919791038
 21
98.44158995673547
  0
LINE
  5
18d
100
AcDbEntity
  8
0
  6
CONTINUOUS
 62
     7
100
AcDbLine
 10
2.499999962747097
 20
98.44161840615244
 11
2.499999962747097
 21
95.55835581483906
  0
LINE
  5
18e
100
AcDbEntity
  8
0
  6
CONTINUOUS
 62
     7
100
AcDbLine
 10
-0.0001203649291241504
 20
94.1149262489932
 11
2.499963680920708
 21
95.55835047176819
  0
LINE
  5
18f
100
AcDbEntity
  8
0
  6
CONTINUOUS
 62
     7
100
AcDbLine
 10
-2.500090986124882
 20
95.55832442050382
 11
-9.366042278458053e-005
 21
94.11495026563037
  0
LINE
  5
190
100
AcDbEntity
  8
0
  6
CONTINUOUS
 62
     7
100
AcDbLine
 10
6.999988451600245
 20
96.99998711049575
 11
6.999988451600245
 21
90.29996737390805
  0
LINE
  5
191
100
AcDbEntity
  8
0
  6
CONTINUOUS
 62
     7
100
AcDbLine
 10
25.99998435378098
 20
122.9999905377628
 11
25.99998435378098
 21
76.00001221895199
  0
LINE
  5
192
100
AcDbEntity
  8
0
  6
CONTINUOUS
 62
     7
100
AcDbLine
 10
28.99999575316912
 20
88.49996434897237
 11
25.99989852309378
 21
88.49996434897237
  0
LINE
  5
193
100
AcDbEntity
  8
0
  6
CONTINUOUS
 62
     7
100
AcDbLine
 10
29.00002436339818
 20
89.99997958540946
 11
32.00002622604331
 21
89.99997958540946
  0
LINE
  5
194
100
AcDbEntity
  8
0
  6
CONTINUOUS
 62
     7
100
AcDbLine
 10
28.99999575316912
 20
115.4999906495215
 11
28.99999575316912
 21
88.49996434897237
  0
LINE
  5
195
100
AcDbEntity
  8
0
  6
CONTINUOUS
 62
     7
100
AcDbLine
 10
32.00002622604331
 20
113.9999754130844
 11
32.00002622604331
 21
89.99997958540946
  0
LINE
  5
196
100
AcDbEntity
  8
0
  6
CONTINUOUS
 62
     7
100
AcDbLine
 10
56.6590300700213
 20
103.2499679438775
 11
32.00002622604331
 21
103.2499679438775
  0
LINE
  5
197
100
AcDbEntity
  8
0
  6
CONTINUOUS
 62
     7
100
AcDbLine
 10
56.6590300700213
 20
100.7499679811304
 11
32.00002622604331
 21
100.7499679811304
  0
LINE
  5
198
100
AcDbEntity
  8
0
  6
CONTINUOUS
 62
     7
100
AcDbLine
 10
25.99997958540946
 20
115.9999639391904
 11
-26.00000387430185
 21
115.9999639391904
  0
LINE
  5
199
100
AcDbEntity
  8
0
  6
CENTER
 62
     3
100
AcDbLine
 10
-22.00004544854097
 20
128.3968715608586
 11
-22.00004544854097
 21
122.9999905377628
  0
LINE
  5
19a
100
AcDbEntity
  8
0
  6
CONTINUOUS
 62
     7
100
AcDbLine
 10
28.99999575316912
 20
115.4999906495215
 11
25.99989852309378
 21
115.4999906495215
  0
LINE
  5
19b
100
AcDbEntity
  8
0
  6
CONTINUOUS
 62
     7
100
AcDbLine
 10
29.00002436339818
 20
113.9999754130844
 11
32.00002622604331
 21
113.9999754130844
  0
LINE
  5
19c
100
AcDbEntity
  8
0
  6
CONTINUOUS
 62
     7
100
AcDbLine
 10
56.6590300700213
 20
103.2499870173635
 11
56.6590300700213
 21
100.7499870546164
  0
LINE
  5
19d
100
AcDbEntity
  8
0
  6
CONTINUOUS
 62
     7
100
AcDbLine
 10
56.65902372418699
 20
102.624970633683
 11
61.65900901872944
 21
104.4448163592565
  0
LINE
  5
19e
100
AcDbEntity
  8
0
  6
CONTINUOUS
 62
     7
100
AcDbLine
 10
56.65901353564456
 20
101.3749570655294
 11
61.65901451299945
 21
99.55510563187926
  0
LINE
  5
19f
100
AcDbEntity
  8
0
  6
CONTINUOUS
 62
     7
100
AcDbLine
 10
25.99996493486611
 20
122.9999649632787
 11
24.99998048433569
 21
167.0000051409005
  0
LINE
  5
1a0
100
AcDbEntity
  8
0
  6
CONTINUOUS
 62
     7
100
AcDbLine
 10
25.99997958540946
 20
122.9999905377628
 11
17.49920850993594
 21
122.9999905377628
  0
LINE
  5
1a1
100
AcDbEntity
  8
0
  6
CONTINUOUS
 62
     7
100
AcDbLine
 10
16.50051062201619
 20
167.0000051409005
 11
17.49920850993594
 21
122.9999905377628
  0
LINE
  5
1a2
100
AcDbEntity
  8
0
  6
CONTINUOUS
 62
     7
100
AcDbLine
 10
-26.00000387430185
 20
122.9999905377628
 11
-17.49937426367271
 21
122.9999905377628
  0
LINE
  5
1a3
100
AcDbEntity
  8
0
  6
CONTINUOUS
 62
     7
100
AcDbLine
 10
-25.99997418656503
 20
122.9999908055236
 11
-24.99997122257357
 21
167.0000051409006
  0
LINE
  5
1a4
100
AcDbEntity
  8
0
  6
CONTINUOUS
 62
     7
100
AcDbLine
 10
-25.50001106411202
 20
123.9999752640728
 11
-18.50000353902573
 21
123.9999752640728
  0
LINE
  5
1a5
100
AcDbEntity
  8
0
  6
CONTINUOUS
 62
     7
100
AcDbLine
 10
-25.50001106411202
 20
125.2999859258535
 11
-25.50001106411202
 21
122.9999905377628
  0
LINE
  5
1a6
100
AcDbEntity
  8
0
  6
CONTINUOUS
 62
     7
100
AcDbLine
 10
-18.50000353902573
 20
125.2999859258535
 11
-18.50000353902573
 21
122.9999905377628
  0
LINE
  5
1a7
100
AcDbEntity
  8
0
  6
CONTINUOUS
 62
     7
100
AcDbLine
 10
-16.50067637575296
 20
167.0000051409006
 11
-17.49937426367271
 21
122.9999905377628
  0
LINE
  5
1a8
100
AcDbEntity
  8
0
  6
CONTINUOUS
 62
     7
100
AcDbLine
 10
-24.99997122257358
 20
167.0000051409006
 11
24.9999804843357
 21
167.0000051409006
  0
LINE
  5
1a9
100
AcDbEntity
  8
0
  6
DASHED
 62
     3
100
AcDbLine
 10
-49.99997945051568
 20
-16.50000008264901
 11
-33.99998006130163
 21
-16.16484786516803
  0
LINE
  5
1aa
100
AcDbEntity
  8
0
  6
DASHED
 62
     7
100
AcDbLine
 10
-49.99998039450469
 20
15.10000145900911
 11
-33.99998011141707
 21
14.76484922280415
  0
LINE
  5
1ab
100
AcDbEntity
  8
0
  6
DASHED
 62
     7
100
AcDbLine
 10
-49.99998041740861
 20
-15.10000436084088
 11
-33.99998013432098
 21
-14.76485212463592
  0
LINE
  5
1ac
100
AcDbEntity
  8
0
  6
DASHED
 62
     3
100
AcDbLine
 10
49.99997988507401
 20
16.49999187971949
 11
33.99997662240781
 21
16.16483958110126
  0
LINE
  5
1ad
100
AcDbEntity
  8
0
  6
DASHED
 62
     7
100
AcDbLine
 10
49.99997370097834
 20
15.09999600811952
 11
33.99997997296359
 21
14.76484390922376
  0
LINE
  5
1ae
100
AcDbEntity
  8
0
  6
DASHED
 62
     3
100
AcDbLine
 10
-49.99997942761176
 20
16.49999718081729
 11
-33.99997974043985
 21
16.16484495709498
  0
LINE
  5
1af
100
AcDbEntity
  8
0
  6
DASHED
 62
     7
100
AcDbLine
 10
49.99997590782264
 20
-15.1000084945333
 11
33.99997741248216
 21
-14.76485629577631
  0
LINE
  5
1b0
100
AcDbEntity
  8
0
  6
CENTER
 62
     3
100
AcDbLine
 10
-7.232055854367125
 20
21.99999478459367
 11
6.615738512404221
 21
21.99999478459367
  0
LINE
  5
1b1
100
AcDbEntity
  8
0
  6
DASHED
 62
     3
100
AcDbLine
 10
49.99997742445381
 20
-16.49999949894632
 11
33.99997892911334
 21
-16.16484730018933
  0
LINE
  5
1b2
100
AcDbEntity
  8
0
  6
CONTINUOUS
 62
     7
100
AcDbLine
 10
61.70629409393229
 20
101.9999679625039
 11
56.6590300700213
 21
101.9999679625039
  0
LINE
  5
1b3
100
AcDbEntity
  8
0
  6
CENTER
 62
     3
100
AcDbLine
 10
22.00004544854097
 20
128.3968715608586
 11
22.00004544854097
 21
122.9999905377628
  0
LINE
  5
1b4
100
AcDbEntity
  8
0
  6
CONTINUOUS
 62
     7
100
AcDbLine
 10
25.50001106411202
 20
123.9999752640728
 11
18.50000353902573
 21
123.9999752640728
  0
LINE
  5
1b5
100
AcDbEntity
  8
0
  6
CONTINUOUS
 62
     7
100
AcDbLine
 10
25.50001106411202
 20
125.2999859258535
 11
25.50001106411202
 21
122.9999905377628
  0
LINE
  5
1b6
100
AcDbEntity
  8
0
  6
CONTINUOUS
 62
     7
100
AcDbLine
 10
18.50000353902573
 20
125.2999859258535
 11
18.50000353902573
 21
122.9999905377628
  0
LINE
  5
1b7
100
AcDbEntity
  8
0
  6
CONTINUOUS
 62
     7
100
AcDbLine
 10
17.99999210238469
 20
74.4999969825149
 11
17.99999210238469
 21
66.99999709427361
  0
LINE
  5
1b8
100
AcDbEntity
  8
0
  6
CONTINUOUS
 62
     7
100
AcDbLine
 10
17.99999210238469
 20
74.4999969825149
 11
27.99999195337308
 21
74.4999969825149
  0
LINE
  5
1b9
100
AcDbEntity
  8
0
  6
CONTINUOUS
 62
     7
100
AcDbLine
 10
27.99999195337308
 20
74.4999969825149
 11
27.99999195337308
 21
66.99999709427361
  0
LINE
  5
1ba
100
AcDbEntity
  8
0
  6
CONTINUOUS
 62
     7
100
AcDbLine
 10
14.99999977648259
 20
66.99999709427361
 11
29.99998047947913
 21
66.99999709427361
  0
LINE
  5
1bb
100
AcDbEntity
  8
0
  6
CONTINUOUS
 62
     7
100
AcDbLine
 10
14.99999977648259
 20
76.00000268220897
 11
14.99999977648259
 21
66.99999709427361
  0
LINE
  5
1bc
100
AcDbEntity
  8
0
  6
CONTINUOUS
 62
     7
100
AcDbLine
 10
17.99999210238469
 20
68.50000279396768
 11
27.99999195337308
 21
68.50000279396768
  0
ARC
  5
1bd
100
AcDbEntity
  8
0
  6
CONTINUOUS
 62
     7
100
AcDbCircle
 10
0
 20
96.99996803700971
 40
7.000005736946974
100
AcDbArc
 50
0
 51
180.0000186693353
  0
CIRCLE
  5
1be
100
AcDbEntity
  8
0
  6
CONTINUOUS
 62
     7
100
AcDbCircle
 10
0
 20
96.99996803700971
 40
5.000004097819267
  0
CIRCLE
  5
1bf
100
AcDbEntity
  8
0
  6
CONTINUOUS
 62
     7
100
AcDbCircle
 10
0
 20
96.99996803700971
 40
4.250003334134767
  0
CIRCLE
  5
1c0
100
AcDbEntity
  8
0
  6
CONTINUOUS
 62
     7
100
AcDbCircle
 10
0
 20
21.99999478459367
 40
2.95
  0
ARC
  5
1c1
100
AcDbEntity
  8
0
  6
CONTINUOUS
 62
     7
100
AcDbCircle
 10
-22.00000730156888
 20
121.238481306671
 40
5.361515281098887
100
AcDbArc
 50
49.2468630249755
 51
130.7531369750245
  0
ARC
  5
1c2
100
AcDbEntity
  8
0
  6
CONTINUOUS
 62
     7
100
AcDbCircle
 10
22.00000730156888
 20
121.238481306671
 40
5.361515281098887
100
AcDbArc
 50
49.24686302497552
 51
130.7531369750246
  0
MTEXT
  5
1c3
100
AcDbEntity
  8
0
  6
CONTINUOUS
 62
     7
100
AcDbMText
 10
-14.23900877634351
 20
155.8185394127159
 40
0.5
 41
36
 71
     7
 72
     1
  1
{\W0.8426;ＢＮ－５ＢＰ２１－２５－Ｅ／Ｆ＊＊＊}
  0
INSERT
  5
1c4
100
AcDbEntity
  8
0
  6
CONTINUOUS
 62
     7
100
AcDbBlockReference
  2
KOZU0007
 10
0
 20
0
  0
ENDBLK
  8
0
  5
1c5
100
AcDbEntity
100
AcDbBlockEnd
  0
BLOCK
  8
0
  5
1c6
100
AcDbEntity
100
AcDbBlockBegin
  2
KOZU0002
 70
    64
 10
0
 20
0
  0
POINT
  5
1c7
100
AcDbEntity
  8
0
  6
CONTINUOUS
 62
     7
100
AcDbPoint
 10
0
 20
0
  0
LINE
  5
1c8
100
AcDbEntity
  8
0
  6
CONTINUOUS
 62
     7
100
AcDbLine
 10
-22.99999977648259
 20
30.00001862645121
 11
23.0000015646219
 21
30.00001862645121
  0
LINE
  5
1c9
100
AcDbEntity
  8
0
  6
CENTER
 62
     3
100
AcDbLine
 10
-53.64030758082409
 20
0
 11
53.29008976682886
 21
0
  0
LINE
  5
1ca
100
AcDbEntity
  8
0
  6
CONTINUOUS
 62
     7
100
AcDbLine
 10
-49.99999925494196
 20
21.99998822808283
 11
-29.99999955296517
 21
21.99998822808283
  0
LINE
  5
1cb
100
AcDbEntity
  8
0
  6
CONTINUOUS
 62
     7
100
AcDbLine
 10
-49.99999925494196
 20
-22.00000730156887
 11
-29.99999955296517
 21
-22.00000730156887
  0
LINE
  5
1cc
100
AcDbEntity
  8
0
  6
CONTINUOUS
 62
     7
100
AcDbLine
 10
-26.00000342726703
 20
-21.00002257525887
 11
-26.00000342726703
 21
20.99996535480074
  0
LINE
  5
1cd
100
AcDbEntity
  8
0
  6
CONTINUOUS
 62
     7
100
AcDbLine
 10
25.99996528029494
 20
20.99996535480074
 11
-26.00000342726703
 21
20.99996535480074
  0
LINE
  5
1ce
100
AcDbEntity
  8
0
  6
CONTINUOUS
 62
     3
100
AcDbLine
 10
-23.44954664609724
 20
17.44952473037655
 11
-20.55043669499819
 21
14.55041526803086
  0
LINE
  5
1cf
100
AcDbEntity
  8
0
  6
CONTINUOUS
 62
     3
100
AcDbLine
 10
-20.55039647840211
 20
17.44953846174794
 11
-23.44953291472817
 21
14.55040153666397
  0
LINE
  5
1d0
100
AcDbEntity
  8
0
  6
CONTINUOUS
 62
     7
100
AcDbLine
 10
-17.49999973922969
 20
20.99996535480074
 11
-17.49999973922969
 21
11.49999601393944
  0
LINE
  5
1d1
100
AcDbEntity
  8
0
  6
CONTINUOUS
 62
     7
100
AcDbLine
 10
-17.49999973922969
 20
11.49999601393944
 11
-26.00000387430185
 21
11.49999601393944
  0
LINE
  5
1d2
100
AcDbEntity
  8
0
  6
CONTINUOUS
 62
     7
100
AcDbLine
 10
-26.00000342726703
 20
9.200019699334803
 11
25.99996528029494
 21
9.200019699334803
  0
LINE
  5
1d3
100
AcDbEntity
  8
0
  6
CONTINUOUS
 62
     7
100
AcDbLine
 10
-26.00001581598711
 20
9.999971069003884
 11
-26.9999835848252
 21
9.249991703457585
  0
LINE
  5
1d4
100
AcDbEntity
  8
0
  6
CONTINUOUS
 62
     7
100
AcDbLine
 10
-27.00000722706307
 20
9.249992232769841
 11
-27.00000722706307
 21
-9.250030379741929
  0
LINE
  5
1d5
100
AcDbEntity
  8
0
  6
CONTINUOUS
 62
     7
100
AcDbLine
 10
-26.00000342726703
 20
6.799983876943827
 11
25.99996528029494
 21
6.799983876943827
  0
LINE
  5
1d6
100
AcDbEntity
  8
0
  6
CONTINUOUS
 62
     7
100
AcDbLine
 10
-4.999999925494198
 20
26.75001104548556
 11
-4.999999925494198
 21
25.74998817220347
  0
LINE
  5
1d7
100
AcDbEntity
  8
0
  6
CONTINUOUS
 62
     7
100
AcDbLine
 10
-4.999999925494198
 20
26.75001104548556
 11
4.999999925494194
 21
26.75001104548556
  0
LINE
  5
1d8
100
AcDbEntity
  8
0
  6
CONTINUOUS
 62
     7
100
AcDbLine
 10
-4.999999925494198
 20
25.74998817220347
 11
4.999999925494194
 21
25.74998817220347
  0
LINE
  5
1d9
100
AcDbEntity
  8
0
  6
PHANTOM
 62
     3
100
AcDbLine
 10
-4.499969415367108
 20
25.74998817220347
 11
-4.499969415367108
 21
20.99996535480074
  0
LINE
  5
1da
100
AcDbEntity
  8
0
  6
CENTER
 62
     3
100
AcDbLine
 10
-4.250011380761691
 20
25.74998817220347
 11
-4.250011380761691
 21
20.99996535480074
  0
LINE
  5
1db
100
AcDbEntity
  8
0
  6
PHANTOM
 62
     3
100
AcDbLine
 10
-4.00001519918419
 20
25.74998817220347
 11
-4.00001519918419
 21
20.99996535480074
  0
LINE
  5
1dc
100
AcDbEntity
  8
0
  6
CONTINUOUS
 62
     7
100
AcDbLine
 10
-3.849945010990723
 20
25.74998817220347
 11
-3.849945010990723
 21
20.99996535480074
  0
LINE
  5
1dd
100
AcDbEntity
  8
0
  6
PHANTOM
 62
     3
100
AcDbLine
 10
3.999996125698146
 20
25.50001106411202
 11
3.999996125698146
 21
20.99996535480074
  0
LINE
  5
1de
100
AcDbEntity
  8
0
  6
CENTER
 62
     3
100
AcDbLine
 10
4.250030454247735
 20
25.74998817220347
 11
4.250030454247735
 21
20.99996535480074
  0
LINE
  5
1df
100
AcDbEntity
  8
0
  6
PHANTOM
 62
     3
100
AcDbLine
 10
4.499988488853148
 20
25.50001106411202
 11
4.499988488853148
 21
20.99996535480074
  0
LINE
  5
1e0
100
AcDbEntity
  8
0
  6
CONTINUOUS
 62
     7
100
AcDbLine
 10
4.999999925494194
 20
26.75001104548556
 11
4.999999925494194
 21
25.74998817220347
  0
LINE
  5
1e1
100
AcDbEntity
  8
0
  6
CONTINUOUS
 62
     7
100
AcDbLine
 10
3.850097598879074
 20
25.74998817220347
 11
3.850097598879074
 21
20.99996535480074
  0
LINE
  5
1e2
100
AcDbEntity
  8
0
  6
CONTINUOUS
 62
     7
100
AcDbLine
 10
-26.00000342726703
 20
5.200004500150612
 11
25.99996528029494
 21
5.200004500150612
  0
LINE
  5
1e3
100
AcDbEntity
  8
0
  6
CONTINUOUS
 62
     7
100
AcDbLine
 10
-26.00000342726703
 20
2.799987751245681
 11
25.99996528029494
 21
2.799987751245681
  0
LINE
  5
1e4
100
AcDbEntity
  8
0
  6
CONTINUOUS
 62
     7
100
AcDbLine
 10
-26.00000342726703
 20
-1.200046521424554
 11
25.99996528029494
 21
-1.200046521424554
  0
LINE
  5
1e5
100
AcDbEntity
  8
0
  6
CONTINUOUS
 62
     7
100
AcDbLine
 10
-26.00000342726703
 20
1.199989300966422
 11
25.99996528029494
 21
1.199989300966422
  0
LINE
  5
1e6
100
AcDbEntity
  8
0
  6
CONTINUOUS
 62
     7
100
AcDbLine
 10
-26.00000342726703
 20
-2.800025898217768
 11
25.99996528029494
 21
-2.800025898217768
  0
LINE
  5
1e7
100
AcDbEntity
  8
0
  6
CONTINUOUS
 62
     7
100
AcDbLine
 10
-26.00000829677986
 20
-9.999981412274989
 11
-27.00000575165591
 21
-9.249978049832324
  0
LINE
  5
1e8
100
AcDbEntity
  8
0
  6
CONTINUOUS
 62
     7
100
AcDbLine
 10
-26.00000342726703
 20
-5.200004500150612
 11
25.99996528029494
 21
-5.200004500150612
  0
LINE
  5
1e9
100
AcDbEntity
  8
0
  6
CONTINUOUS
 62
     7
100
AcDbLine
 10
-26.00000342726703
 20
-6.800022023915915
 11
25.99996528029494
 21
-6.800022023915915
  0
LINE
  5
1ea
100
AcDbEntity
  8
0
  6
CONTINUOUS
 62
     7
100
AcDbLine
 10
-26.00000342726703
 20
-9.200019699334803
 11
25.99996528029494
 21
-9.200019699334803
  0
LINE
  5
1eb
100
AcDbEntity
  8
0
  6
CONTINUOUS
 62
     7
100
AcDbLine
 10
-17.49999973922969
 20
-11.50003416091153
 11
-26.0000075995921
 21
-11.50003416091153
  0
LINE
  5
1ec
100
AcDbEntity
  8
0
  6
CONTINUOUS
 62
     7
100
AcDbLine
 10
-17.49999973922969
 20
-21.00002257525887
 11
-17.49999973922969
 21
-11.50003416091153
  0
LINE
  5
1ed
100
AcDbEntity
  8
0
  6
CONTINUOUS
 62
     3
100
AcDbLine
 10
-23.44954394869517
 20
-14.55052010090003
 11
-20.55043399759613
 21
-17.44962956324572
  0
LINE
  5
1ee
100
AcDbEntity
  8
0
  6
CONTINUOUS
 62
     3
100
AcDbLine
 10
-20.55039378100229
 20
-14.55047939554599
 11
-23.44953021732835
 21
-17.44961632062995
  0
LINE
  5
1ef
100
AcDbEntity
  8
0
  6
CONTINUOUS
 62
     7
100
AcDbLine
 10
25.99996528029494
 20
-21.00002257525887
 11
-26.00000342726703
 21
-21.00002257525887
  0
LINE
  5
1f0
100
AcDbEntity
  8
0
  6
CONTINUOUS
 62
     7
100
AcDbLine
 10
25.99996528029494
 20
20.99996535480074
 11
25.99996528029494
 21
-21.00002257525887
  0
LINE
  5
1f1
100
AcDbEntity
  8
0
  6
CONTINUOUS
 62
     3
100
AcDbLine
 10
23.44968809249117
 20
-14.55048917360771
 11
20.55055165616512
 21
-17.44962609869167
  0
LINE
  5
1f2
100
AcDbEntity
  8
0
  6
CONTINUOUS
 62
     3
100
AcDbLine
 10
20.55052443780351
 20
-14.55048941798887
 11
23.44963438890255
 21
-17.44959888033456
  0
LINE
  5
1f3
100
AcDbEntity
  8
0
  6
CONTINUOUS
 62
     7
100
AcDbLine
 10
17.49999973922968
 20
-11.50003416091153
 11
25.99996528029493
 21
-11.50003416091153
  0
LINE
  5
1f4
100
AcDbEntity
  8
0
  6
CONTINUOUS
 62
     7
100
AcDbLine
 10
17.49999973922968
 20
-20.90002028793066
 11
17.49999973922968
 21
-11.50003416091153
  0
LINE
  5
1f5
100
AcDbEntity
  8
0
  6
CONTINUOUS
 62
     7
100
AcDbLine
 10
28.99993853271099
 20
-13.50002268701758
 11
25.99996528029493
 21
-13.50002268701758
  0
LINE
  5
1f6
100
AcDbEntity
  8
0
  6
CONTINUOUS
 62
     7
100
AcDbLine
 10
28.99993853271099
 20
-13.50002268701758
 11
28.99993853271099
 21
13.49996546655945
  0
LINE
  5
1f7
100
AcDbEntity
  8
0
  6
CONTINUOUS
 62
     7
100
AcDbLine
 10
32.00004529952935
 20
-12.00000745058048
 11
28.99993376433947
 21
-12.00000745058048
  0
LINE
  5
1f8
100
AcDbEntity
  8
0
  6
CONTINUOUS
 62
     7
100
AcDbLine
 10
32.00004529952935
 20
-12.00000745058048
 11
32.00004529952935
 21
12.00000745058048
  0
LINE
  5
1f9
100
AcDbEntity
  8
0
  6
CONTINUOUS
 62
     7
100
AcDbLine
 10
56.6590300700213
 20
-4.750022817402737
 11
32.00002622604331
 21
-4.750022817402737
  0
LINE
  5
1fa
100
AcDbEntity
  8
0
  6
CONTINUOUS
 62
     7
100
AcDbLine
 10
56.6590300700213
 20
-2.25002285465564
 11
32.00002622604331
 21
-2.25002285465564
  0
LINE
  5
1fb
100
AcDbEntity
  8
0
  6
CONTINUOUS
 62
     7
100
AcDbLine
 10
56.6590300700213
 20
2.249965634197508
 11
32.00002622604331
 21
2.249965634197508
  0
LINE
  5
1fc
100
AcDbEntity
  8
0
  6
CONTINUOUS
 62
     7
100
AcDbLine
 10
56.6590300700213
 20
4.749965596944605
 11
32.00002622604331
 21
4.749965596944605
  0
LINE
  5
1fd
100
AcDbEntity
  8
0
  6
CONTINUOUS
 62
     7
100
AcDbLine
 10
56.6590300700213
 20
-2.25002285465564
 11
56.6590300700213
 21
-4.750022817402737
  0
LINE
  5
1fe
100
AcDbEntity
  8
0
  6
CONTINUOUS
 62
     7
100
AcDbLine
 10
56.65906984778805
 20
-2.875057031633325
 11
61.65907306554471
 21
-1.055204782543708
  0
LINE
  5
1ff
100
AcDbEntity
  8
0
  6
CONTINUOUS
 62
     7
100
AcDbLine
 10
56.65903525007466
 20
-4.125044546860265
 11
61.659031746626
 21
-5.944894349631332
  0
LINE
  5
200
100
AcDbEntity
  8
0
  6
CONTINUOUS
 62
     7
100
AcDbLine
 10
56.6590300700213
 20
4.749965596944605
 11
56.6590300700213
 21
2.249965634197508
  0
LINE
  5
201
100
AcDbEntity
  8
0
  6
CONTINUOUS
 62
     7
100
AcDbLine
 10
56.65902484167657
 20
2.874965279078133
 11
61.6590213382279
 21
1.055115476307073
  0
LINE
  5
202
100
AcDbEntity
  8
0
  6
CONTINUOUS
 62
     7
100
AcDbLine
 10
56.65906417799528
 20
4.124906347163003
 11
61.65904947253774
 21
5.944752072736483
  0
LINE
  5
203
100
AcDbEntity
  8
0
  6
CONTINUOUS
 62
     7
100
AcDbLine
 10
32.00004529952935
 20
12.00000745058048
 11
28.99993376433947
 21
12.00000745058048
  0
LINE
  5
204
100
AcDbEntity
  8
0
  6
CONTINUOUS
 62
     7
100
AcDbLine
 10
28.99993853271099
 20
13.49996546655945
 11
25.99996528029493
 21
13.49996546655945
  0
LINE
  5
205
100
AcDbEntity
  8
0
  6
CONTINUOUS
 62
     3
100
AcDbLine
 10
20.55045430544823
 20
17.44951495230801
 11
23.44956425654727
 21
14.55040548996232
  0
LINE
  5
206
100
AcDbEntity
  8
0
  6
CONTINUOUS
 62
     3
100
AcDbLine
 10
23.44959098615547
 20
17.44948822270435
 11
20.55045454982941
 21
14.55035129762039
  0
LINE
  5
207
100
AcDbEntity
  8
0
  6
CONTINUOUS
 62
     7
100
AcDbLine
 10
17.49999973922968
 20
11.49999601393944
 11
25.99996528029493
 21
11.49999601393944
  0
LINE
  5
208
100
AcDbEntity
  8
0
  6
CONTINUOUS
 62
     7
100
AcDbLine
 10
17.49999973922968
 20
20.99996535480074
 11
17.49999973922968
 21
11.49999601393944
  0
LINE
  5
209
100
AcDbEntity
  8
0
  6
CENTER
 62
     3
100
AcDbLine
 10
0
 20
32.69487332262287
 11
0
 21
-33.24583004048719
  0
LINE
  5
20a
100
AcDbEntity
  8
0
  6
CENTER
 62
     3
100
AcDbLine
 10
23.0000015646219
 20
-21.00002257525887
 11
23.0000015646219
 21
-28.00001102685911
  0
LINE
  5
20b
100
AcDbEntity
  8
0
  6
CENTER
 62
     3
100
AcDbLine
 10
18.00000163916409
 20
-22.99999202787888
 11
28.00000149007972
 21
-22.99999202787888
  0
LINE
  5
20c
100
AcDbEntity
  8
0
  6
CENTER
 62
     3
100
AcDbLine
 10
18.00000163912771
 20
23.00001110136492
 11
28.0000014901161
 21
23.00001110136492
  0
LINE
  5
20d
100
AcDbEntity
  8
0
  6
CONTINUOUS
 62
     7
100
AcDbLine
 10
29.99999955296517
 20
23.00001110136492
 11
29.99999955296517
 21
12.00000745058048
  0
LINE
  5
20e
100
AcDbEntity
  8
0
  6
CONTINUOUS
 62
     7
100
AcDbLine
 10
-29.99999955296517
 20
23.00001110136492
 11
-29.99999955296517
 21
3.999996125698146
  0
LINE
  5
20f
100
AcDbEntity
  8
0
  6
CONTINUOUS
 62
     7
100
AcDbLine
 10
-22.99999977648259
 20
-29.99999955296516
 11
23.0000015646219
 21
-29.99999955296516
  0
LINE
  5
210
100
AcDbEntity
  8
0
  6
CENTER
 62
     3
100
AcDbLine
 10
-22.99999918043615
 20
-21.00002257525887
 11
-22.99999918043615
 21
-28.00001102685911
  0
LINE
  5
211
100
AcDbEntity
  8
0
  6
CONTINUOUS
 62
     7
100
AcDbLine
 10
29.99999955296517
 20
-12.00000745058048
 11
29.99999955296517
 21
-22.99999202787888
  0
LINE
  5
212
100
AcDbEntity
  8
0
  6
CENTER
 62
     3
100
AcDbLine
 10
23.0000015646219
 20
28.00001102685911
 11
23.0000015646219
 21
20.99996535480074
  0
LINE
  5
213
100
AcDbEntity
  8
0
  6
CENTER
 62
     3
100
AcDbLine
 10
-22.99999918043615
 20
28.00001102685911
 11
-22.99999918043615
 21
20.99996535480074
  0
LINE
  5
214
100
AcDbEntity
  8
0
  6
CENTER
 62
     3
100
AcDbLine
 10
-27.99999910593034
 20
23.00001110136492
 11
-17.99999925494196
 21
23.00001110136492
  0
LINE
  5
215
100
AcDbEntity
  8
0
  6
CENTER
 62
     3
100
AcDbLine
 10
-27.99999910589396
 20
-22.99999202787888
 11
-17.99999925497833
 21
-22.99999202787888
  0
LINE
  5
216
100
AcDbEntity
  8
0
  6
CONTINUOUS
 62
     7
100
AcDbLine
 10
29.99999955296517
 20
21.99998822808283
 11
49.99999925494195
 21
21.99998822808283
  0
LINE
  5
217
100
AcDbEntity
  8
0
  6
CONTINUOUS
 62
     7
100
AcDbLine
 10
29.99999955296517
 20
-22.00000730156887
 11
49.99999925494195
 21
-22.00000730156887
  0
LINE
  5
218
100
AcDbEntity
  8
0
  6
CONTINUOUS
 62
     7
100
AcDbLine
 10
-29.99999955296517
 20
14.99999977648258
 11
-26.00000342726703
 21
14.99999977648258
  0
LINE
  5
219
100
AcDbEntity
  8
0
  6
CONTINUOUS
 62
     7
100
AcDbLine
 10
14.99999977648258
 20
30.00001862645121
 11
14.99999977648258
 21
23.00001110136492
  0
LINE
  5
21a
100
AcDbEntity
  8
0
  6
CONTINUOUS
 62
     7
100
AcDbLine
 10
-14.99999977648259
 20
30.00001862645121
 11
-14.99999977648259
 21
23.00001110136492
  0
LINE
  5
21b
100
AcDbEntity
  8
0
  6
CONTINUOUS
 62
     7
100
AcDbLine
 10
-29.99999955296517
 20
-14.99999977648258
 11
-26.00000342726703
 21
-14.99999977648258
  0
LINE
  5
21c
100
AcDbEntity
  8
0
  6
CONTINUOUS
 62
     7
100
AcDbLine
 10
25.99996528029493
 20
14.99999977648258
 11
29.99999955296516
 21
14.99999977648258
  0
LINE
  5
21d
100
AcDbEntity
  8
0
  6
CONTINUOUS
 62
     7
100
AcDbLine
 10
25.99996528029493
 20
-14.99999977648258
 11
29.99999955296516
 21
-14.99999977648258
  0
LINE
  5
21e
100
AcDbEntity
  8
0
  6
CONTINUOUS
 62
     7
100
AcDbLine
 10
-14.99999977648259
 20
-22.99999202787888
 11
-14.99999977648259
 21
-29.99999955296516
  0
LINE
  5
21f
100
AcDbEntity
  8
0
  6
CONTINUOUS
 62
     7
100
AcDbLine
 10
14.99999977648258
 20
-22.99999202787888
 11
14.99999977648258
 21
-29.99999955296516
  0
LINE
  5
220
100
AcDbEntity
  8
0
  6
CONTINUOUS
 62
     7
100
AcDbLine
 10
-29.99999955296517
 20
-3.999996125698146
 11
-29.99999955296517
 21
-22.99999202787888
  0
LINE
  5
221
100
AcDbEntity
  8
0
  6
CONTINUOUS
 62
     7
100
AcDbLine
 10
-49.99999925494196
 20
21.99998822808283
 11
-49.99999925494196
 21
-22.00000730156887
  0
LINE
  5
222
100
AcDbEntity
  8
0
  6
CONTINUOUS
 62
     7
100
AcDbLine
 10
24.79526652596063
 20
20.99996535480074
 11
25.94999221994844
 21
23.00001320965569
  0
LINE
  5
223
100
AcDbEntity
  8
0
  6
CONTINUOUS
 62
     7
100
AcDbLine
 10
25.94999614528458
 20
22.99997413872249
 11
24.47499705955686
 21
25.55475043794927
  0
LINE
  5
224
100
AcDbEntity
  8
0
  6
CONTINUOUS
 62
     7
100
AcDbLine
 10
20.04997741605717
 20
23.00000816330238
 11
21.20470486963071
 21
20.99996047092226
  0
LINE
  5
225
100
AcDbEntity
  8
0
  6
CONTINUOUS
 62
     7
100
AcDbLine
 10
21.52499379858594
 20
25.55480402336661
 11
20.04999540283671
 21
23.00002732578114
  0
LINE
  5
226
100
AcDbEntity
  8
0
  6
CONTINUOUS
 62
     7
100
AcDbLine
 10
24.47500192411241
 20
25.55479011603012
 11
21.52500120513139
 21
25.55479011603012
  0
LINE
  5
227
100
AcDbEntity
  8
0
  6
CONTINUOUS
 62
     7
100
AcDbLine
 10
20.05000253566525
 20
-23.00000617215889
 11
21.20472045249961
 21
-20.99997499790445
  0
LINE
  5
228
100
AcDbEntity
  8
0
  6
CONTINUOUS
 62
     7
100
AcDbLine
 10
-24.474998645857
 20
-25.55479011603012
 11
-21.52499882094564
 21
-25.55479011603012
  0
LINE
  5
229
100
AcDbEntity
  8
0
  6
CONTINUOUS
 62
     7
100
AcDbLine
 10
-25.95001523077034
 20
-23.00000224042176
 11
-24.4750161450426
 21
-25.55477853964857
  0
LINE
  5
22a
100
AcDbEntity
  8
0
  6
CONTINUOUS
 62
     7
100
AcDbLine
 10
-24.79529009652968
 20
-21.00002257525887
 11
-25.9499843618999
 21
-23.00001599403472
  0
LINE
  5
22b
100
AcDbEntity
  8
0
  6
CONTINUOUS
 62
     7
100
AcDbLine
 10
-24.474998645857
 20
25.55479011603012
 11
-21.52499882094564
 21
25.55479011603012
  0
LINE
  5
22c
100
AcDbEntity
  8
0
  6
CONTINUOUS
 62
     7
100
AcDbLine
 10
-21.5249981531765
 20
25.55480182087741
 11
-20.04999975742726
 21
23.00002512329195
  0
LINE
  5
22d
100
AcDbEntity
  8
0
  6
CONTINUOUS
 62
     7
100
AcDbLine
 10
-20.04999701110399
 20
23.00001068164631
 11
-21.20472446467753
 21
20.9999629892662
  0
LINE
  5
22e
100
AcDbEntity
  8
0
  6
CONTINUOUS
 62
     7
100
AcDbLine
 10
-24.79526635851974
 20
20.99996535480074
 11
-25.94998831547385
 21
23.00000673690958
  0
LINE
  5
22f
100
AcDbEntity
  8
0
  6
CONTINUOUS
 62
     7
100
AcDbLine
 10
-25.9499979445352
 20
23.00000354691979
 11
-24.47499885880747
 21
25.55477984614657
  0
LINE
  5
230
100
AcDbEntity
  8
0
  6
CONTINUOUS
 62
     7
100
AcDbLine
 10
21.52500201120459
 20
-25.55477257824899
 11
20.05000361545535
 21
-22.99999588066353
  0
LINE
  5
231
100
AcDbEntity
  8
0
  6
CONTINUOUS
 62
     7
100
AcDbLine
 10
24.47500192411241
 20
-25.55479011603012
 11
21.52500120513139
 21
-25.55479011603012
  0
LINE
  5
232
100
AcDbEntity
  8
0
  6
CONTINUOUS
 62
     7
100
AcDbLine
 10
25.95001913524247
 20
-23.00002017358303
 11
24.47502004951474
 21
-25.55479647280981
  0
LINE
  5
233
100
AcDbEntity
  8
0
  6
CONTINUOUS
 62
     7
100
AcDbLine
 10
24.79530127604694
 20
-21.00002257525887
 11
25.94999652544064
 21
-23.00001769841705
  0
LINE
  5
234
100
AcDbEntity
  8
0
  6
CONTINUOUS
 62
     7
100
AcDbLine
 10
-20.04999607584725
 20
-23.00001567188931
 11
-21.20472352942081
 21
-20.99996797950917
  0
LINE
  5
235
100
AcDbEntity
  8
0
  6
CONTINUOUS
 62
     7
100
AcDbLine
 10
49.99999925494195
 20
21.99998822808283
 11
49.99999925494195
 21
4.749965596944605
  0
LINE
  5
236
100
AcDbEntity
  8
0
  6
CONTINUOUS
 62
     7
100
AcDbLine
 10
-21.52499810672971
 20
-25.55477514412494
 11
-20.04999971098048
 21
-22.99999844653948
  0
LINE
  5
237
100
AcDbEntity
  8
0
  6
CONTINUOUS
 62
     7
100
AcDbLine
 10
32.00004529952935
 20
-6.000003725290242
 11
32.99999664723878
 21
-6.000003725290242
  0
LINE
  5
238
100
AcDbEntity
  8
0
  6
CONTINUOUS
 62
     7
100
AcDbLine
 10
32.00004529952935
 20
6.000003725290242
 11
32.99999664723878
 21
6.000003725290242
  0
LINE
  5
239
100
AcDbEntity
  8
0
  6
CONTINUOUS
 62
     7
100
AcDbLine
 10
-32.99999664723878
 20
-6.000003725290242
 11
-29.99999955296517
 21
-6.000003725290242
  0
LINE
  5
23a
100
AcDbEntity
  8
0
  6
CONTINUOUS
 62
     7
100
AcDbLine
 10
-32.99999664723878
 20
6.000003725290242
 11
-29.99999955296517
 21
6.000003725290242
  0
LINE
  5
23b
100
AcDbEntity
  8
0
  6
CONTINUOUS
 62
     7
100
AcDbLine
 10
49.99999925494195
 20
2.249965634197508
 11
49.99999925494195
 21
-2.25002285465564
  0
LINE
  5
23c
100
AcDbEntity
  8
0
  6
CONTINUOUS
 62
     7
100
AcDbLine
 10
49.99999925494195
 20
-4.750022817402737
 11
49.99999925494195
 21
-22.00000730156887
  0
LINE
  5
23d
100
AcDbEntity
  8
0
  6
CONTINUOUS
 62
     7
100
AcDbLine
 10
61.86296370829695
 20
3.499965615571057
 11
56.6590300700213
 21
3.499965615571057
  0
LINE
  5
23e
100
AcDbEntity
  8
0
  6
CONTINUOUS
 62
     7
100
AcDbLine
 10
61.78085235087793
 20
-3.500022836029189
 11
56.6590300700213
 21
-3.500022836029189
  0
CIRCLE
  5
23f
100
AcDbEntity
  8
0
  6
CONTINUOUS
 62
     7
100
AcDbCircle
 10
-22.00004544854097
 20
15.99996542930654
 40
3.50000108033417
  0
ARC
  5
240
100
AcDbEntity
  8
0
  6
CONTINUOUS
 62
    20
100
AcDbCircle
 10
-4.250011380761691
 20
25.74998817220347
 40
0.2500001490116097
100
AcDbArc
 50
180.000022311801
 51
360
  0
CIRCLE
  5
241
100
AcDbEntity
  8
0
  6
CONTINUOUS
 62
    20
100
AcDbCircle
 10
4.249992307275647
 20
25.50001106411202
 40
0.2500001490116097
  0
CIRCLE
  5
242
100
AcDbEntity
  8
0
  6
CONTINUOUS
 62
     7
100
AcDbCircle
 10
-21.99996915459679
 20
-16.00002264976467
 40
3.50000108033417
  0
CIRCLE
  5
243
100
AcDbEntity
  8
0
  6
CONTINUOUS
 62
     7
100
AcDbCircle
 10
22.00004544854097
 20
-16.00002264976467
 40
3.50000108033417
  0
CIRCLE
  5
244
100
AcDbEntity
  8
0
  6
CONTINUOUS
 62
     7
100
AcDbCircle
 10
21.99998822808283
 20
15.99996542930654
 40
3.50000108033417
  0
ARC
  5
245
100
AcDbEntity
  8
0
  6
CONTINUOUS
 62
     7
100
AcDbCircle
 10
23.0000015646219
 20
23.00001110136492
 40
6.999999776482585
100
AcDbArc
 50
359.9996877626959
 51
89.99998201391065
  0
ARC
  5
246
100
AcDbEntity
  8
0
  6
CONTINUOUS
 62
     7
100
AcDbCircle
 10
-22.99999977648259
 20
-22.99999202787888
 40
6.999999776482585
100
AcDbArc
 50
180.0001315948278
 51
270.00001798609
  0
ARC
  5
247
100
AcDbEntity
  8
0
  6
CONTINUOUS
 62
     7
100
AcDbCircle
 10
-22.99999977648259
 20
23.00001110136492
 40
6.999999776482585
100
AcDbArc
 50
89.99998201391065
 51
180.0002782165238
  0
ARC
  5
248
100
AcDbEntity
  8
0
  6
CONTINUOUS
 62
     7
100
AcDbCircle
 10
23.0000015646219
 20
-22.99999202787888
 40
6.999999776482585
100
AcDbArc
 50
270.00001798609
 51
359.9998438813483
  0
ARC
  5
249
100
AcDbEntity
  8
0
  6
CONTINUOUS
 62
     7
100
AcDbCircle
 10
-22.99999918043615
 20
23.00001110136492
 40
8
100
AcDbArc
 50
345.5221487616149
 51
360
  0
ARC
  5
24a
100
AcDbEntity
  8
0
  6
CONTINUOUS
 62
     7
100
AcDbCircle
 10
23.0000015646219
 20
23.00001110136492
 40
8
100
AcDbArc
 50
179.9999813306653
 51
194.4778376916937
  0
ARC
  5
24b
100
AcDbEntity
  8
0
  6
CONTINUOUS
 62
     7
100
AcDbCircle
 10
23.0000015646219
 20
-23.00001110136492
 40
8
100
AcDbArc
 50
165.5225994404139
 51
179.9998820655513
  0
ARC
  5
24c
100
AcDbEntity
  8
0
  6
CONTINUOUS
 62
     7
100
AcDbCircle
 10
-22.99999918043615
 20
-23.00001110136492
 40
8
100
AcDbArc
 50
0.0001366037964279364
 51
14.47742776665723
  0
ARC
  5
24d
100
AcDbEntity
  8
0
  6
CONTINUOUS
 62
     7
100
AcDbCircle
 10
-32.99999903142454
 20
0
 40
4.999999925494195
100
AcDbArc
 50
306.8699187107633
 51
53.13008128923739
  0
ARC
  5
24e
100
AcDbEntity
  8
0
  6
CONTINUOUS
 62
     7
100
AcDbCircle
 10
23.0000015646219
 20
23.00001110136492
 40
4.999999925494195
100
AcDbArc
 50
306.8698162579258
 51
203.5787059484331
  0
ARC
  5
24f
100
AcDbEntity
  8
0
  6
CONTINUOUS
 62
     7
100
AcDbCircle
 10
-22.99999918043615
 20
23.00001110136492
 40
4.999999925494195
100
AcDbArc
 50
336.4212478341058
 51
233.130147769897
  0
ARC
  5
250
100
AcDbEntity
  8
0
  6
CONTINUOUS
 62
     7
100
AcDbCircle
 10
-22.99999918043615
 20
-23.00001110136492
 40
4.999999925494195
100
AcDbArc
 50
126.8697802857464
 51
23.57866997625377
  0
ARC
  5
251
100
AcDbEntity
  8
0
  6
CONTINUOUS
 62
     7
100
AcDbCircle
 10
23.0000015646219
 20
-23.00001110136492
 40
4.999999925494195
100
AcDbArc
 50
156.4212767487235
 51
53.13016643923092
  0
ARC
  5
252
100
AcDbEntity
  8
0
  6
CONTINUOUS
 62
     7
100
AcDbCircle
 10
-32.99999664723878
 20
0
 40
6.000003725290243
100
AcDbArc
 50
89.99998201391067
 51
270.0000006832461
  0
ARC
  5
253
100
AcDbEntity
  8
0
  6
CONTINUOUS
 62
     7
100
AcDbCircle
 10
32.99999664723878
 20
0
 40
6.000003725290243
100
AcDbArc
 50
270.00001798609
 51
307.6581430315503
  0
ARC
  5
254
100
AcDbEntity
  8
0
  6
CONTINUOUS
 62
     7
100
AcDbCircle
 10
32.99999664723878
 20
0
 40
6.000003725290243
100
AcDbArc
 50
52.34094513819624
 51
89.99998201391067
  0
ARC
  5
255
100
AcDbEntity
  8
0
  6
CONTINUOUS
 62
     7
100
AcDbCircle
 10
32.99999664723878
 20
0
 40
6.000003725290243
100
AcDbArc
 50
337.9754642099314
 51
22.02394327115882
  0
MTEXT
  5
256
100
AcDbEntity
  8
0
  6
CONTINUOUS
 62
     7
100
AcDbMText
 10
-12.43665038083555
 20
15.08216516238997
 40
0.5
 41
36
 71
     7
 72
     1
  1
{\W0.8426;ＢＮ－５ＢＰ２１－２５－Ｅ／Ｆ＊＊＊}
  0
ENDBLK
  8
0
  5
257
100
AcDbEntity
100
AcDbBlockEnd
  0
BLOCK
  8
0
  5
258
100
AcDbEntity
100
AcDbBlockBegin
  2
KOZU0003
 70
    64
 10
0
 20
0
  0
POINT
  5
259
100
AcDbEntity
  8
0
  6
CONTINUOUS
 62
     7
100
AcDbPoint
 10
0
 20
0
  0
LINE
  5
25a
100
AcDbEntity
  8
0
  6
DASHED
 62
     7
100
AcDbLine
 10
27.00000022667052
 20
19.04999924981356
 11
26.16284458358111
 21
20.49999533146255
  0
LINE
  5
25b
100
AcDbEntity
  8
0
  6
CENTER
 62
     3
100
AcDbLine
 10
30.68176209589184
 20
21.99999478459367
 11
19.47848701212885
 21
21.99999478459367
  0
LINE
  5
25c
100
AcDbEntity
  8
0
  6
DASHED
 62
     7
100
AcDbLine
 10
27.00000022351742
 20
24.94999107346015
 11
27.00000022351742
 21
19.04999849572717
  0
LINE
  5
25d
100
AcDbEntity
  8
0
  6
DASHED
 62
     7
100
AcDbLine
 10
26.16284220751186
 20
20.49999511986978
 11
20.00000178813932
 21
20.49999511986978
  0
LINE
  5
25e
100
AcDbEntity
  8
0
  6
DASHED
 62
     7
100
AcDbLine
 10
29.99999955296518
 20
19.04999849572717
 11
27.00000022351742
 21
19.04999849572717
  0
LINE
  5
25f
100
AcDbEntity
  8
0
  6
DASHED
 62
     7
100
AcDbLine
 10
29.99999955296518
 20
24.94999107346015
 11
27.00000022351742
 21
24.94999107346015
  0
LINE
  5
260
100
AcDbEntity
  8
0
  6
DASHED
 62
     7
100
AcDbLine
 10
26.16284220751186
 20
23.49999444931754
 11
20.00000178813932
 21
23.49999444931754
  0
LINE
  5
261
100
AcDbEntity
  8
0
  6
DASHED
 62
     7
100
AcDbLine
 10
26.16284220751186
 20
23.49999444931754
 11
26.16284220751186
 21
20.49999511986978
  0
LINE
  5
262
100
AcDbEntity
  8
0
  6
DASHED
 62
     7
100
AcDbLine
 10
26.99999712722966
 20
24.94998505867415
 11
26.1628467293479
 21
23.49999806199113
  0
LINE
  5
263
100
AcDbEntity
  8
0
  6
CENTER
 62
     3
100
AcDbLine
 10
0
 20
171.5398572155854
 11
0
 21
-46.80644442429477
  0
LINE
  5
264
100
AcDbEntity
  8
0
  6
CENTER
 62
     3
100
AcDbLine
 10
19.36398083873798
 20
0
 11
-19.31477546065754
 21
0
  0
LINE
  5
265
100
AcDbEntity
  8
0
  6
CONTINUOUS
 62
     7
100
AcDbLine
 10
29.99999955296518
 20
26.00000342726702
 11
29.99999955296518
 21
-22.00000253319737
  0
LINE
  5
266
100
AcDbEntity
  8
0
  6
CONTINUOUS
 62
     7
100
AcDbLine
 10
30.00002816319424
 20
25.999993890524
 11
-29.99998047947912
 21
25.999993890524
  0
LINE
  5
267
100
AcDbEntity
  8
0
  6
CONTINUOUS
 62
     7
100
AcDbLine
 10
29.99999955296518
 20
-22.00000253319737
 11
-29.99999955296516
 21
-22.00000253319737
  0
LINE
  5
268
100
AcDbEntity
  8
0
  6
CONTINUOUS
 62
     7
100
AcDbLine
 10
21.99998822808283
 20
13.59675333135118
 11
21.99998822808283
 21
-13.59674856297967
  0
LINE
  5
269
100
AcDbEntity
  8
0
  6
CONTINUOUS
 62
     7
100
AcDbLine
 10
5.999984651804198
 20
26.00000342726702
 11
5.999984651804198
 21
21.44995968127704
  0
LINE
  5
26a
100
AcDbEntity
  8
0
  6
CONTINUOUS
 62
     7
100
AcDbLine
 10
-29.99999955296516
 20
26.00000342726702
 11
-29.99999955296516
 21
-22.00000253319737
  0
LINE
  5
26b
100
AcDbEntity
  8
0
  6
CONTINUOUS
 62
     7
100
AcDbLine
 10
-22.00000730156887
 20
13.59673627150886
 11
-22.00000730156887
 21
-13.59673150313735
  0
LINE
  5
26c
100
AcDbEntity
  8
0
  6
CONTINUOUS
 62
     7
100
AcDbLine
 10
-5.999984651804198
 20
26.00000342726702
 11
-5.999984651804198
 21
21.44995968127704
  0
LINE
  5
26d
100
AcDbEntity
  8
0
  6
CONTINUOUS
 62
     7
100
AcDbLine
 10
24.00000390414525
 20
-22.00000253319737
 11
23.00000114544677
 21
-26.00001307647749
  0
LINE
  5
26e
100
AcDbEntity
  8
0
  6
CONTINUOUS
 62
     7
100
AcDbLine
 10
-23.99996251924264
 20
-22.00000253319737
 11
-22.99996285526826
 21
-26.00000069758262
  0
LINE
  5
26f
100
AcDbEntity
  8
0
  6
CONTINUOUS
 62
     7
100
AcDbLine
 10
-22.99997295439283
 20
-25.999993890524
 11
23.00003017485098
 21
-25.999993890524
  0
LINE
  5
270
100
AcDbEntity
  8
0
  6
CONTINUOUS
 62
     7
100
AcDbLine
 10
22.49999966472387
 20
-42.00000223517414
 11
-22.49999966472387
 21
-42.00000223517414
  0
LINE
  5
271
100
AcDbEntity
  8
0
  6
CONTINUOUS
 62
     7
100
AcDbLine
 10
-22.49999966472387
 20
-25.999993890524
 11
-22.49999966472387
 21
-42.00000223517414
  0
LINE
  5
272
100
AcDbEntity
  8
0
  6
CONTINUOUS
 62
     7
100
AcDbLine
 10
22.49999966472387
 20
-25.999993890524
 11
22.49999966472387
 21
-42.00000223517414
  0
LINE
  5
273
100
AcDbEntity
  8
0
  6
CONTINUOUS
 62
     7
100
AcDbLine
 10
29.99999955296518
 20
76.00000268220897
 11
-29.99999955296516
 21
76.00000268220897
  0
LINE
  5
274
100
AcDbEntity
  8
0
  6
CONTINUOUS
 62
     7
100
AcDbLine
 10
25.99998435378097
 20
84.99999873340131
 11
25.99998435378097
 21
76.00000268220897
  0
LINE
  5
275
100
AcDbEntity
  8
0
  6
CONTINUOUS
 62
     7
100
AcDbLine
 10
-26.00002250075306
 20
84.99999873340131
 11
-26.00002250075306
 21
76.00000268220897
  0
LINE
  5
276
100
AcDbEntity
  8
0
  6
CONTINUOUS
 62
     7
100
AcDbLine
 10
-29.99999955296516
 20
76.00000268220897
 11
-29.99999955296516
 21
56.0000029802322
  0
LINE
  5
277
100
AcDbEntity
  8
0
  6
CONTINUOUS
 62
     7
100
AcDbLine
 10
29.99999955296518
 20
76.00000268220897
 11
29.99999955296518
 21
56.0000029802322
  0
LINE
  5
278
100
AcDbEntity
  8
0
  6
CONTINUOUS
 62
     7
100
AcDbLine
 10
30.00003769993727
 20
55.99999344348917
 11
-29.99998047947912
 21
55.99999344348917
  0
LINE
  5
279
100
AcDbEntity
  8
0
  6
CENTER
 62
     3
100
AcDbLine
 10
-23.4117695180808
 20
18.0000016391277
 11
-31.40493346147338
 21
18.0000016391277
  0
LINE
  5
27a
100
AcDbEntity
  8
0
  6
DASHED
 62
     3
100
AcDbLine
 10
-23.99997675418888
 20
15.50000167638061
 11
-29.99998047947912
 21
15.50000167638061
  0
LINE
  5
27b
100
AcDbEntity
  8
0
  6
DASHED
 62
     3
100
AcDbLine
 10
-23.99997675418888
 20
20.5000016018748
 11
-29.99998047947912
 21
20.5000016018748
  0
LINE
  5
27c
100
AcDbEntity
  8
0
  6
DASHED
 62
     7
100
AcDbLine
 10
-23.99997675418888
 20
15.93299841980638
 11
-29.99998047947912
 21
15.93299841980638
  0
LINE
  5
27d
100
AcDbEntity
  8
0
  6
DASHED
 62
     7
100
AcDbLine
 10
-23.99997675418888
 20
20.066995321706
 11
-29.99998047947912
 21
20.066995321706
  0
LINE
  5
27e
100
AcDbEntity
  8
0
  6
CENTER
 62
     3
100
AcDbLine
 10
22.99999202787888
 20
76.00000268220897
 11
22.99999202787888
 21
25.999993890524
  0
LINE
  5
27f
100
AcDbEntity
  8
0
  6
CONTINUOUS
 62
     7
100
AcDbLine
 10
-18.00001117587073
 20
74.4999969825149
 11
-28.00001102685911
 21
74.4999969825149
  0
LINE
  5
280
100
AcDbEntity
  8
0
  6
CONTINUOUS
 62
     7
100
AcDbLine
 10
-18.00001117587073
 20
68.50000279396768
 11
-28.00001102685911
 21
68.50000279396768
  0
LINE
  5
281
100
AcDbEntity
  8
0
  6
CONTINUOUS
 62
     7
100
AcDbLine
 10
-18.00001117587073
 20
74.4999969825149
 11
-18.00001117587073
 21
66.99999709427361
  0
LINE
  5
282
100
AcDbEntity
  8
0
  6
CONTINUOUS
 62
     7
100
AcDbLine
 10
-28.00001102685911
 20
74.4999969825149
 11
-28.00001102685911
 21
66.99999709427361
  0
LINE
  5
283
100
AcDbEntity
  8
0
  6
CENTER
 62
     3
100
AcDbLine
 10
-23.00001110136492
 20
76.00000268220897
 11
-23.00001110136492
 21
25.999993890524
  0
LINE
  5
284
100
AcDbEntity
  8
0
  6
CONTINUOUS
 62
     7
100
AcDbLine
 10
-14.99999977648258
 20
66.99999709427361
 11
-29.99999955296516
 21
66.99999709427361
  0
LINE
  5
285
100
AcDbEntity
  8
0
  6
CONTINUOUS
 62
     7
100
AcDbLine
 10
-14.99999977648258
 20
76.00000268220897
 11
-14.99999977648258
 21
66.99999709427361
  0
LINE
  5
286
100
AcDbEntity
  8
0
  6
CONTINUOUS
 62
     7
100
AcDbLine
 10
25.99998435378097
 20
56.0000029802322
 11
25.99998435378097
 21
26.00000342726702
  0
LINE
  5
287
100
AcDbEntity
  8
0
  6
CONTINUOUS
 62
     7
100
AcDbLine
 10
19.99999970197678
 20
56.0000029802322
 11
19.99999970197678
 21
26.00000342726702
  0
LINE
  5
288
100
AcDbEntity
  8
0
  6
CONTINUOUS
 62
     7
100
AcDbLine
 10
-19.99999970197678
 20
56.0000029802322
 11
-19.99999970197678
 21
26.00000342726702
  0
LINE
  5
289
100
AcDbEntity
  8
0
  6
CONTINUOUS
 62
     7
100
AcDbLine
 10
-26.00002250075306
 20
56.0000029802322
 11
-26.00002250075306
 21
26.00000342726702
  0
LINE
  5
28a
100
AcDbEntity
  8
0
  6
CONTINUOUS
 62
     7
100
AcDbLine
 10
-27.49999959021807
 20
55.99999344348917
 11
-27.49999959021807
 21
25.999993890524
  0
LINE
  5
28b
100
AcDbEntity
  8
0
  6
CONTINUOUS
 62
     7
100
AcDbLine
 10
27.49999959021807
 20
55.99999344348917
 11
27.49999959021807
 21
25.999993890524
  0
LINE
  5
28c
100
AcDbEntity
  8
0
  6
CONTINUOUS
 62
     7
100
AcDbLine
 10
25.99998435378099
 20
84.99998919665829
 11
-26.00002250075306
 21
84.99998919665829
  0
LINE
  5
28d
100
AcDbEntity
  8
0
  6
CONTINUOUS
 62
     7
100
AcDbLine
 10
20.99998442828678
 20
84.99997965991527
 11
20.99998442828678
 21
123.0000286847349
  0
LINE
  5
28e
100
AcDbEntity
  8
0
  6
CENTER
 62
     3
100
AcDbLine
 10
-14.96593453040816
 20
98.9999756366018
 11
15.06000496357673
 21
98.9999756366018
  0
LINE
  5
28f
100
AcDbEntity
  8
0
  6
CONTINUOUS
 62
     7
100
AcDbLine
 10
-20.99998442828678
 20
84.99997965991527
 11
-20.99998442828678
 21
123.0000286847349
  0
LINE
  5
290
100
AcDbEntity
  8
0
  6
PHANTOM
 62
     3
100
AcDbLine
 10
-25.75000724568952
 20
92.99993376433947
 11
-20.99998442828678
 21
92.99993376433947
  0
LINE
  5
291
100
AcDbEntity
  8
0
  6
CENTER
 62
     3
100
AcDbLine
 10
-25.75004539266161
 20
92.74997572973406
 11
-20.99998442828678
 21
92.74997572973406
  0
LINE
  5
292
100
AcDbEntity
  8
0
  6
PHANTOM
 62
     3
100
AcDbLine
 10
-25.75000724568952
 20
92.49996047467052
 11
-20.99998442828678
 21
92.49996047467052
  0
LINE
  5
293
100
AcDbEntity
  8
0
  6
CONTINUOUS
 62
     7
100
AcDbLine
 10
-25.75004539266161
 20
101.99998703599
 11
-25.75004539266161
 21
91.99994903802947
  0
LINE
  5
294
100
AcDbEntity
  8
0
  6
CONTINUOUS
 62
     7
100
AcDbLine
 10
-26.75003011897161
 20
91.99994903802947
 11
-25.75000724568952
 21
91.99994903802947
  0
LINE
  5
295
100
AcDbEntity
  8
0
  6
CONTINUOUS
 62
     7
100
AcDbLine
 10
-26.75003011897161
 20
101.9999488890179
 11
-26.75003011897161
 21
91.99994903802947
  0
LINE
  5
296
100
AcDbEntity
  8
0
  6
CENTER
 62
     3
100
AcDbLine
 10
-28.05620151674447
 20
96.99994896352366
 11
-20.99998442828678
 21
96.99994896352366
  0
LINE
  5
297
100
AcDbEntity
  8
0
  6
CONTINUOUS
 62
     7
100
AcDbLine
 10
-26.75003011897161
 20
101.9999488890179
 11
-25.75000724568952
 21
101.9999488890179
  0
LINE
  5
298
100
AcDbEntity
  8
0
  6
CENTER
 62
     3
100
AcDbLine
 10
-25.75004539266161
 20
101.2499603442854
 11
-20.99998442828678
 21
101.2499603442854
  0
LINE
  5
299
100
AcDbEntity
  8
0
  6
PHANTOM
 62
     3
100
AcDbLine
 10
-25.49999199062597
 20
101.4999183788908
 11
-20.99998442828678
 21
101.4999183788908
  0
LINE
  5
29a
100
AcDbEntity
  8
0
  6
PHANTOM
 62
     3
100
AcDbLine
 10
-25.49999199062597
 20
100.9999641627079
 11
-20.99998442828678
 21
100.9999641627079
  0
LINE
  5
29b
100
AcDbEntity
  8
0
  6
CONTINUOUS
 62
     7
100
AcDbLine
 10
-25.75000724568952
 20
100.8500465624027
 11
-20.99998442828678
 21
100.8500465624027
  0
LINE
  5
29c
100
AcDbEntity
  8
0
  6
CONTINUOUS
 62
     7
100
AcDbLine
 10
-25.75000724568952
 20
93.1499848790469
 11
-20.99998442828678
 21
93.1499848790469
  0
LINE
  5
29d
100
AcDbEntity
  8
0
  6
CENTER
 62
     3
100
AcDbLine
 10
-15.99998450279259
 20
128.1055431350239
 11
-15.99998450279259
 21
123.0000286847349
  0
LINE
  5
29e
100
AcDbEntity
  8
0
  6
CONTINUOUS
 62
     7
100
AcDbLine
 10
-20.99998442828678
 20
115.9999639391904
 11
20.99998442828679
 21
115.9999639391904
  0
LINE
  5
29f
100
AcDbEntity
  8
0
  6
CONTINUOUS
 62
     7
100
AcDbLine
 10
20.00000690784285
 20
167.0000051409005
 11
20.99999251572132
 21
122.9999933947206
  0
LINE
  5
2a0
100
AcDbEntity
  8
0
  6
CONTINUOUS
 62
     7
100
AcDbLine
 10
10.80048691300107
 20
167.0000051409006
 11
11.49956782304212
 21
123.0000286847348
  0
LINE
  5
2a1
100
AcDbEntity
  8
0
  6
CONTINUOUS
 62
     7
100
AcDbLine
 10
8.799781668189439
 20
164.5000051781534
 11
8.799781668189439
 21
116.9999868124725
  0
LINE
  5
2a2
100
AcDbEntity
  8
0
  6
CONTINUOUS
 62
     7
100
AcDbLine
 10
8.799781668189439
 20
116.9999677389865
 11
-8.800010550021966
 21
116.9999677389865
  0
LINE
  5
2a3
100
AcDbEntity
  8
0
  6
CONTINUOUS
 62
     7
100
AcDbLine
 10
7.199897658826444
 20
164.5000051781534
 11
7.199897658826444
 21
116.9999868124725
  0
LINE
  5
2a4
100
AcDbEntity
  8
0
  6
CONTINUOUS
 62
     7
100
AcDbLine
 10
4.7999190568936
 20
164.5000051781534
 11
4.7999190568936
 21
116.9999868124725
  0
LINE
  5
2a5
100
AcDbEntity
  8
0
  6
CONTINUOUS
 62
     7
100
AcDbLine
 10
3.199882459642254
 20
164.5000051781534
 11
3.199882459642254
 21
116.9999868124725
  0
LINE
  5
2a6
100
AcDbEntity
  8
0
  6
CONTINUOUS
 62
     7
100
AcDbLine
 10
0.7999038577094098
 20
164.5000051781534
 11
0.7999038577094098
 21
116.9999868124725
  0
LINE
  5
2a7
100
AcDbEntity
  8
0
  6
CONTINUOUS
 62
     7
100
AcDbLine
 10
-0.7999801516535854
 20
164.5000051781534
 11
-0.7999801516535854
 21
116.9999868124725
  0
LINE
  5
2a8
100
AcDbEntity
  8
0
  6
CONTINUOUS
 62
     7
100
AcDbLine
 10
-3.199920606614342
 20
164.5000051781534
 11
-3.199920606614342
 21
116.9999868124725
  0
LINE
  5
2a9
100
AcDbEntity
  8
0
  6
CONTINUOUS
 62
     7
100
AcDbLine
 10
-4.800186085698215
 20
164.5000051781534
 11
-4.800186085698215
 21
116.9999868124725
  0
LINE
  5
2aa
100
AcDbEntity
  8
0
  6
CONTINUOUS
 62
     7
100
AcDbLine
 10
-7.200164687631059
 20
164.5000051781534
 11
-7.200164687631059
 21
116.9999868124725
  0
LINE
  5
2ab
100
AcDbEntity
  8
0
  6
CONTINUOUS
 62
     7
100
AcDbLine
 10
-8.800010550021966
 20
164.5000051781534
 11
-8.800010550021966
 21
116.9999868124725
  0
LINE
  5
2ac
100
AcDbEntity
  8
0
  6
CONTINUOUS
 62
     7
100
AcDbLine
 10
-10.80033973803994
 20
167.0000051409005
 11
-11.49942064808099
 21
123.0000286847348
  0
LINE
  5
2ad
100
AcDbEntity
  8
0
  6
CONTINUOUS
 62
     7
100
AcDbLine
 10
-20.99998442828678
 20
123.0000286847349
 11
-11.49942064808099
 21
123.0000286847349
  0
LINE
  5
2ae
100
AcDbEntity
  8
0
  6
CONTINUOUS
 62
     7
100
AcDbLine
 10
-19.50000733882177
 20
124.0000134110449
 11
-12.4999616667634
 21
124.0000134110449
  0
LINE
  5
2af
100
AcDbEntity
  8
0
  6
CONTINUOUS
 62
     7
100
AcDbLine
 10
-12.4999616667634
 20
125.3000240728256
 11
-12.4999616667634
 21
123.0000286847349
  0
LINE
  5
2b0
100
AcDbEntity
  8
0
  6
CONTINUOUS
 62
     7
100
AcDbLine
 10
-19.50000733882177
 20
125.3000240728256
 11
-19.50000733882177
 21
123.0000286847349
  0
LINE
  5
2b1
100
AcDbEntity
  8
0
  6
CONTINUOUS
 62
     7
100
AcDbLine
 10
-20.00000213885854
 20
167.0000051409005
 11
-20.99998682593506
 21
123.0000339106009
  0
LINE
  5
2b2
100
AcDbEntity
  8
0
  6
CONTINUOUS
 62
     7
100
AcDbLine
 10
20.00000690784285
 20
167.0000051409006
 11
9.213397839611247
 21
167.0000051409006
  0
LINE
  5
2b3
100
AcDbEntity
  8
0
  6
CONTINUOUS
 62
     7
100
AcDbLine
 10
9.213397839611247
 20
167.0000051409006
 11
8.79979795897334
 21
164.5000329976416
  0
LINE
  5
2b4
100
AcDbEntity
  8
0
  6
CONTINUOUS
 62
     7
100
AcDbLine
 10
8.800029623508024
 20
164.5000051781535
 11
7.199935805798546
 21
164.5000051781535
  0
LINE
  5
2b5
100
AcDbEntity
  8
0
  6
CONTINUOUS
 62
     7
100
AcDbLine
 10
7.199889899620018
 20
164.4999606127564
 11
6.786277112269374
 21
167.0000051409005
  0
LINE
  5
2b6
100
AcDbEntity
  8
0
  6
CONTINUOUS
 62
     7
100
AcDbLine
 10
6.786277112269369
 20
167.0000051409006
 11
5.213519160833802
 21
167.0000051409006
  0
LINE
  5
2b7
100
AcDbEntity
  8
0
  6
CONTINUOUS
 62
     7
100
AcDbLine
 10
5.213519160833801
 20
167.0000051409005
 11
4.79991935759795
 21
164.5000390940465
  0
LINE
  5
2b8
100
AcDbEntity
  8
0
  6
CENTER
 62
     3
100
AcDbLine
 10
-22.28153195557695
 20
162.4999594315893
 11
-11.54308301891263
 21
162.4999594315893
  0
LINE
  5
2b9
100
AcDbEntity
  8
0
  6
DASHED
 62
     7
100
AcDbLine
 10
-20.16231506821043
 20
163.4999441578993
 11
-12.25971203655433
 21
163.4999441578993
  0
LINE
  5
2ba
100
AcDbEntity
  8
0
  6
DASHED
 62
     7
100
AcDbLine
 10
-20.19762009087771
 20
161.4999747052793
 11
-12.25971203655433
 21
161.4999747052793
  0
LINE
  5
2bb
100
AcDbEntity
  8
0
  6
CONTINUOUS
 62
     7
100
AcDbLine
 10
-20.00000213885854
 20
167.0000051409006
 11
-9.213616076827851
 21
167.0000051409006
  0
LINE
  5
2bc
100
AcDbEntity
  8
0
  6
CONTINUOUS
 62
     7
100
AcDbLine
 10
-9.213616076827851
 20
167.0000051409006
 11
-8.80000721425095
 21
164.4999787070136
  0
LINE
  5
2bd
100
AcDbEntity
  8
0
  6
CONTINUOUS
 62
     7
100
AcDbLine
 10
-8.800067770480098
 20
164.5000051781535
 11
-7.199935805798532
 21
164.5000051781535
  0
LINE
  5
2be
100
AcDbEntity
  8
0
  6
CONTINUOUS
 62
     7
100
AcDbLine
 10
-7.200160808519907
 20
164.5000054797527
 11
-6.786556526310164
 21
167.0000051409006
  0
LINE
  5
2bf
100
AcDbEntity
  8
0
  6
CONTINUOUS
 62
     7
100
AcDbLine
 10
-6.786556526310164
 20
167.0000051409006
 11
-5.213852937048283
 21
167.0000051409006
  0
LINE
  5
2c0
100
AcDbEntity
  8
0
  6
CONTINUOUS
 62
     7
100
AcDbLine
 10
-5.213852937048284
 20
167.0000051409006
 11
-4.800245120013425
 21
164.4999850267107
  0
LINE
  5
2c1
100
AcDbEntity
  8
0
  6
CONTINUOUS
 62
     7
100
AcDbLine
 10
-4.800033497809864
 20
164.5000051781535
 11
-3.199958753586429
 21
164.5000051781535
  0
LINE
  5
2c2
100
AcDbEntity
  8
0
  6
CONTINUOUS
 62
     7
100
AcDbLine
 10
-2.786319772975496
 20
167.0000051409006
 11
-3.199931454283501
 21
164.4999607564654
  0
LINE
  5
2c3
100
AcDbEntity
  8
0
  6
CONTINUOUS
 62
     7
100
AcDbLine
 10
-2.786319772975496
 20
167.0000051409006
 11
-1.213640543262498
 21
167.0000051409006
  0
LINE
  5
2c4
100
AcDbEntity
  8
0
  6
CONTINUOUS
 62
     7
100
AcDbLine
 10
-1.213640543262503
 20
167.0000051409006
 11
-0.8000373846748126
 21
164.5000093815712
  0
LINE
  5
2c5
100
AcDbEntity
  8
0
  6
CONTINUOUS
 62
     7
100
AcDbLine
 10
-0.800056445597761
 20
164.5000051781535
 11
-1.907348604390791e-005
 21
164.5000051781535
  0
LINE
  5
2c6
100
AcDbEntity
  8
0
  6
CONTINUOUS
 62
     7
100
AcDbLine
 10
0.800056445597761
 20
164.5000051781535
 11
-1.907348604390791e-005
 21
164.5000051781535
  0
LINE
  5
2c7
100
AcDbEntity
  8
0
  6
CONTINUOUS
 62
     7
100
AcDbLine
 10
1.213393629122592
 20
167.0000051409006
 11
0.7997878684982531
 21
164.4999880250637
  0
LINE
  5
2c8
100
AcDbEntity
  8
0
  6
CONTINUOUS
 62
     7
100
AcDbLine
 10
2.786272752944403
 20
167.0000051409006
 11
1.21339362912259
 21
167.0000051409006
  0
LINE
  5
2c9
100
AcDbEntity
  8
0
  6
CONTINUOUS
 62
     7
100
AcDbLine
 10
2.786272752944406
 20
167.0000051409006
 11
3.199876304128548
 21
164.5000060956159
  0
LINE
  5
2ca
100
AcDbEntity
  8
0
  6
CONTINUOUS
 62
     7
100
AcDbLine
 10
4.800033497809864
 20
164.5000051781535
 11
3.199958753586429
 21
164.5000051781535
  0
LINE
  5
2cb
100
AcDbEntity
  8
0
  6
CONTINUOUS
 62
     7
100
AcDbLine
 10
-3.999996125698146
 20
76.00000268220897
 11
-3.999996125698146
 21
55.99999344348917
  0
LINE
  5
2cc
100
AcDbEntity
  8
0
  6
CONTINUOUS
 62
     7
100
AcDbLine
 10
3.999996125698146
 20
76.00000268220897
 11
3.999996125698146
 21
55.99999344348917
  0
LINE
  5
2cd
100
AcDbEntity
  8
0
  6
CONTINUOUS
 62
     7
100
AcDbLine
 10
19.50000733882177
 20
125.3000240728256
 11
19.50000733882177
 21
123.0000286847349
  0
LINE
  5
2ce
100
AcDbEntity
  8
0
  6
CONTINUOUS
 62
     7
100
AcDbLine
 10
12.4999616667634
 20
125.3000240728256
 11
12.4999616667634
 21
123.0000286847349
  0
LINE
  5
2cf
100
AcDbEntity
  8
0
  6
CONTINUOUS
 62
     7
100
AcDbLine
 10
19.50000733882177
 20
124.0000134110449
 11
12.4999616667634
 21
124.0000134110449
  0
LINE
  5
2d0
100
AcDbEntity
  8
0
  6
CONTINUOUS
 62
     7
100
AcDbLine
 10
20.99998442828678
 20
123.0000286847349
 11
11.49942064808099
 21
123.0000286847349
  0
LINE
  5
2d1
100
AcDbEntity
  8
0
  6
CENTER
 62
     3
100
AcDbLine
 10
15.99998450279259
 20
128.1055431350239
 11
15.99998450279259
 21
123.0000286847349
  0
LINE
  5
2d2
100
AcDbEntity
  8
0
  6
CONTINUOUS
 62
     7
100
AcDbLine
 10
14.99999977648258
 20
76.00000268220897
 11
14.99999977648258
 21
66.99999709427361
  0
LINE
  5
2d3
100
AcDbEntity
  8
0
  6
CONTINUOUS
 62
     7
100
AcDbLine
 10
14.99999977648258
 20
66.99999709427361
 11
29.99999955296516
 21
66.99999709427361
  0
LINE
  5
2d4
100
AcDbEntity
  8
0
  6
CONTINUOUS
 62
     7
100
AcDbLine
 10
28.00001102685911
 20
74.4999969825149
 11
28.00001102685911
 21
66.99999709427361
  0
LINE
  5
2d5
100
AcDbEntity
  8
0
  6
CONTINUOUS
 62
     7
100
AcDbLine
 10
18.00001117587073
 20
74.4999969825149
 11
18.00001117587073
 21
66.99999709427361
  0
LINE
  5
2d6
100
AcDbEntity
  8
0
  6
CONTINUOUS
 62
     7
100
AcDbLine
 10
18.00001117587073
 20
68.50000279396768
 11
28.00001102685911
 21
68.50000279396768
  0
LINE
  5
2d7
100
AcDbEntity
  8
0
  6
CONTINUOUS
 62
     7
100
AcDbLine
 10
18.00001117587073
 20
74.4999969825149
 11
28.00001102685911
 21
74.4999969825149
  0
CIRCLE
  5
2d8
100
AcDbEntity
  8
0
  6
CONTINUOUS
 62
     7
100
AcDbCircle
 10
0
 20
0
 40
15.09999967962504
  0
ARC
  5
2d9
100
AcDbEntity
  8
0
  6
CONTINUOUS
 62
     7
100
AcDbCircle
 10
0
 20
-11.00000365078444
 40
32.99999903142454
100
AcDbArc
 50
48.18971102163982
 51
131.8103334082267
  0
ARC
  5
2da
100
AcDbEntity
  8
0
  6
CONTINUOUS
 62
     7
100
AcDbCircle
 10
0
 20
11.00000841915595
 40
32.99999903142454
100
AcDbArc
 50
228.189666591774
 51
311.8102889783609
  0
CIRCLE
  5
2db
100
AcDbEntity
  8
0
  6
CONTINUOUS
 62
     7
100
AcDbCircle
 10
-25.49999199062597
 20
101.2499794177714
 40
0.2500001117587073
  0
ARC
  5
2dc
100
AcDbEntity
  8
0
  6
CONTINUOUS
 62
     7
100
AcDbCircle
 10
-25.75000724568952
 20
92.74997572973406
 40
0.2500001117587073
100
AcDbArc
 50
269.9912480231957
 51
89.99992737239749
  0
CIRCLE
  5
2dd
100
AcDbEntity
  8
0
  6
CONTINUOUS
 62
     3
100
AcDbCircle
 10
0
 20
98.9999756366018
 40
6.799999970197677
  0
CIRCLE
  5
2de
100
AcDbEntity
  8
0
  6
CONTINUOUS
 62
     7
100
AcDbCircle
 10
0
 20
98.9999756366018
 40
6.000000149011609
  0
CIRCLE
  5
2df
100
AcDbEntity
  8
0
  6
CONTINUOUS
 62
     7
100
AcDbCircle
 10
0
 20
98.9999756366018
 40
10.00005707144652
  0
CIRCLE
  5
2e0
100
AcDbEntity
  8
0
  6
CONTINUOUS
 62
     3
100
AcDbCircle
 10
0
 20
0
 40
16.49999951571227
  0
ARC
  5
2e1
100
AcDbEntity
  8
0
  6
CONTINUOUS
 62
     7
100
AcDbCircle
 10
-15.99998450279259
 20
121.2384681016162
 40
5.361566632990034
100
AcDbArc
 50
49.24706685652203
 51
130.752933143478
  0
ARC
  5
2e2
100
AcDbEntity
  8
0
  6
CONTINUOUS
 62
     7
100
AcDbCircle
 10
15.99998450279259
 20
121.2384681016162
 40
5.361566632990034
100
AcDbArc
 50
49.24706685652205
 51
130.752933143478
  0
MTEXT
  5
2e3
100
AcDbEntity
  8
0
  6
CONTINUOUS
 62
     7
100
AcDbMText
 10
-18.46887340482567
 20
111.2831750290511
 40
0.5
 41
36
 71
     7
 72
     1
  1
{\W0.8426;ＢＮ－５ＢＰ２１－２５－Ｅ／Ｆ＊＊＊}
  0
INSERT
  5
2e4
100
AcDbEntity
  8
0
  6
CONTINUOUS
 62
     3
100
AcDbBlockReference
  2
KOZU0008
 10
0
 20
0
  0
INSERT
  5
2e5
100
AcDbEntity
  8
0
  6
CONTINUOUS
 62
     7
100
AcDbBlockReference
  2
KOZU0009
 10
0
 20
0
  0
ENDBLK
  8
0
  5
2e6
100
AcDbEntity
100
AcDbBlockEnd
  0
BLOCK
  8
0
  5
2e7
100
AcDbEntity
100
AcDbBlockBegin
  2
KOZU0004
 70
    64
 10
0
 20
0
  0
POINT
  5
2e8
100
AcDbEntity
  8
0
  6
CONTINUOUS
 62
     7
100
AcDbPoint
 10
0
 20
0
  0
LINE
  5
2e9
100
AcDbEntity
  8
0
  6
DASHED
 62
     7
100
AcDbLine
 10
-27.00000022351739
 20
24.94999107346015
 11
-27.00000022351739
 21
19.04999849572717
  0
LINE
  5
2ea
100
AcDbEntity
  8
0
  6
DASHED
 62
     7
100
AcDbLine
 10
-29.99999955296516
 20
19.04999849572717
 11
-27.00000022351742
 21
19.04999849572717
  0
LINE
  5
2eb
100
AcDbEntity
  8
0
  6
DASHED
 62
     7
100
AcDbLine
 10
-29.99999955296516
 20
24.94999107346015
 11
-27.00000022351742
 21
24.94999107346015
  0
LINE
  5
2ec
100
AcDbEntity
  8
0
  6
DASHED
 62
     7
100
AcDbLine
 10
-26.16284220751186
 20
20.49999511986978
 11
-20.00000178813932
 21
20.49999511986978
  0
LINE
  5
2ed
100
AcDbEntity
  8
0
  6
DASHED
 62
     7
100
AcDbLine
 10
-26.16284220751186
 20
23.49999444931754
 11
-20.00000178813932
 21
23.49999444931754
  0
LINE
  5
2ee
100
AcDbEntity
  8
0
  6
DASHED
 62
     7
100
AcDbLine
 10
-27.00000022667051
 20
19.04999924981358
 11
-26.16284458358112
 21
20.49999533146254
  0
LINE
  5
2ef
100
AcDbEntity
  8
0
  6
DASHED
 62
     7
100
AcDbLine
 10
-26.99999712722961
 20
24.94998505867415
 11
-26.16284672934784
 21
23.49999806199113
  0
LINE
  5
2f0
100
AcDbEntity
  8
0
  6
DASHED
 62
     7
100
AcDbLine
 10
-26.16284220751183
 20
23.49999444931754
 11
-26.16284220751183
 21
20.49999511986978
  0
LINE
  5
2f1
100
AcDbEntity
  8
0
  6
CENTER
 62
     3
100
AcDbLine
 10
0
 20
171.5398572155854
 11
0
 21
-46.80644442429477
  0
LINE
  5
2f2
100
AcDbEntity
  8
0
  6
CENTER
 62
     3
100
AcDbLine
 10
-19.49258089544755
 20
0
 11
19.7153721565215
 21
0
  0
LINE
  5
2f3
100
AcDbEntity
  8
0
  6
CONTINUOUS
 62
     7
100
AcDbLine
 10
-29.99999955296516
 20
26.00000342726702
 11
-29.99999955296516
 21
-22.00000253319737
  0
LINE
  5
2f4
100
AcDbEntity
  8
0
  6
CONTINUOUS
 62
     7
100
AcDbLine
 10
-30.00002816319423
 20
25.999993890524
 11
29.99998047947912
 21
25.999993890524
  0
LINE
  5
2f5
100
AcDbEntity
  8
0
  6
CONTINUOUS
 62
     7
100
AcDbLine
 10
-29.99999955296516
 20
-22.00000253319737
 11
29.99999955296519
 21
-22.00000253319737
  0
LINE
  5
2f6
100
AcDbEntity
  8
0
  6
CONTINUOUS
 62
     7
100
AcDbLine
 10
-21.99998822808283
 20
13.59675333135118
 11
-21.99998822808283
 21
-13.59674856297967
  0
LINE
  5
2f7
100
AcDbEntity
  8
0
  6
CONTINUOUS
 62
     7
100
AcDbLine
 10
-5.999984651804198
 20
26.00000342726702
 11
-5.999984651804198
 21
21.44995968127704
  0
LINE
  5
2f8
100
AcDbEntity
  8
0
  6
CONTINUOUS
 62
     7
100
AcDbLine
 10
29.99999955296519
 20
26.00000342726702
 11
29.99999955296519
 21
-22.00000253319737
  0
LINE
  5
2f9
100
AcDbEntity
  8
0
  6
CONTINUOUS
 62
     7
100
AcDbLine
 10
22.0000073015689
 20
13.59673627150883
 11
22.0000073015689
 21
-13.59673150313732
  0
LINE
  5
2fa
100
AcDbEntity
  8
0
  6
CONTINUOUS
 62
     7
100
AcDbLine
 10
5.999984651804198
 20
26.00000342726702
 11
5.999984651804198
 21
21.44995968127704
  0
LINE
  5
2fb
100
AcDbEntity
  8
0
  6
CONTINUOUS
 62
     7
100
AcDbLine
 10
-24.00000719746232
 20
-22.00000253319737
 11
-23.00000456092124
 21
-26.00001258784792
  0
LINE
  5
2fc
100
AcDbEntity
  8
0
  6
CONTINUOUS
 62
     7
100
AcDbLine
 10
23.99995922592555
 20
-22.00000253319737
 11
22.99995972891878
 21
-26.00000002971224
  0
LINE
  5
2fd
100
AcDbEntity
  8
0
  6
CONTINUOUS
 62
     7
100
AcDbLine
 10
22.99997295439283
 20
-25.999993890524
 11
-23.00003017485096
 21
-25.999993890524
  0
LINE
  5
2fe
100
AcDbEntity
  8
0
  6
CONTINUOUS
 62
     7
100
AcDbLine
 10
-22.49999966472387
 20
-42.00000223517414
 11
22.4999996647239
 21
-42.00000223517414
  0
LINE
  5
2ff
100
AcDbEntity
  8
0
  6
CONTINUOUS
 62
     7
100
AcDbLine
 10
22.4999996647239
 20
-25.999993890524
 11
22.4999996647239
 21
-42.00000223517414
  0
LINE
  5
300
100
AcDbEntity
  8
0
  6
CONTINUOUS
 62
     7
100
AcDbLine
 10
-22.49999966472387
 20
-25.999993890524
 11
-22.49999966472387
 21
-42.00000223517414
  0
LINE
  5
301
100
AcDbEntity
  8
0
  6
CONTINUOUS
 62
     7
100
AcDbLine
 10
-25.99998435378097
 20
84.99998919665829
 11
26.00002250075306
 21
84.99998919665829
  0
LINE
  5
302
100
AcDbEntity
  8
0
  6
CONTINUOUS
 62
     7
100
AcDbLine
 10
-29.99999955296516
 20
76.00000268220897
 11
29.99999955296516
 21
76.00000268220897
  0
LINE
  5
303
100
AcDbEntity
  8
0
  6
CONTINUOUS
 62
     7
100
AcDbLine
 10
-25.99998435378097
 20
84.99999873340131
 11
-25.99998435378097
 21
76.00000268220897
  0
LINE
  5
304
100
AcDbEntity
  8
0
  6
CONTINUOUS
 62
     7
100
AcDbLine
 10
26.00002250075309
 20
84.99999873340131
 11
26.00002250075309
 21
76.00000268220897
  0
LINE
  5
305
100
AcDbEntity
  8
0
  6
CENTER
 62
     3
100
AcDbLine
 10
14.96593453040816
 20
101.9999488890179
 11
-15.06000496357672
 21
101.9999488890179
  0
LINE
  5
306
100
AcDbEntity
  8
0
  6
CENTER
 62
     3
100
AcDbLine
 10
-3.499984689057101
 20
104.042547582946
 11
-3.499984689057101
 21
99.29242939811304
  0
LINE
  5
307
100
AcDbEntity
  8
0
  6
CENTER
 62
     3
100
AcDbLine
 10
3.499984689057101
 20
104.042547582946
 11
3.499984689057101
 21
99.29242939811304
  0
LINE
  5
308
100
AcDbEntity
  8
0
  6
CONTINUOUS
 62
     7
100
AcDbLine
 10
20.99998442828681
 20
84.99997965991527
 11
20.99998442828681
 21
123.0000286847349
  0
LINE
  5
309
100
AcDbEntity
  8
0
  6
PHANTOM
 62
     3
100
AcDbLine
 10
25.75000724568952
 20
92.99993376433947
 11
20.99998442828678
 21
92.99993376433947
  0
LINE
  5
30a
100
AcDbEntity
  8
0
  6
CENTER
 62
     3
100
AcDbLine
 10
25.75004539266161
 20
92.74997572973406
 11
20.99998442828678
 21
92.74997572973406
  0
LINE
  5
30b
100
AcDbEntity
  8
0
  6
PHANTOM
 62
     3
100
AcDbLine
 10
25.75000724568952
 20
92.49996047467052
 11
20.99998442828678
 21
92.49996047467052
  0
LINE
  5
30c
100
AcDbEntity
  8
0
  6
CONTINUOUS
 62
     7
100
AcDbLine
 10
25.75004539266163
 20
101.99998703599
 11
25.75004539266163
 21
91.99994903802947
  0
LINE
  5
30d
100
AcDbEntity
  8
0
  6
CONTINUOUS
 62
     7
100
AcDbLine
 10
26.75003011897164
 20
91.99994903802947
 11
25.75000724568952
 21
91.99994903802947
  0
LINE
  5
30e
100
AcDbEntity
  8
0
  6
CONTINUOUS
 62
     7
100
AcDbLine
 10
26.75003011897164
 20
101.9999488890179
 11
26.75003011897164
 21
91.99994903802947
  0
LINE
  5
30f
100
AcDbEntity
  8
0
  6
CENTER
 62
     3
100
AcDbLine
 10
28.05620151674447
 20
96.99994896352366
 11
20.99998442828678
 21
96.99994896352366
  0
LINE
  5
310
100
AcDbEntity
  8
0
  6
CONTINUOUS
 62
     7
100
AcDbLine
 10
26.75003011897164
 20
101.9999488890179
 11
25.75000724568952
 21
101.9999488890179
  0
LINE
  5
311
100
AcDbEntity
  8
0
  6
CENTER
 62
     3
100
AcDbLine
 10
25.75004539266161
 20
101.2499603442854
 11
20.99998442828678
 21
101.2499603442854
  0
LINE
  5
312
100
AcDbEntity
  8
0
  6
PHANTOM
 62
     3
100
AcDbLine
 10
25.49999199062597
 20
101.4999183788908
 11
20.99998442828678
 21
101.4999183788908
  0
LINE
  5
313
100
AcDbEntity
  8
0
  6
PHANTOM
 62
     3
100
AcDbLine
 10
25.49999199062597
 20
100.9999641627079
 11
20.99998442828678
 21
100.9999641627079
  0
LINE
  5
314
100
AcDbEntity
  8
0
  6
CONTINUOUS
 62
     7
100
AcDbLine
 10
25.75000724568952
 20
100.8500465624027
 11
20.99998442828681
 21
100.8500465624027
  0
LINE
  5
315
100
AcDbEntity
  8
0
  6
CONTINUOUS
 62
     7
100
AcDbLine
 10
25.75000724568952
 20
93.1499848790469
 11
20.99998442828681
 21
93.1499848790469
  0
LINE
  5
316
100
AcDbEntity
  8
0
  6
CONTINUOUS
 62
     7
100
AcDbLine
 10
20.99998442828678
 20
115.9999639391904
 11
-20.99998442828678
 21
115.9999639391904
  0
LINE
  5
317
100
AcDbEntity
  8
0
  6
CENTER
 62
     3
100
AcDbLine
 10
-15.99998450279259
 20
128.1055431350239
 11
-15.99998450279259
 21
123.0000286847349
  0
LINE
  5
318
100
AcDbEntity
  8
0
  6
CONTINUOUS
 62
     7
100
AcDbLine
 10
-20.99998442828678
 20
123.0000286847349
 11
-11.49957806848765
 21
123.0000286847349
  0
LINE
  5
319
100
AcDbEntity
  8
0
  6
CONTINUOUS
 62
     7
100
AcDbLine
 10
-19.50000733882177
 20
124.0000134110449
 11
-12.4999616667634
 21
124.0000134110449
  0
LINE
  5
31a
100
AcDbEntity
  8
0
  6
CONTINUOUS
 62
     7
100
AcDbLine
 10
-19.50000733882177
 20
125.3000240728256
 11
-19.50000733882177
 21
123.0000286847349
  0
LINE
  5
31b
100
AcDbEntity
  8
0
  6
CONTINUOUS
 62
     7
100
AcDbLine
 10
-20.00001382861519
 20
167.0000051409005
 11
-20.99999935553358
 21
122.9999969570169
  0
LINE
  5
31c
100
AcDbEntity
  8
0
  6
CONTINUOUS
 62
     7
100
AcDbLine
 10
-12.4999616667634
 20
125.3000240728256
 11
-12.4999616667634
 21
123.0000286847349
  0
LINE
  5
31d
100
AcDbEntity
  8
0
  6
CONTINUOUS
 62
     7
100
AcDbLine
 10
-10.8004971584466
 20
167.0000051409005
 11
-11.49957806848765
 21
123.0000286847348
  0
LINE
  5
31e
100
AcDbEntity
  8
0
  6
CONTINUOUS
 62
     7
100
AcDbLine
 10
-8.799781668189439
 20
164.5000051781534
 11
-8.799781668189439
 21
116.9999868124725
  0
LINE
  5
31f
100
AcDbEntity
  8
0
  6
CONTINUOUS
 62
     7
100
AcDbLine
 10
-8.799781668189439
 20
116.9999677389865
 11
8.800010550021966
 21
116.9999677389865
  0
LINE
  5
320
100
AcDbEntity
  8
0
  6
CONTINUOUS
 62
     7
100
AcDbLine
 10
-7.199897658826444
 20
164.5000051781534
 11
-7.199897658826444
 21
116.9999868124725
  0
LINE
  5
321
100
AcDbEntity
  8
0
  6
CONTINUOUS
 62
     7
100
AcDbLine
 10
7.200164687631059
 20
164.5000051781534
 11
7.200164687631059
 21
116.9999868124725
  0
LINE
  5
322
100
AcDbEntity
  8
0
  6
CONTINUOUS
 62
     7
100
AcDbLine
 10
8.800010550021966
 20
164.5000051781534
 11
8.800010550021966
 21
116.9999868124725
  0
LINE
  5
323
100
AcDbEntity
  8
0
  6
CONTINUOUS
 62
     7
100
AcDbLine
 10
-4.7999190568936
 20
164.5000051781534
 11
-4.7999190568936
 21
116.9999868124725
  0
LINE
  5
324
100
AcDbEntity
  8
0
  6
CONTINUOUS
 62
     7
100
AcDbLine
 10
-3.199882459642254
 20
164.5000051781534
 11
-3.199882459642254
 21
116.9999868124725
  0
LINE
  5
325
100
AcDbEntity
  8
0
  6
CONTINUOUS
 62
     7
100
AcDbLine
 10
-0.7999038577094098
 20
164.5000051781534
 11
-0.7999038577094098
 21
116.9999868124725
  0
LINE
  5
326
100
AcDbEntity
  8
0
  6
CONTINUOUS
 62
     7
100
AcDbLine
 10
0.7999801516535854
 20
164.5000051781534
 11
0.7999801516535854
 21
116.9999868124725
  0
LINE
  5
327
100
AcDbEntity
  8
0
  6
CONTINUOUS
 62
     7
100
AcDbLine
 10
-6.786281915290122
 20
167.0000051409006
 11
-5.213519130665789
 21
167.0000051409006
  0
LINE
  5
328
100
AcDbEntity
  8
0
  6
CONTINUOUS
 62
     7
100
AcDbLine
 10
10.80032949259445
 20
167.0000051409005
 11
11.49941040263549
 21
123.0000286847348
  0
LINE
  5
329
100
AcDbEntity
  8
0
  6
CONTINUOUS
 62
     7
100
AcDbLine
 10
20.99998442828678
 20
123.0000286847349
 11
11.49941040263549
 21
123.0000286847349
  0
LINE
  5
32a
100
AcDbEntity
  8
0
  6
CONTINUOUS
 62
     7
100
AcDbLine
 10
29.99999955296519
 20
76.00000268220897
 11
29.99999955296519
 21
56.0000029802322
  0
LINE
  5
32b
100
AcDbEntity
  8
0
  6
CONTINUOUS
 62
     7
100
AcDbLine
 10
-29.99999955296516
 20
76.00000268220897
 11
-29.99999955296516
 21
56.0000029802322
  0
LINE
  5
32c
100
AcDbEntity
  8
0
  6
CONTINUOUS
 62
     7
100
AcDbLine
 10
-30.00003769993725
 20
55.99999344348917
 11
29.99998047947912
 21
55.99999344348917
  0
LINE
  5
32d
100
AcDbEntity
  8
0
  6
CONTINUOUS
 62
     7
100
AcDbLine
 10
20.00000475729181
 20
167.0000051409005
 11
20.99998952040383
 21
123.0000305649896
  0
LINE
  5
32e
100
AcDbEntity
  8
0
  6
CENTER
 62
     3
100
AcDbLine
 10
23.4117695180808
 20
18.0000016391277
 11
31.40493346147338
 21
18.0000016391277
  0
LINE
  5
32f
100
AcDbEntity
  8
0
  6
DASHED
 62
     3
100
AcDbLine
 10
23.99997675418888
 20
15.50000167638061
 11
29.99998047947912
 21
15.50000167638061
  0
LINE
  5
330
100
AcDbEntity
  8
0
  6
DASHED
 62
     3
100
AcDbLine
 10
23.99997675418888
 20
20.5000016018748
 11
29.99998047947912
 21
20.5000016018748
  0
LINE
  5
331
100
AcDbEntity
  8
0
  6
DASHED
 62
     7
100
AcDbLine
 10
23.99997675418888
 20
15.93299841980638
 11
29.99998047947912
 21
15.93299841980638
  0
LINE
  5
332
100
AcDbEntity
  8
0
  6
DASHED
 62
     7
100
AcDbLine
 10
23.99997675418888
 20
20.066995321706
 11
29.99998047947912
 21
20.066995321706
  0
LINE
  5
333
100
AcDbEntity
  8
0
  6
CONTINUOUS
 62
     7
100
AcDbLine
 10
3.199920606614342
 20
164.5000051781534
 11
3.199920606614342
 21
116.9999868124725
  0
LINE
  5
334
100
AcDbEntity
  8
0
  6
CONTINUOUS
 62
     7
100
AcDbLine
 10
4.800186085698215
 20
164.5000051781534
 11
4.800186085698215
 21
116.9999868124725
  0
LINE
  5
335
100
AcDbEntity
  8
0
  6
CONTINUOUS
 62
     7
100
AcDbLine
 10
-5.213519130665787
 20
167.0000051409005
 11
-4.799920774592973
 21
164.5000478412906
  0
LINE
  5
336
100
AcDbEntity
  8
0
  6
CENTER
 62
     3
100
AcDbLine
 10
-30.68176209589183
 20
21.99999478459367
 11
-19.47848701212885
 21
21.99999478459367
  0
LINE
  5
337
100
AcDbEntity
  8
0
  6
CONTINUOUS
 62
     7
100
AcDbLine
 10
-8.80002962350801
 20
164.5000051781535
 11
-7.199935805798532
 21
164.5000051781535
  0
LINE
  5
338
100
AcDbEntity
  8
0
  6
CONTINUOUS
 62
     7
100
AcDbLine
 10
-9.213391556101986
 20
167.0000051409006
 11
-8.799789967121285
 21
164.5000226716972
  0
LINE
  5
339
100
AcDbEntity
  8
0
  6
CONTINUOUS
 62
     7
100
AcDbLine
 10
-20.00001382861519
 20
167.0000051409006
 11
-9.213391556101991
 21
167.0000051409006
  0
LINE
  5
33a
100
AcDbEntity
  8
0
  6
CONTINUOUS
 62
     7
100
AcDbLine
 10
-7.199892907798418
 20
164.4999714615163
 11
-6.786281915290125
 21
167.0000051409005
  0
LINE
  5
33b
100
AcDbEntity
  8
0
  6
CONTINUOUS
 62
     7
100
AcDbLine
 10
-17.99999210238468
 20
68.50000279396768
 11
-27.99999195337307
 21
68.50000279396768
  0
LINE
  5
33c
100
AcDbEntity
  8
0
  6
CONTINUOUS
 62
     7
100
AcDbLine
 10
-17.99999210238468
 20
74.4999969825149
 11
-27.99999195337307
 21
74.4999969825149
  0
LINE
  5
33d
100
AcDbEntity
  8
0
  6
CONTINUOUS
 62
     7
100
AcDbLine
 10
-17.99999210238468
 20
74.4999969825149
 11
-17.99999210238468
 21
66.99999709427361
  0
LINE
  5
33e
100
AcDbEntity
  8
0
  6
CONTINUOUS
 62
     7
100
AcDbLine
 10
-27.99999195337307
 20
74.4999969825149
 11
-27.99999195337307
 21
66.99999709427361
  0
LINE
  5
33f
100
AcDbEntity
  8
0
  6
CENTER
 62
     3
100
AcDbLine
 10
-22.99999202787888
 20
75.31539549763616
 11
-22.99999202787888
 21
25.999993890524
  0
LINE
  5
340
100
AcDbEntity
  8
0
  6
CONTINUOUS
 62
     7
100
AcDbLine
 10
-14.99999977648258
 20
66.99999709427361
 11
-29.99999955296516
 21
66.99999709427361
  0
LINE
  5
341
100
AcDbEntity
  8
0
  6
CENTER
 62
     3
100
AcDbLine
 10
23.00001110136495
 20
75.21808810162011
 11
23.00001110136495
 21
25.999993890524
  0
LINE
  5
342
100
AcDbEntity
  8
0
  6
CONTINUOUS
 62
     7
100
AcDbLine
 10
-14.99999977648258
 20
76.00000268220897
 11
-14.99999977648258
 21
66.99999709427361
  0
LINE
  5
343
100
AcDbEntity
  8
0
  6
CONTINUOUS
 62
     7
100
AcDbLine
 10
-25.99998435378097
 20
56.0000029802322
 11
-25.99998435378097
 21
26.00000342726702
  0
LINE
  5
344
100
AcDbEntity
  8
0
  6
CONTINUOUS
 62
     7
100
AcDbLine
 10
-19.99999970197678
 20
56.0000029802322
 11
-19.99999970197678
 21
26.00000342726702
  0
LINE
  5
345
100
AcDbEntity
  8
0
  6
CONTINUOUS
 62
     7
100
AcDbLine
 10
19.99999970197681
 20
56.0000029802322
 11
19.99999970197681
 21
26.00000342726702
  0
LINE
  5
346
100
AcDbEntity
  8
0
  6
CONTINUOUS
 62
     7
100
AcDbLine
 10
26.00002250075309
 20
56.0000029802322
 11
26.00002250075309
 21
26.00000342726702
  0
LINE
  5
347
100
AcDbEntity
  8
0
  6
CONTINUOUS
 62
     7
100
AcDbLine
 10
-27.49999959021807
 20
55.99999344348917
 11
-27.49999959021807
 21
25.999993890524
  0
LINE
  5
348
100
AcDbEntity
  8
0
  6
CONTINUOUS
 62
     7
100
AcDbLine
 10
27.4999995902181
 20
55.99999344348917
 11
27.4999995902181
 21
25.999993890524
  0
LINE
  5
349
100
AcDbEntity
  8
0
  6
CONTINUOUS
 62
     7
100
AcDbLine
 10
-20.99998442828678
 20
84.99997965991527
 11
-20.99998442828678
 21
123.0000286847349
  0
LINE
  5
34a
100
AcDbEntity
  8
0
  6
CENTER
 62
     3
100
AcDbLine
 10
22.28153195557695
 20
162.4999594315893
 11
11.54308301891263
 21
162.4999594315893
  0
LINE
  5
34b
100
AcDbEntity
  8
0
  6
DASHED
 62
     7
100
AcDbLine
 10
20.16231506821043
 20
163.4999441578993
 11
12.25971203655433
 21
163.4999441578993
  0
LINE
  5
34c
100
AcDbEntity
  8
0
  6
DASHED
 62
     7
100
AcDbLine
 10
20.19762009087771
 20
161.4999747052793
 11
12.25971203655433
 21
161.4999747052793
  0
LINE
  5
34d
100
AcDbEntity
  8
0
  6
CONTINUOUS
 62
     7
100
AcDbLine
 10
20.00000475729181
 20
167.0000051409006
 11
9.213612693960071
 21
167.0000051409006
  0
LINE
  5
34e
100
AcDbEntity
  8
0
  6
CONTINUOUS
 62
     7
100
AcDbLine
 10
9.213612693960073
 20
167.0000051409005
 11
8.80000268402215
 21
164.4999717718796
  0
LINE
  5
34f
100
AcDbEntity
  8
0
  6
CONTINUOUS
 62
     7
100
AcDbLine
 10
8.800067770480098
 20
164.5000051781535
 11
7.199935805798532
 21
164.5000051781535
  0
LINE
  5
350
100
AcDbEntity
  8
0
  6
CONTINUOUS
 62
     7
100
AcDbLine
 10
7.200146869443884
 20
164.5000075122323
 11
6.786542923491094
 21
167.0000051409006
  0
LINE
  5
351
100
AcDbEntity
  8
0
  6
CONTINUOUS
 62
     7
100
AcDbLine
 10
6.786542923491094
 20
167.0000051409006
 11
5.213849554180458
 21
167.0000051409006
  0
LINE
  5
352
100
AcDbEntity
  8
0
  6
CONTINUOUS
 62
     7
100
AcDbLine
 10
5.213849554180456
 20
167.0000051409005
 11
4.800240589784576
 21
164.4999780915767
  0
LINE
  5
353
100
AcDbEntity
  8
0
  6
CONTINUOUS
 62
     7
100
AcDbLine
 10
4.800033497809864
 20
164.5000051781535
 11
3.199958753586429
 21
164.5000051781535
  0
LINE
  5
354
100
AcDbEntity
  8
0
  6
CONTINUOUS
 62
     7
100
AcDbLine
 10
2.786306170156351
 20
167.0000051409006
 11
3.199917515207396
 21
164.4999627889451
  0
LINE
  5
355
100
AcDbEntity
  8
0
  6
CONTINUOUS
 62
     7
100
AcDbLine
 10
2.786306170156349
 20
167.0000051409006
 11
1.213634854513874
 21
167.0000051409006
  0
LINE
  5
356
100
AcDbEntity
  8
0
  6
CONTINUOUS
 62
     7
100
AcDbLine
 10
1.213634854513877
 20
167.0000051409006
 11
0.80002974121739
 21
164.4999975664688
  0
LINE
  5
357
100
AcDbEntity
  8
0
  6
CONTINUOUS
 62
     7
100
AcDbLine
 10
0.800056445597761
 20
164.5000051781535
 11
1.907348604390791e-005
 21
164.5000051781535
  0
LINE
  5
358
100
AcDbEntity
  8
0
  6
CONTINUOUS
 62
     7
100
AcDbLine
 10
-0.800056445597761
 20
164.5000051781535
 11
1.907348604390791e-005
 21
164.5000051781535
  0
LINE
  5
359
100
AcDbEntity
  8
0
  6
CONTINUOUS
 62
     7
100
AcDbLine
 10
-1.213393064517796
 20
167.0000051409006
 11
-0.7997861031066798
 21
164.4999807669746
  0
LINE
  5
35a
100
AcDbEntity
  8
0
  6
CONTINUOUS
 62
     7
100
AcDbLine
 10
-2.786278995266702
 20
167.0000051409006
 11
-1.213393064517793
 21
167.0000051409006
  0
LINE
  5
35b
100
AcDbEntity
  8
0
  6
CONTINUOUS
 62
     7
100
AcDbLine
 10
-2.786278995266702
 20
167.0000051409006
 11
-3.199883947585409
 21
164.4999976265516
  0
LINE
  5
35c
100
AcDbEntity
  8
0
  6
CONTINUOUS
 62
     7
100
AcDbLine
 10
-4.800033497809864
 20
164.5000051781535
 11
-3.199958753586429
 21
164.5000051781535
  0
LINE
  5
35d
100
AcDbEntity
  8
0
  6
CONTINUOUS
 62
     7
100
AcDbLine
 10
-3.999996125698146
 20
76.00000268220897
 11
-3.999996125698146
 21
55.99999344348917
  0
LINE
  5
35e
100
AcDbEntity
  8
0
  6
CONTINUOUS
 62
     7
100
AcDbLine
 10
3.999996125698146
 20
76.00000268220897
 11
3.999996125698146
 21
55.99999344348917
  0
LINE
  5
35f
100
AcDbEntity
  8
0
  6
CONTINUOUS
 62
     7
100
AcDbLine
 10
12.4999616667634
 20
125.3000240728256
 11
12.4999616667634
 21
123.0000286847349
  0
LINE
  5
360
100
AcDbEntity
  8
0
  6
CONTINUOUS
 62
     7
100
AcDbLine
 10
19.50000733882177
 20
125.3000240728256
 11
19.50000733882177
 21
123.0000286847349
  0
LINE
  5
361
100
AcDbEntity
  8
0
  6
CONTINUOUS
 62
     7
100
AcDbLine
 10
19.50000733882177
 20
124.0000134110449
 11
12.4999616667634
 21
124.0000134110449
  0
LINE
  5
362
100
AcDbEntity
  8
0
  6
CENTER
 62
     3
100
AcDbLine
 10
15.99998450279259
 20
128.1055431350239
 11
15.99998450279259
 21
123.0000286847349
  0
LINE
  5
363
100
AcDbEntity
  8
0
  6
CONTINUOUS
 62
     7
100
AcDbLine
 10
14.99999977648258
 20
76.00000268220897
 11
14.99999977648258
 21
66.99999709427361
  0
LINE
  5
364
100
AcDbEntity
  8
0
  6
CONTINUOUS
 62
     7
100
AcDbLine
 10
14.99999977648258
 20
66.99999709427361
 11
29.99999955296516
 21
66.99999709427361
  0
LINE
  5
365
100
AcDbEntity
  8
0
  6
CONTINUOUS
 62
     7
100
AcDbLine
 10
27.99999195337307
 20
74.4999969825149
 11
27.99999195337307
 21
66.99999709427361
  0
LINE
  5
366
100
AcDbEntity
  8
0
  6
CONTINUOUS
 62
     7
100
AcDbLine
 10
17.99999210238468
 20
74.4999969825149
 11
17.99999210238468
 21
66.99999709427361
  0
LINE
  5
367
100
AcDbEntity
  8
0
  6
CONTINUOUS
 62
     7
100
AcDbLine
 10
17.99999210238468
 20
74.4999969825149
 11
27.99999195337307
 21
74.4999969825149
  0
LINE
  5
368
100
AcDbEntity
  8
0
  6
CONTINUOUS
 62
     7
100
AcDbLine
 10
17.99999210238468
 20
68.50000279396768
 11
27.99999195337307
 21
68.50000279396768
  0
ARC
  5
369
100
AcDbEntity
  8
0
  6
CONTINUOUS
 62
     7
100
AcDbCircle
 10
0
 20
-11.00000365078444
 40
32.99999903142454
100
AcDbArc
 50
48.18966659177322
 51
131.8102889783602
  0
ARC
  5
36a
100
AcDbEntity
  8
0
  6
CONTINUOUS
 62
     7
100
AcDbCircle
 10
0
 20
11.00000841915595
 40
32.99999903142454
100
AcDbArc
 50
228.1897110216405
 51
311.8103334082275
  0
CIRCLE
  5
36b
100
AcDbEntity
  8
0
  6
CONTINUOUS
 62
     7
100
AcDbCircle
 10
0
 20
101.9999488890179
 40
13.49999646097427
  0
CIRCLE
  5
36c
100
AcDbEntity
  8
0
  6
CONTINUOUS
 62
     7
100
AcDbCircle
 10
0
 20
101.9999488890179
 40
12.00000387430185
  0
CIRCLE
  5
36d
100
AcDbEntity
  8
0
  6
CONTINUOUS
 62
     7
100
AcDbCircle
 10
-3.499984689057101
 20
101.9999488890179
 40
1.249999981373549
  0
CIRCLE
  5
36e
100
AcDbEntity
  8
0
  6
CONTINUOUS
 62
     7
100
AcDbCircle
 10
3.499984689057101
 20
101.9999488890179
 40
1.249999981373549
  0
CIRCLE
  5
36f
100
AcDbEntity
  8
0
  6
CONTINUOUS
 62
     7
100
AcDbCircle
 10
25.499991990626
 20
101.2499794177714
 40
0.2500001117587073
  0
ARC
  5
370
100
AcDbEntity
  8
0
  6
CONTINUOUS
 62
     7
100
AcDbCircle
 10
25.75000724568955
 20
92.74997572973406
 40
0.2500001117587073
100
AcDbArc
 50
90.00003665542423
 51
270.0087160046271
  0
CIRCLE
  5
371
100
AcDbEntity
  8
0
  6
CONTINUOUS
 62
     7
100
AcDbCircle
 10
0
 20
0
 40
15.09999967962504
  0
CIRCLE
  5
372
100
AcDbEntity
  8
0
  6
CONTINUOUS
 62
     3
100
AcDbCircle
 10
0
 20
0
 40
16.49999951571227
  0
ARC
  5
373
100
AcDbEntity
  8
0
  6
CONTINUOUS
 62
     7
100
AcDbCircle
 10
-15.99998450279259
 20
121.2384681016162
 40
5.361566632990034
100
AcDbArc
 50
49.24706685652203
 51
130.752933143478
  0
ARC
  5
374
100
AcDbEntity
  8
0
  6
CONTINUOUS
 62
     7
100
AcDbCircle
 10
15.99998450279259
 20
121.2384681016162
 40
5.361566632990034
100
AcDbArc
 50
49.24706685652205
 51
130.752933143478
  0
MTEXT
  5
375
100
AcDbEntity
  8
0
  6
CONTINUOUS
 62
     7
100
AcDbMText
 10
-20.44006083909247
 20
80.00376326861472
 40
0.5
 41
36
 71
     7
 72
     1
  1
{\W0.8426;ＢＮ－５ＢＰ２１－２５－Ｅ／Ｆ＊＊＊}
  0
INSERT
  5
376
100
AcDbEntity
  8
0
  6
CONTINUOUS
 62
     3
100
AcDbBlockReference
  2
KOZU0010
 10
0
 20
0
  0
INSERT
  5
377
100
AcDbEntity
  8
0
  6
CONTINUOUS
 62
     7
100
AcDbBlockReference
  2
KOZU0011
 10
0
 20
0
  0
ENDBLK
  8
0
  5
378
100
AcDbEntity
100
AcDbBlockEnd
  0
BLOCK
  8
0
  5
379
100
AcDbEntity
100
AcDbBlockBegin
  2
KOZU0005
 70
    64
 10
0
 20
0
  0
POINT
  5
37a
100
AcDbEntity
  8
0
  6
CONTINUOUS
 62
     7
100
AcDbPoint
 10
0
 20
0
  0
LINE
  5
37b
100
AcDbEntity
  8
0
  6
DASHED
 62
     3
100
AcDbLine
 10
-49.99997458468335
 20
16.49998828794752
 11
-33.99997132201715
 21
16.16483598932928
  0
LINE
  5
37c
100
AcDbEntity
  8
0
  6
DASHED
 62
     3
100
AcDbLine
 10
-49.99998632617911
 20
-16.5000009740838
 11
-33.99998306351291
 21
-16.16484867546557
  0
LINE
  5
37d
100
AcDbEntity
  8
0
  6
DASHED
 62
     7
100
AcDbLine
 10
-49.99997793523914
 20
15.09999261606999
 11
-33.99997467257293
 21
14.76484031745176
  0
LINE
  5
37e
100
AcDbEntity
  8
0
  6
DASHED
 62
     7
100
AcDbLine
 10
-49.9999895768736
 20
-15.10001006953202
 11
-33.99996724490449
 21
-14.76485737146882
  0
LINE
  5
37f
100
AcDbEntity
  8
0
  6
DASHED
 62
     3
100
AcDbLine
 10
49.99997283259199
 20
-16.5000034247679
 11
33.9999886392287
 21
-16.16485152559462
  0
LINE
  5
380
100
AcDbEntity
  8
0
  6
CONTINUOUS
 62
     7
100
AcDbLine
 10
-1.500000541424299
 20
2.999999329447761
 11
-1.500000541424299
 21
1.499999664723873
  0
LINE
  5
381
100
AcDbEntity
  8
0
  6
CONTINUOUS
 62
     7
100
AcDbLine
 10
5.999997782195067
 20
0
 11
-7.499999200319849
 21
0
  0
LINE
  5
382
100
AcDbEntity
  8
0
  6
CONTINUOUS
 62
     7
100
AcDbLine
 10
7.49999744691894
 20
1.499999664723873
 11
-1.500000541424299
 21
1.499999664723873
  0
LINE
  5
383
100
AcDbEntity
  8
0
  6
CONTINUOUS
 62
     7
100
AcDbLine
 10
-1.500001162958484
 20
2.999999418520919
 11
-7.499999147007826
 21
4.264962472078082e-007
  0
LINE
  5
384
100
AcDbEntity
  8
0
  6
CONTINUOUS
 62
     7
100
AcDbLine
 10
7.499997838110522
 20
1.499999934080587
 11
5.999997904030156
 21
2.211564265053312e-013
  0
LINE
  5
385
100
AcDbEntity
  8
0
  6
CENTER
 62
     3
100
AcDbLine
 10
-5.41090562479684
 20
18.0000016391277
 11
5.577257850041406
 21
18.0000016391277
  0
LINE
  5
386
100
AcDbEntity
  8
0
  6
CENTER
 62
     3
100
AcDbLine
 10
0
 20
171.5398572155854
 11
0
 21
-45.52868775235582
  0
LINE
  5
387
100
AcDbEntity
  8
0
  6
CONTINUOUS
 62
     7
100
AcDbLine
 10
-49.99999925494194
 20
22.00000730156887
 11
-49.99999925494194
 21
-21.99999776482586
  0
LINE
  5
388
100
AcDbEntity
  8
0
  6
CONTINUOUS
 62
     7
100
AcDbLine
 10
49.999999254942
 20
22.00000730156887
 11
49.999999254942
 21
-21.99999776482586
  0
LINE
  5
389
100
AcDbEntity
  8
0
  6
CONTINUOUS
 62
     7
100
AcDbLine
 10
39.99999940395355
 20
25.999993890524
 11
-39.99999940395355
 21
25.999993890524
  0
LINE
  5
38a
100
AcDbEntity
  8
0
  6
CONTINUOUS
 62
     7
100
AcDbLine
 10
49.999999254942
 20
-21.99999776482586
 11
-49.99999925494194
 21
-21.99999776482586
  0
LINE
  5
38b
100
AcDbEntity
  8
0
  6
CENTER
 62
     3
100
AcDbLine
 10
53.14598004302411
 20
0
 11
-53.01889340551355
 21
0
  0
LINE
  5
38c
100
AcDbEntity
  8
0
  6
CONTINUOUS
 62
     7
100
AcDbLine
 10
49.999999254942
 20
22.00000730156887
 11
29.99999955296516
 21
22.00000730156887
  0
LINE
  5
38d
100
AcDbEntity
  8
0
  6
CONTINUOUS
 62
     7
100
AcDbLine
 10
-29.99999955296516
 20
22.00000730156887
 11
-49.99999925494194
 21
22.00000730156887
  0
LINE
  5
38e
100
AcDbEntity
  8
0
  6
CONTINUOUS
 62
     7
100
AcDbLine
 10
24.00010841097462
 20
-21.99999776482586
 11
23.00009091646211
 21
-26.00000679513579
  0
LINE
  5
38f
100
AcDbEntity
  8
0
  6
CONTINUOUS
 62
     7
100
AcDbLine
 10
-24.00001059395073
 20
-21.99999776482586
 11
-22.99999176692381
 21
-26.00001212511221
  0
LINE
  5
390
100
AcDbEntity
  8
0
  6
CONTINUOUS
 62
     7
100
AcDbLine
 10
23.00003017485096
 20
-25.999993890524
 11
-23.00003017485096
 21
-25.999993890524
  0
LINE
  5
391
100
AcDbEntity
  8
0
  6
CONTINUOUS
 62
     7
100
AcDbLine
 10
22.49999966472387
 20
-42.00000223517414
 11
-22.49999966472387
 21
-42.00000223517414
  0
LINE
  5
392
100
AcDbEntity
  8
0
  6
CONTINUOUS
 62
     7
100
AcDbLine
 10
-22.49999966472387
 20
-25.999993890524
 11
-22.49999966472387
 21
-42.00000223517414
  0
LINE
  5
393
100
AcDbEntity
  8
0
  6
CONTINUOUS
 62
     7
100
AcDbLine
 10
22.49999966472387
 20
-25.999993890524
 11
22.49999966472387
 21
-42.00000223517414
  0
LINE
  5
394
100
AcDbEntity
  8
0
  6
CONTINUOUS
 62
     7
100
AcDbLine
 10
-27.49999959021807
 20
56.0000029802322
 11
-27.49999959021807
 21
26.00000342726702
  0
LINE
  5
395
100
AcDbEntity
  8
0
  6
CONTINUOUS
 62
     7
100
AcDbLine
 10
27.49999959021807
 20
56.0000029802322
 11
27.49999959021807
 21
26.00000342726702
  0
LINE
  5
396
100
AcDbEntity
  8
0
  6
CONTINUOUS
 62
     7
100
AcDbLine
 10
-29.99999955296516
 20
76.00000268220897
 11
-29.99999955296516
 21
56.0000029802322
  0
LINE
  5
397
100
AcDbEntity
  8
0
  6
CONTINUOUS
 62
     7
100
AcDbLine
 10
29.99999955296516
 20
76.00000268220897
 11
29.99999955296516
 21
56.0000029802322
  0
LINE
  5
398
100
AcDbEntity
  8
0
  6
CONTINUOUS
 62
     7
100
AcDbLine
 10
29.99999955296516
 20
55.99999344348917
 11
-29.99999955296516
 21
55.99999344348917
  0
LINE
  5
399
100
AcDbEntity
  8
0
  6
CONTINUOUS
 62
     7
100
AcDbLine
 10
29.99999955296516
 20
76.00001221895199
 11
-29.99999955296516
 21
76.00001221895199
  0
LINE
  5
39a
100
AcDbEntity
  8
0
  6
CONTINUOUS
 62
     7
100
AcDbLine
 10
18.00003024935677
 20
74.4999969825149
 11
28.00003010034516
 21
74.4999969825149
  0
LINE
  5
39b
100
AcDbEntity
  8
0
  6
CONTINUOUS
 62
     7
100
AcDbLine
 10
18.00003024935677
 20
68.5000123307107
 11
28.00003010034516
 21
68.5000123307107
  0
LINE
  5
39c
100
AcDbEntity
  8
0
  6
CONTINUOUS
 62
     7
100
AcDbLine
 10
18.00003024935677
 20
74.4999969825149
 11
18.00003024935677
 21
66.99999709427361
  0
LINE
  5
39d
100
AcDbEntity
  8
0
  6
CONTINUOUS
 62
     7
100
AcDbLine
 10
19.99999970197678
 20
56.0000029802322
 11
19.99999970197678
 21
26.00000342726702
  0
LINE
  5
39e
100
AcDbEntity
  8
0
  6
CONTINUOUS
 62
     7
100
AcDbLine
 10
28.00003010034516
 20
74.4999969825149
 11
28.00003010034516
 21
66.99999709427361
  0
LINE
  5
39f
100
AcDbEntity
  8
0
  6
CENTER
 62
     3
100
AcDbLine
 10
23.00003017485096
 20
76.00000268220897
 11
23.00003017485096
 21
25.999993890524
  0
LINE
  5
3a0
100
AcDbEntity
  8
0
  6
CONTINUOUS
 62
     7
100
AcDbLine
 10
14.99999977648258
 20
66.99999709427361
 11
29.99999955296516
 21
66.99999709427361
  0
LINE
  5
3a1
100
AcDbEntity
  8
0
  6
CONTINUOUS
 62
     7
100
AcDbLine
 10
-19.99999970197678
 20
56.0000029802322
 11
-19.99999970197678
 21
26.00000342726702
  0
LINE
  5
3a2
100
AcDbEntity
  8
0
  6
CONTINUOUS
 62
     7
100
AcDbLine
 10
-25.99998435378097
 20
56.0000029802322
 11
-25.99998435378097
 21
26.00000342726702
  0
LINE
  5
3a3
100
AcDbEntity
  8
0
  6
CENTER
 62
     3
100
AcDbLine
 10
-22.99999202787888
 20
76.00000268220897
 11
-22.99999202787888
 21
25.999993890524
  0
LINE
  5
3a4
100
AcDbEntity
  8
0
  6
CONTINUOUS
 62
     7
100
AcDbLine
 10
25.99998435378097
 20
56.0000029802322
 11
25.99998435378097
 21
26.00000342726702
  0
LINE
  5
3a5
100
AcDbEntity
  8
0
  6
CONTINUOUS
 62
     7
100
AcDbLine
 10
14.99999977648258
 20
76.00000268220897
 11
14.99999977648258
 21
66.99999709427361
  0
LINE
  5
3a6
100
AcDbEntity
  8
0
  6
CONTINUOUS
 62
     7
100
AcDbLine
 10
29.99999955296516
 20
25.999993890524
 11
29.99999955296516
 21
-21.99999776482586
  0
LINE
  5
3a7
100
AcDbEntity
  8
0
  6
CONTINUOUS
 62
     7
100
AcDbLine
 10
-29.99999955296516
 20
25.999993890524
 11
-29.99999955296516
 21
-21.99999776482586
  0
LINE
  5
3a8
100
AcDbEntity
  8
0
  6
CONTINUOUS
 62
     7
100
AcDbLine
 10
39.99999940395361
 20
25.999993890524
 11
39.99999940395361
 21
22.00000730156887
  0
LINE
  5
3a9
100
AcDbEntity
  8
0
  6
CONTINUOUS
 62
     7
100
AcDbLine
 10
-39.99998033046751
 20
25.999993890524
 11
-39.99998033046751
 21
22.00000730156887
  0
LINE
  5
3aa
100
AcDbEntity
  8
0
  6
CONTINUOUS
 62
     7
100
AcDbLine
 10
49.99999925494194
 20
-13.59675387148926
 11
29.99999955296516
 21
-13.59675387148926
  0
LINE
  5
3ab
100
AcDbEntity
  8
0
  6
CONTINUOUS
 62
     7
100
AcDbLine
 10
49.99999925494194
 20
13.59674433474623
 11
29.99999955296516
 21
13.59674433474623
  0
LINE
  5
3ac
100
AcDbEntity
  8
0
  6
CONTINUOUS
 62
     7
100
AcDbLine
 10
-29.99999955296516
 20
13.59674433474623
 11
-50.00001832842798
 21
13.59674433474623
  0
LINE
  5
3ad
100
AcDbEntity
  8
0
  6
CONTINUOUS
 62
     7
100
AcDbLine
 10
-29.99999955296516
 20
-13.59675387148926
 11
-50.00001832842798
 21
-13.59675387148926
  0
LINE
  5
3ae
100
AcDbEntity
  8
0
  6
CONTINUOUS
 62
     7
100
AcDbLine
 10
-25.9999080598368
 20
84.99998919665829
 11
26.00006064772515
 21
84.99998919665829
  0
LINE
  5
3af
100
AcDbEntity
  8
0
  6
CONTINUOUS
 62
     7
100
AcDbLine
 10
26.00002250075306
 20
122.9999905377628
 11
26.00002250075306
 21
76.00001221895199
  0
LINE
  5
3b0
100
AcDbEntity
  8
0
  6
CONTINUOUS
 62
     7
100
AcDbLine
 10
27.00011216373412
 20
89.7499726803637
 11
26.00008166999858
 21
88.99994979143503
  0
LINE
  5
3b1
100
AcDbEntity
  8
0
  6
CONTINUOUS
 62
     7
100
AcDbLine
 10
27.00008352100724
 20
108.2500060163437
 11
27.00008352100724
 21
89.74996433034592
  0
LINE
  5
3b2
100
AcDbEntity
  8
0
  6
CONTINUOUS
 62
     7
100
AcDbLine
 10
26.00016956357558
 20
108.9999671494927
 11
27.00015428094503
 21
108.2499785928394
  0
LINE
  5
3b3
100
AcDbEntity
  8
0
  6
DASHED
 62
     3
100
AcDbLine
 10
19.70010348111237
 20
105.5055548878494
 11
26.97018960956285
 21
105.7594318778521
  0
LINE
  5
3b4
100
AcDbEntity
  8
0
  6
DASHED
 62
     7
100
AcDbLine
 10
19.70010348111236
 20
104.6490532235477
 11
27.00010099983187
 21
104.9039747422664
  0
LINE
  5
3b5
100
AcDbEntity
  8
0
  6
CENTER
 62
     3
100
AcDbLine
 10
27.93151813847544
 20
98.9999756366018
 11
19.70010348111237
 21
98.9999756366018
  0
LINE
  5
3b6
100
AcDbEntity
  8
0
  6
DASHED
 62
     3
100
AcDbLine
 10
19.70010348111236
 20
92.49447174751292
 11
26.97023824781312
 21
92.24059305902513
  0
LINE
  5
3b7
100
AcDbEntity
  8
0
  6
DASHED
 62
     7
100
AcDbLine
 10
19.70010348111236
 20
93.35099249692681
 11
27.00011218000313
 21
93.09607058778798
  0
LINE
  5
3b8
100
AcDbEntity
  8
0
  6
CONTINUOUS
 62
     7
100
AcDbLine
 10
18.70010348111237
 20
108.6999876990916
 11
18.70010348111237
 21
90.29996737390805
  0
LINE
  5
3b9
100
AcDbEntity
  8
0
  6
CONTINUOUS
 62
     7
100
AcDbLine
 10
-18.69995089322401
 20
108.6999876990916
 11
18.70010348111237
 21
108.6999876990916
  0
LINE
  5
3ba
100
AcDbEntity
  8
0
  6
CONTINUOUS
 62
     7
100
AcDbLine
 10
-18.69995089322401
 20
108.6999876990916
 11
-18.69995089322401
 21
90.29996737390805
  0
LINE
  5
3bb
100
AcDbEntity
  8
0
  6
CONTINUOUS
 62
     7
100
AcDbLine
 10
-18.69995089322401
 20
90.29997691065107
 11
18.70010348111237
 21
90.29997691065107
  0
LINE
  5
3bc
100
AcDbEntity
  8
0
  6
DASHED
 62
     3
100
AcDbLine
 10
-29.00001482665516
 20
112.4999983236194
 11
-20.18936127142069
 21
112.4999983236194
  0
LINE
  5
3bd
100
AcDbEntity
  8
0
  6
DASHED
 62
     3
100
AcDbLine
 10
-29.00001482665516
 20
111.300009022653
 11
-20.18936127142069
 21
111.300009022653
  0
LINE
  5
3be
100
AcDbEntity
  8
0
  6
DASHED
 62
     3
100
AcDbLine
 10
-29.00001482665516
 20
92.69996504932693
 11
-20.18936127142069
 21
92.69996504932693
  0
LINE
  5
3bf
100
AcDbEntity
  8
0
  6
DASHED
 62
     3
100
AcDbLine
 10
-29.00001482665516
 20
91.49996621161749
 11
-20.18936127142069
 21
91.49996621161749
  0
LINE
  5
3c0
100
AcDbEntity
  8
0
  6
CONTINUOUS
 62
     7
100
AcDbLine
 10
-5.999984651804198
 20
96.99996803700971
 11
-5.999984651804198
 21
90.29997691065107
  0
LINE
  5
3c1
100
AcDbEntity
  8
0
  6
CENTER
 62
     3
100
AcDbLine
 10
-5.999984651804198
 20
96.99996803700971
 11
5.999984651804198
 21
96.99996803700971
  0
LINE
  5
3c2
100
AcDbEntity
  8
0
  6
CONTINUOUS
 62
     7
100
AcDbLine
 10
-25.99998435378097
 20
122.9999905377628
 11
-25.99998435378097
 21
76.00001221895199
  0
LINE
  5
3c3
100
AcDbEntity
  8
0
  6
CONTINUOUS
 62
     7
100
AcDbLine
 10
-28.99997667968307
 20
88.49997388571539
 11
-25.9999080598368
 21
88.49997388571539
  0
LINE
  5
3c4
100
AcDbEntity
  8
0
  6
CONTINUOUS
 62
     7
100
AcDbLine
 10
-29.00001482665516
 20
89.99998912215249
 11
-32.00000715255726
 21
89.99998912215249
  0
LINE
  5
3c5
100
AcDbEntity
  8
0
  6
CONTINUOUS
 62
     7
100
AcDbLine
 10
-28.99997667968307
 20
115.4999906495215
 11
-28.99997667968307
 21
88.49997388571539
  0
LINE
  5
3c6
100
AcDbEntity
  8
0
  6
CONTINUOUS
 62
     7
100
AcDbLine
 10
-32.00000715255726
 20
113.9999754130844
 11
-32.00000715255726
 21
89.99998912215249
  0
LINE
  5
3c7
100
AcDbEntity
  8
0
  6
CONTINUOUS
 62
     7
100
AcDbLine
 10
-56.65903007002129
 20
103.2499679438775
 11
-32.00004529952935
 21
103.2499679438775
  0
LINE
  5
3c8
100
AcDbEntity
  8
0
  6
CONTINUOUS
 62
     7
100
AcDbLine
 10
-56.65903007002129
 20
100.7499679811304
 11
-32.00004529952935
 21
100.7499679811304
  0
LINE
  5
3c9
100
AcDbEntity
  8
0
  6
CONTINUOUS
 62
     7
100
AcDbLine
 10
-25.99998435378097
 20
115.9999830126765
 11
25.99998435378097
 21
115.9999830126765
  0
LINE
  5
3ca
100
AcDbEntity
  8
0
  6
CENTER
 62
     3
100
AcDbLine
 10
-21.99996915459678
 20
128.2229785885963
 11
-21.99996915459678
 21
122.9999905377628
  0
LINE
  5
3cb
100
AcDbEntity
  8
0
  6
CONTINUOUS
 62
     7
100
AcDbLine
 10
-28.99997667968307
 20
115.4999906495215
 11
-25.9999080598368
 21
115.4999906495215
  0
LINE
  5
3cc
100
AcDbEntity
  8
0
  6
CONTINUOUS
 62
     7
100
AcDbLine
 10
-29.00001482665516
 20
113.9999754130844
 11
-32.00000715255726
 21
113.9999754130844
  0
LINE
  5
3cd
100
AcDbEntity
  8
0
  6
CONTINUOUS
 62
     7
100
AcDbLine
 10
-56.65901099653524
 20
103.2499870173635
 11
-56.65901099653524
 21
100.7499870546164
  0
LINE
  5
3ce
100
AcDbEntity
  8
0
  6
CONTINUOUS
 62
     7
100
AcDbLine
 10
-56.65907118760039
 20
102.6249846437346
 11
-61.65903855892866
 21
104.4448238457919
  0
LINE
  5
3cf
100
AcDbEntity
  8
0
  6
CONTINUOUS
 62
     7
100
AcDbLine
 10
-56.65900396765731
 20
101.3749536644191
 11
-61.65900718541397
 21
99.55510141532947
  0
LINE
  5
3d0
100
AcDbEntity
  8
0
  6
CONTINUOUS
 62
     7
100
AcDbLine
 10
-25.99992761575466
 20
122.9999725639326
 11
-24.99994333796353
 21
167.0000051409006
  0
LINE
  5
3d1
100
AcDbEntity
  8
0
  6
CONTINUOUS
 62
     7
100
AcDbLine
 10
-25.99998435378097
 20
122.9999905377628
 11
-17.49914810462069
 21
122.9999905377628
  0
LINE
  5
3d2
100
AcDbEntity
  8
0
  6
CONTINUOUS
 62
     7
100
AcDbLine
 10
-16.50045021670094
 20
167.0000051409005
 11
-17.49914810462069
 21
122.9999905377628
  0
LINE
  5
3d3
100
AcDbEntity
  8
0
  6
CONTINUOUS
 62
     7
100
AcDbLine
 10
-18.49998446553968
 20
123.9999752640728
 11
-25.50003013759806
 21
123.9999752640728
  0
LINE
  5
3d4
100
AcDbEntity
  8
0
  6
CONTINUOUS
 62
     7
100
AcDbLine
 10
-18.49998446553968
 20
125.2999859258535
 11
-18.49998446553968
 21
122.9999905377628
  0
LINE
  5
3d5
100
AcDbEntity
  8
0
  6
CONTINUOUS
 62
     7
100
AcDbLine
 10
-25.50003013759806
 20
125.2999859258535
 11
-25.50003013759806
 21
122.9999905377628
  0
LINE
  5
3d6
100
AcDbEntity
  8
0
  6
CONTINUOUS
 62
     7
100
AcDbLine
 10
25.99998435378097
 20
122.9999905377628
 11
17.49936133639346
 21
122.9999905377628
  0
LINE
  5
3d7
100
AcDbEntity
  8
0
  6
CONTINUOUS
 62
     7
100
AcDbLine
 10
25.99999620204889
 20
122.9999959303207
 11
24.99999335453041
 21
167.0000051409006
  0
LINE
  5
3d8
100
AcDbEntity
  8
0
  6
CONTINUOUS
 62
     7
100
AcDbLine
 10
16.50066344847371
 20
167.0000051409005
 11
17.49936133639346
 21
122.9999905377628
  0
LINE
  5
3d9
100
AcDbEntity
  8
0
  6
CENTER
 62
     3
100
AcDbLine
 10
1.999969452620007
 20
162.5000357255335
 11
-1.999969452620007
 21
162.5000357255335
  0
LINE
  5
3da
100
AcDbEntity
  8
0
  6
CONTINUOUS
 62
     7
100
AcDbLine
 10
24.9999933545304
 20
167.0000051409006
 11
-24.99994333796353
 21
167.0000051409006
  0
LINE
  5
3db
100
AcDbEntity
  8
0
  6
CONTINUOUS
 62
     7
100
AcDbLine
 10
5.999984651804198
 20
96.99996803700971
 11
5.999984651804198
 21
90.29997691065107
  0
LINE
  5
3dc
100
AcDbEntity
  8
0
  6
DASHED
 62
     7
100
AcDbLine
 10
49.99991887537781
 20
-15.1000113218812
 11
33.99993468201452
 21
-14.76485942270793
  0
LINE
  5
3dd
100
AcDbEntity
  8
0
  6
DASHED
 62
     7
100
AcDbLine
 10
49.99994537234917
 20
15.09999466730916
 11
33.99992304038005
 21
14.76484196924596
  0
LINE
  5
3de
100
AcDbEntity
  8
0
  6
DASHED
 62
     3
100
AcDbLine
 10
49.99996109109623
 20
16.4999907386316
 11
33.99997689773294
 21
16.16483883945833
  0
LINE
  5
3df
100
AcDbEntity
  8
0
  6
CONTINUOUS
 62
     7
100
AcDbLine
 10
-61.81720641527761
 20
101.9999679625039
 11
-56.65901099653524
 21
101.9999679625039
  0
LINE
  5
3e0
100
AcDbEntity
  8
0
  6
CONTINUOUS
 62
     7
100
AcDbLine
 10
25.50003013759806
 20
125.2999859258535
 11
25.50003013759806
 21
122.9999905377628
  0
LINE
  5
3e1
100
AcDbEntity
  8
0
  6
CONTINUOUS
 62
     7
100
AcDbLine
 10
18.49998446553968
 20
125.2999859258535
 11
18.49998446553968
 21
122.9999905377628
  0
LINE
  5
3e2
100
AcDbEntity
  8
0
  6
CONTINUOUS
 62
     7
100
AcDbLine
 10
18.49998446553968
 20
123.9999752640728
 11
25.50003013759806
 21
123.9999752640728
  0
LINE
  5
3e3
100
AcDbEntity
  8
0
  6
CENTER
 62
     3
100
AcDbLine
 10
21.99996915459678
 20
128.2229785885963
 11
21.99996915459678
 21
122.9999905377628
  0
LINE
  5
3e4
100
AcDbEntity
  8
0
  6
CONTINUOUS
 62
     7
100
AcDbLine
 10
-14.99999977648258
 20
76.00000268220897
 11
-14.99999977648258
 21
66.99999709427361
  0
LINE
  5
3e5
100
AcDbEntity
  8
0
  6
CONTINUOUS
 62
     7
100
AcDbLine
 10
-14.99999977648258
 20
66.99999709427361
 11
-29.99999955296516
 21
66.99999709427361
  0
LINE
  5
3e6
100
AcDbEntity
  8
0
  6
CONTINUOUS
 62
     7
100
AcDbLine
 10
-28.00003010034516
 20
74.4999969825149
 11
-28.00003010034516
 21
66.99999709427361
  0
LINE
  5
3e7
100
AcDbEntity
  8
0
  6
CONTINUOUS
 62
     7
100
AcDbLine
 10
-18.00003024935677
 20
74.4999969825149
 11
-18.00003024935677
 21
66.99999709427361
  0
LINE
  5
3e8
100
AcDbEntity
  8
0
  6
CONTINUOUS
 62
     7
100
AcDbLine
 10
-18.00003024935677
 20
68.5000123307107
 11
-28.00003010034516
 21
68.5000123307107
  0
LINE
  5
3e9
100
AcDbEntity
  8
0
  6
CONTINUOUS
 62
     7
100
AcDbLine
 10
-18.00003024935677
 20
74.4999969825149
 11
-28.00003010034516
 21
74.4999969825149
  0
CIRCLE
  5
3ea
100
AcDbEntity
  8
0
  6
CONTINUOUS
 62
     3
100
AcDbCircle
 10
0
 20
18.0000016391277
 40
2.5
  0
CIRCLE
  5
3eb
100
AcDbEntity
  8
0
  6
CONTINUOUS
 62
     7
100
AcDbCircle
 10
0
 20
18.0000016391277
 40
2.05
  0
CIRCLE
  5
3ec
100
AcDbEntity
  8
0
  6
CONTINUOUS
 62
     7
100
AcDbCircle
 10
0
 20
96.99996803700971
 40
4.999999925494195
  0
ARC
  5
3ed
100
AcDbEntity
  8
0
  6
CONTINUOUS
 62
     7
100
AcDbCircle
 10
0
 20
96.99996803700971
 40
6.000000149011609
100
AcDbArc
 50
0
 51
179.9999640278213
  0
CIRCLE
  5
3ee
100
AcDbEntity
  8
0
  6
CONTINUOUS
 62
     7
100
AcDbCircle
 10
0
 20
162.5000357255335
 40
1
  0
ARC
  5
3ef
100
AcDbEntity
  8
0
  6
CONTINUOUS
 62
     7
100
AcDbCircle
 10
-22.00000730156887
 20
121.2384299552038
 40
5.361566632566055
100
AcDbArc
 50
49.24706685261766
 51
130.7529331473823
  0
ARC
  5
3f0
100
AcDbEntity
  8
0
  6
CONTINUOUS
 62
     7
100
AcDbCircle
 10
22.00000730156887
 20
121.2384299552038
 40
5.361566632566055
100
AcDbArc
 50
49.24706685261772
 51
130.7529331473824
  0
MTEXT
  5
3f1
100
AcDbEntity
  8
0
  6
CONTINUOUS
 62
     7
100
AcDbMText
 10
-14.21607642026874
 20
154.9941478737633
 40
0.5
 41
36
 71
     7
 72
     1
  1
{\W0.8426;ＢＮ－５ＢＰ２１－２５－Ｅ／Ｆ＊＊＊}
  0
INSERT
  5
3f2
100
AcDbEntity
  8
0
  6
CONTINUOUS
 62
     7
100
AcDbBlockReference
  2
KOZU0012
 10
0
 20
0
  0
ENDBLK
  8
0
  5
3f3
100
AcDbEntity
100
AcDbBlockEnd
  0
BLOCK
  8
0
  5
3f4
100
AcDbEntity
100
AcDbBlockBegin
  2
KOZU0006
 70
    64
 10
0
 20
0
  0
POINT
  5
3f5
100
AcDbEntity
  8
0
  6
CONTINUOUS
 62
     7
100
AcDbPoint
 10
0
 20
0
  0
LINE
  5
3f6
100
AcDbEntity
  8
0
  6
CENTER
 62
     3
100
AcDbLine
 10
-55.26393808031175
 20
0
 11
54.67672266547795
 21
0
  0
LINE
  5
3f7
100
AcDbEntity
  8
0
  6
CENTER
 62
     3
100
AcDbLine
 10
0
 20
33.88817736673092
 11
0
 21
-33.48110194118501
  0
LINE
  5
3f8
100
AcDbEntity
  8
0
  6
CONTINUOUS
 62
     7
100
AcDbLine
 10
29.99999955296517
 20
22.99999918043615
 11
29.99999955296517
 21
-23.0000015646219
  0
LINE
  5
3f9
100
AcDbEntity
  8
0
  6
CONTINUOUS
 62
     7
100
AcDbLine
 10
-29.99999955296517
 20
22.99999918043615
 11
-29.99999955296517
 21
-23.0000015646219
  0
LINE
  5
3fa
100
AcDbEntity
  8
0
  6
CONTINUOUS
 62
     7
100
AcDbLine
 10
-22.99999977648259
 20
29.99999955296517
 11
23.0000015646219
 21
29.99999955296517
  0
LINE
  5
3fb
100
AcDbEntity
  8
0
  6
CONTINUOUS
 62
     7
100
AcDbLine
 10
-22.99999977648259
 20
-29.99999955296516
 11
23.0000015646219
 21
-29.99999955296516
  0
LINE
  5
3fc
100
AcDbEntity
  8
0
  6
CONTINUOUS
 62
     7
100
AcDbLine
 10
-49.99999925494196
 20
-21.99999776482585
 11
-29.99999955296517
 21
-21.99999776482585
  0
LINE
  5
3fd
100
AcDbEntity
  8
0
  6
CONTINUOUS
 62
     7
100
AcDbLine
 10
-49.99999925494196
 20
22.00000014901161
 11
-49.99999925494196
 21
-21.99999776482585
  0
LINE
  5
3fe
100
AcDbEntity
  8
0
  6
CONTINUOUS
 62
     7
100
AcDbLine
 10
-49.99999925494196
 20
22.00000014901161
 11
-29.99999955296517
 21
22.00000014901161
  0
LINE
  5
3ff
100
AcDbEntity
  8
0
  6
CONTINUOUS
 62
     7
100
AcDbLine
 10
49.99999925494195
 20
22.00000014901161
 11
49.99999925494195
 21
-21.99999776482585
  0
LINE
  5
400
100
AcDbEntity
  8
0
  6
CONTINUOUS
 62
     7
100
AcDbLine
 10
29.99999955296517
 20
22.00000014901161
 11
49.99999925494195
 21
22.00000014901161
  0
LINE
  5
401
100
AcDbEntity
  8
0
  6
CONTINUOUS
 62
     7
100
AcDbLine
 10
29.99999955296517
 20
-21.99999776482585
 11
49.99999925494195
 21
-21.99999776482585
  0
CIRCLE
  5
402
100
AcDbEntity
  8
0
  6
CONTINUOUS
 62
     7
100
AcDbCircle
 10
0
 20
0
 40
22.49999966472388
  0
ARC
  5
403
100
AcDbEntity
  8
0
  6
CONTINUOUS
 62
     7
100
AcDbCircle
 10
-22.99999977648259
 20
-23.0000015646219
 40
6.999999776482585
100
AcDbArc
 50
179.9999813306653
 51
270.00001798609
  0
ARC
  5
404
100
AcDbEntity
  8
0
  6
CONTINUOUS
 62
     7
100
AcDbCircle
 10
23.0000015646219
 20
22.99999918043615
 40
6.999999776482585
100
AcDbArc
 50
0
 51
89.99998201391065
  0
ARC
  5
405
100
AcDbEntity
  8
0
  6
CONTINUOUS
 62
     7
100
AcDbCircle
 10
-22.99999977648259
 20
22.99999918043615
 40
6.999999776482585
100
AcDbArc
 50
89.99998201391065
 51
179.9999640278213
  0
ARC
  5
406
100
AcDbEntity
  8
0
  6
CONTINUOUS
 62
     7
100
AcDbCircle
 10
23.0000015646219
 20
-23.0000015646219
 40
6.999999776482585
100
AcDbArc
 50
270.00001798609
 51
360
  0
CIRCLE
  5
407
100
AcDbEntity
  8
0
  6
CONTINUOUS
 62
     7
100
AcDbCircle
 10
0
 20
0
 40
24.00000059604644
  0
MTEXT
  5
408
100
AcDbEntity
  8
0
  6
CONTINUOUS
 62
     7
100
AcDbMText
 10
-24.06617526612595
 20
26.03069538650571
 40
0.5
 41
36
 71
     7
 72
     1
  1
{\W0.8426;ＢＮ－５ＢＰ２１－２５－Ｅ／Ｆ＊＊＊}
  0
ENDBLK
  8
0
  5
409
100
AcDbEntity
100
AcDbBlockEnd
  0
BLOCK
  8
0
  5
40a
100
AcDbEntity
100
AcDbBlockBegin
  2
KOZU0007
 70
    64
 10
0
 20
0
  0
LINE
  5
40b
100
AcDbEntity
  8
0
  6
CONTINUOUS
 62
     7
100
AcDbLine
 10
-9.693611910485647
 20
-40.00000914931306
 11
-9.500014923512943
 21
-39.806411775146
  0
LINE
  5
40c
100
AcDbEntity
  8
0
  6
CONTINUOUS
 62
     7
100
AcDbLine
 10
-11.37740822410253
 20
-40.00000914931306
 11
-9.500014923512946
 21
-38.12261209393311
  0
LINE
  5
40d
100
AcDbEntity
  8
0
  6
CONTINUOUS
 62
     7
100
AcDbLine
 10
-13.06120453771942
 20
-40.00000914931306
 11
-9.500014923512943
 21
-36.43881241272023
  0
LINE
  5
40e
100
AcDbEntity
  8
0
  6
CONTINUOUS
 62
     7
100
AcDbLine
 10
-14.7450008513363
 20
-40.00000914931306
 11
-9.500014923512945
 21
-34.75501273150735
  0
LINE
  5
40f
100
AcDbEntity
  8
0
  6
CONTINUOUS
 62
     7
100
AcDbLine
 10
-16.42879716495319
 20
-40.00000914931306
 11
-9.500014923512945
 21
-33.07121305029448
  0
LINE
  5
410
100
AcDbEntity
  8
0
  6
CONTINUOUS
 62
     7
100
AcDbLine
 10
-18.11259347857008
 20
-40.00000914931306
 11
-9.500014923512945
 21
-31.38741336908159
  0
LINE
  5
411
100
AcDbEntity
  8
0
  6
CONTINUOUS
 62
     7
100
AcDbLine
 10
-19.50001492351294
 20
-39.70363368788871
 11
-9.796409792166969
 21
-30.00000914931307
  0
LINE
  5
412
100
AcDbEntity
  8
0
  6
CONTINUOUS
 62
     7
100
AcDbLine
 10
-19.50001492351294
 20
-38.01983400667584
 11
-11.48020610578385
 21
-30.00000914931307
  0
LINE
  5
413
100
AcDbEntity
  8
0
  6
CONTINUOUS
 62
     7
100
AcDbLine
 10
-19.50001492351294
 20
-36.33603432546295
 11
-13.16400241940074
 21
-30.00000914931307
  0
LINE
  5
414
100
AcDbEntity
  8
0
  6
CONTINUOUS
 62
     7
100
AcDbLine
 10
-19.50001492351294
 20
-34.65223464425007
 11
-14.84779873301763
 21
-30.00000914931307
  0
LINE
  5
415
100
AcDbEntity
  8
0
  6
CONTINUOUS
 62
     7
100
AcDbLine
 10
-19.50001492351294
 20
-32.96843496303719
 11
-16.53159504663451
 21
-30.00000914931307
  0
LINE
  5
416
100
AcDbEntity
  8
0
  6
CONTINUOUS
 62
     7
100
AcDbLine
 10
-19.50001492351294
 20
-31.28463528182431
 11
-18.2153913602514
 21
-30.00000914931307
  0
LINE
  5
417
100
AcDbEntity
  8
0
  6
CONTINUOUS
 62
     7
100
AcDbLine
 10
-9.500014923512946
 20
-30.89813203576795
 11
-10.3981396062154
 21
-30.00000914931307
  0
LINE
  5
418
100
AcDbEntity
  8
0
  6
CONTINUOUS
 62
     7
100
AcDbLine
 10
-9.500014923512943
 20
-32.58192834938483
 11
-12.08193928742828
 21
-30.00000914931307
  0
LINE
  5
419
100
AcDbEntity
  8
0
  6
CONTINUOUS
 62
     7
100
AcDbLine
 10
-9.500014923512945
 20
-34.26572466300172
 11
-13.76573896864116
 21
-30.00000914931307
  0
LINE
  5
41a
100
AcDbEntity
  8
0
  6
CONTINUOUS
 62
     7
100
AcDbLine
 10
-9.500014923512945
 20
-35.9495209766186
 11
-15.44953864985403
 21
-30.00000914931307
  0
LINE
  5
41b
100
AcDbEntity
  8
0
  6
CONTINUOUS
 62
     7
100
AcDbLine
 10
-9.500014923512945
 20
-37.63331729023548
 11
-17.13333833106691
 21
-30.00000914931307
  0
LINE
  5
41c
100
AcDbEntity
  8
0
  6
CONTINUOUS
 62
     7
100
AcDbLine
 10
-9.500014923512943
 20
-39.31711360385236
 11
-18.81713801227979
 21
-30.00000914931307
  0
LINE
  5
41d
100
AcDbEntity
  8
0
  6
CONTINUOUS
 62
     7
100
AcDbLine
 10
-10.50091769347268
 20
-40.00000914931306
 11
-19.50001492351295
 21
-31.00092991744926
  0
LINE
  5
41e
100
AcDbEntity
  8
0
  6
CONTINUOUS
 62
     7
100
AcDbLine
 10
-12.18471737468556
 20
-40.00000914931306
 11
-19.50001492351294
 21
-32.68472623106614
  0
LINE
  5
41f
100
AcDbEntity
  8
0
  6
CONTINUOUS
 62
     7
100
AcDbLine
 10
-13.86851705589844
 20
-40.00000914931306
 11
-19.50001492351294
 21
-34.36852254468302
  0
LINE
  5
420
100
AcDbEntity
  8
0
  6
CONTINUOUS
 62
     7
100
AcDbLine
 10
-15.55231673711132
 20
-40.00000914931306
 11
-19.50001492351295
 21
-36.05231885829991
  0
LINE
  5
421
100
AcDbEntity
  8
0
  6
CONTINUOUS
 62
     7
100
AcDbLine
 10
-17.2361164183242
 20
-40.00000914931306
 11
-19.50001492351295
 21
-37.73611517191679
  0
LINE
  5
422
100
AcDbEntity
  8
0
  6
CONTINUOUS
 62
     7
100
AcDbLine
 10
-18.91991609953708
 20
-40.00000914931306
 11
-19.50001492351294
 21
-39.41991148553368
  0
ENDBLK
  8
0
  5
423
100
AcDbEntity
100
AcDbBlockEnd
  0
BLOCK
  8
0
  5
424
100
AcDbEntity
100
AcDbBlockBegin
  2
KOZU0008
 70
    64
 10
0
 20
0
  0
LINE
  5
425
100
AcDbEntity
  8
0
  6
CONTINUOUS
 62
     3
100
AcDbLine
 10
28.43146510429749
 20
19.04999849572717
 11
29.99999955296518
 21
20.61853615002986
  0
LINE
  5
426
100
AcDbEntity
  8
0
  6
CONTINUOUS
 62
     3
100
AcDbLine
 10
27.00000022351742
 20
19.41458321348863
 11
29.99999955296518
 21
22.41458867407545
  0
LINE
  5
427
100
AcDbEntity
  8
0
  6
CONTINUOUS
 62
     3
100
AcDbLine
 10
27.00000022351742
 20
21.21063573753423
 11
29.99999955296518
 21
24.21064119812105
  0
LINE
  5
428
100
AcDbEntity
  8
0
  6
CONTINUOUS
 62
     3
100
AcDbLine
 10
27.00000022351741
 20
23.00668826157981
 11
28.94329906385173
 21
24.94999107346016
  0
LINE
  5
429
100
AcDbEntity
  8
0
  6
CONTINUOUS
 62
     3
100
AcDbLine
 10
27.00000022351741
 20
24.80274078562541
 11
27.14725021041538
 21
24.94999107346016
  0
LINE
  5
42a
100
AcDbEntity
  8
0
  6
CONTINUOUS
 62
     3
100
AcDbLine
 10
29.99999955296518
 20
24.69708607602754
 11
29.74709403866721
 21
24.94999107346016
  0
LINE
  5
42b
100
AcDbEntity
  8
0
  6
CONTINUOUS
 62
     3
100
AcDbLine
 10
29.99999955296518
 20
22.90103722259119
 11
27.95104151462161
 21
24.94999107346015
  0
LINE
  5
42c
100
AcDbEntity
  8
0
  6
CONTINUOUS
 62
     3
100
AcDbLine
 10
29.99999955296518
 20
21.10498836915484
 11
27.00000022351742
 21
24.10498156747607
  0
LINE
  5
42d
100
AcDbEntity
  8
0
  6
CONTINUOUS
 62
     3
100
AcDbLine
 10
29.99999955296518
 20
19.30893951571849
 11
27.00000022351742
 21
22.30893271403972
  0
LINE
  5
42e
100
AcDbEntity
  8
0
  6
CONTINUOUS
 62
     3
100
AcDbLine
 10
28.46288857811216
 20
19.04999849572717
 11
27.00000022351742
 21
20.51288386060337
  0
ENDBLK
  8
0
  5
42f
100
AcDbEntity
100
AcDbBlockEnd
  0
BLOCK
  8
0
  5
430
100
AcDbEntity
100
AcDbBlockBegin
  2
KOZU0009
 70
    64
 10
0
 20
0
  0
LINE
  5
431
100
AcDbEntity
  8
0
  6
CONTINUOUS
 62
     7
100
AcDbLine
 10
-9.693611910485647
 20
-40.00000914931306
 11
-9.500014923512932
 21
-39.80641177514598
  0
LINE
  5
432
100
AcDbEntity
  8
0
  6
CONTINUOUS
 62
     7
100
AcDbLine
 10
-11.37740822410253
 20
-40.00000914931306
 11
-9.500014923512936
 21
-38.1226120939331
  0
LINE
  5
433
100
AcDbEntity
  8
0
  6
CONTINUOUS
 62
     7
100
AcDbLine
 10
-13.06120453771942
 20
-40.00000914931306
 11
-9.500014923512939
 21
-36.43881241272023
  0
LINE
  5
434
100
AcDbEntity
  8
0
  6
CONTINUOUS
 62
     7
100
AcDbLine
 10
-14.7450008513363
 20
-40.00000914931306
 11
-9.500014923512934
 21
-34.75501273150734
  0
LINE
  5
435
100
AcDbEntity
  8
0
  6
CONTINUOUS
 62
     7
100
AcDbLine
 10
-16.42879716495319
 20
-40.00000914931306
 11
-9.500014923512934
 21
-33.07121305029446
  0
LINE
  5
436
100
AcDbEntity
  8
0
  6
CONTINUOUS
 62
     7
100
AcDbLine
 10
-18.11259347857008
 20
-40.00000914931306
 11
-9.500014923512934
 21
-31.38741336908158
  0
LINE
  5
437
100
AcDbEntity
  8
0
  6
CONTINUOUS
 62
     7
100
AcDbLine
 10
-19.50001492351294
 20
-39.7036336878887
 11
-9.796409792166969
 21
-30.00000914931307
  0
LINE
  5
438
100
AcDbEntity
  8
0
  6
CONTINUOUS
 62
     7
100
AcDbLine
 10
-19.50001492351293
 20
-38.01983400667582
 11
-11.48020610578385
 21
-30.00000914931307
  0
LINE
  5
439
100
AcDbEntity
  8
0
  6
CONTINUOUS
 62
     7
100
AcDbLine
 10
-19.50001492351294
 20
-36.33603432546294
 11
-13.16400241940074
 21
-30.00000914931307
  0
LINE
  5
43a
100
AcDbEntity
  8
0
  6
CONTINUOUS
 62
     7
100
AcDbLine
 10
-19.50001492351294
 20
-34.65223464425007
 11
-14.84779873301763
 21
-30.00000914931307
  0
LINE
  5
43b
100
AcDbEntity
  8
0
  6
CONTINUOUS
 62
     7
100
AcDbLine
 10
-19.50001492351294
 20
-32.96843496303718
 11
-16.53159504663451
 21
-30.00000914931307
  0
LINE
  5
43c
100
AcDbEntity
  8
0
  6
CONTINUOUS
 62
     7
100
AcDbLine
 10
-19.50001492351294
 20
-31.2846352818243
 11
-18.2153913602514
 21
-30.00000914931307
  0
LINE
  5
43d
100
AcDbEntity
  8
0
  6
CONTINUOUS
 62
     7
100
AcDbLine
 10
-9.500014923512936
 20
-30.89813203576796
 11
-10.3981396062154
 21
-30.00000914931307
  0
LINE
  5
43e
100
AcDbEntity
  8
0
  6
CONTINUOUS
 62
     7
100
AcDbLine
 10
-9.50001492351293
 20
-32.58192834938485
 11
-12.08193928742828
 21
-30.00000914931307
  0
LINE
  5
43f
100
AcDbEntity
  8
0
  6
CONTINUOUS
 62
     7
100
AcDbLine
 10
-9.500014923512934
 20
-34.26572466300173
 11
-13.76573896864116
 21
-30.00000914931307
  0
LINE
  5
440
100
AcDbEntity
  8
0
  6
CONTINUOUS
 62
     7
100
AcDbLine
 10
-9.500014923512934
 20
-35.94952097661861
 11
-15.44953864985403
 21
-30.00000914931307
  0
LINE
  5
441
100
AcDbEntity
  8
0
  6
CONTINUOUS
 62
     7
100
AcDbLine
 10
-9.500014923512932
 20
-37.6333172902355
 11
-17.13333833106691
 21
-30.00000914931307
  0
LINE
  5
442
100
AcDbEntity
  8
0
  6
CONTINUOUS
 62
     7
100
AcDbLine
 10
-9.500014923512936
 20
-39.31711360385238
 11
-18.81713801227979
 21
-30.00000914931307
  0
LINE
  5
443
100
AcDbEntity
  8
0
  6
CONTINUOUS
 62
     7
100
AcDbLine
 10
-10.50091769347268
 20
-40.00000914931306
 11
-19.50001492351294
 21
-31.00092991744926
  0
LINE
  5
444
100
AcDbEntity
  8
0
  6
CONTINUOUS
 62
     7
100
AcDbLine
 10
-12.18471737468556
 20
-40.00000914931306
 11
-19.50001492351294
 21
-32.68472623106615
  0
LINE
  5
445
100
AcDbEntity
  8
0
  6
CONTINUOUS
 62
     7
100
AcDbLine
 10
-13.86851705589844
 20
-40.00000914931306
 11
-19.50001492351293
 21
-34.36852254468304
  0
LINE
  5
446
100
AcDbEntity
  8
0
  6
CONTINUOUS
 62
     7
100
AcDbLine
 10
-15.55231673711132
 20
-40.00000914931306
 11
-19.50001492351294
 21
-36.05231885829992
  0
LINE
  5
447
100
AcDbEntity
  8
0
  6
CONTINUOUS
 62
     7
100
AcDbLine
 10
-17.2361164183242
 20
-40.00000914931306
 11
-19.50001492351294
 21
-37.73611517191681
  0
LINE
  5
448
100
AcDbEntity
  8
0
  6
CONTINUOUS
 62
     7
100
AcDbLine
 10
-18.91991609953708
 20
-40.00000914931306
 11
-19.50001492351294
 21
-39.41991148553369
  0
ENDBLK
  8
0
  5
449
100
AcDbEntity
100
AcDbBlockEnd
  0
BLOCK
  8
0
  5
44a
100
AcDbEntity
100
AcDbBlockBegin
  2
KOZU0010
 70
    64
 10
0
 20
0
  0
LINE
  5
44b
100
AcDbEntity
  8
0
  6
CONTINUOUS
 62
     3
100
AcDbLine
 10
-27.24604935222928
 20
19.04999849572717
 11
-27.00000022351739
 21
19.29604812729298
  0
LINE
  5
44c
100
AcDbEntity
  8
0
  6
CONTINUOUS
 62
     3
100
AcDbLine
 10
-29.04209820566562
 20
19.04999849572717
 11
-27.00000022351739
 21
21.09210065133857
  0
LINE
  5
44d
100
AcDbEntity
  8
0
  6
CONTINUOUS
 62
     3
100
AcDbLine
 10
-29.99999955296517
 20
19.88814771479733
 11
-27.00000022351739
 21
22.88815317538417
  0
LINE
  5
44e
100
AcDbEntity
  8
0
  6
CONTINUOUS
 62
     3
100
AcDbLine
 10
-29.99999955296516
 20
21.68420023884293
 11
-27.00000022351739
 21
24.68420569942976
  0
LINE
  5
44f
100
AcDbEntity
  8
0
  6
CONTINUOUS
 62
     3
100
AcDbLine
 10
-29.99999955296517
 20
23.48025276288852
 11
-28.53026424611138
 21
24.94999107346016
  0
LINE
  5
450
100
AcDbEntity
  8
0
  6
CONTINUOUS
 62
     3
100
AcDbLine
 10
-27.00000022351739
 20
24.22340605111735
 11
-27.7265867307918
 21
24.94999107346016
  0
LINE
  5
451
100
AcDbEntity
  8
0
  6
CONTINUOUS
 62
     3
100
AcDbLine
 10
-27.00000022351739
 20
22.427357197681
 11
-29.52263925483739
 21
24.94999107346016
  0
LINE
  5
452
100
AcDbEntity
  8
0
  6
CONTINUOUS
 62
     3
100
AcDbLine
 10
-27.00000022351739
 20
20.63130834424465
 11
-29.99999955296517
 21
23.6313015425659
  0
LINE
  5
453
100
AcDbEntity
  8
0
  6
CONTINUOUS
 62
     3
100
AcDbLine
 10
-27.21473966730125
 20
19.04999849572717
 11
-29.99999955296517
 21
21.83525268912955
  0
LINE
  5
454
100
AcDbEntity
  8
0
  6
CONTINUOUS
 62
     3
100
AcDbLine
 10
-29.01079219134685
 20
19.04999849572717
 11
-29.99999955296516
 21
20.0392038356932
  0
ENDBLK
  8
0
  5
455
100
AcDbEntity
100
AcDbBlockEnd
  0
BLOCK
  8
0
  5
456
100
AcDbEntity
100
AcDbBlockBegin
  2
KOZU0011
 70
    64
 10
0
 20
0
  0
LINE
  5
457
100
AcDbEntity
  8
0
  6
CONTINUOUS
 62
     7
100
AcDbLine
 10
18.9309254210014
 20
-40.00000914931306
 11
19.50001492351296
 21
-39.43091850862135
  0
LINE
  5
458
100
AcDbEntity
  8
0
  6
CONTINUOUS
 62
     7
100
AcDbLine
 10
17.24712910738451
 20
-40.00000914931306
 11
19.50001492351296
 21
-37.74711882740846
  0
LINE
  5
459
100
AcDbEntity
  8
0
  6
CONTINUOUS
 62
     7
100
AcDbLine
 10
15.56333279376763
 20
-40.00000914931306
 11
19.50001492351296
 21
-36.06331914619558
  0
LINE
  5
45a
100
AcDbEntity
  8
0
  6
CONTINUOUS
 62
     7
100
AcDbLine
 10
13.87953648015074
 20
-40.00000914931306
 11
19.50001492351296
 21
-34.37951946498271
  0
LINE
  5
45b
100
AcDbEntity
  8
0
  6
CONTINUOUS
 62
     7
100
AcDbLine
 10
12.19574016653386
 20
-40.00000914931306
 11
19.50001492351296
 21
-32.69571978376982
  0
LINE
  5
45c
100
AcDbEntity
  8
0
  6
CONTINUOUS
 62
     7
100
AcDbLine
 10
10.51194385291697
 20
-40.00000914931306
 11
19.50001492351296
 21
-31.01192010255694
  0
LINE
  5
45d
100
AcDbEntity
  8
0
  6
CONTINUOUS
 62
     7
100
AcDbLine
 10
9.500014923512968
 20
-39.32814042136406
 11
18.82812753932007
 21
-30.00000914931307
  0
LINE
  5
45e
100
AcDbEntity
  8
0
  6
CONTINUOUS
 62
     7
100
AcDbLine
 10
9.500014923512966
 20
-37.64434074015118
 11
17.14433122570319
 21
-30.00000914931307
  0
LINE
  5
45f
100
AcDbEntity
  8
0
  6
CONTINUOUS
 62
     7
100
AcDbLine
 10
9.500014923512964
 20
-35.9605410589383
 11
15.4605349120863
 21
-30.00000914931307
  0
LINE
  5
460
100
AcDbEntity
  8
0
  6
CONTINUOUS
 62
     7
100
AcDbLine
 10
9.500014923512964
 20
-34.27674137772542
 11
13.77673859846941
 21
-30.00000914931307
  0
LINE
  5
461
100
AcDbEntity
  8
0
  6
CONTINUOUS
 62
     7
100
AcDbLine
 10
9.500014923512964
 20
-32.59294169651254
 11
12.09294228485253
 21
-30.00000914931307
  0
LINE
  5
462
100
AcDbEntity
  8
0
  6
CONTINUOUS
 62
     7
100
AcDbLine
 10
9.500014923512964
 20
-30.90914201529966
 11
10.40914597123564
 21
-30.00000914931307
  0
LINE
  5
463
100
AcDbEntity
  8
0
  6
CONTINUOUS
 62
     7
100
AcDbLine
 10
19.50001492351297
 20
-31.27356655130511
 11
18.22645497440357
 21
-30.00000914931306
  0
LINE
  5
464
100
AcDbEntity
  8
0
  6
CONTINUOUS
 62
     7
100
AcDbLine
 10
19.50001492351297
 20
-32.957362864922
 11
16.54265529319069
 21
-30.00000914931307
  0
LINE
  5
465
100
AcDbEntity
  8
0
  6
CONTINUOUS
 62
     7
100
AcDbLine
 10
19.50001492351296
 20
-34.64115917853888
 11
14.85885561197781
 21
-30.00000914931307
  0
LINE
  5
466
100
AcDbEntity
  8
0
  6
CONTINUOUS
 62
     7
100
AcDbLine
 10
19.50001492351297
 20
-36.32495549215577
 11
13.17505593076493
 21
-30.00000914931307
  0
LINE
  5
467
100
AcDbEntity
  8
0
  6
CONTINUOUS
 62
     7
100
AcDbLine
 10
19.50001492351296
 20
-38.00875180577265
 11
11.49125624955205
 21
-30.00000914931307
  0
LINE
  5
468
100
AcDbEntity
  8
0
  6
CONTINUOUS
 62
     7
100
AcDbLine
 10
19.50001492351296
 20
-39.69254811938954
 11
9.80745656833917
 21
-30.00000914931307
  0
LINE
  5
469
100
AcDbEntity
  8
0
  6
CONTINUOUS
 62
     7
100
AcDbLine
 10
18.12367688714628
 20
-40.00000914931306
 11
9.500014923512966
 21
-31.37636443298642
  0
LINE
  5
46a
100
AcDbEntity
  8
0
  6
CONTINUOUS
 62
     7
100
AcDbLine
 10
16.4398772059334
 20
-40.00000914931306
 11
9.500014923512964
 21
-33.06016074660331
  0
LINE
  5
46b
100
AcDbEntity
  8
0
  6
CONTINUOUS
 62
     7
100
AcDbLine
 10
14.75607752472053
 20
-40.00000914931306
 11
9.500014923512962
 21
-34.74395706022019
  0
LINE
  5
46c
100
AcDbEntity
  8
0
  6
CONTINUOUS
 62
     7
100
AcDbLine
 10
13.07227784350764
 20
-40.00000914931306
 11
9.500014923512966
 21
-36.42775337383708
  0
LINE
  5
46d
100
AcDbEntity
  8
0
  6
CONTINUOUS
 62
     7
100
AcDbLine
 10
11.38847816229476
 20
-40.00000914931306
 11
9.500014923512968
 21
-38.11154968745397
  0
LINE
  5
46e
100
AcDbEntity
  8
0
  6
CONTINUOUS
 62
     7
100
AcDbLine
 10
9.704678481081883
 20
-40.00000914931306
 11
9.500014923512962
 21
-39.79534600107085
  0
ENDBLK
  8
0
  5
46f
100
AcDbEntity
100
AcDbBlockEnd
  0
BLOCK
  8
0
  5
470
100
AcDbEntity
100
AcDbBlockBegin
  2
KOZU0012
 70
    64
 10
0
 20
0
  0
LINE
  5
471
100
AcDbEntity
  8
0
  6
CONTINUOUS
 62
     7
100
AcDbLine
 10
18.9309254210014
 20
-40.00000914931306
 11
19.50001492351294
 21
-39.43091850862137
  0
LINE
  5
472
100
AcDbEntity
  8
0
  6
CONTINUOUS
 62
     7
100
AcDbLine
 10
17.24712910738451
 20
-40.00000914931306
 11
19.50001492351294
 21
-37.74711882740849
  0
LINE
  5
473
100
AcDbEntity
  8
0
  6
CONTINUOUS
 62
     7
100
AcDbLine
 10
15.56333279376763
 20
-40.00000914931306
 11
19.50001492351294
 21
-36.06331914619561
  0
LINE
  5
474
100
AcDbEntity
  8
0
  6
CONTINUOUS
 62
     7
100
AcDbLine
 10
13.87953648015074
 20
-40.00000914931306
 11
19.50001492351294
 21
-34.37951946498273
  0
LINE
  5
475
100
AcDbEntity
  8
0
  6
CONTINUOUS
 62
     7
100
AcDbLine
 10
12.19574016653386
 20
-40.00000914931306
 11
19.50001492351293
 21
-32.69571978376985
  0
LINE
  5
476
100
AcDbEntity
  8
0
  6
CONTINUOUS
 62
     7
100
AcDbLine
 10
10.51194385291697
 20
-40.00000914931306
 11
19.50001492351293
 21
-31.01192010255697
  0
LINE
  5
477
100
AcDbEntity
  8
0
  6
CONTINUOUS
 62
     7
100
AcDbLine
 10
9.500014923512936
 20
-39.3281404213641
 11
18.82812753932007
 21
-30.00000914931307
  0
LINE
  5
478
100
AcDbEntity
  8
0
  6
CONTINUOUS
 62
     7
100
AcDbLine
 10
9.500014923512936
 20
-37.64434074015122
 11
17.14433122570319
 21
-30.00000914931307
  0
LINE
  5
479
100
AcDbEntity
  8
0
  6
CONTINUOUS
 62
     7
100
AcDbLine
 10
9.500014923512936
 20
-35.96054105893833
 11
15.4605349120863
 21
-30.00000914931307
  0
LINE
  5
47a
100
AcDbEntity
  8
0
  6
CONTINUOUS
 62
     7
100
AcDbLine
 10
9.500014923512936
 20
-34.27674137772545
 11
13.77673859846941
 21
-30.00000914931307
  0
LINE
  5
47b
100
AcDbEntity
  8
0
  6
CONTINUOUS
 62
     7
100
AcDbLine
 10
9.500014923512932
 20
-32.59294169651258
 11
12.09294228485253
 21
-30.00000914931307
  0
LINE
  5
47c
100
AcDbEntity
  8
0
  6
CONTINUOUS
 62
     7
100
AcDbLine
 10
9.500014923512934
 20
-30.90914201529969
 11
10.40914597123564
 21
-30.00000914931307
  0
LINE
  5
47d
100
AcDbEntity
  8
0
  6
CONTINUOUS
 62
     7
100
AcDbLine
 10
19.50001492351294
 20
-31.27356655130508
 11
18.22645497440357
 21
-30.00000914931306
  0
LINE
  5
47e
100
AcDbEntity
  8
0
  6
CONTINUOUS
 62
     7
100
AcDbLine
 10
19.50001492351294
 20
-32.95736286492196
 11
16.54265529319069
 21
-30.00000914931307
  0
LINE
  5
47f
100
AcDbEntity
  8
0
  6
CONTINUOUS
 62
     7
100
AcDbLine
 10
19.50001492351294
 20
-34.64115917853885
 11
14.85885561197781
 21
-30.00000914931307
  0
LINE
  5
480
100
AcDbEntity
  8
0
  6
CONTINUOUS
 62
     7
100
AcDbLine
 10
19.50001492351294
 20
-36.32495549215574
 11
13.17505593076493
 21
-30.00000914931307
  0
LINE
  5
481
100
AcDbEntity
  8
0
  6
CONTINUOUS
 62
     7
100
AcDbLine
 10
19.50001492351294
 20
-38.00875180577262
 11
11.49125624955205
 21
-30.00000914931307
  0
LINE
  5
482
100
AcDbEntity
  8
0
  6
CONTINUOUS
 62
     7
100
AcDbLine
 10
19.50001492351294
 20
-39.69254811938951
 11
9.80745656833917
 21
-30.00000914931307
  0
LINE
  5
483
100
AcDbEntity
  8
0
  6
CONTINUOUS
 62
     7
100
AcDbLine
 10
18.12367688714628
 20
-40.00000914931306
 11
9.500014923512934
 21
-31.37636443298639
  0
LINE
  5
484
100
AcDbEntity
  8
0
  6
CONTINUOUS
 62
     7
100
AcDbLine
 10
16.4398772059334
 20
-40.00000914931306
 11
9.500014923512936
 21
-33.06016074660328
  0
LINE
  5
485
100
AcDbEntity
  8
0
  6
CONTINUOUS
 62
     7
100
AcDbLine
 10
14.75607752472053
 20
-40.00000914931306
 11
9.500014923512934
 21
-34.74395706022016
  0
LINE
  5
486
100
AcDbEntity
  8
0
  6
CONTINUOUS
 62
     7
100
AcDbLine
 10
13.07227784350764
 20
-40.00000914931306
 11
9.500014923512937
 21
-36.42775337383705
  0
LINE
  5
487
100
AcDbEntity
  8
0
  6
CONTINUOUS
 62
     7
100
AcDbLine
 10
11.38847816229476
 20
-40.00000914931306
 11
9.500014923512932
 21
-38.11154968745393
  0
LINE
  5
488
100
AcDbEntity
  8
0
  6
CONTINUOUS
 62
     7
100
AcDbLine
 10
9.704678481081883
 20
-40.00000914931306
 11
9.500014923512937
 21
-39.79534600107082
  0
ENDBLK
  8
0
  5
489
100
AcDbEntity
100
AcDbBlockEnd
  0
ENDSEC
  0
SECTION
  2
ENTITIES
  0
LINE
  5
48a
100
AcDbEntity
  8
0
  6
CONTINUOUS
 62
     7
100
AcDbLine
 10
185.3380472681438
 20
-41.59000760375892
 11
327.7797088876631
 21
-41.59000760375892
  0
LINE
  5
48b
100
AcDbEntity
  8
0
  6
CONTINUOUS
 62
     7
100
AcDbLine
 10
185.3380758783729
 20
-41.59000760375891
 11
185.3380758783729
 21
-77.51359296017941
  0
LINE
  5
48c
100
AcDbEntity
  8
0
  6
CONTINUOUS
 62
     7
100
AcDbLine
 10
185.3380472681438
 20
-77.51359296017941
 11
327.7797088876631
 21
-77.51359296017941
  0
LINE
  5
48d
100
AcDbEntity
  8
0
  6
CONTINUOUS
 62
     7
100
AcDbLine
 10
327.7797088876631
 20
-41.59000760375891
 11
327.7797088876631
 21
-77.51359296017941
  0
LINE
  5
48e
100
AcDbEntity
  8
0
  6
CONTINUOUS
 62
     7
100
AcDbLine
 10
207.1942106580612
 20
229.450069823115
 11
209.6942106208083
 21
229.450069823115
  0
LINE
  5
48f
100
AcDbEntity
  8
0
  6
CONTINUOUS
 62
     7
100
AcDbLine
 10
207.1942109014451
 20
230.7000698044886
 11
209.6942108641922
 21
230.7000698044886
  0
LINE
  5
490
100
AcDbEntity
  8
0
  6
CONTINUOUS
 62
     7
100
AcDbLine
 10
212.1941970276357
 20
230.0750684329214
 11
209.6942052179446
 21
232.5750612161453
  0
LINE
  5
491
100
AcDbEntity
  8
0
  6
CONTINUOUS
 62
     7
100
AcDbLine
 10
209.6942039394208
 20
227.5750763182396
 11
212.1941970276356
 21
230.0750684329214
  0
LINE
  5
492
100
AcDbEntity
  8
0
  6
CONTINUOUS
 62
     7
100
AcDbLine
 10
209.6942107425003
 20
227.5750703378226
 11
209.6942107425003
 21
229.450070309883
  0
LINE
  5
493
100
AcDbEntity
  8
0
  6
CONTINUOUS
 62
     7
100
AcDbLine
 10
207.1942107797533
 20
229.4500707966509
 11
207.1942107797533
 21
230.7000707780245
  0
LINE
  5
494
100
AcDbEntity
  8
0
  6
CONTINUOUS
 62
     7
100
AcDbLine
 10
209.6942107425003
 20
230.7000702912565
 11
209.6942107425003
 21
232.5750702633168
  0
MTEXT
  5
495
100
AcDbEntity
  8
0
  6
CONTINUOUS
 62
     7
100
AcDbMText
 10
190.0348109201181
 20
-73.03608071198389
 40
6
 41
72
 71
     7
 72
     1
  1
{\W0.855331;型　番}
  0
MTEXT
  5
496
100
AcDbEntity
  8
0
  6
CONTINUOUS
 62
     7
100
AcDbMText
 10
190.0348109201181
 20
-61.91501287690726
 40
6
 41
72
 71
     7
 72
     1
  1
{\W0.855331;品　名}
  0
MTEXT
  5
497
100
AcDbEntity
  8
0
  6
CONTINUOUS
 62
     7
100
AcDbMText
 10
219.7348226845847
 20
-73.03608071198389
 40
6
 41
432
 71
     7
 72
     1
  1
{\W0.842599;ＢＮ－５ＢＰ２１－２５－Ｅ／Ｆ＊＊＊}
  0
MTEXT
  5
498
100
AcDbEntity
  8
0
  6
CONTINUOUS
 62
     7
100
AcDbMText
 10
219.7348226845847
 20
-61.91501287690726
 40
6
 41
168
 71
     7
 72
     1
  1
{\W0.846334;シリンダ操作弁}
  0
MTEXT
  5
499
100
AcDbEntity
  8
0
  6
CONTINUOUS
 62
     7
100
AcDbMText
 10
225.514165249833
 20
-51.21656580884852
 40
6
 41
192
 71
     7
 72
     1
  1
{\W0.845552;日本精器株式会社}
  0
MTEXT
  5
49a
100
AcDbEntity
  8
0
  6
CONTINUOUS
 62
     7
100
AcDbMText
 10
215.1562056401099
 20
227.5750698138018
 40
5
 41
40
 71
     7
 72
     1
  1
{\W0.864328;ＥＸ}
  0
MTEXT
  5
49b
100
AcDbEntity
  8
0
  6
CONTINUOUS
 62
     7
100
AcDbMText
 10
68.33318479738026
 20
221.3403782185635
 40
8
 41
64
 71
     7
 72
     1
  1
{\W0.864328;＊１}
  0
MTEXT
  5
49c
100
AcDbEntity
  8
0
  6
CONTINUOUS
 62
     7
100
AcDbMText
 10
68.33318479738026
 20
261.7311602837833
 40
8
 41
64
 71
     7
 72
     1
  1
{\W0.864328;＊２}
  0
MTEXT
  5
49d
100
AcDbEntity
  8
0
  6
CONTINUOUS
 62
     7
100
AcDbMText
 10
-98.52304510197101
 20
223.2848815876569
 40
8
 41
64
 71
     7
 72
     1
  1
{\W0.864328;＊３}
  0
MTEXT
  5
49e
100
AcDbEntity
  8
0
  6
CONTINUOUS
 62
     7
100
AcDbMText
 10
139.4560836513543
 20
219.5842572592061
 40
8
 41
64
 71
     7
 72
     1
  1
{\W0.864328;＊４}
  0
MTEXT
  5
49f
100
AcDbEntity
  8
0
  6
CONTINUOUS
 62
     7
100
AcDbMText
 10
303.6533933512698
 20
220.4623177388848
 40
8
 41
64
 71
     7
 72
     1
  1
{\W0.864328;＊５}
  0
MTEXT
  5
4a0
100
AcDbEntity
  8
0
  6
CONTINUOUS
 62
     7
100
AcDbMText
 10
70.58563096797298
 20
-28.66996407210809
 40
8
 41
64
 71
     7
 72
     1
  1
{\W0.864328;＊６}
  0
INSERT
  5
4a1
100
AcDbEntity
  8
0
  6
CONTINUOUS
 62
     7
100
AcDbBlockReference
  2
KOZU0001
 10
28.45014529749535
 20
67.52391714567069
  0
INSERT
  5
4a2
100
AcDbEntity
  8
0
  6
CONTINUOUS
 62
     7
100
AcDbBlockReference
  2
KOZU0002
 10
28.45014529749535
 20
303.6802437353098
  0
INSERT
  5
4a3
100
AcDbEntity
  8
0
  6
CONTINUOUS
 62
     7
100
AcDbBlockReference
  2
KOZU0003
 10
-125.924871475624
 20
67.52391714567069
  0
INSERT
  5
4a4
100
AcDbEntity
  8
0
  6
CONTINUOUS
 62
     7
100
AcDbBlockReference
  2
KOZU0004
 10
182.8251620706147
 20
67.52391714567069
  0
INSERT
  5
4a5
100
AcDbEntity
  8
0
  6
CONTINUOUS
 62
     7
100
AcDbBlockReference
  2
KOZU0005
 10
353.4501595281041
 20
67.52391714567069
  0
INSERT
  5
4a6
100
AcDbEntity
  8
0
  6
CONTINUOUS
 62
     7
100
AcDbBlockReference
  2
KOZU0006
 10
28.45014529749535
 20
-58.56014164447574
  0
LINE
  5
4a7
100
AcDbEntity
  8
0
  6
CONTINUOUS
 62
     7
100
AcDbLine
 10
152.537248439506
 20
90.17698172086915
 11
144.8609807963648
 21
102.8623282346613
  0
LINE
  5
4a8
100
AcDbEntity
  8
0
  6
CONTINUOUS
 62
     7
100
AcDbLine
 10
152.537248439506
 20
90.17698172086915
 11
150.1285419414173
 21
92.22591625025162
  0
LINE
  5
4a9
100
AcDbEntity
  8
0
  6
CONTINUOUS
 62
     7
100
AcDbLine
 10
152.537248439506
 20
90.17698172086915
 11
151.8396439586645
 21
93.2613532432283
  0
MTEXT
  5
4aa
100
AcDbEntity
  8
0
  6
CONTINUOUS
 62
     7
100
AcDbMText
 10
137.4878290669944
 20
102.862308876778
 40
5
 41
120
 71
     6
 72
     1
  1
{\W0.847393;シリンダＥＸ}
  0
LINE
  5
4ab
100
AcDbEntity
  8
0
  6
CONTINUOUS
 62
     7
100
AcDbLine
 10
152.537248439506
 20
90.17698172086915
 11
144.8609807963648
 21
102.8623282346613
  0
LINE
  5
4ac
100
AcDbEntity
  8
0
  6
CONTINUOUS
 62
     7
100
AcDbLine
 10
144.8609807963648
 20
102.8623282346613
 11
138.9165799608673
 21
102.8623091611865
  0
DIMENSION
  5
4ad
100
AcDbEntity
  8
0
  6
CONTINUOUS
 62
     7
100
AcDbDimension
  2
*D1
 70
     0
 10
78.45016362592334
 20
-2.885065035744532
 11
28.45013337656657
 21
-2.885065035744532
  3
DIMSTYLE
100
AcDbAlignedDimension
 13
-21.54983488396056
 23
45.52391938084484
 14
78.45016362592334
 24
45.52391938084484
 50
0
100
AcDbRotatedDimension
1001
ACAD
1000
DSTYLE
1002
{
1070
     6
1000
_OPEN30
1070
     7
1000
_OPEN30
1070
    77
1070
     1
1070
   172
1070
     1
1070
    42
1040
0
1002
}
  0
DIMENSION
  5
4ae
100
AcDbEntity
  8
0
  6
CONTINUOUS
 62
     7
100
AcDbDimension
  2
*D2
 70
     0
 10
248.4960137531755
 20
67.52391714567069
 11
248.4960137531755
 21
46.52392318064089
  3
DIMSTYLE
100
AcDbAlignedDimension
 13
227.7000965520725
 23
25.52391491049655
 14
240.1237642746603
 24
67.52391714567069
 50
90
100
AcDbRotatedDimension
1001
ACAD
1000
DSTYLE
1002
{
1070
     6
1000
_OPEN30
1070
     7
1000
_OPEN30
1070
    77
1070
     1
1070
   172
1070
     1
1070
    42
1040
0
1002
}
  0
DIMENSION
  5
4af
100
AcDbEntity
  8
0
  6
CONTINUOUS
 62
     7
100
AcDbDimension
  2
*D3
 70
     0
 10
248.4960137531755
 20
234.5239604335433
 11
248.4960137531755
 21
151.023929252864
  3
DIMSTYLE
100
AcDbAlignedDimension
 13
199.3251615863269
 23
67.52391714567069
 14
226.809364753822
 24
234.5239222865712
 50
90
100
AcDbRotatedDimension
1001
ACAD
1000
DSTYLE
1002
{
1070
     6
1000
_OPEN30
1070
     7
1000
_OPEN30
1070
    77
1070
     1
1070
   172
1070
     1
1070
    42
1040
0
1002
}
  0
DIMENSION
  5
4b0
100
AcDbEntity
  8
0
  6
CONTINUOUS
 62
     7
100
AcDbDimension
  2
*D4
 70
     0
 10
262.5055655463701
 20
234.5239604335433
 11
262.5055655463701
 21
130.0239448245772
  3
DIMSTYLE
100
AcDbAlignedDimension
 13
205.3251617353386
 23
25.52391491049655
 14
202.9257171910149
 24
234.5239222865712
 50
90
100
AcDbRotatedDimension
1001
ACAD
1000
DSTYLE
1002
{
1070
     6
1000
_OPEN30
1070
     7
1000
_OPEN30
1070
    77
1070
     1
1070
   172
1070
     1
1070
    42
1040
0
1002
}
  0
DIMENSION
  5
4b1
100
AcDbEntity
  8
0
  6
CONTINUOUS
 62
     7
100
AcDbDimension
  2
*D5
 70
     0
 10
212.8251616235799
 20
-2.885065035744532
 11
182.8251429971286
 21
-2.885065035744532
  3
DIMSTYLE
100
AcDbAlignedDimension
 13
152.8251625176495
 23
45.52391461247333
 14
212.8251616235799
 24
45.52391461247333
 50
0
100
AcDbRotatedDimension
1001
ACAD
1000
DSTYLE
1002
{
1070
     6
1000
_OPEN30
1070
     7
1000
_OPEN30
1070
    77
1070
     1
1070
   172
1070
     1
1070
    42
1040
0
1002
}
  0
LINE
  5
4b2
100
AcDbEntity
  8
0
  6
CONTINUOUS
 62
     7
100
AcDbLine
 10
-15.00184670428042
 20
84.27252671664488
 11
-22.83046126915875
 21
101.2894522357223
  0
LINE
  5
4b3
100
AcDbEntity
  8
0
  6
CONTINUOUS
 62
     7
100
AcDbLine
 10
-15.00184670428042
 20
84.27252671664488
 11
-16.81973184699092
 21
86.87934878662435
  0
LINE
  5
4b4
100
AcDbEntity
  8
0
  6
CONTINUOUS
 62
     7
100
AcDbLine
 10
-15.00184670428042
 20
84.27252671664488
 11
-15.7986074768429
 21
87.34911573175971
  0
MTEXT
  5
4b5
100
AcDbEntity
  8
0
  6
CONTINUOUS
 62
     7
100
AcDbMText
 10
-30.85205032151862
 20
101.2894519971393
 40
5
 41
120
 71
     6
 72
     1
  1
{\W0.847392;２－Ｒｃ　１}
  0
LINE
  5
4b6
100
AcDbEntity
  8
0
  6
CONTINUOUS
 62
     7
100
AcDbLine
 10
-15.00184670428042
 20
84.27252671664488
 11
-22.83046126915875
 21
101.2894522357223
  0
LINE
  5
4b7
100
AcDbEntity
  8
0
  6
CONTINUOUS
 62
     7
100
AcDbLine
 10
-22.83046126915875
 20
101.2894522357223
 11
-29.42330078149883
 21
101.2894522357223
  0
LINE
  5
4b8
100
AcDbEntity
  8
0
  6
CONTINUOUS
 62
     7
100
AcDbLine
 10
209.7362160445369
 20
88.02391650242974
 11
213.4121925691094
 21
101.8671113267737
  0
LINE
  5
4b9
100
AcDbEntity
  8
0
  6
CONTINUOUS
 62
     7
100
AcDbLine
 10
209.7362160445369
 20
88.02391650242974
 11
209.9958398984255
 21
91.19137970681139
  0
LINE
  5
4ba
100
AcDbEntity
  8
0
  6
CONTINUOUS
 62
     7
100
AcDbLine
 10
209.7362160445369
 20
88.02391650242974
 11
211.0821910103311
 21
90.90290575007809
  0
MTEXT
  5
4bb
100
AcDbEntity
  8
0
  6
CONTINUOUS
 62
     7
100
AcDbMText
 10
216.4543882540704
 20
101.8671115954651
 40
5
 41
100
 71
     4
 72
     1
  1
{\W0.848905;Ｍ５ドレン}
  0
LINE
  5
4bc
100
AcDbEntity
  8
0
  6
CONTINUOUS
 62
     7
100
AcDbLine
 10
209.7362160445369
 20
88.02391650242974
 11
213.4121925691094
 21
101.8671113267737
  0
LINE
  5
4bd
100
AcDbEntity
  8
0
  6
CONTINUOUS
 62
     7
100
AcDbLine
 10
213.4121925691094
 20
101.8671113267737
 11
215.0256315614934
 21
101.8671113267737
  0
DIMENSION
  5
4be
100
AcDbEntity
  8
0
  6
CONTINUOUS
 62
     7
100
AcDbDimension
  2
*D6
 70
     0
 10
205.3251617353386
 20
8.253805514368333
 11
182.8251620706147
 21
8.253805514368333
  3
DIMSTYLE
100
AcDbAlignedDimension
 13
160.3251624058908
 23
25.52391491049655
 14
205.3251617353386
 24
25.52391491049655
 50
0
100
AcDbRotatedDimension
1001
ACAD
1000
DSTYLE
1002
{
1070
     6
1000
_OPEN30
1070
     7
1000
_OPEN30
1070
    77
1070
     1
1070
   172
1070
     1
1070
    42
1040
0
1002
}
  0
LINE
  5
4bf
100
AcDbEntity
  8
0
  6
CONTINUOUS
 62
     7
100
AcDbLine
 10
5.541257350124397
 20
173.2460022262977
 11
-4.079429853257238
 21
189.1918762563279
  0
LINE
  5
4c0
100
AcDbEntity
  8
0
  6
CONTINUOUS
 62
     7
100
AcDbLine
 10
5.541257350124397
 20
173.2460022262977
 11
3.135246799298375
 21
175.2981018654341
  0
LINE
  5
4c1
100
AcDbEntity
  8
0
  6
CONTINUOUS
 62
     7
100
AcDbLine
 10
5.541257350124397
 20
173.2460022262977
 11
4.847708692945457
 21
176.3312882681024
  0
MTEXT
  5
4c2
100
AcDbEntity
  8
0
  6
CONTINUOUS
 62
     7
100
AcDbMText
 10
-40.69762325737443
 20
186.6918726385851
 40
5
 41
100
 71
     7
 72
     1
  1
{\W0.848905;Ｒｃ１／４}
  0
MTEXT
  5
4c3
100
AcDbEntity
  8
0
  6
CONTINUOUS
 62
     7
100
AcDbMText
 10
-40.69762325737443
 20
179.1918726385851
 40
5
 41
60
 71
     7
 72
     1
  1
{\W0.855331;操作口}
  0
LINE
  5
4c4
100
AcDbEntity
  8
0
  6
CONTINUOUS
 62
     7
100
AcDbLine
 10
5.541257350124397
 20
173.2460022262977
 11
-4.079429853257238
 21
189.1918762563279
  0
LINE
  5
4c5
100
AcDbEntity
  8
0
  6
CONTINUOUS
 62
     7
100
AcDbLine
 10
-4.079429853257253
 20
189.1918762563279
 11
-14.26887252526174
 21
189.1918762563279
  0
DIMENSION
  5
4c6
100
AcDbEntity
  8
0
  6
CONTINUOUS
 62
     7
100
AcDbDimension
  2
*D7
 70
     0
 10
204.8251693721836
 20
77.24208417784173
 11
140.7467131624271
 21
77.24208417784173
  3
DIMSTYLE
100
AcDbAlignedDimension
 13
160.8251738425318
 23
79.2615592589742
 14
204.8251693721836
 24
79.2615592589742
 50
0
100
AcDbRotatedDimension
1001
ACAD
1000
DSTYLE
1002
{
1070
    77
1070
     1
1070
   172
1070
     1
1070
    42
1040
0
1002
}
  0
ENDSEC
  0
SECTION
  2
OBJECTS
  0
DICTIONARY
  5
4c7
100
AcDbDictionary
  3
ACAD_GROUP
350
4c8
  3
ACAD_MLINESTYLE
350
4c9
  0
DICTIONARY
  5
4c8
102
{ACAD_REACTORS
330
4c7
102
}
100
AcDbDictionary
  0
DICTIONARY
  5
4c9
102
{ACAD_REACTORS
330
4c7
102
}
100
AcDbDictionary
  3
STANDARD
350
4ca
  0
MLINESTYLE
  5
4ca
102
{ACAD_REACTORS
330
4c9
102
}
100
AcDbMlineStyle
  2
STANDARD
 70
     0
  3

 62
     0
 51
90
 52
90
 71
     2
 49
0.5
 62
   256
  6
BYLAYER
 49
-0.5
 62
   256
  6
BYLAYER
  0
ENDSEC
  0
EOF
