  0
SECTION
  2
HEADER
  9
$ACADVER
  1
AC1015
  9
$EXTMAX
 10
463.3310546875
 20
397.2838745117188
 30
0
  9
$EXTMIN
 10
-232.81884765625
 20
-110.9161071777344
 30
0
  9
$LIMMAX
 10
463.3310546875
 20
397.2838745117188
  9
$LIMMIN
 10
-232.81884765625
 20
-110.9161071777344
  9
$PLIMMAX
 10
463.3310546875
 20
397.2838745117188
  9
$PLIMMIN
 10
-232.81884765625
 20
-110.9161071777344
  9
$TEXTSIZE
 40
3.2
  9
$DIMSHO
 70
     0
  9
$DIMASZ
 40
1.0
  9
$DIMTAD
 70
     1
  9
$DIMTIH
 70
     0
  9
$DIMTOH
 70
     0
  9
$DIMEXE
 40
2.54
  9
$DIMEXO
 40
2.54
  9
$DIMTVP
 40
1.0
  9
$DIMSAH
 70
     1
  9
$DIMDLE
 40
0.0
  9
$DIMTXT
 40
4
  9
$DIMGAP
 40
2
  9
$DIMAUNIT
 70
     1
  9
$DIMDEC
 70
     1
  9
$HANDSEED
  5
     573
  9
$MEASUREMENT
 70
     1
  0
ENDSEC
  0
SECTION
  2
TABLES
  0
TABLE
  2
LTYPE
  5
25
100
AcDbSymbolTable
 70
    48
  0
LTYPE
  5
26
100
AcDbSymbolTableRecord
100
AcDbLinetypeTableRecord
  2
BYBLOCK
 70
    64
  3

 72
    65
 73
     0
 40
0.0
  0
LTYPE
  5
27
100
AcDbSymbolTableRecord
100
AcDbLinetypeTableRecord
  2
BYLAYER
 70
    64
  3

 72
    65
 73
     0
 40
0.0
  0
LTYPE
  5
28
100
AcDbSymbolTableRecord
100
AcDbLinetypeTableRecord
  2
CONTINUOUS
 70
    64
  3
Solid line
 72
    65
 73
     0
 40
0.0
  0
LTYPE
  5
29
100
AcDbSymbolTableRecord
100
AcDbLinetypeTableRecord
  2
DASHED
 70
    64
  3
Dashed __ __ __ __ __ __ __ __ __ __ __ __ __ _
 72
    65
 73
     2
 40
4.5
 49
3.0
 74
     0
 49
-1.5
 74
     0
  0
LTYPE
  5
2a
100
AcDbSymbolTableRecord
100
AcDbLinetypeTableRecord
  2
CENTER
 70
    64
  3
Center ____ _ ____ _ ____ _ ____ _ ____ _ ____
 72
    65
 73
     4
 74
     0
 40
12.0
 49
7.5
 74
     0
 49
-1.5
 74
     0
 49
1.5
 74
     0
 49
-1.5
 74
     0
  0
LTYPE
  5
2b
100
AcDbSymbolTableRecord
100
AcDbLinetypeTableRecord
  2
PHANTOM
 70
    64
  3
Phantom ______  __  __  ______  __  __  ______
 72
    65
 73
     6
 74
     0
 40
15.0
 49
7.5
 74
     0
 49
-1.5
 74
     0
 49
1.5
 74
     0
 49
-1.5
 74
     0
 49
1.5
 74
     0
 49
-1.5
 74
     0
  0
LTYPE
  5
2c
100
AcDbSymbolTableRecord
100
AcDbLinetypeTableRecord
  2
DOT
 70
    64
  3
Dot . . . . . . . . . . . . . . . . . . . . . .
 72
    65
 73
     2
 74
     0
 40
1.5
 49
0.0
 74
     0
 49
-1.5
 74
     0
  0
LTYPE
  5
2d
100
AcDbSymbolTableRecord
100
AcDbLinetypeTableRecord
  2
HIDDEN
 70
    64
  3
Hidden __ __ __ __ __ __ __ __ __ __ __ __ __ _
 72
    65
 73
     2
 74
     0
 40
4.5
 49
3.0
 74
     0
 49
-1.5
 74
     0
  0
LTYPE
  5
2e
100
AcDbSymbolTableRecord
100
AcDbLinetypeTableRecord
  2
BORDER
 70
    64
  3
Border __ __ . __ __ . __ __ . __ __ . __ __ .
 72
    65
 73
     6
 40
3.5
 49
1.0
 74
     0
 49
-0.5
 74
     0
 49
1.0
 74
     0
 49
-0.5
 74
     0
 49
0.0
 74
     0
 49
-0.5
 74
     0
  0
LTYPE
  5
2f
100
AcDbSymbolTableRecord
100
AcDbLinetypeTableRecord
  2
BORDER2
 70
    64
  3
Border (.5x) __.__.__.__.__.__.__.__.__.__.__.
 72
    65
 73
     6
 40
1.75
 49
0.5
 74
     0
 49
-0.25
 74
     0
 49
0.5
 74
     0
 49
-0.25
 74
     0
 49
0.0
 74
     0
 49
-0.25
 74
     0
  0
LTYPE
  5
30
100
AcDbSymbolTableRecord
100
AcDbLinetypeTableRecord
  2
BORDERX2
 70
    64
  3
Border (2x) ____  ____  .  ____  ____  .  ___
 72
    65
 73
     6
 40
7.0
 49
2.0
 74
     0
 49
-1.0
 74
     0
 49
2.0
 74
     0
 49
-1.0
 74
     0
 49
0.0
 74
     0
 49
-1.0
 74
     0
  0
LTYPE
  5
31
100
AcDbSymbolTableRecord
100
AcDbLinetypeTableRecord
  2
CENTER2
 70
    64
  3
Center (.5x) ___ _ ___ _ ___ _ ___ _ ___ _ ___
 72
    65
 73
     4
 40
6.0
 49
3.75
 74
     0
 49
-0.75
 74
     0
 49
0.75
 74
     0
 49
-0.75
 74
     0
  0
LTYPE
  5
32
100
AcDbSymbolTableRecord
100
AcDbLinetypeTableRecord
  2
CENTERX2
 70
    64
  3
Center (2x) ________  __  ________  __  _____
 72
    65
 73
     4
 40
24.0
 49
15.0
 74
     0
 49
-3.0
 74
     0
 49
3.0
 74
     0
 49
-3.0
 74
     0
  0
LTYPE
  5
33
100
AcDbSymbolTableRecord
100
AcDbLinetypeTableRecord
  2
DASHDOT
 70
    64
  3
Dash dot __ . __ . __ . __ . __ . __ . __ . __
 72
    65
 73
     4
 40
6.0
 49
3.0
 74
     0
 49
-1.5
 74
     0
 49
0.0
 74
     0
 49
-1.5
 74
     0
  0
LTYPE
  5
34
100
AcDbSymbolTableRecord
100
AcDbLinetypeTableRecord
  2
DASHDOT2
 70
    64
  3
Dash dot (.5x) _._._._._._._._._._._._._._._.
 72
    65
 73
     4
 40
3.0
 49
1.5
 74
     0
 49
-0.75
 74
     0
 49
0.0
 74
     0
 49
-0.75
 74
     0
  0
LTYPE
  5
35
100
AcDbSymbolTableRecord
100
AcDbLinetypeTableRecord
  2
DASHDOTX2
 70
    64
  3
Dash dot (2x) ____  .  ____  .  ____  .  ___
 72
    65
 73
     4
 40
12.0
 49
6.0
 74
     0
 49
-3.0
 74
     0
 49
0.0
 74
     0
 49
-3.0
 74
     0
  0
LTYPE
  5
36
100
AcDbSymbolTableRecord
100
AcDbLinetypeTableRecord
  2
DASHED2
 70
    64
  3
Dashed (.5x) _ _ _ _ _ _ _ _ _ _ _ _ _ _ _ _ _
 72
    65
 73
     2
 40
2.25
 49
1.5
 74
     0
 49
-0.75
 74
     0
  0
LTYPE
  5
37
100
AcDbSymbolTableRecord
100
AcDbLinetypeTableRecord
  2
DASHEDX2
 70
    64
  3
Dashed (2x) ____  ____  ____  ____  ____  ___
 72
    65
 73
     2
 40
9.0
 49
6.0
 74
     0
 49
-3.0
 74
     0
  0
LTYPE
  5
38
100
AcDbSymbolTableRecord
100
AcDbLinetypeTableRecord
  2
DIVIDE
 70
    64
  3
Divide ____ . . ____ . . ____ . . ____ . . ____
 72
    65
 73
     6
 40
7.5
 49
3.0
 74
     0
 49
-1.5
 74
     0
 49
0.0
 74
     0
 49
-1.5
 74
     0
 49
0.0
 74
     0
 49
-1.5
 74
     0
  0
LTYPE
  5
39
100
AcDbSymbolTableRecord
100
AcDbLinetypeTableRecord
  2
DIVIDE2
 70
    64
  3
Divide (.5x) __..__..__..__..__..__..__..__.._
 72
    65
 73
     6
 40
3.75
 49
1.5
 74
     0
 49
-0.75
 74
     0
 49
0.0
 74
     0
 49
-0.75
 74
     0
 49
0.0
 74
     0
 49
-0.75
 74
     0
  0
LTYPE
  5
3a
100
AcDbSymbolTableRecord
100
AcDbLinetypeTableRecord
  2
DIVIDEX2
 70
    64
  3
Divide (2x) ________  .  .  ________  .  .  _
 72
    65
 73
     6
 40
15.0
 49
6.0
 74
     0
 49
-3.0
 74
     0
 49
0.0
 74
     0
 49
-3.0
 74
     0
 49
0.0
 74
     0
 49
-3.0
 74
     0
  0
LTYPE
  5
3b
100
AcDbSymbolTableRecord
100
AcDbLinetypeTableRecord
  2
DOT2
 70
    64
  3
Dot (.5x) .....................................
 72
    65
 73
     2
 40
0.75
 49
0.0
 74
     0
 49
-0.75
 74
     0
  0
LTYPE
  5
3c
100
AcDbSymbolTableRecord
100
AcDbLinetypeTableRecord
  2
DOTX2
 70
    64
  3
Dot (2x) .  .  .  .  .  .  .  .  .  .  .  .  . 
 72
    65
 73
     2
 40
3.0
 49
0.0
 74
     0
 49
-3.0
 74
     0
  0
LTYPE
  5
3d
100
AcDbSymbolTableRecord
100
AcDbLinetypeTableRecord
  2
HIDDEN2
 70
    64
  3
Hidden (.5x) _ _ _ _ _ _ _ _ _ _ _ _ _ _ _ _ _
 72
    65
 73
     2
 40
2.25
 49
1.5
 74
     0
 49
-0.75
 74
     0
  0
LTYPE
  5
3e
100
AcDbSymbolTableRecord
100
AcDbLinetypeTableRecord
  2
HIDDENX2
 70
    64
  3
Hidden (2x) ____ ____ ____ ____ ____ ____ ____
 72
    65
 73
     2
 40
9.0
 49
6.0
 74
     0
 49
-3.0
 74
     0
  0
LTYPE
  5
3f
100
AcDbSymbolTableRecord
100
AcDbLinetypeTableRecord
  2
PHANTOM2
 70
    64
  3
Phantom (.5x) ___ _ _ ___ _ _ ___ _ _ ___ _ _
 72
    65
 73
     6
 40
7.5
 49
3.75
 74
     0
 49
-0.75
 74
     0
 49
0.75
 74
     0
 49
-0.75
 74
     0
 49
0.75
 74
     0
 49
-0.75
 74
     0
  0
LTYPE
  5
40
100
AcDbSymbolTableRecord
100
AcDbLinetypeTableRecord
  2
PHANTOMX2
 70
    64
  3
Phantom (2x) ____________    ____    ____   _
 72
    65
 73
     6
 40
30.0
 49
15.0
 74
     0
 49
-3.0
 74
     0
 49
3.0
 74
     0
 49
-3.0
 74
     0
 49
3.0
 74
     0
 49
-3.0
 74
     0
  0
LTYPE
  5
41
100
AcDbSymbolTableRecord
100
AcDbLinetypeTableRecord
  2
ACAD_ISO02W100
 70
     0
  3
ISO dash __ __ __ __ __ __ __ __ __ __ __ __ __
 72
    65
 73
     2
 40
15.0
 49
12.0
 74
     0
 49
-3.0
 74
     0
  0
LTYPE
  5
42
100
AcDbSymbolTableRecord
100
AcDbLinetypeTableRecord
  2
ACAD_ISO03W100
 70
     0
  3
ISO dash space __    __    __    __    __    __
 72
    65
 73
     2
 40
30.0
 49
12.0
 74
     0
 49
-18.0
 74
     0
  0
LTYPE
  5
43
100
AcDbSymbolTableRecord
100
AcDbLinetypeTableRecord
  2
ACAD_ISO04W100
 70
     0
  3
ISO long-dash dot ____ . ____ . ____ . ____ . _
 72
    65
 73
     4
 40
30.0
 49
24.0
 74
     0
 49
-3.0
 74
     0
 49
0.0
 74
     0
 49
-3.0
 74
     0
  0
LTYPE
  5
44
100
AcDbSymbolTableRecord
100
AcDbLinetypeTableRecord
  2
ACAD_ISO05W100
 70
     0
  3
ISO long-dash double-dot ____ .. ____ .. ____ .
 72
    65
 73
     6
 40
33.0
 49
24.0
 74
     0
 49
-3.0
 74
     0
 49
0.0
 74
     0
 49
-3.0
 74
     0
 49
0.0
 74
     0
 49
-3.0
 74
     0
  0
LTYPE
  5
45
100
AcDbSymbolTableRecord
100
AcDbLinetypeTableRecord
  2
ACAD_ISO06W100
 70
     0
  3
ISO long-dash triple-dot ____ ... ____ ... ____
 72
    65
 73
     8
 40
36.0
 49
24.0
 74
     0
 49
-3.0
 74
     0
 49
0.0
 74
     0
 49
-3.0
 74
     0
 49
0.0
 74
     0
 49
-3.0
 74
     0
 49
0.0
 74
     0
 49
-3.0
 74
     0
  0
LTYPE
  5
46
100
AcDbSymbolTableRecord
100
AcDbLinetypeTableRecord
  2
ACAD_ISO07W100
 70
     0
  3
ISO dot . . . . . . . . . . . . . . . . . . . .
 72
    65
 73
     2
 40
3.0
 49
0.0
 74
     0
 49
-3.0
 74
     0
  0
LTYPE
  5
47
100
AcDbSymbolTableRecord
100
AcDbLinetypeTableRecord
  2
ACAD_ISO08W100
 70
     0
  3
ISO long-dash short-dash ____ __ ____ __ ____ _
 72
    65
 73
     4
 40
36.0
 49
24.0
 74
     0
 49
-3.0
 74
     0
 49
6.0
 74
     0
 49
-3.0
 74
     0
  0
LTYPE
  5
48
100
AcDbSymbolTableRecord
100
AcDbLinetypeTableRecord
  2
ACAD_ISO09W100
 70
     0
  3
ISO long-dash double-short-dash ____ __ __ ____
 72
    65
 73
     6
 40
45.0
 49
24.0
 74
     0
 49
-3.0
 74
     0
 49
6.0
 74
     0
 49
-3.0
 74
     0
 49
6.0
 74
     0
 49
-3.0
 74
     0
  0
LTYPE
  5
49
100
AcDbSymbolTableRecord
100
AcDbLinetypeTableRecord
  2
ACAD_ISO10W100
 70
     0
  3
ISO dash dot __ . __ . __ . __ . __ . __ . __ .
 72
    65
 73
     4
 40
18.0
 49
12.0
 74
     0
 49
-3.0
 74
     0
 49
0.0
 74
     0
 49
-3.0
 74
     0
  0
LTYPE
  5
4a
100
AcDbSymbolTableRecord
100
AcDbLinetypeTableRecord
  2
ACAD_ISO11W100
 70
     0
  3
ISO double-dash dot __ __ . __ __ . __ __ . __ 
 72
    65
 73
     6
 40
33.0
 49
12.0
 74
     0
 49
-3.0
 74
     0
 49
12.0
 74
     0
 49
-3.0
 74
     0
 49
0.0
 74
     0
 49
-3.0
 74
     0
  0
LTYPE
  5
4b
100
AcDbSymbolTableRecord
100
AcDbLinetypeTableRecord
  2
ACAD_ISO12W100
 70
     0
  3
ISO dash double-dot __ . . __ . . __ . . __ . .
 72
    65
 73
     6
 40
21.0
 49
12.0
 74
     0
 49
-3.0
 74
     0
 49
0.0
 74
     0
 49
-3.0
 74
     0
 49
0.0
 74
     0
 49
-3.0
 74
     0
  0
LTYPE
  5
4c
100
AcDbSymbolTableRecord
100
AcDbLinetypeTableRecord
  2
ACAD_ISO13W100
 70
     0
  3
ISO double-dash double-dot __ __ . . __ __ . . 
 72
    65
 73
     8
 40
36.0
 49
12.0
 74
     0
 49
-3.0
 74
     0
 49
12.0
 74
     0
 49
-3.0
 74
     0
 49
0.0
 74
     0
 49
-3.0
 74
     0
 49
0.0
 74
     0
 49
-3.0
 74
     0
  0
LTYPE
  5
4d
100
AcDbSymbolTableRecord
100
AcDbLinetypeTableRecord
  2
ACAD_ISO14W100
 70
     0
  3
ISO dash triple-dot __ . . . __ . . . __ . . . 
 72
    65
 73
     8
 40
24.0
 49
12.0
 74
     0
 49
-3.0
 74
     0
 49
0.0
 74
     0
 49
-3.0
 74
     0
 49
0.0
 74
     0
 49
-3.0
 74
     0
 49
0.0
 74
     0
 49
-3.0
 74
     0
  0
LTYPE
  5
4e
100
AcDbSymbolTableRecord
100
AcDbLinetypeTableRecord
  2
ACAD_ISO15W100
 70
     0
  3
ISO double-dash triple-dot __ __ . . . __ __ . 
 72
    65
 73
    10
 40
39.0
 49
12.0
 74
     0
 49
-3.0
 74
     0
 49
12.0
 74
     0
 49
-3.0
 74
     0
 49
0.0
 74
     0
 49
-3.0
 74
     0
 49
0.0
 74
     0
 49
-3.0
 74
     0
 49
0.0
 74
     0
 49
-3.0
 74
     0
  0
LTYPE
  5
4f
100
AcDbSymbolTableRecord
100
AcDbLinetypeTableRecord
  2
FENCELINE1
 70
     0
  3
Fenceline circle ----0-----0----0-----0----0---
 72
    65
 73
     4
 40
1.45
 49
0.25
 74
     0
 49
-0.1
 74
     4
 75
   133
340
24
 46
0.1
 50
0.0
 44
-0.1
 45
0.0
 49
-0.1
 74
     0
 49
1.0
 74
     0
  0
LTYPE
  5
50
100
AcDbSymbolTableRecord
100
AcDbLinetypeTableRecord
  2
FENCELINE2
 70
     0
  3
Fenceline square ----[]-----[]----[]-----[]----
 72
    65
 73
     4
 40
1.45
 49
0.25
 74
     0
 49
-0.1
 74
     4
 75
   132
340
24
 46
0.1
 50
0.0
 44
-0.1
 45
0.0
 49
-0.1
 74
     0
 49
1.0
 74
     0
  0
LTYPE
  5
51
100
AcDbSymbolTableRecord
100
AcDbLinetypeTableRecord
  2
TRACKS
 70
     0
  3
Tracks -|-|-|-|-|-|-|-|-|-|-|-|-|-|-|-|-|-|-|-|
 72
    65
 73
     2
 40
0.3
 49
0.15
 74
     4
 75
   130
340
24
 46
0.25
 50
0.0
 44
0.0
 45
0.0
 49
0.15
 74
     0
  0
LTYPE
  5
52
100
AcDbSymbolTableRecord
100
AcDbLinetypeTableRecord
  2
BATTING
 70
     0
  3
Batting SSSSSSSSSSSSSSSSSSSSSSSSSSSSSSSSSSSSSSS
 72
    65
 73
     4
 40
0.4001000000000002
 49
0.0001
 74
     0
 49
-0.1
 74
     4
 75
   134
340
24
 46
0.1
 50
0.0
 44
-0.1
 45
0.0
 49
-0.2
 74
     4
 75
   134
340
24
 46
0.1
 50
180.0
 44
0.1
 45
0.0
 49
-0.1
 74
     0
  0
LTYPE
  5
53
100
AcDbSymbolTableRecord
100
AcDbLinetypeTableRecord
  2
HOT_WATER_SUPPLY
 70
     0
  3
Hot water supply ---- HW ---- HW ---- HW ----
 72
    65
 73
     3
 40
0.9
 49
0.5
 74
     0
 49
-0.2
 74
     2
 75
     1
340
23
 46
0.1
 50
0.0
 44
-0.1
 45
-0.05
  9
HW
 49
-0.2
 74
     0
  0
LTYPE
  5
54
100
AcDbSymbolTableRecord
100
AcDbLinetypeTableRecord
  2
GAS_LINE
 70
     0
  3
Gas line ----GAS----GAS----GAS----GAS----GAS---
 72
    65
 73
     3
 40
0.95
 49
0.5
 74
     0
 49
-0.2
 74
     2
 75
     1
340
23
 46
0.1
 50
0.0
 44
-0.1
 45
-0.05
  9
GAS
 49
-0.25
 74
     0
  0
LTYPE
  5
55
100
AcDbSymbolTableRecord
100
AcDbLinetypeTableRecord
  2
ZIGZAG
 70
     0
  3
Zig zag /\/\/\/\/\/\/\/\/\/\/\/\/\/\/\/\/\/\/\/
 72
    65
 73
     4
 40
0.8001000000000001
 49
0.0001
 74
     0
 49
-0.2
 74
     4
 75
   131
340
24
 46
0.2
 50
0.0
 44
-0.2
 45
0.0
 49
-0.4
 74
     4
 75
   131
340
24
 46
0.2
 50
180.0
 44
0.2
 45
0.0
 49
-0.2
 74
     0
  0
ENDTAB
  0
TABLE
  2
LAYER
  5
c8
100
AcDbSymbolTable
 70
     2
  0
LAYER
  5
c9
100
AcDbSymbolTableRecord
100
AcDbLayerTableRecord
  2
0
 70
     0
 62
     7
  6
CONTINUOUS
390
F
  0
LAYER
  5
ca
100
AcDbSymbolTableRecord
100
AcDbLayerTableRecord
  2
DEFPOINTS
 70
     0
 62
     7
  6
CONTINUOUS
290
0
390
F
  0
ENDTAB
  0
TABLE
  2
STYLE
  5
cb
100
AcDbSymbolTable
 70
     2
  0
STYLE
  5
      23
100
AcDbSymbolTableRecord
100
AcDbTextStyleTableRecord
  2
STANDARD
 70
     0
 40
0.0
 41
1.0
 50
0.0
 71
     0
 42
0.2
  3
txt
  4
BIGFONT
  0
STYLE
  5
24
100
AcDbSymbolTableRecord
100
AcDbTextStyleTableRecord
  2

 70
     1
 40
0.0
 41
1.0
 50
0.0
 71
     0
 42
0.2
  3
ltypeshp.shx
  4

  0
ENDTAB
  0
TABLE
  2
DIMSTYLE
  5
cc
100
AcDbSymbolTable
100
AcDbDimStyleTable
 70
     1
  0
DIMSTYLE
105
cd
100
AcDbSymbolTableRecord
100
AcDbDimStyleTableRecord
  2
DIMSTYLE
 70
     0
  3

  4

  5
_OPEN
  6
_OPEN
  7
_OPEN
 40
1
 41
1
 42
0.009999999776482582
 43
0.38
 44
2.54
 45
0
 46
0
 47
0
 48
0
140
4
141
0.09
142
0
143
25.4
144
1
145
0
146
1
147
2
 71
     0
 72
     0
 73
     0
 74
     0
 75
     0
 76
     0
 78
     0
170
     0
171
     2
 77
     0
172
     0
173
     1
174
     0
175
     0
176
     0
177
     0
178
     0
271
     1
275
     1
340
23
  0
ENDTAB
  0
TABLE
  2
APPID
  5
ce
100
AcDbSymbolTable
 70
     1
  0
APPID
  5
cf
100
AcDbSymbolTableRecord
100
AcDbRegAppTableRecord
  2
ACAD
 70
     0
  0
ENDTAB
  0
TABLE
  2
VIEW
  5
d0
100
AcDbSymbolTable
 70
     0
  0
ENDTAB
  0
TABLE
  2
UCS
  5
d1
100
AcDbSymbolTable
 70
     0
  0
ENDTAB
  0
TABLE
  2
BLOCK_RECORD
  5
d2
100
AcDbSymbolTable
 70
    24
  0
BLOCK_RECORD
  5
d3
100
AcDbSymbolTableRecord
100
AcDbBlockTableRecord
  2
*MODEL_SPACE
  0
BLOCK_RECORD
  5
d4
100
AcDbSymbolTableRecord
100
AcDbBlockTableRecord
  2
*PAPER_SPACE
  0
BLOCK_RECORD
  5
d5
100
AcDbSymbolTableRecord
100
AcDbBlockTableRecord
  2
_OPEN
  0
BLOCK_RECORD
  5
d6
100
AcDbSymbolTableRecord
100
AcDbBlockTableRecord
  2
_OPEN30
  0
BLOCK_RECORD
  5
d7
100
AcDbSymbolTableRecord
100
AcDbBlockTableRecord
  2
KOZU0001
  0
BLOCK_RECORD
  5
d8
100
AcDbSymbolTableRecord
100
AcDbBlockTableRecord
  2
KOZU0002
  0
BLOCK_RECORD
  5
d9
100
AcDbSymbolTableRecord
100
AcDbBlockTableRecord
  2
KOZU0003
  0
BLOCK_RECORD
  5
da
100
AcDbSymbolTableRecord
100
AcDbBlockTableRecord
  2
KOZU0004
  0
BLOCK_RECORD
  5
db
100
AcDbSymbolTableRecord
100
AcDbBlockTableRecord
  2
KOZU0005
  0
BLOCK_RECORD
  5
dc
100
AcDbSymbolTableRecord
100
AcDbBlockTableRecord
  2
KOZU0006
  0
BLOCK_RECORD
  5
dd
100
AcDbSymbolTableRecord
100
AcDbBlockTableRecord
  2
KOZU0007
  0
BLOCK_RECORD
  5
de
100
AcDbSymbolTableRecord
100
AcDbBlockTableRecord
  2
KOZU0008
  0
BLOCK_RECORD
  5
df
100
AcDbSymbolTableRecord
100
AcDbBlockTableRecord
  2
KOZU0009
  0
BLOCK_RECORD
  5
e0
100
AcDbSymbolTableRecord
100
AcDbBlockTableRecord
  2
KOZU0010
  0
BLOCK_RECORD
  5
e1
100
AcDbSymbolTableRecord
100
AcDbBlockTableRecord
  2
KOZU0011
  0
BLOCK_RECORD
  5
e2
100
AcDbSymbolTableRecord
100
AcDbBlockTableRecord
  2
KOZU0012
  0
BLOCK_RECORD
  5
e3
100
AcDbSymbolTableRecord
100
AcDbBlockTableRecord
  2
*D1
  0
BLOCK_RECORD
  5
e4
100
AcDbSymbolTableRecord
100
AcDbBlockTableRecord
  2
*D2
  0
BLOCK_RECORD
  5
e5
100
AcDbSymbolTableRecord
100
AcDbBlockTableRecord
  2
*D3
  0
BLOCK_RECORD
  5
e6
100
AcDbSymbolTableRecord
100
AcDbBlockTableRecord
  2
*D4
  0
BLOCK_RECORD
  5
e7
100
AcDbSymbolTableRecord
100
AcDbBlockTableRecord
  2
*D5
  0
BLOCK_RECORD
  5
e8
100
AcDbSymbolTableRecord
100
AcDbBlockTableRecord
  2
*D6
  0
BLOCK_RECORD
  5
e9
100
AcDbSymbolTableRecord
100
AcDbBlockTableRecord
  2
*D7
  0
BLOCK_RECORD
  5
ea
100
AcDbSymbolTableRecord
100
AcDbBlockTableRecord
  2
*D8
  0
ENDTAB
  0
TABLE
  2
VPORT
  5
eb
100
AcDbSymbolTable
 70
     0
  0
ENDTAB
  0
ENDSEC
  0
SECTION
  2
BLOCKS
  0
BLOCK
  8
0
  5
ec
100
AcDbEntity
100
AcDbBlockBegin
  2
*MODEL_SPACE
 70
     0
 10
0
 20
0
  3
*MODEL_SPACE
  0
ENDBLK
  8
0
  5
ed
100
AcDbEntity
100
AcDbBlockEnd
  0
BLOCK
  8
0
  5
ee
 67
     1
100
AcDbEntity
100
AcDbBlockBegin
  2
*PAPER_SPACE
 70
     0
 10
0
 20
0
  3
*PAPER_SPACE
  0
ENDBLK
  8
0
  5
ef
 67
     1
100
AcDbEntity
100
AcDbBlockEnd
  0
BLOCK
  8
0
  5
f0
100
AcDbEntity
100
AcDbBlockBegin
  2
_OPEN
 70
    64
 10
0
 20
0
  3
_OPEN
  0
LINE
  5
f1
100
AcDbEntity
  8
0
  6
BYBLOCK
 62
     0
100
AcDbLine
 10
0
 20
0
 11
-3.12799995302215
 21
-0.5619999915596265
  0
LINE
  5
f2
100
AcDbEntity
  8
0
  6
BYBLOCK
 62
     0
100
AcDbLine
 10
0
 20
0
 11
-3.127999953022157
 21
0.5619999915595884
  0
LINE
  5
f3
100
AcDbEntity
  8
0
  6
BYBLOCK
 62
     0
100
AcDbLine
 10
0
 20
0
 11
-2.99999995494452
 21
0
  0
ENDBLK
  8
0
  5
f4
100
AcDbEntity
100
AcDbBlockEnd
  0
BLOCK
  8
0
  5
f5
100
AcDbEntity
100
AcDbBlockBegin
  2
_OPEN30
 70
    64
 10
0
 20
0
  3
_OPEN30
  0
LINE
  5
f6
100
AcDbEntity
  8
0
  6
BYBLOCK
 62
     0
100
AcDbLine
 10
0
 20
0
 11
-2.999999954944514
 21
-0.9999999849815249
  0
LINE
  5
f7
100
AcDbEntity
  8
0
  6
BYBLOCK
 62
     0
100
AcDbLine
 10
0
 20
0
 11
-2.999999954944526
 21
0.9999999849814883
  0
LINE
  5
f8
100
AcDbEntity
  8
0
  6
BYBLOCK
 62
     0
100
AcDbLine
 10
0
 20
0
 11
-2.99999995494452
 21
0
  0
ENDBLK
  8
0
  5
f9
100
AcDbEntity
100
AcDbBlockEnd
  0
BLOCK
  8
0
  5
fa
100
AcDbEntity
100
AcDbBlockBegin
  2
*D1
 70
    65
 10
0
 20
0
  0
MTEXT
  5
fb
100
AcDbEntity
  8
0
  6
CONTINUOUS
 62
     7
100
AcDbMText
 10
-21.54986572265625
 20
2.182235717773438
 40
5
 41
60
 71
     8
 72
     1
  1
{\W0.855331;１００}
  0
LINE
  5
fc
100
AcDbEntity
  8
0
  6
CONTINUOUS
 62
     7
100
AcDbLine
 10
-68.54986576771174
 20
2.182235717773438
 11
25.45013432239923
 21
2.182235717773419
  0
INSERT
  5
fd
100
AcDbEntity
  8
0
  6
CONTINUOUS
 62
     7
100
AcDbBlockReference
  2
_OPEN30
 10
-71.54986572265625
 20
2.182235717773438
 41
1
 42
1
 43
1
 50
180.0000000000004
  0
INSERT
  5
fe
100
AcDbEntity
  8
0
  6
CONTINUOUS
 62
     7
100
AcDbBlockReference
  2
_OPEN30
 10
28.45013427734375
 20
2.182235717773438
 41
1
 42
1
 43
1
  0
LINE
  5
ff
100
AcDbEntity
  8
0
  6
CONTINUOUS
 62
     7
100
AcDbLine
 10
-71.54983520507813
 20
45.52391815185547
 11
-71.54983520507813
 21
-0.6747643947601318
  0
LINE
  5
100
100
AcDbEntity
  8
0
  6
CONTINUOUS
 62
     7
100
AcDbLine
 10
28.45016479492188
 20
45.52391815185547
 11
28.45016479492188
 21
-0.6747643947601318
  0
POINT
  5
101
100
AcDbEntity
  8
DEFPOINTS
  6
CONTINUOUS
 62
     7
100
AcDbPoint
 10
-71.54983520507813
 20
45.52391815185547
  0
POINT
  5
102
100
AcDbEntity
  8
DEFPOINTS
  6
CONTINUOUS
 62
     7
100
AcDbPoint
 10
28.45016479492188
 20
45.52391815185547
  0
POINT
  5
103
100
AcDbEntity
  8
DEFPOINTS
  6
CONTINUOUS
 62
     7
100
AcDbPoint
 10
28.45013427734375
 20
2.182235717773438
  0
ENDBLK
  8
0
  5
104
100
AcDbEntity
100
AcDbBlockEnd
  0
BLOCK
  8
0
  5
105
100
AcDbEntity
100
AcDbBlockBegin
  2
*D2
 70
    65
 10
0
 20
0
  0
MTEXT
  5
106
100
AcDbEntity
  8
0
  6
CONTINUOUS
 62
     7
100
AcDbMText
 10
248.4960174560547
 20
46.52392196655273
 40
5
 41
40
 71
     8
 72
     1
  1
{\W0.864328;４２}
 11
0
 21
1
  0
LINE
  5
107
100
AcDbEntity
  8
0
  6
CONTINUOUS
 62
     7
100
AcDbLine
 10
248.4960174560547
 20
28.52391429210272
 11
248.4960174560547
 21
64.52391819691096
  0
INSERT
  5
108
100
AcDbEntity
  8
0
  6
CONTINUOUS
 62
     7
100
AcDbBlockReference
  2
_OPEN30
 10
248.4960174560547
 20
25.5239143371582
 41
1
 42
1
 43
1
 50
270.0000000000005
  0
INSERT
  5
109
100
AcDbEntity
  8
0
  6
CONTINUOUS
 62
     7
100
AcDbBlockReference
  2
_OPEN30
 10
248.4960174560547
 20
67.52391815185547
 41
1
 42
1
 43
1
 50
90.00000000000019
  0
LINE
  5
10a
100
AcDbEntity
  8
0
  6
CONTINUOUS
 62
     7
100
AcDbLine
 10
227.7001037597656
 20
25.5239143371582
 11
250.1287994384766
 21
25.5239143371582
  0
LINE
  5
10b
100
AcDbEntity
  8
0
  6
CONTINUOUS
 62
     7
100
AcDbLine
 10
240.1237640380859
 20
67.52391815185547
 11
250.1287994384766
 21
67.52391815185547
  0
POINT
  5
10c
100
AcDbEntity
  8
DEFPOINTS
  6
CONTINUOUS
 62
     7
100
AcDbPoint
 10
227.7001037597656
 20
25.5239143371582
  0
POINT
  5
10d
100
AcDbEntity
  8
DEFPOINTS
  6
CONTINUOUS
 62
     7
100
AcDbPoint
 10
240.1237640380859
 20
67.52391815185547
  0
POINT
  5
10e
100
AcDbEntity
  8
DEFPOINTS
  6
CONTINUOUS
 62
     7
100
AcDbPoint
 10
248.4960174560547
 20
67.52391815185547
  0
ENDBLK
  8
0
  5
10f
100
AcDbEntity
100
AcDbBlockEnd
  0
BLOCK
  8
0
  5
110
100
AcDbEntity
100
AcDbBlockBegin
  2
*D3
 70
    65
 10
0
 20
0
  0
MTEXT
  5
111
100
AcDbEntity
  8
0
  6
CONTINUOUS
 62
     7
100
AcDbMText
 10
248.4960174560547
 20
151.02392578125
 40
5
 41
60
 71
     8
 72
     1
  1
{\W0.855331;１６７}
 11
0
 21
1
  0
LINE
  5
112
100
AcDbEntity
  8
0
  6
CONTINUOUS
 62
     7
100
AcDbLine
 10
248.4960174560547
 20
70.52391810679998
 11
248.4960174560547
 21
231.5239563438836
  0
INSERT
  5
113
100
AcDbEntity
  8
0
  6
CONTINUOUS
 62
     7
100
AcDbBlockReference
  2
_OPEN30
 10
248.4960174560547
 20
67.52391815185547
 41
1
 42
1
 43
1
 50
270.0000000000005
  0
INSERT
  5
114
100
AcDbEntity
  8
0
  6
CONTINUOUS
 62
     7
100
AcDbBlockReference
  2
_OPEN30
 10
248.4960174560547
 20
234.5239562988281
 41
1
 42
1
 43
1
 50
90.00000000000019
  0
LINE
  5
115
100
AcDbEntity
  8
0
  6
CONTINUOUS
 62
     7
100
AcDbLine
 10
199.3251647949219
 20
67.52391815185547
 11
250.1287994384766
 21
67.52391815185547
  0
LINE
  5
116
100
AcDbEntity
  8
0
  6
CONTINUOUS
 62
     7
100
AcDbLine
 10
226.8093719482422
 20
234.52392578125
 11
250.1287994384766
 21
234.52392578125
  0
POINT
  5
117
100
AcDbEntity
  8
DEFPOINTS
  6
CONTINUOUS
 62
     7
100
AcDbPoint
 10
199.3251647949219
 20
67.52391815185547
  0
POINT
  5
118
100
AcDbEntity
  8
DEFPOINTS
  6
CONTINUOUS
 62
     7
100
AcDbPoint
 10
226.8093719482422
 20
234.52392578125
  0
POINT
  5
119
100
AcDbEntity
  8
DEFPOINTS
  6
CONTINUOUS
 62
     7
100
AcDbPoint
 10
248.4960174560547
 20
234.5239562988281
  0
ENDBLK
  8
0
  5
11a
100
AcDbEntity
100
AcDbBlockEnd
  0
BLOCK
  8
0
  5
11b
100
AcDbEntity
100
AcDbBlockBegin
  2
*D4
 70
    65
 10
0
 20
0
  0
MTEXT
  5
11c
100
AcDbEntity
  8
0
  6
CONTINUOUS
 62
     7
100
AcDbMText
 10
262.5055541992188
 20
130.0239410400391
 40
5
 41
60
 71
     8
 72
     1
  1
{\W0.855331;２０９}
 11
0
 21
1
  0
LINE
  5
11d
100
AcDbEntity
  8
0
  6
CONTINUOUS
 62
     7
100
AcDbLine
 10
262.5055541992188
 20
28.52391429210272
 11
262.5055541992188
 21
231.5239563438836
  0
INSERT
  5
11e
100
AcDbEntity
  8
0
  6
CONTINUOUS
 62
     7
100
AcDbBlockReference
  2
_OPEN30
 10
262.5055541992188
 20
25.5239143371582
 41
1
 42
1
 43
1
 50
270.0000000000005
  0
INSERT
  5
11f
100
AcDbEntity
  8
0
  6
CONTINUOUS
 62
     7
100
AcDbBlockReference
  2
_OPEN30
 10
262.5055541992188
 20
234.5239562988281
 41
1
 42
1
 43
1
 50
90.00000000000019
  0
LINE
  5
120
100
AcDbEntity
  8
0
  6
CONTINUOUS
 62
     7
100
AcDbLine
 10
205.3251647949219
 20
25.5239143371582
 11
266.0767822265625
 21
25.5239143371582
  0
LINE
  5
121
100
AcDbEntity
  8
0
  6
CONTINUOUS
 62
     7
100
AcDbLine
 10
202.9257202148438
 20
234.52392578125
 11
266.0767822265625
 21
234.52392578125
  0
POINT
  5
122
100
AcDbEntity
  8
DEFPOINTS
  6
CONTINUOUS
 62
     7
100
AcDbPoint
 10
205.3251647949219
 20
25.5239143371582
  0
POINT
  5
123
100
AcDbEntity
  8
DEFPOINTS
  6
CONTINUOUS
 62
     7
100
AcDbPoint
 10
202.9257202148438
 20
234.52392578125
  0
POINT
  5
124
100
AcDbEntity
  8
DEFPOINTS
  6
CONTINUOUS
 62
     7
100
AcDbPoint
 10
262.5055541992188
 20
234.5239562988281
  0
ENDBLK
  8
0
  5
125
100
AcDbEntity
100
AcDbBlockEnd
  0
BLOCK
  8
0
  5
126
100
AcDbEntity
100
AcDbBlockBegin
  2
*D5
 70
    65
 10
0
 20
0
  0
MTEXT
  5
127
100
AcDbEntity
  8
0
  6
CONTINUOUS
 62
     7
100
AcDbMText
 10
182.8251495361328
 20
-2.885065078735352
 40
5
 41
60
 71
     8
 72
     1
  1
{\W0.855331;□６０}
  0
LINE
  5
128
100
AcDbEntity
  8
0
  6
CONTINUOUS
 62
     7
100
AcDbLine
 10
155.8251342322883
 20
-2.885065078735352
 11
209.8251495811883
 21
-2.88506507873537
  0
INSERT
  5
129
100
AcDbEntity
  8
0
  6
CONTINUOUS
 62
     7
100
AcDbBlockReference
  2
_OPEN30
 10
152.8251342773438
 20
-2.885065078735352
 41
1
 42
1
 43
1
 50
180.0000000000004
  0
INSERT
  5
12a
100
AcDbEntity
  8
0
  6
CONTINUOUS
 62
     7
100
AcDbBlockReference
  2
_OPEN30
 10
212.8251495361328
 20
-2.885065078735352
 41
1
 42
1
 43
1
  0
LINE
  5
12b
100
AcDbEntity
  8
0
  6
CONTINUOUS
 62
     7
100
AcDbLine
 10
152.8251647949219
 20
45.52391624450684
 11
152.8251647949219
 21
-6.456315517425537
  0
LINE
  5
12c
100
AcDbEntity
  8
0
  6
CONTINUOUS
 62
     7
100
AcDbLine
 10
212.8251647949219
 20
45.52391624450684
 11
212.8251647949219
 21
-6.456315517425537
  0
POINT
  5
12d
100
AcDbEntity
  8
DEFPOINTS
  6
CONTINUOUS
 62
     7
100
AcDbPoint
 10
152.8251647949219
 20
45.52391624450684
  0
POINT
  5
12e
100
AcDbEntity
  8
DEFPOINTS
  6
CONTINUOUS
 62
     7
100
AcDbPoint
 10
212.8251647949219
 20
45.52391624450684
  0
POINT
  5
12f
100
AcDbEntity
  8
DEFPOINTS
  6
CONTINUOUS
 62
     7
100
AcDbPoint
 10
212.8251495361328
 20
-2.885065078735352
  0
ENDBLK
  8
0
  5
130
100
AcDbEntity
100
AcDbBlockEnd
  0
BLOCK
  8
0
  5
131
100
AcDbEntity
100
AcDbBlockBegin
  2
*D6
 70
    65
 10
0
 20
0
  0
LINE
  5
132
100
AcDbEntity
  8
0
  6
CONTINUOUS
 62
     7
100
AcDbLine
 10
163.3251647498664
 20
8.253805160522461
 11
202.3251648399774
 21
8.253805160522443
  0
INSERT
  5
133
100
AcDbEntity
  8
0
  6
CONTINUOUS
 62
     7
100
AcDbBlockReference
  2
_OPEN30
 10
160.3251647949219
 20
8.253805160522461
 41
1
 42
1
 43
1
 50
180.0000000000004
  0
INSERT
  5
134
100
AcDbEntity
  8
0
  6
CONTINUOUS
 62
     7
100
AcDbBlockReference
  2
_OPEN30
 10
205.3251647949219
 20
8.253805160522461
 41
1
 42
1
 43
1
  0
LINE
  5
135
100
AcDbEntity
  8
0
  6
CONTINUOUS
 62
     7
100
AcDbLine
 10
160.3251647949219
 20
25.5239143371582
 11
160.3251647949219
 21
4.682555198669434
  0
LINE
  5
136
100
AcDbEntity
  8
0
  6
CONTINUOUS
 62
     7
100
AcDbLine
 10
205.3251647949219
 20
25.5239143371582
 11
205.3251647949219
 21
4.682555198669434
  0
MTEXT
  5
137
100
AcDbEntity
  8
0
  6
CONTINUOUS
 62
     7
100
AcDbMText
 10
182.8251647949219
 20
8.253805160522461
 40
5
 41
110
 71
     8
 72
     1
  1
{\W0.855331;\U+2205４５}
  0
POINT
  5
138
100
AcDbEntity
  8
DEFPOINTS
  6
CONTINUOUS
 62
     7
100
AcDbPoint
 10
160.3251647949219
 20
25.5239143371582
  0
POINT
  5
139
100
AcDbEntity
  8
DEFPOINTS
  6
CONTINUOUS
 62
     7
100
AcDbPoint
 10
205.3251647949219
 20
25.5239143371582
  0
POINT
  5
13a
100
AcDbEntity
  8
DEFPOINTS
  6
CONTINUOUS
 62
     7
100
AcDbPoint
 10
205.3251647949219
 20
8.253805160522461
  0
ENDBLK
  8
0
  5
13b
100
AcDbEntity
100
AcDbBlockEnd
  0
BLOCK
  8
0
  5
13c
100
AcDbEntity
100
AcDbBlockBegin
  2
*D7
 70
    65
 10
0
 20
0
  0
LINE
  5
13d
100
AcDbEntity
  8
0
  6
CONTINUOUS
 62
     7
100
AcDbLine
 10
-18.54985050892267
 20
247.2102355957031
 11
75.45013432239924
 21
247.2102355957031
  0
INSERT
  5
13e
100
AcDbEntity
  8
0
  6
CONTINUOUS
 62
     7
100
AcDbBlockReference
  2
_OPEN30
 10
-21.54985046386719
 20
247.2102355957031
 41
1
 42
1
 43
1
 50
180.0000000000004
  0
INSERT
  5
13f
100
AcDbEntity
  8
0
  6
CONTINUOUS
 62
     7
100
AcDbBlockReference
  2
_OPEN30
 10
78.45013427734375
 20
247.2102355957031
 41
1
 42
1
 43
1
  0
LINE
  5
140
100
AcDbEntity
  8
0
  6
CONTINUOUS
 62
     7
100
AcDbLine
 10
-21.54985046386719
 20
234.52392578125
 11
-21.54985046386719
 21
250.0672302246094
  0
LINE
  5
141
100
AcDbEntity
  8
0
  6
CONTINUOUS
 62
     7
100
AcDbLine
 10
78.45013427734375
 20
182.5238647460938
 11
78.45013427734375
 21
250.0672302246094
  0
MTEXT
  5
142
100
AcDbEntity
  8
0
  6
CONTINUOUS
 62
     7
100
AcDbMText
 10
28.45014190673828
 20
247.2102355957031
 40
5
 41
60
 71
     8
 72
     1
  1
{\W0.855331;１００}
  0
POINT
  5
143
100
AcDbEntity
  8
DEFPOINTS
  6
CONTINUOUS
 62
     7
100
AcDbPoint
 10
-21.54985046386719
 20
234.52392578125
  0
POINT
  5
144
100
AcDbEntity
  8
DEFPOINTS
  6
CONTINUOUS
 62
     7
100
AcDbPoint
 10
78.45013427734375
 20
182.5238647460938
  0
POINT
  5
145
100
AcDbEntity
  8
DEFPOINTS
  6
CONTINUOUS
 62
     7
100
AcDbPoint
 10
78.45013427734375
 20
247.2102355957031
  0
ENDBLK
  8
0
  5
146
100
AcDbEntity
100
AcDbBlockEnd
  0
BLOCK
  8
0
  5
147
100
AcDbEntity
100
AcDbBlockBegin
  2
*D8
 70
    65
 10
0
 20
0
  0
LINE
  5
148
100
AcDbEntity
  8
0
  6
CONTINUOUS
 62
     7
100
AcDbLine
 10
160.8251762390137
 20
77.83658686070342
 11
136.2893010448886
 21
77.83658686070342
  0
LINE
  5
149
100
AcDbEntity
  8
0
  6
CONTINUOUS
 62
     7
100
AcDbLine
 10
201.8251724693719
 20
77.83658686070341
 11
163.8251761939582
 21
77.83658686070342
  0
INSERT
  5
14a
100
AcDbEntity
  8
0
  6
CONTINUOUS
 62
     7
100
AcDbBlockReference
  2
_OPEN
 10
204.8251724243164
 20
77.83658686070342
 41
1
 42
1
 43
1
  0
INSERT
  5
14b
100
AcDbEntity
  8
0
  6
CONTINUOUS
 62
     7
100
AcDbBlockReference
  2
_OPEN
 10
160.8251762390137
 20
77.83658686070342
 41
1
 42
1
 43
1
 50
180.0000000000004
  0
LINE
  5
14c
100
AcDbEntity
  8
0
  6
CONTINUOUS
 62
     7
100
AcDbLine
 10
204.8251724243164
 20
79.26156044006348
 11
204.8251724243164
 21
75.55058686070342
  0
LINE
  5
14d
100
AcDbEntity
  8
0
  6
CONTINUOUS
 62
     7
100
AcDbLine
 10
160.8251762390137
 20
79.26156044006348
 11
160.8251762390137
 21
75.55058686070342
  0
MTEXT
  5
14e
100
AcDbEntity
  8
0
  6
CONTINUOUS
 62
     7
100
AcDbMText
 10
140.5749262642337
 20
77.83658686070342
 40
5
 41
40
 71
     8
 72
     1
  1
{\W0.864328;４４}
  0
POINT
  5
14f
100
AcDbEntity
  8
DEFPOINTS
  6
CONTINUOUS
 62
     7
100
AcDbPoint
 10
204.8251724243164
 20
79.26156044006348
  0
POINT
  5
150
100
AcDbEntity
  8
DEFPOINTS
  6
CONTINUOUS
 62
     7
100
AcDbPoint
 10
160.8251762390137
 20
79.26156044006348
  0
POINT
  5
151
100
AcDbEntity
  8
DEFPOINTS
  6
CONTINUOUS
 62
     7
100
AcDbPoint
 10
160.8251762390137
 20
77.83658686070342
  0
ENDBLK
  8
0
  5
152
100
AcDbEntity
100
AcDbBlockEnd
  0
BLOCK
  8
0
  5
153
100
AcDbEntity
100
AcDbBlockBegin
  2
KOZU0001
 70
    64
 10
0
 20
0
  0
POINT
  5
154
100
AcDbEntity
  8
0
  6
CONTINUOUS
 62
     7
100
AcDbPoint
 10
0
 20
0
  0
LINE
  5
155
100
AcDbEntity
  8
0
  6
CENTER
 62
     3
100
AcDbLine
 10
0
 20
171.5398559570313
 11
0
 21
-45.5286865234375
  0
LINE
  5
156
100
AcDbEntity
  8
0
  6
CONTINUOUS
 62
     7
100
AcDbLine
 10
50.00001907348633
 20
22.00000762939453
 11
50.00001907348633
 21
-21.99999809265137
  0
LINE
  5
157
100
AcDbEntity
  8
0
  6
CONTINUOUS
 62
     7
100
AcDbLine
 10
-49.99998092651367
 20
22.00000762939453
 11
-49.99998092651367
 21
-21.99999809265137
  0
LINE
  5
158
100
AcDbEntity
  8
0
  6
CONTINUOUS
 62
     7
100
AcDbLine
 10
-40
 20
25.9999942779541
 11
40
 21
25.9999942779541
  0
LINE
  5
159
100
AcDbEntity
  8
0
  6
CONTINUOUS
 62
     7
100
AcDbLine
 10
-49.99998092651367
 20
-21.99999809265137
 11
50.00001907348633
 21
-21.99999809265137
  0
LINE
  5
15a
100
AcDbEntity
  8
0
  6
CENTER
 62
     3
100
AcDbLine
 10
-53.14596557617188
 20
0
 11
53.01889419555664
 21
0
  0
LINE
  5
15b
100
AcDbEntity
  8
0
  6
CONTINUOUS
 62
     7
100
AcDbLine
 10
-49.99998092651367
 20
22.00000762939453
 11
-30
 21
22.00000762939453
  0
LINE
  5
15c
100
AcDbEntity
  8
0
  6
CONTINUOUS
 62
     7
100
AcDbLine
 10
30
 20
22.00000762939453
 11
50.00001907348633
 21
22.00000762939453
  0
LINE
  5
15d
100
AcDbEntity
  8
0
  6
CONTINUOUS
 62
     7
100
AcDbLine
 10
-24.00003336043317
 20
-21.99999809265137
 11
-23.00001760133475
 21
-26.00000018141069
  0
LINE
  5
15e
100
AcDbEntity
  8
0
  6
CONTINUOUS
 62
     7
100
AcDbLine
 10
24.00003336043317
 20
-21.99999809265137
 11
23.00001621351488
 21
-26.00000573260563
  0
LINE
  5
15f
100
AcDbEntity
  8
0
  6
CONTINUOUS
 62
     7
100
AcDbLine
 10
-23.00001907348633
 20
-25.9999942779541
 11
23.00002098083496
 21
-25.9999942779541
  0
LINE
  5
160
100
AcDbEntity
  8
0
  6
CONTINUOUS
 62
     7
100
AcDbLine
 10
-22.5
 20
-42.00000381469727
 11
22.5
 21
-42.00000381469727
  0
LINE
  5
161
100
AcDbEntity
  8
0
  6
CONTINUOUS
 62
     7
100
AcDbLine
 10
22.5
 20
-25.9999942779541
 11
22.5
 21
-42.00000381469727
  0
LINE
  5
162
100
AcDbEntity
  8
0
  6
CONTINUOUS
 62
     7
100
AcDbLine
 10
-22.5
 20
-25.9999942779541
 11
-22.5
 21
-42.00000381469727
  0
LINE
  5
163
100
AcDbEntity
  8
0
  6
CONTINUOUS
 62
     7
100
AcDbLine
 10
27.5
 20
56.00000381469727
 11
27.5
 21
26.00000381469727
  0
LINE
  5
164
100
AcDbEntity
  8
0
  6
CONTINUOUS
 62
     7
100
AcDbLine
 10
-27.49998092651367
 20
56.00000381469727
 11
-27.49998092651367
 21
26.00000381469727
  0
LINE
  5
165
100
AcDbEntity
  8
0
  6
CONTINUOUS
 62
     7
100
AcDbLine
 10
30
 20
76
 11
30
 21
56.00000381469727
  0
LINE
  5
166
100
AcDbEntity
  8
0
  6
CONTINUOUS
 62
     7
100
AcDbLine
 10
-29.99998092651367
 20
76
 11
-29.99998092651367
 21
56.00000381469727
  0
LINE
  5
167
100
AcDbEntity
  8
0
  6
CONTINUOUS
 62
     7
100
AcDbLine
 10
-30.00002861022949
 20
55.99999237060547
 11
30
 21
55.99999237060547
  0
LINE
  5
168
100
AcDbEntity
  8
0
  6
CONTINUOUS
 62
     7
100
AcDbLine
 10
-30.00002861022949
 20
76.00001525878906
 11
29.99998474121094
 21
76.00001525878906
  0
LINE
  5
169
100
AcDbEntity
  8
0
  6
CONTINUOUS
 62
     7
100
AcDbLine
 10
-30
 20
25.9999942779541
 11
-30
 21
-21.99999809265137
  0
LINE
  5
16a
100
AcDbEntity
  8
0
  6
CONTINUOUS
 62
     7
100
AcDbLine
 10
-17.99999237060547
 20
74.5
 11
-27.99999237060547
 21
74.5
  0
LINE
  5
16b
100
AcDbEntity
  8
0
  6
CONTINUOUS
 62
     7
100
AcDbLine
 10
-17.99999237060547
 20
68.5
 11
-27.99999237060547
 21
68.5
  0
LINE
  5
16c
100
AcDbEntity
  8
0
  6
CONTINUOUS
 62
     7
100
AcDbLine
 10
-17.99999237060547
 20
74.5
 11
-17.99999237060547
 21
67
  0
LINE
  5
16d
100
AcDbEntity
  8
0
  6
CONTINUOUS
 62
     7
100
AcDbLine
 10
-20
 20
56.00000381469727
 11
-20
 21
26.00000381469727
  0
LINE
  5
16e
100
AcDbEntity
  8
0
  6
CENTER
 62
     3
100
AcDbLine
 10
-22.99999237060547
 20
75.38738610017836
 11
-22.99999237060547
 21
25.9999942779541
  0
LINE
  5
16f
100
AcDbEntity
  8
0
  6
CONTINUOUS
 62
     7
100
AcDbLine
 10
-15
 20
67
 11
-29.99998092651367
 21
67
  0
LINE
  5
170
100
AcDbEntity
  8
0
  6
CONTINUOUS
 62
     7
100
AcDbLine
 10
20
 20
56.00000381469727
 11
20
 21
26.00000381469727
  0
LINE
  5
171
100
AcDbEntity
  8
0
  6
CONTINUOUS
 62
     7
100
AcDbLine
 10
26.00002288818359
 20
56.00000381469727
 11
26.00002288818359
 21
26.00000381469727
  0
LINE
  5
172
100
AcDbEntity
  8
0
  6
CENTER
 62
     3
100
AcDbLine
 10
23.0000114440918
 20
75.06693461122976
 11
23.0000114440918
 21
25.9999942779541
  0
LINE
  5
173
100
AcDbEntity
  8
0
  6
CONTINUOUS
 62
     7
100
AcDbLine
 10
-25.99998474121094
 20
56.00000381469727
 11
-25.99998474121094
 21
26.00000381469727
  0
LINE
  5
174
100
AcDbEntity
  8
0
  6
CONTINUOUS
 62
     7
100
AcDbLine
 10
-15
 20
76
 11
-15
 21
67
  0
LINE
  5
175
100
AcDbEntity
  8
0
  6
CONTINUOUS
 62
     7
100
AcDbLine
 10
-7.499997637859996
 20
1.499999932181745
 11
-5.999997705678251
 21
0
  0
LINE
  5
176
100
AcDbEntity
  8
0
  6
CONTINUOUS
 62
     7
100
AcDbLine
 10
1.500001131669815
 20
2.999999355943327
 11
7.49999899056423
 21
4.26496119754205e-007
  0
LINE
  5
177
100
AcDbEntity
  8
0
  6
CONTINUOUS
 62
     7
100
AcDbLine
 10
-7.499997615814209
 20
1.499999642372131
 11
1.500000596046448
 21
1.499999642372131
  0
LINE
  5
178
100
AcDbEntity
  8
0
  6
CONTINUOUS
 62
     7
100
AcDbLine
 10
-5.999997615814209
 20
-1.4210854715202e-014
 11
7.499999046325684
 21
-1.4210854715202e-014
  0
LINE
  5
179
100
AcDbEntity
  8
0
  6
CONTINUOUS
 62
     7
100
AcDbLine
 10
1.500000596046448
 20
2.999999284744263
 11
1.500000596046448
 21
1.499999642372131
  0
LINE
  5
17a
100
AcDbEntity
  8
0
  6
CONTINUOUS
 62
     7
100
AcDbLine
 10
30
 20
25.9999942779541
 11
30
 21
-21.99999809265137
  0
LINE
  5
17b
100
AcDbEntity
  8
0
  6
CONTINUOUS
 62
     7
100
AcDbLine
 10
40
 20
25.9999942779541
 11
40
 21
22.00000762939453
  0
LINE
  5
17c
100
AcDbEntity
  8
0
  6
CONTINUOUS
 62
     7
100
AcDbLine
 10
-40
 20
25.9999942779541
 11
-40
 21
22.00000762939453
  0
LINE
  5
17d
100
AcDbEntity
  8
0
  6
CONTINUOUS
 62
     7
100
AcDbLine
 10
-49.99998092651367
 20
-13.5967493057251
 11
-30
 21
-13.5967493057251
  0
LINE
  5
17e
100
AcDbEntity
  8
0
  6
CONTINUOUS
 62
     7
100
AcDbLine
 10
-49.99998092651367
 20
13.59675407409668
 11
-30
 21
13.59675407409668
  0
LINE
  5
17f
100
AcDbEntity
  8
0
  6
CONTINUOUS
 62
     7
100
AcDbLine
 10
30
 20
13.59675407409668
 11
50.00001907348633
 21
13.59675407409668
  0
LINE
  5
180
100
AcDbEntity
  8
0
  6
CONTINUOUS
 62
     7
100
AcDbLine
 10
30
 20
-13.5967493057251
 11
50.00001907348633
 21
-13.5967493057251
  0
LINE
  5
181
100
AcDbEntity
  8
0
  6
CONTINUOUS
 62
     7
100
AcDbLine
 10
25.99989891052246
 20
84.99999237060547
 11
-26.00005149841309
 21
84.99999237060547
  0
LINE
  5
182
100
AcDbEntity
  8
0
  6
CONTINUOUS
 62
     7
100
AcDbLine
 10
-26.00000381469727
 20
122.9999923706055
 11
-26.00000381469727
 21
76.00001525878906
  0
LINE
  5
183
100
AcDbEntity
  8
0
  6
CONTINUOUS
 62
     7
100
AcDbLine
 10
-27.00007751286073
 20
89.74996675253007
 11
-26.00007141828585
 21
88.99996216297234
  0
LINE
  5
184
100
AcDbEntity
  8
0
  6
CONTINUOUS
 62
     7
100
AcDbLine
 10
-27.00006484985352
 20
108.2500076293945
 11
-27.00006484985352
 21
89.74996185302734
  0
LINE
  5
185
100
AcDbEntity
  8
0
  6
CONTINUOUS
 62
     7
100
AcDbLine
 10
-26.00012642145092
 20
108.9999478101715
 11
-27.00012641251021
 21
108.2499477982506
  0
LINE
  5
186
100
AcDbEntity
  8
0
  6
DASHED
 62
     7
100
AcDbLine
 10
-19.70008468627929
 20
105.5055554276302
 11
-27.00006490144123
 21
105.7604763420953
  0
LINE
  5
187
100
AcDbEntity
  8
0
  6
DASHED
 62
     7
100
AcDbLine
 10
-19.70008468627929
 20
104.6490384824756
 11
-27.00008591060343
 21
104.9039601305968
  0
LINE
  5
188
100
AcDbEntity
  8
0
  6
CENTER
 62
     3
100
AcDbLine
 10
-27.93154144287109
 20
98.99997711181641
 11
-19.7000846862793
 21
98.99997711181641
  0
LINE
  5
189
100
AcDbEntity
  8
0
  6
DASHED
 62
     7
100
AcDbLine
 10
-19.70008468627929
 20
92.49441717890653
 11
-27.00006494015666
 21
92.23949626308942
  0
LINE
  5
18a
100
AcDbEntity
  8
0
  6
DASHED
 62
     7
100
AcDbLine
 10
-19.7000846862793
 20
93.35097229428602
 11
-27.0000567816413
 21
93.09605166337053
  0
LINE
  5
18b
100
AcDbEntity
  8
0
  6
CONTINUOUS
 62
     7
100
AcDbLine
 10
-18.7000846862793
 20
108.6999893188477
 11
-18.7000846862793
 21
90.29996490478516
  0
LINE
  5
18c
100
AcDbEntity
  8
0
  6
CONTINUOUS
 62
     7
100
AcDbLine
 10
18.69997024536133
 20
108.6999893188477
 11
-18.7000846862793
 21
108.6999893188477
  0
LINE
  5
18d
100
AcDbEntity
  8
0
  6
CONTINUOUS
 62
     7
100
AcDbLine
 10
18.69997024536133
 20
108.6999893188477
 11
18.69997024536133
 21
90.29996490478516
  0
LINE
  5
18e
100
AcDbEntity
  8
0
  6
CONTINUOUS
 62
     7
100
AcDbLine
 10
18.69997024536133
 20
90.29996490478516
 11
-18.7000846862793
 21
90.29996490478516
  0
LINE
  5
18f
100
AcDbEntity
  8
0
  6
CONTINUOUS
 62
     7
100
AcDbLine
 10
-7.0001220703125
 20
96.99998474121094
 11
-7.0001220703125
 21
90.29996490478516
  0
LINE
  5
190
100
AcDbEntity
  8
0
  6
CENTER
 62
     3
100
AcDbLine
 10
5.000004291534424
 20
96.99996948242188
 11
-5.000004291534424
 21
96.99996948242188
  0
LINE
  5
191
100
AcDbEntity
  8
0
  6
CONTINUOUS
 62
     7
100
AcDbLine
 10
-2.5
 20
98.44161987304688
 11
-2.5
 21
95.55835723876953
  0
LINE
  5
192
100
AcDbEntity
  8
0
  6
CONTINUOUS
 62
     7
100
AcDbLine
 10
-2.500059553643652
 20
98.44158746686759
 11
-8.118653085631422e-005
 21
99.88495067599422
  0
LINE
  5
193
100
AcDbEntity
  8
0
  6
CONTINUOUS
 62
     7
100
AcDbLine
 10
-7.868348453854424e-005
 20
99.88496368999819
 11
2.499919505376603
 21
98.4415890367796
  0
LINE
  5
194
100
AcDbEntity
  8
0
  6
CONTINUOUS
 62
     7
100
AcDbLine
 10
2.5
 20
98.44161987304688
 11
2.5
 21
95.55835723876953
  0
LINE
  5
195
100
AcDbEntity
  8
0
  6
CONTINUOUS
 62
     7
100
AcDbLine
 10
-0.000120359946578219
 20
94.11492277881627
 11
2.499963723157414
 21
95.55834702309997
  0
LINE
  5
196
100
AcDbEntity
  8
0
  6
CONTINUOUS
 62
     7
100
AcDbLine
 10
-2.500091579070748
 20
95.55832393442115
 11
-9.339020960652533e-005
 21
94.11494928120257
  0
LINE
  5
197
100
AcDbEntity
  8
0
  6
CONTINUOUS
 62
     7
100
AcDbLine
 10
6.999988555908203
 20
96.99998474121094
 11
6.999988555908203
 21
90.29996490478516
  0
LINE
  5
198
100
AcDbEntity
  8
0
  6
CONTINUOUS
 62
     7
100
AcDbLine
 10
25.99998474121094
 20
122.9999923706055
 11
25.99998474121094
 21
76.00001525878906
  0
LINE
  5
199
100
AcDbEntity
  8
0
  6
CONTINUOUS
 62
     7
100
AcDbLine
 10
28.99999618530273
 20
88.49996185302734
 11
25.99989891052246
 21
88.49996185302734
  0
LINE
  5
19a
100
AcDbEntity
  8
0
  6
CONTINUOUS
 62
     7
100
AcDbLine
 10
28.99999618530273
 20
115.4999923706055
 11
28.99999618530273
 21
88.49996185302734
  0
LINE
  5
19b
100
AcDbEntity
  8
0
  6
CONTINUOUS
 62
     7
100
AcDbLine
 10
25.99997901916504
 20
115.9999618530273
 11
-26.00000381469727
 21
115.9999618530273
  0
LINE
  5
19c
100
AcDbEntity
  8
0
  6
CENTER
 62
     3
100
AcDbLine
 10
-22.00004577636719
 20
128.3968658447266
 11
-22.00004577636719
 21
122.9999923706055
  0
LINE
  5
19d
100
AcDbEntity
  8
0
  6
CONTINUOUS
 62
     7
100
AcDbLine
 10
28.99999618530273
 20
115.4999923706055
 11
25.99989891052246
 21
115.4999923706055
  0
LINE
  5
19e
100
AcDbEntity
  8
0
  6
CONTINUOUS
 62
     7
100
AcDbLine
 10
25.99996507334103
 20
122.9999634931399
 11
24.99998070623564
 21
167
  0
LINE
  5
19f
100
AcDbEntity
  8
0
  6
CONTINUOUS
 62
     7
100
AcDbLine
 10
25.99997901916504
 20
122.9999923706055
 11
17.49920845783479
 21
122.9999923706055
  0
LINE
  5
1a0
100
AcDbEntity
  8
0
  6
CONTINUOUS
 62
     7
100
AcDbLine
 10
16.50051072820277
 20
167
 11
17.49920845783479
 21
122.9999923706055
  0
LINE
  5
1a1
100
AcDbEntity
  8
0
  6
CONTINUOUS
 62
     7
100
AcDbLine
 10
-26.00000381469727
 20
122.9999923706055
 11
-17.49937443990501
 21
122.9999923706055
  0
LINE
  5
1a2
100
AcDbEntity
  8
0
  6
CONTINUOUS
 62
     7
100
AcDbLine
 10
-25.99997428514207
 20
122.9999914591
 11
-24.99997145284362
 21
167.0000000000001
  0
LINE
  5
1a3
100
AcDbEntity
  8
0
  6
CONTINUOUS
 62
     7
100
AcDbLine
 10
-25.5000114440918
 20
123.9999771118164
 11
-18.50000381469727
 21
123.9999771118164
  0
LINE
  5
1a4
100
AcDbEntity
  8
0
  6
CONTINUOUS
 62
     7
100
AcDbLine
 10
-25.5000114440918
 20
125.2999877929688
 11
-25.5000114440918
 21
122.9999923706055
  0
LINE
  5
1a5
100
AcDbEntity
  8
0
  6
CONTINUOUS
 62
     7
100
AcDbLine
 10
-18.50000381469727
 20
125.2999877929688
 11
-18.50000381469727
 21
122.9999923706055
  0
LINE
  5
1a6
100
AcDbEntity
  8
0
  6
CONTINUOUS
 62
     7
100
AcDbLine
 10
-16.50067671027299
 20
167
 11
-17.499374439905
 21
122.9999923706055
  0
LINE
  5
1a7
100
AcDbEntity
  8
0
  6
CONTINUOUS
 62
     7
100
AcDbLine
 10
-24.99997145284361
 20
167
 11
24.99998070623565
 21
167
  0
LINE
  5
1a8
100
AcDbEntity
  8
0
  6
DASHED
 62
     7
100
AcDbLine
 10
-49.99998009459732
 20
-16.50000003592093
 11
-33.99998040737312
 21
-16.16484781219753
  0
LINE
  5
1a9
100
AcDbEntity
  8
0
  6
DASHED
 62
     7
100
AcDbLine
 10
-49.99997969120926
 20
15.10000140289738
 11
-33.99998000398507
 21
14.76484917917398
  0
LINE
  5
1aa
100
AcDbEntity
  8
0
  6
DASHED
 62
     7
100
AcDbLine
 10
-49.99997963129252
 20
-15.10000426329286
 11
-33.99997994406833
 21
-14.76485203956946
  0
LINE
  5
1ab
100
AcDbEntity
  8
0
  6
DASHED
 62
     7
100
AcDbLine
 10
49.99998027434756
 20
16.49999145473449
 11
33.99997677326272
 21
16.1648391511221
  0
LINE
  5
1ac
100
AcDbEntity
  8
0
  6
DASHED
 62
     7
100
AcDbLine
 10
49.99997218332148
 20
15.09999552232843
 11
33.99998012381856
 21
14.76484345838302
  0
LINE
  5
1ad
100
AcDbEntity
  8
0
  6
DASHED
 62
     7
100
AcDbLine
 10
-49.99998015451406
 20
16.49999717552545
 11
-33.99998046728987
 21
16.16484495180205
  0
LINE
  5
1ae
100
AcDbEntity
  8
0
  6
DASHED
 62
     7
100
AcDbLine
 10
49.99997571757064
 20
-15.10000895072966
 11
33.99997603034644
 21
-14.76485672700626
  0
LINE
  5
1af
100
AcDbEntity
  8
0
  6
CENTER
 62
     3
100
AcDbLine
 10
-7.2320556640625
 20
21.9999942779541
 11
6.615738391876221
 21
21.9999942779541
  0
LINE
  5
1b0
100
AcDbEntity
  8
0
  6
DASHED
 62
     7
100
AcDbLine
 10
49.99997630070892
 20
-16.49999900256678
 11
33.99998042734537
 21
-16.16484685873237
  0
LINE
  5
1b1
100
AcDbEntity
  8
0
  6
CENTER
 62
     3
100
AcDbLine
 10
103.1492309570313
 20
101.9999694824219
 11
25.9998722076416
 21
101.9999694824219
  0
LINE
  5
1b2
100
AcDbEntity
  8
0
  6
CONTINUOUS
 62
     7
100
AcDbLine
 10
31.9999885559082
 20
112.4999694824219
 11
28.99999237060547
 21
112.4999694824219
  0
LINE
  5
1b3
100
AcDbEntity
  8
0
  6
CONTINUOUS
 62
     7
100
AcDbLine
 10
28.99999147706026
 20
111.2999590151341
 11
31.07846036551608
 21
112.4999636089243
  0
LINE
  5
1b4
100
AcDbEntity
  8
0
  6
CONTINUOUS
 62
     7
100
AcDbLine
 10
31.9999885559082
 20
118.9999694824219
 11
31.9999885559082
 21
87.99996948242188
  0
LINE
  5
1b5
100
AcDbEntity
  8
0
  6
CONTINUOUS
 62
     7
100
AcDbLine
 10
99.99998474121094
 20
115.9999694824219
 11
31.9999885559082
 21
115.9999694824219
  0
LINE
  5
1b6
100
AcDbEntity
  8
0
  6
CONTINUOUS
 62
     7
100
AcDbLine
 10
77.99998474121094
 20
116.9999694824219
 11
31.9999885559082
 21
116.9999694824219
  0
LINE
  5
1b7
100
AcDbEntity
  8
0
  6
CONTINUOUS
 62
     7
100
AcDbLine
 10
77.99998474121094
 20
118.9999694824219
 11
31.9999885559082
 21
118.9999694824219
  0
LINE
  5
1b8
100
AcDbEntity
  8
0
  6
CONTINUOUS
 62
     7
100
AcDbLine
 10
32.99999105387662
 20
118.9999724663919
 11
33.99999061697507
 21
124.9999694824219
  0
LINE
  5
1b9
100
AcDbEntity
  8
0
  6
CONTINUOUS
 62
     7
100
AcDbLine
 10
75.99998494876701
 20
124.9999694824219
 11
33.99999061697507
 21
124.9999694824219
  0
LINE
  5
1ba
100
AcDbEntity
  8
0
  6
CONTINUOUS
 62
     7
100
AcDbLine
 10
41.99998333595765
 20
118.999966420444
 11
42.99998390671414
 21
124.9999694824219
  0
LINE
  5
1bb
100
AcDbEntity
  8
0
  6
CENTER
 62
     3
100
AcDbLine
 10
54.9999885559082
 20
127.1227951049805
 11
54.9999885559082
 21
86.47079467773438
  0
LINE
  5
1bc
100
AcDbEntity
  8
0
  6
CONTINUOUS
 62
     7
100
AcDbLine
 10
28.99999644777096
 20
92.69995911027385
 11
31.07845212172787
 21
91.4999621458783
  0
LINE
  5
1bd
100
AcDbEntity
  8
0
  6
CONTINUOUS
 62
     7
100
AcDbLine
 10
31.9999885559082
 20
91.49996948242188
 11
28.99999237060547
 21
91.49996948242188
  0
LINE
  5
1be
100
AcDbEntity
  8
0
  6
CONTINUOUS
 62
     7
100
AcDbLine
 10
99.99998474121094
 20
87.99996948242188
 11
31.9999885559082
 21
87.99996948242188
  0
LINE
  5
1bf
100
AcDbEntity
  8
0
  6
CONTINUOUS
 62
     7
100
AcDbLine
 10
40.9999885559082
 20
110.9999694824219
 11
40.9999885559082
 21
87.99996948242188
  0
LINE
  5
1c0
100
AcDbEntity
  8
0
  6
CONTINUOUS
 62
     7
100
AcDbLine
 10
68.99998474121094
 20
110.9999694824219
 11
68.99998474121094
 21
87.99996948242188
  0
LINE
  5
1c1
100
AcDbEntity
  8
0
  6
CONTINUOUS
 62
     7
100
AcDbLine
 10
77.99998474121094
 20
118.9999694824219
 11
77.99998474121094
 21
87.99996948242188
  0
LINE
  5
1c2
100
AcDbEntity
  8
0
  6
CONTINUOUS
 62
     7
100
AcDbLine
 10
99.99998474121094
 20
115.9999694824219
 11
99.99998474121094
 21
87.99996948242188
  0
LINE
  5
1c3
100
AcDbEntity
  8
0
  6
DASHED
 62
     7
100
AcDbLine
 10
99.99998474121094
 20
112.4999694824219
 11
84.99998474121094
 21
112.4999694824219
  0
LINE
  5
1c4
100
AcDbEntity
  8
0
  6
DASHED
 62
     7
100
AcDbLine
 10
99.99998474121094
 20
111.2999649047852
 11
84.99998474121094
 21
111.2999649047852
  0
LINE
  5
1c5
100
AcDbEntity
  8
0
  6
DASHED
 62
     7
100
AcDbLine
 10
99.99998474121094
 20
92.69996643066406
 11
84.99998474121094
 21
92.69996643066406
  0
LINE
  5
1c6
100
AcDbEntity
  8
0
  6
DASHED
 62
     7
100
AcDbLine
 10
99.99998474121094
 20
91.49996948242188
 11
84.99998474121094
 21
91.49996948242188
  0
LINE
  5
1c7
100
AcDbEntity
  8
0
  6
CONTINUOUS
 62
     7
100
AcDbLine
 10
75.99998474121094
 20
99.99996948242188
 11
68.99998474121094
 21
99.99996948242188
  0
LINE
  5
1c8
100
AcDbEntity
  8
0
  6
CONTINUOUS
 62
     7
100
AcDbLine
 10
75.99998474121094
 20
110.9999694824219
 11
75.99998474121094
 21
99.99996948242188
  0
LINE
  5
1c9
100
AcDbEntity
  8
0
  6
CONTINUOUS
 62
     7
100
AcDbLine
 10
77.99998474121094
 20
110.9999694824219
 11
31.9999885559082
 21
110.9999694824219
  0
LINE
  5
1ca
100
AcDbEntity
  8
0
  6
CONTINUOUS
 62
     7
100
AcDbLine
 10
33.9999885559082
 20
110.9999694824219
 11
33.9999885559082
 21
99.99996948242188
  0
LINE
  5
1cb
100
AcDbEntity
  8
0
  6
CONTINUOUS
 62
     7
100
AcDbLine
 10
40.9999885559082
 20
99.99996948242188
 11
33.9999885559082
 21
99.99996948242188
  0
LINE
  5
1cc
100
AcDbEntity
  8
0
  6
CONTINUOUS
 62
     7
100
AcDbLine
 10
67.99998149340894
 20
118.9999728289525
 11
66.99998199073725
 21
124.9999694824219
  0
LINE
  5
1cd
100
AcDbEntity
  8
0
  6
CONTINUOUS
 62
     7
100
AcDbLine
 10
76.99998443674026
 20
118.999972917143
 11
75.99998494876701
 21
124.9999694824219
  0
LINE
  5
1ce
100
AcDbEntity
  8
0
  6
CENTER
 62
     3
100
AcDbLine
 10
22.00004577636719
 20
128.3968658447266
 11
22.00004577636719
 21
122.9999923706055
  0
LINE
  5
1cf
100
AcDbEntity
  8
0
  6
CONTINUOUS
 62
     7
100
AcDbLine
 10
25.5000114440918
 20
123.9999771118164
 11
18.50000381469727
 21
123.9999771118164
  0
LINE
  5
1d0
100
AcDbEntity
  8
0
  6
CONTINUOUS
 62
     7
100
AcDbLine
 10
25.5000114440918
 20
125.2999877929688
 11
25.5000114440918
 21
122.9999923706055
  0
LINE
  5
1d1
100
AcDbEntity
  8
0
  6
CONTINUOUS
 62
     7
100
AcDbLine
 10
18.50000381469727
 20
125.2999877929688
 11
18.50000381469727
 21
122.9999923706055
  0
LINE
  5
1d2
100
AcDbEntity
  8
0
  6
CONTINUOUS
 62
     7
100
AcDbLine
 10
-27.99999237060547
 20
74.5
 11
-27.99999237060547
 21
67
  0
LINE
  5
1d3
100
AcDbEntity
  8
0
  6
CONTINUOUS
 62
     7
100
AcDbLine
 10
17.99999237060547
 20
74.5
 11
17.99999237060547
 21
67
  0
LINE
  5
1d4
100
AcDbEntity
  8
0
  6
CONTINUOUS
 62
     7
100
AcDbLine
 10
17.99999237060547
 20
74.5
 11
27.99999237060547
 21
74.5
  0
LINE
  5
1d5
100
AcDbEntity
  8
0
  6
CONTINUOUS
 62
     7
100
AcDbLine
 10
15
 20
67
 11
29.99998092651367
 21
67
  0
LINE
  5
1d6
100
AcDbEntity
  8
0
  6
CONTINUOUS
 62
     7
100
AcDbLine
 10
27.99999237060547
 20
74.5
 11
27.99999237060547
 21
67
  0
LINE
  5
1d7
100
AcDbEntity
  8
0
  6
CONTINUOUS
 62
     7
100
AcDbLine
 10
15
 20
76
 11
15
 21
67
  0
LINE
  5
1d8
100
AcDbEntity
  8
0
  6
CONTINUOUS
 62
     7
100
AcDbLine
 10
17.99999237060547
 20
68.5
 11
27.99999237060547
 21
68.5
  0
LINE
  5
1d9
100
AcDbEntity
  8
0
  6
CONTINUOUS
 62
     7
100
AcDbLine
 10
34.49994659423828
 20
121.2999649047852
 11
34.49994659423828
 21
118.9999694824219
  0
LINE
  5
1da
100
AcDbEntity
  8
0
  6
CENTER
 62
     3
100
AcDbLine
 10
37.9999885559082
 20
124.396842956543
 11
37.9999885559082
 21
118.9999694824219
  0
LINE
  5
1db
100
AcDbEntity
  8
0
  6
CONTINUOUS
 62
     7
100
AcDbLine
 10
41.49995422363281
 20
119.9999542236328
 11
34.49994659423828
 21
119.9999542236328
  0
LINE
  5
1dc
100
AcDbEntity
  8
0
  6
CONTINUOUS
 62
     7
100
AcDbLine
 10
41.49995422363281
 20
121.2999649047852
 11
41.49995422363281
 21
118.9999694824219
  0
LINE
  5
1dd
100
AcDbEntity
  8
0
  6
CONTINUOUS
 62
     7
100
AcDbLine
 10
68.49994277954102
 20
121.2999649047852
 11
68.49994277954102
 21
118.9999694824219
  0
LINE
  5
1de
100
AcDbEntity
  8
0
  6
CONTINUOUS
 62
     7
100
AcDbLine
 10
75.49995040893555
 20
121.2999649047852
 11
75.49995040893555
 21
118.9999694824219
  0
LINE
  5
1df
100
AcDbEntity
  8
0
  6
CENTER
 62
     3
100
AcDbLine
 10
71.99998474121094
 20
124.396842956543
 11
71.99998474121094
 21
118.9999694824219
  0
LINE
  5
1e0
100
AcDbEntity
  8
0
  6
CONTINUOUS
 62
     7
100
AcDbLine
 10
75.49995040893555
 20
119.9999542236328
 11
68.49994277954102
 21
119.9999542236328
  0
ARC
  5
1e1
100
AcDbEntity
  8
0
  6
CONTINUOUS
 62
     7
100
AcDbCircle
 10
0
 20
96.99996948242188
 40
7.000005722045898
100
AcDbArc
 50
0
 51
180.0000186693354
  0
CIRCLE
  5
1e2
100
AcDbEntity
  8
0
  6
CONTINUOUS
 62
     7
100
AcDbCircle
 10
0
 20
96.99996948242188
 40
5.000004291534424
  0
CIRCLE
  5
1e3
100
AcDbEntity
  8
0
  6
CONTINUOUS
 62
     7
100
AcDbCircle
 10
0
 20
96.99996948242188
 40
4.250003337860107
  0
CIRCLE
  5
1e4
100
AcDbEntity
  8
0
  6
CONTINUOUS
 62
     7
100
AcDbCircle
 10
0
 20
21.9999942779541
 40
2.950000047683716
  0
ARC
  5
1e5
100
AcDbEntity
  8
0
  6
CONTINUOUS
 62
     7
100
AcDbCircle
 10
-22.00000762939453
 20
121.2384831132651
 40
5.361515360991737
100
AcDbArc
 50
49.24686302497598
 51
130.753136975024
  0
ARC
  5
1e6
100
AcDbEntity
  8
0
  6
CONTINUOUS
 62
     7
100
AcDbCircle
 10
22.00000762939453
 20
121.2384831132651
 40
5.361515360991737
100
AcDbArc
 50
49.24686302497602
 51
130.753136975024
  0
ARC
  5
1e7
100
AcDbEntity
  8
0
  6
CONTINUOUS
 62
     7
100
AcDbCircle
 10
37.99995040893555
 20
117.2384602250815
 40
5.361515360991737
100
AcDbArc
 50
49.24686302497604
 51
130.753136975024
  0
ARC
  5
1e8
100
AcDbEntity
  8
0
  6
CONTINUOUS
 62
     7
100
AcDbCircle
 10
71.99994659423828
 20
117.2384602250815
 40
5.361515360991737
100
AcDbArc
 50
49.24686302497598
 51
130.753136975024
  0
MTEXT
  5
1e9
100
AcDbEntity
  8
0
  6
CONTINUOUS
 62
     7
100
AcDbMText
 10
-14.23900924623013
 20
155.8185424804688
 40
0.5
 41
36
 71
     7
 72
     1
  1
{\W0.8426;ＢＮ－５ＢＰ２１－２５－Ｇ／Ｈ＊＊＊}
  0
INSERT
  5
1ea
100
AcDbEntity
  8
0
  6
CONTINUOUS
 62
     7
100
AcDbBlockReference
  2
KOZU0007
 10
0
 20
0
  0
ENDBLK
  8
0
  5
1eb
100
AcDbEntity
100
AcDbBlockEnd
  0
BLOCK
  8
0
  5
1ec
100
AcDbEntity
100
AcDbBlockBegin
  2
KOZU0002
 70
    64
 10
0
 20
0
  0
POINT
  5
1ed
100
AcDbEntity
  8
0
  6
CONTINUOUS
 62
     7
100
AcDbPoint
 10
0
 20
0
  0
LINE
  5
1ee
100
AcDbEntity
  8
0
  6
CONTINUOUS
 62
     7
100
AcDbLine
 10
-23
 20
30.00001907348633
 11
23.00000190734863
 21
30.00001907348633
  0
LINE
  5
1ef
100
AcDbEntity
  8
0
  6
CENTER
 62
     3
100
AcDbLine
 10
-53.64030838012695
 20
0
 11
103.4249954223633
 21
0
  0
LINE
  5
1f0
100
AcDbEntity
  8
0
  6
CONTINUOUS
 62
     7
100
AcDbLine
 10
-50
 20
21.9999885559082
 11
-30
 21
21.9999885559082
  0
LINE
  5
1f1
100
AcDbEntity
  8
0
  6
CONTINUOUS
 62
     7
100
AcDbLine
 10
-50
 20
-22.00000762939453
 11
-30
 21
-22.00000762939453
  0
LINE
  5
1f2
100
AcDbEntity
  8
0
  6
CONTINUOUS
 62
     7
100
AcDbLine
 10
-26.00000381469727
 20
-21.00002288818359
 11
-26.00000381469727
 21
20.99996566772461
  0
LINE
  5
1f3
100
AcDbEntity
  8
0
  6
CONTINUOUS
 62
     7
100
AcDbLine
 10
25.99996566772461
 20
20.99996566772461
 11
-26.00000381469727
 21
20.99996566772461
  0
LINE
  5
1f4
100
AcDbEntity
  8
0
  6
CONTINUOUS
 62
     3
100
AcDbLine
 10
-23.44954703420047
 20
17.4495249761513
 11
-20.55043703990132
 21
14.55041547060551
  0
LINE
  5
1f5
100
AcDbEntity
  8
0
  6
CONTINUOUS
 62
     3
100
AcDbLine
 10
-20.55039682330457
 20
17.44953870752291
 11
-23.44953330283113
 21
14.55040173923844
  0
LINE
  5
1f6
100
AcDbEntity
  8
0
  6
CONTINUOUS
 62
     7
100
AcDbLine
 10
-17.5
 20
20.99996566772461
 11
-17.5
 21
11.49999618530273
  0
LINE
  5
1f7
100
AcDbEntity
  8
0
  6
CONTINUOUS
 62
     7
100
AcDbLine
 10
-17.5
 20
11.49999618530273
 11
-26.00000381469727
 21
11.49999618530273
  0
LINE
  5
1f8
100
AcDbEntity
  8
0
  6
CONTINUOUS
 62
     7
100
AcDbLine
 10
-26.00000381469727
 20
9.200019836425781
 11
25.99996566772461
 21
9.200019836425781
  0
LINE
  5
1f9
100
AcDbEntity
  8
0
  6
CONTINUOUS
 62
     7
100
AcDbLine
 10
-26.00001540184091
 20
9.9999708652404
 11
-26.99998318557969
 21
9.249991488518537
  0
LINE
  5
1fa
100
AcDbEntity
  8
0
  6
CONTINUOUS
 62
     7
100
AcDbLine
 10
-27.00000762939453
 20
9.249992370605469
 11
-27.00000762939453
 21
-9.250030517578125
  0
LINE
  5
1fb
100
AcDbEntity
  8
0
  6
CONTINUOUS
 62
     7
100
AcDbLine
 10
-26.00000381469727
 20
6.799983978271484
 11
25.99996566772461
 21
6.799983978271484
  0
LINE
  5
1fc
100
AcDbEntity
  8
0
  6
CONTINUOUS
 62
     7
100
AcDbLine
 10
-5
 20
26.7500114440918
 11
-5
 21
25.7499885559082
  0
LINE
  5
1fd
100
AcDbEntity
  8
0
  6
CONTINUOUS
 62
     7
100
AcDbLine
 10
-5
 20
26.7500114440918
 11
5
 21
26.7500114440918
  0
LINE
  5
1fe
100
AcDbEntity
  8
0
  6
CONTINUOUS
 62
     7
100
AcDbLine
 10
-5
 20
25.7499885559082
 11
5
 21
25.7499885559082
  0
LINE
  5
1ff
100
AcDbEntity
  8
0
  6
PHANTOM
 62
     7
100
AcDbLine
 10
-4.499969482421875
 20
25.7499885559082
 11
-4.499969482421875
 21
20.99996566772461
  0
LINE
  5
200
100
AcDbEntity
  8
0
  6
CENTER
 62
     3
100
AcDbLine
 10
-4.250011444091797
 20
25.7499885559082
 11
-4.250011444091797
 21
20.99996566772461
  0
LINE
  5
201
100
AcDbEntity
  8
0
  6
PHANTOM
 62
     7
100
AcDbLine
 10
-4.000015258789063
 20
25.7499885559082
 11
-4.000015258789063
 21
20.99996566772461
  0
LINE
  5
202
100
AcDbEntity
  8
0
  6
CONTINUOUS
 62
     7
100
AcDbLine
 10
-3.849945068359375
 20
25.7499885559082
 11
-3.849945068359375
 21
20.99996566772461
  0
LINE
  5
203
100
AcDbEntity
  8
0
  6
PHANTOM
 62
     7
100
AcDbLine
 10
3.999996185302734
 20
25.5000114440918
 11
3.999996185302734
 21
20.99996566772461
  0
LINE
  5
204
100
AcDbEntity
  8
0
  6
CENTER
 62
     3
100
AcDbLine
 10
4.250030517578125
 20
25.7499885559082
 11
4.250030517578125
 21
20.99996566772461
  0
LINE
  5
205
100
AcDbEntity
  8
0
  6
PHANTOM
 62
     7
100
AcDbLine
 10
4.499988555908203
 20
25.5000114440918
 11
4.499988555908203
 21
20.99996566772461
  0
LINE
  5
206
100
AcDbEntity
  8
0
  6
CONTINUOUS
 62
     7
100
AcDbLine
 10
5
 20
26.7500114440918
 11
5
 21
25.7499885559082
  0
LINE
  5
207
100
AcDbEntity
  8
0
  6
CONTINUOUS
 62
     7
100
AcDbLine
 10
3.85009765625
 20
25.7499885559082
 11
3.85009765625
 21
20.99996566772461
  0
LINE
  5
208
100
AcDbEntity
  8
0
  6
CONTINUOUS
 62
     7
100
AcDbLine
 10
-26.00000381469727
 20
5.200004577636719
 11
25.99996566772461
 21
5.200004577636719
  0
LINE
  5
209
100
AcDbEntity
  8
0
  6
CONTINUOUS
 62
     7
100
AcDbLine
 10
-26.00000381469727
 20
2.79998779296875
 11
25.99996566772461
 21
2.79998779296875
  0
LINE
  5
20a
100
AcDbEntity
  8
0
  6
CONTINUOUS
 62
     7
100
AcDbLine
 10
-26.00000381469727
 20
-1.200046539306641
 11
25.99996566772461
 21
-1.200046539306641
  0
LINE
  5
20b
100
AcDbEntity
  8
0
  6
CONTINUOUS
 62
     7
100
AcDbLine
 10
-26.00000381469727
 20
1.199989318847656
 11
25.99996566772461
 21
1.199989318847656
  0
LINE
  5
20c
100
AcDbEntity
  8
0
  6
CONTINUOUS
 62
     7
100
AcDbLine
 10
-26.00000381469727
 20
-2.800025939941406
 11
25.99996566772461
 21
-2.800025939941406
  0
LINE
  5
20d
100
AcDbEntity
  8
0
  6
CONTINUOUS
 62
     7
100
AcDbLine
 10
-26.00000855931285
 20
-9.999981713324058
 11
-27.00000602909002
 21
-9.249978339705473
  0
LINE
  5
20e
100
AcDbEntity
  8
0
  6
CONTINUOUS
 62
     7
100
AcDbLine
 10
-26.00000381469727
 20
-5.200004577636719
 11
25.99996566772461
 21
-5.200004577636719
  0
LINE
  5
20f
100
AcDbEntity
  8
0
  6
CONTINUOUS
 62
     7
100
AcDbLine
 10
-26.00000381469727
 20
-6.800022125244141
 11
25.99996566772461
 21
-6.800022125244141
  0
LINE
  5
210
100
AcDbEntity
  8
0
  6
CONTINUOUS
 62
     7
100
AcDbLine
 10
-26.00000381469727
 20
-9.200019836425781
 11
25.99996566772461
 21
-9.200019836425781
  0
LINE
  5
211
100
AcDbEntity
  8
0
  6
CONTINUOUS
 62
     7
100
AcDbLine
 10
-17.5
 20
-11.50003433227539
 11
-26.00000762939453
 21
-11.50003433227539
  0
LINE
  5
212
100
AcDbEntity
  8
0
  6
CONTINUOUS
 62
     7
100
AcDbLine
 10
-17.5
 20
-21.00002288818359
 11
-17.5
 21
-11.50003433227539
  0
LINE
  5
213
100
AcDbEntity
  8
0
  6
CONTINUOUS
 62
     3
100
AcDbLine
 10
-23.44954366244878
 20
-14.55051965761347
 11
-20.55043366814963
 21
-17.44962916315925
  0
LINE
  5
214
100
AcDbEntity
  8
0
  6
CONTINUOUS
 62
     3
100
AcDbLine
 10
-20.55039345155516
 20
-14.5504789522588
 11
-23.44952993108171
 21
-17.44961592054327
  0
LINE
  5
215
100
AcDbEntity
  8
0
  6
CONTINUOUS
 62
     7
100
AcDbLine
 10
25.99996566772461
 20
-21.00002288818359
 11
-26.00000381469727
 21
-21.00002288818359
  0
LINE
  5
216
100
AcDbEntity
  8
0
  6
CONTINUOUS
 62
     7
100
AcDbLine
 10
25.99996566772461
 20
20.99996566772461
 11
25.99996566772461
 21
-21.00002288818359
  0
LINE
  5
217
100
AcDbEntity
  8
0
  6
CONTINUOUS
 62
     3
100
AcDbLine
 10
23.44968840324103
 20
-14.55048940467027
 11
20.55055192371448
 21
-17.44962637295474
  0
LINE
  5
218
100
AcDbEntity
  8
0
  6
CONTINUOUS
 62
     3
100
AcDbLine
 10
20.55052470535248
 20
-14.5504896490515
 11
23.44963469965163
 21
-17.44959915459728
  0
LINE
  5
219
100
AcDbEntity
  8
0
  6
CONTINUOUS
 62
     7
100
AcDbLine
 10
17.5
 20
-11.50003433227539
 11
25.99996566772461
 21
-11.50003433227539
  0
LINE
  5
21a
100
AcDbEntity
  8
0
  6
CONTINUOUS
 62
     7
100
AcDbLine
 10
17.5
 20
-20.90002059936523
 11
17.5
 21
-11.50003433227539
  0
LINE
  5
21b
100
AcDbEntity
  8
0
  6
CONTINUOUS
 62
     7
100
AcDbLine
 10
28.99993896484375
 20
-13.50002288818359
 11
25.99996566772461
 21
-13.50002288818359
  0
LINE
  5
21c
100
AcDbEntity
  8
0
  6
CONTINUOUS
 62
     7
100
AcDbLine
 10
28.99993896484375
 20
-13.50002288818359
 11
28.99993896484375
 21
13.49996566772461
  0
LINE
  5
21d
100
AcDbEntity
  8
0
  6
CONTINUOUS
 62
     7
100
AcDbLine
 10
28.99993896484375
 20
13.49996566772461
 11
25.99996566772461
 21
13.49996566772461
  0
LINE
  5
21e
100
AcDbEntity
  8
0
  6
CONTINUOUS
 62
     3
100
AcDbLine
 10
20.55045389864658
 20
17.449514523733
 11
23.44956389294573
 21
14.55040501818722
  0
LINE
  5
21f
100
AcDbEntity
  8
0
  6
CONTINUOUS
 62
     3
100
AcDbLine
 10
23.44959062255437
 20
17.44948779412891
 11
20.55045414302781
 21
14.55035082584444
  0
LINE
  5
220
100
AcDbEntity
  8
0
  6
CONTINUOUS
 62
     7
100
AcDbLine
 10
17.5
 20
11.49999618530273
 11
25.99996566772461
 21
11.49999618530273
  0
LINE
  5
221
100
AcDbEntity
  8
0
  6
CONTINUOUS
 62
     7
100
AcDbLine
 10
17.5
 20
20.99996566772461
 11
17.5
 21
11.49999618530273
  0
LINE
  5
222
100
AcDbEntity
  8
0
  6
CENTER
 62
     3
100
AcDbLine
 10
0
 20
32.69487380981445
 11
0
 21
-33.24583053588867
  0
LINE
  5
223
100
AcDbEntity
  8
0
  6
CENTER
 62
     3
100
AcDbLine
 10
23.00000190734863
 20
-21.00002288818359
 11
23.00000190734863
 21
-28.0000114440918
  0
LINE
  5
224
100
AcDbEntity
  8
0
  6
CENTER
 62
     3
100
AcDbLine
 10
18.00000190738501
 20
-22.99999237060547
 11
28.00000190731225
 21
-22.99999237060547
  0
LINE
  5
225
100
AcDbEntity
  8
0
  6
CENTER
 62
     3
100
AcDbLine
 10
18.00000190734863
 20
23.0000114440918
 11
28.00000190734863
 21
23.0000114440918
  0
LINE
  5
226
100
AcDbEntity
  8
0
  6
CONTINUOUS
 62
     7
100
AcDbLine
 10
30
 20
23.0000114440918
 11
30
 21
10.5
  0
LINE
  5
227
100
AcDbEntity
  8
0
  6
CONTINUOUS
 62
     7
100
AcDbLine
 10
-30
 20
23.0000114440918
 11
-30
 21
3.999996185302734
  0
LINE
  5
228
100
AcDbEntity
  8
0
  6
CONTINUOUS
 62
     7
100
AcDbLine
 10
-23
 20
-30
 11
23.00000190734863
 21
-30
  0
LINE
  5
229
100
AcDbEntity
  8
0
  6
CENTER
 62
     3
100
AcDbLine
 10
-23
 20
-21.00002288818359
 11
-23
 21
-28.0000114440918
  0
LINE
  5
22a
100
AcDbEntity
  8
0
  6
CONTINUOUS
 62
     7
100
AcDbLine
 10
30
 20
-10.5
 11
30
 21
-22.99999237060547
  0
LINE
  5
22b
100
AcDbEntity
  8
0
  6
CENTER
 62
     3
100
AcDbLine
 10
23.00000190734863
 20
28.0000114440918
 11
23.00000190734863
 21
20.99996566772461
  0
LINE
  5
22c
100
AcDbEntity
  8
0
  6
CENTER
 62
     3
100
AcDbLine
 10
-23
 20
28.0000114440918
 11
-23
 21
20.99996566772461
  0
LINE
  5
22d
100
AcDbEntity
  8
0
  6
CENTER
 62
     3
100
AcDbLine
 10
-28
 20
23.0000114440918
 11
-18
 21
23.0000114440918
  0
LINE
  5
22e
100
AcDbEntity
  8
0
  6
CENTER
 62
     3
100
AcDbLine
 10
-27.99999999996362
 20
-22.99999237060547
 11
-18.00000000003638
 21
-22.99999237060547
  0
LINE
  5
22f
100
AcDbEntity
  8
0
  6
CONTINUOUS
 62
     7
100
AcDbLine
 10
30
 20
21.9999885559082
 11
34.68341827392578
 21
21.9999885559082
  0
LINE
  5
230
100
AcDbEntity
  8
0
  6
CONTINUOUS
 62
     7
100
AcDbLine
 10
30
 20
-22.00000762939453
 11
34.68344879150391
 21
-22.00000762939453
  0
LINE
  5
231
100
AcDbEntity
  8
0
  6
CONTINUOUS
 62
     7
100
AcDbLine
 10
-30
 20
15
 11
-26.00000381469727
 21
15
  0
LINE
  5
232
100
AcDbEntity
  8
0
  6
CONTINUOUS
 62
     7
100
AcDbLine
 10
15
 20
30.00001907348633
 11
15
 21
23.0000114440918
  0
LINE
  5
233
100
AcDbEntity
  8
0
  6
CONTINUOUS
 62
     7
100
AcDbLine
 10
-15
 20
30.00001907348633
 11
-15
 21
23.0000114440918
  0
LINE
  5
234
100
AcDbEntity
  8
0
  6
CONTINUOUS
 62
     7
100
AcDbLine
 10
-30
 20
-15
 11
-26.00000381469727
 21
-15
  0
LINE
  5
235
100
AcDbEntity
  8
0
  6
CONTINUOUS
 62
     7
100
AcDbLine
 10
25.99996566772461
 20
15
 11
30
 21
15
  0
LINE
  5
236
100
AcDbEntity
  8
0
  6
CONTINUOUS
 62
     7
100
AcDbLine
 10
25.99996566772461
 20
-15
 11
30
 21
-15
  0
LINE
  5
237
100
AcDbEntity
  8
0
  6
CONTINUOUS
 62
     7
100
AcDbLine
 10
-15
 20
-22.99999237060547
 11
-15
 21
-30
  0
LINE
  5
238
100
AcDbEntity
  8
0
  6
CONTINUOUS
 62
     7
100
AcDbLine
 10
15
 20
-22.99999237060547
 11
15
 21
-30
  0
LINE
  5
239
100
AcDbEntity
  8
0
  6
CONTINUOUS
 62
     7
100
AcDbLine
 10
-30
 20
-3.999996185302734
 11
-30
 21
-22.99999237060547
  0
LINE
  5
23a
100
AcDbEntity
  8
0
  6
CONTINUOUS
 62
     7
100
AcDbLine
 10
-50
 20
21.9999885559082
 11
-50
 21
-22.00000762939453
  0
LINE
  5
23b
100
AcDbEntity
  8
0
  6
CONTINUOUS
 62
     7
100
AcDbLine
 10
24.79526656746589
 20
20.99996566772461
 11
25.94999198123563
 21
23.00001303722658
  0
LINE
  5
23c
100
AcDbEntity
  8
0
  6
CONTINUOUS
 62
     7
100
AcDbLine
 10
25.94999525537787
 20
22.99997448858095
 11
24.47499608173325
 21
25.55475078780776
  0
LINE
  5
23d
100
AcDbEntity
  8
0
  6
CONTINUOUS
 62
     7
100
AcDbLine
 10
20.04997830882038
 20
23.00000831785935
 11
21.20470554118222
 21
20.99996100862935
  0
LINE
  5
23e
100
AcDbEntity
  8
0
  6
CONTINUOUS
 62
     7
100
AcDbLine
 10
21.52499319565825
 20
25.55480275355428
 11
20.04999573160287
 21
23.00002766971278
  0
LINE
  5
23f
100
AcDbEntity
  8
0
  6
CONTINUOUS
 62
     7
100
AcDbLine
 10
24.47500228881836
 20
25.55479049682617
 11
21.52500152587891
 21
25.55479049682617
  0
LINE
  5
240
100
AcDbEntity
  8
0
  6
CONTINUOUS
 62
     7
100
AcDbLine
 10
20.05000197950078
 20
-23.00000546600424
 11
21.2047196751233
 21
-20.99997467490015
  0
LINE
  5
241
100
AcDbEntity
  8
0
  6
CONTINUOUS
 62
     7
100
AcDbLine
 10
-24.47499847412109
 20
-25.55479049682617
 11
-21.52499961853027
 21
-25.55479049682617
  0
LINE
  5
242
100
AcDbEntity
  8
0
  6
CONTINUOUS
 62
     7
100
AcDbLine
 10
-25.95001429341311
 20
-23.00000254890688
 11
-24.4750148813501
 21
-25.5547792610869
  0
LINE
  5
243
100
AcDbEntity
  8
0
  6
CONTINUOUS
 62
     7
100
AcDbLine
 10
-24.79529079398127
 20
-21.0000228881836
 11
-25.94998537398261
 21
-23.00001685191772
  0
LINE
  5
244
100
AcDbEntity
  8
0
  6
CONTINUOUS
 62
     7
100
AcDbLine
 10
-24.47499847412109
 20
25.55479049682617
 11
-21.52499961853027
 21
25.55479049682617
  0
LINE
  5
245
100
AcDbEntity
  8
0
  6
CONTINUOUS
 62
     7
100
AcDbLine
 10
-21.52499732519101
 20
25.55480036937166
 11
-20.04999986113563
 21
23.00002528553016
  0
LINE
  5
246
100
AcDbEntity
  8
0
  6
CONTINUOUS
 62
     7
100
AcDbLine
 10
-20.04999698982943
 20
23.00001029367437
 11
-21.20472422219127
 21
20.99996298444437
  0
LINE
  5
247
100
AcDbEntity
  8
0
  6
CONTINUOUS
 62
     7
100
AcDbLine
 10
-24.79526656746589
 20
20.99996566772461
 11
-25.94998816654449
 21
23.00000642997356
  0
LINE
  5
248
100
AcDbEntity
  8
0
  6
CONTINUOUS
 62
     7
100
AcDbLine
 10
-25.94999607212448
 20
23.00000359153591
 11
-24.47499689847986
 21
25.55477989076272
  0
LINE
  5
249
100
AcDbEntity
  8
0
  6
CONTINUOUS
 62
     7
100
AcDbLine
 10
21.52500157333893
 20
-25.55477148772048
 11
20.05000410928355
 21
-22.99999640387898
  0
LINE
  5
24a
100
AcDbEntity
  8
0
  6
CONTINUOUS
 62
     7
100
AcDbLine
 10
24.47500228881836
 20
-25.55479049682617
 11
21.52500152587891
 21
-25.55479049682617
  0
LINE
  5
24b
100
AcDbEntity
  8
0
  6
CONTINUOUS
 62
     7
100
AcDbLine
 10
25.9500172901569
 20
-23.00002024659105
 11
24.47501811651228
 21
-25.55479654581786
  0
LINE
  5
24c
100
AcDbEntity
  8
0
  6
CONTINUOUS
 62
     7
100
AcDbLine
 10
24.79530180605784
 20
-21.00002288818359
 11
25.94999744774002
 21
-23.00001869080681
  0
LINE
  5
24d
100
AcDbEntity
  8
0
  6
CONTINUOUS
 62
     7
100
AcDbLine
 10
-20.04999625745719
 20
-23.00001537687979
 11
-21.20472348981903
 21
-20.99996806764979
  0
LINE
  5
24e
100
AcDbEntity
  8
0
  6
CONTINUOUS
 62
     7
100
AcDbLine
 10
-21.52499744380617
 20
-25.5547738719031
 11
-20.04999997975079
 21
-22.9999987880616
  0
LINE
  5
24f
100
AcDbEntity
  8
0
  6
CONTINUOUS
 62
     7
100
AcDbLine
 10
-32.99999618530273
 20
-6.000003814697266
 11
-30
 21
-6.000003814697266
  0
LINE
  5
250
100
AcDbEntity
  8
0
  6
CONTINUOUS
 62
     7
100
AcDbLine
 10
-32.99999618530273
 20
6.000003814697266
 11
-30
 21
6.000003814697266
  0
LINE
  5
251
100
AcDbEntity
  8
0
  6
CONTINUOUS
 62
     7
100
AcDbLine
 10
31.07840029412897
 20
10.50000036410685
 11
28.99993636111023
 21
9.299998631339655
  0
LINE
  5
252
100
AcDbEntity
  8
0
  6
CONTINUOUS
 62
     7
100
AcDbLine
 10
32.00006103515625
 20
10.5
 11
28.99993896484375
 21
10.5
  0
LINE
  5
253
100
AcDbEntity
  8
0
  6
CONTINUOUS
 62
     7
100
AcDbLine
 10
32.00006103515625
 20
17
 11
32.00006103515625
 21
-17
  0
LINE
  5
254
100
AcDbEntity
  8
0
  6
CONTINUOUS
 62
     7
100
AcDbLine
 10
39.41425659362342
 20
15.58579294978649
 11
36.58582597791992
 21
18.41422332707113
  0
LINE
  5
255
100
AcDbEntity
  8
0
  6
CONTINUOUS
 62
     7
100
AcDbLine
 10
39.41424993442162
 20
18.41421405476134
 11
36.58581999306772
 21
15.58578435182624
  0
LINE
  5
256
100
AcDbEntity
  8
0
  6
CONTINUOUS
 62
     7
100
AcDbLine
 10
38.00003051757813
 20
13
 11
33.00003051757813
 21
13
  0
LINE
  5
257
100
AcDbEntity
  8
0
  6
CONTINUOUS
 62
     7
100
AcDbLine
 10
33.00003051757813
 20
13
 11
33.00003051757813
 21
-13
  0
LINE
  5
258
100
AcDbEntity
  8
0
  6
CONTINUOUS
 62
     7
100
AcDbLine
 10
42.00003051757813
 20
22
 11
42.00003051757813
 21
17
  0
LINE
  5
259
100
AcDbEntity
  8
0
  6
CONTINUOUS
 62
     7
100
AcDbLine
 10
68.00003051757813
 20
22
 11
42.00003051757813
 21
22
  0
LINE
  5
25a
100
AcDbEntity
  8
0
  6
CONTINUOUS
 62
     7
100
AcDbLine
 10
72
 20
23
 11
38.00006103515625
 21
23
  0
LINE
  5
25b
100
AcDbEntity
  8
0
  6
CENTER
 62
     3
100
AcDbLine
 10
55.00003051757813
 20
23
 11
55.00003051757813
 21
-23
  0
LINE
  5
25c
100
AcDbEntity
  8
0
  6
CONTINUOUS
 62
     7
100
AcDbLine
 10
38.00003051757813
 20
-13
 11
33.00003051757813
 21
-13
  0
LINE
  5
25d
100
AcDbEntity
  8
0
  6
CONTINUOUS
 62
     7
100
AcDbLine
 10
39.41425735226687
 20
-18.4142120317123
 11
36.58582471351456
 21
-15.58577963137901
  0
LINE
  5
25e
100
AcDbEntity
  8
0
  6
CONTINUOUS
 62
     7
100
AcDbLine
 10
39.41425389622523
 20
-15.58579025238807
 11
36.58582530357055
 21
-18.41421860662407
  0
LINE
  5
25f
100
AcDbEntity
  8
0
  6
CONTINUOUS
 62
     7
100
AcDbLine
 10
72
 20
-23
 11
38.00006103515625
 21
-23
  0
LINE
  5
260
100
AcDbEntity
  8
0
  6
CONTINUOUS
 62
     7
100
AcDbLine
 10
42.00003051757813
 20
-17
 11
42.00003051757813
 21
-22
  0
LINE
  5
261
100
AcDbEntity
  8
0
  6
CONTINUOUS
 62
     7
100
AcDbLine
 10
68.00003051757813
 20
-22
 11
42.00003051757813
 21
-22
  0
LINE
  5
262
100
AcDbEntity
  8
0
  6
CONTINUOUS
 62
     7
100
AcDbLine
 10
68.00003051757813
 20
-17
 11
68.00003051757813
 21
-22
  0
LINE
  5
263
100
AcDbEntity
  8
0
  6
CONTINUOUS
 62
     7
100
AcDbLine
 10
77.00003051757813
 20
-13
 11
72.00003051757813
 21
-13
  0
LINE
  5
264
100
AcDbEntity
  8
0
  6
CONTINUOUS
 62
     7
100
AcDbLine
 10
73.41425963636718
 20
-18.4142072269715
 11
70.58582969501329
 21
-15.58577752403641
  0
LINE
  5
265
100
AcDbEntity
  8
0
  6
CONTINUOUS
 62
     7
100
AcDbLine
 10
73.4142609007726
 20
-15.58579438277949
 11
70.58583095941872
 21
-18.41422408571458
  0
LINE
  5
266
100
AcDbEntity
  8
0
  6
CONTINUOUS
 62
     7
100
AcDbLine
 10
78
 20
17
 11
78
 21
-17
  0
LINE
  5
267
100
AcDbEntity
  8
0
  6
CONTINUOUS
 62
     7
100
AcDbLine
 10
77.00003051757813
 20
13
 11
77.00003051757813
 21
-13
  0
LINE
  5
268
100
AcDbEntity
  8
0
  6
CONTINUOUS
 62
     7
100
AcDbLine
 10
77.00003051757813
 20
13
 11
72.00003051757813
 21
13
  0
LINE
  5
269
100
AcDbEntity
  8
0
  6
CONTINUOUS
 62
     7
100
AcDbLine
 10
73.4142609007726
 20
15.58579438277949
 11
70.58583095941872
 21
18.41422408571458
  0
LINE
  5
26a
100
AcDbEntity
  8
0
  6
CONTINUOUS
 62
     7
100
AcDbLine
 10
73.41425693896899
 20
18.41420992436992
 11
70.5858269976151
 21
15.58578022143483
  0
LINE
  5
26b
100
AcDbEntity
  8
0
  6
CONTINUOUS
 62
     7
100
AcDbLine
 10
68.00003051757813
 20
22
 11
68.00003051757813
 21
17
  0
LINE
  5
26c
100
AcDbEntity
  8
0
  6
CONTINUOUS
 62
     7
100
AcDbLine
 10
100
 20
14
 11
78
 21
14
  0
LINE
  5
26d
100
AcDbEntity
  8
0
  6
CONTINUOUS
 62
     7
100
AcDbLine
 10
100
 20
14
 11
100
 21
-14
  0
LINE
  5
26e
100
AcDbEntity
  8
0
  6
DASHED
 62
     7
100
AcDbLine
 10
100
 20
10.5
 11
85
 21
10.5
  0
LINE
  5
26f
100
AcDbEntity
  8
0
  6
DASHED
 62
     7
100
AcDbLine
 10
100
 20
9.300000190734863
 11
85
 21
9.300000190734863
  0
LINE
  5
270
100
AcDbEntity
  8
0
  6
DASHED
 62
     7
100
AcDbLine
 10
100
 20
-9.300000190734863
 11
85
 21
-9.300000190734863
  0
LINE
  5
271
100
AcDbEntity
  8
0
  6
DASHED
 62
     7
100
AcDbLine
 10
100
 20
-10.5
 11
85
 21
-10.5
  0
LINE
  5
272
100
AcDbEntity
  8
0
  6
CONTINUOUS
 62
     7
100
AcDbLine
 10
100
 20
-14
 11
78
 21
-14
  0
LINE
  5
273
100
AcDbEntity
  8
0
  6
CONTINUOUS
 62
     7
100
AcDbLine
 10
31.07840029412897
 20
-10.50000036410685
 11
28.99993636111023
 21
-9.299998631339655
  0
LINE
  5
274
100
AcDbEntity
  8
0
  6
CONTINUOUS
 62
     7
100
AcDbLine
 10
32.00006103515625
 20
-10.5
 11
28.99993896484375
 21
-10.5
  0
CIRCLE
  5
275
100
AcDbEntity
  8
0
  6
CONTINUOUS
 62
     7
100
AcDbCircle
 10
-22.00004577636719
 20
15.99996566772461
 40
3.500001192092896
  0
ARC
  5
276
100
AcDbEntity
  8
0
  6
CONTINUOUS
 62
    20
100
AcDbCircle
 10
-4.250011444091797
 20
25.7499885559082
 40
0.2500001490116119
100
AcDbArc
 50
180.000022311801
 51
360
  0
CIRCLE
  5
277
100
AcDbEntity
  8
0
  6
CONTINUOUS
 62
    20
100
AcDbCircle
 10
4.249992370605469
 20
25.5000114440918
 40
0.2500001490116119
  0
CIRCLE
  5
278
100
AcDbEntity
  8
0
  6
CONTINUOUS
 62
     7
100
AcDbCircle
 10
-21.99996948242188
 20
-16.00002288818359
 40
3.500001192092896
  0
CIRCLE
  5
279
100
AcDbEntity
  8
0
  6
CONTINUOUS
 62
     7
100
AcDbCircle
 10
22.00004577636719
 20
-16.00002288818359
 40
3.500001192092896
  0
CIRCLE
  5
27a
100
AcDbEntity
  8
0
  6
CONTINUOUS
 62
     7
100
AcDbCircle
 10
21.9999885559082
 20
15.99996566772461
 40
3.500001192092896
  0
ARC
  5
27b
100
AcDbEntity
  8
0
  6
CONTINUOUS
 62
     7
100
AcDbCircle
 10
23.00000190734863
 20
23.0000114440918
 40
7
100
AcDbArc
 50
359.9996877626959
 51
89.99998201391064
  0
ARC
  5
27c
100
AcDbEntity
  8
0
  6
CONTINUOUS
 62
     7
100
AcDbCircle
 10
-23
 20
-22.99999237060547
 40
7
100
AcDbArc
 50
180.0001315948278
 51
270.00001798609
  0
ARC
  5
27d
100
AcDbEntity
  8
0
  6
CONTINUOUS
 62
     7
100
AcDbCircle
 10
-23
 20
23.0000114440918
 40
7
100
AcDbArc
 50
89.99998201391064
 51
180.0002782165238
  0
ARC
  5
27e
100
AcDbEntity
  8
0
  6
CONTINUOUS
 62
     7
100
AcDbCircle
 10
23.00000190734863
 20
-22.99999237060547
 40
7
100
AcDbArc
 50
270.00001798609
 51
359.9998438813483
  0
ARC
  5
27f
100
AcDbEntity
  8
0
  6
CONTINUOUS
 62
     7
100
AcDbCircle
 10
-23
 20
23.0000114440918
 40
8
100
AcDbArc
 50
345.5221487616149
 51
360
  0
ARC
  5
280
100
AcDbEntity
  8
0
  6
CONTINUOUS
 62
     7
100
AcDbCircle
 10
23.00000190734863
 20
23.0000114440918
 40
8
100
AcDbArc
 50
179.9999776881997
 51
194.477834049228
  0
ARC
  5
281
100
AcDbEntity
  8
0
  6
CONTINUOUS
 62
     7
100
AcDbCircle
 10
23.00000190734863
 20
-23.0000114440918
 40
8
100
AcDbArc
 50
165.5225994404139
 51
179.9998820655513
  0
ARC
  5
282
100
AcDbEntity
  8
0
  6
CONTINUOUS
 62
     7
100
AcDbCircle
 10
-23
 20
-23.0000114440918
 40
8
100
AcDbArc
 50
0.0001366037964279364
 51
14.47742776665723
  0
ARC
  5
283
100
AcDbEntity
  8
0
  6
CONTINUOUS
 62
     7
100
AcDbCircle
 10
-33
 20
0
 40
5
100
AcDbArc
 50
306.8699187107633
 51
53.13008128923739
  0
ARC
  5
284
100
AcDbEntity
  8
0
  6
CONTINUOUS
 62
     7
100
AcDbCircle
 10
23.00000190734863
 20
23.0000114440918
 40
5
100
AcDbArc
 50
306.8698162579258
 51
203.5787059484331
  0
ARC
  5
285
100
AcDbEntity
  8
0
  6
CONTINUOUS
 62
     7
100
AcDbCircle
 10
-23
 20
23.0000114440918
 40
5
100
AcDbArc
 50
336.4212478341058
 51
233.1300477126238
  0
ARC
  5
286
100
AcDbEntity
  8
0
  6
CONTINUOUS
 62
     7
100
AcDbCircle
 10
-23
 20
-23.0000114440918
 40
5
100
AcDbArc
 50
126.8697802857463
 51
23.57866997625375
  0
ARC
  5
287
100
AcDbEntity
  8
0
  6
CONTINUOUS
 62
     7
100
AcDbCircle
 10
23.00000190734863
 20
-23.0000114440918
 40
5
100
AcDbArc
 50
156.4212767487235
 51
53.13016643923092
  0
ARC
  5
288
100
AcDbEntity
  8
0
  6
CONTINUOUS
 62
     7
100
AcDbCircle
 10
-32.99999618530273
 20
0
 40
6.000003814697266
100
AcDbArc
 50
89.99998201391065
 51
270.0000006832461
  0
ARC
  5
289
100
AcDbEntity
  8
0
  6
CONTINUOUS
 62
     7
100
AcDbCircle
 10
38.00006103515625
 20
17
 40
6
100
AcDbArc
 50
90.000036655424
 51
180.0000186693354
  0
CIRCLE
  5
28a
100
AcDbEntity
  8
0
  6
CONTINUOUS
 62
     7
100
AcDbCircle
 10
38.00003051757813
 20
17
 40
3.5
  0
ARC
  5
28b
100
AcDbEntity
  8
0
  6
CONTINUOUS
 62
     7
100
AcDbCircle
 10
38.00003051757813
 20
17
 40
4
100
AcDbArc
 50
270.00001798609
 51
5.46415133601103e-005
  0
ARC
  5
28c
100
AcDbEntity
  8
0
  6
CONTINUOUS
 62
     7
100
AcDbCircle
 10
38.00003051757813
 20
-17
 40
4
100
AcDbArc
 50
5.46415133601103e-005
 51
90.00003665542401
  0
CIRCLE
  5
28d
100
AcDbEntity
  8
0
  6
CONTINUOUS
 62
     7
100
AcDbCircle
 10
38.00003051757813
 20
-17
 40
3.5
  0
ARC
  5
28e
100
AcDbEntity
  8
0
  6
CONTINUOUS
 62
     7
100
AcDbCircle
 10
38.00006103515625
 20
-17
 40
6
100
AcDbArc
 50
180.0000186693354
 51
270.000000683246
  0
ARC
  5
28f
100
AcDbEntity
  8
0
  6
CONTINUOUS
 62
     7
100
AcDbCircle
 10
72.00003051757813
 20
-17
 40
4
100
AcDbArc
 50
90.00003665542391
 51
180.0000186693354
  0
CIRCLE
  5
290
100
AcDbEntity
  8
0
  6
CONTINUOUS
 62
     7
100
AcDbCircle
 10
72.00003051757813
 20
-17
 40
3.5
  0
ARC
  5
291
100
AcDbEntity
  8
0
  6
CONTINUOUS
 62
     7
100
AcDbCircle
 10
72
 20
-17
 40
6
100
AcDbArc
 50
270.00001798609
 51
5.46415133601103e-005
  0
CIRCLE
  5
292
100
AcDbEntity
  8
0
  6
CONTINUOUS
 62
     7
100
AcDbCircle
 10
72.00003051757813
 20
17
 40
3.5
  0
ARC
  5
293
100
AcDbEntity
  8
0
  6
CONTINUOUS
 62
     7
100
AcDbCircle
 10
72.00003051757813
 20
17
 40
4
100
AcDbArc
 50
180.0000186693354
 51
270.000000683246
  0
ARC
  5
294
100
AcDbEntity
  8
0
  6
CONTINUOUS
 62
     7
100
AcDbCircle
 10
72
 20
17
 40
6
100
AcDbArc
 50
5.46415133601103e-005
 51
90.00003665542405
  0
MTEXT
  5
295
100
AcDbEntity
  8
0
  6
CONTINUOUS
 62
     7
100
AcDbMText
 10
-12.43665061891079
 20
15.0821647644043
 40
0.5
 41
36
 71
     7
 72
     1
  1
{\W0.8426;ＢＮ－５ＢＰ２１－２５－Ｇ／Ｈ＊＊＊}
  0
ENDBLK
  8
0
  5
296
100
AcDbEntity
100
AcDbBlockEnd
  0
BLOCK
  8
0
  5
297
100
AcDbEntity
100
AcDbBlockBegin
  2
KOZU0003
 70
    64
 10
0
 20
0
  0
POINT
  5
298
100
AcDbEntity
  8
0
  6
CONTINUOUS
 62
     7
100
AcDbPoint
 10
0
 20
0
  0
LINE
  5
299
100
AcDbEntity
  8
0
  6
DASHED
 62
     7
100
AcDbLine
 10
26.99999898531436
 20
19.04999855887473
 11
26.16284327431534
 21
20.49999475814661
  0
LINE
  5
29a
100
AcDbEntity
  8
0
  6
CENTER
 62
     3
100
AcDbLine
 10
31.36836051940918
 20
21.9999942779541
 11
19.47848701477051
 21
21.9999942779541
  0
LINE
  5
29b
100
AcDbEntity
  8
0
  6
DASHED
 62
     7
100
AcDbLine
 10
27
 20
24.94999122619629
 11
27
 21
19.04999923706055
  0
LINE
  5
29c
100
AcDbEntity
  8
0
  6
DASHED
 62
     7
100
AcDbLine
 10
26.162841796875
 20
20.4999942779541
 11
20.00000190734863
 21
20.4999942779541
  0
LINE
  5
29d
100
AcDbEntity
  8
0
  6
DASHED
 62
     7
100
AcDbLine
 10
30
 20
19.04999923706055
 11
27
 21
19.04999923706055
  0
LINE
  5
29e
100
AcDbEntity
  8
0
  6
DASHED
 62
     7
100
AcDbLine
 10
30
 20
24.94999122619629
 11
27
 21
24.94999122619629
  0
LINE
  5
29f
100
AcDbEntity
  8
0
  6
DASHED
 62
     7
100
AcDbLine
 10
26.162841796875
 20
23.4999942779541
 11
20.00000190734863
 21
23.4999942779541
  0
LINE
  5
2a0
100
AcDbEntity
  8
0
  6
DASHED
 62
     7
100
AcDbLine
 10
26.162841796875
 20
23.4999942779541
 11
26.162841796875
 21
20.4999942779541
  0
LINE
  5
2a1
100
AcDbEntity
  8
0
  6
DASHED
 62
     7
100
AcDbLine
 10
26.99999713726299
 20
24.94998429647458
 11
26.1628465522635
 21
23.49999697569415
  0
LINE
  5
2a2
100
AcDbEntity
  8
0
  6
CENTER
 62
     3
100
AcDbLine
 10
0
 20
170.4499969482422
 11
0
 21
-46.80644607543945
  0
LINE
  5
2a3
100
AcDbEntity
  8
0
  6
CENTER
 62
     3
100
AcDbLine
 10
19.18423732735032
 20
0
 11
-19.21073013227744
 21
0
  0
LINE
  5
2a4
100
AcDbEntity
  8
0
  6
CONTINUOUS
 62
     7
100
AcDbLine
 10
30
 20
26.00000381469727
 11
30
 21
-22.00000190734863
  0
LINE
  5
2a5
100
AcDbEntity
  8
0
  6
CONTINUOUS
 62
     7
100
AcDbLine
 10
30.00002861022949
 20
25.9999942779541
 11
-29.99998092651367
 21
25.9999942779541
  0
LINE
  5
2a6
100
AcDbEntity
  8
0
  6
CONTINUOUS
 62
     7
100
AcDbLine
 10
30
 20
-22.00000190734863
 11
-30
 21
-22.00000190734863
  0
LINE
  5
2a7
100
AcDbEntity
  8
0
  6
CONTINUOUS
 62
     7
100
AcDbLine
 10
21.9999885559082
 20
13.59675417370251
 11
21.9999885559082
 21
-13.59674940533093
  0
LINE
  5
2a8
100
AcDbEntity
  8
0
  6
CONTINUOUS
 62
     7
100
AcDbLine
 10
5.999984741210938
 20
26.00000381469727
 11
5.999984741210938
 21
21.44996048582603
  0
LINE
  5
2a9
100
AcDbEntity
  8
0
  6
CONTINUOUS
 62
     7
100
AcDbLine
 10
-30
 20
26.00000381469727
 11
-30
 21
-22.00000190734863
  0
LINE
  5
2aa
100
AcDbEntity
  8
0
  6
CONTINUOUS
 62
     7
100
AcDbLine
 10
-22.00000762939453
 20
13.59673711386037
 11
-22.00000762939453
 21
-13.59673234548879
  0
LINE
  5
2ab
100
AcDbEntity
  8
0
  6
CONTINUOUS
 62
     7
100
AcDbLine
 10
-5.999984741210938
 20
26.00000381469727
 11
-5.999984741210938
 21
21.44996048582603
  0
LINE
  5
2ac
100
AcDbEntity
  8
0
  6
CONTINUOUS
 62
     7
100
AcDbLine
 10
24.00000476618185
 20
-22.00000190734863
 11
23.00000181496067
 21
-26.00001322071945
  0
LINE
  5
2ad
100
AcDbEntity
  8
0
  6
CONTINUOUS
 62
     7
100
AcDbLine
 10
-23.99996347913219
 20
-22.00000190734863
 11
-22.9999634191616
 21
-26.00000165571852
  0
LINE
  5
2ae
100
AcDbEntity
  8
0
  6
CONTINUOUS
 62
     7
100
AcDbLine
 10
-22.99997329711914
 20
-25.9999942779541
 11
23.00003051757813
 21
-25.9999942779541
  0
LINE
  5
2af
100
AcDbEntity
  8
0
  6
CONTINUOUS
 62
     7
100
AcDbLine
 10
22.5
 20
-42.00000381469727
 11
-22.5
 21
-42.00000381469727
  0
LINE
  5
2b0
100
AcDbEntity
  8
0
  6
CONTINUOUS
 62
     7
100
AcDbLine
 10
-22.5
 20
-25.9999942779541
 11
-22.5
 21
-42.00000381469727
  0
LINE
  5
2b1
100
AcDbEntity
  8
0
  6
CONTINUOUS
 62
     7
100
AcDbLine
 10
22.5
 20
-25.9999942779541
 11
22.5
 21
-42.00000381469727
  0
LINE
  5
2b2
100
AcDbEntity
  8
0
  6
CONTINUOUS
 62
     7
100
AcDbLine
 10
30
 20
76
 11
-30
 21
76
  0
LINE
  5
2b3
100
AcDbEntity
  8
0
  6
CONTINUOUS
 62
     7
100
AcDbLine
 10
25.99998474121094
 20
85
 11
25.99998474121094
 21
76
  0
LINE
  5
2b4
100
AcDbEntity
  8
0
  6
CONTINUOUS
 62
     7
100
AcDbLine
 10
-26.00002288818359
 20
85
 11
-26.00002288818359
 21
76
  0
LINE
  5
2b5
100
AcDbEntity
  8
0
  6
CONTINUOUS
 62
     7
100
AcDbLine
 10
-30
 20
76
 11
-30
 21
56.00000381469727
  0
LINE
  5
2b6
100
AcDbEntity
  8
0
  6
CONTINUOUS
 62
     7
100
AcDbLine
 10
30
 20
76
 11
30
 21
56.00000381469727
  0
LINE
  5
2b7
100
AcDbEntity
  8
0
  6
CONTINUOUS
 62
     7
100
AcDbLine
 10
30.00003814697266
 20
55.99999237060547
 11
-29.99998092651367
 21
55.99999237060547
  0
LINE
  5
2b8
100
AcDbEntity
  8
0
  6
CENTER
 62
     3
100
AcDbLine
 10
-23.41176986694336
 20
18.00000190734863
 11
-31.40493392944336
 21
18.00000190734863
  0
LINE
  5
2b9
100
AcDbEntity
  8
0
  6
DASHED
 62
     7
100
AcDbLine
 10
-23.99997711181641
 20
15.50000190734863
 11
-29.99998092651367
 21
15.50000190734863
  0
LINE
  5
2ba
100
AcDbEntity
  8
0
  6
DASHED
 62
     7
100
AcDbLine
 10
-23.99997711181641
 20
20.50000190734863
 11
-29.99998092651367
 21
20.50000190734863
  0
LINE
  5
2bb
100
AcDbEntity
  8
0
  6
DASHED
 62
     7
100
AcDbLine
 10
-23.99997711181641
 20
15.93299865722656
 11
-29.99998092651367
 21
15.93299865722656
  0
LINE
  5
2bc
100
AcDbEntity
  8
0
  6
DASHED
 62
     7
100
AcDbLine
 10
-23.99997711181641
 20
20.06699562072754
 11
-29.99998092651367
 21
20.06699562072754
  0
LINE
  5
2bd
100
AcDbEntity
  8
0
  6
CENTER
 62
     3
100
AcDbLine
 10
22.99999237060547
 20
75.19270324707031
 11
22.99999237060547
 21
25.9999942779541
  0
LINE
  5
2be
100
AcDbEntity
  8
0
  6
CONTINUOUS
 62
     7
100
AcDbLine
 10
-18.0000114440918
 20
74.5
 11
-28.0000114440918
 21
74.5
  0
LINE
  5
2bf
100
AcDbEntity
  8
0
  6
CONTINUOUS
 62
     7
100
AcDbLine
 10
-18.0000114440918
 20
68.5
 11
-28.0000114440918
 21
68.5
  0
LINE
  5
2c0
100
AcDbEntity
  8
0
  6
CONTINUOUS
 62
     7
100
AcDbLine
 10
-18.0000114440918
 20
74.5
 11
-18.0000114440918
 21
67
  0
LINE
  5
2c1
100
AcDbEntity
  8
0
  6
CONTINUOUS
 62
     7
100
AcDbLine
 10
-28.0000114440918
 20
74.5
 11
-28.0000114440918
 21
67
  0
LINE
  5
2c2
100
AcDbEntity
  8
0
  6
CENTER
 62
     3
100
AcDbLine
 10
-23.0000114440918
 20
75.37545013427734
 11
-23.0000114440918
 21
25.9999942779541
  0
LINE
  5
2c3
100
AcDbEntity
  8
0
  6
CONTINUOUS
 62
     7
100
AcDbLine
 10
-15
 20
67
 11
-30
 21
67
  0
LINE
  5
2c4
100
AcDbEntity
  8
0
  6
CONTINUOUS
 62
     7
100
AcDbLine
 10
-15
 20
76
 11
-15
 21
67
  0
LINE
  5
2c5
100
AcDbEntity
  8
0
  6
CONTINUOUS
 62
     7
100
AcDbLine
 10
25.99998474121094
 20
56.00000381469727
 11
25.99998474121094
 21
26.00000381469727
  0
LINE
  5
2c6
100
AcDbEntity
  8
0
  6
CONTINUOUS
 62
     7
100
AcDbLine
 10
20
 20
56.00000381469727
 11
20
 21
26.00000381469727
  0
LINE
  5
2c7
100
AcDbEntity
  8
0
  6
CONTINUOUS
 62
     7
100
AcDbLine
 10
-20
 20
56.00000381469727
 11
-20
 21
26.00000381469727
  0
LINE
  5
2c8
100
AcDbEntity
  8
0
  6
CONTINUOUS
 62
     7
100
AcDbLine
 10
-26.00002288818359
 20
56.00000381469727
 11
-26.00002288818359
 21
26.00000381469727
  0
LINE
  5
2c9
100
AcDbEntity
  8
0
  6
CONTINUOUS
 62
     7
100
AcDbLine
 10
-27.5
 20
55.99999237060547
 11
-27.5
 21
25.9999942779541
  0
LINE
  5
2ca
100
AcDbEntity
  8
0
  6
CONTINUOUS
 62
     7
100
AcDbLine
 10
27.5
 20
55.99999237060547
 11
27.5
 21
25.9999942779541
  0
LINE
  5
2cb
100
AcDbEntity
  8
0
  6
CONTINUOUS
 62
     7
100
AcDbLine
 10
25.99998474121094
 20
84.99999237060547
 11
-26.00002288818359
 21
84.99999237060547
  0
LINE
  5
2cc
100
AcDbEntity
  8
0
  6
CONTINUOUS
 62
     7
100
AcDbLine
 10
20.99998474121094
 20
84.99997711181641
 11
20.99998474121094
 21
123.0000305175781
  0
LINE
  5
2cd
100
AcDbEntity
  8
0
  6
CENTER
 62
     3
100
AcDbLine
 10
-10.00005722045898
 20
98.99997711181641
 11
10.00005722045898
 21
98.99997711181641
  0
LINE
  5
2ce
100
AcDbEntity
  8
0
  6
CONTINUOUS
 62
     7
100
AcDbLine
 10
-20.99998474121094
 20
84.99997711181641
 11
-20.99998474121094
 21
123.0000305175781
  0
LINE
  5
2cf
100
AcDbEntity
  8
0
  6
PHANTOM
 62
     7
100
AcDbLine
 10
-25.75000762939453
 20
92.99993133544922
 11
-20.99998474121094
 21
92.99993133544922
  0
LINE
  5
2d0
100
AcDbEntity
  8
0
  6
CENTER
 62
     3
100
AcDbLine
 10
-25.75004577636719
 20
92.74997711181641
 11
-20.99998474121094
 21
92.74997711181641
  0
LINE
  5
2d1
100
AcDbEntity
  8
0
  6
PHANTOM
 62
     7
100
AcDbLine
 10
-25.75000762939453
 20
92.49996185302734
 11
-20.99998474121094
 21
92.49996185302734
  0
LINE
  5
2d2
100
AcDbEntity
  8
0
  6
CONTINUOUS
 62
     7
100
AcDbLine
 10
-25.75004577636719
 20
101.9999847412109
 11
-25.75004577636719
 21
91.99994659423828
  0
LINE
  5
2d3
100
AcDbEntity
  8
0
  6
CONTINUOUS
 62
     7
100
AcDbLine
 10
-26.75003051757813
 20
91.99994659423828
 11
-25.75000762939453
 21
91.99994659423828
  0
LINE
  5
2d4
100
AcDbEntity
  8
0
  6
CONTINUOUS
 62
     7
100
AcDbLine
 10
-26.75003051757813
 20
101.9999465942383
 11
-26.75003051757813
 21
91.99994659423828
  0
LINE
  5
2d5
100
AcDbEntity
  8
0
  6
CENTER
 62
     3
100
AcDbLine
 10
-28.05620193481445
 20
96.99994659423828
 11
-20.99998474121094
 21
96.99994659423828
  0
LINE
  5
2d6
100
AcDbEntity
  8
0
  6
CONTINUOUS
 62
     7
100
AcDbLine
 10
-26.75003051757813
 20
101.9999465942383
 11
-25.75000762939453
 21
101.9999465942383
  0
LINE
  5
2d7
100
AcDbEntity
  8
0
  6
CENTER
 62
     3
100
AcDbLine
 10
-25.75004577636719
 20
101.2499618530273
 11
-20.99998474121094
 21
101.2499618530273
  0
LINE
  5
2d8
100
AcDbEntity
  8
0
  6
PHANTOM
 62
     7
100
AcDbLine
 10
-25.49999237060547
 20
101.4999160766602
 11
-20.99998474121094
 21
101.4999160766602
  0
LINE
  5
2d9
100
AcDbEntity
  8
0
  6
PHANTOM
 62
     7
100
AcDbLine
 10
-25.49999237060547
 20
100.9999618530273
 11
-20.99998474121094
 21
100.9999618530273
  0
LINE
  5
2da
100
AcDbEntity
  8
0
  6
CONTINUOUS
 62
     7
100
AcDbLine
 10
-25.75000762939453
 20
100.8500442504883
 11
-20.99998474121094
 21
100.8500442504883
  0
LINE
  5
2db
100
AcDbEntity
  8
0
  6
CONTINUOUS
 62
     7
100
AcDbLine
 10
-25.75000762939453
 20
93.14998626708984
 11
-20.99998474121094
 21
93.14998626708984
  0
LINE
  5
2dc
100
AcDbEntity
  8
0
  6
CENTER
 62
     3
100
AcDbLine
 10
-15.99998474121094
 20
128.1055450439453
 11
-15.99998474121094
 21
123.0000305175781
  0
LINE
  5
2dd
100
AcDbEntity
  8
0
  6
CONTINUOUS
 62
     7
100
AcDbLine
 10
-20.99998474121094
 20
115.9999618530273
 11
20.99998474121094
 21
115.9999618530273
  0
LINE
  5
2de
100
AcDbEntity
  8
0
  6
CONTINUOUS
 62
     7
100
AcDbLine
 10
20.99998474121094
 20
123.0000305175781
 11
11.49956813035626
 21
123.0000305175781
  0
LINE
  5
2df
100
AcDbEntity
  8
0
  6
CONTINUOUS
 62
     7
100
AcDbLine
 10
20.00000681192579
 20
167
 11
20.99999233150286
 21
122.9999921391393
  0
LINE
  5
2e0
100
AcDbEntity
  8
0
  6
CONTINUOUS
 62
     7
100
AcDbLine
 10
10.80048733111552
 20
166.9999999999999
 11
11.49956813035625
 21
123.0000305175781
  0
LINE
  5
2e1
100
AcDbEntity
  8
0
  6
CONTINUOUS
 62
     7
100
AcDbLine
 10
8.799781799316406
 20
164.5
 11
8.799781799316406
 21
116.9999847412109
  0
LINE
  5
2e2
100
AcDbEntity
  8
0
  6
CONTINUOUS
 62
     7
100
AcDbLine
 10
8.799781799316406
 20
116.9999694824219
 11
-8.800010681152344
 21
116.9999694824219
  0
LINE
  5
2e3
100
AcDbEntity
  8
0
  6
CONTINUOUS
 62
     7
100
AcDbLine
 10
7.199897766113281
 20
164.5
 11
7.199897766113281
 21
116.9999847412109
  0
LINE
  5
2e4
100
AcDbEntity
  8
0
  6
CONTINUOUS
 62
     7
100
AcDbLine
 10
4.799919128417969
 20
164.5
 11
4.799919128417969
 21
116.9999847412109
  0
LINE
  5
2e5
100
AcDbEntity
  8
0
  6
CONTINUOUS
 62
     7
100
AcDbLine
 10
3.199882507324219
 20
164.5
 11
3.199882507324219
 21
116.9999847412109
  0
LINE
  5
2e6
100
AcDbEntity
  8
0
  6
CONTINUOUS
 62
     7
100
AcDbLine
 10
0.7999038696289063
 20
164.5
 11
0.7999038696289063
 21
116.9999847412109
  0
LINE
  5
2e7
100
AcDbEntity
  8
0
  6
CONTINUOUS
 62
     7
100
AcDbLine
 10
-0.7999801635742188
 20
164.5
 11
-0.7999801635742188
 21
116.9999847412109
  0
LINE
  5
2e8
100
AcDbEntity
  8
0
  6
CONTINUOUS
 62
     7
100
AcDbLine
 10
-3.199920654296875
 20
164.5
 11
-3.199920654296875
 21
116.9999847412109
  0
LINE
  5
2e9
100
AcDbEntity
  8
0
  6
CONTINUOUS
 62
     7
100
AcDbLine
 10
-4.800186157226563
 20
164.5
 11
-4.800186157226563
 21
116.9999847412109
  0
LINE
  5
2ea
100
AcDbEntity
  8
0
  6
CONTINUOUS
 62
     7
100
AcDbLine
 10
-7.200164794921875
 20
164.5
 11
-7.200164794921875
 21
116.9999847412109
  0
LINE
  5
2eb
100
AcDbEntity
  8
0
  6
CONTINUOUS
 62
     7
100
AcDbLine
 10
-8.800010681152344
 20
164.5
 11
-8.800010681152344
 21
116.9999847412109
  0
LINE
  5
2ec
100
AcDbEntity
  8
0
  6
CONTINUOUS
 62
     7
100
AcDbLine
 10
-10.80033949294023
 20
166.9999999999999
 11
-11.49942029218096
 21
123.0000305175781
  0
LINE
  5
2ed
100
AcDbEntity
  8
0
  6
CONTINUOUS
 62
     7
100
AcDbLine
 10
-20.99998474121094
 20
123.0000305175781
 11
-11.49942029218096
 21
123.0000305175781
  0
LINE
  5
2ee
100
AcDbEntity
  8
0
  6
CONTINUOUS
 62
     7
100
AcDbLine
 10
-19.50000762939453
 20
124.0000152587891
 11
-12.49996185302734
 21
124.0000152587891
  0
LINE
  5
2ef
100
AcDbEntity
  8
0
  6
CONTINUOUS
 62
     7
100
AcDbLine
 10
-12.49996185302734
 20
125.3000259399414
 11
-12.49996185302734
 21
123.0000305175781
  0
LINE
  5
2f0
100
AcDbEntity
  8
0
  6
CONTINUOUS
 62
     7
100
AcDbLine
 10
-19.50000762939453
 20
125.3000259399414
 11
-19.50000762939453
 21
123.0000305175781
  0
LINE
  5
2f1
100
AcDbEntity
  8
0
  6
CONTINUOUS
 62
     7
100
AcDbLine
 10
-20.00000299624348
 20
167
 11
-20.99998765105025
 21
123.0000301895901
  0
LINE
  5
2f2
100
AcDbEntity
  8
0
  6
CONTINUOUS
 62
     7
100
AcDbLine
 10
20.0000068119258
 20
167
 11
9.213397661921357
 21
167
  0
LINE
  5
2f3
100
AcDbEntity
  8
0
  6
CONTINUOUS
 62
     7
100
AcDbLine
 10
9.213397661921356
 20
167
 11
8.799798881278989
 21
164.5000345055781
  0
LINE
  5
2f4
100
AcDbEntity
  8
0
  6
CONTINUOUS
 62
     7
100
AcDbLine
 10
8.800029754638672
 20
164.5
 11
7.199935913085938
 21
164.5
  0
LINE
  5
2f5
100
AcDbEntity
  8
0
  6
CONTINUOUS
 62
     7
100
AcDbLine
 10
7.199889225724427
 20
164.4999615337221
 11
6.786277441262069
 21
167
  0
LINE
  5
2f6
100
AcDbEntity
  8
0
  6
CONTINUOUS
 62
     7
100
AcDbLine
 10
6.786277441262071
 20
167
 11
5.213517461547465
 21
167
  0
LINE
  5
2f7
100
AcDbEntity
  8
0
  6
CONTINUOUS
 62
     7
100
AcDbLine
 10
5.213517461547461
 20
167
 11
4.799918264708882
 21
164.5000376184586
  0
LINE
  5
2f8
100
AcDbEntity
  8
0
  6
CENTER
 62
     3
100
AcDbLine
 10
-22.28153228759766
 20
162.4999542236328
 11
-14.89952505889762
 21
162.4999542236328
  0
LINE
  5
2f9
100
AcDbEntity
  8
0
  6
DASHED
 62
     7
100
AcDbLine
 10
-20.16231536865234
 20
163.4999389648438
 11
-14.89952505889762
 21
163.4999389648438
  0
LINE
  5
2fa
100
AcDbEntity
  8
0
  6
DASHED
 62
     7
100
AcDbLine
 10
-20.1976203918457
 20
161.4999694824219
 11
-14.89952505889762
 21
161.4999694824219
  0
LINE
  5
2fb
100
AcDbEntity
  8
0
  6
CONTINUOUS
 62
     7
100
AcDbLine
 10
-20.00000299624348
 20
167
 11
-9.213616122044723
 21
167
  0
LINE
  5
2fc
100
AcDbEntity
  8
0
  6
CONTINUOUS
 62
     7
100
AcDbLine
 10
-9.213616122044726
 20
167
 11
-8.800009030650024
 21
164.4999842718854
  0
LINE
  5
2fd
100
AcDbEntity
  8
0
  6
CONTINUOUS
 62
     7
100
AcDbLine
 10
-8.800067901611328
 20
164.5
 11
-7.199935913085938
 21
164.5
  0
LINE
  5
2fe
100
AcDbEntity
  8
0
  6
CONTINUOUS
 62
     7
100
AcDbLine
 10
-7.200159280930652
 20
164.5000071769837
 11
-6.786556130033254
 21
167
  0
LINE
  5
2ff
100
AcDbEntity
  8
0
  6
CONTINUOUS
 62
     7
100
AcDbLine
 10
-6.78655613003325
 20
167
 11
-5.21385292266401
 21
167
  0
LINE
  5
300
100
AcDbEntity
  8
0
  6
CONTINUOUS
 62
     7
100
AcDbLine
 10
-5.213852922664007
 20
167
 11
-4.800246876811368
 21
164.4999905915826
  0
LINE
  5
301
100
AcDbEntity
  8
0
  6
CONTINUOUS
 62
     7
100
AcDbLine
 10
-4.800033569335938
 20
164.5
 11
-3.199958801269531
 21
164.5
  0
LINE
  5
302
100
AcDbEntity
  8
0
  6
CONTINUOUS
 62
     7
100
AcDbLine
 10
-2.786321250365802
 20
167
 11
-3.1999329941486
 21
164.4999552379407
  0
LINE
  5
303
100
AcDbEntity
  8
0
  6
CONTINUOUS
 62
     7
100
AcDbLine
 10
-2.786321250365799
 20
167
 11
-1.213638913052443
 21
167
  0
LINE
  5
304
100
AcDbEntity
  8
0
  6
CONTINUOUS
 62
     7
100
AcDbLine
 10
-1.213638913052446
 20
167
 11
-0.8000355312020346
 21
164.5000028911746
  0
LINE
  5
305
100
AcDbEntity
  8
0
  6
CONTINUOUS
 62
     7
100
AcDbLine
 10
-0.8000564575195313
 20
164.5
 11
-1.9073486328125e-005
 21
164.5
  0
LINE
  5
306
100
AcDbEntity
  8
0
  6
CONTINUOUS
 62
     7
100
AcDbLine
 10
0.8000564575195313
 20
164.5
 11
-1.9073486328125e-005
 21
164.5
  0
LINE
  5
307
100
AcDbEntity
  8
0
  6
CONTINUOUS
 62
     7
100
AcDbLine
 10
1.213392698209074
 20
167.0000000000001
 11
0.799787768350658
 21
164.4999879056818
  0
LINE
  5
308
100
AcDbEntity
  8
0
  6
CONTINUOUS
 62
     7
100
AcDbLine
 10
2.786273113441127
 20
167
 11
1.213392698209071
 21
167
  0
LINE
  5
309
100
AcDbEntity
  8
0
  6
CONTINUOUS
 62
     7
100
AcDbLine
 10
2.78627311344113
 20
167
 11
3.199876764687918
 21
164.5000003498933
  0
LINE
  5
30a
100
AcDbEntity
  8
0
  6
CONTINUOUS
 62
     7
100
AcDbLine
 10
4.800033569335938
 20
164.5
 11
3.199958801269531
 21
164.5
  0
LINE
  5
30b
100
AcDbEntity
  8
0
  6
CONTINUOUS
 62
     7
100
AcDbLine
 10
-3.999996185302734
 20
76
 11
-3.999996185302734
 21
55.99999237060547
  0
LINE
  5
30c
100
AcDbEntity
  8
0
  6
CONTINUOUS
 62
     7
100
AcDbLine
 10
3.999996185302734
 20
76
 11
3.999996185302734
 21
55.99999237060547
  0
LINE
  5
30d
100
AcDbEntity
  8
0
  6
CONTINUOUS
 62
     7
100
AcDbLine
 10
-23
 20
111
 11
-21
 21
111
  0
LINE
  5
30e
100
AcDbEntity
  8
0
  6
CONTINUOUS
 62
     7
100
AcDbLine
 10
23
 20
119
 11
23
 21
88
  0
LINE
  5
30f
100
AcDbEntity
  8
0
  6
CONTINUOUS
 62
     7
100
AcDbLine
 10
-23
 20
119
 11
-21
 21
119
  0
LINE
  5
310
100
AcDbEntity
  8
0
  6
CONTINUOUS
 62
     7
100
AcDbLine
 10
22.00000547128469
 20
119.0000012262903
 11
20.94735934214888
 21
125.3158776194568
  0
LINE
  5
311
100
AcDbEntity
  8
0
  6
CONTINUOUS
 62
     7
100
AcDbLine
 10
-23
 20
117
 11
-21
 21
117
  0
LINE
  5
312
100
AcDbEntity
  8
0
  6
CONTINUOUS
 62
     7
100
AcDbLine
 10
-23
 20
116
 11
-21
 21
116
  0
LINE
  5
313
100
AcDbEntity
  8
0
  6
CONTINUOUS
 62
     7
100
AcDbLine
 10
-21.9999991999611
 20
118.999992446437
 11
-20.94735614523763
 21
125.3158503931307
  0
LINE
  5
314
100
AcDbEntity
  8
0
  6
CONTINUOUS
 62
     7
100
AcDbLine
 10
-23
 20
119
 11
-23
 21
101.4999160766602
  0
LINE
  5
315
100
AcDbEntity
  8
0
  6
CONTINUOUS
 62
     7
100
AcDbLine
 10
21
 20
111
 11
23
 21
111
  0
LINE
  5
316
100
AcDbEntity
  8
0
  6
CONTINUOUS
 62
     7
100
AcDbLine
 10
21
 20
116
 11
23
 21
116
  0
LINE
  5
317
100
AcDbEntity
  8
0
  6
CONTINUOUS
 62
     7
100
AcDbLine
 10
21
 20
117
 11
23
 21
117
  0
LINE
  5
318
100
AcDbEntity
  8
0
  6
CONTINUOUS
 62
     7
100
AcDbLine
 10
21
 20
119
 11
23
 21
119
  0
LINE
  5
319
100
AcDbEntity
  8
0
  6
CONTINUOUS
 62
     7
100
AcDbLine
 10
-23
 20
92.49996185302734
 11
-23
 21
88
  0
LINE
  5
31a
100
AcDbEntity
  8
0
  6
CONTINUOUS
 62
     7
100
AcDbLine
 10
19.50000762939453
 20
125.3000259399414
 11
19.50000762939453
 21
123.0000305175781
  0
LINE
  5
31b
100
AcDbEntity
  8
0
  6
CONTINUOUS
 62
     7
100
AcDbLine
 10
12.49996185302734
 20
125.3000259399414
 11
12.49996185302734
 21
123.0000305175781
  0
LINE
  5
31c
100
AcDbEntity
  8
0
  6
CONTINUOUS
 62
     7
100
AcDbLine
 10
19.50000762939453
 20
124.0000152587891
 11
12.49996185302734
 21
124.0000152587891
  0
LINE
  5
31d
100
AcDbEntity
  8
0
  6
CENTER
 62
     3
100
AcDbLine
 10
15.99998474121094
 20
128.1055450439453
 11
15.99998474121094
 21
123.0000305175781
  0
LINE
  5
31e
100
AcDbEntity
  8
0
  6
CONTINUOUS
 62
     7
100
AcDbLine
 10
-23
 20
88
 11
-20.99998474121094
 21
88
  0
LINE
  5
31f
100
AcDbEntity
  8
0
  6
CONTINUOUS
 62
     7
100
AcDbLine
 10
20.99998474121094
 20
88
 11
23
 21
88
  0
LINE
  5
320
100
AcDbEntity
  8
0
  6
CONTINUOUS
 62
     7
100
AcDbLine
 10
15
 20
76
 11
15
 21
67
  0
LINE
  5
321
100
AcDbEntity
  8
0
  6
CONTINUOUS
 62
     7
100
AcDbLine
 10
15
 20
67
 11
30
 21
67
  0
LINE
  5
322
100
AcDbEntity
  8
0
  6
CONTINUOUS
 62
     7
100
AcDbLine
 10
28.0000114440918
 20
74.5
 11
28.0000114440918
 21
67
  0
LINE
  5
323
100
AcDbEntity
  8
0
  6
CONTINUOUS
 62
     7
100
AcDbLine
 10
18.0000114440918
 20
74.5
 11
18.0000114440918
 21
67
  0
LINE
  5
324
100
AcDbEntity
  8
0
  6
CONTINUOUS
 62
     7
100
AcDbLine
 10
18.0000114440918
 20
68.5
 11
28.0000114440918
 21
68.5
  0
LINE
  5
325
100
AcDbEntity
  8
0
  6
CONTINUOUS
 62
     7
100
AcDbLine
 10
18.0000114440918
 20
74.5
 11
28.0000114440918
 21
74.5
  0
CIRCLE
  5
326
100
AcDbEntity
  8
0
  6
CONTINUOUS
 62
     7
100
AcDbCircle
 10
0
 20
0
 40
15.09999942779541
  0
ARC
  5
327
100
AcDbEntity
  8
0
  6
CONTINUOUS
 62
     7
100
AcDbCircle
 10
0
 20
-11.00000381469727
 40
33
100
AcDbArc
 50
48.18971176213693
 51
131.8103326677284
  0
ARC
  5
328
100
AcDbEntity
  8
0
  6
CONTINUOUS
 62
     7
100
AcDbCircle
 10
0
 20
11.00000858306885
 40
33
100
AcDbArc
 50
228.1896673322723
 51
311.8102882378638
  0
CIRCLE
  5
329
100
AcDbEntity
  8
0
  6
CONTINUOUS
 62
     7
100
AcDbCircle
 10
-25.49999237060547
 20
101.2499771118164
 40
0.2500001192092896
  0
ARC
  5
32a
100
AcDbEntity
  8
0
  6
CONTINUOUS
 62
     7
100
AcDbCircle
 10
-25.75000762939453
 20
92.74997711181641
 40
0.2500001192092896
100
AcDbArc
 50
269.991248023196
 51
89.99992737239722
  0
CIRCLE
  5
32b
100
AcDbEntity
  8
0
  6
CONTINUOUS
 62
     7
100
AcDbCircle
 10
0
 20
98.99997711181641
 40
6.800000190734863
  0
CIRCLE
  5
32c
100
AcDbEntity
  8
0
  6
CONTINUOUS
 62
     7
100
AcDbCircle
 10
0
 20
98.99997711181641
 40
6
  0
CIRCLE
  5
32d
100
AcDbEntity
  8
0
  6
CONTINUOUS
 62
     7
100
AcDbCircle
 10
0
 20
98.99997711181641
 40
10.00005722045898
  0
CIRCLE
  5
32e
100
AcDbEntity
  8
0
  6
CONTINUOUS
 62
     7
100
AcDbCircle
 10
0
 20
0
 40
16.5
  0
ARC
  5
32f
100
AcDbEntity
  8
0
  6
CONTINUOUS
 62
     7
100
AcDbCircle
 10
-15.99998474121094
 20
121.2384699082101
 40
5.361566712883647
100
AcDbArc
 50
49.24706685652239
 51
130.7529331434776
  0
ARC
  5
330
100
AcDbEntity
  8
0
  6
CONTINUOUS
 62
     7
100
AcDbCircle
 10
15.99998474121094
 20
121.2384699082101
 40
5.361566712883647
100
AcDbArc
 50
49.24706685652241
 51
130.7529331434777
  0
MTEXT
  5
331
100
AcDbEntity
  8
0
  6
CONTINUOUS
 62
     7
100
AcDbMText
 10
-18.46887432038784
 20
111.2831726074219
 40
0.5
 41
36
 71
     7
 72
     1
  1
{\W0.8426;ＢＮ－５ＢＰ２１－２５－Ｇ／Ｈ＊＊＊}
  0
INSERT
  5
332
100
AcDbEntity
  8
0
  6
CONTINUOUS
 62
     3
100
AcDbBlockReference
  2
KOZU0008
 10
0
 20
0
  0
INSERT
  5
333
100
AcDbEntity
  8
0
  6
CONTINUOUS
 62
     7
100
AcDbBlockReference
  2
KOZU0009
 10
0
 20
0
  0
ENDBLK
  8
0
  5
334
100
AcDbEntity
100
AcDbBlockEnd
  0
BLOCK
  8
0
  5
335
100
AcDbEntity
100
AcDbBlockBegin
  2
KOZU0004
 70
    64
 10
0
 20
0
  0
POINT
  5
336
100
AcDbEntity
  8
0
  6
CONTINUOUS
 62
     7
100
AcDbPoint
 10
0
 20
0
  0
LINE
  5
337
100
AcDbEntity
  8
0
  6
DASHED
 62
     7
100
AcDbLine
 10
-27
 20
24.94999122619629
 11
-27
 21
19.04999923706055
  0
LINE
  5
338
100
AcDbEntity
  8
0
  6
DASHED
 62
     7
100
AcDbLine
 10
-30
 20
19.04999923706055
 11
-27
 21
19.04999923706055
  0
LINE
  5
339
100
AcDbEntity
  8
0
  6
DASHED
 62
     7
100
AcDbLine
 10
-30
 20
24.94999122619629
 11
-27
 21
24.94999122619629
  0
LINE
  5
33a
100
AcDbEntity
  8
0
  6
DASHED
 62
     7
100
AcDbLine
 10
-26.162841796875
 20
20.4999942779541
 11
-20.00000190734863
 21
20.4999942779541
  0
LINE
  5
33b
100
AcDbEntity
  8
0
  6
DASHED
 62
     7
100
AcDbLine
 10
-26.162841796875
 20
23.4999942779541
 11
-20.00000190734863
 21
23.4999942779541
  0
LINE
  5
33c
100
AcDbEntity
  8
0
  6
DASHED
 62
     7
100
AcDbLine
 10
-26.99999898531436
 20
19.04999855887473
 11
-26.16284327431534
 21
20.49999475814661
  0
LINE
  5
33d
100
AcDbEntity
  8
0
  6
DASHED
 62
     7
100
AcDbLine
 10
-26.99999713726299
 20
24.94998429647458
 11
-26.1628465522635
 21
23.49999697569415
  0
LINE
  5
33e
100
AcDbEntity
  8
0
  6
DASHED
 62
     7
100
AcDbLine
 10
-26.162841796875
 20
23.4999942779541
 11
-26.162841796875
 21
20.4999942779541
  0
LINE
  5
33f
100
AcDbEntity
  8
0
  6
CENTER
 62
     3
100
AcDbLine
 10
0
 20
170.7999877929688
 11
0
 21
-46.80644607543945
  0
LINE
  5
340
100
AcDbEntity
  8
0
  6
CENTER
 62
     3
100
AcDbLine
 10
-19.3467089895077
 20
0
 11
19.82668556523777
 21
0
  0
LINE
  5
341
100
AcDbEntity
  8
0
  6
CONTINUOUS
 62
     7
100
AcDbLine
 10
-30
 20
26.00000381469727
 11
-30
 21
-22.00000190734863
  0
LINE
  5
342
100
AcDbEntity
  8
0
  6
CONTINUOUS
 62
     7
100
AcDbLine
 10
-30.00002861022949
 20
25.9999942779541
 11
29.99998092651367
 21
25.9999942779541
  0
LINE
  5
343
100
AcDbEntity
  8
0
  6
CONTINUOUS
 62
     7
100
AcDbLine
 10
-30
 20
-22.00000190734863
 11
30
 21
-22.00000190734863
  0
LINE
  5
344
100
AcDbEntity
  8
0
  6
CONTINUOUS
 62
     7
100
AcDbLine
 10
-21.9999885559082
 20
13.59675417370251
 11
-21.9999885559082
 21
-13.59674940533093
  0
LINE
  5
345
100
AcDbEntity
  8
0
  6
CONTINUOUS
 62
     7
100
AcDbLine
 10
-5.999984741210938
 20
26.00000381469727
 11
-5.999984741210938
 21
21.44996048582603
  0
LINE
  5
346
100
AcDbEntity
  8
0
  6
CONTINUOUS
 62
     7
100
AcDbLine
 10
30
 20
26.00000381469727
 11
30
 21
-22.00000190734863
  0
LINE
  5
347
100
AcDbEntity
  8
0
  6
CONTINUOUS
 62
     7
100
AcDbLine
 10
22.00000762939453
 20
13.59673711386037
 11
22.00000762939453
 21
-13.59673234548879
  0
LINE
  5
348
100
AcDbEntity
  8
0
  6
CONTINUOUS
 62
     7
100
AcDbLine
 10
5.999984741210938
 20
26.00000381469727
 11
5.999984741210938
 21
21.44996048582603
  0
LINE
  5
349
100
AcDbEntity
  8
0
  6
CONTINUOUS
 62
     7
100
AcDbLine
 10
-24.00000673223183
 20
-22.00000190734863
 11
-23.00000412796067
 21
-26.00001183291954
  0
LINE
  5
34a
100
AcDbEntity
  8
0
  6
CONTINUOUS
 62
     7
100
AcDbLine
 10
23.99995954703222
 20
-22.00000190734863
 11
22.99995971836168
 21
-26.00000073051843
  0
LINE
  5
34b
100
AcDbEntity
  8
0
  6
CONTINUOUS
 62
     7
100
AcDbLine
 10
22.99997329711914
 20
-25.9999942779541
 11
-23.00003051757813
 21
-25.9999942779541
  0
LINE
  5
34c
100
AcDbEntity
  8
0
  6
CONTINUOUS
 62
     7
100
AcDbLine
 10
-22.5
 20
-42.00000381469727
 11
22.5
 21
-42.00000381469727
  0
LINE
  5
34d
100
AcDbEntity
  8
0
  6
CONTINUOUS
 62
     7
100
AcDbLine
 10
22.5
 20
-25.9999942779541
 11
22.5
 21
-42.00000381469727
  0
LINE
  5
34e
100
AcDbEntity
  8
0
  6
CONTINUOUS
 62
     7
100
AcDbLine
 10
-22.5
 20
-25.9999942779541
 11
-22.5
 21
-42.00000381469727
  0
LINE
  5
34f
100
AcDbEntity
  8
0
  6
CONTINUOUS
 62
     7
100
AcDbLine
 10
-25.99998474121094
 20
84.99999237060547
 11
26.00002288818359
 21
84.99999237060547
  0
LINE
  5
350
100
AcDbEntity
  8
0
  6
CONTINUOUS
 62
     7
100
AcDbLine
 10
-30
 20
76
 11
30
 21
76
  0
LINE
  5
351
100
AcDbEntity
  8
0
  6
CONTINUOUS
 62
     7
100
AcDbLine
 10
-25.99998474121094
 20
85
 11
-25.99998474121094
 21
76
  0
LINE
  5
352
100
AcDbEntity
  8
0
  6
CONTINUOUS
 62
     7
100
AcDbLine
 10
26.00002288818359
 20
85
 11
26.00002288818359
 21
76
  0
LINE
  5
353
100
AcDbEntity
  8
0
  6
CENTER
 62
     3
100
AcDbLine
 10
14
 20
101.9999465942383
 11
-14
 21
101.9999465942383
  0
LINE
  5
354
100
AcDbEntity
  8
0
  6
CONTINUOUS
 62
     7
100
AcDbLine
 10
20.99998474121094
 20
84.99997711181641
 11
20.99998474121094
 21
87.99994659423828
  0
LINE
  5
355
100
AcDbEntity
  8
0
  6
PHANTOM
 62
     7
100
AcDbLine
 10
25.75000762939453
 20
92.99993133544922
 11
23
 21
92.99993133544922
  0
LINE
  5
356
100
AcDbEntity
  8
0
  6
CENTER
 62
     3
100
AcDbLine
 10
25.75004577636719
 20
92.74997711181641
 11
23
 21
92.74997711181641
  0
LINE
  5
357
100
AcDbEntity
  8
0
  6
PHANTOM
 62
     7
100
AcDbLine
 10
25.75000762939453
 20
92.49996185302734
 11
23
 21
92.49996185302734
  0
LINE
  5
358
100
AcDbEntity
  8
0
  6
CONTINUOUS
 62
     7
100
AcDbLine
 10
25.75004577636719
 20
101.9999847412109
 11
25.75004577636719
 21
91.99994659423828
  0
LINE
  5
359
100
AcDbEntity
  8
0
  6
CONTINUOUS
 62
     7
100
AcDbLine
 10
26.75003051757813
 20
91.99994659423828
 11
25.75000762939453
 21
91.99994659423828
  0
LINE
  5
35a
100
AcDbEntity
  8
0
  6
CONTINUOUS
 62
     7
100
AcDbLine
 10
26.75003051757813
 20
101.9999465942383
 11
26.75003051757813
 21
91.99994659423828
  0
LINE
  5
35b
100
AcDbEntity
  8
0
  6
CENTER
 62
     3
100
AcDbLine
 10
28.05620193481445
 20
96.99994659423828
 11
23
 21
96.99994659423828
  0
LINE
  5
35c
100
AcDbEntity
  8
0
  6
CONTINUOUS
 62
     7
100
AcDbLine
 10
26.75003051757813
 20
101.9999465942383
 11
25.75000762939453
 21
101.9999465942383
  0
LINE
  5
35d
100
AcDbEntity
  8
0
  6
CENTER
 62
     3
100
AcDbLine
 10
25.75004577636719
 20
101.2499618530273
 11
23
 21
101.2499618530273
  0
LINE
  5
35e
100
AcDbEntity
  8
0
  6
PHANTOM
 62
     7
100
AcDbLine
 10
25.49999237060547
 20
101.4999160766602
 11
23
 21
101.4999160766602
  0
LINE
  5
35f
100
AcDbEntity
  8
0
  6
PHANTOM
 62
     7
100
AcDbLine
 10
25.49999237060547
 20
100.9999618530273
 11
23
 21
100.9999618530273
  0
LINE
  5
360
100
AcDbEntity
  8
0
  6
CONTINUOUS
 62
     7
100
AcDbLine
 10
25.75000762939453
 20
100.8500442504883
 11
23
 21
100.8500442504883
  0
LINE
  5
361
100
AcDbEntity
  8
0
  6
CONTINUOUS
 62
     7
100
AcDbLine
 10
25.75000762939453
 20
93.14998626708984
 11
23
 21
93.14998626708984
  0
LINE
  5
362
100
AcDbEntity
  8
0
  6
CENTER
 62
     3
100
AcDbLine
 10
15.99998474121094
 20
128.1055450439453
 11
15.99998474121094
 21
124.9999542236328
  0
LINE
  5
363
100
AcDbEntity
  8
0
  6
CONTINUOUS
 62
     7
100
AcDbLine
 10
20.99998474121094
 20
115.9999618530273
 11
-20.99998474121094
 21
115.9999618530273
  0
LINE
  5
364
100
AcDbEntity
  8
0
  6
CENTER
 62
     3
100
AcDbLine
 10
-15.99998474121094
 20
128.1055450439453
 11
-15.99998474121094
 21
124.9999542236328
  0
LINE
  5
365
100
AcDbEntity
  8
0
  6
CONTINUOUS
 62
     7
100
AcDbLine
 10
-20.00001444329041
 20
167
 11
-20.954546945438
 21
124.9999542236328
  0
LINE
  5
366
100
AcDbEntity
  8
0
  6
CONTINUOUS
 62
     7
100
AcDbLine
 10
-10.80049686906231
 20
166.9999999999999
 11
-11.46780242967554
 21
124.9999560360955
  0
LINE
  5
367
100
AcDbEntity
  8
0
  6
CONTINUOUS
 62
     7
100
AcDbLine
 10
-8.799781799316406
 20
164.5
 11
-8.799781799316406
 21
124.9999542236328
  0
LINE
  5
368
100
AcDbEntity
  8
0
  6
CONTINUOUS
 62
     7
100
AcDbLine
 10
-9.169387817382813
 20
116.9999694824219
 11
9.169654846191406
 21
116.9999694824219
  0
LINE
  5
369
100
AcDbEntity
  8
0
  6
CONTINUOUS
 62
     7
100
AcDbLine
 10
-7.199897766113281
 20
164.5
 11
-7.199897766113281
 21
124.9999542236328
  0
LINE
  5
36a
100
AcDbEntity
  8
0
  6
CONTINUOUS
 62
     7
100
AcDbLine
 10
7.200164794921875
 20
164.5
 11
7.200164794921875
 21
124.9999542236328
  0
LINE
  5
36b
100
AcDbEntity
  8
0
  6
CONTINUOUS
 62
     7
100
AcDbLine
 10
8.800010681152344
 20
164.5
 11
8.800010681152344
 21
124.9999542236328
  0
LINE
  5
36c
100
AcDbEntity
  8
0
  6
CONTINUOUS
 62
     7
100
AcDbLine
 10
-4.799919128417969
 20
164.5
 11
-4.799919128417969
 21
124.9999542236328
  0
LINE
  5
36d
100
AcDbEntity
  8
0
  6
CONTINUOUS
 62
     7
100
AcDbLine
 10
-3.199882507324219
 20
164.5
 11
-3.199882507324219
 21
124.9999542236328
  0
LINE
  5
36e
100
AcDbEntity
  8
0
  6
CONTINUOUS
 62
     7
100
AcDbLine
 10
-0.7999038696289063
 20
164.5
 11
-0.7999038696289063
 21
124.9999542236328
  0
LINE
  5
36f
100
AcDbEntity
  8
0
  6
CONTINUOUS
 62
     7
100
AcDbLine
 10
0.7999801635742188
 20
164.5
 11
0.7999801635742188
 21
124.9999542236328
  0
LINE
  5
370
100
AcDbEntity
  8
0
  6
CONTINUOUS
 62
     7
100
AcDbLine
 10
-6.786281307813158
 20
167
 11
-5.213517461547465
 21
167
  0
LINE
  5
371
100
AcDbEntity
  8
0
  6
CONTINUOUS
 62
     7
100
AcDbLine
 10
10.80032995499343
 20
166.9999999999999
 11
11.46763555773102
 21
124.9999533847988
  0
LINE
  5
372
100
AcDbEntity
  8
0
  6
CONTINUOUS
 62
     7
100
AcDbLine
 10
30
 20
76
 11
30
 21
56.00000381469727
  0
LINE
  5
373
100
AcDbEntity
  8
0
  6
CONTINUOUS
 62
     7
100
AcDbLine
 10
-30
 20
76
 11
-30
 21
56.00000381469727
  0
LINE
  5
374
100
AcDbEntity
  8
0
  6
CONTINUOUS
 62
     7
100
AcDbLine
 10
-30.00003814697266
 20
55.99999237060547
 11
29.99998092651367
 21
55.99999237060547
  0
LINE
  5
375
100
AcDbEntity
  8
0
  6
CONTINUOUS
 62
     7
100
AcDbLine
 10
20.00000490408463
 20
167
 11
20.95453740623223
 21
124.9999542236328
  0
LINE
  5
376
100
AcDbEntity
  8
0
  6
CENTER
 62
     3
100
AcDbLine
 10
23.41176986694336
 20
18.00000190734863
 11
31.40493392944336
 21
18.00000190734863
  0
LINE
  5
377
100
AcDbEntity
  8
0
  6
DASHED
 62
     7
100
AcDbLine
 10
23.99997711181641
 20
15.50000190734863
 11
29.99998092651367
 21
15.50000190734863
  0
LINE
  5
378
100
AcDbEntity
  8
0
  6
DASHED
 62
     7
100
AcDbLine
 10
23.99997711181641
 20
20.50000190734863
 11
29.99998092651367
 21
20.50000190734863
  0
LINE
  5
379
100
AcDbEntity
  8
0
  6
DASHED
 62
     7
100
AcDbLine
 10
23.99997711181641
 20
15.93299865722656
 11
29.99998092651367
 21
15.93299865722656
  0
LINE
  5
37a
100
AcDbEntity
  8
0
  6
DASHED
 62
     7
100
AcDbLine
 10
23.99997711181641
 20
20.06699562072754
 11
29.99998092651367
 21
20.06699562072754
  0
LINE
  5
37b
100
AcDbEntity
  8
0
  6
CONTINUOUS
 62
     7
100
AcDbLine
 10
3.199920654296875
 20
164.5
 11
3.199920654296875
 21
124.9999542236328
  0
LINE
  5
37c
100
AcDbEntity
  8
0
  6
CONTINUOUS
 62
     7
100
AcDbLine
 10
4.800186157226563
 20
164.5
 11
4.800186157226563
 21
124.9999542236328
  0
LINE
  5
37d
100
AcDbEntity
  8
0
  6
CONTINUOUS
 62
     7
100
AcDbLine
 10
-5.213517461547461
 20
167
 11
-4.799920755300992
 21
164.500052672614
  0
LINE
  5
37e
100
AcDbEntity
  8
0
  6
CENTER
 62
     3
100
AcDbLine
 10
-31.31880187988281
 20
21.9999942779541
 11
-19.47848701477051
 21
21.9999942779541
  0
LINE
  5
37f
100
AcDbEntity
  8
0
  6
CONTINUOUS
 62
     7
100
AcDbLine
 10
-8.800029754638672
 20
164.5
 11
-7.199935913085938
 21
164.5
  0
LINE
  5
380
100
AcDbEntity
  8
0
  6
CONTINUOUS
 62
     7
100
AcDbLine
 10
-9.213389928819645
 20
167
 11
-8.799788863614193
 21
164.5000206967151
  0
LINE
  5
381
100
AcDbEntity
  8
0
  6
CONTINUOUS
 62
     7
100
AcDbLine
 10
-20.00001444329041
 20
167
 11
-9.213389928819646
 21
167
  0
LINE
  5
382
100
AcDbEntity
  8
0
  6
CONTINUOUS
 62
     7
100
AcDbLine
 10
-7.199890498671167
 20
164.4999772105255
 11
-6.786281307813159
 21
167
  0
LINE
  5
383
100
AcDbEntity
  8
0
  6
CONTINUOUS
 62
     7
100
AcDbLine
 10
-17.99999237060547
 20
68.5
 11
-27.99999237060547
 21
68.5
  0
LINE
  5
384
100
AcDbEntity
  8
0
  6
CONTINUOUS
 62
     7
100
AcDbLine
 10
-17.99999237060547
 20
74.5
 11
-27.99999237060547
 21
74.5
  0
LINE
  5
385
100
AcDbEntity
  8
0
  6
CONTINUOUS
 62
     7
100
AcDbLine
 10
-17.99999237060547
 20
74.5
 11
-17.99999237060547
 21
67
  0
LINE
  5
386
100
AcDbEntity
  8
0
  6
CONTINUOUS
 62
     7
100
AcDbLine
 10
-27.99999237060547
 20
74.5
 11
-27.99999237060547
 21
67
  0
LINE
  5
387
100
AcDbEntity
  8
0
  6
CENTER
 62
     3
100
AcDbLine
 10
-22.99999237060547
 20
75.13230133056641
 11
-22.99999237060547
 21
25.9999942779541
  0
LINE
  5
388
100
AcDbEntity
  8
0
  6
CONTINUOUS
 62
     7
100
AcDbLine
 10
-15
 20
67
 11
-30
 21
67
  0
LINE
  5
389
100
AcDbEntity
  8
0
  6
CENTER
 62
     3
100
AcDbLine
 10
23.0000114440918
 20
75.13230133056641
 11
23.0000114440918
 21
25.9999942779541
  0
LINE
  5
38a
100
AcDbEntity
  8
0
  6
CONTINUOUS
 62
     7
100
AcDbLine
 10
-15
 20
76
 11
-15
 21
67
  0
LINE
  5
38b
100
AcDbEntity
  8
0
  6
CONTINUOUS
 62
     7
100
AcDbLine
 10
-25.99998474121094
 20
56.00000381469727
 11
-25.99998474121094
 21
26.00000381469727
  0
LINE
  5
38c
100
AcDbEntity
  8
0
  6
CONTINUOUS
 62
     7
100
AcDbLine
 10
-20
 20
56.00000381469727
 11
-20
 21
26.00000381469727
  0
LINE
  5
38d
100
AcDbEntity
  8
0
  6
CONTINUOUS
 62
     7
100
AcDbLine
 10
20
 20
56.00000381469727
 11
20
 21
26.00000381469727
  0
LINE
  5
38e
100
AcDbEntity
  8
0
  6
CONTINUOUS
 62
     7
100
AcDbLine
 10
26.00002288818359
 20
56.00000381469727
 11
26.00002288818359
 21
26.00000381469727
  0
LINE
  5
38f
100
AcDbEntity
  8
0
  6
CONTINUOUS
 62
     7
100
AcDbLine
 10
-27.5
 20
55.99999237060547
 11
-27.5
 21
25.9999942779541
  0
LINE
  5
390
100
AcDbEntity
  8
0
  6
CONTINUOUS
 62
     7
100
AcDbLine
 10
27.5
 20
55.99999237060547
 11
27.5
 21
25.9999942779541
  0
LINE
  5
391
100
AcDbEntity
  8
0
  6
CONTINUOUS
 62
     7
100
AcDbLine
 10
-20.99998474121094
 20
84.99997711181641
 11
-20.99998474121094
 21
87.99994659423828
  0
LINE
  5
392
100
AcDbEntity
  8
0
  6
CENTER
 62
     3
100
AcDbLine
 10
22.28153228759766
 20
162.4999542236328
 11
14.35438273000627
 21
162.4999542236328
  0
LINE
  5
393
100
AcDbEntity
  8
0
  6
DASHED
 62
     7
100
AcDbLine
 10
20.16231536865234
 20
163.4999389648438
 11
14.35438273000627
 21
163.4999389648438
  0
LINE
  5
394
100
AcDbEntity
  8
0
  6
DASHED
 62
     7
100
AcDbLine
 10
20.1976203918457
 20
161.4999694824219
 11
14.35438273000627
 21
161.4999694824219
  0
LINE
  5
395
100
AcDbEntity
  8
0
  6
CONTINUOUS
 62
     7
100
AcDbLine
 10
20.00000490408464
 20
167
 11
9.213612255493867
 21
167
  0
LINE
  5
396
100
AcDbEntity
  8
0
  6
CONTINUOUS
 62
     7
100
AcDbLine
 10
9.213612255493871
 20
167
 11
8.800002776524298
 21
164.4999698403757
  0
LINE
  5
397
100
AcDbEntity
  8
0
  6
CONTINUOUS
 62
     7
100
AcDbLine
 10
8.800067901611328
 20
164.5
 11
7.199935913085938
 21
164.5
  0
LINE
  5
398
100
AcDbEntity
  8
0
  6
CONTINUOUS
 62
     7
100
AcDbLine
 10
7.200147990313322
 20
164.5000053090444
 11
6.786544530380802
 21
167
  0
LINE
  5
399
100
AcDbEntity
  8
0
  6
CONTINUOUS
 62
     7
100
AcDbLine
 10
6.786544530380795
 20
167
 11
5.213849056113154
 21
167
  0
LINE
  5
39a
100
AcDbEntity
  8
0
  6
CONTINUOUS
 62
     7
100
AcDbLine
 10
5.213849056113158
 20
167
 11
4.800240622685642
 21
164.499976160073
  0
LINE
  5
39b
100
AcDbEntity
  8
0
  6
CONTINUOUS
 62
     7
100
AcDbLine
 10
4.800033569335938
 20
164.5
 11
3.199958801269531
 21
164.5
  0
LINE
  5
39c
100
AcDbEntity
  8
0
  6
CONTINUOUS
 62
     7
100
AcDbLine
 10
2.786307717437939
 20
167
 11
3.19991733117595
 21
164.4999681128346
  0
LINE
  5
39d
100
AcDbEntity
  8
0
  6
CONTINUOUS
 62
     7
100
AcDbLine
 10
2.786307717437934
 20
167
 11
1.213633113226394
 21
167
  0
LINE
  5
39e
100
AcDbEntity
  8
0
  6
CONTINUOUS
 62
     7
100
AcDbLine
 10
1.213633113226393
 20
167
 11
0.800029885893192
 21
164.5000038251432
  0
LINE
  5
39f
100
AcDbEntity
  8
0
  6
CONTINUOUS
 62
     7
100
AcDbLine
 10
0.8000564575195313
 20
164.5
 11
1.9073486328125e-005
 21
164.5
  0
LINE
  5
3a0
100
AcDbEntity
  8
0
  6
CONTINUOUS
 62
     7
100
AcDbLine
 10
-0.8000564575195313
 20
164.5
 11
1.9073486328125e-005
 21
164.5
  0
LINE
  5
3a1
100
AcDbEntity
  8
0
  6
CONTINUOUS
 62
     7
100
AcDbLine
 10
-1.213392698209074
 20
167.0000000000001
 11
-0.799787768350658
 21
164.4999879056818
  0
LINE
  5
3a2
100
AcDbEntity
  8
0
  6
CONTINUOUS
 62
     7
100
AcDbLine
 10
-2.78627891326712
 20
167
 11
-1.213392698209071
 21
167
  0
LINE
  5
3a3
100
AcDbEntity
  8
0
  6
CONTINUOUS
 62
     7
100
AcDbLine
 10
-2.786278913267122
 20
167
 11
-3.199882409996814
 21
164.5000012838616
  0
LINE
  5
3a4
100
AcDbEntity
  8
0
  6
CONTINUOUS
 62
     7
100
AcDbLine
 10
-4.800033569335938
 20
164.5
 11
-3.199958801269531
 21
164.5
  0
LINE
  5
3a5
100
AcDbEntity
  8
0
  6
CONTINUOUS
 62
     7
100
AcDbLine
 10
-3.999996185302734
 20
76
 11
-3.999996185302734
 21
55.99999237060547
  0
LINE
  5
3a6
100
AcDbEntity
  8
0
  6
CONTINUOUS
 62
     7
100
AcDbLine
 10
3.999996185302734
 20
76
 11
3.999996185302734
 21
55.99999237060547
  0
LINE
  5
3a7
100
AcDbEntity
  8
0
  6
CONTINUOUS
 62
     7
100
AcDbLine
 10
-14
 20
110.9999465942383
 11
-14
 21
87.99994659423828
  0
LINE
  5
3a8
100
AcDbEntity
  8
0
  6
CONTINUOUS
 62
     7
100
AcDbLine
 10
-21
 20
99.99994659423828
 11
-14
 21
99.99994659423828
  0
LINE
  5
3a9
100
AcDbEntity
  8
0
  6
CONTINUOUS
 62
     7
100
AcDbLine
 10
-21
 20
110.9999465942383
 11
-21
 21
99.99994659423828
  0
LINE
  5
3aa
100
AcDbEntity
  8
0
  6
CONTINUOUS
 62
     7
100
AcDbLine
 10
-23
 20
110.9999465942383
 11
-10.72380828857422
 21
110.9999465942383
  0
LINE
  5
3ab
100
AcDbEntity
  8
0
  6
CONTINUOUS
 62
     7
100
AcDbLine
 10
10.72380828857422
 20
110.9999465942383
 11
23
 21
110.9999465942383
  0
LINE
  5
3ac
100
AcDbEntity
  8
0
  6
CONTINUOUS
 62
     7
100
AcDbLine
 10
14
 20
110.9999465942383
 11
14
 21
87.99994659423828
  0
LINE
  5
3ad
100
AcDbEntity
  8
0
  6
CONTINUOUS
 62
     7
100
AcDbLine
 10
14
 20
99.99994659423828
 11
21
 21
99.99994659423828
  0
LINE
  5
3ae
100
AcDbEntity
  8
0
  6
CONTINUOUS
 62
     7
100
AcDbLine
 10
21
 20
110.9999465942383
 11
21
 21
99.99994659423828
  0
LINE
  5
3af
100
AcDbEntity
  8
0
  6
CONTINUOUS
 62
     7
100
AcDbLine
 10
23
 20
118.9999465942383
 11
23
 21
87.99994659423828
  0
LINE
  5
3b0
100
AcDbEntity
  8
0
  6
CONTINUOUS
 62
     7
100
AcDbLine
 10
-23
 20
118.9999542236328
 11
23
 21
118.9999542236328
  0
LINE
  5
3b1
100
AcDbEntity
  8
0
  6
CONTINUOUS
 62
     7
100
AcDbLine
 10
22.00000547128515
 20
118.9999548184951
 11
21.00000551000204
 21
124.9999542236328
  0
LINE
  5
3b2
100
AcDbEntity
  8
0
  6
CONTINUOUS
 62
     7
100
AcDbLine
 10
-20.99999390805322
 20
124.9999542236328
 11
21.00000551000204
 21
124.9999542236328
  0
LINE
  5
3b3
100
AcDbEntity
  8
0
  6
CONTINUOUS
 62
     7
100
AcDbLine
 10
13.00001005354243
 20
118.9999327806718
 11
12.00000641928855
 21
124.9999542236328
  0
LINE
  5
3b4
100
AcDbEntity
  8
0
  6
CONTINUOUS
 62
     7
100
AcDbLine
 10
-23
 20
116.9999465942383
 11
23
 21
116.9999465942383
  0
LINE
  5
3b5
100
AcDbEntity
  8
0
  6
CONTINUOUS
 62
     7
100
AcDbLine
 10
-23
 20
115.9999465942383
 11
23
 21
115.9999465942383
  0
LINE
  5
3b6
100
AcDbEntity
  8
0
  6
CONTINUOUS
 62
     7
100
AcDbLine
 10
-12.99999249383603
 20
118.9999453233189
 11
-11.99999095002347
 21
124.9999542236328
  0
LINE
  5
3b7
100
AcDbEntity
  8
0
  6
CONTINUOUS
 62
     7
100
AcDbLine
 10
-21.99999669143217
 20
118.9999378859211
 11
-20.99999390805323
 21
124.9999542236328
  0
LINE
  5
3b8
100
AcDbEntity
  8
0
  6
CONTINUOUS
 62
     7
100
AcDbLine
 10
-20.5
 20
119.9999542236328
 11
-13.5
 21
119.9999542236328
  0
LINE
  5
3b9
100
AcDbEntity
  8
0
  6
CONTINUOUS
 62
     7
100
AcDbLine
 10
-20.5
 20
121.2999496459961
 11
-20.5
 21
118.9999542236328
  0
LINE
  5
3ba
100
AcDbEntity
  8
0
  6
CENTER
 62
     3
100
AcDbLine
 10
-17
 20
123.9719619750977
 11
-17
 21
118.9999465942383
  0
LINE
  5
3bb
100
AcDbEntity
  8
0
  6
CONTINUOUS
 62
     7
100
AcDbLine
 10
-13.5
 20
121.2999496459961
 11
-13.5
 21
118.9999542236328
  0
LINE
  5
3bc
100
AcDbEntity
  8
0
  6
CONTINUOUS
 62
     7
100
AcDbLine
 10
-23
 20
118.9999465942383
 11
-23
 21
87.99994659423828
  0
LINE
  5
3bd
100
AcDbEntity
  8
0
  6
CONTINUOUS
 62
     7
100
AcDbLine
 10
-23
 20
87.99994659423828
 11
23
 21
87.99994659423828
  0
LINE
  5
3be
100
AcDbEntity
  8
0
  6
CONTINUOUS
 62
     7
100
AcDbLine
 10
20.5
 20
119.9999542236328
 11
13.5
 21
119.9999542236328
  0
LINE
  5
3bf
100
AcDbEntity
  8
0
  6
CONTINUOUS
 62
     7
100
AcDbLine
 10
13.5
 20
121.2999496459961
 11
13.5
 21
118.9999542236328
  0
LINE
  5
3c0
100
AcDbEntity
  8
0
  6
CONTINUOUS
 62
     7
100
AcDbLine
 10
20.5
 20
121.2999496459961
 11
20.5
 21
118.9999542236328
  0
LINE
  5
3c1
100
AcDbEntity
  8
0
  6
CENTER
 62
     3
100
AcDbLine
 10
17
 20
123.9719619750977
 11
17
 21
118.9999465942383
  0
LINE
  5
3c2
100
AcDbEntity
  8
0
  6
CONTINUOUS
 62
     7
100
AcDbLine
 10
-12.49998474121094
 20
125.3000411987305
 11
-12.49998474121094
 21
124.9999542236328
  0
LINE
  5
3c3
100
AcDbEntity
  8
0
  6
CONTINUOUS
 62
     7
100
AcDbLine
 10
-19.49998474121094
 20
125.3000411987305
 11
-19.49998474121094
 21
124.9999542236328
  0
LINE
  5
3c4
100
AcDbEntity
  8
0
  6
CONTINUOUS
 62
     7
100
AcDbLine
 10
12.49998474121094
 20
125.3000411987305
 11
12.49998474121094
 21
124.9999542236328
  0
LINE
  5
3c5
100
AcDbEntity
  8
0
  6
CONTINUOUS
 62
     7
100
AcDbLine
 10
19.49998474121094
 20
125.3000411987305
 11
19.49998474121094
 21
124.9999542236328
  0
LINE
  5
3c6
100
AcDbEntity
  8
0
  6
CONTINUOUS
 62
     7
100
AcDbLine
 10
15
 20
76
 11
15
 21
67
  0
LINE
  5
3c7
100
AcDbEntity
  8
0
  6
CONTINUOUS
 62
     7
100
AcDbLine
 10
15
 20
67
 11
30
 21
67
  0
LINE
  5
3c8
100
AcDbEntity
  8
0
  6
CONTINUOUS
 62
     7
100
AcDbLine
 10
27.99999237060547
 20
74.5
 11
27.99999237060547
 21
67
  0
LINE
  5
3c9
100
AcDbEntity
  8
0
  6
CONTINUOUS
 62
     7
100
AcDbLine
 10
17.99999237060547
 20
74.5
 11
17.99999237060547
 21
67
  0
LINE
  5
3ca
100
AcDbEntity
  8
0
  6
CONTINUOUS
 62
     7
100
AcDbLine
 10
17.99999237060547
 20
74.5
 11
27.99999237060547
 21
74.5
  0
LINE
  5
3cb
100
AcDbEntity
  8
0
  6
CONTINUOUS
 62
     7
100
AcDbLine
 10
17.99999237060547
 20
68.5
 11
27.99999237060547
 21
68.5
  0
ARC
  5
3cc
100
AcDbEntity
  8
0
  6
CONTINUOUS
 62
     7
100
AcDbCircle
 10
0
 20
-11.00000381469727
 40
33
100
AcDbArc
 50
48.18966733227155
 51
131.8102882378631
  0
ARC
  5
3cd
100
AcDbEntity
  8
0
  6
CONTINUOUS
 62
     7
100
AcDbCircle
 10
0
 20
11.00000858306885
 40
33
100
AcDbArc
 50
228.1897117621377
 51
311.8103326677291
  0
CIRCLE
  5
3ce
100
AcDbEntity
  8
0
  6
CONTINUOUS
 62
     7
100
AcDbCircle
 10
25.49999237060547
 20
101.2499771118164
 40
0.2500001192092896
  0
ARC
  5
3cf
100
AcDbEntity
  8
0
  6
CONTINUOUS
 62
     7
100
AcDbCircle
 10
25.75000762939453
 20
92.74997711181641
 40
0.2500001192092896
100
AcDbArc
 50
90.00003665542394
 51
270.008716004627
  0
CIRCLE
  5
3d0
100
AcDbEntity
  8
0
  6
CONTINUOUS
 62
     7
100
AcDbCircle
 10
0
 20
0
 40
15.09999942779541
  0
CIRCLE
  5
3d1
100
AcDbEntity
  8
0
  6
CONTINUOUS
 62
     7
100
AcDbCircle
 10
0
 20
0
 40
16.5
  0
CIRCLE
  5
3d2
100
AcDbEntity
  8
0
  6
CONTINUOUS
 62
     7
100
AcDbCircle
 10
0
 20
101.9999465942383
 40
9.299999237060547
  0
CIRCLE
  5
3d3
100
AcDbEntity
  8
0
  6
CONTINUOUS
 62
     7
100
AcDbCircle
 10
0
 20
101.9999465942383
 40
10.5
  0
CIRCLE
  5
3d4
100
AcDbEntity
  8
0
  6
CONTINUOUS
 62
     7
100
AcDbCircle
 10
0
 20
101.9999465942383
 40
14
  0
ARC
  5
3d5
100
AcDbEntity
  8
0
  6
CONTINUOUS
 62
     7
100
AcDbCircle
 10
-17
 20
117.2383923050336
 40
5.361552763325801
100
AcDbArc
 50
49.24726127646159
 51
130.7527387235384
  0
ARC
  5
3d6
100
AcDbEntity
  8
0
  6
CONTINUOUS
 62
     7
100
AcDbCircle
 10
17
 20
117.2383923050336
 40
5.361552763325801
100
AcDbArc
 50
49.24726127646161
 51
130.7527387235384
  0
ARC
  5
3d7
100
AcDbEntity
  8
0
  6
CONTINUOUS
 62
     7
100
AcDbCircle
 10
-15.99998474121094
 20
121.238483857768
 40
5.361552763325801
100
AcDbArc
 50
49.24726127646159
 51
130.7527387235384
  0
ARC
  5
3d8
100
AcDbEntity
  8
0
  6
CONTINUOUS
 62
     7
100
AcDbCircle
 10
15.99998474121094
 20
121.238483857768
 40
5.361552763325801
100
AcDbArc
 50
49.24726127646158
 51
130.7527387235384
  0
MTEXT
  5
3d9
100
AcDbEntity
  8
0
  6
CONTINUOUS
 62
     7
100
AcDbMText
 10
-20.44006000459194
 20
80.00376129150391
 40
0.5
 41
36
 71
     7
 72
     1
  1
{\W0.8426;ＢＮ－５ＢＰ２１－２５－Ｇ／Ｈ＊＊＊}
  0
INSERT
  5
3da
100
AcDbEntity
  8
0
  6
CONTINUOUS
 62
     3
100
AcDbBlockReference
  2
KOZU0010
 10
0
 20
0
  0
INSERT
  5
3db
100
AcDbEntity
  8
0
  6
CONTINUOUS
 62
     7
100
AcDbBlockReference
  2
KOZU0011
 10
0
 20
0
  0
ENDBLK
  8
0
  5
3dc
100
AcDbEntity
100
AcDbBlockEnd
  0
BLOCK
  8
0
  5
3dd
100
AcDbEntity
100
AcDbBlockBegin
  2
KOZU0005
 70
    64
 10
0
 20
0
  0
POINT
  5
3de
100
AcDbEntity
  8
0
  6
CONTINUOUS
 62
     7
100
AcDbPoint
 10
0
 20
0
  0
LINE
  5
3df
100
AcDbEntity
  8
0
  6
DASHED
 62
     7
100
AcDbLine
 10
-49.99997270654302
 20
16.49998843456103
 11
-33.99997301931882
 21
16.16483621083763
  0
LINE
  5
3e0
100
AcDbEntity
  8
0
  6
DASHED
 62
     7
100
AcDbLine
 10
-49.99998770234635
 20
-16.50000114916408
 11
-33.99998420126151
 21
-16.16484884555169
  0
LINE
  5
3e1
100
AcDbEntity
  8
0
  6
DASHED
 62
     7
100
AcDbLine
 10
-49.99997605709886
 20
15.09999274182195
 11
-33.99997636987467
 21
14.76484051809855
  0
LINE
  5
3e2
100
AcDbEntity
  8
0
  6
DASHED
 62
     7
100
AcDbLine
 10
-49.99999095304094
 20
-15.1000102237508
 11
-33.99996838265292
 21
-14.76485752069343
  0
LINE
  5
3e3
100
AcDbEntity
  8
0
  6
DASHED
 62
     7
100
AcDbLine
 10
49.99997238698705
 20
-16.50000369000358
 11
33.99998795520541
 21
-16.16485178583616
  0
LINE
  5
3e4
100
AcDbEntity
  8
0
  6
CONTINUOUS
 62
     7
100
AcDbLine
 10
-1.500000596046448
 20
2.999999284744263
 11
-1.500000596046448
 21
1.499999642372131
  0
LINE
  5
3e5
100
AcDbEntity
  8
0
  6
CONTINUOUS
 62
     7
100
AcDbLine
 10
5.999997615814209
 20
0
 11
-7.499999046325684
 21
0
  0
LINE
  5
3e6
100
AcDbEntity
  8
0
  6
CONTINUOUS
 62
     7
100
AcDbLine
 10
7.499997615814209
 20
1.499999642372131
 11
-1.500000596046448
 21
1.499999642372131
  0
LINE
  5
3e7
100
AcDbEntity
  8
0
  6
CONTINUOUS
 62
     7
100
AcDbLine
 10
-1.500001131669714
 20
2.999999355943378
 11
-7.49999899056423
 21
4.26496119754205e-007
  0
LINE
  5
3e8
100
AcDbEntity
  8
0
  6
CONTINUOUS
 62
     7
100
AcDbLine
 10
7.499997637859996
 20
1.499999932181745
 11
5.999997705678251
 21
0
  0
LINE
  5
3e9
100
AcDbEntity
  8
0
  6
CENTER
 62
     3
100
AcDbLine
 10
-5.410905838012695
 20
18.00000190734863
 11
5.577257633209229
 21
18.00000190734863
  0
LINE
  5
3ea
100
AcDbEntity
  8
0
  6
CENTER
 62
     3
100
AcDbLine
 10
0
 20
171.5398559570313
 11
0
 21
-45.5286865234375
  0
LINE
  5
3eb
100
AcDbEntity
  8
0
  6
CONTINUOUS
 62
     7
100
AcDbLine
 10
-50
 20
22.00000762939453
 11
-50
 21
-21.99999809265137
  0
LINE
  5
3ec
100
AcDbEntity
  8
0
  6
CONTINUOUS
 62
     7
100
AcDbLine
 10
50
 20
22.00000762939453
 11
50
 21
-21.99999809265137
  0
LINE
  5
3ed
100
AcDbEntity
  8
0
  6
CONTINUOUS
 62
     7
100
AcDbLine
 10
40
 20
25.9999942779541
 11
-40
 21
25.9999942779541
  0
LINE
  5
3ee
100
AcDbEntity
  8
0
  6
CONTINUOUS
 62
     7
100
AcDbLine
 10
50
 20
-21.99999809265137
 11
-50
 21
-21.99999809265137
  0
LINE
  5
3ef
100
AcDbEntity
  8
0
  6
CENTER
 62
     3
100
AcDbLine
 10
53.14598083496094
 20
0
 11
-53.01889419555664
 21
0
  0
LINE
  5
3f0
100
AcDbEntity
  8
0
  6
CONTINUOUS
 62
     7
100
AcDbLine
 10
50
 20
22.00000762939453
 11
30
 21
22.00000762939453
  0
LINE
  5
3f1
100
AcDbEntity
  8
0
  6
CONTINUOUS
 62
     7
100
AcDbLine
 10
-30
 20
22.00000762939453
 11
-50
 21
22.00000762939453
  0
LINE
  5
3f2
100
AcDbEntity
  8
0
  6
CONTINUOUS
 62
     7
100
AcDbLine
 10
24.00010807039898
 20
-21.99999809265137
 11
23.00009069211041
 21
-26.00000665807264
  0
LINE
  5
3f3
100
AcDbEntity
  8
0
  6
CONTINUOUS
 62
     7
100
AcDbLine
 10
-24.00000976781239
 20
-21.99999809265136
 11
-22.99999123309536
 21
-26.00001128371599
  0
LINE
  5
3f4
100
AcDbEntity
  8
0
  6
CONTINUOUS
 62
     7
100
AcDbLine
 10
23.00003051757813
 20
-25.9999942779541
 11
-23.00003051757813
 21
-25.9999942779541
  0
LINE
  5
3f5
100
AcDbEntity
  8
0
  6
CONTINUOUS
 62
     7
100
AcDbLine
 10
22.5
 20
-42.00000381469727
 11
-22.5
 21
-42.00000381469727
  0
LINE
  5
3f6
100
AcDbEntity
  8
0
  6
CONTINUOUS
 62
     7
100
AcDbLine
 10
-22.5
 20
-25.9999942779541
 11
-22.5
 21
-42.00000381469727
  0
LINE
  5
3f7
100
AcDbEntity
  8
0
  6
CONTINUOUS
 62
     7
100
AcDbLine
 10
22.5
 20
-25.9999942779541
 11
22.5
 21
-42.00000381469727
  0
LINE
  5
3f8
100
AcDbEntity
  8
0
  6
CONTINUOUS
 62
     7
100
AcDbLine
 10
-27.5
 20
56.00000381469727
 11
-27.5
 21
26.00000381469727
  0
LINE
  5
3f9
100
AcDbEntity
  8
0
  6
CONTINUOUS
 62
     7
100
AcDbLine
 10
27.5
 20
56.00000381469727
 11
27.5
 21
26.00000381469727
  0
LINE
  5
3fa
100
AcDbEntity
  8
0
  6
CONTINUOUS
 62
     7
100
AcDbLine
 10
-30
 20
76
 11
-30
 21
56.00000381469727
  0
LINE
  5
3fb
100
AcDbEntity
  8
0
  6
CONTINUOUS
 62
     7
100
AcDbLine
 10
30
 20
76
 11
30
 21
56.00000381469727
  0
LINE
  5
3fc
100
AcDbEntity
  8
0
  6
CONTINUOUS
 62
     7
100
AcDbLine
 10
30
 20
55.99999237060547
 11
-30
 21
55.99999237060547
  0
LINE
  5
3fd
100
AcDbEntity
  8
0
  6
CONTINUOUS
 62
     7
100
AcDbLine
 10
30
 20
76.00001525878906
 11
-30
 21
76.00001525878906
  0
LINE
  5
3fe
100
AcDbEntity
  8
0
  6
CONTINUOUS
 62
     7
100
AcDbLine
 10
20
 20
56.00000381469727
 11
20
 21
26.00000381469727
  0
LINE
  5
3ff
100
AcDbEntity
  8
0
  6
CONTINUOUS
 62
     7
100
AcDbLine
 10
-17.99999237060547
 20
74.5
 11
-27.99999237060547
 21
74.5
  0
LINE
  5
400
100
AcDbEntity
  8
0
  6
CONTINUOUS
 62
     7
100
AcDbLine
 10
-17.99999237060547
 20
68.50001525878906
 11
-27.99999237060547
 21
68.50001525878906
  0
LINE
  5
401
100
AcDbEntity
  8
0
  6
CONTINUOUS
 62
     7
100
AcDbLine
 10
-17.99999237060547
 20
74.5
 11
-17.99999237060547
 21
67
  0
LINE
  5
402
100
AcDbEntity
  8
0
  6
CONTINUOUS
 62
     7
100
AcDbLine
 10
-20
 20
56.00000381469727
 11
-20
 21
26.00000381469727
  0
LINE
  5
403
100
AcDbEntity
  8
0
  6
CONTINUOUS
 62
     7
100
AcDbLine
 10
-27.99999237060547
 20
74.5
 11
-27.99999237060547
 21
67
  0
LINE
  5
404
100
AcDbEntity
  8
0
  6
CONTINUOUS
 62
     7
100
AcDbLine
 10
-25.99998474121094
 20
56.00000381469727
 11
-25.99998474121094
 21
26.00000381469727
  0
LINE
  5
405
100
AcDbEntity
  8
0
  6
CENTER
 62
     3
100
AcDbLine
 10
-22.99999237060547
 20
75.25000762939453
 11
-22.99999237060547
 21
25.9999942779541
  0
LINE
  5
406
100
AcDbEntity
  8
0
  6
CONTINUOUS
 62
     7
100
AcDbLine
 10
-15
 20
67
 11
-30
 21
67
  0
LINE
  5
407
100
AcDbEntity
  8
0
  6
CONTINUOUS
 62
     7
100
AcDbLine
 10
25.99998474121094
 20
56.00000381469727
 11
25.99998474121094
 21
26.00000381469727
  0
LINE
  5
408
100
AcDbEntity
  8
0
  6
CONTINUOUS
 62
     7
100
AcDbLine
 10
-15
 20
76
 11
-15
 21
67
  0
LINE
  5
409
100
AcDbEntity
  8
0
  6
CONTINUOUS
 62
     7
100
AcDbLine
 10
30
 20
25.9999942779541
 11
30
 21
-21.99999809265137
  0
LINE
  5
40a
100
AcDbEntity
  8
0
  6
CONTINUOUS
 62
     7
100
AcDbLine
 10
-30
 20
25.9999942779541
 11
-30
 21
-21.99999809265137
  0
LINE
  5
40b
100
AcDbEntity
  8
0
  6
CONTINUOUS
 62
     7
100
AcDbLine
 10
40
 20
25.9999942779541
 11
40
 21
22.00000762939453
  0
LINE
  5
40c
100
AcDbEntity
  8
0
  6
CONTINUOUS
 62
     7
100
AcDbLine
 10
-39.99998092651367
 20
25.9999942779541
 11
-39.99998092651367
 21
22.00000762939453
  0
LINE
  5
40d
100
AcDbEntity
  8
0
  6
CONTINUOUS
 62
     7
100
AcDbLine
 10
50
 20
-13.59675407409668
 11
30
 21
-13.59675407409668
  0
LINE
  5
40e
100
AcDbEntity
  8
0
  6
CONTINUOUS
 62
     7
100
AcDbLine
 10
50
 20
13.59674453735352
 11
30
 21
13.59674453735352
  0
LINE
  5
40f
100
AcDbEntity
  8
0
  6
CONTINUOUS
 62
     7
100
AcDbLine
 10
-30
 20
13.59674453735352
 11
-50.00001907348633
 21
13.59674453735352
  0
LINE
  5
410
100
AcDbEntity
  8
0
  6
CONTINUOUS
 62
     7
100
AcDbLine
 10
-30
 20
-13.59675407409668
 11
-50.00001907348633
 21
-13.59675407409668
  0
LINE
  5
411
100
AcDbEntity
  8
0
  6
CONTINUOUS
 62
     7
100
AcDbLine
 10
-25.99990844726563
 20
84.99999237060547
 11
26.00006103515625
 21
84.99999237060547
  0
LINE
  5
412
100
AcDbEntity
  8
0
  6
CONTINUOUS
 62
     7
100
AcDbLine
 10
26.00002288818359
 20
122.9999923706055
 11
26.00002288818359
 21
76.00001525878906
  0
LINE
  5
413
100
AcDbEntity
  8
0
  6
CONTINUOUS
 62
     7
100
AcDbLine
 10
27.00011108219659
 20
89.74997285604609
 11
26.00008057355943
 21
88.99994995594119
  0
LINE
  5
414
100
AcDbEntity
  8
0
  6
CONTINUOUS
 62
     7
100
AcDbLine
 10
27.00008392333984
 20
108.2500076293945
 11
27.00008392333984
 21
89.74996185302734
  0
LINE
  5
415
100
AcDbEntity
  8
0
  6
CONTINUOUS
 62
     7
100
AcDbLine
 10
26.00016762018158
 20
108.999964594839
 11
27.00015235245196
 21
108.2499760270101
  0
LINE
  5
416
100
AcDbEntity
  8
0
  6
DASHED
 62
     7
100
AcDbLine
 10
19.70010375976562
 20
105.5055560936909
 11
26.97018923685848
 21
105.7594330609478
  0
LINE
  5
417
100
AcDbEntity
  8
0
  6
DASHED
 62
     7
100
AcDbLine
 10
19.70010375976562
 20
104.6490544166263
 11
27.00010062757321
 21
104.9039759126146
  0
LINE
  5
418
100
AcDbEntity
  8
0
  6
CENTER
 62
     3
100
AcDbLine
 10
29.92499923706055
 20
98.99997711181641
 11
19.70010375976563
 21
98.99997711181641
  0
LINE
  5
419
100
AcDbEntity
  8
0
  6
DASHED
 62
     7
100
AcDbLine
 10
19.70010375976562
 20
92.49446995116065
 11
26.97023879407621
 21
92.24059125332771
  0
LINE
  5
41a
100
AcDbEntity
  8
0
  6
DASHED
 62
     7
100
AcDbLine
 10
19.70010375976563
 20
93.35099453036021
 11
27.00011285984245
 21
93.09607260721165
  0
LINE
  5
41b
100
AcDbEntity
  8
0
  6
CONTINUOUS
 62
     7
100
AcDbLine
 10
18.70010375976563
 20
108.6999893188477
 11
18.70010375976563
 21
90.29996490478516
  0
LINE
  5
41c
100
AcDbEntity
  8
0
  6
CONTINUOUS
 62
     7
100
AcDbLine
 10
-18.699951171875
 20
108.6999893188477
 11
18.70010375976563
 21
108.6999893188477
  0
LINE
  5
41d
100
AcDbEntity
  8
0
  6
CONTINUOUS
 62
     7
100
AcDbLine
 10
-18.699951171875
 20
108.6999893188477
 11
-18.699951171875
 21
90.29996490478516
  0
LINE
  5
41e
100
AcDbEntity
  8
0
  6
CONTINUOUS
 62
     7
100
AcDbLine
 10
-18.699951171875
 20
90.29998016357422
 11
18.70010375976563
 21
90.29998016357422
  0
LINE
  5
41f
100
AcDbEntity
  8
0
  6
CONTINUOUS
 62
     7
100
AcDbLine
 10
-5.999984741210938
 20
96.99996948242188
 11
-5.999984741210938
 21
90.29998016357422
  0
LINE
  5
420
100
AcDbEntity
  8
0
  6
CENTER
 62
     3
100
AcDbLine
 10
-5.999984741210938
 20
96.99996948242188
 11
5.999984741210938
 21
96.99996948242188
  0
LINE
  5
421
100
AcDbEntity
  8
0
  6
CONTINUOUS
 62
     7
100
AcDbLine
 10
-25.99998474121094
 20
122.9999923706055
 11
-25.99998474121094
 21
76.00001525878906
  0
LINE
  5
422
100
AcDbEntity
  8
0
  6
CONTINUOUS
 62
     7
100
AcDbLine
 10
-28.99997711181641
 20
88.49997711181641
 11
-25.99990844726563
 21
88.49997711181641
  0
LINE
  5
423
100
AcDbEntity
  8
0
  6
CONTINUOUS
 62
     7
100
AcDbLine
 10
-28.99997711181641
 20
115.4999923706055
 11
-28.99997711181641
 21
88.49997711181641
  0
LINE
  5
424
100
AcDbEntity
  8
0
  6
CONTINUOUS
 62
     7
100
AcDbLine
 10
-25.99998474121094
 20
115.9999847412109
 11
25.99998474121094
 21
115.9999847412109
  0
LINE
  5
425
100
AcDbEntity
  8
0
  6
CENTER
 62
     3
100
AcDbLine
 10
-21.99996948242188
 20
128.2229766845703
 11
-21.99996948242188
 21
122.9999923706055
  0
LINE
  5
426
100
AcDbEntity
  8
0
  6
CONTINUOUS
 62
     7
100
AcDbLine
 10
-28.99997711181641
 20
115.4999923706055
 11
-25.99990844726563
 21
115.4999923706055
  0
LINE
  5
427
100
AcDbEntity
  8
0
  6
CONTINUOUS
 62
     7
100
AcDbLine
 10
-25.99992676286853
 20
122.9999702538263
 11
-24.99994254941258
 21
167
  0
LINE
  5
428
100
AcDbEntity
  8
0
  6
CONTINUOUS
 62
     7
100
AcDbLine
 10
-25.99998474121094
 20
122.9999923706055
 11
-17.49914740695839
 21
122.9999923706055
  0
LINE
  5
429
100
AcDbEntity
  8
0
  6
CONTINUOUS
 62
     7
100
AcDbLine
 10
-16.50044967732637
 20
167
 11
-17.49914740695838
 21
122.9999923706055
  0
LINE
  5
42a
100
AcDbEntity
  8
0
  6
CONTINUOUS
 62
     7
100
AcDbLine
 10
-18.49998474121094
 20
123.9999771118164
 11
-25.50003051757813
 21
123.9999771118164
  0
LINE
  5
42b
100
AcDbEntity
  8
0
  6
CONTINUOUS
 62
     7
100
AcDbLine
 10
-18.49998474121094
 20
125.2999877929688
 11
-18.49998474121094
 21
122.9999923706055
  0
LINE
  5
42c
100
AcDbEntity
  8
0
  6
CONTINUOUS
 62
     7
100
AcDbLine
 10
-25.50003051757813
 20
125.2999877929688
 11
-25.50003051757813
 21
122.9999923706055
  0
LINE
  5
42d
100
AcDbEntity
  8
0
  6
CONTINUOUS
 62
     7
100
AcDbLine
 10
25.99998474121094
 20
122.9999923706055
 11
17.49936108502579
 21
122.9999923706055
  0
LINE
  5
42e
100
AcDbEntity
  8
0
  6
CONTINUOUS
 62
     7
100
AcDbLine
 10
25.99999699406569
 20
122.9999996065779
 11
24.99999434693768
 21
167
  0
LINE
  5
42f
100
AcDbEntity
  8
0
  6
CONTINUOUS
 62
     7
100
AcDbLine
 10
16.50066335539378
 20
167
 11
17.49936108502579
 21
122.9999923706055
  0
LINE
  5
430
100
AcDbEntity
  8
0
  6
CENTER
 62
     3
100
AcDbLine
 10
1.999969482421875
 20
162.5000305175781
 11
-1.999969482421875
 21
162.5000305175781
  0
LINE
  5
431
100
AcDbEntity
  8
0
  6
CONTINUOUS
 62
     7
100
AcDbLine
 10
24.99999434693768
 20
167
 11
-24.99994254941258
 21
167
  0
LINE
  5
432
100
AcDbEntity
  8
0
  6
CONTINUOUS
 62
     7
100
AcDbLine
 10
5.999984741210938
 20
96.99996948242188
 11
5.999984741210938
 21
90.29998016357422
  0
LINE
  5
433
100
AcDbEntity
  8
0
  6
DASHED
 62
     7
100
AcDbLine
 10
49.99991842977205
 20
-15.1000115662554
 11
33.99993399799042
 21
-14.76485966208797
  0
LINE
  5
434
100
AcDbEntity
  8
0
  6
DASHED
 62
     7
100
AcDbLine
 10
49.99994548629699
 20
15.09999496310548
 11
33.99992291590897
 21
14.76484226004811
  0
LINE
  5
435
100
AcDbEntity
  8
0
  6
DASHED
 62
     7
100
AcDbLine
 10
49.99996120504436
 20
16.49999105528952
 11
33.99997677326272
 21
16.1648391511221
  0
LINE
  5
436
100
AcDbEntity
  8
0
  6
CENTER
 62
     3
100
AcDbLine
 10
-103.1492080688477
 20
101.9999694824219
 11
-25.99985313415527
 21
101.9999694824219
  0
LINE
  5
437
100
AcDbEntity
  8
0
  6
CONTINUOUS
 62
     7
100
AcDbLine
 10
-31.99996948242188
 20
112.4999694824219
 11
-28.99997329711914
 21
112.4999694824219
  0
LINE
  5
438
100
AcDbEntity
  8
0
  6
CONTINUOUS
 62
     7
100
AcDbLine
 10
-28.99997444786406
 20
111.2999579929889
 11
-31.07844333631987
 21
112.4999625867791
  0
LINE
  5
439
100
AcDbEntity
  8
0
  6
CONTINUOUS
 62
     7
100
AcDbLine
 10
-31.99996948242188
 20
118.9999694824219
 11
-31.99996948242188
 21
87.99996948242188
  0
LINE
  5
43a
100
AcDbEntity
  8
0
  6
CONTINUOUS
 62
     7
100
AcDbLine
 10
-99.99996948242188
 20
115.9999694824219
 11
-31.99996948242188
 21
115.9999694824219
  0
LINE
  5
43b
100
AcDbEntity
  8
0
  6
CONTINUOUS
 62
     7
100
AcDbLine
 10
-77.99996948242188
 20
116.9999694824219
 11
-31.99996948242188
 21
116.9999694824219
  0
LINE
  5
43c
100
AcDbEntity
  8
0
  6
CONTINUOUS
 62
     7
100
AcDbLine
 10
-77.99996948242188
 20
118.9999694824219
 11
-31.99996948242188
 21
118.9999694824219
  0
LINE
  5
43d
100
AcDbEntity
  8
0
  6
CONTINUOUS
 62
     7
100
AcDbLine
 10
-32.99997380773647
 20
118.9999676061162
 11
-33.99997418088091
 21
124.9999694824219
  0
LINE
  5
43e
100
AcDbEntity
  8
0
  6
CONTINUOUS
 62
     7
100
AcDbLine
 10
-75.99996947950191
 20
124.9999694824219
 11
-33.99997418088091
 21
124.9999694824219
  0
LINE
  5
43f
100
AcDbEntity
  8
0
  6
CONTINUOUS
 62
     7
100
AcDbLine
 10
-41.99996138632475
 20
118.9999623440838
 11
-42.99996263647465
 21
124.9999694824219
  0
LINE
  5
440
100
AcDbEntity
  8
0
  6
CENTER
 62
     3
100
AcDbLine
 10
-54.99996948242188
 20
127.1227951049805
 11
-54.99996948242188
 21
86.47079467773438
  0
LINE
  5
441
100
AcDbEntity
  8
0
  6
CONTINUOUS
 62
     7
100
AcDbLine
 10
-28.99996899662797
 20
92.69995733986691
 11
-31.07842301877253
 21
91.49996132914569
  0
LINE
  5
442
100
AcDbEntity
  8
0
  6
CONTINUOUS
 62
     7
100
AcDbLine
 10
-31.99996948242188
 20
91.49996948242188
 11
-28.99997329711914
 21
91.49996948242188
  0
LINE
  5
443
100
AcDbEntity
  8
0
  6
CONTINUOUS
 62
     7
100
AcDbLine
 10
-99.99996948242188
 20
87.99996948242188
 11
-31.99996948242188
 21
87.99996948242188
  0
LINE
  5
444
100
AcDbEntity
  8
0
  6
CONTINUOUS
 62
     7
100
AcDbLine
 10
-40.99996948242188
 20
110.9999694824219
 11
-40.99996948242188
 21
87.99996948242188
  0
LINE
  5
445
100
AcDbEntity
  8
0
  6
CONTINUOUS
 62
     7
100
AcDbLine
 10
-68.99996948242188
 20
110.9999694824219
 11
-68.99996948242188
 21
87.99996948242188
  0
LINE
  5
446
100
AcDbEntity
  8
0
  6
CONTINUOUS
 62
     7
100
AcDbLine
 10
-77.99996948242188
 20
118.9999694824219
 11
-77.99996948242188
 21
87.99996948242188
  0
LINE
  5
447
100
AcDbEntity
  8
0
  6
CONTINUOUS
 62
     7
100
AcDbLine
 10
-99.99996948242188
 20
115.9999694824219
 11
-99.99996948242188
 21
87.99996948242188
  0
LINE
  5
448
100
AcDbEntity
  8
0
  6
DASHED
 62
     7
100
AcDbLine
 10
-98.46170901710597
 20
112.4999694824219
 11
-84.99996948242188
 21
112.4999694824219
  0
LINE
  5
449
100
AcDbEntity
  8
0
  6
DASHED
 62
     7
100
AcDbLine
 10
-99.99996948242188
 20
111.2999649047852
 11
-84.99996948242188
 21
111.2999649047852
  0
LINE
  5
44a
100
AcDbEntity
  8
0
  6
DASHED
 62
     7
100
AcDbLine
 10
-99.99996948242188
 20
92.69996643066406
 11
-84.99996948242188
 21
92.69996643066406
  0
LINE
  5
44b
100
AcDbEntity
  8
0
  6
DASHED
 62
     7
100
AcDbLine
 10
-99.99996948242188
 20
91.49996948242188
 11
-84.99996948242188
 21
91.49996948242188
  0
LINE
  5
44c
100
AcDbEntity
  8
0
  6
CONTINUOUS
 62
     7
100
AcDbLine
 10
-75.99996948242188
 20
99.99996948242188
 11
-68.99996948242188
 21
99.99996948242188
  0
LINE
  5
44d
100
AcDbEntity
  8
0
  6
CONTINUOUS
 62
     7
100
AcDbLine
 10
-75.99996948242188
 20
110.9999694824219
 11
-75.99996948242188
 21
99.99996948242188
  0
LINE
  5
44e
100
AcDbEntity
  8
0
  6
CONTINUOUS
 62
     7
100
AcDbLine
 10
-77.99996948242188
 20
110.9999694824219
 11
-31.99996948242188
 21
110.9999694824219
  0
LINE
  5
44f
100
AcDbEntity
  8
0
  6
CONTINUOUS
 62
     7
100
AcDbLine
 10
-33.99996948242188
 20
110.9999694824219
 11
-33.99996948242188
 21
99.99996948242188
  0
LINE
  5
450
100
AcDbEntity
  8
0
  6
CONTINUOUS
 62
     7
100
AcDbLine
 10
-40.99996948242188
 20
99.99996948242188
 11
-33.99996948242188
 21
99.99996948242188
  0
LINE
  5
451
100
AcDbEntity
  8
0
  6
CONTINUOUS
 62
     7
100
AcDbLine
 10
-67.99996644223214
 20
118.9999703204229
 11
-66.99996652147216
 21
124.9999694824219
  0
LINE
  5
452
100
AcDbEntity
  8
0
  6
CONTINUOUS
 62
     7
100
AcDbLine
 10
-76.99997063982828
 20
118.999962883025
 11
-75.99996947950191
 21
124.9999694824219
  0
LINE
  5
453
100
AcDbEntity
  8
0
  6
CONTINUOUS
 62
     7
100
AcDbLine
 10
25.50003051757813
 20
125.2999877929688
 11
25.50003051757813
 21
122.9999923706055
  0
LINE
  5
454
100
AcDbEntity
  8
0
  6
CONTINUOUS
 62
     7
100
AcDbLine
 10
18.49998474121094
 20
125.2999877929688
 11
18.49998474121094
 21
122.9999923706055
  0
LINE
  5
455
100
AcDbEntity
  8
0
  6
CONTINUOUS
 62
     7
100
AcDbLine
 10
18.49998474121094
 20
123.9999771118164
 11
25.50003051757813
 21
123.9999771118164
  0
LINE
  5
456
100
AcDbEntity
  8
0
  6
CENTER
 62
     3
100
AcDbLine
 10
21.99996948242188
 20
128.2229766845703
 11
21.99996948242188
 21
122.9999923706055
  0
LINE
  5
457
100
AcDbEntity
  8
0
  6
CONTINUOUS
 62
     7
100
AcDbLine
 10
15
 20
76
 11
15
 21
67
  0
LINE
  5
458
100
AcDbEntity
  8
0
  6
CONTINUOUS
 62
     7
100
AcDbLine
 10
15
 20
67
 11
30
 21
67
  0
LINE
  5
459
100
AcDbEntity
  8
0
  6
CENTER
 62
     3
100
AcDbLine
 10
22.99999237060547
 20
75.25000762939453
 11
22.99999237060547
 21
25.9999942779541
  0
LINE
  5
45a
100
AcDbEntity
  8
0
  6
CONTINUOUS
 62
     7
100
AcDbLine
 10
27.99999237060547
 20
74.5
 11
27.99999237060547
 21
67
  0
LINE
  5
45b
100
AcDbEntity
  8
0
  6
CONTINUOUS
 62
     7
100
AcDbLine
 10
17.99999237060547
 20
74.5
 11
17.99999237060547
 21
67
  0
LINE
  5
45c
100
AcDbEntity
  8
0
  6
CONTINUOUS
 62
     7
100
AcDbLine
 10
17.99999237060547
 20
68.50001525878906
 11
27.99999237060547
 21
68.50001525878906
  0
LINE
  5
45d
100
AcDbEntity
  8
0
  6
CONTINUOUS
 62
     7
100
AcDbLine
 10
17.99999237060547
 20
74.5
 11
27.99999237060547
 21
74.5
  0
LINE
  5
45e
100
AcDbEntity
  8
0
  6
CONTINUOUS
 62
     7
100
AcDbLine
 10
-41.50003051757813
 20
121.2999649047852
 11
-41.50003051757813
 21
118.9999694824219
  0
LINE
  5
45f
100
AcDbEntity
  8
0
  6
CONTINUOUS
 62
     7
100
AcDbLine
 10
-34.49998474121094
 20
121.2999649047852
 11
-34.49998474121094
 21
118.9999694824219
  0
LINE
  5
460
100
AcDbEntity
  8
0
  6
CONTINUOUS
 62
     7
100
AcDbLine
 10
-34.49998474121094
 20
119.9999542236328
 11
-41.50003051757813
 21
119.9999542236328
  0
LINE
  5
461
100
AcDbEntity
  8
0
  6
CENTER
 62
     3
100
AcDbLine
 10
-37.99996948242188
 20
124.2229537963867
 11
-37.99996948242188
 21
118.9999694824219
  0
LINE
  5
462
100
AcDbEntity
  8
0
  6
CONTINUOUS
 62
     7
100
AcDbLine
 10
-75.50003051757813
 20
121.2999649047852
 11
-75.50003051757813
 21
118.9999694824219
  0
LINE
  5
463
100
AcDbEntity
  8
0
  6
CENTER
 62
     3
100
AcDbLine
 10
-71.99996948242188
 20
124.2229537963867
 11
-71.99996948242188
 21
118.9999694824219
  0
LINE
  5
464
100
AcDbEntity
  8
0
  6
CONTINUOUS
 62
     7
100
AcDbLine
 10
-68.49998474121094
 20
119.9999542236328
 11
-75.50003051757813
 21
119.9999542236328
  0
LINE
  5
465
100
AcDbEntity
  8
0
  6
CONTINUOUS
 62
     7
100
AcDbLine
 10
-68.49998474121094
 20
121.2999649047852
 11
-68.49998474121094
 21
118.9999694824219
  0
CIRCLE
  5
466
100
AcDbEntity
  8
0
  6
CONTINUOUS
 62
     7
100
AcDbCircle
 10
0
 20
18.00000190734863
 40
2.5
  0
CIRCLE
  5
467
100
AcDbEntity
  8
0
  6
CONTINUOUS
 62
     7
100
AcDbCircle
 10
0
 20
18.00000190734863
 40
2.049999952316284
  0
CIRCLE
  5
468
100
AcDbEntity
  8
0
  6
CONTINUOUS
 62
     7
100
AcDbCircle
 10
0
 20
96.99996948242188
 40
5
  0
ARC
  5
469
100
AcDbEntity
  8
0
  6
CONTINUOUS
 62
     7
100
AcDbCircle
 10
0
 20
96.99996948242188
 40
6
100
AcDbArc
 50
0
 51
179.9999640278213
  0
CIRCLE
  5
46a
100
AcDbEntity
  8
0
  6
CONTINUOUS
 62
     7
100
AcDbCircle
 10
0
 20
162.5000305175781
 40
1
  0
ARC
  5
46b
100
AcDbEntity
  8
0
  6
CONTINUOUS
 62
     7
100
AcDbCircle
 10
-22.00000762939453
 20
121.2384317617971
 40
5.361566712459667
100
AcDbArc
 50
49.24706685261804
 51
130.752933147382
  0
ARC
  5
46c
100
AcDbEntity
  8
0
  6
CONTINUOUS
 62
     7
100
AcDbCircle
 10
22.00000762939453
 20
121.2384317617971
 40
5.361566712459667
100
AcDbArc
 50
49.24706685261807
 51
130.752933147382
  0
ARC
  5
46d
100
AcDbEntity
  8
0
  6
CONTINUOUS
 62
     7
100
AcDbCircle
 10
-38.00000762939453
 20
117.2384088736135
 40
5.361566712459667
100
AcDbArc
 50
49.24706685261804
 51
130.752933147382
  0
ARC
  5
46e
100
AcDbEntity
  8
0
  6
CONTINUOUS
 62
     7
100
AcDbCircle
 10
-72.00000762939453
 20
117.2384088736135
 40
5.361566712459667
100
AcDbArc
 50
49.24706685261804
 51
130.752933147382
  0
MTEXT
  5
46f
100
AcDbEntity
  8
0
  6
CONTINUOUS
 62
     7
100
AcDbMText
 10
-14.2160762399435
 20
154.994140625
 40
0.5
 41
36
 71
     7
 72
     1
  1
{\W0.8426;ＢＮ－５ＢＰ２１－２５－Ｇ／Ｈ＊＊＊}
  0
INSERT
  5
470
100
AcDbEntity
  8
0
  6
CONTINUOUS
 62
     7
100
AcDbBlockReference
  2
KOZU0012
 10
0
 20
0
  0
ENDBLK
  8
0
  5
471
100
AcDbEntity
100
AcDbBlockEnd
  0
BLOCK
  8
0
  5
472
100
AcDbEntity
100
AcDbBlockBegin
  2
KOZU0006
 70
    64
 10
0
 20
0
  0
POINT
  5
473
100
AcDbEntity
  8
0
  6
CONTINUOUS
 62
     7
100
AcDbPoint
 10
0
 20
0
  0
LINE
  5
474
100
AcDbEntity
  8
0
  6
CENTER
 62
     3
100
AcDbLine
 10
-55.26393890380859
 20
0
 11
104.8249969482422
 21
0
  0
LINE
  5
475
100
AcDbEntity
  8
0
  6
CENTER
 62
     3
100
AcDbLine
 10
0
 20
33.88817596435547
 11
0
 21
-33.68365097045898
  0
LINE
  5
476
100
AcDbEntity
  8
0
  6
CONTINUOUS
 62
     7
100
AcDbLine
 10
30
 20
23
 11
30
 21
-23.00000190734863
  0
LINE
  5
477
100
AcDbEntity
  8
0
  6
CONTINUOUS
 62
     7
100
AcDbLine
 10
-30
 20
23
 11
-30
 21
-23.00000190734863
  0
LINE
  5
478
100
AcDbEntity
  8
0
  6
CONTINUOUS
 62
     7
100
AcDbLine
 10
-23
 20
30
 11
23.00000190734863
 21
30
  0
LINE
  5
479
100
AcDbEntity
  8
0
  6
CONTINUOUS
 62
     7
100
AcDbLine
 10
-23
 20
-30
 11
23.00000190734863
 21
-30
  0
LINE
  5
47a
100
AcDbEntity
  8
0
  6
CONTINUOUS
 62
     7
100
AcDbLine
 10
-50
 20
-21.99999809265137
 11
-30
 21
-21.99999809265137
  0
LINE
  5
47b
100
AcDbEntity
  8
0
  6
CONTINUOUS
 62
     7
100
AcDbLine
 10
-50
 20
22
 11
-50
 21
-21.99999809265137
  0
LINE
  5
47c
100
AcDbEntity
  8
0
  6
CONTINUOUS
 62
     7
100
AcDbLine
 10
-50
 20
22
 11
-30
 21
22
  0
LINE
  5
47d
100
AcDbEntity
  8
0
  6
CONTINUOUS
 62
     7
100
AcDbLine
 10
50
 20
22
 11
50
 21
-21.99999809265137
  0
LINE
  5
47e
100
AcDbEntity
  8
0
  6
CONTINUOUS
 62
     7
100
AcDbLine
 10
30
 20
22
 11
50
 21
22
  0
LINE
  5
47f
100
AcDbEntity
  8
0
  6
CONTINUOUS
 62
     7
100
AcDbLine
 10
30
 20
-21.99999809265137
 11
50
 21
-21.99999809265137
  0
LINE
  5
480
100
AcDbEntity
  8
0
  6
CONTINUOUS
 62
     7
100
AcDbLine
 10
72
 20
23
 11
38
 21
23
  0
LINE
  5
481
100
AcDbEntity
  8
0
  6
CONTINUOUS
 62
     7
100
AcDbLine
 10
69
 20
23
 11
69
 21
14
  0
LINE
  5
482
100
AcDbEntity
  8
0
  6
CONTINUOUS
 62
     7
100
AcDbLine
 10
72
 20
21
 11
69
 21
21
  0
LINE
  5
483
100
AcDbEntity
  8
0
  6
CONTINUOUS
 62
     7
100
AcDbLine
 10
76
 20
17
 11
76
 21
14
  0
LINE
  5
484
100
AcDbEntity
  8
0
  6
CONTINUOUS
 62
     7
100
AcDbLine
 10
78
 20
17
 11
78
 21
-17
  0
LINE
  5
485
100
AcDbEntity
  8
0
  6
CONTINUOUS
 62
     7
100
AcDbLine
 10
78
 20
14
 11
69
 21
14
  0
LINE
  5
486
100
AcDbEntity
  8
0
  6
CENTER
 62
     3
100
AcDbLine
 10
55
 20
23
 11
55
 21
-23
  0
LINE
  5
487
100
AcDbEntity
  8
0
  6
CONTINUOUS
 62
     7
100
AcDbLine
 10
72
 20
-23
 11
38
 21
-23
  0
LINE
  5
488
100
AcDbEntity
  8
0
  6
CONTINUOUS
 62
     7
100
AcDbLine
 10
72
 20
-21
 11
69
 21
-21
  0
LINE
  5
489
100
AcDbEntity
  8
0
  6
CONTINUOUS
 62
     7
100
AcDbLine
 10
69
 20
-14
 11
69
 21
-23
  0
LINE
  5
48a
100
AcDbEntity
  8
0
  6
CONTINUOUS
 62
     7
100
AcDbLine
 10
78
 20
-14
 11
69
 21
-14
  0
LINE
  5
48b
100
AcDbEntity
  8
0
  6
CONTINUOUS
 62
     7
100
AcDbLine
 10
76
 20
-14
 11
76
 21
-17
  0
LINE
  5
48c
100
AcDbEntity
  8
0
  6
CONTINUOUS
 62
     7
100
AcDbLine
 10
100
 20
-14
 11
78
 21
-14
  0
LINE
  5
48d
100
AcDbEntity
  8
0
  6
CONTINUOUS
 62
     7
100
AcDbLine
 10
100
 20
14
 11
100
 21
-14
  0
LINE
  5
48e
100
AcDbEntity
  8
0
  6
CONTINUOUS
 62
     7
100
AcDbLine
 10
100
 20
14
 11
78
 21
14
  0
LINE
  5
48f
100
AcDbEntity
  8
0
  6
DASHED
 62
     7
100
AcDbLine
 10
89
 20
-10.69999980926514
 11
100
 21
-10.69999980926514
  0
LINE
  5
490
100
AcDbEntity
  8
0
  6
DASHED
 62
     7
100
AcDbLine
 10
89
 20
10.69999980926514
 11
100
 21
10.69999980926514
  0
LINE
  5
491
100
AcDbEntity
  8
0
  6
DASHED
 62
     7
100
AcDbLine
 10
89
 20
-9.5
 11
100
 21
-9.5
  0
LINE
  5
492
100
AcDbEntity
  8
0
  6
DASHED
 62
     7
100
AcDbLine
 10
89
 20
9.5
 11
100
 21
9.5
  0
LINE
  5
493
100
AcDbEntity
  8
0
  6
DASHED
 62
     7
100
AcDbLine
 10
-49.99999897199619
 20
-16.79999973940634
 11
-32.0000008705069
 21
-16.32865320834742
  0
LINE
  5
494
100
AcDbEntity
  8
0
  6
DASHED
 62
     7
100
AcDbLine
 10
-49.99999897199619
 20
16.79999973940634
 11
-32.0000008705069
 21
16.32865320834742
  0
LINE
  5
495
100
AcDbEntity
  8
0
  6
DASHED
 62
     7
100
AcDbLine
 10
-50.00000172973508
 20
15.29948562290027
 11
-31.99999981485572
 21
14.82813899198422
  0
LINE
  5
496
100
AcDbEntity
  8
0
  6
DASHED
 62
     7
100
AcDbLine
 10
-50.00000172973508
 20
-15.29948562290027
 11
-31.99999981485572
 21
-14.82813899198422
  0
LINE
  5
497
100
AcDbEntity
  8
0
  6
DASHED
 62
     7
100
AcDbLine
 10
49.99999897199619
 20
-16.79999973940634
 11
32.0000008705069
 21
-16.32865320834742
  0
LINE
  5
498
100
AcDbEntity
  8
0
  6
DASHED
 62
     7
100
AcDbLine
 10
50.00000554312514
 20
-15.2994857227574
 11
31.99999981485572
 21
-14.82813899198422
  0
LINE
  5
499
100
AcDbEntity
  8
0
  6
DASHED
 62
     7
100
AcDbLine
 10
50.00000554312514
 20
15.2994857227574
 11
31.99999981485572
 21
14.82813899198422
  0
LINE
  5
49a
100
AcDbEntity
  8
0
  6
DASHED
 62
     7
100
AcDbLine
 10
49.99999897199619
 20
16.79999973940634
 11
32.0000008705069
 21
16.32865320834742
  0
LINE
  5
49b
100
AcDbEntity
  8
0
  6
CONTINUOUS
 62
     7
100
AcDbLine
 10
41
 20
23
 11
41
 21
22
  0
LINE
  5
49c
100
AcDbEntity
  8
0
  6
CONTINUOUS
 62
     7
100
AcDbLine
 10
41
 20
-21.99999809265137
 11
41
 21
-23
  0
CIRCLE
  5
49d
100
AcDbEntity
  8
0
  6
CONTINUOUS
 62
     7
100
AcDbCircle
 10
0
 20
0
 40
22.5
  0
ARC
  5
49e
100
AcDbEntity
  8
0
  6
CONTINUOUS
 62
     7
100
AcDbCircle
 10
-23
 20
-23.00000190734863
 40
7
100
AcDbArc
 50
179.9999776881997
 51
270.0000280040027
  0
ARC
  5
49f
100
AcDbEntity
  8
0
  6
CONTINUOUS
 62
     7
100
AcDbCircle
 10
23.00000190734863
 20
23
 40
7
100
AcDbArc
 50
0
 51
89.99998201391064
  0
ARC
  5
4a0
100
AcDbEntity
  8
0
  6
CONTINUOUS
 62
     7
100
AcDbCircle
 10
-23
 20
23
 40
7
100
AcDbArc
 50
89.99998201391064
 51
179.9999640278213
  0
ARC
  5
4a1
100
AcDbEntity
  8
0
  6
CONTINUOUS
 62
     7
100
AcDbCircle
 10
23.00000190734863
 20
-23.00000190734863
 40
7
100
AcDbArc
 50
270.00001798609
 51
360
  0
CIRCLE
  5
4a2
100
AcDbEntity
  8
0
  6
CONTINUOUS
 62
     7
100
AcDbCircle
 10
0
 20
0
 40
24
  0
ARC
  5
4a3
100
AcDbEntity
  8
0
  6
CONTINUOUS
 62
     7
100
AcDbCircle
 10
72
 20
17
 40
6
100
AcDbArc
 50
5.46415133601103e-005
 51
90.00003665542405
  0
ARC
  5
4a4
100
AcDbEntity
  8
0
  6
CONTINUOUS
 62
     7
100
AcDbCircle
 10
72
 20
17
 40
4
100
AcDbArc
 50
5.46415133601103e-005
 51
90.00003665542391
  0
ARC
  5
4a5
100
AcDbEntity
  8
0
  6
CONTINUOUS
 62
     7
100
AcDbCircle
 10
72
 20
-17
 40
4
100
AcDbArc
 50
270.0000179860901
 51
5.46415133601103e-005
  0
ARC
  5
4a6
100
AcDbEntity
  8
0
  6
CONTINUOUS
 62
     7
100
AcDbCircle
 10
72
 20
-17
 40
6
100
AcDbArc
 50
270.00001798609
 51
5.46415133601103e-005
  0
ARC
  5
4a7
100
AcDbEntity
  8
0
  6
CONTINUOUS
 62
     7
100
AcDbCircle
 10
38
 20
-17
 40
6
100
AcDbArc
 50
236.4426428956571
 51
270.0000726276035
  0
ARC
  5
4a8
100
AcDbEntity
  8
0
  6
CONTINUOUS
 62
     7
100
AcDbCircle
 10
38
 20
17
 40
6
100
AcDbArc
 50
90.000036655424
 51
123.5573161232086
  0
MTEXT
  5
4a9
100
AcDbEntity
  8
0
  6
CONTINUOUS
 62
     7
100
AcDbMText
 10
-24.06617580354214
 20
26.03069496154785
 40
0.5
 41
36
 71
     7
 72
     1
  1
{\W0.8426;ＢＮ－５ＢＰ２１－２５－Ｇ／Ｈ＊＊＊}
  0
ENDBLK
  8
0
  5
4aa
100
AcDbEntity
100
AcDbBlockEnd
  0
BLOCK
  8
0
  5
4ab
100
AcDbEntity
100
AcDbBlockBegin
  2
KOZU0007
 70
    64
 10
0
 20
0
  0
LINE
  5
4ac
100
AcDbEntity
  8
0
  6
CONTINUOUS
 62
     7
100
AcDbLine
 10
-9.693610390570161
 20
-40.00000762939453
 11
-9.500015258789063
 21
-39.80641211042278
  0
LINE
  5
4ad
100
AcDbEntity
  8
0
  6
CONTINUOUS
 62
     7
100
AcDbLine
 10
-11.37740670418705
 20
-40.00000762939453
 11
-9.500015258789063
 21
-38.1226124292099
  0
LINE
  5
4ae
100
AcDbEntity
  8
0
  6
CONTINUOUS
 62
     7
100
AcDbLine
 10
-13.06120301780393
 20
-40.00000762939453
 11
-9.500015258789063
 21
-36.43881274799702
  0
LINE
  5
4af
100
AcDbEntity
  8
0
  6
CONTINUOUS
 62
     7
100
AcDbLine
 10
-14.74499933142082
 20
-40.00000762939453
 11
-9.500015258789061
 21
-34.75501306678414
  0
LINE
  5
4b0
100
AcDbEntity
  8
0
  6
CONTINUOUS
 62
     7
100
AcDbLine
 10
-16.4287956450377
 20
-40.00000762939453
 11
-9.500015258789064
 21
-33.07121338557126
  0
LINE
  5
4b1
100
AcDbEntity
  8
0
  6
CONTINUOUS
 62
     7
100
AcDbLine
 10
-18.11259195865459
 20
-40.00000762939453
 11
-9.500015258789064
 21
-31.38741370435838
  0
LINE
  5
4b2
100
AcDbEntity
  8
0
  6
CONTINUOUS
 62
     7
100
AcDbLine
 10
-19.50001525878906
 20
-39.70363402316551
 11
-9.796410179596293
 21
-30.00000953674316
  0
LINE
  5
4b3
100
AcDbEntity
  8
0
  6
CONTINUOUS
 62
     7
100
AcDbLine
 10
-19.50001525878907
 20
-38.01983434195262
 11
-11.48020649321318
 21
-30.00000953674316
  0
LINE
  5
4b4
100
AcDbEntity
  8
0
  6
CONTINUOUS
 62
     7
100
AcDbLine
 10
-19.50001525878906
 20
-36.33603466073974
 11
-13.16400280683006
 21
-30.00000953674316
  0
LINE
  5
4b5
100
AcDbEntity
  8
0
  6
CONTINUOUS
 62
     7
100
AcDbLine
 10
-19.50001525878906
 20
-34.65223497952685
 11
-14.84779912044695
 21
-30.00000953674316
  0
LINE
  5
4b6
100
AcDbEntity
  8
0
  6
CONTINUOUS
 62
     7
100
AcDbLine
 10
-19.50001525878906
 20
-32.96843529831398
 11
-16.53159543406383
 21
-30.00000953674316
  0
LINE
  5
4b7
100
AcDbEntity
  8
0
  6
CONTINUOUS
 62
     7
100
AcDbLine
 10
-19.50001525878906
 20
-31.2846356171011
 11
-18.21539174768072
 21
-30.00000953674316
  0
LINE
  5
4b8
100
AcDbEntity
  8
0
  6
CONTINUOUS
 62
     7
100
AcDbLine
 10
-9.500015258789064
 20
-30.8981317004925
 11
-10.39813921878453
 21
-30.00000953674316
  0
LINE
  5
4b9
100
AcDbEntity
  8
0
  6
CONTINUOUS
 62
     7
100
AcDbLine
 10
-9.500015258789064
 20
-32.58192801410938
 11
-12.0819388999974
 21
-30.00000953674316
  0
LINE
  5
4ba
100
AcDbEntity
  8
0
  6
CONTINUOUS
 62
     7
100
AcDbLine
 10
-9.500015258789064
 20
-34.26572432772627
 11
-13.76573858121028
 21
-30.00000953674316
  0
LINE
  5
4bb
100
AcDbEntity
  8
0
  6
CONTINUOUS
 62
     7
100
AcDbLine
 10
-9.500015258789059
 20
-35.94952064134316
 11
-15.44953826242316
 21
-30.00000953674316
  0
LINE
  5
4bc
100
AcDbEntity
  8
0
  6
CONTINUOUS
 62
     7
100
AcDbLine
 10
-9.500015258789059
 20
-37.63331695496004
 11
-17.13333794363604
 21
-30.00000953674316
  0
LINE
  5
4bd
100
AcDbEntity
  8
0
  6
CONTINUOUS
 62
     7
100
AcDbLine
 10
-9.500015258789061
 20
-39.31711326857692
 11
-18.81713762484892
 21
-30.00000953674316
  0
LINE
  5
4be
100
AcDbEntity
  8
0
  6
CONTINUOUS
 62
     7
100
AcDbLine
 10
-10.50091921339424
 20
-40.00000762939453
 11
-19.50001525878906
 21
-31.00092958217381
  0
LINE
  5
4bf
100
AcDbEntity
  8
0
  6
CONTINUOUS
 62
     7
100
AcDbLine
 10
-12.18471889460712
 20
-40.00000762939453
 11
-19.50001525878906
 21
-32.68472589579069
  0
LINE
  5
4c0
100
AcDbEntity
  8
0
  6
CONTINUOUS
 62
     7
100
AcDbLine
 10
-13.86851857582001
 20
-40.00000762939453
 11
-19.50001525878906
 21
-34.36852220940758
  0
LINE
  5
4c1
100
AcDbEntity
  8
0
  6
CONTINUOUS
 62
     7
100
AcDbLine
 10
-15.55231825703289
 20
-40.00000762939453
 11
-19.50001525878906
 21
-36.05231852302447
  0
LINE
  5
4c2
100
AcDbEntity
  8
0
  6
CONTINUOUS
 62
     7
100
AcDbLine
 10
-17.23611793824576
 20
-40.00000762939453
 11
-19.50001525878906
 21
-37.73611483664135
  0
LINE
  5
4c3
100
AcDbEntity
  8
0
  6
CONTINUOUS
 62
     7
100
AcDbLine
 10
-18.91991761945865
 20
-40.00000762939453
 11
-19.50001525878906
 21
-39.41991115025823
  0
ENDBLK
  8
0
  5
4c4
100
AcDbEntity
100
AcDbBlockEnd
  0
BLOCK
  8
0
  5
4c5
100
AcDbEntity
100
AcDbBlockBegin
  2
KOZU0008
 70
    64
 10
0
 20
0
  0
LINE
  5
4c6
100
AcDbEntity
  8
0
  6
CONTINUOUS
 62
     3
100
AcDbLine
 10
28.43146584562921
 20
19.04999923706055
 11
30
 21
20.61853659706573
  0
LINE
  5
4c7
100
AcDbEntity
  8
0
  6
CONTINUOUS
 62
     3
100
AcDbLine
 10
27
 20
19.41458298997086
 11
30
 21
22.41458912111129
  0
LINE
  5
4c8
100
AcDbEntity
  8
0
  6
CONTINUOUS
 62
     3
100
AcDbLine
 10
27
 20
21.21063551401643
 11
30
 21
24.21064164515686
  0
LINE
  5
4c9
100
AcDbEntity
  8
0
  6
CONTINUOUS
 62
     3
100
AcDbLine
 10
27
 20
23.00668803806199
 11
28.94329921658751
 21
24.94999122619629
  0
LINE
  5
4ca
100
AcDbEntity
  8
0
  6
CONTINUOUS
 62
     3
100
AcDbLine
 10
27.00000000000001
 20
24.80274056210756
 11
27.14725036315119
 21
24.9499912261963
  0
LINE
  5
4cb
100
AcDbEntity
  8
0
  6
CONTINUOUS
 62
     3
100
AcDbLine
 10
30
 20
24.69708562899272
 11
29.74709388592986
 21
24.94999122619629
  0
LINE
  5
4cc
100
AcDbEntity
  8
0
  6
CONTINUOUS
 62
     3
100
AcDbLine
 10
30
 20
22.9010367755564
 11
27.95104136188429
 21
24.94999122619629
  0
LINE
  5
4cd
100
AcDbEntity
  8
0
  6
CONTINUOUS
 62
     3
100
AcDbLine
 10
30
 20
21.10498792212009
 11
27
 21
24.10498179099218
  0
LINE
  5
4ce
100
AcDbEntity
  8
0
  6
CONTINUOUS
 62
     3
100
AcDbLine
 10
30
 20
19.30893906868377
 11
27
 21
22.30893293755587
  0
LINE
  5
4cf
100
AcDbEntity
  8
0
  6
CONTINUOUS
 62
     3
100
AcDbLine
 10
28.46288783677649
 20
19.04999923706055
 11
27
 21
20.51288408411955
  0
ENDBLK
  8
0
  5
4d0
100
AcDbEntity
100
AcDbBlockEnd
  0
BLOCK
  8
0
  5
4d1
100
AcDbEntity
100
AcDbBlockBegin
  2
KOZU0009
 70
    64
 10
0
 20
0
  0
LINE
  5
4d2
100
AcDbEntity
  8
0
  6
CONTINUOUS
 62
     7
100
AcDbLine
 10
-9.693610390570161
 20
-40.00000762939453
 11
-9.500015258789063
 21
-39.80641211042278
  0
LINE
  5
4d3
100
AcDbEntity
  8
0
  6
CONTINUOUS
 62
     7
100
AcDbLine
 10
-11.37740670418705
 20
-40.00000762939453
 11
-9.500015258789063
 21
-38.1226124292099
  0
LINE
  5
4d4
100
AcDbEntity
  8
0
  6
CONTINUOUS
 62
     7
100
AcDbLine
 10
-13.06120301780393
 20
-40.00000762939453
 11
-9.500015258789063
 21
-36.43881274799702
  0
LINE
  5
4d5
100
AcDbEntity
  8
0
  6
CONTINUOUS
 62
     7
100
AcDbLine
 10
-14.74499933142082
 20
-40.00000762939453
 11
-9.500015258789061
 21
-34.75501306678414
  0
LINE
  5
4d6
100
AcDbEntity
  8
0
  6
CONTINUOUS
 62
     7
100
AcDbLine
 10
-16.4287956450377
 20
-40.00000762939453
 11
-9.500015258789064
 21
-33.07121338557126
  0
LINE
  5
4d7
100
AcDbEntity
  8
0
  6
CONTINUOUS
 62
     7
100
AcDbLine
 10
-18.11259195865459
 20
-40.00000762939453
 11
-9.500015258789064
 21
-31.38741370435838
  0
LINE
  5
4d8
100
AcDbEntity
  8
0
  6
CONTINUOUS
 62
     7
100
AcDbLine
 10
-19.50001525878906
 20
-39.70363402316551
 11
-9.796410179596293
 21
-30.00000953674316
  0
LINE
  5
4d9
100
AcDbEntity
  8
0
  6
CONTINUOUS
 62
     7
100
AcDbLine
 10
-19.50001525878907
 20
-38.01983434195262
 11
-11.48020649321318
 21
-30.00000953674316
  0
LINE
  5
4da
100
AcDbEntity
  8
0
  6
CONTINUOUS
 62
     7
100
AcDbLine
 10
-19.50001525878906
 20
-36.33603466073974
 11
-13.16400280683006
 21
-30.00000953674316
  0
LINE
  5
4db
100
AcDbEntity
  8
0
  6
CONTINUOUS
 62
     7
100
AcDbLine
 10
-19.50001525878906
 20
-34.65223497952685
 11
-14.84779912044695
 21
-30.00000953674316
  0
LINE
  5
4dc
100
AcDbEntity
  8
0
  6
CONTINUOUS
 62
     7
100
AcDbLine
 10
-19.50001525878906
 20
-32.96843529831398
 11
-16.53159543406383
 21
-30.00000953674316
  0
LINE
  5
4dd
100
AcDbEntity
  8
0
  6
CONTINUOUS
 62
     7
100
AcDbLine
 10
-19.50001525878906
 20
-31.2846356171011
 11
-18.21539174768072
 21
-30.00000953674316
  0
LINE
  5
4de
100
AcDbEntity
  8
0
  6
CONTINUOUS
 62
     7
100
AcDbLine
 10
-9.500015258789064
 20
-30.8981317004925
 11
-10.39813921878453
 21
-30.00000953674316
  0
LINE
  5
4df
100
AcDbEntity
  8
0
  6
CONTINUOUS
 62
     7
100
AcDbLine
 10
-9.500015258789064
 20
-32.58192801410938
 11
-12.0819388999974
 21
-30.00000953674316
  0
LINE
  5
4e0
100
AcDbEntity
  8
0
  6
CONTINUOUS
 62
     7
100
AcDbLine
 10
-9.500015258789064
 20
-34.26572432772627
 11
-13.76573858121028
 21
-30.00000953674316
  0
LINE
  5
4e1
100
AcDbEntity
  8
0
  6
CONTINUOUS
 62
     7
100
AcDbLine
 10
-9.500015258789059
 20
-35.94952064134316
 11
-15.44953826242316
 21
-30.00000953674316
  0
LINE
  5
4e2
100
AcDbEntity
  8
0
  6
CONTINUOUS
 62
     7
100
AcDbLine
 10
-9.500015258789059
 20
-37.63331695496004
 11
-17.13333794363604
 21
-30.00000953674316
  0
LINE
  5
4e3
100
AcDbEntity
  8
0
  6
CONTINUOUS
 62
     7
100
AcDbLine
 10
-9.500015258789061
 20
-39.31711326857692
 11
-18.81713762484892
 21
-30.00000953674316
  0
LINE
  5
4e4
100
AcDbEntity
  8
0
  6
CONTINUOUS
 62
     7
100
AcDbLine
 10
-10.50091921339424
 20
-40.00000762939453
 11
-19.50001525878906
 21
-31.00092958217381
  0
LINE
  5
4e5
100
AcDbEntity
  8
0
  6
CONTINUOUS
 62
     7
100
AcDbLine
 10
-12.18471889460712
 20
-40.00000762939453
 11
-19.50001525878906
 21
-32.68472589579069
  0
LINE
  5
4e6
100
AcDbEntity
  8
0
  6
CONTINUOUS
 62
     7
100
AcDbLine
 10
-13.86851857582001
 20
-40.00000762939453
 11
-19.50001525878906
 21
-34.36852220940758
  0
LINE
  5
4e7
100
AcDbEntity
  8
0
  6
CONTINUOUS
 62
     7
100
AcDbLine
 10
-15.55231825703289
 20
-40.00000762939453
 11
-19.50001525878906
 21
-36.05231852302447
  0
LINE
  5
4e8
100
AcDbEntity
  8
0
  6
CONTINUOUS
 62
     7
100
AcDbLine
 10
-17.23611793824576
 20
-40.00000762939453
 11
-19.50001525878906
 21
-37.73611483664135
  0
LINE
  5
4e9
100
AcDbEntity
  8
0
  6
CONTINUOUS
 62
     7
100
AcDbLine
 10
-18.91991761945865
 20
-40.00000762939453
 11
-19.50001525878906
 21
-39.41991115025823
  0
ENDBLK
  8
0
  5
4ea
100
AcDbEntity
100
AcDbBlockEnd
  0
BLOCK
  8
0
  5
4eb
100
AcDbEntity
100
AcDbBlockBegin
  2
KOZU0010
 70
    64
 10
0
 20
0
  0
LINE
  5
4ec
100
AcDbEntity
  8
0
  6
CONTINUOUS
 62
     3
100
AcDbLine
 10
-27.24604861089662
 20
19.04999923706055
 11
-27
 21
19.29604835081003
  0
LINE
  5
4ed
100
AcDbEntity
  8
0
  6
CONTINUOUS
 62
     3
100
AcDbLine
 10
-29.04209746433294
 20
19.04999923706055
 11
-27.00000000000001
 21
21.09210087485559
  0
LINE
  5
4ee
100
AcDbEntity
  8
0
  6
CONTINUOUS
 62
     3
100
AcDbLine
 10
-30
 20
19.88814726776073
 11
-27.00000000000001
 21
22.88815339890115
  0
LINE
  5
4ef
100
AcDbEntity
  8
0
  6
CONTINUOUS
 62
     3
100
AcDbLine
 10
-30
 20
21.68419979180629
 11
-27
 21
24.68420592294672
  0
LINE
  5
4f0
100
AcDbEntity
  8
0
  6
CONTINUOUS
 62
     3
100
AcDbLine
 10
-30
 20
23.48025231585185
 11
-28.53026409337465
 21
24.94999122619629
  0
LINE
  5
4f1
100
AcDbEntity
  8
0
  6
CONTINUOUS
 62
     3
100
AcDbLine
 10
-27
 20
24.22340582760046
 11
-27.72658688352821
 21
24.94999122619629
  0
LINE
  5
4f2
100
AcDbEntity
  8
0
  6
CONTINUOUS
 62
     3
100
AcDbLine
 10
-27
 20
22.42735697416414
 11
-29.52263940757377
 21
24.94999122619629
  0
LINE
  5
4f3
100
AcDbEntity
  8
0
  6
CONTINUOUS
 62
     3
100
AcDbLine
 10
-27
 20
20.63130812072783
 11
-30
 21
23.63130198959993
  0
LINE
  5
4f4
100
AcDbEntity
  8
0
  6
CONTINUOUS
 62
     3
100
AcDbLine
 10
-27.21474040863602
 20
19.04999923706055
 11
-30
 21
21.8352531361636
  0
LINE
  5
4f5
100
AcDbEntity
  8
0
  6
CONTINUOUS
 62
     3
100
AcDbLine
 10
-29.01079293268158
 20
19.04999923706055
 11
-30
 21
20.03920428272729
  0
ENDBLK
  8
0
  5
4f6
100
AcDbEntity
100
AcDbBlockEnd
  0
BLOCK
  8
0
  5
4f7
100
AcDbEntity
100
AcDbBlockBegin
  2
KOZU0011
 70
    64
 10
0
 20
0
  0
LINE
  5
4f8
100
AcDbEntity
  8
0
  6
CONTINUOUS
 62
     7
100
AcDbLine
 10
18.93092694091688
 20
-40.00000762939453
 11
19.50001525878906
 21
-39.43091817334457
  0
LINE
  5
4f9
100
AcDbEntity
  8
0
  6
CONTINUOUS
 62
     7
100
AcDbLine
 10
17.2471306273
 20
-40.00000762939453
 11
19.50001525878906
 21
-37.7471184921317
  0
LINE
  5
4fa
100
AcDbEntity
  8
0
  6
CONTINUOUS
 62
     7
100
AcDbLine
 10
15.56333431368311
 20
-40.00000762939453
 11
19.50001525878906
 21
-36.06331881091882
  0
LINE
  5
4fb
100
AcDbEntity
  8
0
  6
CONTINUOUS
 62
     7
100
AcDbLine
 10
13.87953800006623
 20
-40.00000762939453
 11
19.50001525878906
 21
-34.37951912970593
  0
LINE
  5
4fc
100
AcDbEntity
  8
0
  6
CONTINUOUS
 62
     7
100
AcDbLine
 10
12.19574168644934
 20
-40.00000762939453
 11
19.50001525878906
 21
-32.69571944849305
  0
LINE
  5
4fd
100
AcDbEntity
  8
0
  6
CONTINUOUS
 62
     7
100
AcDbLine
 10
10.51194537283246
 20
-40.00000762939453
 11
19.50001525878906
 21
-31.01191976728017
  0
LINE
  5
4fe
100
AcDbEntity
  8
0
  6
CONTINUOUS
 62
     7
100
AcDbLine
 10
9.500015258789063
 20
-39.3281400860873
 11
18.82812715189075
 21
-30.00000953674316
  0
LINE
  5
4ff
100
AcDbEntity
  8
0
  6
CONTINUOUS
 62
     7
100
AcDbLine
 10
9.500015258789066
 20
-37.64434040487441
 11
17.14433083827387
 21
-30.00000953674316
  0
LINE
  5
500
100
AcDbEntity
  8
0
  6
CONTINUOUS
 62
     7
100
AcDbLine
 10
9.500015258789059
 20
-35.96054072366154
 11
15.46053452465698
 21
-30.00000953674316
  0
LINE
  5
501
100
AcDbEntity
  8
0
  6
CONTINUOUS
 62
     7
100
AcDbLine
 10
9.500015258789063
 20
-34.27674104244866
 11
13.77673821104009
 21
-30.00000953674316
  0
LINE
  5
502
100
AcDbEntity
  8
0
  6
CONTINUOUS
 62
     7
100
AcDbLine
 10
9.500015258789059
 20
-32.59294136123577
 11
12.09294189742321
 21
-30.00000953674316
  0
LINE
  5
503
100
AcDbEntity
  8
0
  6
CONTINUOUS
 62
     7
100
AcDbLine
 10
9.500015258789061
 20
-30.9091416800229
 11
10.40914558380632
 21
-30.00000953674316
  0
LINE
  5
504
100
AcDbEntity
  8
0
  6
CONTINUOUS
 62
     7
100
AcDbLine
 10
19.50001525878906
 20
-31.27356688658053
 11
18.22645536183444
 21
-30.00000953674316
  0
LINE
  5
505
100
AcDbEntity
  8
0
  6
CONTINUOUS
 62
     7
100
AcDbLine
 10
19.50001525878907
 20
-32.95736320019742
 11
16.54265568062157
 21
-30.00000953674317
  0
LINE
  5
506
100
AcDbEntity
  8
0
  6
CONTINUOUS
 62
     7
100
AcDbLine
 10
19.50001525878906
 20
-34.6411595138143
 11
14.85885599940868
 21
-30.00000953674316
  0
LINE
  5
507
100
AcDbEntity
  8
0
  6
CONTINUOUS
 62
     7
100
AcDbLine
 10
19.50001525878906
 20
-36.32495582743119
 11
13.1750563181958
 21
-30.00000953674316
  0
LINE
  5
508
100
AcDbEntity
  8
0
  6
CONTINUOUS
 62
     7
100
AcDbLine
 10
19.50001525878907
 20
-38.00875214104808
 11
11.49125663698292
 21
-30.00000953674316
  0
LINE
  5
509
100
AcDbEntity
  8
0
  6
CONTINUOUS
 62
     7
100
AcDbLine
 10
19.50001525878906
 20
-39.69254845466496
 11
9.807456955770039
 21
-30.00000953674316
  0
LINE
  5
50a
100
AcDbEntity
  8
0
  6
CONTINUOUS
 62
     7
100
AcDbLine
 10
18.12367536722471
 20
-40.00000762939453
 11
9.500015258789061
 21
-31.37636476826185
  0
LINE
  5
50b
100
AcDbEntity
  8
0
  6
CONTINUOUS
 62
     7
100
AcDbLine
 10
16.43987568601184
 20
-40.00000762939453
 11
9.500015258789059
 21
-33.06016108187873
  0
LINE
  5
50c
100
AcDbEntity
  8
0
  6
CONTINUOUS
 62
     7
100
AcDbLine
 10
14.75607600479895
 20
-40.00000762939453
 11
9.500015258789064
 21
-34.74395739549562
  0
LINE
  5
50d
100
AcDbEntity
  8
0
  6
CONTINUOUS
 62
     7
100
AcDbLine
 10
13.07227632358607
 20
-40.00000762939453
 11
9.500015258789057
 21
-36.4277537091125
  0
LINE
  5
50e
100
AcDbEntity
  8
0
  6
CONTINUOUS
 62
     7
100
AcDbLine
 10
11.3884766423732
 20
-40.00000762939453
 11
9.500015258789059
 21
-38.11155002272938
  0
LINE
  5
50f
100
AcDbEntity
  8
0
  6
CONTINUOUS
 62
     7
100
AcDbLine
 10
9.704676961160315
 20
-40.00000762939453
 11
9.500015258789057
 21
-39.79534633634627
  0
ENDBLK
  8
0
  5
510
100
AcDbEntity
100
AcDbBlockEnd
  0
BLOCK
  8
0
  5
511
100
AcDbEntity
100
AcDbBlockBegin
  2
KOZU0012
 70
    64
 10
0
 20
0
  0
LINE
  5
512
100
AcDbEntity
  8
0
  6
CONTINUOUS
 62
     7
100
AcDbLine
 10
18.93092694091688
 20
-40.00000762939453
 11
19.50001525878906
 21
-39.43091817334457
  0
LINE
  5
513
100
AcDbEntity
  8
0
  6
CONTINUOUS
 62
     7
100
AcDbLine
 10
17.2471306273
 20
-40.00000762939453
 11
19.50001525878906
 21
-37.7471184921317
  0
LINE
  5
514
100
AcDbEntity
  8
0
  6
CONTINUOUS
 62
     7
100
AcDbLine
 10
15.56333431368311
 20
-40.00000762939453
 11
19.50001525878906
 21
-36.06331881091882
  0
LINE
  5
515
100
AcDbEntity
  8
0
  6
CONTINUOUS
 62
     7
100
AcDbLine
 10
13.87953800006623
 20
-40.00000762939453
 11
19.50001525878906
 21
-34.37951912970593
  0
LINE
  5
516
100
AcDbEntity
  8
0
  6
CONTINUOUS
 62
     7
100
AcDbLine
 10
12.19574168644934
 20
-40.00000762939453
 11
19.50001525878906
 21
-32.69571944849305
  0
LINE
  5
517
100
AcDbEntity
  8
0
  6
CONTINUOUS
 62
     7
100
AcDbLine
 10
10.51194537283246
 20
-40.00000762939453
 11
19.50001525878906
 21
-31.01191976728017
  0
LINE
  5
518
100
AcDbEntity
  8
0
  6
CONTINUOUS
 62
     7
100
AcDbLine
 10
9.500015258789063
 20
-39.3281400860873
 11
18.82812715189075
 21
-30.00000953674316
  0
LINE
  5
519
100
AcDbEntity
  8
0
  6
CONTINUOUS
 62
     7
100
AcDbLine
 10
9.500015258789066
 20
-37.64434040487441
 11
17.14433083827387
 21
-30.00000953674316
  0
LINE
  5
51a
100
AcDbEntity
  8
0
  6
CONTINUOUS
 62
     7
100
AcDbLine
 10
9.500015258789059
 20
-35.96054072366154
 11
15.46053452465698
 21
-30.00000953674316
  0
LINE
  5
51b
100
AcDbEntity
  8
0
  6
CONTINUOUS
 62
     7
100
AcDbLine
 10
9.500015258789063
 20
-34.27674104244866
 11
13.77673821104009
 21
-30.00000953674316
  0
LINE
  5
51c
100
AcDbEntity
  8
0
  6
CONTINUOUS
 62
     7
100
AcDbLine
 10
9.500015258789059
 20
-32.59294136123577
 11
12.09294189742321
 21
-30.00000953674316
  0
LINE
  5
51d
100
AcDbEntity
  8
0
  6
CONTINUOUS
 62
     7
100
AcDbLine
 10
9.500015258789061
 20
-30.9091416800229
 11
10.40914558380632
 21
-30.00000953674316
  0
LINE
  5
51e
100
AcDbEntity
  8
0
  6
CONTINUOUS
 62
     7
100
AcDbLine
 10
19.50001525878906
 20
-31.27356688658053
 11
18.22645536183444
 21
-30.00000953674316
  0
LINE
  5
51f
100
AcDbEntity
  8
0
  6
CONTINUOUS
 62
     7
100
AcDbLine
 10
19.50001525878907
 20
-32.95736320019742
 11
16.54265568062157
 21
-30.00000953674317
  0
LINE
  5
520
100
AcDbEntity
  8
0
  6
CONTINUOUS
 62
     7
100
AcDbLine
 10
19.50001525878906
 20
-34.6411595138143
 11
14.85885599940868
 21
-30.00000953674316
  0
LINE
  5
521
100
AcDbEntity
  8
0
  6
CONTINUOUS
 62
     7
100
AcDbLine
 10
19.50001525878906
 20
-36.32495582743119
 11
13.1750563181958
 21
-30.00000953674316
  0
LINE
  5
522
100
AcDbEntity
  8
0
  6
CONTINUOUS
 62
     7
100
AcDbLine
 10
19.50001525878907
 20
-38.00875214104808
 11
11.49125663698292
 21
-30.00000953674316
  0
LINE
  5
523
100
AcDbEntity
  8
0
  6
CONTINUOUS
 62
     7
100
AcDbLine
 10
19.50001525878906
 20
-39.69254845466496
 11
9.807456955770039
 21
-30.00000953674316
  0
LINE
  5
524
100
AcDbEntity
  8
0
  6
CONTINUOUS
 62
     7
100
AcDbLine
 10
18.12367536722471
 20
-40.00000762939453
 11
9.500015258789061
 21
-31.37636476826185
  0
LINE
  5
525
100
AcDbEntity
  8
0
  6
CONTINUOUS
 62
     7
100
AcDbLine
 10
16.43987568601184
 20
-40.00000762939453
 11
9.500015258789059
 21
-33.06016108187873
  0
LINE
  5
526
100
AcDbEntity
  8
0
  6
CONTINUOUS
 62
     7
100
AcDbLine
 10
14.75607600479895
 20
-40.00000762939453
 11
9.500015258789064
 21
-34.74395739549562
  0
LINE
  5
527
100
AcDbEntity
  8
0
  6
CONTINUOUS
 62
     7
100
AcDbLine
 10
13.07227632358607
 20
-40.00000762939453
 11
9.500015258789057
 21
-36.4277537091125
  0
LINE
  5
528
100
AcDbEntity
  8
0
  6
CONTINUOUS
 62
     7
100
AcDbLine
 10
11.3884766423732
 20
-40.00000762939453
 11
9.500015258789059
 21
-38.11155002272938
  0
LINE
  5
529
100
AcDbEntity
  8
0
  6
CONTINUOUS
 62
     7
100
AcDbLine
 10
9.704676961160315
 20
-40.00000762939453
 11
9.500015258789057
 21
-39.79534633634627
  0
ENDBLK
  8
0
  5
52a
100
AcDbEntity
100
AcDbBlockEnd
  0
ENDSEC
  0
SECTION
  2
ENTITIES
  0
LINE
  5
52b
100
AcDbEntity
  8
0
  6
CONTINUOUS
 62
     7
100
AcDbLine
 10
155.0111083984375
 20
-52.2174072265625
 11
297.4527587890625
 21
-52.2174072265625
  0
LINE
  5
52c
100
AcDbEntity
  8
0
  6
CONTINUOUS
 62
     7
100
AcDbLine
 10
155.0111389160156
 20
-52.2174072265625
 11
155.0111389160156
 21
-88.1409912109375
  0
LINE
  5
52d
100
AcDbEntity
  8
0
  6
CONTINUOUS
 62
     7
100
AcDbLine
 10
155.0111083984375
 20
-88.1409912109375
 11
297.4527587890625
 21
-88.1409912109375
  0
LINE
  5
52e
100
AcDbEntity
  8
0
  6
CONTINUOUS
 62
     7
100
AcDbLine
 10
297.4527587890625
 20
-52.2174072265625
 11
297.4527587890625
 21
-88.1409912109375
  0
LINE
  5
52f
100
AcDbEntity
  8
0
  6
CONTINUOUS
 62
     7
100
AcDbLine
 10
207.1942138671875
 20
229.4500732421875
 11
209.6942138671875
 21
229.4500732421875
  0
LINE
  5
530
100
AcDbEntity
  8
0
  6
CONTINUOUS
 62
     7
100
AcDbLine
 10
207.1942138671875
 20
230.7000732421875
 11
209.6942138671875
 21
230.7000732421875
  0
LINE
  5
531
100
AcDbEntity
  8
0
  6
CONTINUOUS
 62
     7
100
AcDbLine
 10
212.1942032492704
 20
230.0750676521914
 11
209.6942111945887
 21
232.5750607605412
  0
LINE
  5
532
100
AcDbEntity
  8
0
  6
CONTINUOUS
 62
     7
100
AcDbLine
 10
209.6942108152703
 20
227.5750762718591
 11
212.1942032492704
 21
230.0750676521914
  0
LINE
  5
533
100
AcDbEntity
  8
0
  6
CONTINUOUS
 62
     7
100
AcDbLine
 10
209.6942138671875
 20
227.5750732421875
 11
209.6942138671875
 21
229.4500732421875
  0
LINE
  5
534
100
AcDbEntity
  8
0
  6
CONTINUOUS
 62
     7
100
AcDbLine
 10
207.1942138671875
 20
229.4500732421875
 11
207.1942138671875
 21
230.7000732421875
  0
LINE
  5
535
100
AcDbEntity
  8
0
  6
CONTINUOUS
 62
     7
100
AcDbLine
 10
209.6942138671875
 20
230.7000732421875
 11
209.6942138671875
 21
232.5750732421875
  0
MTEXT
  5
536
100
AcDbEntity
  8
0
  6
CONTINUOUS
 62
     7
100
AcDbMText
 10
159.7078664302826
 20
-83.66348266601563
 40
6
 41
72
 71
     7
 72
     1
  1
{\W0.855331;型　番}
  0
MTEXT
  5
537
100
AcDbEntity
  8
0
  6
CONTINUOUS
 62
     7
100
AcDbMText
 10
159.7078664302826
 20
-72.54241180419922
 40
6
 41
72
 71
     7
 72
     1
  1
{\W0.855331;品　名}
  0
MTEXT
  5
538
100
AcDbEntity
  8
0
  6
CONTINUOUS
 62
     7
100
AcDbMText
 10
189.4078786373138
 20
-83.66348266601563
 40
6
 41
432
 71
     7
 72
     1
  1
{\W0.842599;ＢＮ－５ＢＰ２１－２５－Ｇ／Ｈ＊＊＊}
  0
MTEXT
  5
539
100
AcDbEntity
  8
0
  6
CONTINUOUS
 62
     7
100
AcDbMText
 10
189.4078786373138
 20
-72.54241180419922
 40
6
 41
168
 71
     7
 72
     1
  1
{\W0.846334;シリンダ操作弁}
  0
MTEXT
  5
53a
100
AcDbEntity
  8
0
  6
CONTINUOUS
 62
     7
100
AcDbMText
 10
195.187221288681
 20
-61.84396362304688
 40
6
 41
192
 71
     7
 72
     1
  1
{\W0.845552;日本精器株式会社}
  0
MTEXT
  5
53b
100
AcDbEntity
  8
0
  6
CONTINUOUS
 62
     7
100
AcDbMText
 10
215.1562088727951
 20
227.5750732421875
 40
5
 41
40
 71
     7
 72
     1
  1
{\W0.864328;ＥＸ}
  0
MTEXT
  5
53c
100
AcDbEntity
  8
0
  6
CONTINUOUS
 62
     7
100
AcDbMText
 10
57.51827621424638
 20
225.4585062111749
 40
8
 41
64
 71
     7
 72
     1
  1
{\W0.864328;＊１}
  0
MTEXT
  5
53d
100
AcDbEntity
  8
0
  6
CONTINUOUS
 62
     7
100
AcDbMText
 10
56.64516363179241
 20
269.1141353338736
 40
8
 41
64
 71
     7
 72
     1
  1
{\W0.864328;＊２}
  0
MTEXT
  5
53e
100
AcDbEntity
  8
0
  6
CONTINUOUS
 62
     7
100
AcDbMText
 10
-138.5230462551117
 20
223.2848815917969
 40
8
 41
64
 71
     7
 72
     1
  1
{\W0.864328;＊３}
  0
MTEXT
  5
53f
100
AcDbEntity
  8
0
  6
CONTINUOUS
 62
     7
100
AcDbMText
 10
138.7177463824661
 20
223.7122810462669
 40
8
 41
64
 71
     7
 72
     1
  1
{\W0.864328;＊４}
  0
MTEXT
  5
540
100
AcDbEntity
  8
0
  6
CONTINUOUS
 62
     7
100
AcDbMText
 10
319.452050950439
 20
218.4736055515431
 40
8
 41
64
 71
     7
 72
     1
  1
{\W0.864328;＊５}
  0
MTEXT
  5
541
100
AcDbEntity
  8
0
  6
CONTINUOUS
 62
     7
100
AcDbMText
 10
60.19234299659729
 20
-31.99716186523438
 40
8
 41
64
 71
     7
 72
     1
  1
{\W0.864328;＊６}
  0
INSERT
  5
542
100
AcDbEntity
  8
0
  6
CONTINUOUS
 62
     7
100
AcDbBlockReference
  2
KOZU0001
 10
-21.54985046386719
 20
67.52391815185547
  0
INSERT
  5
543
100
AcDbEntity
  8
0
  6
CONTINUOUS
 62
     7
100
AcDbBlockReference
  2
KOZU0002
 10
-21.54985046386719
 20
303.6802368164063
  0
INSERT
  5
544
100
AcDbEntity
  8
0
  6
CONTINUOUS
 62
     7
100
AcDbBlockReference
  2
KOZU0003
 10
-165.9248657226563
 20
67.52391815185547
  0
INSERT
  5
545
100
AcDbEntity
  8
0
  6
CONTINUOUS
 62
     7
100
AcDbBlockReference
  2
KOZU0004
 10
182.8251647949219
 20
67.52391815185547
  0
INSERT
  5
546
100
AcDbEntity
  8
0
  6
CONTINUOUS
 62
     7
100
AcDbBlockReference
  2
KOZU0005
 10
383.4501647949219
 20
67.52391815185547
  0
INSERT
  5
547
100
AcDbEntity
  8
0
  6
CONTINUOUS
 62
     7
100
AcDbBlockReference
  2
KOZU0006
 10
-21.54985046386719
 20
-58.56014251708984
  0
LINE
  5
548
100
AcDbEntity
  8
0
  6
CONTINUOUS
 62
     7
100
AcDbLine
 10
152.5372539761561
 20
90.17698503955023
 11
144.8609863420634
 21
102.8623315383895
  0
LINE
  5
549
100
AcDbEntity
  8
0
  6
CONTINUOUS
 62
     7
100
AcDbLine
 10
152.5372539761561
 20
90.17698503955023
 11
150.1285474780675
 21
92.2259195689327
  0
LINE
  5
54a
100
AcDbEntity
  8
0
  6
CONTINUOUS
 62
     7
100
AcDbLine
 10
152.5372539761561
 20
90.17698503955023
 11
151.8396494953147
 21
93.26135656190938
  0
MTEXT
  5
54b
100
AcDbEntity
  8
0
  6
CONTINUOUS
 62
     7
100
AcDbMText
 10
137.4878234863281
 20
102.8623123168945
 40
5
 41
120
 71
     6
 72
     1
  1
{\W0.847393;シリンダＥＸ}
  0
LINE
  5
54c
100
AcDbEntity
  8
0
  6
CONTINUOUS
 62
     7
100
AcDbLine
 10
152.5372539761561
 20
90.17698503955023
 11
144.8609863420634
 21
102.8623315383895
  0
LINE
  5
54d
100
AcDbEntity
  8
0
  6
CONTINUOUS
 62
     7
100
AcDbLine
 10
144.8609863420634
 20
102.8623315383895
 11
138.9165858455772
 21
102.8623124649158
  0
DIMENSION
  5
54e
100
AcDbEntity
  8
0
  6
CONTINUOUS
 62
     7
100
AcDbDimension
  2
*D1
 70
     0
 10
28.45016479492188
 20
2.182235717773438
 11
-21.54986572265625
 21
2.182235717773438
  3
DIMSTYLE
100
AcDbAlignedDimension
 13
-71.54983520507813
 23
45.52391815185547
 14
28.45016479492188
 24
45.52391815185547
 50
0
100
AcDbRotatedDimension
1001
ACAD
1000
DSTYLE
1002
{
1070
     6
1000
_OPEN30
1070
     7
1000
_OPEN30
1070
    77
1070
     1
1070
   172
1070
     1
1070
    42
1040
0
1002
}
  0
DIMENSION
  5
54f
100
AcDbEntity
  8
0
  6
CONTINUOUS
 62
     7
100
AcDbDimension
  2
*D2
 70
     0
 10
248.4960174560547
 20
67.52391815185547
 11
248.4960174560547
 21
46.52392196655273
  3
DIMSTYLE
100
AcDbAlignedDimension
 13
227.7001037597656
 23
25.5239143371582
 14
240.1237640380859
 24
67.52391815185547
 50
90
100
AcDbRotatedDimension
1001
ACAD
1000
DSTYLE
1002
{
1070
     6
1000
_OPEN30
1070
     7
1000
_OPEN30
1070
    77
1070
     1
1070
   172
1070
     1
1070
    42
1040
0
1002
}
  0
DIMENSION
  5
550
100
AcDbEntity
  8
0
  6
CONTINUOUS
 62
     7
100
AcDbDimension
  2
*D3
 70
     0
 10
248.4960174560547
 20
234.5239562988281
 11
248.4960174560547
 21
151.02392578125
  3
DIMSTYLE
100
AcDbAlignedDimension
 13
199.3251647949219
 23
67.52391815185547
 14
226.8093719482422
 24
234.52392578125
 50
90
100
AcDbRotatedDimension
1001
ACAD
1000
DSTYLE
1002
{
1070
     6
1000
_OPEN30
1070
     7
1000
_OPEN30
1070
    77
1070
     1
1070
   172
1070
     1
1070
    42
1040
0
1002
}
  0
DIMENSION
  5
551
100
AcDbEntity
  8
0
  6
CONTINUOUS
 62
     7
100
AcDbDimension
  2
*D4
 70
     0
 10
262.5055541992188
 20
234.5239562988281
 11
262.5055541992188
 21
130.0239410400391
  3
DIMSTYLE
100
AcDbAlignedDimension
 13
205.3251647949219
 23
25.5239143371582
 14
202.9257202148438
 24
234.52392578125
 50
90
100
AcDbRotatedDimension
1001
ACAD
1000
DSTYLE
1002
{
1070
     6
1000
_OPEN30
1070
     7
1000
_OPEN30
1070
    77
1070
     1
1070
   172
1070
     1
1070
    42
1040
0
1002
}
  0
DIMENSION
  5
552
100
AcDbEntity
  8
0
  6
CONTINUOUS
 62
     7
100
AcDbDimension
  2
*D5
 70
     0
 10
212.8251647949219
 20
-2.885065078735352
 11
182.8251495361328
 21
-2.885065078735352
  3
DIMSTYLE
100
AcDbAlignedDimension
 13
152.8251647949219
 23
45.52391624450684
 14
212.8251647949219
 24
45.52391624450684
 50
0
100
AcDbRotatedDimension
1001
ACAD
1000
DSTYLE
1002
{
1070
     6
1000
_OPEN30
1070
     7
1000
_OPEN30
1070
    77
1070
     1
1070
   172
1070
     1
1070
    42
1040
0
1002
}
  0
LINE
  5
553
100
AcDbEntity
  8
0
  6
CONTINUOUS
 62
     7
100
AcDbLine
 10
-65.00183446203778
 20
84.27254322091849
 11
-72.83044675171449
 21
101.2894553973751
  0
LINE
  5
554
100
AcDbEntity
  8
0
  6
CONTINUOUS
 62
     7
100
AcDbLine
 10
-65.00183446203778
 20
84.27254322091849
 11
-66.8197200931599
 21
86.87936495030071
  0
LINE
  5
555
100
AcDbEntity
  8
0
  6
CONTINUOUS
 62
     7
100
AcDbLine
 10
-65.00183446203778
 20
84.27254322091849
 11
-65.79859581102699
 21
87.34913208675295
  0
MTEXT
  5
556
100
AcDbEntity
  8
0
  6
CONTINUOUS
 62
     7
100
AcDbMText
 10
-80.85204315185547
 20
101.2894515991211
 40
5
 41
100
 71
     6
 72
     1
  1
{\W0.848905;２－Ｒｃ１}
  0
LINE
  5
557
100
AcDbEntity
  8
0
  6
CONTINUOUS
 62
     7
100
AcDbLine
 10
-65.00183446203778
 20
84.27254322091849
 11
-72.83044675171449
 21
101.2894553973751
  0
LINE
  5
558
100
AcDbEntity
  8
0
  6
CONTINUOUS
 62
     7
100
AcDbLine
 10
-72.83044675171449
 20
101.2894553973751
 11
-79.70904541015625
 21
101.2894553973751
  0
LINE
  5
559
100
AcDbEntity
  8
0
  6
CONTINUOUS
 62
     7
100
AcDbLine
 10
209.7362130353281
 20
88.02390957582242
 11
213.4121905937168
 21
101.8671082933684
  0
LINE
  5
55a
100
AcDbEntity
  8
0
  6
CONTINUOUS
 62
     7
100
AcDbLine
 10
209.7362130353281
 20
88.02390957582242
 11
209.9958368892167
 21
91.19137278020406
  0
LINE
  5
55b
100
AcDbEntity
  8
0
  6
CONTINUOUS
 62
     7
100
AcDbLine
 10
209.7362130353281
 20
88.02390957582242
 11
211.0821880011224
 21
90.90289882347076
  0
MTEXT
  5
55c
100
AcDbEntity
  8
0
  6
CONTINUOUS
 62
     7
100
AcDbMText
 10
216.4543914794922
 20
101.8671112060547
 40
5
 41
100
 71
     4
 72
     1
  1
{\W0.848905;Ｍ５ドレン}
  0
LINE
  5
55d
100
AcDbEntity
  8
0
  6
CONTINUOUS
 62
     7
100
AcDbLine
 10
209.7362130353281
 20
88.02390957582242
 11
213.4121905937168
 21
101.8671082933684
  0
LINE
  5
55e
100
AcDbEntity
  8
0
  6
CONTINUOUS
 62
     7
100
AcDbLine
 10
213.4121905937168
 20
101.8671082933684
 11
215.025634765625
 21
101.8671082933684
  0
DIMENSION
  5
55f
100
AcDbEntity
  8
0
  6
CONTINUOUS
 62
     7
100
AcDbDimension
  2
*D6
 70
     0
 10
205.3251647949219
 20
8.253805160522461
 11
182.8251647949219
 21
8.253805160522461
  3
DIMSTYLE
100
AcDbAlignedDimension
 13
160.3251647949219
 23
25.5239143371582
 14
205.3251647949219
 24
25.5239143371582
 50
0
100
AcDbRotatedDimension
1001
ACAD
1000
DSTYLE
1002
{
1070
     6
1000
_OPEN30
1070
     7
1000
_OPEN30
1070
    77
1070
     1
1070
   172
1070
     1
1070
    42
1040
0
1002
}
  0
LINE
  5
560
100
AcDbEntity
  8
0
  6
CONTINUOUS
 62
     7
100
AcDbLine
 10
-44.45874194251189
 20
173.2459975163458
 11
-54.07943022410692
 21
189.191857854297
  0
LINE
  5
561
100
AcDbEntity
  8
0
  6
CONTINUOUS
 62
     7
100
AcDbLine
 10
-44.45874194251189
 20
173.2459975163458
 11
-46.86475337446304
 21
175.2980961223953
  0
LINE
  5
562
100
AcDbEntity
  8
0
  6
CONTINUOUS
 62
     7
100
AcDbLine
 10
-44.45874194251189
 20
173.2459975163458
 11
-45.15229192444308
 21
176.3312832603561
  0
MTEXT
  5
563
100
AcDbEntity
  8
0
  6
CONTINUOUS
 62
     7
100
AcDbMText
 10
-90.6976330280304
 20
186.6918640136719
 40
5
 41
100
 71
     7
 72
     1
  1
{\W0.848905;Ｒｃ１／４}
  0
MTEXT
  5
564
100
AcDbEntity
  8
0
  6
CONTINUOUS
 62
     7
100
AcDbMText
 10
-90.6976330280304
 20
179.1918640136719
 40
5
 41
60
 71
     7
 72
     1
  1
{\W0.855331;操作口}
  0
LINE
  5
565
100
AcDbEntity
  8
0
  6
CONTINUOUS
 62
     7
100
AcDbLine
 10
-44.45874194251189
 20
173.2459975163458
 11
-54.07943022410692
 21
189.191857854297
  0
LINE
  5
566
100
AcDbEntity
  8
0
  6
CONTINUOUS
 62
     7
100
AcDbLine
 10
-54.07943022410694
 20
189.191857854297
 11
-64.55463409423828
 21
189.191857854297
  0
DIMENSION
  5
567
100
AcDbEntity
  8
0
  6
CONTINUOUS
 62
     7
100
AcDbDimension
  2
*D7
 70
     0
 10
78.45013427734375
 20
247.2102355957031
 11
28.45014190673828
 21
247.2102355957031
  3
DIMSTYLE
100
AcDbAlignedDimension
 13
-21.54985046386719
 23
234.52392578125
 14
78.45013427734375
 24
182.5238647460938
 50
0
100
AcDbRotatedDimension
1001
ACAD
1000
DSTYLE
1002
{
1070
     6
1000
_OPEN30
1070
     7
1000
_OPEN30
1070
    77
1070
     1
1070
   172
1070
     1
1070
    42
1040
0
1002
}
  0
LINE
  5
568
100
AcDbEntity
  8
0
  6
CONTINUOUS
 62
     7
100
AcDbLine
 10
70.88670503314771
 20
179.8820855701206
 11
88.74253892413576
 21
201.8712039474202
  0
LINE
  5
569
100
AcDbEntity
  8
0
  6
CONTINUOUS
 62
     7
100
AcDbLine
 10
70.88670503314771
 20
179.8820855701206
 11
72.42223557781225
 21
182.6645976802509
  0
LINE
  5
56a
100
AcDbEntity
  8
0
  6
CONTINUOUS
 62
     7
100
AcDbLine
 10
70.88670503314771
 20
179.8820855701206
 11
73.29478817751296
 21
181.9560583921324
  0
MTEXT
  5
56b
100
AcDbEntity
  8
0
  6
CONTINUOUS
 62
     7
100
AcDbMText
 10
93.371826171875
 20
201.8712005615234
 40
5
 41
80
 71
     4
 72
     1
  1
{\W0.851241;Ｇ１／２}
  0
LINE
  5
56c
100
AcDbEntity
  8
0
  6
CONTINUOUS
 62
     7
100
AcDbLine
 10
70.88670503314771
 20
179.8820855701206
 11
88.74253892413576
 21
201.8712039474202
  0
LINE
  5
56d
100
AcDbEntity
  8
0
  6
CONTINUOUS
 62
     7
100
AcDbLine
 10
88.74253892413577
 20
201.8712039474202
 11
92.22882843017578
 21
201.8712039474202
  0
DIMENSION
  5
56e
100
AcDbEntity
  8
0
  6
CONTINUOUS
 62
     7
100
AcDbDimension
  2
*D8
 70
     0
 10
160.8251762390137
 20
77.83658686070342
 11
140.5749262642337
 21
77.83658686070342
  3
DIMSTYLE
100
AcDbAlignedDimension
 13
204.8251724243164
 23
79.26156044006348
 14
160.8251762390137
 24
79.26156044006348
 50
0
100
AcDbRotatedDimension
1001
ACAD
1000
DSTYLE
1002
{
1070
    77
1070
     1
1070
   172
1070
     1
1070
    42
1040
0
1002
}
  0
ENDSEC
  0
SECTION
  2
OBJECTS
  0
DICTIONARY
  5
56f
100
AcDbDictionary
  3
ACAD_GROUP
350
570
  3
ACAD_MLINESTYLE
350
571
  0
DICTIONARY
  5
570
102
{ACAD_REACTORS
330
56f
102
}
100
AcDbDictionary
  0
DICTIONARY
  5
571
102
{ACAD_REACTORS
330
56f
102
}
100
AcDbDictionary
  3
STANDARD
350
572
  0
MLINESTYLE
  5
572
102
{ACAD_REACTORS
330
571
102
}
100
AcDbMlineStyle
  2
STANDARD
 70
     0
  3

 62
     0
 51
90
 52
90
 71
     2
 49
0.5
 62
   256
  6
BYLAYER
 49
-0.5
 62
   256
  6
BYLAYER
  0
ENDSEC
  0
EOF
