  0
SECTION
  2
HEADER
  9
$ACADVER
  1
AC1015
  9
$EXTMAX
 10
575.7186423330795
 20
340.5831282742952
 30
0
  9
$EXTMIN
 10
-223.7180263887714
 20
-236.7877991359305
 30
0
  9
$LIMMAX
 10
575.7186423330795
 20
340.5831282742952
  9
$LIMMIN
 10
-223.7180263887714
 20
-236.7877991359305
  9
$PLIMMAX
 10
575.7186423330795
 20
340.5831282742952
  9
$PLIMMIN
 10
-223.7180263887714
 20
-236.7877991359305
  9
$TEXTSIZE
 40
3.2
  9
$DIMSHO
 70
     0
  9
$DIMASZ
 40
1.0
  9
$DIMTAD
 70
     1
  9
$DIMTIH
 70
     0
  9
$DIMTOH
 70
     0
  9
$DIMEXE
 40
2.54
  9
$DIMEXO
 40
2.54
  9
$DIMTVP
 40
1.0
  9
$DIMSAH
 70
     1
  9
$DIMDLE
 40
0.0
  9
$DIMTXT
 40
4
  9
$DIMGAP
 40
2
  9
$DIMAUNIT
 70
     1
  9
$DIMDEC
 70
     1
  9
$HANDSEED
  5
     4d8
  9
$MEASUREMENT
 70
     1
  0
ENDSEC
  0
SECTION
  2
TABLES
  0
TABLE
  2
LTYPE
  5
25
100
AcDbSymbolTable
 70
    48
  0
LTYPE
  5
26
100
AcDbSymbolTableRecord
100
AcDbLinetypeTableRecord
  2
BYBLOCK
 70
    64
  3

 72
    65
 73
     0
 40
0.0
  0
LTYPE
  5
27
100
AcDbSymbolTableRecord
100
AcDbLinetypeTableRecord
  2
BYLAYER
 70
    64
  3

 72
    65
 73
     0
 40
0.0
  0
LTYPE
  5
28
100
AcDbSymbolTableRecord
100
AcDbLinetypeTableRecord
  2
CONTINUOUS
 70
    64
  3
Solid line
 72
    65
 73
     0
 40
0.0
  0
LTYPE
  5
29
100
AcDbSymbolTableRecord
100
AcDbLinetypeTableRecord
  2
DASHED
 70
    64
  3
Dashed __ __ __ __ __ __ __ __ __ __ __ __ __ _
 72
    65
 73
     2
 40
4.5
 49
3.0
 74
     0
 49
-1.5
 74
     0
  0
LTYPE
  5
2a
100
AcDbSymbolTableRecord
100
AcDbLinetypeTableRecord
  2
CENTER
 70
    64
  3
Center ____ _ ____ _ ____ _ ____ _ ____ _ ____
 72
    65
 73
     4
 74
     0
 40
12.0
 49
7.5
 74
     0
 49
-1.5
 74
     0
 49
1.5
 74
     0
 49
-1.5
 74
     0
  0
LTYPE
  5
2b
100
AcDbSymbolTableRecord
100
AcDbLinetypeTableRecord
  2
PHANTOM
 70
    64
  3
Phantom ______  __  __  ______  __  __  ______
 72
    65
 73
     6
 74
     0
 40
15.0
 49
7.5
 74
     0
 49
-1.5
 74
     0
 49
1.5
 74
     0
 49
-1.5
 74
     0
 49
1.5
 74
     0
 49
-1.5
 74
     0
  0
LTYPE
  5
2c
100
AcDbSymbolTableRecord
100
AcDbLinetypeTableRecord
  2
DOT
 70
    64
  3
Dot . . . . . . . . . . . . . . . . . . . . . .
 72
    65
 73
     2
 74
     0
 40
1.5
 49
0.0
 74
     0
 49
-1.5
 74
     0
  0
LTYPE
  5
2d
100
AcDbSymbolTableRecord
100
AcDbLinetypeTableRecord
  2
HIDDEN
 70
    64
  3
Hidden __ __ __ __ __ __ __ __ __ __ __ __ __ _
 72
    65
 73
     2
 74
     0
 40
4.5
 49
3.0
 74
     0
 49
-1.5
 74
     0
  0
LTYPE
  5
2e
100
AcDbSymbolTableRecord
100
AcDbLinetypeTableRecord
  2
BORDER
 70
    64
  3
Border __ __ . __ __ . __ __ . __ __ . __ __ .
 72
    65
 73
     6
 40
3.5
 49
1.0
 74
     0
 49
-0.5
 74
     0
 49
1.0
 74
     0
 49
-0.5
 74
     0
 49
0.0
 74
     0
 49
-0.5
 74
     0
  0
LTYPE
  5
2f
100
AcDbSymbolTableRecord
100
AcDbLinetypeTableRecord
  2
BORDER2
 70
    64
  3
Border (.5x) __.__.__.__.__.__.__.__.__.__.__.
 72
    65
 73
     6
 40
1.75
 49
0.5
 74
     0
 49
-0.25
 74
     0
 49
0.5
 74
     0
 49
-0.25
 74
     0
 49
0.0
 74
     0
 49
-0.25
 74
     0
  0
LTYPE
  5
30
100
AcDbSymbolTableRecord
100
AcDbLinetypeTableRecord
  2
BORDERX2
 70
    64
  3
Border (2x) ____  ____  .  ____  ____  .  ___
 72
    65
 73
     6
 40
7.0
 49
2.0
 74
     0
 49
-1.0
 74
     0
 49
2.0
 74
     0
 49
-1.0
 74
     0
 49
0.0
 74
     0
 49
-1.0
 74
     0
  0
LTYPE
  5
31
100
AcDbSymbolTableRecord
100
AcDbLinetypeTableRecord
  2
CENTER2
 70
    64
  3
Center (.5x) ___ _ ___ _ ___ _ ___ _ ___ _ ___
 72
    65
 73
     4
 40
6.0
 49
3.75
 74
     0
 49
-0.75
 74
     0
 49
0.75
 74
     0
 49
-0.75
 74
     0
  0
LTYPE
  5
32
100
AcDbSymbolTableRecord
100
AcDbLinetypeTableRecord
  2
CENTERX2
 70
    64
  3
Center (2x) ________  __  ________  __  _____
 72
    65
 73
     4
 40
24.0
 49
15.0
 74
     0
 49
-3.0
 74
     0
 49
3.0
 74
     0
 49
-3.0
 74
     0
  0
LTYPE
  5
33
100
AcDbSymbolTableRecord
100
AcDbLinetypeTableRecord
  2
DASHDOT
 70
    64
  3
Dash dot __ . __ . __ . __ . __ . __ . __ . __
 72
    65
 73
     4
 40
6.0
 49
3.0
 74
     0
 49
-1.5
 74
     0
 49
0.0
 74
     0
 49
-1.5
 74
     0
  0
LTYPE
  5
34
100
AcDbSymbolTableRecord
100
AcDbLinetypeTableRecord
  2
DASHDOT2
 70
    64
  3
Dash dot (.5x) _._._._._._._._._._._._._._._.
 72
    65
 73
     4
 40
3.0
 49
1.5
 74
     0
 49
-0.75
 74
     0
 49
0.0
 74
     0
 49
-0.75
 74
     0
  0
LTYPE
  5
35
100
AcDbSymbolTableRecord
100
AcDbLinetypeTableRecord
  2
DASHDOTX2
 70
    64
  3
Dash dot (2x) ____  .  ____  .  ____  .  ___
 72
    65
 73
     4
 40
12.0
 49
6.0
 74
     0
 49
-3.0
 74
     0
 49
0.0
 74
     0
 49
-3.0
 74
     0
  0
LTYPE
  5
36
100
AcDbSymbolTableRecord
100
AcDbLinetypeTableRecord
  2
DASHED2
 70
    64
  3
Dashed (.5x) _ _ _ _ _ _ _ _ _ _ _ _ _ _ _ _ _
 72
    65
 73
     2
 40
2.25
 49
1.5
 74
     0
 49
-0.75
 74
     0
  0
LTYPE
  5
37
100
AcDbSymbolTableRecord
100
AcDbLinetypeTableRecord
  2
DASHEDX2
 70
    64
  3
Dashed (2x) ____  ____  ____  ____  ____  ___
 72
    65
 73
     2
 40
9.0
 49
6.0
 74
     0
 49
-3.0
 74
     0
  0
LTYPE
  5
38
100
AcDbSymbolTableRecord
100
AcDbLinetypeTableRecord
  2
DIVIDE
 70
    64
  3
Divide ____ . . ____ . . ____ . . ____ . . ____
 72
    65
 73
     6
 40
7.5
 49
3.0
 74
     0
 49
-1.5
 74
     0
 49
0.0
 74
     0
 49
-1.5
 74
     0
 49
0.0
 74
     0
 49
-1.5
 74
     0
  0
LTYPE
  5
39
100
AcDbSymbolTableRecord
100
AcDbLinetypeTableRecord
  2
DIVIDE2
 70
    64
  3
Divide (.5x) __..__..__..__..__..__..__..__.._
 72
    65
 73
     6
 40
3.75
 49
1.5
 74
     0
 49
-0.75
 74
     0
 49
0.0
 74
     0
 49
-0.75
 74
     0
 49
0.0
 74
     0
 49
-0.75
 74
     0
  0
LTYPE
  5
3a
100
AcDbSymbolTableRecord
100
AcDbLinetypeTableRecord
  2
DIVIDEX2
 70
    64
  3
Divide (2x) ________  .  .  ________  .  .  _
 72
    65
 73
     6
 40
15.0
 49
6.0
 74
     0
 49
-3.0
 74
     0
 49
0.0
 74
     0
 49
-3.0
 74
     0
 49
0.0
 74
     0
 49
-3.0
 74
     0
  0
LTYPE
  5
3b
100
AcDbSymbolTableRecord
100
AcDbLinetypeTableRecord
  2
DOT2
 70
    64
  3
Dot (.5x) .....................................
 72
    65
 73
     2
 40
0.75
 49
0.0
 74
     0
 49
-0.75
 74
     0
  0
LTYPE
  5
3c
100
AcDbSymbolTableRecord
100
AcDbLinetypeTableRecord
  2
DOTX2
 70
    64
  3
Dot (2x) .  .  .  .  .  .  .  .  .  .  .  .  . 
 72
    65
 73
     2
 40
3.0
 49
0.0
 74
     0
 49
-3.0
 74
     0
  0
LTYPE
  5
3d
100
AcDbSymbolTableRecord
100
AcDbLinetypeTableRecord
  2
HIDDEN2
 70
    64
  3
Hidden (.5x) _ _ _ _ _ _ _ _ _ _ _ _ _ _ _ _ _
 72
    65
 73
     2
 40
2.25
 49
1.5
 74
     0
 49
-0.75
 74
     0
  0
LTYPE
  5
3e
100
AcDbSymbolTableRecord
100
AcDbLinetypeTableRecord
  2
HIDDENX2
 70
    64
  3
Hidden (2x) ____ ____ ____ ____ ____ ____ ____
 72
    65
 73
     2
 40
9.0
 49
6.0
 74
     0
 49
-3.0
 74
     0
  0
LTYPE
  5
3f
100
AcDbSymbolTableRecord
100
AcDbLinetypeTableRecord
  2
PHANTOM2
 70
    64
  3
Phantom (.5x) ___ _ _ ___ _ _ ___ _ _ ___ _ _
 72
    65
 73
     6
 40
7.5
 49
3.75
 74
     0
 49
-0.75
 74
     0
 49
0.75
 74
     0
 49
-0.75
 74
     0
 49
0.75
 74
     0
 49
-0.75
 74
     0
  0
LTYPE
  5
40
100
AcDbSymbolTableRecord
100
AcDbLinetypeTableRecord
  2
PHANTOMX2
 70
    64
  3
Phantom (2x) ____________    ____    ____   _
 72
    65
 73
     6
 40
30.0
 49
15.0
 74
     0
 49
-3.0
 74
     0
 49
3.0
 74
     0
 49
-3.0
 74
     0
 49
3.0
 74
     0
 49
-3.0
 74
     0
  0
LTYPE
  5
41
100
AcDbSymbolTableRecord
100
AcDbLinetypeTableRecord
  2
ACAD_ISO02W100
 70
     0
  3
ISO dash __ __ __ __ __ __ __ __ __ __ __ __ __
 72
    65
 73
     2
 40
15.0
 49
12.0
 74
     0
 49
-3.0
 74
     0
  0
LTYPE
  5
42
100
AcDbSymbolTableRecord
100
AcDbLinetypeTableRecord
  2
ACAD_ISO03W100
 70
     0
  3
ISO dash space __    __    __    __    __    __
 72
    65
 73
     2
 40
30.0
 49
12.0
 74
     0
 49
-18.0
 74
     0
  0
LTYPE
  5
43
100
AcDbSymbolTableRecord
100
AcDbLinetypeTableRecord
  2
ACAD_ISO04W100
 70
     0
  3
ISO long-dash dot ____ . ____ . ____ . ____ . _
 72
    65
 73
     4
 40
30.0
 49
24.0
 74
     0
 49
-3.0
 74
     0
 49
0.0
 74
     0
 49
-3.0
 74
     0
  0
LTYPE
  5
44
100
AcDbSymbolTableRecord
100
AcDbLinetypeTableRecord
  2
ACAD_ISO05W100
 70
     0
  3
ISO long-dash double-dot ____ .. ____ .. ____ .
 72
    65
 73
     6
 40
33.0
 49
24.0
 74
     0
 49
-3.0
 74
     0
 49
0.0
 74
     0
 49
-3.0
 74
     0
 49
0.0
 74
     0
 49
-3.0
 74
     0
  0
LTYPE
  5
45
100
AcDbSymbolTableRecord
100
AcDbLinetypeTableRecord
  2
ACAD_ISO06W100
 70
     0
  3
ISO long-dash triple-dot ____ ... ____ ... ____
 72
    65
 73
     8
 40
36.0
 49
24.0
 74
     0
 49
-3.0
 74
     0
 49
0.0
 74
     0
 49
-3.0
 74
     0
 49
0.0
 74
     0
 49
-3.0
 74
     0
 49
0.0
 74
     0
 49
-3.0
 74
     0
  0
LTYPE
  5
46
100
AcDbSymbolTableRecord
100
AcDbLinetypeTableRecord
  2
ACAD_ISO07W100
 70
     0
  3
ISO dot . . . . . . . . . . . . . . . . . . . .
 72
    65
 73
     2
 40
3.0
 49
0.0
 74
     0
 49
-3.0
 74
     0
  0
LTYPE
  5
47
100
AcDbSymbolTableRecord
100
AcDbLinetypeTableRecord
  2
ACAD_ISO08W100
 70
     0
  3
ISO long-dash short-dash ____ __ ____ __ ____ _
 72
    65
 73
     4
 40
36.0
 49
24.0
 74
     0
 49
-3.0
 74
     0
 49
6.0
 74
     0
 49
-3.0
 74
     0
  0
LTYPE
  5
48
100
AcDbSymbolTableRecord
100
AcDbLinetypeTableRecord
  2
ACAD_ISO09W100
 70
     0
  3
ISO long-dash double-short-dash ____ __ __ ____
 72
    65
 73
     6
 40
45.0
 49
24.0
 74
     0
 49
-3.0
 74
     0
 49
6.0
 74
     0
 49
-3.0
 74
     0
 49
6.0
 74
     0
 49
-3.0
 74
     0
  0
LTYPE
  5
49
100
AcDbSymbolTableRecord
100
AcDbLinetypeTableRecord
  2
ACAD_ISO10W100
 70
     0
  3
ISO dash dot __ . __ . __ . __ . __ . __ . __ .
 72
    65
 73
     4
 40
18.0
 49
12.0
 74
     0
 49
-3.0
 74
     0
 49
0.0
 74
     0
 49
-3.0
 74
     0
  0
LTYPE
  5
4a
100
AcDbSymbolTableRecord
100
AcDbLinetypeTableRecord
  2
ACAD_ISO11W100
 70
     0
  3
ISO double-dash dot __ __ . __ __ . __ __ . __ 
 72
    65
 73
     6
 40
33.0
 49
12.0
 74
     0
 49
-3.0
 74
     0
 49
12.0
 74
     0
 49
-3.0
 74
     0
 49
0.0
 74
     0
 49
-3.0
 74
     0
  0
LTYPE
  5
4b
100
AcDbSymbolTableRecord
100
AcDbLinetypeTableRecord
  2
ACAD_ISO12W100
 70
     0
  3
ISO dash double-dot __ . . __ . . __ . . __ . .
 72
    65
 73
     6
 40
21.0
 49
12.0
 74
     0
 49
-3.0
 74
     0
 49
0.0
 74
     0
 49
-3.0
 74
     0
 49
0.0
 74
     0
 49
-3.0
 74
     0
  0
LTYPE
  5
4c
100
AcDbSymbolTableRecord
100
AcDbLinetypeTableRecord
  2
ACAD_ISO13W100
 70
     0
  3
ISO double-dash double-dot __ __ . . __ __ . . 
 72
    65
 73
     8
 40
36.0
 49
12.0
 74
     0
 49
-3.0
 74
     0
 49
12.0
 74
     0
 49
-3.0
 74
     0
 49
0.0
 74
     0
 49
-3.0
 74
     0
 49
0.0
 74
     0
 49
-3.0
 74
     0
  0
LTYPE
  5
4d
100
AcDbSymbolTableRecord
100
AcDbLinetypeTableRecord
  2
ACAD_ISO14W100
 70
     0
  3
ISO dash triple-dot __ . . . __ . . . __ . . . 
 72
    65
 73
     8
 40
24.0
 49
12.0
 74
     0
 49
-3.0
 74
     0
 49
0.0
 74
     0
 49
-3.0
 74
     0
 49
0.0
 74
     0
 49
-3.0
 74
     0
 49
0.0
 74
     0
 49
-3.0
 74
     0
  0
LTYPE
  5
4e
100
AcDbSymbolTableRecord
100
AcDbLinetypeTableRecord
  2
ACAD_ISO15W100
 70
     0
  3
ISO double-dash triple-dot __ __ . . . __ __ . 
 72
    65
 73
    10
 40
39.0
 49
12.0
 74
     0
 49
-3.0
 74
     0
 49
12.0
 74
     0
 49
-3.0
 74
     0
 49
0.0
 74
     0
 49
-3.0
 74
     0
 49
0.0
 74
     0
 49
-3.0
 74
     0
 49
0.0
 74
     0
 49
-3.0
 74
     0
  0
LTYPE
  5
4f
100
AcDbSymbolTableRecord
100
AcDbLinetypeTableRecord
  2
FENCELINE1
 70
     0
  3
Fenceline circle ----0-----0----0-----0----0---
 72
    65
 73
     4
 40
1.45
 49
0.25
 74
     0
 49
-0.1
 74
     4
 75
   133
340
24
 46
0.1
 50
0.0
 44
-0.1
 45
0.0
 49
-0.1
 74
     0
 49
1.0
 74
     0
  0
LTYPE
  5
50
100
AcDbSymbolTableRecord
100
AcDbLinetypeTableRecord
  2
FENCELINE2
 70
     0
  3
Fenceline square ----[]-----[]----[]-----[]----
 72
    65
 73
     4
 40
1.45
 49
0.25
 74
     0
 49
-0.1
 74
     4
 75
   132
340
24
 46
0.1
 50
0.0
 44
-0.1
 45
0.0
 49
-0.1
 74
     0
 49
1.0
 74
     0
  0
LTYPE
  5
51
100
AcDbSymbolTableRecord
100
AcDbLinetypeTableRecord
  2
TRACKS
 70
     0
  3
Tracks -|-|-|-|-|-|-|-|-|-|-|-|-|-|-|-|-|-|-|-|
 72
    65
 73
     2
 40
0.3
 49
0.15
 74
     4
 75
   130
340
24
 46
0.25
 50
0.0
 44
0.0
 45
0.0
 49
0.15
 74
     0
  0
LTYPE
  5
52
100
AcDbSymbolTableRecord
100
AcDbLinetypeTableRecord
  2
BATTING
 70
     0
  3
Batting SSSSSSSSSSSSSSSSSSSSSSSSSSSSSSSSSSSSSSS
 72
    65
 73
     4
 40
0.4001000000000002
 49
0.0001
 74
     0
 49
-0.1
 74
     4
 75
   134
340
24
 46
0.1
 50
0.0
 44
-0.1
 45
0.0
 49
-0.2
 74
     4
 75
   134
340
24
 46
0.1
 50
180.0
 44
0.1
 45
0.0
 49
-0.1
 74
     0
  0
LTYPE
  5
53
100
AcDbSymbolTableRecord
100
AcDbLinetypeTableRecord
  2
HOT_WATER_SUPPLY
 70
     0
  3
Hot water supply ---- HW ---- HW ---- HW ----
 72
    65
 73
     3
 40
0.9
 49
0.5
 74
     0
 49
-0.2
 74
     2
 75
     1
340
23
 46
0.1
 50
0.0
 44
-0.1
 45
-0.05
  9
HW
 49
-0.2
 74
     0
  0
LTYPE
  5
54
100
AcDbSymbolTableRecord
100
AcDbLinetypeTableRecord
  2
GAS_LINE
 70
     0
  3
Gas line ----GAS----GAS----GAS----GAS----GAS---
 72
    65
 73
     3
 40
0.95
 49
0.5
 74
     0
 49
-0.2
 74
     2
 75
     1
340
23
 46
0.1
 50
0.0
 44
-0.1
 45
-0.05
  9
GAS
 49
-0.25
 74
     0
  0
LTYPE
  5
55
100
AcDbSymbolTableRecord
100
AcDbLinetypeTableRecord
  2
ZIGZAG
 70
     0
  3
Zig zag /\/\/\/\/\/\/\/\/\/\/\/\/\/\/\/\/\/\/\/
 72
    65
 73
     4
 40
0.8001000000000001
 49
0.0001
 74
     0
 49
-0.2
 74
     4
 75
   131
340
24
 46
0.2
 50
0.0
 44
-0.2
 45
0.0
 49
-0.4
 74
     4
 75
   131
340
24
 46
0.2
 50
180.0
 44
0.2
 45
0.0
 49
-0.2
 74
     0
  0
ENDTAB
  0
TABLE
  2
LAYER
  5
c8
100
AcDbSymbolTable
 70
     2
  0
LAYER
  5
c9
100
AcDbSymbolTableRecord
100
AcDbLayerTableRecord
  2
0
 70
     0
 62
     7
  6
CONTINUOUS
390
F
  0
LAYER
  5
ca
100
AcDbSymbolTableRecord
100
AcDbLayerTableRecord
  2
DEFPOINTS
 70
     0
 62
     7
  6
CONTINUOUS
290
0
390
F
  0
ENDTAB
  0
TABLE
  2
STYLE
  5
cb
100
AcDbSymbolTable
 70
     2
  0
STYLE
  5
      23
100
AcDbSymbolTableRecord
100
AcDbTextStyleTableRecord
  2
STANDARD
 70
     0
 40
0.0
 41
1.0
 50
0.0
 71
     0
 42
0.2
  3
txt
  4
BIGFONT
  0
STYLE
  5
24
100
AcDbSymbolTableRecord
100
AcDbTextStyleTableRecord
  2

 70
     1
 40
0.0
 41
1.0
 50
0.0
 71
     0
 42
0.2
  3
ltypeshp.shx
  4

  0
ENDTAB
  0
TABLE
  2
DIMSTYLE
  5
cc
100
AcDbSymbolTable
100
AcDbDimStyleTable
 70
     1
  0
DIMSTYLE
105
cd
100
AcDbSymbolTableRecord
100
AcDbDimStyleTableRecord
  2
DIMSTYLE
 70
     0
  3

  4

  5
_OPEN
  6
_OPEN
  7
_OPEN
 40
1
 41
1
 42
0.009999999776482582
 43
0.38
 44
2.54
 45
0
 46
0
 47
0
 48
0
140
4
141
0.09
142
0
143
25.4
144
1
145
0
146
1
147
2
 71
     0
 72
     0
 73
     0
 74
     0
 75
     0
 76
     0
 78
     0
170
     0
171
     2
 77
     0
172
     0
173
     1
174
     0
175
     0
176
     0
177
     0
178
     0
271
     1
275
     1
340
23
  0
ENDTAB
  0
TABLE
  2
APPID
  5
ce
100
AcDbSymbolTable
 70
     1
  0
APPID
  5
cf
100
AcDbSymbolTableRecord
100
AcDbRegAppTableRecord
  2
ACAD
 70
     0
  0
ENDTAB
  0
TABLE
  2
VIEW
  5
d0
100
AcDbSymbolTable
 70
     0
  0
ENDTAB
  0
TABLE
  2
UCS
  5
d1
100
AcDbSymbolTable
 70
     0
  0
ENDTAB
  0
TABLE
  2
BLOCK_RECORD
  5
d2
100
AcDbSymbolTable
 70
    23
  0
BLOCK_RECORD
  5
d3
100
AcDbSymbolTableRecord
100
AcDbBlockTableRecord
  2
*MODEL_SPACE
  0
BLOCK_RECORD
  5
d4
100
AcDbSymbolTableRecord
100
AcDbBlockTableRecord
  2
*PAPER_SPACE
  0
BLOCK_RECORD
  5
d5
100
AcDbSymbolTableRecord
100
AcDbBlockTableRecord
  2
_OPEN
  0
BLOCK_RECORD
  5
d6
100
AcDbSymbolTableRecord
100
AcDbBlockTableRecord
  2
_OPEN30
  0
BLOCK_RECORD
  5
d7
100
AcDbSymbolTableRecord
100
AcDbBlockTableRecord
  2
KOZU0001
  0
BLOCK_RECORD
  5
d8
100
AcDbSymbolTableRecord
100
AcDbBlockTableRecord
  2
KOZU0002
  0
BLOCK_RECORD
  5
d9
100
AcDbSymbolTableRecord
100
AcDbBlockTableRecord
  2
KOZU0003
  0
BLOCK_RECORD
  5
da
100
AcDbSymbolTableRecord
100
AcDbBlockTableRecord
  2
KOZU0004
  0
BLOCK_RECORD
  5
db
100
AcDbSymbolTableRecord
100
AcDbBlockTableRecord
  2
KOZU0005
  0
BLOCK_RECORD
  5
dc
100
AcDbSymbolTableRecord
100
AcDbBlockTableRecord
  2
KOZU0006
  0
BLOCK_RECORD
  5
dd
100
AcDbSymbolTableRecord
100
AcDbBlockTableRecord
  2
KOZU0007
  0
BLOCK_RECORD
  5
de
100
AcDbSymbolTableRecord
100
AcDbBlockTableRecord
  2
KOZU0008
  0
BLOCK_RECORD
  5
df
100
AcDbSymbolTableRecord
100
AcDbBlockTableRecord
  2
KOZU0009
  0
BLOCK_RECORD
  5
e0
100
AcDbSymbolTableRecord
100
AcDbBlockTableRecord
  2
KOZU0010
  0
BLOCK_RECORD
  5
e1
100
AcDbSymbolTableRecord
100
AcDbBlockTableRecord
  2
KOZU0011
  0
BLOCK_RECORD
  5
e2
100
AcDbSymbolTableRecord
100
AcDbBlockTableRecord
  2
KOZU0012
  0
BLOCK_RECORD
  5
e3
100
AcDbSymbolTableRecord
100
AcDbBlockTableRecord
  2
*D1
  0
BLOCK_RECORD
  5
e4
100
AcDbSymbolTableRecord
100
AcDbBlockTableRecord
  2
*D2
  0
BLOCK_RECORD
  5
e5
100
AcDbSymbolTableRecord
100
AcDbBlockTableRecord
  2
*D3
  0
BLOCK_RECORD
  5
e6
100
AcDbSymbolTableRecord
100
AcDbBlockTableRecord
  2
*D4
  0
BLOCK_RECORD
  5
e7
100
AcDbSymbolTableRecord
100
AcDbBlockTableRecord
  2
*D5
  0
BLOCK_RECORD
  5
e8
100
AcDbSymbolTableRecord
100
AcDbBlockTableRecord
  2
*D6
  0
BLOCK_RECORD
  5
e9
100
AcDbSymbolTableRecord
100
AcDbBlockTableRecord
  2
*D7
  0
ENDTAB
  0
TABLE
  2
VPORT
  5
ea
100
AcDbSymbolTable
 70
     0
  0
ENDTAB
  0
ENDSEC
  0
SECTION
  2
BLOCKS
  0
BLOCK
  8
0
  5
eb
100
AcDbEntity
100
AcDbBlockBegin
  2
*MODEL_SPACE
 70
     0
 10
0
 20
0
  3
*MODEL_SPACE
  0
ENDBLK
  8
0
  5
ec
100
AcDbEntity
100
AcDbBlockEnd
  0
BLOCK
  8
0
  5
ed
 67
     1
100
AcDbEntity
100
AcDbBlockBegin
  2
*PAPER_SPACE
 70
     0
 10
0
 20
0
  3
*PAPER_SPACE
  0
ENDBLK
  8
0
  5
ee
 67
     1
100
AcDbEntity
100
AcDbBlockEnd
  0
BLOCK
  8
0
  5
ef
100
AcDbEntity
100
AcDbBlockBegin
  2
_OPEN
 70
    64
 10
0
 20
0
  3
_OPEN
  0
LINE
  5
f0
100
AcDbEntity
  8
0
  6
BYBLOCK
 62
     0
100
AcDbLine
 10
0
 20
0
 11
-3.12799995302215
 21
-0.5619999915596265
  0
LINE
  5
f1
100
AcDbEntity
  8
0
  6
BYBLOCK
 62
     0
100
AcDbLine
 10
0
 20
0
 11
-3.127999953022157
 21
0.5619999915595884
  0
LINE
  5
f2
100
AcDbEntity
  8
0
  6
BYBLOCK
 62
     0
100
AcDbLine
 10
0
 20
0
 11
-2.99999995494452
 21
0
  0
ENDBLK
  8
0
  5
f3
100
AcDbEntity
100
AcDbBlockEnd
  0
BLOCK
  8
0
  5
f4
100
AcDbEntity
100
AcDbBlockBegin
  2
_OPEN30
 70
    64
 10
0
 20
0
  3
_OPEN30
  0
LINE
  5
f5
100
AcDbEntity
  8
0
  6
BYBLOCK
 62
     0
100
AcDbLine
 10
0
 20
0
 11
-2.999999954944514
 21
-0.9999999849815249
  0
LINE
  5
f6
100
AcDbEntity
  8
0
  6
BYBLOCK
 62
     0
100
AcDbLine
 10
0
 20
0
 11
-2.999999954944526
 21
0.9999999849814883
  0
LINE
  5
f7
100
AcDbEntity
  8
0
  6
BYBLOCK
 62
     0
100
AcDbLine
 10
0
 20
0
 11
-2.99999995494452
 21
0
  0
ENDBLK
  8
0
  5
f8
100
AcDbEntity
100
AcDbBlockEnd
  0
BLOCK
  8
0
  5
f9
100
AcDbEntity
100
AcDbBlockBegin
  2
*D1
 70
    65
 10
0
 20
0
  0
MTEXT
  5
fa
100
AcDbEntity
  8
0
  6
CONTINUOUS
 62
     7
100
AcDbMText
 10
279.3938384634059
 20
-92.00000374657773
 40
5
 41
60
 71
     8
 72
     1
  1
{\W0.855331;□８０}
  0
LINE
  5
fb
100
AcDbEntity
  8
0
  6
CONTINUOUS
 62
     7
100
AcDbLine
 10
242.3938377371544
 20
-92.00000374657773
 11
316.3938391896573
 21
-92.00000374657775
  0
INSERT
  5
fc
100
AcDbEntity
  8
0
  6
CONTINUOUS
 62
     7
100
AcDbBlockReference
  2
_OPEN30
 10
239.3938377822099
 20
-92.00000374657773
 41
1
 42
1
 43
1
 50
180.0000000000004
  0
INSERT
  5
fd
100
AcDbEntity
  8
0
  6
CONTINUOUS
 62
     7
100
AcDbBlockReference
  2
_OPEN30
 10
319.3938391446018
 20
-92.00000374657773
 41
1
 42
1
 43
1
  0
LINE
  5
fe
100
AcDbEntity
  8
0
  6
CONTINUOUS
 62
     7
100
AcDbLine
 10
239.3938377822099
 20
-28.61174495921382
 11
239.3938377822099
 21
-96.08143561365665
  0
LINE
  5
ff
100
AcDbEntity
  8
0
  6
CONTINUOUS
 62
     7
100
AcDbLine
 10
319.3938391446018
 20
-28.61174495921382
 11
319.3938391446018
 21
-96.08143561365665
  0
POINT
  5
100
100
AcDbEntity
  8
DEFPOINTS
  6
CONTINUOUS
 62
     7
100
AcDbPoint
 10
239.3938377822099
 20
-28.61174495921382
  0
POINT
  5
101
100
AcDbEntity
  8
DEFPOINTS
  6
CONTINUOUS
 62
     7
100
AcDbPoint
 10
319.3938391446018
 20
-28.61174495921382
  0
POINT
  5
102
100
AcDbEntity
  8
DEFPOINTS
  6
CONTINUOUS
 62
     7
100
AcDbPoint
 10
319.3938391446018
 20
-92.00000374657773
  0
ENDBLK
  8
0
  5
103
100
AcDbEntity
100
AcDbBlockEnd
  0
BLOCK
  8
0
  5
104
100
AcDbEntity
100
AcDbBlockBegin
  2
*D2
 70
    65
 10
0
 20
0
  0
MTEXT
  5
105
100
AcDbEntity
  8
0
  6
CONTINUOUS
 62
     7
100
AcDbMText
 10
363.717788350885
 20
-29.61169702004871
 40
5
 41
40
 71
     8
 72
     1
  1
{\W0.864328;５６}
 11
0
 21
1
  0
LINE
  5
106
100
AcDbEntity
  8
0
  6
CONTINUOUS
 62
     7
100
AcDbLine
 10
363.717788350885
 20
-54.61176075692568
 11
363.717788350885
 21
-4.61175862322687
  0
INSERT
  5
107
100
AcDbEntity
  8
0
  6
CONTINUOUS
 62
     7
100
AcDbBlockReference
  2
_OPEN30
 10
363.717788350885
 20
-57.6117607118702
 41
1
 42
1
 43
1
 50
270.0000000000005
  0
INSERT
  5
108
100
AcDbEntity
  8
0
  6
CONTINUOUS
 62
     7
100
AcDbBlockReference
  2
_OPEN30
 10
363.717788350885
 20
-1.61175866828235
 41
1
 42
1
 43
1
 50
90.00000000000019
  0
LINE
  5
109
100
AcDbEntity
  8
0
  6
CONTINUOUS
 62
     7
100
AcDbLine
 10
336.7509735780268
 20
-57.61170621619405
 11
366.0037729740785
 21
-57.61170621619405
  0
LINE
  5
10a
100
AcDbEntity
  8
0
  6
CONTINUOUS
 62
     7
100
AcDbLine
 10
350.8492229810651
 20
-1.611709622173814
 11
366.0037729740785
 21
-1.611709622173814
  0
POINT
  5
10b
100
AcDbEntity
  8
DEFPOINTS
  6
CONTINUOUS
 62
     7
100
AcDbPoint
 10
336.7509735780268
 20
-57.61170621619405
  0
POINT
  5
10c
100
AcDbEntity
  8
DEFPOINTS
  6
CONTINUOUS
 62
     7
100
AcDbPoint
 10
350.8492229810651
 20
-1.611709622173814
  0
POINT
  5
10d
100
AcDbEntity
  8
DEFPOINTS
  6
CONTINUOUS
 62
     7
100
AcDbPoint
 10
363.717788350885
 20
-1.61175866828235
  0
ENDBLK
  8
0
  5
10e
100
AcDbEntity
100
AcDbBlockEnd
  0
BLOCK
  8
0
  5
10f
100
AcDbEntity
100
AcDbBlockBegin
  2
*D3
 70
    65
 10
0
 20
0
  0
MTEXT
  5
110
100
AcDbEntity
  8
0
  6
CONTINUOUS
 62
     7
100
AcDbMText
 10
363.717788350885
 20
86.38830059576546
 40
5
 41
60
 71
     8
 72
     1
  1
{\W0.855331;１７６}
 11
0
 21
1
  0
LINE
  5
111
100
AcDbEntity
  8
0
  6
CONTINUOUS
 62
     7
100
AcDbLine
 10
363.717788350885
 20
1.38824128666217
 11
363.717788350885
 21
171.3882890604898
  0
INSERT
  5
112
100
AcDbEntity
  8
0
  6
CONTINUOUS
 62
     7
100
AcDbBlockReference
  2
_OPEN30
 10
363.717788350885
 20
-1.61175866828235
 41
1
 42
1
 43
1
 50
270.0000000000005
  0
INSERT
  5
113
100
AcDbEntity
  8
0
  6
CONTINUOUS
 62
     7
100
AcDbBlockReference
  2
_OPEN30
 10
363.717788350885
 20
174.3882890154343
 41
1
 42
1
 43
1
 50
90.00000000000019
  0
LINE
  5
114
100
AcDbEntity
  8
0
  6
CONTINUOUS
 62
     7
100
AcDbLine
 10
309.3938389743028
 20
-1.611709622173814
 11
366.0037729740785
 21
-1.611709622173814
  0
LINE
  5
115
100
AcDbEntity
  8
0
  6
CONTINUOUS
 62
     7
100
AcDbLine
 10
326.8602481375464
 20
174.3883326119752
 11
366.0037729740785
 21
174.3883326119752
  0
POINT
  5
116
100
AcDbEntity
  8
DEFPOINTS
  6
CONTINUOUS
 62
     7
100
AcDbPoint
 10
309.3938389743028
 20
-1.611709622173814
  0
POINT
  5
117
100
AcDbEntity
  8
DEFPOINTS
  6
CONTINUOUS
 62
     7
100
AcDbPoint
 10
326.8602481375464
 20
174.3883326119752
  0
POINT
  5
118
100
AcDbEntity
  8
DEFPOINTS
  6
CONTINUOUS
 62
     7
100
AcDbPoint
 10
363.717788350885
 20
174.3882890154343
  0
ENDBLK
  8
0
  5
119
100
AcDbEntity
100
AcDbBlockEnd
  0
BLOCK
  8
0
  5
11a
100
AcDbEntity
100
AcDbBlockBegin
  2
*D4
 70
    65
 10
0
 20
0
  0
MTEXT
  5
11b
100
AcDbEntity
  8
0
  6
CONTINUOUS
 62
     7
100
AcDbMText
 10
375.6441452783201
 20
58.38833499616104
 40
5
 41
60
 71
     8
 72
     1
  1
{\W0.855331;２３２}
 11
0
 21
1
  0
LINE
  5
11c
100
AcDbEntity
  8
0
  6
CONTINUOUS
 62
     7
100
AcDbLine
 10
375.6441452783201
 20
-54.61176075692568
 11
375.6441452783201
 21
171.3882890604898
  0
INSERT
  5
11d
100
AcDbEntity
  8
0
  6
CONTINUOUS
 62
     7
100
AcDbBlockReference
  2
_OPEN30
 10
375.6441452783201
 20
-57.6117607118702
 41
1
 42
1
 43
1
 50
270.0000000000005
  0
INSERT
  5
11e
100
AcDbEntity
  8
0
  6
CONTINUOUS
 62
     7
100
AcDbBlockReference
  2
_OPEN30
 10
375.6441452783201
 20
174.3882890154343
 41
1
 42
1
 43
1
 50
90.00000000000019
  0
LINE
  5
11f
100
AcDbEntity
  8
0
  6
CONTINUOUS
 62
     7
100
AcDbLine
 10
311.8938390168776
 20
-57.61170621619405
 11
377.9301299015136
 21
-57.61170621619405
  0
LINE
  5
120
100
AcDbEntity
  8
0
  6
CONTINUOUS
 62
     7
100
AcDbLine
 10
299.3938606022743
 20
174.3883326119752
 11
377.9301299015136
 21
174.3883326119752
  0
POINT
  5
121
100
AcDbEntity
  8
DEFPOINTS
  6
CONTINUOUS
 62
     7
100
AcDbPoint
 10
311.8938390168776
 20
-57.61170621619405
  0
POINT
  5
122
100
AcDbEntity
  8
DEFPOINTS
  6
CONTINUOUS
 62
     7
100
AcDbPoint
 10
299.3938606022743
 20
174.3883326119752
  0
POINT
  5
123
100
AcDbEntity
  8
DEFPOINTS
  6
CONTINUOUS
 62
     7
100
AcDbPoint
 10
375.6441452783201
 20
174.3882890154343
  0
ENDBLK
  8
0
  5
124
100
AcDbEntity
100
AcDbBlockEnd
  0
BLOCK
  8
0
  5
125
100
AcDbEntity
100
AcDbBlockBegin
  2
*D5
 70
    65
 10
0
 20
0
  0
MTEXT
  5
126
100
AcDbEntity
  8
0
  6
CONTINUOUS
 62
     7
100
AcDbMText
 10
90.82240668062494
 20
-83.05047312890586
 40
5
 41
60
 71
     8
 72
     1
  1
{\W0.855331;１３０}
  0
LINE
  5
127
100
AcDbEntity
  8
0
  6
CONTINUOUS
 62
     7
100
AcDbLine
 10
28.82240552862604
 20
-83.05047312890586
 11
152.8224078326238
 21
-83.05047312890588
  0
INSERT
  5
128
100
AcDbEntity
  8
0
  6
CONTINUOUS
 62
     7
100
AcDbBlockReference
  2
_OPEN30
 10
25.82240557368152
 20
-83.05047312890586
 41
1
 42
1
 43
1
 50
180.0000000000004
  0
INSERT
  5
129
100
AcDbEntity
  8
0
  6
CONTINUOUS
 62
     7
100
AcDbBlockReference
  2
_OPEN30
 10
155.8224077875684
 20
-83.05047312890586
 41
1
 42
1
 43
1
  0
LINE
  5
12a
100
AcDbEntity
  8
0
  6
CONTINUOUS
 62
     7
100
AcDbLine
 10
25.82240557368152
 20
-31.61174283047647
 11
25.82240557368152
 21
-87.13189954641716
  0
LINE
  5
12b
100
AcDbEntity
  8
0
  6
CONTINUOUS
 62
     7
100
AcDbLine
 10
155.8224077875684
 20
-31.61174283047647
 11
155.8224077875684
 21
-87.13189954641716
  0
POINT
  5
12c
100
AcDbEntity
  8
DEFPOINTS
  6
CONTINUOUS
 62
     7
100
AcDbPoint
 10
25.82240557368152
 20
-31.61174283047647
  0
POINT
  5
12d
100
AcDbEntity
  8
DEFPOINTS
  6
CONTINUOUS
 62
     7
100
AcDbPoint
 10
155.8224077875684
 20
-31.61174283047647
  0
POINT
  5
12e
100
AcDbEntity
  8
DEFPOINTS
  6
CONTINUOUS
 62
     7
100
AcDbPoint
 10
155.8224077875684
 20
-83.05047312890586
  0
ENDBLK
  8
0
  5
12f
100
AcDbEntity
100
AcDbBlockEnd
  0
BLOCK
  8
0
  5
130
100
AcDbEntity
100
AcDbBlockBegin
  2
*D6
 70
    65
 10
0
 20
0
  0
LINE
  5
131
100
AcDbEntity
  8
0
  6
CONTINUOUS
 62
     7
100
AcDbLine
 10
249.8938378648787
 20
-78.50000242676057
 11
308.893839061933
 21
-78.50000242676059
  0
INSERT
  5
132
100
AcDbEntity
  8
0
  6
CONTINUOUS
 62
     7
100
AcDbBlockReference
  2
_OPEN30
 10
246.8938379099342
 20
-78.50000242676057
 41
1
 42
1
 43
1
 50
180.0000000000004
  0
INSERT
  5
133
100
AcDbEntity
  8
0
  6
CONTINUOUS
 62
     7
100
AcDbBlockReference
  2
_OPEN30
 10
311.8938390168776
 20
-78.50000242676057
 41
1
 42
1
 43
1
  0
LINE
  5
134
100
AcDbEntity
  8
0
  6
CONTINUOUS
 62
     7
100
AcDbLine
 10
246.8938379099342
 20
-54.61175739103994
 11
246.8938379099342
 21
-82.58142884427188
  0
LINE
  5
135
100
AcDbEntity
  8
0
  6
CONTINUOUS
 62
     7
100
AcDbLine
 10
311.8938390168776
 20
-54.61175739103994
 11
311.8938390168776
 21
-82.58142884427188
  0
MTEXT
  5
136
100
AcDbEntity
  8
0
  6
CONTINUOUS
 62
     7
100
AcDbMText
 10
279.3938384634059
 20
-78.50000242676057
 40
5
 41
110
 71
     8
 72
     1
  1
{\W0.855331;\U+2205６５}
  0
POINT
  5
137
100
AcDbEntity
  8
DEFPOINTS
  6
CONTINUOUS
 62
     7
100
AcDbPoint
 10
246.8938379099342
 20
-54.61175739103994
  0
POINT
  5
138
100
AcDbEntity
  8
DEFPOINTS
  6
CONTINUOUS
 62
     7
100
AcDbPoint
 10
311.8938390168776
 20
-54.61175739103994
  0
POINT
  5
139
100
AcDbEntity
  8
DEFPOINTS
  6
CONTINUOUS
 62
     7
100
AcDbPoint
 10
311.8938390168776
 20
-78.50000242676057
  0
ENDBLK
  8
0
  5
13a
100
AcDbEntity
100
AcDbBlockEnd
  0
BLOCK
  8
0
  5
13b
100
AcDbEntity
100
AcDbBlockBegin
  2
*D7
 70
    65
 10
0
 20
0
  0
LINE
  5
13c
100
AcDbEntity
  8
0
  6
CONTINUOUS
 62
     7
100
AcDbLine
 10
249.3938379525089
 20
11.57807359012779
 11
221.1322282168796
 21
11.57807359012779
  0
LINE
  5
13d
100
AcDbEntity
  8
0
  6
CONTINUOUS
 62
     7
100
AcDbLine
 10
252.3938379074534
 20
11.57807359012779
 11
306.3938390193583
 21
11.57807359012778
  0
INSERT
  5
13e
100
AcDbEntity
  8
0
  6
CONTINUOUS
 62
     7
100
AcDbBlockReference
  2
_OPEN
 10
249.3938379525089
 20
11.57807359012779
 41
1
 42
1
 43
1
 50
180.0000000000004
  0
INSERT
  5
13f
100
AcDbEntity
  8
0
  6
CONTINUOUS
 62
     7
100
AcDbBlockReference
  2
_OPEN
 10
309.3938389743028
 20
11.57807359012779
 41
1
 42
1
 43
1
  0
LINE
  5
140
100
AcDbEntity
  8
0
  6
CONTINUOUS
 62
     7
100
AcDbLine
 10
249.3938379525089
 20
14.12908578138838
 11
249.3938379525089
 21
9.292073590127794
  0
LINE
  5
141
100
AcDbEntity
  8
0
  6
CONTINUOUS
 62
     7
100
AcDbLine
 10
309.3938389743028
 20
14.12908578138838
 11
309.3938389743028
 21
9.292073590127794
  0
MTEXT
  5
142
100
AcDbEntity
  8
0
  6
CONTINUOUS
 62
     7
100
AcDbMText
 10
225.4178534362247
 20
11.57807359012779
 40
5
 41
40
 71
     8
 72
     1
  1
{\W0.864328;６０}
  0
POINT
  5
143
100
AcDbEntity
  8
DEFPOINTS
  6
CONTINUOUS
 62
     7
100
AcDbPoint
 10
249.3938379525089
 20
14.12908578138838
  0
POINT
  5
144
100
AcDbEntity
  8
DEFPOINTS
  6
CONTINUOUS
 62
     7
100
AcDbPoint
 10
309.3938389743028
 20
14.12908578138838
  0
POINT
  5
145
100
AcDbEntity
  8
DEFPOINTS
  6
CONTINUOUS
 62
     7
100
AcDbPoint
 10
309.3938389743028
 20
11.57807359012779
  0
ENDBLK
  8
0
  5
146
100
AcDbEntity
100
AcDbBlockEnd
  0
BLOCK
  8
0
  5
147
100
AcDbEntity
100
AcDbBlockBegin
  2
KOZU0001
 70
    64
 10
0
 20
0
  0
POINT
  5
148
100
AcDbEntity
  8
0
  6
CONTINUOUS
 62
     7
100
AcDbPoint
 10
0
 20
0
  0
LINE
  5
149
100
AcDbEntity
  8
0
  6
CENTER
 62
     3
100
AcDbLine
 10
-68.28004680837984
 20
-1.089913523033559e-005
 11
68.07863623889236
 21
-1.089913523033559e-005
  0
LINE
  5
14a
100
AcDbEntity
  8
0
  6
CONTINUOUS
 62
     7
100
AcDbLine
 10
-32.50000055347171
 20
-56.0000183922907
 11
32.50000055347171
 21
-56.0000183922907
  0
LINE
  5
14b
100
AcDbEntity
  8
0
  6
CONTINUOUS
 62
     7
100
AcDbLine
 10
32.50000055347171
 20
-35.00003874301977
 11
32.50000055347171
 21
-56.0000183922907
  0
LINE
  5
14c
100
AcDbEntity
  8
0
  6
CONTINUOUS
 62
     7
100
AcDbLine
 10
-32.50000055347171
 20
-35.00003874301977
 11
-32.50000055347171
 21
-56.0000183922907
  0
LINE
  5
14d
100
AcDbEntity
  8
0
  6
CONTINUOUS
 62
     7
100
AcDbLine
 10
36.99999191079807
 20
93.99996236392366
 11
-36.99999191079807
 21
93.99996236392366
  0
LINE
  5
14e
100
AcDbEntity
  8
0
  6
CONTINUOUS
 62
     7
100
AcDbLine
 10
-33.99999948910303
 20
68.99996193817619
 11
-32.00000272478381
 21
68.99996193817619
  0
LINE
  5
14f
100
AcDbEntity
  8
0
  6
CONTINUOUS
 62
     7
100
AcDbLine
 10
33.99998314040019
 20
68.99996193817619
 11
33.99998314040019
 21
34.99996244907315
  0
LINE
  5
150
100
AcDbEntity
  8
0
  6
CONTINUOUS
 62
     7
100
AcDbLine
 10
-33.99998314040019
 20
68.99996193817619
 11
-33.99998314040019
 21
34.99996244907315
  0
LINE
  5
151
100
AcDbEntity
  8
0
  6
CONTINUOUS
 62
     7
100
AcDbLine
 10
32.00000272478381
 20
68.99996193817619
 11
34.00000493867066
 21
68.99996193817619
  0
LINE
  5
152
100
AcDbEntity
  8
0
  6
CONTINUOUS
 62
     7
100
AcDbLine
 10
36.99999191079807
 20
93.99996236392366
 11
36.99999191079807
 21
68.99996193817619
  0
LINE
  5
153
100
AcDbEntity
  8
0
  6
CONTINUOUS
 62
     7
100
AcDbLine
 10
-36.99999191079807
 20
93.99996236392366
 11
-36.99999191079807
 21
68.99996193817619
  0
LINE
  5
154
100
AcDbEntity
  8
0
  6
CONTINUOUS
 62
     7
100
AcDbLine
 10
-37.0000028099333
 20
68.99996193817619
 11
36.99999191079807
 21
68.99996193817619
  0
LINE
  5
155
100
AcDbEntity
  8
0
  6
CONTINUOUS
 62
     7
100
AcDbLine
 10
-25.00000042574747
 20
68.99995648860858
 11
-25.00000042574747
 21
34.99995699950554
  0
LINE
  5
156
100
AcDbEntity
  8
0
  6
CONTINUOUS
 62
     7
100
AcDbLine
 10
-33.00000928129484
 20
68.99995648860858
 11
-33.00000928129484
 21
34.99995699950554
  0
LINE
  5
157
100
AcDbEntity
  8
0
  6
CONTINUOUS
 62
     7
100
AcDbLine
 10
32.99998748302438
 20
68.99995648860858
 11
32.99998748302438
 21
34.99995699950554
  0
LINE
  5
158
100
AcDbEntity
  8
0
  6
CONTINUOUS
 62
     7
100
AcDbLine
 10
25.00000042574747
 20
68.99995648860858
 11
25.00000042574747
 21
34.99995699950554
  0
LINE
  5
159
100
AcDbEntity
  8
0
  6
CONTINUOUS
 62
     7
100
AcDbLine
 10
65.00000110694342
 20
29.9999787126265
 11
65.00000110694342
 21
-30.00002230916743
  0
LINE
  5
15a
100
AcDbEntity
  8
0
  6
CONTINUOUS
 62
     7
100
AcDbLine
 10
-65.00000110694342
 20
29.9999787126265
 11
-65.00000110694342
 21
-30.00002230916743
  0
LINE
  5
15b
100
AcDbEntity
  8
0
  6
CONTINUOUS
 62
     7
100
AcDbLine
 10
-46.00000187328887
 20
34.999978797776
 11
45.99999642372126
 21
34.999978797776
  0
LINE
  5
15c
100
AcDbEntity
  8
0
  6
CONTINUOUS
 62
     7
100
AcDbLine
 10
45.99999642372126
 20
34.99996244907315
 11
45.99999642372126
 21
29.9999787126265
  0
LINE
  5
15d
100
AcDbEntity
  8
0
  6
CONTINUOUS
 62
     7
100
AcDbLine
 10
-46.00001822199171
 20
34.99996244907315
 11
-46.00001822199171
 21
29.9999787126265
  0
LINE
  5
15e
100
AcDbEntity
  8
0
  6
CONTINUOUS
 62
     7
100
AcDbLine
 10
-65.00000110694342
 20
29.9999787126265
 11
-40.00000068119595
 21
29.9999787126265
  0
LINE
  5
15f
100
AcDbEntity
  8
0
  6
CONTINUOUS
 62
     7
100
AcDbLine
 10
40.00000068119596
 20
29.9999787126265
 11
65.00000110694342
 21
29.9999787126265
  0
LINE
  5
160
100
AcDbEntity
  8
0
  6
CONTINUOUS
 62
     7
100
AcDbLine
 10
-65.00000110694342
 20
-30.00002230916743
 11
65.00000110694342
 21
-30.00002230916743
  0
LINE
  5
161
100
AcDbEntity
  8
0
  6
CONTINUOUS
 62
     7
100
AcDbLine
 10
-33.00001473086245
 20
-35.00002239431692
 11
33.00004197870054
 21
-35.00002239431692
  0
LINE
  5
162
100
AcDbEntity
  8
0
  6
CONTINUOUS
 62
     7
100
AcDbLine
 10
-33.99999335184752
 20
-30.00002230916742
 11
-32.99999409617585
 21
-35.00001828360079
  0
LINE
  5
163
100
AcDbEntity
  8
0
  6
CONTINUOUS
 62
     7
100
AcDbLine
 10
34.00004544145381
 20
-30.00002230916742
 11
33.00004645580338
 21
-35.00001693349469
  0
LINE
  5
164
100
AcDbEntity
  8
0
  6
CONTINUOUS
 62
     7
100
AcDbLine
 10
-65.00000110694342
 20
-18.54102030040571
 11
-40.00000068119595
 21
-18.54102030040571
  0
LINE
  5
165
100
AcDbEntity
  8
0
  6
CONTINUOUS
 62
     7
100
AcDbLine
 10
-65.00000110694342
 20
18.54102030040571
 11
-40.00000068119595
 21
18.54102030040571
  0
LINE
  5
166
100
AcDbEntity
  8
0
  6
CONTINUOUS
 62
     7
100
AcDbLine
 10
40.00000068119596
 20
-18.54102030040571
 11
65.00000110694342
 21
-18.54102030040571
  0
LINE
  5
167
100
AcDbEntity
  8
0
  6
CONTINUOUS
 62
     7
100
AcDbLine
 10
40.00000068119596
 20
18.54102030040571
 11
65.00000110694342
 21
18.54102030040571
  0
LINE
  5
168
100
AcDbEntity
  8
0
  6
DASHED
 62
     7
100
AcDbLine
 10
45.99279286764934
 20
22.20819396067942
 11
65.00000192517436
 21
22.87194029581478
  0
LINE
  5
169
100
AcDbEntity
  8
0
  6
DASHED
 62
     7
100
AcDbLine
 10
46.00002864012725
 20
-22.20848250972296
 11
65.00000508045956
 21
-22.87197627631232
  0
LINE
  5
16a
100
AcDbEntity
  8
0
  6
DASHED
 62
     3
100
AcDbLine
 10
45.49181752781543
 20
23.67060005930115
 11
64.94838560592582
 21
24.35003835647948
  0
LINE
  5
16b
100
AcDbEntity
  8
0
  6
DASHED
 62
     3
100
AcDbLine
 10
45.49180907740299
 20
-23.67065608285395
 11
64.94837715551338
 21
-24.35009438003228
  0
LINE
  5
16c
100
AcDbEntity
  8
0
  6
DASHED
 62
     7
100
AcDbLine
 10
-46.00001216607205
 20
-22.20849636843542
 11
-64.99999949890012
 21
-22.8719905153991
  0
LINE
  5
16d
100
AcDbEntity
  8
0
  6
DASHED
 62
     7
100
AcDbLine
 10
-46.00002066403128
 20
22.20843898332066
 11
-65.00001888935513
 21
22.87193351065865
  0
LINE
  5
16e
100
AcDbEntity
  8
0
  6
DASHED
 62
     3
100
AcDbLine
 10
-45.49182102325695
 20
-23.67063685345292
 11
-64.9483782088716
 21
-24.35007477025694
  0
LINE
  5
16f
100
AcDbEntity
  8
0
  6
DASHED
 62
     3
100
AcDbLine
 10
-45.49181471692673
 20
23.67061303191953
 11
-64.94840185690475
 21
24.35005199475292
  0
LINE
  5
170
100
AcDbEntity
  8
0
  6
CONTINUOUS
 62
     7
100
AcDbLine
 10
-40.00000068119595
 20
34.999978797776
 11
-40.00000068119595
 21
-30.00002230916743
  0
LINE
  5
171
100
AcDbEntity
  8
0
  6
CONTINUOUS
 62
     7
100
AcDbLine
 10
40.00000068119596
 20
34.999978797776
 11
40.00000068119596
 21
-30.00002230916743
  0
LINE
  5
172
100
AcDbEntity
  8
0
  6
CENTER
 62
     3
100
AcDbLine
 10
0
 20
177.9084372164256
 11
0
 21
-60.49767733467779
  0
LINE
  5
173
100
AcDbEntity
  8
0
  6
CONTINUOUS
 62
     7
100
AcDbLine
 10
-26.0000069822585
 20
131.9999499320975
 11
-26.0000069822585
 21
93.99996236392366
  0
LINE
  5
174
100
AcDbEntity
  8
0
  6
CONTINUOUS
 62
     7
100
AcDbLine
 10
-27.00008213525732
 20
98.74993334624269
 11
-26.0000761326438
 21
97.99992882565599
  0
LINE
  5
175
100
AcDbEntity
  8
0
  6
CONTINUOUS
 62
     7
100
AcDbLine
 10
-27.00006803444569
 20
117.2499649396958
 11
-27.00006803444569
 21
98.74993628689111
  0
LINE
  5
176
100
AcDbEntity
  8
0
  6
CONTINUOUS
 62
     7
100
AcDbLine
 10
-26.00013044002847
 20
117.999919948842
 11
-27.00013044811768
 21
117.2499199241487
  0
LINE
  5
177
100
AcDbEntity
  8
0
  6
DASHED
 62
     3
100
AcDbLine
 10
-19.70009317909127
 20
114.5055318315048
 11
-26.97018766633192
 21
114.7594091134029
  0
LINE
  5
178
100
AcDbEntity
  8
0
  6
DASHED
 62
     7
100
AcDbLine
 10
-19.70009317909127
 20
113.6490246869647
 11
-27.00008835524744
 21
113.9039461238792
  0
LINE
  5
179
100
AcDbEntity
  8
0
  6
CENTER
 62
     3
100
AcDbLine
 10
-27.93154627819651
 20
107.9999560628611
 11
-19.70009317909127
 21
107.9999560628611
  0
LINE
  5
17a
100
AcDbEntity
  8
0
  6
DASHED
 62
     3
100
AcDbLine
 10
-19.70009317909127
 20
101.4943963520187
 11
-26.97020260487672
 21
101.2405185484551
  0
LINE
  5
17b
100
AcDbEntity
  8
0
  6
DASHED
 62
     7
100
AcDbLine
 10
-19.70009317909127
 20
102.3509362138951
 11
-27.00006631117998
 21
102.0960155467763
  0
LINE
  5
17c
100
AcDbEntity
  8
0
  6
CONTINUOUS
 62
     7
100
AcDbLine
 10
-18.70009317909127
 20
117.6999466368121
 11
-18.70009317909127
 21
99.29993934801543
  0
LINE
  5
17d
100
AcDbEntity
  8
0
  6
CONTINUOUS
 62
     7
100
AcDbLine
 10
18.69996238946851
 20
117.6999575359474
 11
-18.70008772952365
 21
117.6999575359474
  0
LINE
  5
17e
100
AcDbEntity
  8
0
  6
CONTINUOUS
 62
     7
100
AcDbLine
 10
18.69996238946851
 20
117.6999466368121
 11
18.69996238946851
 21
99.29993934801543
  0
LINE
  5
17f
100
AcDbEntity
  8
0
  6
CONTINUOUS
 62
     7
100
AcDbLine
 10
18.69996238946851
 20
99.29993934801543
 11
-18.70008772952365
 21
99.29993934801543
  0
LINE
  5
180
100
AcDbEntity
  8
0
  6
DASHED
 62
     3
100
AcDbLine
 10
29.00002665179162
 20
121.4999519331106
 11
20.18934011781795
 21
121.4999519331106
  0
LINE
  5
181
100
AcDbEntity
  8
0
  6
DASHED
 62
     3
100
AcDbLine
 10
29.00002665179162
 20
120.2999680433949
 11
20.18934011781795
 21
120.2999680433949
  0
LINE
  5
182
100
AcDbEntity
  8
0
  6
DASHED
 62
     3
100
AcDbLine
 10
29.00002665179162
 20
101.6999398248526
 11
20.18934011781795
 21
101.6999398248526
  0
LINE
  5
183
100
AcDbEntity
  8
0
  6
DASHED
 62
     3
100
AcDbLine
 10
29.00002665179162
 20
100.4999450360016
 11
20.18934011781795
 21
100.4999450360016
  0
LINE
  5
184
100
AcDbEntity
  8
0
  6
CONTINUOUS
 62
     7
100
AcDbLine
 10
-7.000127639091488
 20
105.9999538489743
 11
-7.000127639091488
 21
99.29993934801543
  0
LINE
  5
185
100
AcDbEntity
  8
0
  6
CENTER
 62
     3
100
AcDbLine
 10
6.999980500765886
 20
105.999942949839
 11
-7.000127639091488
 21
105.999942949839
  0
LINE
  5
186
100
AcDbEntity
  8
0
  6
CONTINUOUS
 62
     7
100
AcDbLine
 10
-2.500005492142364
 20
107.4415933650152
 11
-2.500005492142364
 21
104.5583143329333
  0
LINE
  5
187
100
AcDbEntity
  8
0
  6
CONTINUOUS
 62
     7
100
AcDbLine
 10
-2.500064423196498
 20
107.4415555055409
 11
-8.884518771168359e-005
 21
108.8849171043775
  0
LINE
  5
188
100
AcDbEntity
  8
0
  6
CONTINUOUS
 62
     7
100
AcDbLine
 10
-8.837863023813952e-005
 20
108.884936208846
 11
2.499908436966429
 21
107.4415623484821
  0
LINE
  5
189
100
AcDbEntity
  8
0
  6
CONTINUOUS
 62
     7
100
AcDbLine
 10
2.500000042574754
 20
107.4415933650152
 11
2.500000042574754
 21
104.5583143329333
  0
LINE
  5
18a
100
AcDbEntity
  8
0
  6
CONTINUOUS
 62
     7
100
AcDbLine
 10
-0.0001190177383989521
 20
103.1149018567314
 11
2.499960388477788
 21
104.5583234008126
  0
LINE
  5
18b
100
AcDbEntity
  8
0
  6
CONTINUOUS
 62
     7
100
AcDbLine
 10
-2.50010168184329
 20
104.5582902977308
 11
-0.0001048662466232031
 21
103.1149164373669
  0
LINE
  5
18c
100
AcDbEntity
  8
0
  6
CONTINUOUS
 62
     7
100
AcDbLine
 10
6.999980500765886
 20
105.9999538489743
 11
6.999980500765886
 21
99.29993934801543
  0
LINE
  5
18d
100
AcDbEntity
  8
0
  6
CONTINUOUS
 62
     7
100
AcDbLine
 10
25.99997428485283
 20
131.9999499320975
 11
25.99997428485283
 21
93.99996236392366
  0
LINE
  5
18e
100
AcDbEntity
  8
0
  6
CONTINUOUS
 62
     7
100
AcDbLine
 10
28.99999395438593
 20
97.49993626560375
 11
25.99988709177097
 21
97.49993626560375
  0
LINE
  5
18f
100
AcDbEntity
  8
0
  6
CONTINUOUS
 62
     7
100
AcDbLine
 10
29.00002665179162
 20
98.99995154993792
 11
32.00002452305427
 21
98.99995154993792
  0
LINE
  5
190
100
AcDbEntity
  8
0
  6
CONTINUOUS
 62
     7
100
AcDbLine
 10
28.99999395438593
 20
124.4999498043733
 11
28.99999395438593
 21
97.49993626560375
  0
LINE
  5
191
100
AcDbEntity
  8
0
  6
CONTINUOUS
 62
     7
100
AcDbLine
 10
32.00002452305427
 20
122.9999563183096
 11
32.00002452305427
 21
98.99995154993792
  0
LINE
  5
192
100
AcDbEntity
  8
0
  6
CONTINUOUS
 62
     7
100
AcDbLine
 10
46.6590235345538
 20
112.2499430562759
 11
32.00002452305427
 21
112.2499430562759
  0
LINE
  5
193
100
AcDbEntity
  8
0
  6
CONTINUOUS
 62
     7
100
AcDbLine
 10
46.6590235345538
 20
109.7499430137011
 11
32.00002452305427
 21
109.7499430137011
  0
LINE
  5
194
100
AcDbEntity
  8
0
  6
CONTINUOUS
 62
     7
100
AcDbLine
 10
25.99997428485283
 20
124.999936733926
 11
-26.0000069822585
 21
124.999936733926
  0
LINE
  5
195
100
AcDbEntity
  8
0
  6
CENTER
 62
     3
100
AcDbLine
 10
-22.00005160059335
 20
136.8697115924054
 11
-22.00005160059335
 21
131.9999499320975
  0
LINE
  5
196
100
AcDbEntity
  8
0
  6
CONTINUOUS
 62
     7
100
AcDbLine
 10
28.99999395438593
 20
124.4999498043733
 11
25.99988709177097
 21
124.4999498043733
  0
LINE
  5
197
100
AcDbEntity
  8
0
  6
CONTINUOUS
 62
     7
100
AcDbLine
 10
29.00002665179162
 20
122.9999563183096
 11
32.00002452305427
 21
122.9999563183096
  0
LINE
  5
198
100
AcDbEntity
  8
0
  6
CONTINUOUS
 62
     7
100
AcDbLine
 10
46.6590235345538
 20
112.2499539554111
 11
46.6590235345538
 21
109.7499539128364
  0
LINE
  5
199
100
AcDbEntity
  8
0
  6
CONTINUOUS
 62
     7
100
AcDbLine
 10
46.65902177255072
 20
111.6249384379792
 11
51.6590149081258
 21
113.444787017455
  0
LINE
  5
19a
100
AcDbEntity
  8
0
  6
CONTINUOUS
 62
     7
100
AcDbLine
 10
46.65899692477154
 20
110.3749267076584
 11
51.6590003021836
 21
108.555074400459
  0
LINE
  5
19b
100
AcDbEntity
  8
0
  6
CONTINUOUS
 62
     7
100
AcDbLine
 10
25.99995731678341
 20
131.9999467140744
 11
24.99997309471192
 21
175.9999768393376
  0
LINE
  5
19c
100
AcDbEntity
  8
0
  6
CONTINUOUS
 62
     7
100
AcDbLine
 10
25.99997428485283
 20
131.9999499320975
 11
17.49920326062604
 21
131.9999499320975
  0
LINE
  5
19d
100
AcDbEntity
  8
0
  6
CONTINUOUS
 62
     7
100
AcDbLine
 10
16.50050509343181
 20
175.9999768393376
 11
17.49920326062603
 21
131.9999499320975
  0
LINE
  5
19e
100
AcDbEntity
  8
0
  6
CONTINUOUS
 62
     7
100
AcDbLine
 10
-26.0000069822585
 20
131.9999499320975
 11
-17.49937367317666
 21
131.9999499320975
  0
LINE
  5
19f
100
AcDbEntity
  8
0
  6
CONTINUOUS
 62
     7
100
AcDbLine
 10
-25.99997695132269
 20
131.9999601418227
 11
-24.99997393364614
 21
175.9999768393377
  0
LINE
  5
1a0
100
AcDbEntity
  8
0
  6
CONTINUOUS
 62
     7
100
AcDbLine
 10
-25.50002005270584
 20
132.9999455894734
 11
-18.50000685453426
 21
132.9999455894734
  0
LINE
  5
1a1
100
AcDbEntity
  8
0
  6
CONTINUOUS
 62
     7
100
AcDbLine
 10
-25.50002005270584
 20
134.2999508431971
 11
-25.50002005270584
 21
131.9999499320975
  0
LINE
  5
1a2
100
AcDbEntity
  8
0
  6
CONTINUOUS
 62
     7
100
AcDbLine
 10
-18.50000685453426
 20
134.2999508431971
 11
-18.50000685453426
 21
131.9999499320975
  0
LINE
  5
1a3
100
AcDbEntity
  8
0
  6
CONTINUOUS
 62
     7
100
AcDbLine
 10
-16.50067550598243
 20
175.9999768393377
 11
-17.49937367317666
 21
131.9999499320976
  0
LINE
  5
1a4
100
AcDbEntity
  8
0
  6
CONTINUOUS
 62
     7
100
AcDbLine
 10
-24.99997393364614
 20
175.9999768393377
 11
24.99997309471192
 21
175.9999768393377
  0
LINE
  5
1a5
100
AcDbEntity
  8
0
  6
CONTINUOUS
 62
     7
100
AcDbLine
 10
51.69545942877804
 20
110.9999430349885
 11
46.6590235345538
 21
110.9999430349885
  0
LINE
  5
1a6
100
AcDbEntity
  8
0
  6
CONTINUOUS
 62
     7
100
AcDbLine
 10
-36.99999191079807
 20
81.99995997973782
 11
-18.99998288495171
 21
81.99995997973782
  0
LINE
  5
1a7
100
AcDbEntity
  8
0
  6
CONTINUOUS
 62
     7
100
AcDbLine
 10
-18.99998288495171
 20
93.99996236392366
 11
-18.99998288495171
 21
81.99995997973782
  0
LINE
  5
1a8
100
AcDbEntity
  8
0
  6
CONTINUOUS
 62
     7
100
AcDbLine
 10
-22.50001128230795
 20
83.99999489103035
 11
-35.50000932386959
 21
83.99999489103035
  0
LINE
  5
1a9
100
AcDbEntity
  8
0
  6
CONTINUOUS
 62
     7
100
AcDbLine
 10
-22.50001128230795
 20
91.99996015003681
 11
-22.50001128230795
 21
81.99995997973782
  0
LINE
  5
1aa
100
AcDbEntity
  8
0
  6
CENTER
 62
     3
100
AcDbLine
 10
-28.9999830552507
 20
93.46515269731032
 11
-28.9999830552507
 21
34.999978797776
  0
LINE
  5
1ab
100
AcDbEntity
  8
0
  6
CONTINUOUS
 62
     7
100
AcDbLine
 10
-22.50001128230795
 20
91.99996015003681
 11
-35.50000932386959
 21
91.99996015003681
  0
LINE
  5
1ac
100
AcDbEntity
  8
0
  6
CONTINUOUS
 62
     7
100
AcDbLine
 10
-35.50000932386959
 20
91.99996015003681
 11
-35.50000932386959
 21
81.99995997973782
  0
LINE
  5
1ad
100
AcDbEntity
  8
0
  6
CONTINUOUS
 62
     7
100
AcDbLine
 10
0.2999986316660852
 20
3.599989305223555
 11
0.2999986316660852
 21
1.799989203044162
  0
LINE
  5
1ae
100
AcDbEntity
  8
0
  6
CONTINUOUS
 62
     7
100
AcDbLine
 10
-8.700001879230868
 20
-1.089913523055763e-005
 11
7.499999040383671
 21
-1.089913523055763e-005
  0
LINE
  5
1af
100
AcDbEntity
  8
0
  6
CONTINUOUS
 62
     7
100
AcDbLine
 10
-10.50000198141026
 20
1.799989203044162
 11
0.2999986316660852
 21
1.799989203044162
  0
LINE
  5
1b0
100
AcDbEntity
  8
0
  6
CONTINUOUS
 62
     7
100
AcDbLine
 10
0.2999993775072016
 20
3.599989412111194
 11
7.499998976409159
 21
-1.038733978475648e-005
  0
LINE
  5
1b1
100
AcDbEntity
  8
0
  6
CONTINUOUS
 62
     7
100
AcDbLine
 10
-10.50000245084056
 20
1.79998952627202
 11
-8.700002025433301
 21
-1.089913523344421e-005
  0
LINE
  5
1b2
100
AcDbEntity
  8
0
  6
CONTINUOUS
 62
     7
100
AcDbLine
 10
18.50000685453426
 20
134.2999508431971
 11
18.50000685453426
 21
131.9999499320975
  0
LINE
  5
1b3
100
AcDbEntity
  8
0
  6
CONTINUOUS
 62
     7
100
AcDbLine
 10
25.50002005270584
 20
134.2999508431971
 11
25.50002005270584
 21
131.9999499320975
  0
LINE
  5
1b4
100
AcDbEntity
  8
0
  6
CONTINUOUS
 62
     7
100
AcDbLine
 10
25.50002005270584
 20
132.9999455894734
 11
18.50000685453426
 21
132.9999455894734
  0
LINE
  5
1b5
100
AcDbEntity
  8
0
  6
CENTER
 62
     3
100
AcDbLine
 10
22.00005160059335
 20
136.8697115924054
 11
22.00005160059335
 21
131.9999499320975
  0
LINE
  5
1b6
100
AcDbEntity
  8
0
  6
CONTINUOUS
 62
     7
100
AcDbLine
 10
35.50000932386959
 20
91.99996015003681
 11
35.50000932386959
 21
81.99995997973782
  0
LINE
  5
1b7
100
AcDbEntity
  8
0
  6
CONTINUOUS
 62
     7
100
AcDbLine
 10
22.50001128230795
 20
91.99996015003681
 11
35.50000932386959
 21
91.99996015003681
  0
LINE
  5
1b8
100
AcDbEntity
  8
0
  6
CENTER
 62
     3
100
AcDbLine
 10
28.9999830552507
 20
93.46515269731032
 11
28.9999830552507
 21
34.999978797776
  0
LINE
  5
1b9
100
AcDbEntity
  8
0
  6
CONTINUOUS
 62
     7
100
AcDbLine
 10
22.50001128230795
 20
91.99996015003681
 11
22.50001128230795
 21
81.99995997973782
  0
LINE
  5
1ba
100
AcDbEntity
  8
0
  6
CONTINUOUS
 62
     7
100
AcDbLine
 10
22.50001128230795
 20
83.99999489103035
 11
35.50000932386959
 21
83.99999489103035
  0
LINE
  5
1bb
100
AcDbEntity
  8
0
  6
CONTINUOUS
 62
     7
100
AcDbLine
 10
18.99998288495171
 20
93.99996236392366
 11
18.99998288495171
 21
81.99995997973782
  0
LINE
  5
1bc
100
AcDbEntity
  8
0
  6
CONTINUOUS
 62
     7
100
AcDbLine
 10
36.99999191079807
 20
81.99995997973782
 11
18.99998288495171
 21
81.99995997973782
  0
ARC
  5
1bd
100
AcDbEntity
  8
0
  6
CONTINUOUS
 62
     7
100
AcDbCircle
 10
-5.449567609616679e-006
 20
105.999942949839
 40
7.000005705016097
100
AcDbArc
 50
0
 51
180.0000186693355
  0
CIRCLE
  5
1be
100
AcDbEntity
  8
0
  6
CONTINUOUS
 62
     7
100
AcDbCircle
 10
-5.449567609616679e-006
 20
105.999942949839
 40
5.00000383172723
  0
CIRCLE
  5
1bf
100
AcDbEntity
  8
0
  6
CONTINUOUS
 62
     3
100
AcDbCircle
 10
-5.449567609616679e-006
 20
105.999942949839
 40
4.250003342117639
  0
ARC
  5
1c0
100
AcDbEntity
  8
0
  6
CONTINUOUS
 62
     7
100
AcDbCircle
 10
-22.00001345362005
 20
130.2384162831518
 40
5.361539813904876
100
AcDbArc
 50
49.24704893344445
 51
130.7529510665555
  0
ARC
  5
1c1
100
AcDbEntity
  8
0
  6
CONTINUOUS
 62
     7
100
AcDbCircle
 10
22.00001345362005
 20
130.2384162831518
 40
5.361539813904876
100
AcDbArc
 50
49.24704893344448
 51
130.7529510665556
  0
MTEXT
  5
1c2
100
AcDbEntity
  8
0
  6
CONTINUOUS
 62
     7
100
AcDbMText
 10
-12.71015423662536
 20
165.6522775183168
 40
0.5
 41
36
 71
     7
 72
     1
  1
{\W0.8426;ＢＮ－５ＢＰ２１－４０－Ｅ／Ｆ＊＊＊}
  0
INSERT
  5
1c3
100
AcDbEntity
  8
0
  6
CONTINUOUS
 62
     7
100
AcDbBlockReference
  2
KOZU0007
 10
0
 20
0
  0
ENDBLK
  8
0
  5
1c4
100
AcDbEntity
100
AcDbBlockEnd
  0
BLOCK
  8
0
  5
1c5
100
AcDbEntity
100
AcDbBlockBegin
  2
KOZU0002
 70
    64
 10
0
 20
0
  0
POINT
  5
1c6
100
AcDbEntity
  8
0
  6
CONTINUOUS
 62
     7
100
AcDbPoint
 10
0
 20
0
  0
LINE
  5
1c7
100
AcDbEntity
  8
0
  6
CENTER
 62
     3
100
AcDbLine
 10
0
 20
45.78098920040452
 11
0
 21
-46.4319945477076
  0
LINE
  5
1c8
100
AcDbEntity
  8
0
  6
CONTINUOUS
 62
     7
100
AcDbLine
 10
-65.00000655651104
 20
29.9999787126265
 11
-65.00000655651104
 21
-30.00002230916743
  0
LINE
  5
1c9
100
AcDbEntity
  8
0
  6
CONTINUOUS
 62
     7
100
AcDbLine
 10
65.00000110694342
 20
29.9999787126265
 11
65.00000110694342
 21
-30.00002230916743
  0
LINE
  5
1ca
100
AcDbEntity
  8
0
  6
CONTINUOUS
 62
     7
100
AcDbLine
 10
-65.00000655651104
 20
29.9999787126265
 11
-40.00000068119595
 21
29.9999787126265
  0
LINE
  5
1cb
100
AcDbEntity
  8
0
  6
CONTINUOUS
 62
     7
100
AcDbLine
 10
-65.00000655651104
 20
-30.00002230916743
 11
-40.00000068119595
 21
-30.00002230916743
  0
LINE
  5
1cc
100
AcDbEntity
  8
0
  6
CONTINUOUS
 62
     7
100
AcDbLine
 10
40.00000068119596
 20
29.9999787126265
 11
65.00000110694342
 21
29.9999787126265
  0
LINE
  5
1cd
100
AcDbEntity
  8
0
  6
CONTINUOUS
 62
     7
100
AcDbLine
 10
40.00000068119596
 20
-30.00002230916743
 11
65.00000110694342
 21
-30.00002230916743
  0
LINE
  5
1ce
100
AcDbEntity
  8
0
  6
CENTER
 62
     3
100
AcDbLine
 10
-71.92538792619344
 20
0
 11
71.44045270239374
 21
0
  0
LINE
  5
1cf
100
AcDbEntity
  8
0
  6
CONTINUOUS
 62
     7
100
AcDbLine
 10
-29.00000485352116
 20
36.99999191079809
 11
29.00000485352116
 21
36.99999191079809
  0
LINE
  5
1d0
100
AcDbEntity
  8
0
  6
CONTINUOUS
 62
     7
100
AcDbLine
 10
-37.0000028099333
 20
28.99998305525071
 11
-37.0000028099333
 21
-28.99998305525071
  0
LINE
  5
1d1
100
AcDbEntity
  8
0
  6
CONTINUOUS
 62
     7
100
AcDbLine
 10
37.00000280993331
 20
28.99998305525071
 11
37.00000280993331
 21
4.749973922967456
  0
LINE
  5
1d2
100
AcDbEntity
  8
0
  6
CONTINUOUS
 62
     7
100
AcDbLine
 10
-29.00000485352116
 20
-36.99999191079809
 11
29.00000485352116
 21
-36.99999191079809
  0
LINE
  5
1d3
100
AcDbEntity
  8
0
  6
CENTER
 62
     3
100
AcDbLine
 10
-28.99999940395354
 20
-22.50000515154441
 11
-28.99999940395354
 21
-35.50000455549795
  0
LINE
  5
1d4
100
AcDbEntity
  8
0
  6
CENTER
 62
     3
100
AcDbLine
 10
-35.49999910593031
 20
-29.00000485352118
 11
-22.49999970197677
 21
-29.00000485352118
  0
LINE
  5
1d5
100
AcDbEntity
  8
0
  6
CONTINUOUS
 62
     7
100
AcDbLine
 10
-32.50000882587476
 20
-28.9999927389688
 11
-30.74999949348427
 21
-25.96888900857628
  0
LINE
  5
1d6
100
AcDbEntity
  8
0
  6
CONTINUOUS
 62
     7
100
AcDbLine
 10
-30.74999725392882
 20
-25.96891174944659
 11
-27.25000155397827
 21
-25.96891174944659
  0
LINE
  5
1d7
100
AcDbEntity
  8
0
  6
CONTINUOUS
 62
     7
100
AcDbLine
 10
-27.24996531083219
 20
-25.96888963175762
 11
-25.49996687758056
 21
-28.99997448429625
  0
LINE
  5
1d8
100
AcDbEntity
  8
0
  6
CONTINUOUS
 62
     7
100
AcDbLine
 10
-25.49999899770888
 20
-29.0000047255564
 11
-27.25000833009937
 21
-32.03110845594892
  0
LINE
  5
1d9
100
AcDbEntity
  8
0
  6
CONTINUOUS
 62
     7
100
AcDbLine
 10
-27.25000155397827
 20
-32.03109795759573
 11
-30.74999725392882
 21
-32.03109795759573
  0
LINE
  5
1da
100
AcDbEntity
  8
0
  6
CONTINUOUS
 62
     7
100
AcDbLine
 10
-30.74997608217692
 20
-32.03110781455741
 11
-32.49997451542855
 21
-29.00002296201878
  0
LINE
  5
1db
100
AcDbEntity
  8
0
  6
CENTER
 62
     3
100
AcDbLine
 10
-28.99999940395354
 20
35.50000455549792
 11
-28.99999940395354
 21
22.50000515154438
  0
LINE
  5
1dc
100
AcDbEntity
  8
0
  6
CENTER
 62
     3
100
AcDbLine
 10
-35.49999910593031
 20
29.00000485352115
 11
-22.49999970197677
 21
29.00000485352115
  0
LINE
  5
1dd
100
AcDbEntity
  8
0
  6
CONTINUOUS
 62
     7
100
AcDbLine
 10
-32.50000295555036
 20
29.00000780430353
 11
-30.74999362315985
 21
32.03111153469607
  0
LINE
  5
1de
100
AcDbEntity
  8
0
  6
CONTINUOUS
 62
     7
100
AcDbLine
 10
-30.74999725392882
 20
32.03109795759571
 11
-27.25000155397827
 21
32.03109795759571
  0
LINE
  5
1df
100
AcDbEntity
  8
0
  6
CONTINUOUS
 62
     7
100
AcDbLine
 10
-27.24999005901049
 20
32.03110001237593
 11
-25.49999162575886
 21
29.0000151598373
  0
LINE
  5
1e0
100
AcDbEntity
  8
0
  6
CONTINUOUS
 62
     7
100
AcDbLine
 10
-25.49999166717248
 20
29.00002014513934
 11
-27.25000099956299
 21
25.9689164147468
  0
LINE
  5
1e1
100
AcDbEntity
  8
0
  6
CONTINUOUS
 62
     7
100
AcDbLine
 10
-27.25000155397827
 20
25.96891174944659
 11
-30.74999725392882
 21
25.96891174944659
  0
LINE
  5
1e2
100
AcDbEntity
  8
0
  6
CONTINUOUS
 62
     7
100
AcDbLine
 10
-30.74999830120967
 20
25.96892104549587
 11
-32.49999673446131
 21
29.0000058980345
  0
LINE
  5
1e3
100
AcDbEntity
  8
0
  6
CENTER
 62
     3
100
AcDbLine
 10
29.00000485352116
 20
35.50000455549792
 11
29.00000485352116
 21
22.50000515154438
  0
LINE
  5
1e4
100
AcDbEntity
  8
0
  6
CENTER
 62
     3
100
AcDbLine
 10
22.50000515154439
 20
29.00000485352115
 11
35.50000455549793
 21
29.00000485352115
  0
LINE
  5
1e5
100
AcDbEntity
  8
0
  6
CONTINUOUS
 62
     7
100
AcDbLine
 10
25.49999050852681
 20
29.0000060211562
 11
27.24999984091732
 21
32.03110975154874
  0
LINE
  5
1e6
100
AcDbEntity
  8
0
  6
CONTINUOUS
 62
     7
100
AcDbLine
 10
27.25000700354589
 20
32.03109795759571
 11
30.75000270349644
 21
32.03109795759571
  0
LINE
  5
1e7
100
AcDbEntity
  8
0
  6
CONTINUOUS
 62
     7
100
AcDbLine
 10
30.75003481168518
 20
32.03110734291226
 11
32.5000332449368
 21
29.00002249037363
  0
LINE
  5
1e8
100
AcDbEntity
  8
0
  6
CONTINUOUS
 62
     7
100
AcDbLine
 10
32.50001359556332
 20
29.00001155003018
 11
30.75000426317281
 21
25.96890781963764
  0
LINE
  5
1e9
100
AcDbEntity
  8
0
  6
CONTINUOUS
 62
     7
100
AcDbLine
 10
30.75000270349644
 20
25.96891174944659
 11
27.25000700354589
 21
25.96891174944659
  0
LINE
  5
1ea
100
AcDbEntity
  8
0
  6
CONTINUOUS
 62
     7
100
AcDbLine
 10
27.25001314120154
 20
25.96890803796631
 11
25.50001470794991
 21
28.99999289050494
  0
LINE
  5
1eb
100
AcDbEntity
  8
0
  6
CENTER
 62
     3
100
AcDbLine
 10
29.00000485352116
 20
-22.50000515154441
 11
29.00000485352116
 21
-35.50000455549795
  0
LINE
  5
1ec
100
AcDbEntity
  8
0
  6
CENTER
 62
     3
100
AcDbLine
 10
22.50000515154439
 20
-29.00000485352118
 11
35.50000455549793
 21
-29.00000485352118
  0
LINE
  5
1ed
100
AcDbEntity
  8
0
  6
CONTINUOUS
 62
     7
100
AcDbLine
 10
25.49999997645866
 20
-29.00000337766651
 11
27.25000930884916
 21
-25.96889964727399
  0
LINE
  5
1ee
100
AcDbEntity
  8
0
  6
CONTINUOUS
 62
     7
100
AcDbLine
 10
27.25000700354589
 20
-25.96891174944659
 11
30.75000270349644
 21
-25.96891174944659
  0
LINE
  5
1ef
100
AcDbEntity
  8
0
  6
CONTINUOUS
 62
     7
100
AcDbLine
 10
30.75004613157908
 20
-25.96890263928708
 11
32.50004456483072
 21
-28.99998749182571
  0
LINE
  5
1f0
100
AcDbEntity
  8
0
  6
CONTINUOUS
 62
     7
100
AcDbLine
 10
32.5000043477449
 20
-29.00001221372174
 11
30.7499950153544
 21
-32.03111594411426
  0
LINE
  5
1f1
100
AcDbEntity
  8
0
  6
CONTINUOUS
 62
     7
100
AcDbLine
 10
30.75000270349644
 20
-32.03109795759573
 11
27.25000700354589
 21
-32.03109795759573
  0
LINE
  5
1f2
100
AcDbEntity
  8
0
  6
CONTINUOUS
 62
     7
100
AcDbLine
 10
27.25002991066487
 20
-32.03111138315999
 11
25.50003147741324
 21
-29.00002653062134
  0
LINE
  5
1f3
100
AcDbEntity
  8
0
  6
CONTINUOUS
 62
     7
100
AcDbLine
 10
-37.0000028099333
 20
-19.00000468322219
 11
-28.99999940395354
 21
-19.00000468322219
  0
LINE
  5
1f4
100
AcDbEntity
  8
0
  6
CONTINUOUS
 62
     7
100
AcDbLine
 10
-18.99999923365455
 20
36.99999191079809
 11
-18.99999923365455
 21
29.00000485352115
  0
LINE
  5
1f5
100
AcDbEntity
  8
0
  6
CONTINUOUS
 62
     7
100
AcDbLine
 10
19.00000468322217
 20
36.99999191079809
 11
19.00000468322217
 21
29.00000485352115
  0
LINE
  5
1f6
100
AcDbEntity
  8
0
  6
CONTINUOUS
 62
     7
100
AcDbLine
 10
-37.0000028099333
 20
19.00000468322219
 11
-28.99999940395354
 21
19.00000468322219
  0
LINE
  5
1f7
100
AcDbEntity
  8
0
  6
CONTINUOUS
 62
     7
100
AcDbLine
 10
29.00000485352116
 20
19.00000468322219
 11
37.00000280993331
 21
19.00000468322219
  0
LINE
  5
1f8
100
AcDbEntity
  8
0
  6
CONTINUOUS
 62
     7
100
AcDbLine
 10
-18.99999923365455
 20
-29.00000485352118
 11
-18.99999923365455
 21
-36.99999191079809
  0
LINE
  5
1f9
100
AcDbEntity
  8
0
  6
CONTINUOUS
 62
     7
100
AcDbLine
 10
19.00000468322217
 20
-29.00000485352118
 11
19.00000468322217
 21
-36.99999191079809
  0
LINE
  5
1fa
100
AcDbEntity
  8
0
  6
CONTINUOUS
 62
     7
100
AcDbLine
 10
29.00000485352116
 20
-19.00000468322219
 11
37.00000280993331
 21
-19.00000468322219
  0
LINE
  5
1fb
100
AcDbEntity
  8
0
  6
CONTINUOUS
 62
     7
100
AcDbLine
 10
-40.00000068119595
 20
31.99999182564858
 11
-40.00000068119595
 21
7.745971811600612
  0
LINE
  5
1fc
100
AcDbEntity
  8
0
  6
CONTINUOUS
 62
     7
100
AcDbLine
 10
-32.00000272478381
 20
-40.00000068119596
 11
32.00000272478381
 21
-40.00000068119596
  0
LINE
  5
1fd
100
AcDbEntity
  8
0
  6
CONTINUOUS
 62
     7
100
AcDbLine
 10
-32.00000272478381
 20
40.00000068119596
 11
32.00000272478381
 21
40.00000068119596
  0
LINE
  5
1fe
100
AcDbEntity
  8
0
  6
CONTINUOUS
 62
     7
100
AcDbLine
 10
-26.0000069822585
 20
-21.0000395945147
 11
-26.0000069822585
 21
20.99997419970333
  0
LINE
  5
1ff
100
AcDbEntity
  8
0
  6
CONTINUOUS
 62
     7
100
AcDbLine
 10
25.99996338571759
 20
20.99997419970333
 11
-26.0000069822585
 21
20.99997419970333
  0
LINE
  5
200
100
AcDbEntity
  8
0
  6
CONTINUOUS
 62
     3
100
AcDbLine
 10
-23.44955628461545
 20
17.44953019515416
 11
-20.55044624094475
 21
14.55042064023683
  0
LINE
  5
201
100
AcDbEntity
  8
0
  6
CONTINUOUS
 62
     3
100
AcDbLine
 10
-20.55038483050401
 20
17.44955356009331
 11
-23.44953291968022
 21
14.55040498215723
  0
LINE
  5
202
100
AcDbEntity
  8
0
  6
CONTINUOUS
 62
     7
100
AcDbLine
 10
-17.50000574759085
 20
20.99997419970333
 11
-17.50000574759085
 21
11.50000455549792
  0
LINE
  5
203
100
AcDbEntity
  8
0
  6
CONTINUOUS
 62
     7
100
AcDbLine
 10
-17.50000574759085
 20
11.50000455549792
 11
-26.0000069822585
 21
11.50000455549792
  0
LINE
  5
204
100
AcDbEntity
  8
0
  6
CONTINUOUS
 62
     7
100
AcDbLine
 10
-26.0000069822585
 20
9.20000364439835
 11
25.99996338571759
 21
9.20000364439835
  0
LINE
  5
205
100
AcDbEntity
  8
0
  6
CONTINUOUS
 62
     7
100
AcDbLine
 10
-26.00003539751881
 20
9.999994404202855
 11
-26.99999883864027
 21
9.250018284459353
  0
LINE
  5
206
100
AcDbEntity
  8
0
  6
CONTINUOUS
 62
     7
100
AcDbLine
 10
-27.00001353876954
 20
9.250008876834755
 11
-27.00001353876954
 21
-9.250030675105222
  0
LINE
  5
207
100
AcDbEntity
  8
0
  6
CONTINUOUS
 62
     7
100
AcDbLine
 10
-26.0000069822585
 20
6.799992268425939
 11
25.99996338571759
 21
6.799992268425939
  0
LINE
  5
208
100
AcDbEntity
  8
0
  6
CONTINUOUS
 62
     7
100
AcDbLine
 10
-5.000005534717104
 20
26.75000917485795
 11
-5.000005534717104
 21
25.74999171921172
  0
LINE
  5
209
100
AcDbEntity
  8
0
  6
CONTINUOUS
 62
     7
100
AcDbLine
 10
-5.000005534717104
 20
26.75000917485795
 11
5.000000085149495
 21
26.75000917485795
  0
LINE
  5
20a
100
AcDbEntity
  8
0
  6
CONTINUOUS
 62
     7
100
AcDbLine
 10
-5.000005534717104
 20
25.74999171921172
 11
4.999989186014261
 21
25.74999171921172
  0
LINE
  5
20b
100
AcDbEntity
  8
0
  6
PHANTOM
 62
     3
100
AcDbLine
 10
-4.499975008623508
 20
25.74999171921172
 11
-4.499975008623508
 21
20.99997419970333
  0
LINE
  5
20c
100
AcDbEntity
  8
0
  6
CENTER
 62
     3
100
AcDbLine
 10
-4.25001969082048
 20
25.74999171921172
 11
-4.25001969082048
 21
20.99997419970333
  0
LINE
  5
20d
100
AcDbEntity
  8
0
  6
PHANTOM
 62
     3
100
AcDbLine
 10
-4.000020776476532
 20
25.74999171921172
 11
-4.000020776476532
 21
20.99997419970333
  0
LINE
  5
20e
100
AcDbEntity
  8
0
  6
CONTINUOUS
 62
     7
100
AcDbLine
 10
-3.849950583491165
 20
25.74999171921172
 11
-3.849950583491165
 21
23.74997860618964
  0
LINE
  5
20f
100
AcDbEntity
  8
0
  6
CONTINUOUS
 62
     7
100
AcDbLine
 10
-3.849966932194008
 20
23.75000040446008
 11
3.849988730464474
 21
23.75000040446008
  0
LINE
  5
210
100
AcDbEntity
  8
0
  6
CONTINUOUS
 62
     7
100
AcDbLine
 10
-3.84988936377002
 20
23.74996168636888
 11
-3.399879879544286
 21
22.7499679459376
  0
LINE
  5
211
100
AcDbEntity
  8
0
  6
CONTINUOUS
 62
     7
100
AcDbLine
 10
-3.399892592428287
 20
22.75000474708429
 11
3.400017932483436
 21
22.75000474708429
  0
LINE
  5
212
100
AcDbEntity
  8
0
  6
CONTINUOUS
 62
     7
100
AcDbLine
 10
-3.39990894113113
 20
22.75000474708429
 11
-3.39990894113113
 21
20.99997419970333
  0
LINE
  5
213
100
AcDbEntity
  8
0
  6
CONTINUOUS
 62
     7
100
AcDbLine
 10
3.400017932483436
 20
22.75000474708429
 11
3.400017932483436
 21
20.99997419970333
  0
LINE
  5
214
100
AcDbEntity
  8
0
  6
CONTINUOUS
 62
     7
100
AcDbLine
 10
3.850000332061702
 20
23.75001982976853
 11
3.399991008181432
 21
22.75002601717983
  0
LINE
  5
215
100
AcDbEntity
  8
0
  6
PHANTOM
 62
     3
100
AcDbLine
 10
3.999993528638456
 20
25.5000091535706
 11
3.999993528638456
 21
20.99997419970333
  0
LINE
  5
216
100
AcDbEntity
  8
0
  6
CENTER
 62
     3
100
AcDbLine
 10
4.250030589955713
 20
25.74999171921172
 11
4.250030589955713
 21
20.99997419970333
  0
LINE
  5
217
100
AcDbEntity
  8
0
  6
PHANTOM
 62
     3
100
AcDbLine
 10
4.499980458191132
 20
25.5000091535706
 11
4.499980458191132
 21
20.99997419970333
  0
LINE
  5
218
100
AcDbEntity
  8
0
  6
CONTINUOUS
 62
     7
100
AcDbLine
 10
5.000000085149495
 20
26.75000917485795
 11
5.000000085149495
 21
25.74999171921172
  0
LINE
  5
219
100
AcDbEntity
  8
0
  6
CONTINUOUS
 62
     7
100
AcDbLine
 10
3.85009772181678
 20
25.74999171921172
 11
3.85009772181678
 21
23.74997860618964
  0
LINE
  5
21a
100
AcDbEntity
  8
0
  6
CONTINUOUS
 62
     7
100
AcDbLine
 10
-26.0000069822585
 20
5.2000210148951
 11
25.99996338571759
 21
5.2000210148951
  0
LINE
  5
21b
100
AcDbEntity
  8
0
  6
CONTINUOUS
 62
     7
100
AcDbLine
 10
-26.0000069822585
 20
2.79998784065225
 11
25.99996338571759
 21
2.79998784065225
  0
LINE
  5
21c
100
AcDbEntity
  8
0
  6
CONTINUOUS
 62
     7
100
AcDbLine
 10
-26.0000069822585
 20
-1.200038385391906
 11
25.99996338571759
 21
-1.200038385391906
  0
LINE
  5
21d
100
AcDbEntity
  8
0
  6
CONTINUOUS
 62
     7
100
AcDbLine
 10
-26.0000069822585
 20
1.199972990580505
 11
25.99996338571759
 21
1.199972990580505
  0
LINE
  5
21e
100
AcDbEntity
  8
0
  6
CONTINUOUS
 62
     7
100
AcDbLine
 10
-26.0000069822585
 20
-2.800009638922717
 11
25.99996338571759
 21
-2.800009638922717
  0
LINE
  5
21f
100
AcDbEntity
  8
0
  6
CONTINUOUS
 62
     7
100
AcDbLine
 10
-26.00001170874767
 20
-9.999993243186186
 11
-27.0000091955547
 21
-9.249989856795116
  0
LINE
  5
220
100
AcDbEntity
  8
0
  6
CONTINUOUS
 62
     7
100
AcDbLine
 10
-26.0000069822585
 20
-5.200021014895128
 11
25.99996338571759
 21
-5.200021014895128
  0
LINE
  5
221
100
AcDbEntity
  8
0
  6
CONTINUOUS
 62
     7
100
AcDbLine
 10
-26.0000069822585
 20
-6.800014066696406
 11
25.99996338571759
 21
-6.800014066696406
  0
LINE
  5
222
100
AcDbEntity
  8
0
  6
CONTINUOUS
 62
     7
100
AcDbLine
 10
-26.0000069822585
 20
-9.20000364439835
 11
25.99996338571759
 21
-9.20000364439835
  0
LINE
  5
223
100
AcDbEntity
  8
0
  6
CONTINUOUS
 62
     7
100
AcDbLine
 10
-17.50000574759085
 20
-11.50002635376839
 11
-26.00001243182612
 21
-11.50002635376839
  0
LINE
  5
224
100
AcDbEntity
  8
0
  6
CONTINUOUS
 62
     7
100
AcDbLine
 10
-17.50000574759085
 20
-21.0000395945147
 11
-17.50000574759085
 21
-11.50002635376839
  0
LINE
  5
225
100
AcDbEntity
  8
0
  6
CONTINUOUS
 62
     3
100
AcDbLine
 10
-23.44956129406566
 20
-14.55051565791839
 11
-20.55045125039496
 21
-17.44962521283571
  0
LINE
  5
226
100
AcDbEntity
  8
0
  6
CONTINUOUS
 62
     3
100
AcDbLine
 10
-20.55040525366034
 20
-14.55047687927567
 11
-23.44952251542944
 21
-17.44959462979944
  0
LINE
  5
227
100
AcDbEntity
  8
0
  6
CONTINUOUS
 62
     7
100
AcDbLine
 10
25.99996338571759
 20
-21.0000395945147
 11
-26.0000069822585
 21
-21.0000395945147
  0
LINE
  5
228
100
AcDbEntity
  8
0
  6
CONTINUOUS
 62
     7
100
AcDbLine
 10
25.99996338571759
 20
20.99997419970333
 11
25.99996338571759
 21
-21.0000395945147
  0
LINE
  5
229
100
AcDbEntity
  8
0
  6
CONTINUOUS
 62
     3
100
AcDbLine
 10
23.44967609809036
 20
-14.55050014432957
 11
20.55054342261768
 21
-17.44963330855952
  0
LINE
  5
22a
100
AcDbEntity
  8
0
  6
CONTINUOUS
 62
     3
100
AcDbLine
 10
20.55051235082675
 20
-14.55046956130108
 11
23.44962239449745
 21
-17.4495791162184
  0
LINE
  5
22b
100
AcDbEntity
  8
0
  6
CONTINUOUS
 62
     7
100
AcDbLine
 10
17.50000029802324
 20
-11.50002635376839
 11
25.99996338571759
 21
-11.50002635376839
  0
LINE
  5
22c
100
AcDbEntity
  8
0
  6
CONTINUOUS
 62
     7
100
AcDbLine
 10
17.50000029802324
 20
-20.90002912964189
 11
17.50000029802324
 21
-11.50002635376839
  0
LINE
  5
22d
100
AcDbEntity
  8
0
  6
CONTINUOUS
 62
     7
100
AcDbLine
 10
28.99992855957454
 20
-13.50003946679047
 11
25.99996338571759
 21
-13.50003946679047
  0
LINE
  5
22e
100
AcDbEntity
  8
0
  6
CONTINUOUS
 62
     7
100
AcDbLine
 10
28.99992855957454
 20
-13.50003946679047
 11
28.99992855957454
 21
13.49997407197907
  0
LINE
  5
22f
100
AcDbEntity
  8
0
  6
CONTINUOUS
 62
     7
100
AcDbLine
 10
32.0000354221895
 20
-11.9999914850506
 11
28.99992855957454
 21
-11.9999914850506
  0
LINE
  5
230
100
AcDbEntity
  8
0
  6
CONTINUOUS
 62
     7
100
AcDbLine
 10
32.0000354221895
 20
-11.9999914850506
 11
32.0000354221895
 21
11.9999914850506
  0
LINE
  5
231
100
AcDbEntity
  8
0
  6
CONTINUOUS
 62
     7
100
AcDbLine
 10
46.6590235345538
 20
-4.750039317778857
 11
32.00002452305427
 21
-4.750039317778857
  0
LINE
  5
232
100
AcDbEntity
  8
0
  6
CONTINUOUS
 62
     7
100
AcDbLine
 10
46.6590235345538
 20
-2.250039275204102
 11
32.00002452305427
 21
-2.250039275204102
  0
LINE
  5
233
100
AcDbEntity
  8
0
  6
CONTINUOUS
 62
     7
100
AcDbLine
 10
46.6590235345538
 20
2.249973880392702
 11
32.00002452305427
 21
2.249973880392702
  0
LINE
  5
234
100
AcDbEntity
  8
0
  6
CONTINUOUS
 62
     7
100
AcDbLine
 10
46.6590235345538
 20
4.749973922967456
 11
32.00002452305427
 21
4.749973922967456
  0
LINE
  5
235
100
AcDbEntity
  8
0
  6
CONTINUOUS
 62
     7
100
AcDbLine
 10
46.6590235345538
 20
-2.250039275204102
 11
46.6590235345538
 21
-4.750039317778857
  0
LINE
  5
236
100
AcDbEntity
  8
0
  6
CONTINUOUS
 62
     7
100
AcDbLine
 10
46.65906203729166
 20
-2.874989182933865
 11
51.65904493102971
 21
-1.055144331181687
  0
LINE
  5
237
100
AcDbEntity
  8
0
  6
CONTINUOUS
 62
     7
100
AcDbLine
 10
46.65902835288964
 20
-4.125027007320149
 11
51.6590266093832
 21
-5.944877450657764
  0
LINE
  5
238
100
AcDbEntity
  8
0
  6
CONTINUOUS
 62
     7
100
AcDbLine
 10
46.6590235345538
 20
4.749973922967456
 11
46.6590235345538
 21
2.249973880392702
  0
LINE
  5
239
100
AcDbEntity
  8
0
  6
CONTINUOUS
 62
     7
100
AcDbLine
 10
46.65902635070785
 20
2.874971283560726
 11
51.6590246072014
 21
1.055120840223111
  0
LINE
  5
23a
100
AcDbEntity
  8
0
  6
CONTINUOUS
 62
     7
100
AcDbLine
 10
46.65905055938571
 20
4.124934609892096
 11
51.65905393679778
 21
5.944786917091527
  0
LINE
  5
23b
100
AcDbEntity
  8
0
  6
CONTINUOUS
 62
     7
100
AcDbLine
 10
32.0000354221895
 20
11.9999914850506
 11
28.99992855957454
 21
11.9999914850506
  0
LINE
  5
23c
100
AcDbEntity
  8
0
  6
CONTINUOUS
 62
     7
100
AcDbLine
 10
28.99992855957454
 20
13.49997407197907
 11
25.99996338571759
 21
13.49997407197907
  0
LINE
  5
23d
100
AcDbEntity
  8
0
  6
CONTINUOUS
 62
     3
100
AcDbLine
 10
20.55043643833261
 20
17.44950307666667
 11
23.44954648200331
 21
14.55039352174934
  0
LINE
  5
23e
100
AcDbEntity
  8
0
  6
CONTINUOUS
 62
     3
100
AcDbLine
 10
23.44958477189005
 20
17.44948790734163
 11
20.5504366827138
 21
14.55033932940552
  0
LINE
  5
23f
100
AcDbEntity
  8
0
  6
CONTINUOUS
 62
     7
100
AcDbLine
 10
17.50000029802324
 20
11.50000455549792
 11
25.99996338571759
 21
11.50000455549792
  0
LINE
  5
240
100
AcDbEntity
  8
0
  6
CONTINUOUS
 62
     7
100
AcDbLine
 10
17.50000029802324
 20
20.99997419970333
 11
17.50000029802324
 21
11.50000455549792
  0
LINE
  5
241
100
AcDbEntity
  8
0
  6
CONTINUOUS
 62
     7
100
AcDbLine
 10
51.66422250720811
 20
3.499973901680079
 11
46.6590235345538
 21
3.499973901680079
  0
LINE
  5
242
100
AcDbEntity
  8
0
  6
CONTINUOUS
 62
     7
100
AcDbLine
 10
51.66422250720811
 20
-3.50003929649148
 11
46.6590235345538
 21
-3.50003929649148
  0
LINE
  5
243
100
AcDbEntity
  8
0
  6
CONTINUOUS
 62
     7
100
AcDbLine
 10
37.00000280993331
 20
2.249973880392702
 11
37.00000280993331
 21
-2.250039275204102
  0
LINE
  5
244
100
AcDbEntity
  8
0
  6
CONTINUOUS
 62
     7
100
AcDbLine
 10
40.00000068119596
 20
31.99997002737814
 11
40.00000068119596
 21
5.999999829701012
  0
LINE
  5
245
100
AcDbEntity
  8
0
  6
CONTINUOUS
 62
     7
100
AcDbLine
 10
37.00000280993331
 20
-4.750039317778857
 11
37.00000280993331
 21
-28.99998305525071
  0
LINE
  5
246
100
AcDbEntity
  8
0
  6
CONTINUOUS
 62
     7
100
AcDbLine
 10
40.00000068119596
 20
-5.999999829701012
 11
40.00000068119596
 21
-31.99999182564858
  0
LINE
  5
247
100
AcDbEntity
  8
0
  6
CONTINUOUS
 62
     7
100
AcDbLine
 10
-40.00000068119595
 20
-7.745971811600612
 11
-40.00000068119595
 21
-32.00001362391905
  0
ARC
  5
248
100
AcDbEntity
  8
0
  6
CONTINUOUS
 62
     7
100
AcDbCircle
 10
-29.00000485352116
 20
-28.99998305525071
 40
8
100
AcDbArc
 50
179.9999813306653
 51
270.00001798609
  0
ARC
  5
249
100
AcDbEntity
  8
0
  6
CONTINUOUS
 62
     7
100
AcDbCircle
 10
29.00000485352116
 20
28.99998305525071
 40
8
100
AcDbArc
 50
0
 51
89.99998201391065
  0
ARC
  5
24a
100
AcDbEntity
  8
0
  6
CONTINUOUS
 62
     7
100
AcDbCircle
 10
-29.00000485352116
 20
28.99998305525071
 40
8
100
AcDbArc
 50
89.99998201391065
 51
179.9999640278213
  0
ARC
  5
24b
100
AcDbEntity
  8
0
  6
CONTINUOUS
 62
     7
100
AcDbCircle
 10
29.00000485352116
 20
-28.99998305525071
 40
8
100
AcDbArc
 50
270.00001798609
 51
360
  0
CIRCLE
  5
24c
100
AcDbEntity
  8
0
  6
CONTINUOUS
 62
     7
100
AcDbCircle
 10
-28.99999940395354
 20
-29.00000485352118
 40
6.499999701976771
  0
CIRCLE
  5
24d
100
AcDbEntity
  8
0
  6
CONTINUOUS
 62
     7
100
AcDbCircle
 10
-28.99999940395354
 20
29.00000485352115
 40
6.499999701976771
  0
CIRCLE
  5
24e
100
AcDbEntity
  8
0
  6
CONTINUOUS
 62
     7
100
AcDbCircle
 10
29.00000485352116
 20
29.00000485352115
 40
6.499999701976771
  0
CIRCLE
  5
24f
100
AcDbEntity
  8
0
  6
CONTINUOUS
 62
     7
100
AcDbCircle
 10
29.00000485352116
 20
-29.00000485352118
 40
6.499999701976771
  0
ARC
  5
250
100
AcDbEntity
  8
0
  6
CONTINUOUS
 62
     7
100
AcDbCircle
 10
-28.99999940395354
 20
-29.00000485352118
 40
10.00000017029899
100
AcDbArc
 50
72.54244270016805
 51
89.99998201391065
  0
ARC
  5
251
100
AcDbEntity
  8
0
  6
CONTINUOUS
 62
     7
100
AcDbCircle
 10
-28.99999940395354
 20
29.00000485352115
 40
10.00000017029899
100
AcDbArc
 50
270.00001798609
 51
287.4575572998327
  0
ARC
  5
252
100
AcDbEntity
  8
0
  6
CONTINUOUS
 62
     7
100
AcDbCircle
 10
29.00000485352116
 20
-29.00000485352118
 40
10.00000017029899
100
AcDbArc
 50
89.99998201391065
 51
107.4578518821841
  0
ARC
  5
253
100
AcDbEntity
  8
0
  6
CONTINUOUS
 62
     7
100
AcDbCircle
 10
-28.99999940395354
 20
-29.00000485352118
 40
10.00000017029899
100
AcDbArc
 50
0
 51
53.12977734581934
  0
ARC
  5
254
100
AcDbEntity
  8
0
  6
CONTINUOUS
 62
     7
100
AcDbCircle
 10
29.00000485352116
 20
29.00000485352115
 40
10.00000017029899
100
AcDbArc
 50
179.9999813306653
 51
233.1303563180377
  0
ARC
  5
255
100
AcDbEntity
  8
0
  6
CONTINUOUS
 62
     7
100
AcDbCircle
 10
40.00000068119596
 20
0
 40
5.999999829701012
100
AcDbArc
 50
337.975286625013
 51
22.02405767682742
  0
ARC
  5
256
100
AcDbEntity
  8
0
  6
CONTINUOUS
 62
     7
100
AcDbCircle
 10
-32.00000272478381
 20
-31.99999182564858
 40
8
100
AcDbArc
 50
180.0001315948278
 51
270.00001798609
  0
ARC
  5
257
100
AcDbEntity
  8
0
  6
CONTINUOUS
 62
     7
100
AcDbCircle
 10
32.00000272478381
 20
31.99999182564858
 40
8
100
AcDbArc
 50
359.9998438813483
 51
89.99998201391065
  0
ARC
  5
258
100
AcDbEntity
  8
0
  6
CONTINUOUS
 62
     7
100
AcDbCircle
 10
-32.00000272478381
 20
31.99999182564858
 40
8
100
AcDbArc
 50
89.99998201391065
 51
180.0001142919838
  0
ARC
  5
259
100
AcDbEntity
  8
0
  6
CONTINUOUS
 62
     7
100
AcDbCircle
 10
32.00000272478381
 20
-31.99999182564858
 40
8
100
AcDbArc
 50
270.00001798609
 51
359.9998438813483
  0
CIRCLE
  5
25a
100
AcDbEntity
  8
0
  6
CONTINUOUS
 62
     7
100
AcDbCircle
 10
-22.00005160059335
 20
15.99997411455382
 40
3.500001149518169
  0
ARC
  5
25b
100
AcDbEntity
  8
0
  6
CONTINUOUS
 62
    20
100
AcDbCircle
 10
-4.25001969082048
 20
25.74999171921172
 40
0.2500001490116145
100
AcDbArc
 50
180.000022311801
 51
360
  0
CIRCLE
  5
25c
100
AcDbEntity
  8
0
  6
CONTINUOUS
 62
    20
100
AcDbCircle
 10
4.249986993414794
 20
25.5000091535706
 40
0.2500001490116145
  0
CIRCLE
  5
25d
100
AcDbEntity
  8
0
  6
CONTINUOUS
 62
     7
100
AcDbCircle
 10
-21.99997530664675
 20
-16.00003950936522
 40
3.500001149518169
  0
CIRCLE
  5
25e
100
AcDbEntity
  8
0
  6
CONTINUOUS
 62
     7
100
AcDbCircle
 10
22.00003525189051
 20
-16.00003950936522
 40
3.500001149518169
  0
CIRCLE
  5
25f
100
AcDbEntity
  8
0
  6
CONTINUOUS
 62
     7
100
AcDbCircle
 10
21.99998075621436
 20
15.99997411455382
 40
3.500001149518169
  0
ARC
  5
260
100
AcDbEntity
  8
0
  6
CONTINUOUS
 62
     7
100
AcDbCircle
 10
-28.99999940395354
 20
29.00000485352115
 40
10.00000017029899
100
AcDbArc
 50
306.8695976918723
 51
360
  0
ARC
  5
261
100
AcDbEntity
  8
0
  6
CONTINUOUS
 62
     7
100
AcDbCircle
 10
29.00000485352116
 20
29.00000485352115
 40
10.00000017029899
100
AcDbArc
 50
252.5421481178166
 51
270.00001798609
  0
ARC
  5
262
100
AcDbEntity
  8
0
  6
CONTINUOUS
 62
     7
100
AcDbCircle
 10
29.00000485352116
 20
-29.00000485352118
 40
10.00000017029899
100
AcDbArc
 50
126.8702720593666
 51
179.9999640278213
  0
ARC
  5
263
100
AcDbEntity
  8
0
  6
CONTINUOUS
 62
     7
100
AcDbCircle
 10
-40.00000068119595
 20
0
 40
5.999999829701012
100
AcDbArc
 50
104.4775105258582
 51
255.5224585109202
  0
ARC
  5
264
100
AcDbEntity
  8
0
  6
CONTINUOUS
 62
     7
100
AcDbCircle
 10
40.00000068119596
 20
0
 40
5.999999829701012
100
AcDbArc
 50
270.0000000000005
 51
307.6578834843618
  0
ARC
  5
265
100
AcDbEntity
  8
0
  6
CONTINUOUS
 62
     7
100
AcDbCircle
 10
-42.00000289508279
 20
-7.745971811600612
 40
2
100
AcDbArc
 50
0
 51
75.52240569063903
  0
ARC
  5
266
100
AcDbEntity
  8
0
  6
CONTINUOUS
 62
     7
100
AcDbCircle
 10
-42.00000289508279
 20
7.745971811600612
 40
2
100
AcDbArc
 50
284.4775943093617
 51
360
  0
ARC
  5
267
100
AcDbEntity
  8
0
  6
CONTINUOUS
 62
     7
100
AcDbCircle
 10
40.00000068119596
 20
0
 40
5.999999829701012
100
AcDbArc
 50
52.34115687406048
 51
90.00000000000019
  0
MTEXT
  5
268
100
AcDbEntity
  8
0
  6
CONTINUOUS
 62
     7
100
AcDbMText
 10
-16.51453273804617
 20
30.67696510678036
 40
0.5
 41
36
 71
     7
 72
     1
  1
{\W0.8426;ＢＮ－５ＢＰ２１－４０－Ｅ／Ｆ＊＊＊}
  0
ENDBLK
  8
0
  5
269
100
AcDbEntity
100
AcDbBlockEnd
  0
BLOCK
  8
0
  5
26a
100
AcDbEntity
100
AcDbBlockBegin
  2
KOZU0003
 70
    64
 10
0
 20
0
  0
POINT
  5
26b
100
AcDbEntity
  8
0
  6
CONTINUOUS
 62
     7
100
AcDbPoint
 10
0
 20
0
  0
LINE
  5
26c
100
AcDbEntity
  8
0
  6
DASHED
 62
     7
100
AcDbLine
 10
36.16284247807096
 20
32.49998969691123
 11
30.00000068119596
 21
32.49998969691123
  0
LINE
  5
26d
100
AcDbEntity
  8
0
  6
DASHED
 62
     7
100
AcDbLine
 10
36.16284247807096
 20
29.49998969691123
 11
30.00000068119596
 21
29.49998969691123
  0
LINE
  5
26e
100
AcDbEntity
  8
0
  6
DASHED
 62
     7
100
AcDbLine
 10
40.00000068119596
 20
33.94998664515342
 11
37.00000068119596
 21
33.94998664515342
  0
LINE
  5
26f
100
AcDbEntity
  8
0
  6
DASHED
 62
     7
100
AcDbLine
 10
40.00000068119596
 20
28.04999274866904
 11
37.00000068119596
 21
28.04999274866904
  0
LINE
  5
270
100
AcDbEntity
  8
0
  6
CENTER
 62
     3
100
AcDbLine
 10
40.68176337650846
 20
30.99998969691123
 11
29.47848578861783
 21
30.99998969691123
  0
LINE
  5
271
100
AcDbEntity
  8
0
  6
DASHED
 62
     7
100
AcDbLine
 10
37.00000068119596
 20
33.94998664515342
 11
37.00000068119596
 21
28.04999274866904
  0
LINE
  5
272
100
AcDbEntity
  8
0
  6
CONTINUOUS
 62
     7
100
AcDbLine
 10
34.00000493867066
 20
68.99997283731142
 11
31.99999182564858
 21
68.99997283731142
  0
LINE
  5
273
100
AcDbEntity
  8
0
  6
CONTINUOUS
 62
     7
100
AcDbLine
 10
-33.99998314040018
 20
68.99996738774379
 11
-33.99998314040018
 21
34.99996789864077
  0
LINE
  5
274
100
AcDbEntity
  8
0
  6
CONTINUOUS
 62
     7
100
AcDbLine
 10
33.9999831404002
 20
68.99996738774379
 11
33.9999831404002
 21
34.99996789864077
  0
LINE
  5
275
100
AcDbEntity
  8
0
  6
CONTINUOUS
 62
     7
100
AcDbLine
 10
-31.99999182564856
 20
68.99997283731142
 11
-34.00000493867064
 21
68.99997283731142
  0
LINE
  5
276
100
AcDbEntity
  8
0
  6
CONTINUOUS
 62
     7
100
AcDbLine
 10
-36.99999191079807
 20
93.99996236392366
 11
-36.99999191079807
 21
68.99996738774379
  0
LINE
  5
277
100
AcDbEntity
  8
0
  6
CONTINUOUS
 62
     7
100
AcDbLine
 10
36.99999191079808
 20
93.99996236392366
 11
36.99999191079808
 21
68.99996738774379
  0
LINE
  5
278
100
AcDbEntity
  8
0
  6
CONTINUOUS
 62
     7
100
AcDbLine
 10
36.99999191079808
 20
68.99997283731142
 11
-36.99999191079807
 21
68.99997283731142
  0
LINE
  5
279
100
AcDbEntity
  8
0
  6
CENTER
 62
     3
100
AcDbLine
 10
30.00000051089697
 20
0
 11
-30.00000051089695
 21
0
  0
LINE
  5
27a
100
AcDbEntity
  8
0
  6
CENTER
 62
     3
100
AcDbLine
 10
0
 20
180.5132324442392
 11
0
 21
-61.38828382131515
  0
LINE
  5
27b
100
AcDbEntity
  8
0
  6
CONTINUOUS
 62
     7
100
AcDbLine
 10
25.00000042574747
 20
68.99996193817619
 11
25.00000042574747
 21
34.99996244907315
  0
LINE
  5
27c
100
AcDbEntity
  8
0
  6
CONTINUOUS
 62
     7
100
AcDbLine
 10
33.00000928129485
 20
68.99996193817619
 11
33.00000928129485
 21
34.99996244907315
  0
LINE
  5
27d
100
AcDbEntity
  8
0
  6
CONTINUOUS
 62
     7
100
AcDbLine
 10
-32.99998748302438
 20
68.99996193817619
 11
-32.99998748302438
 21
34.99996244907315
  0
LINE
  5
27e
100
AcDbEntity
  8
0
  6
CONTINUOUS
 62
     7
100
AcDbLine
 10
-25.00000042574746
 20
68.99996193817619
 11
-25.00000042574746
 21
34.99996244907315
  0
LINE
  5
27f
100
AcDbEntity
  8
0
  6
CONTINUOUS
 62
     7
100
AcDbLine
 10
-35.49996572732867
 20
91.99997104917203
 11
-22.4999567866318
 21
91.99997104917203
  0
LINE
  5
280
100
AcDbEntity
  8
0
  6
CONTINUOUS
 62
     7
100
AcDbLine
 10
-35.49996572732867
 20
84.00000579016559
 11
-22.4999567866318
 21
84.00000579016559
  0
LINE
  5
281
100
AcDbEntity
  8
0
  6
CONTINUOUS
 62
     7
100
AcDbLine
 10
-22.4999567866318
 20
91.99997104917203
 11
-22.4999567866318
 21
81.99997087887306
  0
LINE
  5
282
100
AcDbEntity
  8
0
  6
CENTER
 62
     3
100
AcDbLine
 10
-28.9999830552507
 20
93.46516359644555
 11
-28.9999830552507
 21
34.99998424734361
  0
LINE
  5
283
100
AcDbEntity
  8
0
  6
CONTINUOUS
 62
     7
100
AcDbLine
 10
-32.50000055347171
 20
-56.00000749315547
 11
32.50000055347172
 21
-56.00000749315547
  0
LINE
  5
284
100
AcDbEntity
  8
0
  6
CONTINUOUS
 62
     7
100
AcDbLine
 10
32.50000055347172
 20
-35.00003874301977
 11
32.50000055347172
 21
-56.00000749315547
  0
LINE
  5
285
100
AcDbEntity
  8
0
  6
CONTINUOUS
 62
     7
100
AcDbLine
 10
-32.50000055347171
 20
-35.00003874301977
 11
-32.50000055347171
 21
-56.00000749315547
  0
LINE
  5
286
100
AcDbEntity
  8
0
  6
CONTINUOUS
 62
     7
100
AcDbLine
 10
32.50000055347172
 20
-35.00001149518169
 11
-32.50000055347171
 21
-35.00001149518169
  0
LINE
  5
287
100
AcDbEntity
  8
0
  6
CONTINUOUS
 62
     7
100
AcDbLine
 10
40.00000068119596
 20
34.99996244907315
 11
40.00000068119596
 21
-30.00001141003219
  0
LINE
  5
288
100
AcDbEntity
  8
0
  6
CONTINUOUS
 62
     7
100
AcDbLine
 10
40.00000068119596
 20
34.99998969691123
 11
-40.00000068119594
 21
34.99998969691123
  0
LINE
  5
289
100
AcDbEntity
  8
0
  6
CONTINUOUS
 62
     7
100
AcDbLine
 10
40.00000068119596
 20
-30.00001141003219
 11
-40.00000068119594
 21
-30.00001141003219
  0
LINE
  5
28a
100
AcDbEntity
  8
0
  6
CONTINUOUS
 62
     7
100
AcDbLine
 10
30.00000051089697
 20
18.54101997824853
 11
30.00000051089697
 21
-18.54101997824853
  0
LINE
  5
28b
100
AcDbEntity
  8
0
  6
CONTINUOUS
 62
     7
100
AcDbLine
 10
5.000000085149495
 20
34.99996244907315
 11
5.000000085149495
 21
29.72136005614754
  0
LINE
  5
28c
100
AcDbEntity
  8
0
  6
CONTINUOUS
 62
     7
100
AcDbLine
 10
33.00000928129485
 20
-35.00001149518169
 11
-33.00003107956529
 21
-35.00001149518169
  0
LINE
  5
28d
100
AcDbEntity
  8
0
  6
CONTINUOUS
 62
     7
100
AcDbLine
 10
34.00000427262042
 20
-30.00001141003219
 11
32.99999221115024
 21
-34.9999844912496
  0
LINE
  5
28e
100
AcDbEntity
  8
0
  6
CONTINUOUS
 62
     7
100
AcDbLine
 10
-40.00000068119594
 20
34.99996244907315
 11
-40.00000068119594
 21
-30.00001141003219
  0
LINE
  5
28f
100
AcDbEntity
  8
0
  6
CONTINUOUS
 62
     7
100
AcDbLine
 10
-30.00000051089695
 20
18.54101997824854
 11
-30.00000051089695
 21
-18.54101997824854
  0
LINE
  5
290
100
AcDbEntity
  8
0
  6
CONTINUOUS
 62
     7
100
AcDbLine
 10
-5.000000085149495
 20
34.99996244907315
 11
-5.000000085149495
 21
29.72136005614754
  0
LINE
  5
291
100
AcDbEntity
  8
0
  6
CONTINUOUS
 62
     7
100
AcDbLine
 10
-34.00007860793039
 20
-30.00001141003219
 11
-33.00005924020177
 21
-35.00002102190455
  0
LINE
  5
292
100
AcDbEntity
  8
0
  6
CENTER
 62
     3
100
AcDbLine
 10
-31.57856586283556
 20
25.99999608312328
 11
-42.47266569261321
 21
25.99999608312328
  0
LINE
  5
293
100
AcDbEntity
  8
0
  6
DASHED
 62
     3
100
AcDbLine
 10
-34.00000493867064
 20
28.49999612569803
 11
-40.00000068119594
 21
28.49999612569803
  0
LINE
  5
294
100
AcDbEntity
  8
0
  6
DASHED
 62
     3
100
AcDbLine
 10
-34.00000493867064
 20
23.49999604054853
 11
-40.00000068119594
 21
23.49999604054853
  0
LINE
  5
295
100
AcDbEntity
  8
0
  6
DASHED
 62
     7
100
AcDbLine
 10
-34.00000493867064
 20
28.06698438213526
 11
-40.00000068119594
 21
28.06698438213526
  0
LINE
  5
296
100
AcDbEntity
  8
0
  6
DASHED
 62
     7
100
AcDbLine
 10
-34.00000493867064
 20
23.93301868324652
 11
-40.00000068119594
 21
23.93301868324652
  0
LINE
  5
297
100
AcDbEntity
  8
0
  6
CONTINUOUS
 62
     7
100
AcDbLine
 10
-35.49996572732867
 20
91.99997104917203
 11
-35.49996572732867
 21
81.99997087887306
  0
LINE
  5
298
100
AcDbEntity
  8
0
  6
CONTINUOUS
 62
     7
100
AcDbLine
 10
-18.99998288495171
 20
93.99997326305888
 11
-18.99998288495171
 21
81.99997087887306
  0
LINE
  5
299
100
AcDbEntity
  8
0
  6
CONTINUOUS
 62
     7
100
AcDbLine
 10
-18.99998288495171
 20
81.99997087887306
 11
-36.99999191079807
 21
81.99997087887306
  0
LINE
  5
29a
100
AcDbEntity
  8
0
  6
CONTINUOUS
 62
     7
100
AcDbLine
 10
36.99999191079808
 20
93.99997326305888
 11
-36.99999191079807
 21
93.99997326305888
  0
LINE
  5
29b
100
AcDbEntity
  8
0
  6
CONTINUOUS
 62
     7
100
AcDbLine
 10
20.99997419970333
 20
93.99996236392366
 11
20.99997419970333
 21
132.0000153269089
  0
LINE
  5
29c
100
AcDbEntity
  8
0
  6
CENTER
 62
     3
100
AcDbLine
 10
-9.742867771946834
 20
107.9999560628611
 11
9.555075671929558
 21
107.9999560628611
  0
LINE
  5
29d
100
AcDbEntity
  8
0
  6
CONTINUOUS
 62
     7
100
AcDbLine
 10
-20.99997419970332
 20
93.99996236392366
 11
-20.99997419970332
 21
132.0000153269089
  0
LINE
  5
29e
100
AcDbEntity
  8
0
  6
PHANTOM
 62
     3
100
AcDbLine
 10
-25.75001351748216
 20
101.9999167237949
 11
-20.99997419970332
 21
101.9999167237949
  0
LINE
  5
29f
100
AcDbEntity
  8
0
  6
CENTER
 62
     3
100
AcDbLine
 10
-25.75003531575263
 20
101.749945057289
 11
-20.99997419970332
 21
101.749945057289
  0
LINE
  5
2a0
100
AcDbEntity
  8
0
  6
PHANTOM
 62
     3
100
AcDbLine
 10
-25.75001351748216
 20
101.4999406933774
 11
-20.99997419970332
 21
101.4999406933774
  0
LINE
  5
2a1
100
AcDbEntity
  8
0
  6
CONTINUOUS
 62
     7
100
AcDbLine
 10
-25.75003531575263
 20
110.999964833259
 11
-25.75003531575263
 21
100.9999319655543
  0
LINE
  5
2a2
100
AcDbEntity
  8
0
  6
CONTINUOUS
 62
     7
100
AcDbLine
 10
-26.75003097312843
 20
100.9999319655543
 11
-25.75001351748216
 21
100.9999319655543
  0
LINE
  5
2a3
100
AcDbEntity
  8
0
  6
CONTINUOUS
 62
     7
100
AcDbLine
 10
-26.75003097312843
 20
110.9999321358533
 11
-26.75003097312843
 21
100.9999319655543
  0
LINE
  5
2a4
100
AcDbEntity
  8
0
  6
CENTER
 62
     3
100
AcDbLine
 10
-28.05620513739254
 20
105.9999320507038
 11
-20.99997419970332
 21
105.9999320507038
  0
LINE
  5
2a5
100
AcDbEntity
  8
0
  6
CONTINUOUS
 62
     7
100
AcDbLine
 10
-26.75003097312843
 20
110.9999321358533
 11
-25.75001351748216
 21
110.9999321358533
  0
LINE
  5
2a6
100
AcDbEntity
  8
0
  6
CENTER
 62
     3
100
AcDbLine
 10
-25.75003531575263
 20
110.2499408423891
 11
-20.99997419970332
 21
110.2499408423891
  0
LINE
  5
2a7
100
AcDbEntity
  8
0
  6
PHANTOM
 62
     3
100
AcDbLine
 10
-25.5000091535706
 20
110.4999016097597
 11
-20.99997419970332
 21
110.4999016097597
  0
LINE
  5
2a8
100
AcDbEntity
  8
0
  6
PHANTOM
 62
     3
100
AcDbLine
 10
-25.5000091535706
 20
109.9999473776127
 11
-20.99997419970332
 21
109.9999473776127
  0
LINE
  5
2a9
100
AcDbEntity
  8
0
  6
CONTINUOUS
 62
     7
100
AcDbLine
 10
-25.75001351748216
 20
109.8500297725206
 11
-20.99997419970332
 21
109.8500297725206
  0
LINE
  5
2aa
100
AcDbEntity
  8
0
  6
CONTINUOUS
 62
     7
100
AcDbLine
 10
-25.75001351748216
 20
102.1499651185098
 11
-20.99997419970332
 21
102.1499651185098
  0
LINE
  5
2ab
100
AcDbEntity
  8
0
  6
CENTER
 62
     3
100
AcDbLine
 10
-15.99997411455382
 20
137.1055299402225
 11
-15.99997411455382
 21
132.0000153269089
  0
LINE
  5
2ac
100
AcDbEntity
  8
0
  6
CONTINUOUS
 62
     7
100
AcDbLine
 10
-20.99997419970332
 20
124.9999476330612
 11
20.99997419970333
 21
124.9999476330612
  0
LINE
  5
2ad
100
AcDbEntity
  8
0
  6
CONTINUOUS
 62
     7
100
AcDbLine
 10
20.99997419970333
 20
132.0000153269089
 11
11.49958347468749
 21
132.0000153269089
  0
LINE
  5
2ae
100
AcDbEntity
  8
0
  6
CONTINUOUS
 62
     7
100
AcDbLine
 10
20.00002121942214
 20
175.9999768393376
 11
21.00000638046959
 21
131.9999847540115
  0
LINE
  5
2af
100
AcDbEntity
  8
0
  6
CONTINUOUS
 62
     7
100
AcDbLine
 10
10.80050280207569
 20
175.9999768393377
 11
11.49958347468749
 21
132.0000153269089
  0
LINE
  5
2b0
100
AcDbEntity
  8
0
  6
CONTINUOUS
 62
     7
100
AcDbLine
 10
8.799765600472966
 20
173.4999985950334
 11
8.799765600472966
 21
125.9999650887075
  0
LINE
  5
2b1
100
AcDbEntity
  8
0
  6
CONTINUOUS
 62
     7
100
AcDbLine
 10
8.799765600472966
 20
125.9999541895722
 11
-8.80002717971847
 21
125.9999541895722
  0
LINE
  5
2b2
100
AcDbEntity
  8
0
  6
CONTINUOUS
 62
     7
100
AcDbLine
 10
7.199881540023966
 20
173.4999985950334
 11
7.199881540023966
 21
125.9999650887075
  0
LINE
  5
2b3
100
AcDbEntity
  8
0
  6
CONTINUOUS
 62
     7
100
AcDbLine
 10
4.799913760592503
 20
173.4999985950334
 11
4.799913760592503
 21
125.9999650887075
  0
LINE
  5
2b4
100
AcDbEntity
  8
0
  6
CONTINUOUS
 62
     7
100
AcDbLine
 10
3.199877112250292
 20
173.4999985950334
 11
3.199877112250292
 21
125.9999650887075
  0
LINE
  5
2b5
100
AcDbEntity
  8
0
  6
CONTINUOUS
 62
     7
100
AcDbLine
 10
0.7998875345483469
 20
173.4999985950334
 11
0.7998875345483469
 21
125.9999650887075
  0
LINE
  5
2b6
100
AcDbEntity
  8
0
  6
CONTINUOUS
 62
     7
100
AcDbLine
 10
-0.7999965259006387
 20
173.4999985950334
 11
-0.7999965259006387
 21
125.9999650887075
  0
LINE
  5
2b7
100
AcDbEntity
  8
0
  6
CONTINUOUS
 62
     7
100
AcDbLine
 10
-3.199920708791197
 20
173.4999985950334
 11
-3.199920708791197
 21
125.9999650887075
  0
LINE
  5
2b8
100
AcDbEntity
  8
0
  6
CONTINUOUS
 62
     7
100
AcDbLine
 10
-4.800197138108473
 20
173.4999985950334
 11
-4.800197138108473
 21
125.9999650887075
  0
LINE
  5
2b9
100
AcDbEntity
  8
0
  6
CONTINUOUS
 62
     7
100
AcDbLine
 10
-7.200164917539951
 20
173.4999985950334
 11
-7.200164917539951
 21
125.9999650887075
  0
LINE
  5
2ba
100
AcDbEntity
  8
0
  6
CONTINUOUS
 62
     7
100
AcDbLine
 10
-8.80002717971847
 20
173.4999985950334
 11
-8.80002717971847
 21
125.9999650887075
  0
LINE
  5
2bb
100
AcDbEntity
  8
0
  6
CONTINUOUS
 62
     7
100
AcDbLine
 10
-10.80033973064836
 20
175.9999768393376
 11
-11.49942040326016
 21
132.0000153269089
  0
LINE
  5
2bc
100
AcDbEntity
  8
0
  6
CONTINUOUS
 62
     7
100
AcDbLine
 10
-20.99997419970332
 20
132.0000153269089
 11
-11.49942040326017
 21
132.0000153269089
  0
LINE
  5
2bd
100
AcDbEntity
  8
0
  6
CONTINUOUS
 62
     7
100
AcDbLine
 10
-19.5000134110453
 20
133.0000000851495
 11
-12.49997841460326
 21
133.0000000851495
  0
LINE
  5
2be
100
AcDbEntity
  8
0
  6
CONTINUOUS
 62
     7
100
AcDbLine
 10
-12.49997841460326
 20
134.3000107884409
 11
-12.49997841460326
 21
132.0000153269089
  0
LINE
  5
2bf
100
AcDbEntity
  8
0
  6
CONTINUOUS
 62
     7
100
AcDbLine
 10
-19.5000134110453
 20
134.3000107884409
 11
-19.5000134110453
 21
132.0000153269089
  0
LINE
  5
2c0
100
AcDbEntity
  8
0
  6
CONTINUOUS
 62
     7
100
AcDbLine
 10
-20.00001649142355
 20
175.9999768393376
 11
-21.00000080752495
 21
132.0000219321823
  0
LINE
  5
2c1
100
AcDbEntity
  8
0
  6
CONTINUOUS
 62
     7
100
AcDbLine
 10
20.00002121942215
 20
175.9999768393377
 11
9.213357722388912
 21
175.9999768393377
  0
LINE
  5
2c2
100
AcDbEntity
  8
0
  6
CONTINUOUS
 62
     7
100
AcDbLine
 10
9.21335772238891
 20
175.9999768393376
 11
8.799759415256908
 21
173.5000142070121
  0
LINE
  5
2c3
100
AcDbEntity
  8
0
  6
CONTINUOUS
 62
     7
100
AcDbLine
 10
8.800027179718484
 20
173.4999767967629
 11
7.199925136564886
 21
173.4999767967629
  0
LINE
  5
2c4
100
AcDbEntity
  8
0
  6
CONTINUOUS
 62
     7
100
AcDbLine
 10
7.199893596079733
 20
173.4999465177425
 11
6.786283159091354
 21
175.9999768393377
  0
LINE
  5
2c5
100
AcDbEntity
  8
0
  6
CONTINUOUS
 62
     7
100
AcDbLine
 10
6.786283159091362
 20
175.9999768393377
 11
5.213523705947786
 21
175.9999768393377
  0
LINE
  5
2c6
100
AcDbEntity
  8
0
  6
CONTINUOUS
 62
     7
100
AcDbLine
 10
5.21352370594779
 20
175.9999768393377
 11
4.799927394006595
 21
173.5000318952937
  0
LINE
  5
2c7
100
AcDbEntity
  8
0
  6
CENTER
 62
     3
100
AcDbLine
 10
-22.28153811661751
 20
171.4999418854704
 11
-11.54309973619834
 21
171.4999418854704
  0
LINE
  5
2c8
100
AcDbEntity
  8
0
  6
DASHED
 62
     7
100
AcDbLine
 10
-20.16233206071738
 20
172.4999157445757
 11
-12.25971787758755
 21
172.4999157445757
  0
LINE
  5
2c9
100
AcDbEntity
  8
0
  6
DASHED
 62
     7
100
AcDbLine
 10
-20.19762346059294
 20
170.4999462280946
 11
-12.25971787758755
 21
170.4999462280946
  0
LINE
  5
2ca
100
AcDbEntity
  8
0
  6
CONTINUOUS
 62
     7
100
AcDbLine
 10
-20.00001649142355
 20
175.9999768393377
 11
-9.213596058738682
 21
175.9999768393377
  0
LINE
  5
2cb
100
AcDbEntity
  8
0
  6
CONTINUOUS
 62
     7
100
AcDbLine
 10
-9.213596058738681
 20
175.9999768393377
 11
-8.799985310198068
 21
173.4999390058905
  0
LINE
  5
2cc
100
AcDbEntity
  8
0
  6
CONTINUOUS
 62
     7
100
AcDbLine
 10
-8.800070776259389
 20
173.4999767967629
 11
-7.199925136564886
 21
173.4999767967629
  0
LINE
  5
2cd
100
AcDbEntity
  8
0
  6
CONTINUOUS
 62
     7
100
AcDbLine
 10
-7.200152425465191
 20
173.4999866065345
 11
-6.786549703097158
 21
175.9999768393377
  0
LINE
  5
2ce
100
AcDbEntity
  8
0
  6
CONTINUOUS
 62
     7
100
AcDbLine
 10
-6.786549703097154
 20
175.9999768393377
 11
-5.213842457619692
 21
175.9999768393377
  0
LINE
  5
2cf
100
AcDbEntity
  8
0
  6
CONTINUOUS
 62
     7
100
AcDbLine
 10
-5.213842457619691
 20
175.9999768393376
 11
-4.800237834063182
 21
173.499976027878
  0
LINE
  5
2d0
100
AcDbEntity
  8
0
  6
CONTINUOUS
 62
     7
100
AcDbLine
 10
-4.800022751944781
 20
173.4999767967629
 11
-3.199964305332117
 21
173.4999767967629
  0
LINE
  5
2d1
100
AcDbEntity
  8
0
  6
CONTINUOUS
 62
     7
100
AcDbLine
 10
-2.786304536564508
 20
175.9999768393377
 11
-3.19991398927549
 21
173.4999459254879
  0
LINE
  5
2d2
100
AcDbEntity
  8
0
  6
CONTINUOUS
 62
     7
100
AcDbLine
 10
-2.786304536564508
 20
175.9999768393377
 11
-1.21362233267655
 21
175.9999768393377
  0
LINE
  5
2d3
100
AcDbEntity
  8
0
  6
CONTINUOUS
 62
     7
100
AcDbLine
 10
-1.213622332676554
 20
175.9999768393377
 11
-0.8000218511654111
 21
173.4999972614129
  0
LINE
  5
2d4
100
AcDbEntity
  8
0
  6
CONTINUOUS
 62
     7
100
AcDbLine
 10
-0.8000619207120252
 20
173.4999767967629
 11
-2.179827045267757e-005
 21
173.4999767967629
  0
LINE
  5
2d5
100
AcDbEntity
  8
0
  6
CONTINUOUS
 62
     7
100
AcDbLine
 10
0.8000401224415725
 20
173.4999767967629
 11
-2.179827045267757e-005
 21
173.4999767967629
  0
LINE
  5
2d6
100
AcDbEntity
  8
0
  6
CONTINUOUS
 62
     7
100
AcDbLine
 10
1.213378672168687
 20
175.9999768393377
 11
0.7997748691819631
 21
173.499971556333
  0
LINE
  5
2d7
100
AcDbEntity
  8
0
  6
CONTINUOUS
 62
     7
100
AcDbLine
 10
2.786258281706602
 20
175.9999768393377
 11
1.213378672168682
 21
175.9999768393377
  0
LINE
  5
2d8
100
AcDbEntity
  8
0
  6
CONTINUOUS
 62
     7
100
AcDbLine
 10
2.786258281706601
 20
175.9999768393377
 11
3.199862870999898
 21
173.4999715192715
  0
LINE
  5
2d9
100
AcDbEntity
  8
0
  6
CONTINUOUS
 62
     7
100
AcDbLine
 10
4.800022751944795
 20
173.4999767967629
 11
3.199942507061664
 21
173.4999767967629
  0
LINE
  5
2da
100
AcDbEntity
  8
0
  6
DASHED
 62
     7
100
AcDbLine
 10
37.00000068434905
 20
28.04999350275563
 11
36.16284485414074
 21
29.49998990850405
  0
LINE
  5
2db
100
AcDbEntity
  8
0
  6
DASHED
 62
     7
100
AcDbLine
 10
36.99999758490748
 20
33.94998063036604
 11
36.16284699990798
 21
32.49999330958561
  0
LINE
  5
2dc
100
AcDbEntity
  8
0
  6
DASHED
 62
     7
100
AcDbLine
 10
36.16284247807096
 20
32.49998969691123
 11
36.16284247807096
 21
29.49998969691123
  0
LINE
  5
2dd
100
AcDbEntity
  8
0
  6
CONTINUOUS
 62
     7
100
AcDbLine
 10
19.5000134110453
 20
134.3000107884409
 11
19.5000134110453
 21
132.0000153269089
  0
LINE
  5
2de
100
AcDbEntity
  8
0
  6
CONTINUOUS
 62
     7
100
AcDbLine
 10
12.49997841460326
 20
134.3000107884409
 11
12.49997841460326
 21
132.0000153269089
  0
LINE
  5
2df
100
AcDbEntity
  8
0
  6
CONTINUOUS
 62
     7
100
AcDbLine
 10
19.5000134110453
 20
133.0000000851495
 11
12.49997841460326
 21
133.0000000851495
  0
LINE
  5
2e0
100
AcDbEntity
  8
0
  6
CENTER
 62
     3
100
AcDbLine
 10
15.99997411455382
 20
137.1055299402225
 11
15.99997411455382
 21
132.0000153269089
  0
LINE
  5
2e1
100
AcDbEntity
  8
0
  6
CONTINUOUS
 62
     7
100
AcDbLine
 10
18.99998288495171
 20
81.99997087887306
 11
36.99999191079807
 21
81.99997087887306
  0
LINE
  5
2e2
100
AcDbEntity
  8
0
  6
CONTINUOUS
 62
     7
100
AcDbLine
 10
18.99998288495171
 20
93.99997326305888
 11
18.99998288495171
 21
81.99997087887306
  0
LINE
  5
2e3
100
AcDbEntity
  8
0
  6
CONTINUOUS
 62
     7
100
AcDbLine
 10
35.49996572732867
 20
91.99997104917203
 11
35.49996572732867
 21
81.99997087887306
  0
LINE
  5
2e4
100
AcDbEntity
  8
0
  6
CENTER
 62
     3
100
AcDbLine
 10
28.9999830552507
 20
93.46516359644555
 11
28.9999830552507
 21
34.99998424734361
  0
LINE
  5
2e5
100
AcDbEntity
  8
0
  6
CONTINUOUS
 62
     7
100
AcDbLine
 10
22.4999567866318
 20
91.99997104917203
 11
22.4999567866318
 21
81.99997087887306
  0
LINE
  5
2e6
100
AcDbEntity
  8
0
  6
CONTINUOUS
 62
     7
100
AcDbLine
 10
35.49996572732867
 20
84.00000579016559
 11
22.4999567866318
 21
84.00000579016559
  0
LINE
  5
2e7
100
AcDbEntity
  8
0
  6
CONTINUOUS
 62
     7
100
AcDbLine
 10
35.49996572732867
 20
91.99997104917203
 11
22.4999567866318
 21
91.99997104917203
  0
ARC
  5
2e8
100
AcDbEntity
  8
0
  6
CONTINUOUS
 62
     7
100
AcDbCircle
 10
0
 20
-15.00000025544848
 40
45.00000076634544
100
AcDbArc
 50
48.1896851042214
 51
131.8103148957786
  0
ARC
  5
2e9
100
AcDbEntity
  8
0
  6
CONTINUOUS
 62
     7
100
AcDbCircle
 10
0
 20
15.00000025544848
 40
45.00000076634544
100
AcDbArc
 50
228.1896851042221
 51
311.8103148957793
  0
CIRCLE
  5
2ea
100
AcDbEntity
  8
0
  6
CONTINUOUS
 62
     3
100
AcDbCircle
 10
0
 20
0
 40
24.35185337665853
  0
CIRCLE
  5
2eb
100
AcDbEntity
  8
0
  6
CONTINUOUS
 62
     7
100
AcDbCircle
 10
0
 20
0
 40
22.87194699682418
  0
CIRCLE
  5
2ec
100
AcDbEntity
  8
0
  6
CONTINUOUS
 62
     7
100
AcDbCircle
 10
-25.5000091535706
 20
110.2499626406595
 40
0.250000127724241
  0
ARC
  5
2ed
100
AcDbEntity
  8
0
  6
CONTINUOUS
 62
     7
100
AcDbCircle
 10
-25.75001351748216
 20
101.749945057289
 40
0.250000127724241
100
AcDbArc
 50
269.9912480231961
 51
89.99992737239725
  0
CIRCLE
  5
2ee
100
AcDbEntity
  8
0
  6
CONTINUOUS
 62
     7
100
AcDbCircle
 10
0
 20
107.9999778611316
 40
5.903963462011532
  0
CIRCLE
  5
2ef
100
AcDbEntity
  8
0
  6
CONTINUOUS
 62
     3
100
AcDbCircle
 10
0
 20
107.9999669619963
 40
6.760493802351506
  0
ARC
  5
2f0
100
AcDbEntity
  8
0
  6
CONTINUOUS
 62
     7
100
AcDbCircle
 10
-15.99999591282428
 20
130.2384693596013
 40
5.361552132175335
100
AcDbArc
 50
49.24700861897715
 51
130.7529913810229
  0
ARC
  5
2f1
100
AcDbEntity
  8
0
  6
CONTINUOUS
 62
     7
100
AcDbCircle
 10
15.99999591282428
 20
130.2384693596013
 40
5.361552132175335
100
AcDbArc
 50
49.24700861897717
 51
130.7529913810229
  0
MTEXT
  5
2f2
100
AcDbEntity
  8
0
  6
CONTINUOUS
 62
     7
100
AcDbMText
 10
-17.07506074018539
 20
119.456252858207
 40
0.5
 41
36
 71
     7
 72
     1
  1
{\W0.8426;ＢＮ－５ＢＰ２１－４０－Ｅ／Ｆ＊＊＊}
  0
INSERT
  5
2f3
100
AcDbEntity
  8
0
  6
CONTINUOUS
 62
     7
100
AcDbBlockReference
  2
KOZU0008
 10
0
 20
0
  0
INSERT
  5
2f4
100
AcDbEntity
  8
0
  6
CONTINUOUS
 62
     3
100
AcDbBlockReference
  2
KOZU0009
 10
0
 20
0
  0
ENDBLK
  8
0
  5
2f5
100
AcDbEntity
100
AcDbBlockEnd
  0
BLOCK
  8
0
  5
2f6
100
AcDbEntity
100
AcDbBlockBegin
  2
KOZU0004
 70
    64
 10
0
 20
0
  0
POINT
  5
2f7
100
AcDbEntity
  8
0
  6
CONTINUOUS
 62
     7
100
AcDbPoint
 10
0
 20
0
  0
LINE
  5
2f8
100
AcDbEntity
  8
0
  6
CONTINUOUS
 62
     7
100
AcDbLine
 10
-34.00000493867066
 20
68.99998373644665
 11
-31.99999182564858
 21
68.99998373644665
  0
LINE
  5
2f9
100
AcDbEntity
  8
0
  6
CONTINUOUS
 62
     7
100
AcDbLine
 10
33.99998314040016
 20
68.99997828687903
 11
33.99998314040016
 21
34.999978797776
  0
LINE
  5
2fa
100
AcDbEntity
  8
0
  6
CONTINUOUS
 62
     7
100
AcDbLine
 10
-33.99998314040022
 20
68.99997828687903
 11
-33.99998314040022
 21
34.999978797776
  0
LINE
  5
2fb
100
AcDbEntity
  8
0
  6
CONTINUOUS
 62
     7
100
AcDbLine
 10
31.99999182564858
 20
68.99998373644665
 11
34.00000493867066
 21
68.99998373644665
  0
LINE
  5
2fc
100
AcDbEntity
  8
0
  6
CONTINUOUS
 62
     7
100
AcDbLine
 10
36.99999191079803
 20
93.99997326305889
 11
36.99999191079803
 21
68.99997828687903
  0
LINE
  5
2fd
100
AcDbEntity
  8
0
  6
CONTINUOUS
 62
     7
100
AcDbLine
 10
-36.99999191079809
 20
93.99997326305889
 11
-36.99999191079809
 21
68.99997828687903
  0
LINE
  5
2fe
100
AcDbEntity
  8
0
  6
CONTINUOUS
 62
     7
100
AcDbLine
 10
-36.99999191079809
 20
68.99998373644665
 11
36.99999191079803
 21
68.99998373644665
  0
LINE
  5
2ff
100
AcDbEntity
  8
0
  6
CENTER
 62
     3
100
AcDbLine
 10
-34.93384667499223
 20
1.089913523033559e-005
 11
34.6797852471113
 21
1.089913523033559e-005
  0
LINE
  5
300
100
AcDbEntity
  8
0
  6
CENTER
 62
     3
100
AcDbLine
 10
0
 20
180.5132433433745
 11
0
 21
-61.38827292217992
  0
LINE
  5
301
100
AcDbEntity
  8
0
  6
CONTINUOUS
 62
     7
100
AcDbLine
 10
-25.00000042574749
 20
68.99997283731142
 11
-25.00000042574749
 21
34.99997334820838
  0
LINE
  5
302
100
AcDbEntity
  8
0
  6
CONTINUOUS
 62
     7
100
AcDbLine
 10
-33.00000928129487
 20
68.99997283731142
 11
-33.00000928129487
 21
34.99997334820838
  0
LINE
  5
303
100
AcDbEntity
  8
0
  6
CONTINUOUS
 62
     7
100
AcDbLine
 10
32.99998748302437
 20
68.99997283731142
 11
32.99998748302437
 21
34.99997334820838
  0
LINE
  5
304
100
AcDbEntity
  8
0
  6
CONTINUOUS
 62
     7
100
AcDbLine
 10
25.00000042574743
 20
68.99997283731142
 11
25.00000042574743
 21
34.99997334820838
  0
LINE
  5
305
100
AcDbEntity
  8
0
  6
CONTINUOUS
 62
     7
100
AcDbLine
 10
32.50000055347169
 20
-55.99999659402025
 11
-32.50000055347172
 21
-55.99999659402025
  0
LINE
  5
306
100
AcDbEntity
  8
0
  6
CONTINUOUS
 62
     7
100
AcDbLine
 10
-32.50000055347172
 20
-35.00002784388454
 11
-32.50000055347172
 21
-55.99999659402025
  0
LINE
  5
307
100
AcDbEntity
  8
0
  6
CONTINUOUS
 62
     7
100
AcDbLine
 10
32.50000055347169
 20
-35.00002784388454
 11
32.50000055347169
 21
-55.99999659402025
  0
LINE
  5
308
100
AcDbEntity
  8
0
  6
CONTINUOUS
 62
     7
100
AcDbLine
 10
-32.50000055347172
 20
-35.00000059604646
 11
32.50000055347169
 21
-35.00000059604646
  0
LINE
  5
309
100
AcDbEntity
  8
0
  6
CONTINUOUS
 62
     7
100
AcDbLine
 10
-40.00000068119596
 20
34.99997334820838
 11
-40.00000068119596
 21
-30.00000051089696
  0
LINE
  5
30a
100
AcDbEntity
  8
0
  6
CONTINUOUS
 62
     7
100
AcDbLine
 10
-40.00000068119596
 20
35.00000059604646
 11
40.00000068119596
 21
35.00000059604646
  0
LINE
  5
30b
100
AcDbEntity
  8
0
  6
CONTINUOUS
 62
     7
100
AcDbLine
 10
-40.00000068119596
 20
-30.00000051089696
 11
40.00000068119596
 21
-30.00000051089696
  0
LINE
  5
30c
100
AcDbEntity
  8
0
  6
CONTINUOUS
 62
     7
100
AcDbLine
 10
-30.00000051089697
 20
18.54103087738376
 11
-30.00000051089697
 21
-18.5410090791133
  0
LINE
  5
30d
100
AcDbEntity
  8
0
  6
CONTINUOUS
 62
     7
100
AcDbLine
 10
-5.000000085149509
 20
34.99997334820838
 11
-5.000000085149509
 21
29.72137095528277
  0
LINE
  5
30e
100
AcDbEntity
  8
0
  6
CONTINUOUS
 62
     7
100
AcDbLine
 10
-33.00000928129487
 20
-35.00000059604646
 11
33.0000310795653
 21
-35.00000059604646
  0
LINE
  5
30f
100
AcDbEntity
  8
0
  6
CONTINUOUS
 62
     7
100
AcDbLine
 10
-34.00001412500261
 20
-30.00000051089695
 11
-33.00000317384636
 21
-34.99996804064155
  0
LINE
  5
310
100
AcDbEntity
  8
0
  6
CONTINUOUS
 62
     7
100
AcDbLine
 10
40.00000068119596
 20
34.99997334820838
 11
40.00000068119596
 21
-30.00000051089696
  0
LINE
  5
311
100
AcDbEntity
  8
0
  6
CONTINUOUS
 62
     7
100
AcDbLine
 10
30.00000051089694
 20
18.54103087738378
 11
30.00000051089694
 21
-18.54100907911332
  0
LINE
  5
312
100
AcDbEntity
  8
0
  6
CONTINUOUS
 62
     7
100
AcDbLine
 10
5.000000085149452
 20
34.99997334820838
 11
5.000000085149452
 21
29.72137095528277
  0
LINE
  5
313
100
AcDbEntity
  8
0
  6
CONTINUOUS
 62
     7
100
AcDbLine
 10
34.00006875554809
 20
-30.00000051089695
 11
33.00004934627159
 21
-35.00001033050501
  0
LINE
  5
314
100
AcDbEntity
  8
0
  6
CENTER
 62
     3
100
AcDbLine
 10
31.57856586283555
 20
26.00000698225851
 11
42.47266569261319
 21
26.00000698225851
  0
LINE
  5
315
100
AcDbEntity
  8
0
  6
DASHED
 62
     3
100
AcDbLine
 10
34.00000493867066
 20
28.50000702483326
 11
40.00000068119596
 21
28.50000702483326
  0
LINE
  5
316
100
AcDbEntity
  8
0
  6
DASHED
 62
     3
100
AcDbLine
 10
34.00000493867066
 20
23.50000693968376
 11
40.00000068119596
 21
23.50000693968376
  0
LINE
  5
317
100
AcDbEntity
  8
0
  6
DASHED
 62
     7
100
AcDbLine
 10
34.00000493867066
 20
28.06699528127049
 11
40.00000068119596
 21
28.06699528127049
  0
LINE
  5
318
100
AcDbEntity
  8
0
  6
DASHED
 62
     7
100
AcDbLine
 10
34.00000493867066
 20
23.93302958238175
 11
40.00000068119596
 21
23.93302958238175
  0
LINE
  5
319
100
AcDbEntity
  8
0
  6
CONTINUOUS
 62
     7
100
AcDbLine
 10
-36.99999191079809
 20
81.99998177800829
 11
-18.99998288495175
 21
81.99998177800829
  0
LINE
  5
31a
100
AcDbEntity
  8
0
  6
CONTINUOUS
 62
     7
100
AcDbLine
 10
-18.99998288495175
 20
93.99998416219411
 11
-18.99998288495175
 21
81.99998177800829
  0
LINE
  5
31b
100
AcDbEntity
  8
0
  6
CONTINUOUS
 62
     7
100
AcDbLine
 10
-22.50000038317273
 20
84.00001668930082
 11
-35.50000932386962
 21
84.00001668930082
  0
LINE
  5
31c
100
AcDbEntity
  8
0
  6
CONTINUOUS
 62
     7
100
AcDbLine
 10
-22.50000038317273
 20
91.99998194830727
 11
-22.50000038317273
 21
81.99998177800829
  0
LINE
  5
31d
100
AcDbEntity
  8
0
  6
CENTER
 62
     3
100
AcDbLine
 10
-28.99998305525071
 20
93.46517449558078
 11
-28.99998305525071
 21
34.99999514647884
  0
LINE
  5
31e
100
AcDbEntity
  8
0
  6
CONTINUOUS
 62
     7
100
AcDbLine
 10
-22.50000038317273
 20
91.99998194830727
 11
-35.50000932386962
 21
91.99998194830727
  0
LINE
  5
31f
100
AcDbEntity
  8
0
  6
CONTINUOUS
 62
     7
100
AcDbLine
 10
-35.50000932386962
 20
91.99998194830727
 11
-35.50000932386962
 21
81.99998177800829
  0
LINE
  5
320
100
AcDbEntity
  8
0
  6
CONTINUOUS
 62
     7
100
AcDbLine
 10
-36.99999191079809
 20
93.99998416219411
 11
36.99999191079803
 21
93.99998416219411
  0
LINE
  5
321
100
AcDbEntity
  8
0
  6
CONTINUOUS
 62
     7
100
AcDbLine
 10
-20.99997419970333
 20
93.99997326305889
 11
-20.99997419970333
 21
132.0000262260442
  0
LINE
  5
322
100
AcDbEntity
  8
0
  6
CENTER
 62
     3
100
AcDbLine
 10
14.96595135698914
 20
110.9999430349885
 11
-15.05998909575584
 21
110.9999430349885
  0
LINE
  5
323
100
AcDbEntity
  8
0
  6
CENTER
 62
     3
100
AcDbLine
 10
-3.499973901680107
 20
113.0425499684904
 11
-3.499973901680107
 21
108.2924234576297
  0
LINE
  5
324
100
AcDbEntity
  8
0
  6
CENTER
 62
     3
100
AcDbLine
 10
3.49997390168005
 20
113.0425499684904
 11
3.49997390168005
 21
108.2924234576297
  0
LINE
  5
325
100
AcDbEntity
  8
0
  6
CONTINUOUS
 62
     7
100
AcDbLine
 10
20.99997419970333
 20
93.99997326305889
 11
20.99997419970333
 21
132.0000262260442
  0
LINE
  5
326
100
AcDbEntity
  8
0
  6
PHANTOM
 62
     3
100
AcDbLine
 10
25.75001351748216
 20
101.9999276229301
 11
20.99997419970333
 21
101.9999276229301
  0
LINE
  5
327
100
AcDbEntity
  8
0
  6
CENTER
 62
     3
100
AcDbLine
 10
25.7500353157526
 20
101.7499559564242
 11
20.99997419970333
 21
101.7499559564242
  0
LINE
  5
328
100
AcDbEntity
  8
0
  6
PHANTOM
 62
     3
100
AcDbLine
 10
25.75001351748216
 20
101.4999515925127
 11
20.99997419970333
 21
101.4999515925127
  0
LINE
  5
329
100
AcDbEntity
  8
0
  6
CONTINUOUS
 62
     7
100
AcDbLine
 10
25.7500353157526
 20
110.9999757323942
 11
25.7500353157526
 21
100.9999428646895
  0
LINE
  5
32a
100
AcDbEntity
  8
0
  6
CONTINUOUS
 62
     7
100
AcDbLine
 10
26.75003097312845
 20
100.9999428646895
 11
25.75001351748216
 21
100.9999428646895
  0
LINE
  5
32b
100
AcDbEntity
  8
0
  6
CONTINUOUS
 62
     7
100
AcDbLine
 10
26.75003097312845
 20
110.9999430349885
 11
26.75003097312845
 21
100.9999428646895
  0
LINE
  5
32c
100
AcDbEntity
  8
0
  6
CENTER
 62
     3
100
AcDbLine
 10
28.05620513739251
 20
105.999942949839
 11
20.99997419970333
 21
105.999942949839
  0
LINE
  5
32d
100
AcDbEntity
  8
0
  6
CONTINUOUS
 62
     7
100
AcDbLine
 10
26.75003097312845
 20
110.9999430349885
 11
25.75001351748216
 21
110.9999430349885
  0
LINE
  5
32e
100
AcDbEntity
  8
0
  6
CENTER
 62
     3
100
AcDbLine
 10
25.7500353157526
 20
110.2499517415243
 11
20.99997419970333
 21
110.2499517415243
  0
LINE
  5
32f
100
AcDbEntity
  8
0
  6
PHANTOM
 62
     3
100
AcDbLine
 10
25.5000091535706
 20
110.4999125088949
 11
20.99997419970333
 21
110.4999125088949
  0
LINE
  5
330
100
AcDbEntity
  8
0
  6
PHANTOM
 62
     3
100
AcDbLine
 10
25.5000091535706
 20
109.999958276748
 11
20.99997419970333
 21
109.999958276748
  0
LINE
  5
331
100
AcDbEntity
  8
0
  6
CONTINUOUS
 62
     7
100
AcDbLine
 10
25.75001351748216
 20
109.8500406716558
 11
20.99997419970333
 21
109.8500406716558
  0
LINE
  5
332
100
AcDbEntity
  8
0
  6
CONTINUOUS
 62
     7
100
AcDbLine
 10
25.75001351748216
 20
102.149976017645
 11
20.99997419970333
 21
102.149976017645
  0
LINE
  5
333
100
AcDbEntity
  8
0
  6
CONTINUOUS
 62
     7
100
AcDbLine
 10
20.99997419970333
 20
124.9999585321964
 11
-20.99997419970333
 21
124.9999585321964
  0
LINE
  5
334
100
AcDbEntity
  8
0
  6
CENTER
 62
     3
100
AcDbLine
 10
-15.99997411455382
 20
137.1055408393577
 11
-15.99997411455382
 21
132.0000262260442
  0
LINE
  5
335
100
AcDbEntity
  8
0
  6
CONTINUOUS
 62
     7
100
AcDbLine
 10
-20.99997419970333
 20
132.0000262260442
 11
-11.49957646852445
 21
132.0000262260442
  0
LINE
  5
336
100
AcDbEntity
  8
0
  6
CONTINUOUS
 62
     7
100
AcDbLine
 10
-19.49999161277486
 20
133.0000109842847
 11
-12.49997841460328
 21
133.0000109842847
  0
LINE
  5
337
100
AcDbEntity
  8
0
  6
CONTINUOUS
 62
     7
100
AcDbLine
 10
-19.49999161277486
 20
134.3000216875761
 11
-19.49999161277486
 21
132.0000262260442
  0
LINE
  5
338
100
AcDbEntity
  8
0
  6
CONTINUOUS
 62
     7
100
AcDbLine
 10
-20.00002733995259
 20
175.9999877384728
 11
-21.00001250525014
 21
131.9999954661391
  0
LINE
  5
339
100
AcDbEntity
  8
0
  6
CONTINUOUS
 62
     7
100
AcDbLine
 10
-12.49997841460328
 20
134.3000216875761
 11
-12.49997841460328
 21
132.0000262260442
  0
LINE
  5
33a
100
AcDbEntity
  8
0
  6
CONTINUOUS
 62
     7
100
AcDbLine
 10
-10.80049579591264
 20
175.9999877384728
 11
-11.49957646852445
 21
132.0000262260441
  0
LINE
  5
33b
100
AcDbEntity
  8
0
  6
CONTINUOUS
 62
     7
100
AcDbLine
 10
-8.799765600472995
 20
173.5000094941686
 11
-8.799765600472995
 21
125.9999759878427
  0
LINE
  5
33c
100
AcDbEntity
  8
0
  6
CONTINUOUS
 62
     7
100
AcDbLine
 10
-8.799765600472995
 20
125.9999650887075
 11
8.800027179718484
 21
125.9999650887075
  0
LINE
  5
33d
100
AcDbEntity
  8
0
  6
CONTINUOUS
 62
     7
100
AcDbLine
 10
-7.199881540023966
 20
173.5000094941686
 11
-7.199881540023966
 21
125.9999759878427
  0
LINE
  5
33e
100
AcDbEntity
  8
0
  6
CONTINUOUS
 62
     7
100
AcDbLine
 10
-4.799913760592517
 20
173.5000094941686
 11
-4.799913760592517
 21
125.9999759878427
  0
LINE
  5
33f
100
AcDbEntity
  8
0
  6
CONTINUOUS
 62
     7
100
AcDbLine
 10
-3.199877112250306
 20
173.5000094941686
 11
-3.199877112250306
 21
125.9999759878427
  0
LINE
  5
340
100
AcDbEntity
  8
0
  6
CONTINUOUS
 62
     7
100
AcDbLine
 10
-0.7998875345483612
 20
173.5000094941686
 11
-0.7998875345483612
 21
125.9999759878427
  0
LINE
  5
341
100
AcDbEntity
  8
0
  6
CONTINUOUS
 62
     7
100
AcDbLine
 10
0.7999965259006103
 20
173.5000094941686
 11
0.7999965259006103
 21
125.9999759878427
  0
LINE
  5
342
100
AcDbEntity
  8
0
  6
CONTINUOUS
 62
     7
100
AcDbLine
 10
3.199920708791183
 20
173.5000094941686
 11
3.199920708791183
 21
125.9999759878427
  0
LINE
  5
343
100
AcDbEntity
  8
0
  6
CONTINUOUS
 62
     7
100
AcDbLine
 10
4.800197138108445
 20
173.5000094941686
 11
4.800197138108445
 21
125.9999759878427
  0
LINE
  5
344
100
AcDbEntity
  8
0
  6
CONTINUOUS
 62
     7
100
AcDbLine
 10
7.200164917539951
 20
173.5000094941686
 11
7.200164917539951
 21
125.9999759878427
  0
LINE
  5
345
100
AcDbEntity
  8
0
  6
CONTINUOUS
 62
     7
100
AcDbLine
 10
8.800027179718484
 20
173.5000094941686
 11
8.800027179718484
 21
125.9999759878427
  0
LINE
  5
346
100
AcDbEntity
  8
0
  6
CONTINUOUS
 62
     7
100
AcDbLine
 10
10.80034128655584
 20
175.9999877384728
 11
11.49942195916764
 21
132.0000262260441
  0
LINE
  5
347
100
AcDbEntity
  8
0
  6
CONTINUOUS
 62
     7
100
AcDbLine
 10
20.99997419970333
 20
132.0000262260442
 11
11.49942195916764
 21
132.0000262260442
  0
LINE
  5
348
100
AcDbEntity
  8
0
  6
CONTINUOUS
 62
     7
100
AcDbLine
 10
20.00002127284277
 20
175.9999877384728
 11
21.00000582670601
 21
132.0000223696436
  0
LINE
  5
349
100
AcDbEntity
  8
0
  6
CONTINUOUS
 62
     7
100
AcDbLine
 10
-20.00002733995259
 20
175.9999877384729
 11
-9.213364411844941
 21
175.9999877384729
  0
LINE
  5
34a
100
AcDbEntity
  8
0
  6
CONTINUOUS
 62
     7
100
AcDbLine
 10
-9.213364411844939
 20
175.9999877384729
 11
-8.79976477384227
 21
173.5000170618037
  0
LINE
  5
34b
100
AcDbEntity
  8
0
  6
CONTINUOUS
 62
     7
100
AcDbLine
 10
-8.800027179718484
 20
173.4999876958981
 11
-7.1999251365649
 21
173.4999876958981
  0
LINE
  5
34c
100
AcDbEntity
  8
0
  6
CONTINUOUS
 62
     7
100
AcDbLine
 10
-7.199899033675965
 20
173.4999659007679
 11
-6.786290000280761
 21
175.9999877384728
  0
LINE
  5
34d
100
AcDbEntity
  8
0
  6
CONTINUOUS
 62
     7
100
AcDbLine
 10
-6.786290000280769
 20
175.9999877384729
 11
-5.213519499848148
 21
175.9999877384729
  0
LINE
  5
34e
100
AcDbEntity
  8
0
  6
CONTINUOUS
 62
     7
100
AcDbLine
 10
-5.21351949984815
 20
175.9999877384729
 11
-4.799922078634477
 21
173.5000360895332
  0
LINE
  5
34f
100
AcDbEntity
  8
0
  6
CENTER
 62
     3
100
AcDbLine
 10
22.28153811661753
 20
171.4999527846056
 11
11.54309973619832
 21
171.4999527846056
  0
LINE
  5
350
100
AcDbEntity
  8
0
  6
DASHED
 62
     7
100
AcDbLine
 10
20.16233206071735
 20
172.4999266437109
 11
12.25971787758755
 21
172.4999266437109
  0
LINE
  5
351
100
AcDbEntity
  8
0
  6
DASHED
 62
     7
100
AcDbLine
 10
20.19762346059292
 20
170.4999571272298
 11
12.25971787758755
 21
170.4999571272298
  0
LINE
  5
352
100
AcDbEntity
  8
0
  6
CONTINUOUS
 62
     7
100
AcDbLine
 10
20.00002127284278
 20
175.9999877384729
 11
9.213594892926855
 21
175.9999877384729
  0
LINE
  5
353
100
AcDbEntity
  8
0
  6
CONTINUOUS
 62
     7
100
AcDbLine
 10
9.213594892926853
 20
175.9999877384729
 11
8.799985328097215
 21
173.4999570598741
  0
LINE
  5
354
100
AcDbEntity
  8
0
  6
CONTINUOUS
 62
     7
100
AcDbLine
 10
8.800070776259361
 20
173.4999876958981
 11
7.1999251365649
 21
173.4999876958981
  0
LINE
  5
355
100
AcDbEntity
  8
0
  6
CONTINUOUS
 62
     7
100
AcDbLine
 10
7.20016501483757
 20
173.5000038435668
 11
6.78656334102223
 21
175.9999877384729
  0
LINE
  5
356
100
AcDbEntity
  8
0
  6
CONTINUOUS
 62
     7
100
AcDbLine
 10
6.786563341022235
 20
175.9999877384729
 11
5.213835768163782
 21
175.9999877384729
  0
LINE
  5
357
100
AcDbEntity
  8
0
  6
CONTINUOUS
 62
     7
100
AcDbLine
 10
5.213835768163783
 20
175.9999877384729
 11
4.800228917496941
 21
173.499973465419
  0
LINE
  5
358
100
AcDbEntity
  8
0
  6
CONTINUOUS
 62
     7
100
AcDbLine
 10
4.800022751944766
 20
173.4999876958981
 11
3.199964305332117
 21
173.4999876958981
  0
LINE
  5
359
100
AcDbEntity
  8
0
  6
CONTINUOUS
 62
     7
100
AcDbLine
 10
2.786296079913051
 20
175.9999877384729
 11
3.199905072709676
 21
173.4999596045405
  0
LINE
  5
35a
100
AcDbEntity
  8
0
  6
CONTINUOUS
 62
     7
100
AcDbLine
 10
2.786296079913051
 20
175.9999877384729
 11
1.213624853007227
 21
175.9999877384729
  0
LINE
  5
35b
100
AcDbEntity
  8
0
  6
CONTINUOUS
 62
     7
100
AcDbLine
 10
1.213624853007229
 20
175.9999877384729
 11
0.8000219480998112
 21
173.4999935124965
  0
LINE
  5
35c
100
AcDbEntity
  8
0
  6
CONTINUOUS
 62
     7
100
AcDbLine
 10
0.8000619207120394
 20
173.4999876958981
 11
2.179827043846672e-005
 21
173.4999876958981
  0
LINE
  5
35d
100
AcDbEntity
  8
0
  6
CONTINUOUS
 62
     7
100
AcDbLine
 10
-0.8000401224416009
 20
173.4999876958981
 11
2.179827043846672e-005
 21
173.4999876958981
  0
LINE
  5
35e
100
AcDbEntity
  8
0
  6
CONTINUOUS
 62
     7
100
AcDbLine
 10
-1.213392570995826
 20
175.9999877384729
 11
-0.7997872646751816
 21
173.4999733686495
  0
LINE
  5
35f
100
AcDbEntity
  8
0
  6
CONTINUOUS
 62
     7
100
AcDbLine
 10
-2.786257528568973
 20
175.9999877384729
 11
-1.213392570995823
 21
175.9999877384729
  0
LINE
  5
360
100
AcDbEntity
  8
0
  6
CONTINUOUS
 62
     7
100
AcDbLine
 10
-2.786257528568974
 20
175.9999877384729
 11
-3.199862774065064
 21
173.4999784520328
  0
LINE
  5
361
100
AcDbEntity
  8
0
  6
CONTINUOUS
 62
     7
100
AcDbLine
 10
-4.800022751944823
 20
173.4999876958981
 11
-3.199942507061678
 21
173.4999876958981
  0
LINE
  5
362
100
AcDbEntity
  8
0
  6
CENTER
 62
     3
100
AcDbLine
 10
-40.68176337650846
 20
31.00000059604646
 11
-29.47848578861783
 21
31.00000059604646
  0
LINE
  5
363
100
AcDbEntity
  8
0
  6
DASHED
 62
     7
100
AcDbLine
 10
-37.00000068119596
 20
33.94999754428864
 11
-37.00000068119596
 21
28.05000364780427
  0
LINE
  5
364
100
AcDbEntity
  8
0
  6
DASHED
 62
     7
100
AcDbLine
 10
-40.00000068119596
 20
28.05000364780427
 11
-37.00000068119596
 21
28.05000364780427
  0
LINE
  5
365
100
AcDbEntity
  8
0
  6
DASHED
 62
     7
100
AcDbLine
 10
-40.00000068119596
 20
33.94999754428864
 11
-37.00000068119596
 21
33.94999754428864
  0
LINE
  5
366
100
AcDbEntity
  8
0
  6
DASHED
 62
     7
100
AcDbLine
 10
-36.16284247807096
 20
29.50000059604646
 11
-30.00000068119596
 21
29.50000059604646
  0
LINE
  5
367
100
AcDbEntity
  8
0
  6
DASHED
 62
     7
100
AcDbLine
 10
-36.16284247807096
 20
32.50000059604646
 11
-30.00000068119596
 21
32.50000059604646
  0
LINE
  5
368
100
AcDbEntity
  8
0
  6
DASHED
 62
     7
100
AcDbLine
 10
-37.00000068434907
 20
28.05000440189087
 11
-36.16284485414076
 21
29.50000080763929
  0
LINE
  5
369
100
AcDbEntity
  8
0
  6
DASHED
 62
     7
100
AcDbLine
 10
-36.99999758490749
 20
33.94999152950128
 11
-36.162846999908
 21
32.50000420872085
  0
LINE
  5
36a
100
AcDbEntity
  8
0
  6
DASHED
 62
     7
100
AcDbLine
 10
-36.16284247807096
 20
32.50000059604646
 11
-36.16284247807096
 21
29.50000059604646
  0
LINE
  5
36b
100
AcDbEntity
  8
0
  6
CONTINUOUS
 62
     7
100
AcDbLine
 10
12.49997841460328
 20
134.3000216875761
 11
12.49997841460328
 21
132.0000262260442
  0
LINE
  5
36c
100
AcDbEntity
  8
0
  6
CONTINUOUS
 62
     7
100
AcDbLine
 10
19.49999161277486
 20
134.3000216875761
 11
19.49999161277486
 21
132.0000262260442
  0
LINE
  5
36d
100
AcDbEntity
  8
0
  6
CONTINUOUS
 62
     7
100
AcDbLine
 10
19.49999161277486
 20
133.0000109842847
 11
12.49997841460328
 21
133.0000109842847
  0
LINE
  5
36e
100
AcDbEntity
  8
0
  6
CENTER
 62
     3
100
AcDbLine
 10
15.99997411455382
 20
137.1055408393577
 11
15.99997411455382
 21
132.0000262260442
  0
LINE
  5
36f
100
AcDbEntity
  8
0
  6
CONTINUOUS
 62
     7
100
AcDbLine
 10
35.50000932386962
 20
91.99998194830727
 11
35.50000932386962
 21
81.99998177800829
  0
LINE
  5
370
100
AcDbEntity
  8
0
  6
CONTINUOUS
 62
     7
100
AcDbLine
 10
22.50000038317273
 20
91.99998194830727
 11
35.50000932386962
 21
91.99998194830727
  0
LINE
  5
371
100
AcDbEntity
  8
0
  6
CENTER
 62
     3
100
AcDbLine
 10
28.99998305525071
 20
93.46517449558078
 11
28.99998305525071
 21
34.99999514647884
  0
LINE
  5
372
100
AcDbEntity
  8
0
  6
CONTINUOUS
 62
     7
100
AcDbLine
 10
22.50000038317273
 20
91.99998194830727
 11
22.50000038317273
 21
81.99998177800829
  0
LINE
  5
373
100
AcDbEntity
  8
0
  6
CONTINUOUS
 62
     7
100
AcDbLine
 10
22.50000038317273
 20
84.00001668930082
 11
35.50000932386962
 21
84.00001668930082
  0
LINE
  5
374
100
AcDbEntity
  8
0
  6
CONTINUOUS
 62
     7
100
AcDbLine
 10
18.99998288495175
 20
93.99998416219411
 11
18.99998288495175
 21
81.99998177800829
  0
LINE
  5
375
100
AcDbEntity
  8
0
  6
CONTINUOUS
 62
     7
100
AcDbLine
 10
36.99999191079809
 20
81.99998177800829
 11
18.99998288495175
 21
81.99998177800829
  0
ARC
  5
376
100
AcDbEntity
  8
0
  6
CONTINUOUS
 62
     7
100
AcDbCircle
 10
0
 20
-14.99998935631325
 40
45.00000076634544
100
AcDbArc
 50
48.18968510422144
 51
131.8103148957786
  0
ARC
  5
377
100
AcDbEntity
  8
0
  6
CONTINUOUS
 62
     7
100
AcDbCircle
 10
0
 20
15.00001115458371
 40
45.00000076634544
100
AcDbArc
 50
228.1896851042221
 51
311.8103148957792
  0
CIRCLE
  5
378
100
AcDbEntity
  8
0
  6
CONTINUOUS
 62
     3
100
AcDbCircle
 10
0
 20
1.089913523033559e-005
 40
24.35185337665853
  0
CIRCLE
  5
379
100
AcDbEntity
  8
0
  6
CONTINUOUS
 62
     7
100
AcDbCircle
 10
0
 20
1.089913523033559e-005
 40
22.87194699682418
  0
CIRCLE
  5
37a
100
AcDbEntity
  8
0
  6
CONTINUOUS
 62
     7
100
AcDbCircle
 10
0
 20
110.9999430349885
 40
13.49999587024954
  0
CIRCLE
  5
37b
100
AcDbEntity
  8
0
  6
CONTINUOUS
 62
     7
100
AcDbCircle
 10
0
 20
110.9999430349885
 40
12.00000374657774
  0
CIRCLE
  5
37c
100
AcDbEntity
  8
0
  6
CONTINUOUS
 62
     7
100
AcDbCircle
 10
-3.499973901680107
 20
110.9999430349885
 40
1.250000021287373
  0
CIRCLE
  5
37d
100
AcDbEntity
  8
0
  6
CONTINUOUS
 62
     7
100
AcDbCircle
 10
3.49997390168005
 20
110.9999430349885
 40
1.250000021287373
  0
CIRCLE
  5
37e
100
AcDbEntity
  8
0
  6
CONTINUOUS
 62
     7
100
AcDbCircle
 10
25.5000091535706
 20
110.2499735397947
 40
0.250000127724241
  0
ARC
  5
37f
100
AcDbEntity
  8
0
  6
CONTINUOUS
 62
     7
100
AcDbCircle
 10
25.75001351748216
 20
101.7499559564242
 40
0.250000127724241
100
AcDbArc
 50
90.00003665542432
 51
270.0087160046273
  0
ARC
  5
380
100
AcDbEntity
  8
0
  6
CONTINUOUS
 62
     7
100
AcDbCircle
 10
-15.99998501368907
 20
130.2385096022844
 40
5.361522788594228
100
AcDbArc
 50
49.24689214691645
 51
130.7531078530836
  0
ARC
  5
381
100
AcDbEntity
  8
0
  6
CONTINUOUS
 62
     7
100
AcDbCircle
 10
15.99998501368907
 20
130.2385096022844
 40
5.361522788594228
100
AcDbArc
 50
49.24689214691649
 51
130.7531078530836
  0
MTEXT
  5
382
100
AcDbEntity
  8
0
  6
CONTINUOUS
 62
     7
100
AcDbMText
 10
-21.38883116650811
 20
76.52113495559308
 40
0.5
 41
36
 71
     7
 72
     1
  1
{\W0.8426;ＢＮ－５ＢＰ２１－４０－Ｅ／Ｆ＊＊＊}
  0
INSERT
  5
383
100
AcDbEntity
  8
0
  6
CONTINUOUS
 62
     7
100
AcDbBlockReference
  2
KOZU0010
 10
0
 20
0
  0
INSERT
  5
384
100
AcDbEntity
  8
0
  6
CONTINUOUS
 62
     3
100
AcDbBlockReference
  2
KOZU0011
 10
0
 20
0
  0
ENDBLK
  8
0
  5
385
100
AcDbEntity
100
AcDbBlockEnd
  0
BLOCK
  8
0
  5
386
100
AcDbEntity
100
AcDbBlockBegin
  2
KOZU0005
 70
    64
 10
0
 20
0
  0
POINT
  5
387
100
AcDbEntity
  8
0
  6
CONTINUOUS
 62
     7
100
AcDbPoint
 10
0
 20
0
  0
LINE
  5
388
100
AcDbEntity
  8
0
  6
CENTER
 62
     3
100
AcDbLine
 10
68.28003045967699
 20
-1.089913523033559e-005
 11
-68.07861444062189
 21
-1.089913523033559e-005
  0
LINE
  5
389
100
AcDbEntity
  8
0
  6
CONTINUOUS
 62
     7
100
AcDbLine
 10
-32.50000055347169
 20
-35.00003874301977
 11
-32.50000055347169
 21
-56.0000183922907
  0
LINE
  5
38a
100
AcDbEntity
  8
0
  6
CONTINUOUS
 62
     7
100
AcDbLine
 10
32.50000055347169
 20
-35.00003874301977
 11
32.50000055347169
 21
-56.0000183922907
  0
LINE
  5
38b
100
AcDbEntity
  8
0
  6
CONTINUOUS
 62
     7
100
AcDbLine
 10
-65.00000110694344
 20
29.9999787126265
 11
-65.00000110694344
 21
-30.00002230916743
  0
LINE
  5
38c
100
AcDbEntity
  8
0
  6
CONTINUOUS
 62
     7
100
AcDbLine
 10
65.00000110694344
 20
29.9999787126265
 11
65.00000110694344
 21
-30.00002230916743
  0
LINE
  5
38d
100
AcDbEntity
  8
0
  6
CONTINUOUS
 62
     7
100
AcDbLine
 10
46.00001822199175
 20
34.999978797776
 11
-46.0000182219917
 21
34.999978797776
  0
LINE
  5
38e
100
AcDbEntity
  8
0
  6
CONTINUOUS
 62
     7
100
AcDbLine
 10
-46.0000182219917
 20
34.99996244907315
 11
-46.0000182219917
 21
29.9999787126265
  0
LINE
  5
38f
100
AcDbEntity
  8
0
  6
CONTINUOUS
 62
     7
100
AcDbLine
 10
46.00001822199175
 20
34.99996244907315
 11
46.00001822199175
 21
29.9999787126265
  0
LINE
  5
390
100
AcDbEntity
  8
0
  6
CONTINUOUS
 62
     7
100
AcDbLine
 10
65.00000110694344
 20
29.9999787126265
 11
40.00000068119596
 21
29.9999787126265
  0
LINE
  5
391
100
AcDbEntity
  8
0
  6
CONTINUOUS
 62
     7
100
AcDbLine
 10
-40.00000068119596
 20
29.9999787126265
 11
-65.00000110694344
 21
29.9999787126265
  0
LINE
  5
392
100
AcDbEntity
  8
0
  6
CONTINUOUS
 62
     7
100
AcDbLine
 10
65.00000110694344
 20
-30.00002230916743
 11
-65.00000110694344
 21
-30.00002230916743
  0
LINE
  5
393
100
AcDbEntity
  8
0
  6
CONTINUOUS
 62
     7
100
AcDbLine
 10
33.00000928129487
 20
-35.00002239431692
 11
-33.00005287783574
 21
-35.00002239431692
  0
LINE
  5
394
100
AcDbEntity
  8
0
  6
CONTINUOUS
 62
     7
100
AcDbLine
 10
34.0000022458445
 20
-30.00002230916742
 11
33.00000125629131
 21
-35.00002695300784
  0
LINE
  5
395
100
AcDbEntity
  8
0
  6
CONTINUOUS
 62
     7
100
AcDbLine
 10
-34.00004210494708
 20
-30.00002230916742
 11
-33.00004330349326
 21
-35.00001601251168
  0
LINE
  5
396
100
AcDbEntity
  8
0
  6
DASHED
 62
     7
100
AcDbLine
 10
-45.99278536873784
 20
22.20819578550917
 11
-65.00001621125438
 21
22.87194288139315
  0
LINE
  5
397
100
AcDbEntity
  8
0
  6
DASHED
 62
     7
100
AcDbLine
 10
-45.99999940377092
 20
-22.20848221224209
 11
-64.99999762909479
 21
-22.87197673958009
  0
LINE
  5
398
100
AcDbEntity
  8
0
  6
DASHED
 62
     3
100
AcDbLine
 10
-45.49178824391235
 20
23.67060112338226
 11
-64.94835632202275
 21
24.3500394205606
  0
LINE
  5
399
100
AcDbEntity
  8
0
  6
DASHED
 62
     3
100
AcDbLine
 10
-45.49181247098728
 20
-23.67065828805799
 11
-64.94838054909768
 21
-24.35009658523632
  0
LINE
  5
39a
100
AcDbEntity
  8
0
  6
DASHED
 62
     7
100
AcDbLine
 10
46.00003048615919
 20
-22.20849696632296
 11
65.00002871148298
 21
-22.87199149366095
  0
LINE
  5
39b
100
AcDbEntity
  8
0
  6
DASHED
 62
     7
100
AcDbLine
 10
46.00000628880106
 20
22.20843895067099
 11
65.00000451412485
 21
22.87193347800898
  0
LINE
  5
39c
100
AcDbEntity
  8
0
  6
DASHED
 62
     3
100
AcDbLine
 10
45.49180114828867
 20
-23.6706381623733
 11
64.94836922639912
 21
-24.35007645955164
  0
LINE
  5
39d
100
AcDbEntity
  8
0
  6
DASHED
 62
     3
100
AcDbLine
 10
45.4918193857341
 20
23.67061417551067
 11
64.94838746384444
 21
24.350052472689
  0
LINE
  5
39e
100
AcDbEntity
  8
0
  6
CENTER
 62
     3
100
AcDbLine
 10
0
 20
177.9084372164256
 11
0
 21
-60.49767733467779
  0
LINE
  5
39f
100
AcDbEntity
  8
0
  6
CONTINUOUS
 62
     7
100
AcDbLine
 10
-40.00000068119596
 20
34.999978797776
 11
-40.00000068119596
 21
-30.00002230916743
  0
LINE
  5
3a0
100
AcDbEntity
  8
0
  6
CONTINUOUS
 62
     7
100
AcDbLine
 10
40.00000068119596
 20
34.999978797776
 11
40.00000068119596
 21
-30.00002230916743
  0
LINE
  5
3a1
100
AcDbEntity
  8
0
  6
CONTINUOUS
 62
     7
100
AcDbLine
 10
65.00000110694344
 20
-18.54102030040571
 11
40.00000068119596
 21
-18.54102030040571
  0
LINE
  5
3a2
100
AcDbEntity
  8
0
  6
CONTINUOUS
 62
     7
100
AcDbLine
 10
65.00000110694344
 20
18.54102030040571
 11
40.00000068119596
 21
18.54102030040571
  0
LINE
  5
3a3
100
AcDbEntity
  8
0
  6
CONTINUOUS
 62
     7
100
AcDbLine
 10
-40.00000068119596
 20
18.54102030040571
 11
-65.00000110694344
 21
18.54102030040571
  0
LINE
  5
3a4
100
AcDbEntity
  8
0
  6
CONTINUOUS
 62
     7
100
AcDbLine
 10
-40.00000068119596
 20
-18.54102030040571
 11
-65.00000110694344
 21
-18.54102030040571
  0
LINE
  5
3a5
100
AcDbEntity
  8
0
  6
CONTINUOUS
 62
     7
100
AcDbLine
 10
-36.99999191079809
 20
93.99996236392366
 11
36.99999191079809
 21
93.99996236392366
  0
LINE
  5
3a6
100
AcDbEntity
  8
0
  6
CONTINUOUS
 62
     7
100
AcDbLine
 10
26.00001788139372
 20
131.9999499320975
 11
26.00001788139372
 21
93.99996236392366
  0
LINE
  5
3a7
100
AcDbEntity
  8
0
  6
CONTINUOUS
 62
     7
100
AcDbLine
 10
27.00006905629497
 20
98.74994654699178
 11
26.00006904820575
 21
97.99994652229842
  0
LINE
  5
3a8
100
AcDbEntity
  8
0
  6
CONTINUOUS
 62
     7
100
AcDbLine
 10
27.00007893358094
 20
117.2499649396958
 11
27.00007893358094
 21
98.74993628689111
  0
LINE
  5
3a9
100
AcDbEntity
  8
0
  6
CONTINUOUS
 62
     7
100
AcDbLine
 10
26.00014133916411
 20
117.9999568841147
 11
27.00015878586957
 21
117.2499437804588
  0
LINE
  5
3aa
100
AcDbEntity
  8
0
  6
DASHED
 62
     3
100
AcDbLine
 10
19.700082279956
 20
114.5055307274235
 11
26.97020601019248
 21
114.7594090305095
  0
LINE
  5
3ab
100
AcDbEntity
  8
0
  6
DASHED
 62
     7
100
AcDbLine
 10
19.700082279956
 20
113.6490235828833
 11
27.00007946786851
 21
113.90394509005
  0
LINE
  5
3ac
100
AcDbEntity
  8
0
  6
CENTER
 62
     3
100
AcDbLine
 10
27.93151903035846
 20
107.9999560628611
 11
19.70008227995601
 21
107.9999560628611
  0
LINE
  5
3ad
100
AcDbEntity
  8
0
  6
DASHED
 62
     3
100
AcDbLine
 10
19.70008227995601
 20
101.4944083618788
 11
26.97024311410316
 21
101.2405287630957
  0
LINE
  5
3ae
100
AcDbEntity
  8
0
  6
DASHED
 62
     7
100
AcDbLine
 10
19.700082279956
 20
102.3509373179764
 11
27.00007376254477
 21
102.096016010044
  0
LINE
  5
3af
100
AcDbEntity
  8
0
  6
CONTINUOUS
 62
     7
100
AcDbLine
 10
18.70008227995601
 20
117.6999466368121
 11
18.70008227995601
 21
99.29993934801543
  0
LINE
  5
3b0
100
AcDbEntity
  8
0
  6
CONTINUOUS
 62
     7
100
AcDbLine
 10
-18.69995149033326
 20
117.6999575359474
 11
18.70008227995606
 21
117.6999575359474
  0
LINE
  5
3b1
100
AcDbEntity
  8
0
  6
CONTINUOUS
 62
     7
100
AcDbLine
 10
-18.69995149033326
 20
117.6999466368121
 11
-18.69995149033326
 21
99.29993934801543
  0
LINE
  5
3b2
100
AcDbEntity
  8
0
  6
CONTINUOUS
 62
     7
100
AcDbLine
 10
-18.69995149033326
 20
99.29993934801543
 11
18.70008227995606
 21
99.29993934801543
  0
LINE
  5
3b3
100
AcDbEntity
  8
0
  6
DASHED
 62
     3
100
AcDbLine
 10
-29.00002665179164
 20
121.4999519331106
 11
-20.18934011781795
 21
121.4999519331106
  0
LINE
  5
3b4
100
AcDbEntity
  8
0
  6
DASHED
 62
     3
100
AcDbLine
 10
-29.00002665179164
 20
120.2999680433949
 11
-20.18934011781795
 21
120.2999680433949
  0
LINE
  5
3b5
100
AcDbEntity
  8
0
  6
DASHED
 62
     3
100
AcDbLine
 10
-29.00002665179164
 20
101.6999398248526
 11
-20.18934011781795
 21
101.6999398248526
  0
LINE
  5
3b6
100
AcDbEntity
  8
0
  6
DASHED
 62
     3
100
AcDbLine
 10
-29.00002665179164
 20
100.4999450360016
 11
-20.18934011781795
 21
100.4999450360016
  0
LINE
  5
3b7
100
AcDbEntity
  8
0
  6
CENTER
 62
     3
100
AcDbLine
 10
-6.000017540795739
 20
105.999942949839
 11
6.000017540795739
 21
105.999942949839
  0
LINE
  5
3b8
100
AcDbEntity
  8
0
  6
CONTINUOUS
 62
     7
100
AcDbLine
 10
6.000017540795739
 20
105.999942949839
 11
6.000017540795739
 21
99.29993934801543
  0
LINE
  5
3b9
100
AcDbEntity
  8
0
  6
CONTINUOUS
 62
     7
100
AcDbLine
 10
-6.000017540795739
 20
105.999942949839
 11
-6.000017540795739
 21
99.29993934801543
  0
LINE
  5
3ba
100
AcDbEntity
  8
0
  6
CONTINUOUS
 62
     7
100
AcDbLine
 10
-25.99997428485284
 20
131.9999499320975
 11
-25.99997428485284
 21
93.99996236392366
  0
LINE
  5
3bb
100
AcDbEntity
  8
0
  6
CONTINUOUS
 62
     7
100
AcDbLine
 10
-28.99998305525071
 20
97.49993626560375
 11
-25.99988709177097
 21
97.49993626560375
  0
LINE
  5
3bc
100
AcDbEntity
  8
0
  6
CONTINUOUS
 62
     7
100
AcDbLine
 10
-29.00002665179164
 20
98.99995154993792
 11
-32.00003542218951
 21
98.99995154993792
  0
LINE
  5
3bd
100
AcDbEntity
  8
0
  6
CONTINUOUS
 62
     7
100
AcDbLine
 10
-28.99998305525071
 20
124.4999498043733
 11
-28.99998305525071
 21
97.49993626560375
  0
LINE
  5
3be
100
AcDbEntity
  8
0
  6
CONTINUOUS
 62
     7
100
AcDbLine
 10
-32.00003542218951
 20
122.9999563183096
 11
-32.00003542218951
 21
98.99995154993792
  0
LINE
  5
3bf
100
AcDbEntity
  8
0
  6
CONTINUOUS
 62
     7
100
AcDbLine
 10
-46.6590235345538
 20
112.2499430562759
 11
-32.00003542218951
 21
112.2499430562759
  0
LINE
  5
3c0
100
AcDbEntity
  8
0
  6
CONTINUOUS
 62
     7
100
AcDbLine
 10
-46.6590235345538
 20
109.7499430137011
 11
-32.00003542218951
 21
109.7499430137011
  0
LINE
  5
3c1
100
AcDbEntity
  8
0
  6
CONTINUOUS
 62
     7
100
AcDbLine
 10
-25.99997428485284
 20
124.999936733926
 11
26.00001788139372
 21
124.999936733926
  0
LINE
  5
3c2
100
AcDbEntity
  8
0
  6
CENTER
 62
     3
100
AcDbLine
 10
-21.99999165534962
 20
137.222946324058
 11
-21.99999165534962
 21
131.9999499320975
  0
LINE
  5
3c3
100
AcDbEntity
  8
0
  6
CONTINUOUS
 62
     7
100
AcDbLine
 10
-28.99998305525071
 20
124.4999498043733
 11
-25.99988709177097
 21
124.4999498043733
  0
LINE
  5
3c4
100
AcDbEntity
  8
0
  6
CONTINUOUS
 62
     7
100
AcDbLine
 10
-29.00002665179164
 20
122.9999563183096
 11
-32.00003542218951
 21
122.9999563183096
  0
LINE
  5
3c5
100
AcDbEntity
  8
0
  6
CONTINUOUS
 62
     7
100
AcDbLine
 10
-46.6590235345538
 20
112.2499539554111
 11
-46.6590235345538
 21
109.7499539128364
  0
LINE
  5
3c6
100
AcDbEntity
  8
0
  6
CONTINUOUS
 62
     7
100
AcDbLine
 10
-46.65901991459099
 20
111.6249354738871
 11
-51.65902329200306
 21
113.4447877810866
  0
LINE
  5
3c7
100
AcDbEntity
  8
0
  6
CONTINUOUS
 62
     7
100
AcDbLine
 10
-46.65901275469317
 20
110.3749145349254
 11
-51.65903661577923
 21
108.5550547722787
  0
LINE
  5
3c8
100
AcDbEntity
  8
0
  6
CONTINUOUS
 62
     7
100
AcDbLine
 10
-25.9999746440089
 20
131.9999538467287
 11
-24.99999058404053
 21
175.9999768393376
  0
LINE
  5
3c9
100
AcDbEntity
  8
0
  6
CONTINUOUS
 62
     7
100
AcDbLine
 10
-25.99997428485284
 20
131.9999499320975
 11
-17.49920991850204
 21
131.9999499320975
  0
LINE
  5
3ca
100
AcDbEntity
  8
0
  6
CONTINUOUS
 62
     7
100
AcDbLine
 10
-16.50051175130782
 20
175.9999768393376
 11
-17.49920991850204
 21
131.9999499320975
  0
LINE
  5
3cb
100
AcDbEntity
  8
0
  6
CONTINUOUS
 62
     7
100
AcDbLine
 10
-18.49997415712858
 20
132.9999455894734
 11
-25.5000091535706
 21
132.9999455894734
  0
LINE
  5
3cc
100
AcDbEntity
  8
0
  6
CONTINUOUS
 62
     7
100
AcDbLine
 10
-18.49997415712858
 20
134.2999508431971
 11
-18.49997415712858
 21
131.9999499320975
  0
LINE
  5
3cd
100
AcDbEntity
  8
0
  6
CONTINUOUS
 62
     7
100
AcDbLine
 10
-25.5000091535706
 20
134.2999508431971
 11
-25.5000091535706
 21
131.9999499320975
  0
LINE
  5
3ce
100
AcDbEntity
  8
0
  6
CONTINUOUS
 62
     7
100
AcDbLine
 10
26.00001788139372
 20
131.9999499320975
 11
17.49937791724298
 21
131.9999499320975
  0
LINE
  5
3cf
100
AcDbEntity
  8
0
  6
CONTINUOUS
 62
     7
100
AcDbLine
 10
25.9999702727396
 20
131.9999667594177
 11
24.99996740546333
 21
175.9999768393377
  0
LINE
  5
3d0
100
AcDbEntity
  8
0
  6
CONTINUOUS
 62
     7
100
AcDbLine
 10
16.50067975004876
 20
175.9999768393376
 11
17.49937791724299
 21
131.9999499320975
  0
LINE
  5
3d1
100
AcDbEntity
  8
0
  6
CENTER
 62
     3
100
AcDbLine
 10
3.053763305353471
 20
171.5000072802818
 11
-3.078395350973892
 21
171.5000072802818
  0
LINE
  5
3d2
100
AcDbEntity
  8
0
  6
CONTINUOUS
 62
     7
100
AcDbLine
 10
24.99996740546333
 20
175.9999768393377
 11
-24.99999058404053
 21
175.9999768393377
  0
LINE
  5
3d3
100
AcDbEntity
  8
0
  6
CONTINUOUS
 62
     7
100
AcDbLine
 10
-51.69547032791326
 20
110.9999430349885
 11
-46.6590235345538
 21
110.9999430349885
  0
LINE
  5
3d4
100
AcDbEntity
  8
0
  6
CONTINUOUS
 62
     7
100
AcDbLine
 10
32.50000055347169
 20
-56.0000183922907
 11
-32.50000055347169
 21
-56.0000183922907
  0
LINE
  5
3d5
100
AcDbEntity
  8
0
  6
CONTINUOUS
 62
     7
100
AcDbLine
 10
33.99998314040016
 20
68.99996193817619
 11
31.99999182564858
 21
68.99996193817619
  0
LINE
  5
3d6
100
AcDbEntity
  8
0
  6
CONTINUOUS
 62
     7
100
AcDbLine
 10
-33.99998314040022
 20
68.99996193817619
 11
-33.99998314040022
 21
34.99996244907315
  0
LINE
  5
3d7
100
AcDbEntity
  8
0
  6
CONTINUOUS
 62
     7
100
AcDbLine
 10
33.99998314040016
 20
68.99996193817619
 11
33.99998314040016
 21
34.99996244907315
  0
LINE
  5
3d8
100
AcDbEntity
  8
0
  6
CONTINUOUS
 62
     7
100
AcDbLine
 10
-31.99999182564858
 20
68.99996193817619
 11
-33.99998314040022
 21
68.99996193817619
  0
LINE
  5
3d9
100
AcDbEntity
  8
0
  6
CONTINUOUS
 62
     7
100
AcDbLine
 10
-36.99999191079809
 20
93.99996236392366
 11
-36.99999191079809
 21
68.99996193817619
  0
LINE
  5
3da
100
AcDbEntity
  8
0
  6
CONTINUOUS
 62
     7
100
AcDbLine
 10
36.99999191079809
 20
93.99996236392366
 11
36.99999191079809
 21
68.99996193817619
  0
LINE
  5
3db
100
AcDbEntity
  8
0
  6
CONTINUOUS
 62
     7
100
AcDbLine
 10
36.99999191079809
 20
68.99996193817619
 11
-36.99999191079809
 21
68.99996193817619
  0
LINE
  5
3dc
100
AcDbEntity
  8
0
  6
CONTINUOUS
 62
     7
100
AcDbLine
 10
25.00000042574749
 20
68.99995648860858
 11
25.00000042574749
 21
34.99995699950554
  0
LINE
  5
3dd
100
AcDbEntity
  8
0
  6
CONTINUOUS
 62
     7
100
AcDbLine
 10
33.00000928129487
 20
68.99995648860858
 11
33.00000928129487
 21
34.99995699950554
  0
LINE
  5
3de
100
AcDbEntity
  8
0
  6
CONTINUOUS
 62
     7
100
AcDbLine
 10
-32.99996568475393
 20
68.99995648860858
 11
-32.99996568475393
 21
34.99995699950554
  0
LINE
  5
3df
100
AcDbEntity
  8
0
  6
CONTINUOUS
 62
     7
100
AcDbLine
 10
-25.00000042574749
 20
68.99995648860858
 11
-25.00000042574749
 21
34.99995699950554
  0
LINE
  5
3e0
100
AcDbEntity
  8
0
  6
CONTINUOUS
 62
     7
100
AcDbLine
 10
-35.49996572732869
 20
91.99996015003681
 11
-22.4999567866318
 21
91.99996015003681
  0
LINE
  5
3e1
100
AcDbEntity
  8
0
  6
CONTINUOUS
 62
     7
100
AcDbLine
 10
-35.49996572732869
 20
83.99999489103035
 11
-22.4999567866318
 21
83.99999489103035
  0
LINE
  5
3e2
100
AcDbEntity
  8
0
  6
CONTINUOUS
 62
     7
100
AcDbLine
 10
-22.4999567866318
 20
91.99996015003681
 11
-22.4999567866318
 21
81.99995997973782
  0
LINE
  5
3e3
100
AcDbEntity
  8
0
  6
CENTER
 62
     3
100
AcDbLine
 10
-28.99998305525071
 20
93.46515269731032
 11
-28.99998305525071
 21
34.999978797776
  0
LINE
  5
3e4
100
AcDbEntity
  8
0
  6
CONTINUOUS
 62
     7
100
AcDbLine
 10
-35.49996572732869
 20
91.99996015003681
 11
-35.49996572732869
 21
81.99995997973782
  0
LINE
  5
3e5
100
AcDbEntity
  8
0
  6
CONTINUOUS
 62
     7
100
AcDbLine
 10
-18.99998288495169
 20
93.99996236392366
 11
-18.99998288495169
 21
81.99995997973782
  0
LINE
  5
3e6
100
AcDbEntity
  8
0
  6
CONTINUOUS
 62
     7
100
AcDbLine
 10
-18.99998288495169
 20
81.99995997973782
 11
-36.99999191079809
 21
81.99995997973782
  0
LINE
  5
3e7
100
AcDbEntity
  8
0
  6
CONTINUOUS
 62
     7
100
AcDbLine
 10
-0.2999986316657441
 20
3.599989305223555
 11
-0.2999986316657441
 21
1.799989203044162
  0
LINE
  5
3e8
100
AcDbEntity
  8
0
  6
CONTINUOUS
 62
     7
100
AcDbLine
 10
8.700001879231195
 20
-1.089913523033559e-005
 11
-7.499999040383273
 21
-1.089913523033559e-005
  0
LINE
  5
3e9
100
AcDbEntity
  8
0
  6
CONTINUOUS
 62
     7
100
AcDbLine
 10
10.50000198141061
 20
1.799989203044162
 11
-0.2999986316657441
 21
1.799989203044162
  0
LINE
  5
3ea
100
AcDbEntity
  8
0
  6
CONTINUOUS
 62
     7
100
AcDbLine
 10
-0.2999993775071921
 20
3.599989412111365
 11
-7.499998976409122
 21
-1.038733960045946e-005
  0
LINE
  5
3eb
100
AcDbEntity
  8
0
  6
CONTINUOUS
 62
     7
100
AcDbLine
 10
10.50000245084056
 20
1.79998952627221
 11
8.700002025433296
 21
-1.089913504781492e-005
  0
LINE
  5
3ec
100
AcDbEntity
  8
0
  6
CONTINUOUS
 62
     7
100
AcDbLine
 10
25.5000091535706
 20
134.2999508431971
 11
25.5000091535706
 21
131.9999499320975
  0
LINE
  5
3ed
100
AcDbEntity
  8
0
  6
CONTINUOUS
 62
     7
100
AcDbLine
 10
18.49997415712858
 20
134.2999508431971
 11
18.49997415712858
 21
131.9999499320975
  0
LINE
  5
3ee
100
AcDbEntity
  8
0
  6
CONTINUOUS
 62
     7
100
AcDbLine
 10
18.49997415712858
 20
132.9999455894734
 11
25.5000091535706
 21
132.9999455894734
  0
LINE
  5
3ef
100
AcDbEntity
  8
0
  6
CENTER
 62
     3
100
AcDbLine
 10
21.99999165534962
 20
137.222946324058
 11
21.99999165534962
 21
131.9999499320975
  0
LINE
  5
3f0
100
AcDbEntity
  8
0
  6
CONTINUOUS
 62
     7
100
AcDbLine
 10
18.99998288495169
 20
81.99995997973782
 11
36.99999191079809
 21
81.99995997973782
  0
LINE
  5
3f1
100
AcDbEntity
  8
0
  6
CONTINUOUS
 62
     7
100
AcDbLine
 10
18.99998288495169
 20
93.99996236392366
 11
18.99998288495169
 21
81.99995997973782
  0
LINE
  5
3f2
100
AcDbEntity
  8
0
  6
CONTINUOUS
 62
     7
100
AcDbLine
 10
35.49996572732869
 20
91.99996015003681
 11
35.49996572732869
 21
81.99995997973782
  0
LINE
  5
3f3
100
AcDbEntity
  8
0
  6
CENTER
 62
     3
100
AcDbLine
 10
28.99998305525071
 20
93.46515269731032
 11
28.99998305525071
 21
34.999978797776
  0
LINE
  5
3f4
100
AcDbEntity
  8
0
  6
CONTINUOUS
 62
     7
100
AcDbLine
 10
22.4999567866318
 20
91.99996015003681
 11
22.4999567866318
 21
81.99995997973782
  0
LINE
  5
3f5
100
AcDbEntity
  8
0
  6
CONTINUOUS
 62
     7
100
AcDbLine
 10
35.49996572732869
 20
83.99999489103035
 11
22.4999567866318
 21
83.99999489103035
  0
LINE
  5
3f6
100
AcDbEntity
  8
0
  6
CONTINUOUS
 62
     7
100
AcDbLine
 10
35.49996572732869
 20
91.99996015003681
 11
22.4999567866318
 21
91.99996015003681
  0
CIRCLE
  5
3f7
100
AcDbEntity
  8
0
  6
CONTINUOUS
 62
     7
100
AcDbCircle
 10
0
 20
105.999942949839
 40
5.000000085149494
  0
ARC
  5
3f8
100
AcDbEntity
  8
0
  6
CONTINUOUS
 62
     7
100
AcDbCircle
 10
0
 20
105.999942949839
 40
5.999999829701012
100
AcDbArc
 50
0
 51
179.9999640278213
  0
CIRCLE
  5
3f9
100
AcDbEntity
  8
0
  6
CONTINUOUS
 62
     7
100
AcDbCircle
 10
0
 20
171.5000072802818
 40
1
  0
ARC
  5
3fa
100
AcDbEntity
  8
0
  6
CONTINUOUS
 62
     7
100
AcDbCircle
 10
-21.99999165534959
 20
130.238386938784
 40
5.361569158136891
100
AcDbArc
 50
49.24716540999707
 51
130.752834590003
  0
ARC
  5
3fb
100
AcDbEntity
  8
0
  6
CONTINUOUS
 62
     7
100
AcDbCircle
 10
21.99999165534959
 20
130.238386938784
 40
5.361569158136891
100
AcDbArc
 50
49.24716540999711
 51
130.752834590003
  0
MTEXT
  5
3fc
100
AcDbEntity
  8
0
  6
CONTINUOUS
 62
     7
100
AcDbMText
 10
-13.21954616152726
 20
167.2827254474971
 40
0.5
 41
36
 71
     7
 72
     1
  1
{\W0.8426;ＢＮ－５ＢＰ２１－４０－Ｅ／Ｆ＊＊＊}
  0
INSERT
  5
3fd
100
AcDbEntity
  8
0
  6
CONTINUOUS
 62
     7
100
AcDbBlockReference
  2
KOZU0012
 10
0
 20
0
  0
ENDBLK
  8
0
  5
3fe
100
AcDbEntity
100
AcDbBlockEnd
  0
BLOCK
  8
0
  5
3ff
100
AcDbEntity
100
AcDbBlockBegin
  2
KOZU0006
 70
    64
 10
0
 20
0
  0
POINT
  5
400
100
AcDbEntity
  8
0
  6
CONTINUOUS
 62
     7
100
AcDbPoint
 10
0
 20
0
  0
LINE
  5
401
100
AcDbEntity
  8
0
  6
CENTER
 62
     3
100
AcDbLine
 10
-70.31453933570282
 20
0
 11
70.63502840714844
 21
0
  0
LINE
  5
402
100
AcDbEntity
  8
0
  6
CENTER
 62
     3
100
AcDbLine
 10
0
 20
44.19105445188094
 11
0
 21
-45.76609885029355
  0
LINE
  5
403
100
AcDbEntity
  8
0
  6
CONTINUOUS
 62
     7
100
AcDbLine
 10
-32.00000272478381
 20
40.00000068119596
 11
32.00000272478381
 21
40.00000068119596
  0
LINE
  5
404
100
AcDbEntity
  8
0
  6
CONTINUOUS
 62
     7
100
AcDbLine
 10
-32.00000272478381
 20
-40.00000068119596
 11
32.00000272478381
 21
-40.00000068119596
  0
LINE
  5
405
100
AcDbEntity
  8
0
  6
CONTINUOUS
 62
     7
100
AcDbLine
 10
40.00000068119596
 20
32.00000272478381
 11
40.00000068119596
 21
-31.99999182564858
  0
LINE
  5
406
100
AcDbEntity
  8
0
  6
CONTINUOUS
 62
     7
100
AcDbLine
 10
-40.00000068119595
 20
32.00000272478381
 11
-40.00000068119595
 21
-31.99999182564858
  0
LINE
  5
407
100
AcDbEntity
  8
0
  6
CONTINUOUS
 62
     7
100
AcDbLine
 10
-65.00000110694342
 20
-30.00000051089697
 11
-40.00000068119595
 21
-30.00000051089697
  0
LINE
  5
408
100
AcDbEntity
  8
0
  6
CONTINUOUS
 62
     7
100
AcDbLine
 10
-65.00000110694342
 20
30.00000051089697
 11
-65.00000110694342
 21
-30.00000051089697
  0
LINE
  5
409
100
AcDbEntity
  8
0
  6
CONTINUOUS
 62
     7
100
AcDbLine
 10
-65.00000110694342
 20
30.00000051089697
 11
-40.00000068119595
 21
30.00000051089697
  0
LINE
  5
40a
100
AcDbEntity
  8
0
  6
CONTINUOUS
 62
     7
100
AcDbLine
 10
40.00000068119596
 20
30.00000051089697
 11
65.00000110694342
 21
30.00000051089697
  0
LINE
  5
40b
100
AcDbEntity
  8
0
  6
CONTINUOUS
 62
     7
100
AcDbLine
 10
65.00000110694342
 20
30.00000051089697
 11
65.00000110694342
 21
-30.00000051089697
  0
LINE
  5
40c
100
AcDbEntity
  8
0
  6
CONTINUOUS
 62
     7
100
AcDbLine
 10
40.00000068119596
 20
-30.00000051089697
 11
65.00000110694342
 21
-30.00000051089697
  0
CIRCLE
  5
40d
100
AcDbEntity
  8
0
  6
CONTINUOUS
 62
     7
100
AcDbCircle
 10
-5.449567609616679e-006
 20
0
 40
33.99999948910304
  0
CIRCLE
  5
40e
100
AcDbEntity
  8
0
  6
CONTINUOUS
 62
     7
100
AcDbCircle
 10
0
 20
0
 40
32.50000055347171
  0
ARC
  5
40f
100
AcDbEntity
  8
0
  6
CONTINUOUS
 62
     7
100
AcDbCircle
 10
32.00000272478381
 20
-31.99999182564858
 40
8
100
AcDbArc
 50
270.00001798609
 51
360
  0
ARC
  5
410
100
AcDbEntity
  8
0
  6
CONTINUOUS
 62
     7
100
AcDbCircle
 10
-32.00000272478381
 20
-31.99999182564858
 40
8
100
AcDbArc
 50
179.9999813306653
 51
270.00001798609
  0
ARC
  5
411
100
AcDbEntity
  8
0
  6
CONTINUOUS
 62
     7
100
AcDbCircle
 10
32.00000272478381
 20
32.00000272478381
 40
8
100
AcDbArc
 50
0
 51
89.99998201391065
  0
ARC
  5
412
100
AcDbEntity
  8
0
  6
CONTINUOUS
 62
     7
100
AcDbCircle
 10
-32.00000272478381
 20
32.00000272478381
 40
8
100
AcDbArc
 50
89.99998201391065
 51
179.9999640278213
  0
MTEXT
  5
413
100
AcDbEntity
  8
0
  6
CONTINUOUS
 62
     7
100
AcDbMText
 10
-33.06869920105613
 20
35.02919979476492
 40
0.5
 41
36
 71
     7
 72
     1
  1
{\W0.8426;ＢＮ－５ＢＰ２１－４０－Ｅ／Ｆ＊＊＊}
  0
ENDBLK
  8
0
  5
414
100
AcDbEntity
100
AcDbBlockEnd
  0
BLOCK
  8
0
  5
415
100
AcDbEntity
100
AcDbBlockBegin
  2
KOZU0007
 70
    64
 10
0
 20
0
  0
LINE
  5
416
100
AcDbEntity
  8
0
  6
CONTINUOUS
 62
     7
100
AcDbLine
 10
28.45267981658992
 20
-49.00003220353837
 11
29.50001581226077
 21
-47.95269411319343
  0
LINE
  5
417
100
AcDbEntity
  8
0
  6
CONTINUOUS
 62
     7
100
AcDbLine
 10
26.76888350297304
 20
-49.00003220353837
 11
29.50001581226076
 21
-46.26889443198056
  0
LINE
  5
418
100
AcDbEntity
  8
0
  6
CONTINUOUS
 62
     7
100
AcDbLine
 10
25.08508718935615
 20
-49.00003220353837
 11
29.50001581226077
 21
-44.58509475076767
  0
LINE
  5
419
100
AcDbEntity
  8
0
  6
CONTINUOUS
 62
     7
100
AcDbLine
 10
23.40129087573927
 20
-49.00003220353837
 11
29.50001581226077
 21
-42.90129506955479
  0
LINE
  5
41a
100
AcDbEntity
  8
0
  6
CONTINUOUS
 62
     7
100
AcDbLine
 10
21.71749456212239
 20
-49.00003220353837
 11
29.50001581226077
 21
-41.21749538834192
  0
LINE
  5
41b
100
AcDbEntity
  8
0
  6
CONTINUOUS
 62
     7
100
AcDbLine
 10
20.0336982485055
 20
-49.00003220353837
 11
29.50001581226077
 21
-39.53369570712903
  0
LINE
  5
41c
100
AcDbEntity
  8
0
  6
CONTINUOUS
 62
     7
100
AcDbLine
 10
19.50001581226077
 20
-47.84991602593616
 11
28.34988193490861
 21
-39.00003220353837
  0
LINE
  5
41d
100
AcDbEntity
  8
0
  6
CONTINUOUS
 62
     7
100
AcDbLine
 10
19.50001581226076
 20
-46.16611634472328
 11
26.66608562129172
 21
-39.00003220353837
  0
LINE
  5
41e
100
AcDbEntity
  8
0
  6
CONTINUOUS
 62
     7
100
AcDbLine
 10
19.50001581226077
 20
-44.4823166635104
 11
24.98228930767484
 21
-39.00003220353837
  0
LINE
  5
41f
100
AcDbEntity
  8
0
  6
CONTINUOUS
 62
     7
100
AcDbLine
 10
19.50001581226077
 20
-42.79851698229751
 11
23.29849299405795
 21
-39.00003220353837
  0
LINE
  5
420
100
AcDbEntity
  8
0
  6
CONTINUOUS
 62
     7
100
AcDbLine
 10
19.50001581226077
 20
-41.11471730108463
 11
21.61469668044107
 21
-39.00003220353837
  0
LINE
  5
421
100
AcDbEntity
  8
0
  6
CONTINUOUS
 62
     7
100
AcDbLine
 10
19.50001581226076
 20
-39.43091761987176
 11
19.93090036682418
 21
-39.00003220353837
  0
LINE
  5
422
100
AcDbEntity
  8
0
  6
CONTINUOUS
 62
     7
100
AcDbLine
 10
29.50001581226077
 20
-39.58975112645424
 11
28.91029570990587
 21
-39.00003220353837
  0
LINE
  5
423
100
AcDbEntity
  8
0
  6
CONTINUOUS
 62
     7
100
AcDbLine
 10
29.50001581226076
 20
-41.27354744007113
 11
27.22649602869299
 21
-39.00003220353838
  0
LINE
  5
424
100
AcDbEntity
  8
0
  6
CONTINUOUS
 62
     7
100
AcDbLine
 10
29.50001581226077
 20
-42.95734375368802
 11
25.54269634748011
 21
-39.00003220353837
  0
LINE
  5
425
100
AcDbEntity
  8
0
  6
CONTINUOUS
 62
     7
100
AcDbLine
 10
29.50001581226077
 20
-44.6411400673049
 11
23.85889666626722
 21
-39.00003220353837
  0
LINE
  5
426
100
AcDbEntity
  8
0
  6
CONTINUOUS
 62
     7
100
AcDbLine
 10
29.50001581226078
 20
-46.32493638092179
 11
22.17509698505434
 21
-39.00003220353837
  0
LINE
  5
427
100
AcDbEntity
  8
0
  6
CONTINUOUS
 62
     7
100
AcDbLine
 10
29.50001581226077
 20
-48.00873269453867
 11
20.49129730384146
 21
-39.00003220353837
  0
LINE
  5
428
100
AcDbEntity
  8
0
  6
CONTINUOUS
 62
     7
100
AcDbLine
 10
28.80751762264859
 20
-49.00003220353838
 11
19.50001581226077
 21
-39.69254900813556
  0
LINE
  5
429
100
AcDbEntity
  8
0
  6
CONTINUOUS
 62
     7
100
AcDbLine
 10
27.12371794143571
 20
-49.00003220353837
 11
19.50001581226077
 21
-41.37634532175245
  0
LINE
  5
42a
100
AcDbEntity
  8
0
  6
CONTINUOUS
 62
     7
100
AcDbLine
 10
25.43991826022283
 20
-49.00003220353837
 11
19.50001581226077
 21
-43.06014163536933
  0
LINE
  5
42b
100
AcDbEntity
  8
0
  6
CONTINUOUS
 62
     7
100
AcDbLine
 10
23.75611857900994
 20
-49.00003220353837
 11
19.50001581226076
 21
-44.74393794898622
  0
LINE
  5
42c
100
AcDbEntity
  8
0
  6
CONTINUOUS
 62
     7
100
AcDbLine
 10
22.07231889779707
 20
-49.00003220353837
 11
19.50001581226077
 21
-46.4277342626031
  0
LINE
  5
42d
100
AcDbEntity
  8
0
  6
CONTINUOUS
 62
     7
100
AcDbLine
 10
20.38851921658418
 20
-49.00003220353837
 11
19.50001581226077
 21
-48.11153057621998
  0
ENDBLK
  8
0
  5
42e
100
AcDbEntity
100
AcDbBlockEnd
  0
BLOCK
  8
0
  5
42f
100
AcDbEntity
100
AcDbBlockBegin
  2
KOZU0008
 70
    64
 10
0
 20
0
  0
LINE
  5
430
100
AcDbEntity
  8
0
  6
CONTINUOUS
 62
     7
100
AcDbLine
 10
-20.37740782874301
 20
-49.00002675397074
 11
-19.50001581226077
 21
-48.12263298270273
  0
LINE
  5
431
100
AcDbEntity
  8
0
  6
CONTINUOUS
 62
     7
100
AcDbLine
 10
-22.0612041423599
 20
-49.00002675397075
 11
-19.50001581226077
 21
-46.43883330148984
  0
LINE
  5
432
100
AcDbEntity
  8
0
  6
CONTINUOUS
 62
     7
100
AcDbLine
 10
-23.74500045597679
 20
-49.00002675397075
 11
-19.50001581226077
 21
-44.75503362027696
  0
LINE
  5
433
100
AcDbEntity
  8
0
  6
CONTINUOUS
 62
     7
100
AcDbLine
 10
-25.42879676959366
 20
-49.00002675397074
 11
-19.50001581226077
 21
-43.07123393906408
  0
LINE
  5
434
100
AcDbEntity
  8
0
  6
CONTINUOUS
 62
     7
100
AcDbLine
 10
-27.11259308321055
 20
-49.00002675397074
 11
-19.50001581226077
 21
-41.3874342578512
  0
LINE
  5
435
100
AcDbEntity
  8
0
  6
CONTINUOUS
 62
     7
100
AcDbLine
 10
-28.79638939682744
 20
-49.00002675397075
 11
-19.50001581226077
 21
-39.70363457663832
  0
LINE
  5
436
100
AcDbEntity
  8
0
  6
CONTINUOUS
 62
     7
100
AcDbLine
 10
-29.50001581226077
 20
-48.01985489544543
 11
-20.48020571042433
 21
-39.00002675397075
  0
LINE
  5
437
100
AcDbEntity
  8
0
  6
CONTINUOUS
 62
     7
100
AcDbLine
 10
-29.50001581226077
 20
-46.33605521423256
 11
-22.16400202404121
 21
-39.00002675397075
  0
LINE
  5
438
100
AcDbEntity
  8
0
  6
CONTINUOUS
 62
     7
100
AcDbLine
 10
-29.50001581226077
 20
-44.65225553301968
 11
-23.8477983376581
 21
-39.00002675397075
  0
LINE
  5
439
100
AcDbEntity
  8
0
  6
CONTINUOUS
 62
     7
100
AcDbLine
 10
-29.50001581226077
 20
-42.9684558518068
 11
-25.53159465127499
 21
-39.00002675397076
  0
LINE
  5
43a
100
AcDbEntity
  8
0
  6
CONTINUOUS
 62
     7
100
AcDbLine
 10
-29.50001581226077
 20
-41.28465617059391
 11
-27.21539096489187
 21
-39.00002675397074
  0
LINE
  5
43b
100
AcDbEntity
  8
0
  6
CONTINUOUS
 62
     7
100
AcDbLine
 10
-29.50001581226077
 20
-39.60085648938104
 11
-28.89918727850875
 21
-39.00002675397075
  0
LINE
  5
43c
100
AcDbEntity
  8
0
  6
CONTINUOUS
 62
     7
100
AcDbLine
 10
-19.50001581226077
 20
-39.41991059678764
 11
-19.91990049484618
 21
-39.00002675397074
  0
LINE
  5
43d
100
AcDbEntity
  8
0
  6
CONTINUOUS
 62
     7
100
AcDbLine
 10
-19.50001581226076
 20
-41.10370691040452
 11
-21.60370017605906
 21
-39.00002675397075
  0
LINE
  5
43e
100
AcDbEntity
  8
0
  6
CONTINUOUS
 62
     7
100
AcDbLine
 10
-19.50001581226077
 20
-42.78750322402141
 11
-23.28749985727194
 21
-39.00002675397075
  0
LINE
  5
43f
100
AcDbEntity
  8
0
  6
CONTINUOUS
 62
     7
100
AcDbLine
 10
-19.50001581226077
 20
-44.47129953763829
 11
-24.97129953848482
 21
-39.00002675397075
  0
LINE
  5
440
100
AcDbEntity
  8
0
  6
CONTINUOUS
 62
     7
100
AcDbLine
 10
-19.50001581226077
 20
-46.15509585125518
 11
-26.6550992196977
 21
-39.00002675397074
  0
LINE
  5
441
100
AcDbEntity
  8
0
  6
CONTINUOUS
 62
     7
100
AcDbLine
 10
-19.50001581226077
 20
-47.83889216487206
 11
-28.33889890091058
 21
-39.00002675397075
  0
LINE
  5
442
100
AcDbEntity
  8
0
  6
CONTINUOUS
 62
     7
100
AcDbLine
 10
-20.02267858210346
 20
-49.00002675397074
 11
-29.50001581226077
 21
-39.52270847846895
  0
LINE
  5
443
100
AcDbEntity
  8
0
  6
CONTINUOUS
 62
     7
100
AcDbLine
 10
-21.70647826331634
 20
-49.00002675397075
 11
-29.50001581226077
 21
-41.20650479208584
  0
LINE
  5
444
100
AcDbEntity
  8
0
  6
CONTINUOUS
 62
     7
100
AcDbLine
 10
-23.39027794452922
 20
-49.00002675397075
 11
-29.50001581226077
 21
-42.89030110570272
  0
LINE
  5
445
100
AcDbEntity
  8
0
  6
CONTINUOUS
 62
     7
100
AcDbLine
 10
-25.0740776257421
 20
-49.00002675397075
 11
-29.50001581226076
 21
-44.57409741931961
  0
LINE
  5
446
100
AcDbEntity
  8
0
  6
CONTINUOUS
 62
     7
100
AcDbLine
 10
-26.75787730695499
 20
-49.00002675397075
 11
-29.50001581226077
 21
-46.2578937329365
  0
LINE
  5
447
100
AcDbEntity
  8
0
  6
CONTINUOUS
 62
     7
100
AcDbLine
 10
-28.44167698816786
 20
-49.00002675397074
 11
-29.50001581226077
 21
-47.94169004655338
  0
ENDBLK
  8
0
  5
448
100
AcDbEntity
100
AcDbBlockEnd
  0
BLOCK
  8
0
  5
449
100
AcDbEntity
100
AcDbBlockBegin
  2
KOZU0009
 70
    64
 10
0
 20
0
  0
LINE
  5
44a
100
AcDbEntity
  8
0
  6
CONTINUOUS
 62
     3
100
AcDbLine
 10
39.227492315714
 20
28.04999274866905
 11
40.00000068119596
 21
28.82250269293676
  0
LINE
  5
44b
100
AcDbEntity
  8
0
  6
CONTINUOUS
 62
     3
100
AcDbLine
 10
37.43144306082936
 20
28.04999274866905
 11
40.00000068119596
 21
30.61855561843147
  0
LINE
  5
44c
100
AcDbEntity
  8
0
  6
CONTINUOUS
 62
     3
100
AcDbLine
 10
37.00000068119596
 20
29.41460241278573
 11
40.00000068119596
 21
32.41460854392616
  0
LINE
  5
44d
100
AcDbEntity
  8
0
  6
CONTINUOUS
 62
     3
100
AcDbLine
 10
37.00000068119596
 20
31.21065533828043
 11
39.73932638967208
 21
33.94998664515342
  0
LINE
  5
44e
100
AcDbEntity
  8
0
  6
CONTINUOUS
 62
     3
100
AcDbLine
 10
37.00000068119596
 20
33.00670826377513
 11
37.94327713478744
 21
33.94998664515342
  0
LINE
  5
44f
100
AcDbEntity
  8
0
  6
CONTINUOUS
 62
     3
100
AcDbLine
 10
40.00000068119596
 20
32.65761015951021
 11
38.70762155430551
 21
33.94998664515342
  0
LINE
  5
450
100
AcDbEntity
  8
0
  6
CONTINUOUS
 62
     3
100
AcDbLine
 10
40.00000068119596
 20
30.86156090462558
 11
37.00000068119596
 21
33.86155477349767
  0
LINE
  5
451
100
AcDbEntity
  8
0
  6
CONTINUOUS
 62
     3
100
AcDbLine
 10
40.00000068119596
 20
29.06551164974094
 11
37.00000068119596
 21
32.06550551861304
  0
LINE
  5
452
100
AcDbEntity
  8
0
  6
CONTINUOUS
 62
     3
100
AcDbLine
 10
39.21946873220282
 20
28.04999274866905
 11
37.00000068119596
 21
30.26945626372841
  0
LINE
  5
453
100
AcDbEntity
  8
0
  6
CONTINUOUS
 62
     3
100
AcDbLine
 10
37.42341580670812
 20
28.04999274866904
 11
37.00000068119596
 21
28.47340700884377
  0
ENDBLK
  8
0
  5
454
100
AcDbEntity
100
AcDbBlockEnd
  0
BLOCK
  8
0
  5
455
100
AcDbEntity
100
AcDbBlockBegin
  2
KOZU0010
 70
    64
 10
0
 20
0
  0
LINE
  5
456
100
AcDbEntity
  8
0
  6
CONTINUOUS
 62
     7
100
AcDbLine
 10
28.45269616526007
 20
-49.00001585483552
 11
29.50001581226076
 21
-47.95269411319344
  0
LINE
  5
457
100
AcDbEntity
  8
0
  6
CONTINUOUS
 62
     7
100
AcDbLine
 10
26.76889985164318
 20
-49.00001585483552
 11
29.50001581226076
 21
-46.26889443198057
  0
LINE
  5
458
100
AcDbEntity
  8
0
  6
CONTINUOUS
 62
     7
100
AcDbLine
 10
25.08510353802629
 20
-49.00001585483552
 11
29.50001581226075
 21
-44.58509475076769
  0
LINE
  5
459
100
AcDbEntity
  8
0
  6
CONTINUOUS
 62
     7
100
AcDbLine
 10
23.40130722440942
 20
-49.00001585483552
 11
29.50001581226076
 21
-42.90129506955481
  0
LINE
  5
45a
100
AcDbEntity
  8
0
  6
CONTINUOUS
 62
     7
100
AcDbLine
 10
21.71751091079253
 20
-49.00001585483552
 11
29.50001581226076
 21
-41.21749538834192
  0
LINE
  5
45b
100
AcDbEntity
  8
0
  6
CONTINUOUS
 62
     7
100
AcDbLine
 10
20.03371459717564
 20
-49.00001585483552
 11
29.50001581226076
 21
-39.53369570712904
  0
LINE
  5
45c
100
AcDbEntity
  8
0
  6
CONTINUOUS
 62
     7
100
AcDbLine
 10
19.50001581226076
 20
-47.84991602593617
 11
28.34989828357876
 21
-39.00001585483552
  0
LINE
  5
45d
100
AcDbEntity
  8
0
  6
CONTINUOUS
 62
     7
100
AcDbLine
 10
19.50001581226076
 20
-46.16611634472328
 11
26.66610196996187
 21
-39.00001585483552
  0
LINE
  5
45e
100
AcDbEntity
  8
0
  6
CONTINUOUS
 62
     7
100
AcDbLine
 10
19.50001581226076
 20
-44.4823166635104
 11
24.98230565634498
 21
-39.00001585483552
  0
LINE
  5
45f
100
AcDbEntity
  8
0
  6
CONTINUOUS
 62
     7
100
AcDbLine
 10
19.50001581226076
 20
-42.79851698229753
 11
23.2985093427281
 21
-39.00001585483552
  0
LINE
  5
460
100
AcDbEntity
  8
0
  6
CONTINUOUS
 62
     7
100
AcDbLine
 10
19.50001581226076
 20
-41.11471730108465
 11
21.61471302911122
 21
-39.00001585483552
  0
LINE
  5
461
100
AcDbEntity
  8
0
  6
CONTINUOUS
 62
     7
100
AcDbLine
 10
19.50001581226076
 20
-39.43091761987176
 11
19.93091671549433
 21
-39.00001585483552
  0
LINE
  5
462
100
AcDbEntity
  8
0
  6
CONTINUOUS
 62
     7
100
AcDbLine
 10
29.50001581226076
 20
-39.58975112645423
 11
28.91027936117033
 21
-39.00001585483552
  0
LINE
  5
463
100
AcDbEntity
  8
0
  6
CONTINUOUS
 62
     7
100
AcDbLine
 10
29.50001581226075
 20
-41.27354744007112
 11
27.22647967995745
 21
-39.00001585483553
  0
LINE
  5
464
100
AcDbEntity
  8
0
  6
CONTINUOUS
 62
     7
100
AcDbLine
 10
29.50001581226075
 20
-42.957343753688
 11
25.54267999874456
 21
-39.00001585483552
  0
LINE
  5
465
100
AcDbEntity
  8
0
  6
CONTINUOUS
 62
     7
100
AcDbLine
 10
29.50001581226076
 20
-44.64114006730488
 11
23.85888031753169
 21
-39.00001585483552
  0
LINE
  5
466
100
AcDbEntity
  8
0
  6
CONTINUOUS
 62
     7
100
AcDbLine
 10
29.50001581226076
 20
-46.32493638092177
 11
22.1750806363188
 21
-39.00001585483552
  0
LINE
  5
467
100
AcDbEntity
  8
0
  6
CONTINUOUS
 62
     7
100
AcDbLine
 10
29.50001581226075
 20
-48.00873269453865
 11
20.49128095510592
 21
-39.00001585483552
  0
LINE
  5
468
100
AcDbEntity
  8
0
  6
CONTINUOUS
 62
     7
100
AcDbLine
 10
28.80750127391305
 20
-49.00001585483553
 11
19.50001581226076
 21
-39.69254900813554
  0
LINE
  5
469
100
AcDbEntity
  8
0
  6
CONTINUOUS
 62
     7
100
AcDbLine
 10
27.12370159270017
 20
-49.00001585483552
 11
19.50001581226076
 21
-41.37634532175243
  0
LINE
  5
46a
100
AcDbEntity
  8
0
  6
CONTINUOUS
 62
     7
100
AcDbLine
 10
25.43990191148729
 20
-49.00001585483552
 11
19.50001581226076
 21
-43.06014163536932
  0
LINE
  5
46b
100
AcDbEntity
  8
0
  6
CONTINUOUS
 62
     7
100
AcDbLine
 10
23.7561022302744
 20
-49.00001585483552
 11
19.50001581226076
 21
-44.7439379489862
  0
LINE
  5
46c
100
AcDbEntity
  8
0
  6
CONTINUOUS
 62
     7
100
AcDbLine
 10
22.07230254906153
 20
-49.00001585483552
 11
19.50001581226076
 21
-46.42773426260308
  0
LINE
  5
46d
100
AcDbEntity
  8
0
  6
CONTINUOUS
 62
     7
100
AcDbLine
 10
20.38850286784865
 20
-49.00001585483552
 11
19.50001581226076
 21
-48.11153057621998
  0
ENDBLK
  8
0
  5
46e
100
AcDbEntity
100
AcDbBlockEnd
  0
BLOCK
  8
0
  5
46f
100
AcDbEntity
100
AcDbBlockBegin
  2
KOZU0011
 70
    64
 10
0
 20
0
  0
LINE
  5
470
100
AcDbEntity
  8
0
  6
CONTINUOUS
 62
     3
100
AcDbLine
 10
-38.00261474521227
 20
28.05000364780427
 11
-37.00000068119596
 21
29.05261976087646
  0
LINE
  5
471
100
AcDbEntity
  8
0
  6
CONTINUOUS
 62
     3
100
AcDbLine
 10
-39.79866400009691
 20
28.05000364780427
 11
-37.00000068119596
 21
30.84867268637116
  0
LINE
  5
472
100
AcDbEntity
  8
0
  6
CONTINUOUS
 62
     3
100
AcDbLine
 10
-40.00000068119596
 20
29.64471948072544
 11
-37.00000068119596
 21
32.64472561186586
  0
LINE
  5
473
100
AcDbEntity
  8
0
  6
CONTINUOUS
 62
     3
100
AcDbLine
 10
-40.00000068119596
 20
31.44077240622013
 11
-37.4907806712542
 21
33.94999754428864
  0
LINE
  5
474
100
AcDbEntity
  8
0
  6
CONTINUOUS
 62
     3
100
AcDbLine
 10
-40.00000068119596
 20
33.23682533171484
 11
-39.28682992613884
 21
33.94999754428864
  0
LINE
  5
475
100
AcDbEntity
  8
0
  6
CONTINUOUS
 62
     3
100
AcDbLine
 10
-37.00000068119596
 20
32.427336196244
 11
-38.52266514112412
 21
33.94999754428864
  0
LINE
  5
476
100
AcDbEntity
  8
0
  6
CONTINUOUS
 62
     3
100
AcDbLine
 10
-37.00000068119596
 20
30.63128694135936
 11
-40.00000068119596
 21
33.63128081023146
  0
LINE
  5
477
100
AcDbEntity
  8
0
  6
CONTINUOUS
 62
     3
100
AcDbLine
 10
-37.00000068119596
 20
28.83523768647473
 11
-40.00000068119596
 21
31.83523155534683
  0
LINE
  5
478
100
AcDbEntity
  8
0
  6
CONTINUOUS
 62
     3
100
AcDbLine
 10
-38.01081796322681
 20
28.05000364780427
 11
-40.00000068119596
 21
30.03918230046219
  0
LINE
  5
479
100
AcDbEntity
  8
0
  6
CONTINUOUS
 62
     3
100
AcDbLine
 10
-39.80687088872151
 20
28.05000364780427
 11
-40.00000068119596
 21
28.24313304557756
  0
ENDBLK
  8
0
  5
47a
100
AcDbEntity
100
AcDbBlockEnd
  0
BLOCK
  8
0
  5
47b
100
AcDbEntity
100
AcDbBlockBegin
  2
KOZU0012
 70
    64
 10
0
 20
0
  0
LINE
  5
47c
100
AcDbEntity
  8
0
  6
CONTINUOUS
 62
     7
100
AcDbLine
 10
-20.37741327829973
 20
-49.00003220353837
 11
-19.50001581226076
 21
-48.12263298270271
  0
LINE
  5
47d
100
AcDbEntity
  8
0
  6
CONTINUOUS
 62
     7
100
AcDbLine
 10
-22.06120959191662
 20
-49.00003220353837
 11
-19.50001581226076
 21
-46.43883330148982
  0
LINE
  5
47e
100
AcDbEntity
  8
0
  6
CONTINUOUS
 62
     7
100
AcDbLine
 10
-23.7450059055335
 20
-49.00003220353837
 11
-19.50001581226076
 21
-44.75503362027695
  0
LINE
  5
47f
100
AcDbEntity
  8
0
  6
CONTINUOUS
 62
     7
100
AcDbLine
 10
-25.42880221915038
 20
-49.00003220353837
 11
-19.50001581226075
 21
-43.07123393906406
  0
LINE
  5
480
100
AcDbEntity
  8
0
  6
CONTINUOUS
 62
     7
100
AcDbLine
 10
-27.11259853276727
 20
-49.00003220353837
 11
-19.50001581226076
 21
-41.38743425785118
  0
LINE
  5
481
100
AcDbEntity
  8
0
  6
CONTINUOUS
 62
     7
100
AcDbLine
 10
-28.79639484638415
 20
-49.00003220353837
 11
-19.50001581226075
 21
-39.7036345766383
  0
LINE
  5
482
100
AcDbEntity
  8
0
  6
CONTINUOUS
 62
     7
100
AcDbLine
 10
-29.50001581226075
 20
-48.01985489544542
 11
-20.48021115998105
 21
-39.00003220353837
  0
LINE
  5
483
100
AcDbEntity
  8
0
  6
CONTINUOUS
 62
     7
100
AcDbLine
 10
-29.50001581226076
 20
-46.33605521423255
 11
-22.16400747359793
 21
-39.00003220353837
  0
LINE
  5
484
100
AcDbEntity
  8
0
  6
CONTINUOUS
 62
     7
100
AcDbLine
 10
-29.50001581226076
 20
-44.65225553301967
 11
-23.84780378721482
 21
-39.00003220353837
  0
LINE
  5
485
100
AcDbEntity
  8
0
  6
CONTINUOUS
 62
     7
100
AcDbLine
 10
-29.50001581226076
 20
-42.96845585180679
 11
-25.5316001008317
 21
-39.00003220353837
  0
LINE
  5
486
100
AcDbEntity
  8
0
  6
CONTINUOUS
 62
     7
100
AcDbLine
 10
-29.50001581226075
 20
-41.2846561705939
 11
-27.21539641444858
 21
-39.00003220353837
  0
LINE
  5
487
100
AcDbEntity
  8
0
  6
CONTINUOUS
 62
     7
100
AcDbLine
 10
-29.50001581226075
 20
-39.60085648938102
 11
-28.89919272806547
 21
-39.00003220353837
  0
LINE
  5
488
100
AcDbEntity
  8
0
  6
CONTINUOUS
 62
     7
100
AcDbLine
 10
-19.50001581226076
 20
-39.41991059678765
 11
-19.91989504526767
 21
-39.00003220353837
  0
LINE
  5
489
100
AcDbEntity
  8
0
  6
CONTINUOUS
 62
     7
100
AcDbLine
 10
-19.50001581226076
 20
-41.10370691040453
 11
-21.60369472648054
 21
-39.00003220353837
  0
LINE
  5
48a
100
AcDbEntity
  8
0
  6
CONTINUOUS
 62
     7
100
AcDbLine
 10
-19.50001581226075
 20
-42.78750322402142
 11
-23.28749440769342
 21
-39.00003220353837
  0
LINE
  5
48b
100
AcDbEntity
  8
0
  6
CONTINUOUS
 62
     7
100
AcDbLine
 10
-19.50001581226076
 20
-44.4712995376383
 11
-24.97129408890631
 21
-39.00003220353837
  0
LINE
  5
48c
100
AcDbEntity
  8
0
  6
CONTINUOUS
 62
     7
100
AcDbLine
 10
-19.50001581226076
 20
-46.15509585125518
 11
-26.65509377011919
 21
-39.00003220353837
  0
LINE
  5
48d
100
AcDbEntity
  8
0
  6
CONTINUOUS
 62
     7
100
AcDbLine
 10
-19.50001581226076
 20
-47.83889216487208
 11
-28.33889345133207
 21
-39.00003220353837
  0
LINE
  5
48e
100
AcDbEntity
  8
0
  6
CONTINUOUS
 62
     7
100
AcDbLine
 10
-20.02267313252494
 20
-49.00003220353837
 11
-29.50001581226076
 21
-39.52270847846896
  0
LINE
  5
48f
100
AcDbEntity
  8
0
  6
CONTINUOUS
 62
     7
100
AcDbLine
 10
-21.70647281373783
 20
-49.00003220353837
 11
-29.50001581226076
 21
-41.20650479208585
  0
LINE
  5
490
100
AcDbEntity
  8
0
  6
CONTINUOUS
 62
     7
100
AcDbLine
 10
-23.3902724949507
 20
-49.00003220353837
 11
-29.50001581226076
 21
-42.89030110570273
  0
LINE
  5
491
100
AcDbEntity
  8
0
  6
CONTINUOUS
 62
     7
100
AcDbLine
 10
-25.07407217616358
 20
-49.00003220353837
 11
-29.50001581226076
 21
-44.57409741931962
  0
LINE
  5
492
100
AcDbEntity
  8
0
  6
CONTINUOUS
 62
     7
100
AcDbLine
 10
-26.75787185737647
 20
-49.00003220353837
 11
-29.50001581226076
 21
-46.2578937329365
  0
LINE
  5
493
100
AcDbEntity
  8
0
  6
CONTINUOUS
 62
     7
100
AcDbLine
 10
-28.44167153858935
 20
-49.00003220353837
 11
-29.50001581226076
 21
-47.94169004655339
  0
ENDBLK
  8
0
  5
494
100
AcDbEntity
100
AcDbBlockEnd
  0
ENDSEC
  0
SECTION
  2
ENTITIES
  0
LINE
  5
495
100
AcDbEntity
  8
0
  6
CONTINUOUS
 62
     7
100
AcDbLine
 10
269.5550940667432
 20
-140.0565195592787
 11
454.7435601636539
 21
-140.0565195592787
  0
LINE
  5
496
100
AcDbEntity
  8
0
  6
CONTINUOUS
 62
     7
100
AcDbLine
 10
269.5551376632841
 20
-140.0565195592787
 11
269.5551376632841
 21
-181.0093989362501
  0
LINE
  5
497
100
AcDbEntity
  8
0
  6
CONTINUOUS
 62
     7
100
AcDbLine
 10
269.5550940667432
 20
-181.0093989362501
 11
454.7435601636539
 21
-181.0093989362501
  0
LINE
  5
498
100
AcDbEntity
  8
0
  6
CONTINUOUS
 62
     7
100
AcDbLine
 10
454.7435601636539
 20
-140.0565195592787
 11
454.7435601636539
 21
-181.0093989362501
  0
MTEXT
  5
499
100
AcDbEntity
  8
0
  6
CONTINUOUS
 62
     7
100
AcDbMText
 10
274.4951391134993
 20
-163.807027795321
 40
8
 41
96
 71
     7
 72
     1
  1
{\W0.855331;品　名}
  0
MTEXT
  5
49a
100
AcDbEntity
  8
0
  6
CONTINUOUS
 62
     7
100
AcDbMText
 10
274.4951391134993
 20
-176.4850544830457
 40
8
 41
96
 71
     7
 72
     1
  1
{\W0.855331;型　番}
  0
MTEXT
  5
49b
100
AcDbEntity
  8
0
  6
CONTINUOUS
 62
     7
100
AcDbMText
 10
308.3531501183901
 20
-176.4850544830457
 40
8
 41
576
 71
     7
 72
     1
  1
{\W0.842599;ＢＮ－５ＢＰ２１－４０－Ｅ／Ｆ＊＊＊}
  0
MTEXT
  5
49c
100
AcDbEntity
  8
0
  6
CONTINUOUS
 62
     7
100
AcDbMText
 10
308.3531501183901
 20
-163.807027795321
 40
8
 41
224
 71
     7
 72
     1
  1
{\W0.846334;シリンダ操作弁}
  0
MTEXT
  5
49d
100
AcDbEntity
  8
0
  6
CONTINUOUS
 62
     7
100
AcDbMText
 10
314.9416119702673
 20
-151.6107973804496
 40
8
 41
256
 71
     7
 72
     1
  1
{\W0.845552;日本精器株式会社}
  0
MTEXT
  5
49e
100
AcDbEntity
  8
0
  6
CONTINUOUS
 62
     7
100
AcDbMText
 10
311.7248831222825
 20
167.4394037032026
 40
5
 41
40
 71
     7
 72
     1
  1
{\W0.864328;ＥＸ}
  0
MTEXT
  5
49f
100
AcDbEntity
  8
0
  6
CONTINUOUS
 62
     7
100
AcDbMText
 10
144.117732778124
 20
155.6989240443713
 40
8
 41
64
 71
     7
 72
     1
  1
{\W0.864328;＊１}
  0
MTEXT
  5
4a0
100
AcDbEntity
  8
0
  6
CONTINUOUS
 62
     7
100
AcDbMText
 10
144.117732778124
 20
196.9024214469349
 40
8
 41
64
 71
     7
 72
     1
  1
{\W0.864328;＊２}
  0
MTEXT
  5
4a1
100
AcDbEntity
  8
0
  6
CONTINUOUS
 62
     7
100
AcDbMText
 10
-62.92984166975805
 20
154.6688366093072
 40
8
 41
64
 71
     7
 72
     1
  1
{\W0.864328;＊３}
  0
MTEXT
  5
4a2
100
AcDbEntity
  8
0
  6
CONTINUOUS
 62
     7
100
AcDbMText
 10
233.7353396286997
 20
154.6688366093072
 40
8
 41
64
 71
     7
 72
     1
  1
{\W0.864328;＊４}
  0
MTEXT
  5
4a3
100
AcDbEntity
  8
0
  6
CONTINUOUS
 62
     7
100
AcDbMText
 10
419.1510779402358
 20
153.6387491742431
 40
8
 41
64
 71
     7
 72
     1
  1
{\W0.864328;＊５}
  0
MTEXT
  5
4a4
100
AcDbEntity
  8
0
  6
CONTINUOUS
 62
     7
100
AcDbMText
 10
145.147820213188
 20
-119.3344211177406
 40
8
 41
64
 71
     7
 72
     1
  1
{\W0.864328;＊６}
  0
LINE
  5
4a5
100
AcDbEntity
  8
0
  6
CONTINUOUS
 62
     7
100
AcDbLine
 10
303.7628878289821
 20
169.3144046660948
 11
306.2628878715568
 21
169.3144041793269
  0
LINE
  5
4a6
100
AcDbEntity
  8
0
  6
CONTINUOUS
 62
     7
100
AcDbLine
 10
303.762888072366
 20
170.5644046873822
 11
306.2628881149407
 21
170.5644042006142
  0
LINE
  5
4a7
100
AcDbEntity
  8
0
  6
CONTINUOUS
 62
     7
100
AcDbLine
 10
308.7628743582112
 20
169.9394023223221
 11
306.2628824686928
 21
172.4393951853735
  0
LINE
  5
4a8
100
AcDbEntity
  8
0
  6
CONTINUOUS
 62
     7
100
AcDbLine
 10
306.262881190169
 20
167.4394101278129
 11
308.7628743582112
 21
169.9394023223221
  0
LINE
  5
4a9
100
AcDbEntity
  8
0
  6
CONTINUOUS
 62
     7
100
AcDbLine
 10
306.2628875064808
 20
167.4394041473958
 11
306.2628878715568
 21
169.3144041793269
  0
LINE
  5
4aa
100
AcDbEntity
  8
0
  6
CONTINUOUS
 62
     7
100
AcDbLine
 10
303.7628878289821
 20
169.3144046660948
 11
303.762888072366
 21
170.5644046873822
  0
LINE
  5
4ab
100
AcDbEntity
  8
0
  6
CONTINUOUS
 62
     7
100
AcDbLine
 10
306.2628881149407
 20
170.5644042006142
 11
306.2628884800167
 21
172.4394042325452
  0
INSERT
  5
4ac
100
AcDbEntity
  8
0
  6
CONTINUOUS
 62
     7
100
AcDbBlockReference
  2
KOZU0001
 10
90.82240668062494
 20
-1.611720521309044
  0
INSERT
  5
4ad
100
AcDbEntity
  8
0
  6
CONTINUOUS
 62
     7
100
AcDbBlockReference
  2
KOZU0002
 10
90.82240668062494
 20
243.1470857883707
  0
INSERT
  5
4ae
100
AcDbEntity
  8
0
  6
CONTINUOUS
 62
     7
100
AcDbBlockReference
  2
KOZU0003
 10
-97.74902510215598
 20
-1.611720521309044
  0
INSERT
  5
4af
100
AcDbEntity
  8
0
  6
CONTINUOUS
 62
     7
100
AcDbBlockReference
  2
KOZU0004
 10
279.3938384634059
 20
-1.611731420444274
  0
INSERT
  5
4b0
100
AcDbEntity
  8
0
  6
CONTINUOUS
 62
     7
100
AcDbBlockReference
  2
KOZU0005
 10
467.9652702461868
 20
-1.611720521309044
  0
INSERT
  5
4b1
100
AcDbEntity
  8
0
  6
CONTINUOUS
 62
     7
100
AcDbBlockReference
  2
KOZU0006
 10
90.82240668062494
 20
-157.9551069728836
  0
LINE
  5
4b2
100
AcDbEntity
  8
0
  6
CONTINUOUS
 62
     7
100
AcDbLine
 10
239.3847728463299
 20
29.15916924530865
 11
231.519720039826
 21
41.45164025815673
  0
LINE
  5
4b3
100
AcDbEntity
  8
0
  6
CONTINUOUS
 62
     7
100
AcDbLine
 10
239.3847728463299
 20
29.15916924530865
 11
236.9255846231541
 21
31.14723186570659
  0
LINE
  5
4b4
100
AcDbEntity
  8
0
  6
CONTINUOUS
 62
     7
100
AcDbLine
 10
239.3847728463299
 20
29.15916924530865
 11
238.610259840028
 21
32.22513227553249
  0
MTEXT
  5
4b5
100
AcDbEntity
  8
0
  6
CONTINUOUS
 62
     7
100
AcDbMText
 10
222.4130068917445
 20
41.45164287859443
 40
5
 41
120
 71
     6
 72
     1
  1
{\W0.847393;シリンダＥＸ}
  0
LINE
  5
4b6
100
AcDbEntity
  8
0
  6
CONTINUOUS
 62
     7
100
AcDbLine
 10
239.3847728463299
 20
29.15916924530865
 11
231.519720039826
 21
41.45164025815673
  0
LINE
  5
4b7
100
AcDbEntity
  8
0
  6
CONTINUOUS
 62
     7
100
AcDbLine
 10
231.519720039826
 20
41.45164025815674
 11
224.045880161743
 21
41.4516457077226
  0
DIMENSION
  5
4b8
100
AcDbEntity
  8
0
  6
CONTINUOUS
 62
     7
100
AcDbDimension
  2
*D1
 70
     0
 10
319.3938391446018
 20
-92.00000374657773
 11
279.3938384634059
 21
-92.00000374657773
  3
DIMSTYLE
100
AcDbAlignedDimension
 13
239.3938377822099
 23
-28.61174495921382
 14
319.3938391446018
 24
-28.61174495921382
 50
0
100
AcDbRotatedDimension
1001
ACAD
1000
DSTYLE
1002
{
1070
     6
1000
_OPEN30
1070
     7
1000
_OPEN30
1070
    77
1070
     1
1070
   172
1070
     1
1070
    42
1040
0
1002
}
  0
DIMENSION
  5
4b9
100
AcDbEntity
  8
0
  6
CONTINUOUS
 62
     7
100
AcDbDimension
  2
*D2
 70
     0
 10
363.717788350885
 20
-1.61175866828235
 11
363.717788350885
 21
-29.61169702004871
 52
269.9997816279491
  3
DIMSTYLE
100
AcDbAlignedDimension
 13
336.7509735780268
 23
-57.61170621619405
 14
350.8492229810651
 24
-1.611709622173814
 50
90
100
AcDbRotatedDimension
1001
ACAD
1000
DSTYLE
1002
{
1070
     6
1000
_OPEN30
1070
     7
1000
_OPEN30
1070
    77
1070
     1
1070
   172
1070
     1
1070
    42
1040
0
1002
}
  0
DIMENSION
  5
4ba
100
AcDbEntity
  8
0
  6
CONTINUOUS
 62
     7
100
AcDbDimension
  2
*D3
 70
     0
 10
363.717788350885
 20
174.3882890154343
 11
363.717788350885
 21
86.38830059576546
 52
269.9999322283105
  3
DIMSTYLE
100
AcDbAlignedDimension
 13
309.3938389743028
 23
-1.611709622173814
 14
326.8602481375464
 24
174.3883326119752
 50
90
100
AcDbRotatedDimension
1001
ACAD
1000
DSTYLE
1002
{
1070
     6
1000
_OPEN30
1070
     7
1000
_OPEN30
1070
    77
1070
     1
1070
   172
1070
     1
1070
    42
1040
0
1002
}
  0
DIMENSION
  5
4bb
100
AcDbEntity
  8
0
  6
CONTINUOUS
 62
     7
100
AcDbDimension
  2
*D4
 70
     0
 10
375.6441452783201
 20
174.3882890154343
 11
375.6441452783201
 21
58.38833499616104
 52
269.9999672408076
  3
DIMSTYLE
100
AcDbAlignedDimension
 13
311.8938390168776
 23
-57.61170621619405
 14
299.3938606022743
 24
174.3883326119752
 50
90
100
AcDbRotatedDimension
1001
ACAD
1000
DSTYLE
1002
{
1070
     6
1000
_OPEN30
1070
     7
1000
_OPEN30
1070
    77
1070
     1
1070
   172
1070
     1
1070
    42
1040
0
1002
}
  0
DIMENSION
  5
4bc
100
AcDbEntity
  8
0
  6
CONTINUOUS
 62
     7
100
AcDbDimension
  2
*D5
 70
     0
 10
155.8224077875684
 20
-83.05047312890586
 11
90.82240668062494
 21
-83.05047312890586
  3
DIMSTYLE
100
AcDbAlignedDimension
 13
25.82240557368152
 23
-31.61174283047647
 14
155.8224077875684
 24
-31.61174283047647
 50
0
100
AcDbRotatedDimension
1001
ACAD
1000
DSTYLE
1002
{
1070
     6
1000
_OPEN30
1070
     7
1000
_OPEN30
1070
    77
1070
     1
1070
   172
1070
     1
1070
    42
1040
0
1002
}
  0
LINE
  5
4bd
100
AcDbEntity
  8
0
  6
CONTINUOUS
 62
     7
100
AcDbLine
 10
34.53117590201918
 20
22.43601638383601
 11
29.43211876227637
 21
44.10173691339547
  0
LINE
  5
4be
100
AcDbEntity
  8
0
  6
CONTINUOUS
 62
     7
100
AcDbLine
 10
34.53117590201918
 20
22.43601638383601
 11
33.26752222673557
 21
25.3520765830709
  0
LINE
  5
4bf
100
AcDbEntity
  8
0
  6
CONTINUOUS
 62
     7
100
AcDbLine
 10
34.53117590201918
 20
22.43601638383601
 11
34.36162913874161
 21
25.60957615035715
  0
MTEXT
  5
4c0
100
AcDbEntity
  8
0
  6
CONTINUOUS
 62
     7
100
AcDbMText
 10
-6.655943379333074
 20
40.97673491242502
 40
5
 41
100
 71
     7
 72
     1
  1
{\W0.848905;２－Ｒｃ１}
  0
MTEXT
  5
4c1
100
AcDbEntity
  8
0
  6
CONTINUOUS
 62
     7
100
AcDbMText
 10
18.34405662066693
 20
44.72673491242502
 40
2.5
 41
10
 71
     7
 72
     1
  1
{\W0.900315;１}
  0
MTEXT
  5
4c2
100
AcDbEntity
  8
0
  6
CONTINUOUS
 62
     7
100
AcDbMText
 10
18.34405662066693
 20
40.97673491242502
 40
2.5
 41
10
 71
     7
 72
     1
  1
{\W0.900315;２}
  0
LINE
  5
4c3
100
AcDbEntity
  8
0
  6
CONTINUOUS
 62
     7
100
AcDbLine
 10
34.53117590201918
 20
22.43601638383601
 11
29.43211876227637
 21
44.10173691339547
  0
LINE
  5
4c4
100
AcDbEntity
  8
0
  6
CONTINUOUS
 62
     7
100
AcDbLine
 10
29.43211876227637
 20
44.10173691339547
 11
22.47691328997124
 21
44.10173691339547
  0
LINE
  5
4c5
100
AcDbEntity
  8
0
  6
CONTINUOUS
 62
     7
100
AcDbLine
 10
315.1364046432178
 20
26.88827416799437
 11
324.4534609467146
 21
43.74235422702343
  0
LINE
  5
4c6
100
AcDbEntity
  8
0
  6
CONTINUOUS
 62
     7
100
AcDbLine
 10
315.1364046432178
 20
26.88827416799437
 11
316.1578938263859
 21
29.89772387604567
  0
LINE
  5
4c7
100
AcDbEntity
  8
0
  6
CONTINUOUS
 62
     7
100
AcDbLine
 10
315.1364046432178
 20
26.88827416799437
 11
317.141592165157
 21
29.35392838107435
  0
MTEXT
  5
4c8
100
AcDbEntity
  8
0
  6
CONTINUOUS
 62
     7
100
AcDbMText
 10
329.7196144669331
 20
43.74236317604549
 40
5
 41
100
 71
     4
 72
     1
  1
{\W0.848905;Ｍ５ドレン}
  0
LINE
  5
4c9
100
AcDbEntity
  8
0
  6
CONTINUOUS
 62
     7
100
AcDbLine
 10
315.1364046432178
 20
26.88827416799437
 11
324.4534609467146
 21
43.74235422702343
  0
LINE
  5
4ca
100
AcDbEntity
  8
0
  6
CONTINUOUS
 62
     7
100
AcDbLine
 10
324.4534609467146
 20
43.74235422702343
 11
328.0867496232773
 21
43.74235422702343
  0
LINE
  5
4cb
100
AcDbEntity
  8
0
  6
CONTINUOUS
 62
     7
100
AcDbLine
 10
67.91351232734635
 20
113.1103330554601
 11
58.29282552776294
 21
129.0562112059275
  0
LINE
  5
4cc
100
AcDbEntity
  8
0
  6
CONTINUOUS
 62
     7
100
AcDbLine
 10
67.91351232734635
 20
113.1103330554601
 11
65.50750204916649
 21
115.162433014264
  0
LINE
  5
4cd
100
AcDbEntity
  8
0
  6
CONTINUOUS
 62
     7
100
AcDbLine
 10
67.91351232734635
 20
113.1103330554601
 11
67.21996408008481
 21
116.1956191894111
  0
MTEXT
  5
4ce
100
AcDbEntity
  8
0
  6
CONTINUOUS
 62
     7
100
AcDbMText
 10
21.67463535367823
 20
126.5562133968935
 40
5
 41
100
 71
     7
 72
     1
  1
{\W0.848905;Ｒｃ１／４}
  0
MTEXT
  5
4cf
100
AcDbEntity
  8
0
  6
CONTINUOUS
 62
     7
100
AcDbMText
 10
21.67463535367823
 20
119.0562133968935
 40
5
 41
60
 71
     7
 72
     1
  1
{\W0.855331;操作口}
  0
LINE
  5
4d0
100
AcDbEntity
  8
0
  6
CONTINUOUS
 62
     7
100
AcDbLine
 10
67.91351232734635
 20
113.1103330554601
 11
58.29282552776294
 21
129.0562112059275
  0
LINE
  5
4d1
100
AcDbEntity
  8
0
  6
CONTINUOUS
 62
     7
100
AcDbLine
 10
58.29282552776294
 20
129.0562112059275
 11
48.30749593985924
 21
129.0562112059275
  0
DIMENSION
  5
4d2
100
AcDbEntity
  8
0
  6
CONTINUOUS
 62
     7
100
AcDbDimension
  2
*D6
 70
     0
 10
311.8938390168776
 20
-78.50000242676057
 11
279.3938384634059
 21
-78.50000242676057
  3
DIMSTYLE
100
AcDbAlignedDimension
 13
246.8938379099342
 23
-54.61175739103994
 14
311.8938390168776
 24
-54.61175739103994
 50
0
100
AcDbRotatedDimension
1001
ACAD
1000
DSTYLE
1002
{
1070
     6
1000
_OPEN30
1070
     7
1000
_OPEN30
1070
    77
1070
     1
1070
   172
1070
     1
1070
    42
1040
0
1002
}
  0
DIMENSION
  5
4d3
100
AcDbEntity
  8
0
  6
CONTINUOUS
 62
     7
100
AcDbDimension
  2
*D7
 70
     0
 10
309.3938389743028
 20
11.57807359012779
 11
225.4178534362247
 21
11.57807359012779
  3
DIMSTYLE
100
AcDbAlignedDimension
 13
249.3938379525089
 23
14.12908578138838
 14
309.3938389743028
 24
14.12908578138838
 50
0
100
AcDbRotatedDimension
1001
ACAD
1000
DSTYLE
1002
{
1070
    77
1070
     1
1070
   172
1070
     1
1070
    42
1040
0
1002
}
  0
ENDSEC
  0
SECTION
  2
OBJECTS
  0
DICTIONARY
  5
4d4
100
AcDbDictionary
  3
ACAD_GROUP
350
4d5
  3
ACAD_MLINESTYLE
350
4d6
  0
DICTIONARY
  5
4d5
102
{ACAD_REACTORS
330
4d4
102
}
100
AcDbDictionary
  0
DICTIONARY
  5
4d6
102
{ACAD_REACTORS
330
4d4
102
}
100
AcDbDictionary
  3
STANDARD
350
4d7
  0
MLINESTYLE
  5
4d7
102
{ACAD_REACTORS
330
4d6
102
}
100
AcDbMlineStyle
  2
STANDARD
 70
     0
  3

 62
     0
 51
90
 52
90
 71
     2
 49
0.5
 62
   256
  6
BYLAYER
 49
-0.5
 62
   256
  6
BYLAYER
  0
ENDSEC
  0
EOF
