  0
SECTION
  2
HEADER
  9
$ACADVER
  1
AC1015
  9
$EXTMAX
 10
560.9502072586237
 20
354.4037861231614
 30
0
  9
$EXTMIN
 10
-235.3902137652875
 20
-217.8995297860228
 30
0
  9
$LIMMAX
 10
560.9502072586237
 20
354.4037861231614
  9
$LIMMIN
 10
-235.3902137652875
 20
-217.8995297860228
  9
$PLIMMAX
 10
560.9502072586237
 20
354.4037861231614
  9
$PLIMMIN
 10
-235.3902137652875
 20
-217.8995297860228
  9
$TEXTSIZE
 40
3.2
  9
$DIMSHO
 70
     0
  9
$DIMASZ
 40
1.0
  9
$DIMTAD
 70
     1
  9
$DIMTIH
 70
     0
  9
$DIMTOH
 70
     0
  9
$DIMEXE
 40
2.54
  9
$DIMEXO
 40
2.54
  9
$DIMTVP
 40
1.0
  9
$DIMSAH
 70
     1
  9
$DIMDLE
 40
0.0
  9
$DIMTXT
 40
4
  9
$DIMGAP
 40
2
  9
$DIMAUNIT
 70
     1
  9
$DIMDEC
 70
     1
  9
$HANDSEED
  5
     578
  9
$MEASUREMENT
 70
     1
  0
ENDSEC
  0
SECTION
  2
TABLES
  0
TABLE
  2
LTYPE
  5
25
100
AcDbSymbolTable
 70
    48
  0
LTYPE
  5
26
100
AcDbSymbolTableRecord
100
AcDbLinetypeTableRecord
  2
BYBLOCK
 70
    64
  3

 72
    65
 73
     0
 40
0.0
  0
LTYPE
  5
27
100
AcDbSymbolTableRecord
100
AcDbLinetypeTableRecord
  2
BYLAYER
 70
    64
  3

 72
    65
 73
     0
 40
0.0
  0
LTYPE
  5
28
100
AcDbSymbolTableRecord
100
AcDbLinetypeTableRecord
  2
CONTINUOUS
 70
    64
  3
Solid line
 72
    65
 73
     0
 40
0.0
  0
LTYPE
  5
29
100
AcDbSymbolTableRecord
100
AcDbLinetypeTableRecord
  2
DASHED
 70
    64
  3
Dashed __ __ __ __ __ __ __ __ __ __ __ __ __ _
 72
    65
 73
     2
 40
4.5
 49
3.0
 74
     0
 49
-1.5
 74
     0
  0
LTYPE
  5
2a
100
AcDbSymbolTableRecord
100
AcDbLinetypeTableRecord
  2
CENTER
 70
    64
  3
Center ____ _ ____ _ ____ _ ____ _ ____ _ ____
 72
    65
 73
     4
 74
     0
 40
12.0
 49
7.5
 74
     0
 49
-1.5
 74
     0
 49
1.5
 74
     0
 49
-1.5
 74
     0
  0
LTYPE
  5
2b
100
AcDbSymbolTableRecord
100
AcDbLinetypeTableRecord
  2
PHANTOM
 70
    64
  3
Phantom ______  __  __  ______  __  __  ______
 72
    65
 73
     6
 74
     0
 40
15.0
 49
7.5
 74
     0
 49
-1.5
 74
     0
 49
1.5
 74
     0
 49
-1.5
 74
     0
 49
1.5
 74
     0
 49
-1.5
 74
     0
  0
LTYPE
  5
2c
100
AcDbSymbolTableRecord
100
AcDbLinetypeTableRecord
  2
DOT
 70
    64
  3
Dot . . . . . . . . . . . . . . . . . . . . . .
 72
    65
 73
     2
 74
     0
 40
1.5
 49
0.0
 74
     0
 49
-1.5
 74
     0
  0
LTYPE
  5
2d
100
AcDbSymbolTableRecord
100
AcDbLinetypeTableRecord
  2
HIDDEN
 70
    64
  3
Hidden __ __ __ __ __ __ __ __ __ __ __ __ __ _
 72
    65
 73
     2
 74
     0
 40
4.5
 49
3.0
 74
     0
 49
-1.5
 74
     0
  0
LTYPE
  5
2e
100
AcDbSymbolTableRecord
100
AcDbLinetypeTableRecord
  2
BORDER
 70
    64
  3
Border __ __ . __ __ . __ __ . __ __ . __ __ .
 72
    65
 73
     6
 40
3.5
 49
1.0
 74
     0
 49
-0.5
 74
     0
 49
1.0
 74
     0
 49
-0.5
 74
     0
 49
0.0
 74
     0
 49
-0.5
 74
     0
  0
LTYPE
  5
2f
100
AcDbSymbolTableRecord
100
AcDbLinetypeTableRecord
  2
BORDER2
 70
    64
  3
Border (.5x) __.__.__.__.__.__.__.__.__.__.__.
 72
    65
 73
     6
 40
1.75
 49
0.5
 74
     0
 49
-0.25
 74
     0
 49
0.5
 74
     0
 49
-0.25
 74
     0
 49
0.0
 74
     0
 49
-0.25
 74
     0
  0
LTYPE
  5
30
100
AcDbSymbolTableRecord
100
AcDbLinetypeTableRecord
  2
BORDERX2
 70
    64
  3
Border (2x) ____  ____  .  ____  ____  .  ___
 72
    65
 73
     6
 40
7.0
 49
2.0
 74
     0
 49
-1.0
 74
     0
 49
2.0
 74
     0
 49
-1.0
 74
     0
 49
0.0
 74
     0
 49
-1.0
 74
     0
  0
LTYPE
  5
31
100
AcDbSymbolTableRecord
100
AcDbLinetypeTableRecord
  2
CENTER2
 70
    64
  3
Center (.5x) ___ _ ___ _ ___ _ ___ _ ___ _ ___
 72
    65
 73
     4
 40
6.0
 49
3.75
 74
     0
 49
-0.75
 74
     0
 49
0.75
 74
     0
 49
-0.75
 74
     0
  0
LTYPE
  5
32
100
AcDbSymbolTableRecord
100
AcDbLinetypeTableRecord
  2
CENTERX2
 70
    64
  3
Center (2x) ________  __  ________  __  _____
 72
    65
 73
     4
 40
24.0
 49
15.0
 74
     0
 49
-3.0
 74
     0
 49
3.0
 74
     0
 49
-3.0
 74
     0
  0
LTYPE
  5
33
100
AcDbSymbolTableRecord
100
AcDbLinetypeTableRecord
  2
DASHDOT
 70
    64
  3
Dash dot __ . __ . __ . __ . __ . __ . __ . __
 72
    65
 73
     4
 40
6.0
 49
3.0
 74
     0
 49
-1.5
 74
     0
 49
0.0
 74
     0
 49
-1.5
 74
     0
  0
LTYPE
  5
34
100
AcDbSymbolTableRecord
100
AcDbLinetypeTableRecord
  2
DASHDOT2
 70
    64
  3
Dash dot (.5x) _._._._._._._._._._._._._._._.
 72
    65
 73
     4
 40
3.0
 49
1.5
 74
     0
 49
-0.75
 74
     0
 49
0.0
 74
     0
 49
-0.75
 74
     0
  0
LTYPE
  5
35
100
AcDbSymbolTableRecord
100
AcDbLinetypeTableRecord
  2
DASHDOTX2
 70
    64
  3
Dash dot (2x) ____  .  ____  .  ____  .  ___
 72
    65
 73
     4
 40
12.0
 49
6.0
 74
     0
 49
-3.0
 74
     0
 49
0.0
 74
     0
 49
-3.0
 74
     0
  0
LTYPE
  5
36
100
AcDbSymbolTableRecord
100
AcDbLinetypeTableRecord
  2
DASHED2
 70
    64
  3
Dashed (.5x) _ _ _ _ _ _ _ _ _ _ _ _ _ _ _ _ _
 72
    65
 73
     2
 40
2.25
 49
1.5
 74
     0
 49
-0.75
 74
     0
  0
LTYPE
  5
37
100
AcDbSymbolTableRecord
100
AcDbLinetypeTableRecord
  2
DASHEDX2
 70
    64
  3
Dashed (2x) ____  ____  ____  ____  ____  ___
 72
    65
 73
     2
 40
9.0
 49
6.0
 74
     0
 49
-3.0
 74
     0
  0
LTYPE
  5
38
100
AcDbSymbolTableRecord
100
AcDbLinetypeTableRecord
  2
DIVIDE
 70
    64
  3
Divide ____ . . ____ . . ____ . . ____ . . ____
 72
    65
 73
     6
 40
7.5
 49
3.0
 74
     0
 49
-1.5
 74
     0
 49
0.0
 74
     0
 49
-1.5
 74
     0
 49
0.0
 74
     0
 49
-1.5
 74
     0
  0
LTYPE
  5
39
100
AcDbSymbolTableRecord
100
AcDbLinetypeTableRecord
  2
DIVIDE2
 70
    64
  3
Divide (.5x) __..__..__..__..__..__..__..__.._
 72
    65
 73
     6
 40
3.75
 49
1.5
 74
     0
 49
-0.75
 74
     0
 49
0.0
 74
     0
 49
-0.75
 74
     0
 49
0.0
 74
     0
 49
-0.75
 74
     0
  0
LTYPE
  5
3a
100
AcDbSymbolTableRecord
100
AcDbLinetypeTableRecord
  2
DIVIDEX2
 70
    64
  3
Divide (2x) ________  .  .  ________  .  .  _
 72
    65
 73
     6
 40
15.0
 49
6.0
 74
     0
 49
-3.0
 74
     0
 49
0.0
 74
     0
 49
-3.0
 74
     0
 49
0.0
 74
     0
 49
-3.0
 74
     0
  0
LTYPE
  5
3b
100
AcDbSymbolTableRecord
100
AcDbLinetypeTableRecord
  2
DOT2
 70
    64
  3
Dot (.5x) .....................................
 72
    65
 73
     2
 40
0.75
 49
0.0
 74
     0
 49
-0.75
 74
     0
  0
LTYPE
  5
3c
100
AcDbSymbolTableRecord
100
AcDbLinetypeTableRecord
  2
DOTX2
 70
    64
  3
Dot (2x) .  .  .  .  .  .  .  .  .  .  .  .  . 
 72
    65
 73
     2
 40
3.0
 49
0.0
 74
     0
 49
-3.0
 74
     0
  0
LTYPE
  5
3d
100
AcDbSymbolTableRecord
100
AcDbLinetypeTableRecord
  2
HIDDEN2
 70
    64
  3
Hidden (.5x) _ _ _ _ _ _ _ _ _ _ _ _ _ _ _ _ _
 72
    65
 73
     2
 40
2.25
 49
1.5
 74
     0
 49
-0.75
 74
     0
  0
LTYPE
  5
3e
100
AcDbSymbolTableRecord
100
AcDbLinetypeTableRecord
  2
HIDDENX2
 70
    64
  3
Hidden (2x) ____ ____ ____ ____ ____ ____ ____
 72
    65
 73
     2
 40
9.0
 49
6.0
 74
     0
 49
-3.0
 74
     0
  0
LTYPE
  5
3f
100
AcDbSymbolTableRecord
100
AcDbLinetypeTableRecord
  2
PHANTOM2
 70
    64
  3
Phantom (.5x) ___ _ _ ___ _ _ ___ _ _ ___ _ _
 72
    65
 73
     6
 40
7.5
 49
3.75
 74
     0
 49
-0.75
 74
     0
 49
0.75
 74
     0
 49
-0.75
 74
     0
 49
0.75
 74
     0
 49
-0.75
 74
     0
  0
LTYPE
  5
40
100
AcDbSymbolTableRecord
100
AcDbLinetypeTableRecord
  2
PHANTOMX2
 70
    64
  3
Phantom (2x) ____________    ____    ____   _
 72
    65
 73
     6
 40
30.0
 49
15.0
 74
     0
 49
-3.0
 74
     0
 49
3.0
 74
     0
 49
-3.0
 74
     0
 49
3.0
 74
     0
 49
-3.0
 74
     0
  0
LTYPE
  5
41
100
AcDbSymbolTableRecord
100
AcDbLinetypeTableRecord
  2
ACAD_ISO02W100
 70
     0
  3
ISO dash __ __ __ __ __ __ __ __ __ __ __ __ __
 72
    65
 73
     2
 40
15.0
 49
12.0
 74
     0
 49
-3.0
 74
     0
  0
LTYPE
  5
42
100
AcDbSymbolTableRecord
100
AcDbLinetypeTableRecord
  2
ACAD_ISO03W100
 70
     0
  3
ISO dash space __    __    __    __    __    __
 72
    65
 73
     2
 40
30.0
 49
12.0
 74
     0
 49
-18.0
 74
     0
  0
LTYPE
  5
43
100
AcDbSymbolTableRecord
100
AcDbLinetypeTableRecord
  2
ACAD_ISO04W100
 70
     0
  3
ISO long-dash dot ____ . ____ . ____ . ____ . _
 72
    65
 73
     4
 40
30.0
 49
24.0
 74
     0
 49
-3.0
 74
     0
 49
0.0
 74
     0
 49
-3.0
 74
     0
  0
LTYPE
  5
44
100
AcDbSymbolTableRecord
100
AcDbLinetypeTableRecord
  2
ACAD_ISO05W100
 70
     0
  3
ISO long-dash double-dot ____ .. ____ .. ____ .
 72
    65
 73
     6
 40
33.0
 49
24.0
 74
     0
 49
-3.0
 74
     0
 49
0.0
 74
     0
 49
-3.0
 74
     0
 49
0.0
 74
     0
 49
-3.0
 74
     0
  0
LTYPE
  5
45
100
AcDbSymbolTableRecord
100
AcDbLinetypeTableRecord
  2
ACAD_ISO06W100
 70
     0
  3
ISO long-dash triple-dot ____ ... ____ ... ____
 72
    65
 73
     8
 40
36.0
 49
24.0
 74
     0
 49
-3.0
 74
     0
 49
0.0
 74
     0
 49
-3.0
 74
     0
 49
0.0
 74
     0
 49
-3.0
 74
     0
 49
0.0
 74
     0
 49
-3.0
 74
     0
  0
LTYPE
  5
46
100
AcDbSymbolTableRecord
100
AcDbLinetypeTableRecord
  2
ACAD_ISO07W100
 70
     0
  3
ISO dot . . . . . . . . . . . . . . . . . . . .
 72
    65
 73
     2
 40
3.0
 49
0.0
 74
     0
 49
-3.0
 74
     0
  0
LTYPE
  5
47
100
AcDbSymbolTableRecord
100
AcDbLinetypeTableRecord
  2
ACAD_ISO08W100
 70
     0
  3
ISO long-dash short-dash ____ __ ____ __ ____ _
 72
    65
 73
     4
 40
36.0
 49
24.0
 74
     0
 49
-3.0
 74
     0
 49
6.0
 74
     0
 49
-3.0
 74
     0
  0
LTYPE
  5
48
100
AcDbSymbolTableRecord
100
AcDbLinetypeTableRecord
  2
ACAD_ISO09W100
 70
     0
  3
ISO long-dash double-short-dash ____ __ __ ____
 72
    65
 73
     6
 40
45.0
 49
24.0
 74
     0
 49
-3.0
 74
     0
 49
6.0
 74
     0
 49
-3.0
 74
     0
 49
6.0
 74
     0
 49
-3.0
 74
     0
  0
LTYPE
  5
49
100
AcDbSymbolTableRecord
100
AcDbLinetypeTableRecord
  2
ACAD_ISO10W100
 70
     0
  3
ISO dash dot __ . __ . __ . __ . __ . __ . __ .
 72
    65
 73
     4
 40
18.0
 49
12.0
 74
     0
 49
-3.0
 74
     0
 49
0.0
 74
     0
 49
-3.0
 74
     0
  0
LTYPE
  5
4a
100
AcDbSymbolTableRecord
100
AcDbLinetypeTableRecord
  2
ACAD_ISO11W100
 70
     0
  3
ISO double-dash dot __ __ . __ __ . __ __ . __ 
 72
    65
 73
     6
 40
33.0
 49
12.0
 74
     0
 49
-3.0
 74
     0
 49
12.0
 74
     0
 49
-3.0
 74
     0
 49
0.0
 74
     0
 49
-3.0
 74
     0
  0
LTYPE
  5
4b
100
AcDbSymbolTableRecord
100
AcDbLinetypeTableRecord
  2
ACAD_ISO12W100
 70
     0
  3
ISO dash double-dot __ . . __ . . __ . . __ . .
 72
    65
 73
     6
 40
21.0
 49
12.0
 74
     0
 49
-3.0
 74
     0
 49
0.0
 74
     0
 49
-3.0
 74
     0
 49
0.0
 74
     0
 49
-3.0
 74
     0
  0
LTYPE
  5
4c
100
AcDbSymbolTableRecord
100
AcDbLinetypeTableRecord
  2
ACAD_ISO13W100
 70
     0
  3
ISO double-dash double-dot __ __ . . __ __ . . 
 72
    65
 73
     8
 40
36.0
 49
12.0
 74
     0
 49
-3.0
 74
     0
 49
12.0
 74
     0
 49
-3.0
 74
     0
 49
0.0
 74
     0
 49
-3.0
 74
     0
 49
0.0
 74
     0
 49
-3.0
 74
     0
  0
LTYPE
  5
4d
100
AcDbSymbolTableRecord
100
AcDbLinetypeTableRecord
  2
ACAD_ISO14W100
 70
     0
  3
ISO dash triple-dot __ . . . __ . . . __ . . . 
 72
    65
 73
     8
 40
24.0
 49
12.0
 74
     0
 49
-3.0
 74
     0
 49
0.0
 74
     0
 49
-3.0
 74
     0
 49
0.0
 74
     0
 49
-3.0
 74
     0
 49
0.0
 74
     0
 49
-3.0
 74
     0
  0
LTYPE
  5
4e
100
AcDbSymbolTableRecord
100
AcDbLinetypeTableRecord
  2
ACAD_ISO15W100
 70
     0
  3
ISO double-dash triple-dot __ __ . . . __ __ . 
 72
    65
 73
    10
 40
39.0
 49
12.0
 74
     0
 49
-3.0
 74
     0
 49
12.0
 74
     0
 49
-3.0
 74
     0
 49
0.0
 74
     0
 49
-3.0
 74
     0
 49
0.0
 74
     0
 49
-3.0
 74
     0
 49
0.0
 74
     0
 49
-3.0
 74
     0
  0
LTYPE
  5
4f
100
AcDbSymbolTableRecord
100
AcDbLinetypeTableRecord
  2
FENCELINE1
 70
     0
  3
Fenceline circle ----0-----0----0-----0----0---
 72
    65
 73
     4
 40
1.45
 49
0.25
 74
     0
 49
-0.1
 74
     4
 75
   133
340
24
 46
0.1
 50
0.0
 44
-0.1
 45
0.0
 49
-0.1
 74
     0
 49
1.0
 74
     0
  0
LTYPE
  5
50
100
AcDbSymbolTableRecord
100
AcDbLinetypeTableRecord
  2
FENCELINE2
 70
     0
  3
Fenceline square ----[]-----[]----[]-----[]----
 72
    65
 73
     4
 40
1.45
 49
0.25
 74
     0
 49
-0.1
 74
     4
 75
   132
340
24
 46
0.1
 50
0.0
 44
-0.1
 45
0.0
 49
-0.1
 74
     0
 49
1.0
 74
     0
  0
LTYPE
  5
51
100
AcDbSymbolTableRecord
100
AcDbLinetypeTableRecord
  2
TRACKS
 70
     0
  3
Tracks -|-|-|-|-|-|-|-|-|-|-|-|-|-|-|-|-|-|-|-|
 72
    65
 73
     2
 40
0.3
 49
0.15
 74
     4
 75
   130
340
24
 46
0.25
 50
0.0
 44
0.0
 45
0.0
 49
0.15
 74
     0
  0
LTYPE
  5
52
100
AcDbSymbolTableRecord
100
AcDbLinetypeTableRecord
  2
BATTING
 70
     0
  3
Batting SSSSSSSSSSSSSSSSSSSSSSSSSSSSSSSSSSSSSSS
 72
    65
 73
     4
 40
0.4001000000000002
 49
0.0001
 74
     0
 49
-0.1
 74
     4
 75
   134
340
24
 46
0.1
 50
0.0
 44
-0.1
 45
0.0
 49
-0.2
 74
     4
 75
   134
340
24
 46
0.1
 50
180.0
 44
0.1
 45
0.0
 49
-0.1
 74
     0
  0
LTYPE
  5
53
100
AcDbSymbolTableRecord
100
AcDbLinetypeTableRecord
  2
HOT_WATER_SUPPLY
 70
     0
  3
Hot water supply ---- HW ---- HW ---- HW ----
 72
    65
 73
     3
 40
0.9
 49
0.5
 74
     0
 49
-0.2
 74
     2
 75
     1
340
23
 46
0.1
 50
0.0
 44
-0.1
 45
-0.05
  9
HW
 49
-0.2
 74
     0
  0
LTYPE
  5
54
100
AcDbSymbolTableRecord
100
AcDbLinetypeTableRecord
  2
GAS_LINE
 70
     0
  3
Gas line ----GAS----GAS----GAS----GAS----GAS---
 72
    65
 73
     3
 40
0.95
 49
0.5
 74
     0
 49
-0.2
 74
     2
 75
     1
340
23
 46
0.1
 50
0.0
 44
-0.1
 45
-0.05
  9
GAS
 49
-0.25
 74
     0
  0
LTYPE
  5
55
100
AcDbSymbolTableRecord
100
AcDbLinetypeTableRecord
  2
ZIGZAG
 70
     0
  3
Zig zag /\/\/\/\/\/\/\/\/\/\/\/\/\/\/\/\/\/\/\/
 72
    65
 73
     4
 40
0.8001000000000001
 49
0.0001
 74
     0
 49
-0.2
 74
     4
 75
   131
340
24
 46
0.2
 50
0.0
 44
-0.2
 45
0.0
 49
-0.4
 74
     4
 75
   131
340
24
 46
0.2
 50
180.0
 44
0.2
 45
0.0
 49
-0.2
 74
     0
  0
ENDTAB
  0
TABLE
  2
LAYER
  5
c8
100
AcDbSymbolTable
 70
     2
  0
LAYER
  5
c9
100
AcDbSymbolTableRecord
100
AcDbLayerTableRecord
  2
0
 70
     0
 62
     7
  6
CONTINUOUS
390
F
  0
LAYER
  5
ca
100
AcDbSymbolTableRecord
100
AcDbLayerTableRecord
  2
DEFPOINTS
 70
     0
 62
     7
  6
CONTINUOUS
290
0
390
F
  0
ENDTAB
  0
TABLE
  2
STYLE
  5
cb
100
AcDbSymbolTable
 70
     2
  0
STYLE
  5
      23
100
AcDbSymbolTableRecord
100
AcDbTextStyleTableRecord
  2
STANDARD
 70
     0
 40
0.0
 41
1.0
 50
0.0
 71
     0
 42
0.2
  3
txt
  4
BIGFONT
  0
STYLE
  5
24
100
AcDbSymbolTableRecord
100
AcDbTextStyleTableRecord
  2

 70
     1
 40
0.0
 41
1.0
 50
0.0
 71
     0
 42
0.2
  3
ltypeshp.shx
  4

  0
ENDTAB
  0
TABLE
  2
DIMSTYLE
  5
cc
100
AcDbSymbolTable
100
AcDbDimStyleTable
 70
     1
  0
DIMSTYLE
105
cd
100
AcDbSymbolTableRecord
100
AcDbDimStyleTableRecord
  2
DIMSTYLE
 70
     0
  3

  4

  5
_OPEN
  6
_OPEN
  7
_OPEN
 40
1
 41
1
 42
0.009999999776482582
 43
0.38
 44
2.54
 45
0
 46
0
 47
0
 48
0
140
4
141
0.09
142
0
143
25.4
144
1
145
0
146
1
147
2
 71
     0
 72
     0
 73
     0
 74
     0
 75
     0
 76
     0
 78
     0
170
     0
171
     2
 77
     0
172
     0
173
     1
174
     0
175
     0
176
     0
177
     0
178
     0
271
     1
275
     1
340
23
  0
ENDTAB
  0
TABLE
  2
APPID
  5
ce
100
AcDbSymbolTable
 70
     1
  0
APPID
  5
cf
100
AcDbSymbolTableRecord
100
AcDbRegAppTableRecord
  2
ACAD
 70
     0
  0
ENDTAB
  0
TABLE
  2
VIEW
  5
d0
100
AcDbSymbolTable
 70
     0
  0
ENDTAB
  0
TABLE
  2
UCS
  5
d1
100
AcDbSymbolTable
 70
     0
  0
ENDTAB
  0
TABLE
  2
BLOCK_RECORD
  5
d2
100
AcDbSymbolTable
 70
    24
  0
BLOCK_RECORD
  5
d3
100
AcDbSymbolTableRecord
100
AcDbBlockTableRecord
  2
*MODEL_SPACE
  0
BLOCK_RECORD
  5
d4
100
AcDbSymbolTableRecord
100
AcDbBlockTableRecord
  2
*PAPER_SPACE
  0
BLOCK_RECORD
  5
d5
100
AcDbSymbolTableRecord
100
AcDbBlockTableRecord
  2
_OPEN
  0
BLOCK_RECORD
  5
d6
100
AcDbSymbolTableRecord
100
AcDbBlockTableRecord
  2
_OPEN30
  0
BLOCK_RECORD
  5
d7
100
AcDbSymbolTableRecord
100
AcDbBlockTableRecord
  2
KOZU0001
  0
BLOCK_RECORD
  5
d8
100
AcDbSymbolTableRecord
100
AcDbBlockTableRecord
  2
KOZU0002
  0
BLOCK_RECORD
  5
d9
100
AcDbSymbolTableRecord
100
AcDbBlockTableRecord
  2
KOZU0003
  0
BLOCK_RECORD
  5
da
100
AcDbSymbolTableRecord
100
AcDbBlockTableRecord
  2
KOZU0004
  0
BLOCK_RECORD
  5
db
100
AcDbSymbolTableRecord
100
AcDbBlockTableRecord
  2
KOZU0005
  0
BLOCK_RECORD
  5
dc
100
AcDbSymbolTableRecord
100
AcDbBlockTableRecord
  2
KOZU0006
  0
BLOCK_RECORD
  5
dd
100
AcDbSymbolTableRecord
100
AcDbBlockTableRecord
  2
KOZU0007
  0
BLOCK_RECORD
  5
de
100
AcDbSymbolTableRecord
100
AcDbBlockTableRecord
  2
KOZU0008
  0
BLOCK_RECORD
  5
df
100
AcDbSymbolTableRecord
100
AcDbBlockTableRecord
  2
KOZU0009
  0
BLOCK_RECORD
  5
e0
100
AcDbSymbolTableRecord
100
AcDbBlockTableRecord
  2
KOZU0010
  0
BLOCK_RECORD
  5
e1
100
AcDbSymbolTableRecord
100
AcDbBlockTableRecord
  2
KOZU0011
  0
BLOCK_RECORD
  5
e2
100
AcDbSymbolTableRecord
100
AcDbBlockTableRecord
  2
KOZU0012
  0
BLOCK_RECORD
  5
e3
100
AcDbSymbolTableRecord
100
AcDbBlockTableRecord
  2
*D1
  0
BLOCK_RECORD
  5
e4
100
AcDbSymbolTableRecord
100
AcDbBlockTableRecord
  2
*D2
  0
BLOCK_RECORD
  5
e5
100
AcDbSymbolTableRecord
100
AcDbBlockTableRecord
  2
*D3
  0
BLOCK_RECORD
  5
e6
100
AcDbSymbolTableRecord
100
AcDbBlockTableRecord
  2
*D4
  0
BLOCK_RECORD
  5
e7
100
AcDbSymbolTableRecord
100
AcDbBlockTableRecord
  2
*D5
  0
BLOCK_RECORD
  5
e8
100
AcDbSymbolTableRecord
100
AcDbBlockTableRecord
  2
*D6
  0
BLOCK_RECORD
  5
e9
100
AcDbSymbolTableRecord
100
AcDbBlockTableRecord
  2
*D7
  0
BLOCK_RECORD
  5
ea
100
AcDbSymbolTableRecord
100
AcDbBlockTableRecord
  2
*D8
  0
ENDTAB
  0
TABLE
  2
VPORT
  5
eb
100
AcDbSymbolTable
 70
     0
  0
ENDTAB
  0
ENDSEC
  0
SECTION
  2
BLOCKS
  0
BLOCK
  8
0
  5
ec
100
AcDbEntity
100
AcDbBlockBegin
  2
*MODEL_SPACE
 70
     0
 10
0
 20
0
  3
*MODEL_SPACE
  0
ENDBLK
  8
0
  5
ed
100
AcDbEntity
100
AcDbBlockEnd
  0
BLOCK
  8
0
  5
ee
 67
     1
100
AcDbEntity
100
AcDbBlockBegin
  2
*PAPER_SPACE
 70
     0
 10
0
 20
0
  3
*PAPER_SPACE
  0
ENDBLK
  8
0
  5
ef
 67
     1
100
AcDbEntity
100
AcDbBlockEnd
  0
BLOCK
  8
0
  5
f0
100
AcDbEntity
100
AcDbBlockBegin
  2
_OPEN
 70
    64
 10
0
 20
0
  3
_OPEN
  0
LINE
  5
f1
100
AcDbEntity
  8
0
  6
BYBLOCK
 62
     0
100
AcDbLine
 10
0
 20
0
 11
-3.12799995302215
 21
-0.5619999915596265
  0
LINE
  5
f2
100
AcDbEntity
  8
0
  6
BYBLOCK
 62
     0
100
AcDbLine
 10
0
 20
0
 11
-3.127999953022157
 21
0.5619999915595884
  0
LINE
  5
f3
100
AcDbEntity
  8
0
  6
BYBLOCK
 62
     0
100
AcDbLine
 10
0
 20
0
 11
-2.99999995494452
 21
0
  0
ENDBLK
  8
0
  5
f4
100
AcDbEntity
100
AcDbBlockEnd
  0
BLOCK
  8
0
  5
f5
100
AcDbEntity
100
AcDbBlockBegin
  2
_OPEN30
 70
    64
 10
0
 20
0
  3
_OPEN30
  0
LINE
  5
f6
100
AcDbEntity
  8
0
  6
BYBLOCK
 62
     0
100
AcDbLine
 10
0
 20
0
 11
-2.999999954944514
 21
-0.9999999849815249
  0
LINE
  5
f7
100
AcDbEntity
  8
0
  6
BYBLOCK
 62
     0
100
AcDbLine
 10
0
 20
0
 11
-2.999999954944526
 21
0.9999999849814883
  0
LINE
  5
f8
100
AcDbEntity
  8
0
  6
BYBLOCK
 62
     0
100
AcDbLine
 10
0
 20
0
 11
-2.99999995494452
 21
0
  0
ENDBLK
  8
0
  5
f9
100
AcDbEntity
100
AcDbBlockEnd
  0
BLOCK
  8
0
  5
fa
100
AcDbEntity
100
AcDbBlockBegin
  2
*D1
 70
    65
 10
0
 20
0
  0
MTEXT
  5
fb
100
AcDbEntity
  8
0
  6
CONTINUOUS
 62
     7
100
AcDbMText
 10
239.3938293457031
 20
-102
 40
5
 41
60
 71
     8
 72
     1
  1
{\W0.855331;□８０}
  0
LINE
  5
fc
100
AcDbEntity
  8
0
  6
CONTINUOUS
 62
     7
100
AcDbLine
 10
202.3938445594367
 20
-102
 11
276.3938293907586
 21
-102
  0
INSERT
  5
fd
100
AcDbEntity
  8
0
  6
CONTINUOUS
 62
     7
100
AcDbBlockReference
  2
_OPEN30
 10
199.3938446044922
 20
-102
 41
1
 42
1
 43
1
 50
180.0000000000004
  0
INSERT
  5
fe
100
AcDbEntity
  8
0
  6
CONTINUOUS
 62
     7
100
AcDbBlockReference
  2
_OPEN30
 10
279.3938293457031
 20
-102
 41
1
 42
1
 43
1
  0
LINE
  5
ff
100
AcDbEntity
  8
0
  6
CONTINUOUS
 62
     7
100
AcDbLine
 10
199.3938446044922
 20
-41.61172485351563
 11
199.3938446044922
 21
-106.0814361572266
  0
LINE
  5
100
100
AcDbEntity
  8
0
  6
CONTINUOUS
 62
     7
100
AcDbLine
 10
279.3938293457031
 20
-41.61172485351563
 11
279.3938293457031
 21
-106.0814361572266
  0
POINT
  5
101
100
AcDbEntity
  8
DEFPOINTS
  6
CONTINUOUS
 62
     7
100
AcDbPoint
 10
199.3938446044922
 20
-41.61172485351563
  0
POINT
  5
102
100
AcDbEntity
  8
DEFPOINTS
  6
CONTINUOUS
 62
     7
100
AcDbPoint
 10
279.3938293457031
 20
-41.61172485351563
  0
POINT
  5
103
100
AcDbEntity
  8
DEFPOINTS
  6
CONTINUOUS
 62
     7
100
AcDbPoint
 10
279.3938293457031
 20
-102
  0
ENDBLK
  8
0
  5
104
100
AcDbEntity
100
AcDbBlockEnd
  0
BLOCK
  8
0
  5
105
100
AcDbEntity
100
AcDbBlockBegin
  2
*D2
 70
    65
 10
0
 20
0
  0
MTEXT
  5
106
100
AcDbEntity
  8
0
  6
CONTINUOUS
 62
     7
100
AcDbMText
 10
323.7177734375
 20
-39.6116943359375
 40
5
 41
40
 71
     8
 72
     1
  1
{\W0.864328;５６}
 11
0
 21
1
  0
LINE
  5
107
100
AcDbEntity
  8
0
  6
CONTINUOUS
 62
     7
100
AcDbLine
 10
323.7177734375
 20
-64.61175541614924
 11
323.7177734375
 21
-14.61175914073554
  0
INSERT
  5
108
100
AcDbEntity
  8
0
  6
CONTINUOUS
 62
     7
100
AcDbBlockReference
  2
_OPEN30
 10
323.7177734375
 20
-67.61175537109375
 41
1
 42
1
 43
1
 50
270.0000000000005
  0
INSERT
  5
109
100
AcDbEntity
  8
0
  6
CONTINUOUS
 62
     7
100
AcDbBlockReference
  2
_OPEN30
 10
323.7177734375
 20
-11.61175918579102
 41
1
 42
1
 43
1
 50
90.00000000000019
  0
LINE
  5
10a
100
AcDbEntity
  8
0
  6
CONTINUOUS
 62
     7
100
AcDbLine
 10
296.7509765625
 20
-67.61170959472656
 11
326.0037841796875
 21
-67.61170959472656
  0
LINE
  5
10b
100
AcDbEntity
  8
0
  6
CONTINUOUS
 62
     7
100
AcDbLine
 10
310.8492126464844
 20
-11.61170959472656
 11
326.0037841796875
 21
-11.61170959472656
  0
POINT
  5
10c
100
AcDbEntity
  8
DEFPOINTS
  6
CONTINUOUS
 62
     7
100
AcDbPoint
 10
296.7509765625
 20
-67.61170959472656
  0
POINT
  5
10d
100
AcDbEntity
  8
DEFPOINTS
  6
CONTINUOUS
 62
     7
100
AcDbPoint
 10
310.8492126464844
 20
-11.61170959472656
  0
POINT
  5
10e
100
AcDbEntity
  8
DEFPOINTS
  6
CONTINUOUS
 62
     7
100
AcDbPoint
 10
323.7177734375
 20
-11.61175918579102
  0
ENDBLK
  8
0
  5
10f
100
AcDbEntity
100
AcDbBlockEnd
  0
BLOCK
  8
0
  5
110
100
AcDbEntity
100
AcDbBlockBegin
  2
*D3
 70
    65
 10
0
 20
0
  0
MTEXT
  5
111
100
AcDbEntity
  8
0
  6
CONTINUOUS
 62
     7
100
AcDbMText
 10
323.7177734375
 20
76.38829040527344
 40
5
 41
60
 71
     8
 72
     1
  1
{\W0.855331;１７６}
 11
0
 21
1
  0
LINE
  5
112
100
AcDbEntity
  8
0
  6
CONTINUOUS
 62
     7
100
AcDbLine
 10
323.7177734375
 20
-8.611759230846495
 11
323.7177734375
 21
161.3882904503289
  0
INSERT
  5
113
100
AcDbEntity
  8
0
  6
CONTINUOUS
 62
     7
100
AcDbBlockReference
  2
_OPEN30
 10
323.7177734375
 20
-11.61175918579102
 41
1
 42
1
 43
1
 50
270.0000000000005
  0
INSERT
  5
114
100
AcDbEntity
  8
0
  6
CONTINUOUS
 62
     7
100
AcDbBlockReference
  2
_OPEN30
 10
323.7177734375
 20
164.3882904052734
 41
1
 42
1
 43
1
 50
90.00000000000019
  0
LINE
  5
115
100
AcDbEntity
  8
0
  6
CONTINUOUS
 62
     7
100
AcDbLine
 10
269.3938293457031
 20
-11.61170959472656
 11
326.0037841796875
 21
-11.61170959472656
  0
LINE
  5
116
100
AcDbEntity
  8
0
  6
CONTINUOUS
 62
     7
100
AcDbLine
 10
286.8602600097656
 20
164.3883209228516
 11
326.0037841796875
 21
164.3883209228516
  0
POINT
  5
117
100
AcDbEntity
  8
DEFPOINTS
  6
CONTINUOUS
 62
     7
100
AcDbPoint
 10
269.3938293457031
 20
-11.61170959472656
  0
POINT
  5
118
100
AcDbEntity
  8
DEFPOINTS
  6
CONTINUOUS
 62
     7
100
AcDbPoint
 10
286.8602600097656
 20
164.3883209228516
  0
POINT
  5
119
100
AcDbEntity
  8
DEFPOINTS
  6
CONTINUOUS
 62
     7
100
AcDbPoint
 10
323.7177734375
 20
164.3882904052734
  0
ENDBLK
  8
0
  5
11a
100
AcDbEntity
100
AcDbBlockEnd
  0
BLOCK
  8
0
  5
11b
100
AcDbEntity
100
AcDbBlockBegin
  2
*D4
 70
    65
 10
0
 20
0
  0
MTEXT
  5
11c
100
AcDbEntity
  8
0
  6
CONTINUOUS
 62
     7
100
AcDbMText
 10
339.179006672612
 20
48.3883056640625
 40
5
 41
60
 71
     8
 72
     1
  1
{\W0.855331;２３２}
 11
0
 21
1
  0
LINE
  5
11d
100
AcDbEntity
  8
0
  6
CONTINUOUS
 62
     7
100
AcDbLine
 10
339.179006672612
 20
-64.61170963978205
 11
339.179006672612
 21
161.3883209679071
  0
INSERT
  5
11e
100
AcDbEntity
  8
0
  6
CONTINUOUS
 62
     7
100
AcDbBlockReference
  2
_OPEN30
 10
339.179006672612
 20
-67.61170959472656
 41
1
 42
1
 43
1
 50
270.0000000000005
  0
INSERT
  5
11f
100
AcDbEntity
  8
0
  6
CONTINUOUS
 62
     7
100
AcDbBlockReference
  2
_OPEN30
 10
339.179006672612
 20
164.3883209228516
 41
1
 42
1
 43
1
 50
90.00000000000019
  0
LINE
  5
120
100
AcDbEntity
  8
0
  6
CONTINUOUS
 62
     7
100
AcDbLine
 10
271.8938293457031
 20
-67.61170959472656
 11
341.465006672612
 21
-67.61170959472656
  0
LINE
  5
121
100
AcDbEntity
  8
0
  6
CONTINUOUS
 62
     7
100
AcDbLine
 10
259.3938598632813
 20
164.3883209228516
 11
341.465006672612
 21
164.3883209228516
  0
POINT
  5
122
100
AcDbEntity
  8
DEFPOINTS
  6
CONTINUOUS
 62
     7
100
AcDbPoint
 10
271.8938293457031
 20
-67.61170959472656
  0
POINT
  5
123
100
AcDbEntity
  8
DEFPOINTS
  6
CONTINUOUS
 62
     7
100
AcDbPoint
 10
259.3938598632813
 20
164.3883209228516
  0
POINT
  5
124
100
AcDbEntity
  8
DEFPOINTS
  6
CONTINUOUS
 62
     7
100
AcDbPoint
 10
339.179006672612
 20
164.3883209228516
  0
ENDBLK
  8
0
  5
125
100
AcDbEntity
100
AcDbBlockEnd
  0
BLOCK
  8
0
  5
126
100
AcDbEntity
100
AcDbBlockBegin
  2
*D5
 70
    65
 10
0
 20
0
  0
MTEXT
  5
127
100
AcDbEntity
  8
0
  6
CONTINUOUS
 62
     7
100
AcDbMText
 10
30.82240295410156
 20
-93.05047607421875
 40
5
 41
60
 71
     8
 72
     1
  1
{\W0.855331;１３０}
  0
LINE
  5
128
100
AcDbEntity
  8
0
  6
CONTINUOUS
 62
     7
100
AcDbLine
 10
-31.17759709095392
 20
-93.05047607421875
 11
92.82240299915705
 21
-93.05047607421876
  0
INSERT
  5
129
100
AcDbEntity
  8
0
  6
CONTINUOUS
 62
     7
100
AcDbBlockReference
  2
_OPEN30
 10
-34.17759704589844
 20
-93.05047607421875
 41
1
 42
1
 43
1
 50
180.0000000000004
  0
INSERT
  5
12a
100
AcDbEntity
  8
0
  6
CONTINUOUS
 62
     7
100
AcDbBlockReference
  2
_OPEN30
 10
95.82240295410156
 20
-93.05047607421875
 41
1
 42
1
 43
1
  0
LINE
  5
12b
100
AcDbEntity
  8
0
  6
CONTINUOUS
 62
     7
100
AcDbLine
 10
-34.17759704589844
 20
-41.61174011230469
 11
-34.17759704589844
 21
-97.13189697265625
  0
LINE
  5
12c
100
AcDbEntity
  8
0
  6
CONTINUOUS
 62
     7
100
AcDbLine
 10
95.82240295410156
 20
-41.61174011230469
 11
95.82240295410156
 21
-97.13189697265625
  0
POINT
  5
12d
100
AcDbEntity
  8
DEFPOINTS
  6
CONTINUOUS
 62
     7
100
AcDbPoint
 10
-34.17759704589844
 20
-41.61174011230469
  0
POINT
  5
12e
100
AcDbEntity
  8
DEFPOINTS
  6
CONTINUOUS
 62
     7
100
AcDbPoint
 10
95.82240295410156
 20
-41.61174011230469
  0
POINT
  5
12f
100
AcDbEntity
  8
DEFPOINTS
  6
CONTINUOUS
 62
     7
100
AcDbPoint
 10
95.82240295410156
 20
-93.05047607421875
  0
ENDBLK
  8
0
  5
130
100
AcDbEntity
100
AcDbBlockEnd
  0
BLOCK
  8
0
  5
131
100
AcDbEntity
100
AcDbBlockBegin
  2
*D6
 70
    65
 10
0
 20
0
  0
LINE
  5
132
100
AcDbEntity
  8
0
  6
CONTINUOUS
 62
     7
100
AcDbLine
 10
209.8938445594367
 20
-88.5
 11
268.8938293907586
 21
-88.50000000000001
  0
INSERT
  5
133
100
AcDbEntity
  8
0
  6
CONTINUOUS
 62
     7
100
AcDbBlockReference
  2
_OPEN30
 10
206.8938446044922
 20
-88.5
 41
1
 42
1
 43
1
 50
180.0000000000004
  0
INSERT
  5
134
100
AcDbEntity
  8
0
  6
CONTINUOUS
 62
     7
100
AcDbBlockReference
  2
_OPEN30
 10
271.8938293457031
 20
-88.5
 41
1
 42
1
 43
1
  0
LINE
  5
135
100
AcDbEntity
  8
0
  6
CONTINUOUS
 62
     7
100
AcDbLine
 10
206.8938446044922
 20
-67.61172103881836
 11
206.8938446044922
 21
-92.58142852783203
  0
LINE
  5
136
100
AcDbEntity
  8
0
  6
CONTINUOUS
 62
     7
100
AcDbLine
 10
271.8938293457031
 20
-67.61172103881836
 11
271.8938293457031
 21
-92.58142852783203
  0
MTEXT
  5
137
100
AcDbEntity
  8
0
  6
CONTINUOUS
 62
     7
100
AcDbMText
 10
239.3938293457031
 20
-88.5
 40
5
 41
110
 71
     8
 72
     1
  1
{\W0.855331;\U+2205６５}
  0
POINT
  5
138
100
AcDbEntity
  8
DEFPOINTS
  6
CONTINUOUS
 62
     7
100
AcDbPoint
 10
206.8938446044922
 20
-67.61172103881836
  0
POINT
  5
139
100
AcDbEntity
  8
DEFPOINTS
  6
CONTINUOUS
 62
     7
100
AcDbPoint
 10
271.8938293457031
 20
-67.61172103881836
  0
POINT
  5
13a
100
AcDbEntity
  8
DEFPOINTS
  6
CONTINUOUS
 62
     7
100
AcDbPoint
 10
271.8938293457031
 20
-88.5
  0
ENDBLK
  8
0
  5
13b
100
AcDbEntity
100
AcDbBlockEnd
  0
BLOCK
  8
0
  5
13c
100
AcDbEntity
100
AcDbBlockBegin
  2
*D7
 70
    65
 10
0
 20
0
  0
LINE
  5
13d
100
AcDbEntity
  8
0
  6
CONTINUOUS
 62
     7
100
AcDbLine
 10
33.82240290904608
 20
180.6722564697266
 11
127.822387740368
 21
180.6722564697265
  0
INSERT
  5
13e
100
AcDbEntity
  8
0
  6
CONTINUOUS
 62
     7
100
AcDbBlockReference
  2
_OPEN30
 10
30.82240295410156
 20
180.6722564697266
 41
1
 42
1
 43
1
 50
180.0000000000004
  0
INSERT
  5
13f
100
AcDbEntity
  8
0
  6
CONTINUOUS
 62
     7
100
AcDbBlockReference
  2
_OPEN30
 10
130.8223876953125
 20
180.6722564697266
 41
1
 42
1
 43
1
  0
LINE
  5
140
100
AcDbEntity
  8
0
  6
CONTINUOUS
 62
     7
100
AcDbLine
 10
30.82240295410156
 20
164.3882446289063
 11
30.82240295410156
 21
183.5292663574219
  0
LINE
  5
141
100
AcDbEntity
  8
0
  6
CONTINUOUS
 62
     7
100
AcDbLine
 10
130.8223876953125
 20
112.3881912231445
 11
130.8223876953125
 21
183.5292663574219
  0
MTEXT
  5
142
100
AcDbEntity
  8
0
  6
CONTINUOUS
 62
     7
100
AcDbMText
 10
80.82240295410156
 20
180.6722564697266
 40
5
 41
60
 71
     8
 72
     1
  1
{\W0.855331;１００}
  0
POINT
  5
143
100
AcDbEntity
  8
DEFPOINTS
  6
CONTINUOUS
 62
     7
100
AcDbPoint
 10
30.82240295410156
 20
164.3882446289063
  0
POINT
  5
144
100
AcDbEntity
  8
DEFPOINTS
  6
CONTINUOUS
 62
     7
100
AcDbPoint
 10
130.8223876953125
 20
112.3881912231445
  0
POINT
  5
145
100
AcDbEntity
  8
DEFPOINTS
  6
CONTINUOUS
 62
     7
100
AcDbPoint
 10
130.8223876953125
 20
180.6722564697266
  0
ENDBLK
  8
0
  5
146
100
AcDbEntity
100
AcDbBlockEnd
  0
BLOCK
  8
0
  5
147
100
AcDbEntity
100
AcDbBlockBegin
  2
*D8
 70
    65
 10
0
 20
0
  0
LINE
  5
148
100
AcDbEntity
  8
0
  6
CONTINUOUS
 62
     7
100
AcDbLine
 10
209.3938293457031
 20
2.271931803884684
 11
183.0094830211686
 21
2.271931803884684
  0
LINE
  5
149
100
AcDbEntity
  8
0
  6
CONTINUOUS
 62
     7
100
AcDbLine
 10
212.3938293006476
 20
2.271931803884684
 11
266.3938293907586
 21
2.271931803884665
  0
INSERT
  5
14a
100
AcDbEntity
  8
0
  6
CONTINUOUS
 62
     7
100
AcDbBlockReference
  2
_OPEN
 10
209.3938293457031
 20
2.271931803884684
 41
1
 42
1
 43
1
 50
180.0000000000004
  0
INSERT
  5
14b
100
AcDbEntity
  8
0
  6
CONTINUOUS
 62
     7
100
AcDbBlockReference
  2
_OPEN
 10
269.3938293457031
 20
2.271931803884684
 41
1
 42
1
 43
1
  0
LINE
  5
14c
100
AcDbEntity
  8
0
  6
CONTINUOUS
 62
     7
100
AcDbLine
 10
209.3938293457031
 20
4.129092216491699
 11
209.3938293457031
 21
-0.01406819611532351
  0
LINE
  5
14d
100
AcDbEntity
  8
0
  6
CONTINUOUS
 62
     7
100
AcDbLine
 10
269.3938293457031
 20
4.129092216491699
 11
269.3938293457031
 21
-0.01406819611532351
  0
MTEXT
  5
14e
100
AcDbEntity
  8
0
  6
CONTINUOUS
 62
     7
100
AcDbMText
 10
187.2951082405137
 20
2.271931803884684
 40
5
 41
40
 71
     8
 72
     1
  1
{\W0.864328;６０}
  0
POINT
  5
14f
100
AcDbEntity
  8
DEFPOINTS
  6
CONTINUOUS
 62
     7
100
AcDbPoint
 10
209.3938293457031
 20
4.129092216491699
  0
POINT
  5
150
100
AcDbEntity
  8
DEFPOINTS
  6
CONTINUOUS
 62
     7
100
AcDbPoint
 10
269.3938293457031
 20
4.129092216491699
  0
POINT
  5
151
100
AcDbEntity
  8
DEFPOINTS
  6
CONTINUOUS
 62
     7
100
AcDbPoint
 10
269.3938293457031
 20
2.271931803884684
  0
ENDBLK
  8
0
  5
152
100
AcDbEntity
100
AcDbBlockEnd
  0
BLOCK
  8
0
  5
153
100
AcDbEntity
100
AcDbBlockBegin
  2
KOZU0001
 70
    64
 10
0
 20
0
  0
POINT
  5
154
100
AcDbEntity
  8
0
  6
CONTINUOUS
 62
     7
100
AcDbPoint
 10
0
 20
0
  0
LINE
  5
155
100
AcDbEntity
  8
0
  6
CENTER
 62
     3
100
AcDbLine
 10
-68.28004455566406
 20
-1.089913530449849e-005
 11
68.30708420438565
 21
-1.089913530449849e-005
  0
LINE
  5
156
100
AcDbEntity
  8
0
  6
CONTINUOUS
 62
     7
100
AcDbLine
 10
-32.5
 20
-56.00001907348633
 11
32.5
 21
-56.00001907348633
  0
LINE
  5
157
100
AcDbEntity
  8
0
  6
CONTINUOUS
 62
     7
100
AcDbLine
 10
32.5
 20
-35.00003814697266
 11
32.5
 21
-56.00001907348633
  0
LINE
  5
158
100
AcDbEntity
  8
0
  6
CONTINUOUS
 62
     7
100
AcDbLine
 10
-32.5
 20
-35.00003814697266
 11
-32.5
 21
-56.00001907348633
  0
LINE
  5
159
100
AcDbEntity
  8
0
  6
CONTINUOUS
 62
     7
100
AcDbLine
 10
36.99999237060547
 20
93.99996185302734
 11
-36.99999237060547
 21
93.99996185302734
  0
LINE
  5
15a
100
AcDbEntity
  8
0
  6
CONTINUOUS
 62
     7
100
AcDbLine
 10
-34
 20
68.99996185302734
 11
-32.00000381469727
 21
68.99996185302734
  0
LINE
  5
15b
100
AcDbEntity
  8
0
  6
CONTINUOUS
 62
     7
100
AcDbLine
 10
33.99998474121094
 20
68.99996185302734
 11
33.99998474121094
 21
34.99996185302734
  0
LINE
  5
15c
100
AcDbEntity
  8
0
  6
CONTINUOUS
 62
     7
100
AcDbLine
 10
-33.99998474121094
 20
68.99996185302734
 11
-33.99998474121094
 21
34.99996185302734
  0
LINE
  5
15d
100
AcDbEntity
  8
0
  6
CONTINUOUS
 62
     7
100
AcDbLine
 10
32.00000381469727
 20
68.99996185302734
 11
34.00000381469727
 21
68.99996185302734
  0
LINE
  5
15e
100
AcDbEntity
  8
0
  6
CONTINUOUS
 62
     7
100
AcDbLine
 10
36.99999237060547
 20
93.99996185302734
 11
36.99999237060547
 21
68.99996185302734
  0
LINE
  5
15f
100
AcDbEntity
  8
0
  6
CONTINUOUS
 62
     7
100
AcDbLine
 10
-36.99999237060547
 20
93.99996185302734
 11
-36.99999237060547
 21
68.99996185302734
  0
LINE
  5
160
100
AcDbEntity
  8
0
  6
CONTINUOUS
 62
     7
100
AcDbLine
 10
-37.00000381469727
 20
68.99996185302734
 11
36.99999237060547
 21
68.99996185302734
  0
LINE
  5
161
100
AcDbEntity
  8
0
  6
CONTINUOUS
 62
     7
100
AcDbLine
 10
-25
 20
68.99995422363281
 11
-25
 21
34.99995803833008
  0
LINE
  5
162
100
AcDbEntity
  8
0
  6
CONTINUOUS
 62
     7
100
AcDbLine
 10
-33.00000762939453
 20
68.99995422363281
 11
-33.00000762939453
 21
34.99995803833008
  0
LINE
  5
163
100
AcDbEntity
  8
0
  6
CONTINUOUS
 62
     7
100
AcDbLine
 10
32.9999885559082
 20
68.99995422363281
 11
32.9999885559082
 21
34.99995803833008
  0
LINE
  5
164
100
AcDbEntity
  8
0
  6
CONTINUOUS
 62
     7
100
AcDbLine
 10
25
 20
68.99995422363281
 11
25
 21
34.99995803833008
  0
LINE
  5
165
100
AcDbEntity
  8
0
  6
CONTINUOUS
 62
     7
100
AcDbLine
 10
65
 20
29.99997901916504
 11
65
 21
-30.00002288818359
  0
LINE
  5
166
100
AcDbEntity
  8
0
  6
CONTINUOUS
 62
     7
100
AcDbLine
 10
-65
 20
29.99997901916504
 11
-65
 21
-30.00002288818359
  0
LINE
  5
167
100
AcDbEntity
  8
0
  6
CONTINUOUS
 62
     7
100
AcDbLine
 10
-46
 20
34.99997711181641
 11
45.99999618530273
 21
34.99997711181641
  0
LINE
  5
168
100
AcDbEntity
  8
0
  6
CONTINUOUS
 62
     7
100
AcDbLine
 10
45.99999618530273
 20
34.99996185302734
 11
45.99999618530273
 21
29.99997901916504
  0
LINE
  5
169
100
AcDbEntity
  8
0
  6
CONTINUOUS
 62
     7
100
AcDbLine
 10
-46.00001907348633
 20
34.99996185302734
 11
-46.00001907348633
 21
29.99997901916504
  0
LINE
  5
16a
100
AcDbEntity
  8
0
  6
CONTINUOUS
 62
     7
100
AcDbLine
 10
-65
 20
29.99997901916504
 11
-40
 21
29.99997901916504
  0
LINE
  5
16b
100
AcDbEntity
  8
0
  6
CONTINUOUS
 62
     7
100
AcDbLine
 10
40
 20
29.99997901916504
 11
65
 21
29.99997901916504
  0
LINE
  5
16c
100
AcDbEntity
  8
0
  6
CONTINUOUS
 62
     7
100
AcDbLine
 10
-65
 20
-30.00002288818359
 11
65
 21
-30.00002288818359
  0
LINE
  5
16d
100
AcDbEntity
  8
0
  6
CONTINUOUS
 62
     7
100
AcDbLine
 10
-33.00001525878906
 20
-35.00002288818359
 11
33.00004196166992
 21
-35.00002288818359
  0
LINE
  5
16e
100
AcDbEntity
  8
0
  6
CONTINUOUS
 62
     7
100
AcDbLine
 10
-33.99999271613728
 20
-30.00002288818359
 11
-32.99999341492024
 21
-35.00001909034378
  0
LINE
  5
16f
100
AcDbEntity
  8
0
  6
CONTINUOUS
 62
     7
100
AcDbLine
 10
34.00004717954164
 20
-30.00002288818359
 11
33.00004840201108
 21
-35.00001647191153
  0
LINE
  5
170
100
AcDbEntity
  8
0
  6
CONTINUOUS
 62
     7
100
AcDbLine
 10
-65
 20
-18.54101943969727
 11
-40
 21
-18.54101943969727
  0
LINE
  5
171
100
AcDbEntity
  8
0
  6
CONTINUOUS
 62
     7
100
AcDbLine
 10
-65
 20
18.54101943969727
 11
-40
 21
18.54101943969727
  0
LINE
  5
172
100
AcDbEntity
  8
0
  6
CONTINUOUS
 62
     7
100
AcDbLine
 10
40
 20
-18.54101943969727
 11
65
 21
-18.54101943969727
  0
LINE
  5
173
100
AcDbEntity
  8
0
  6
CONTINUOUS
 62
     7
100
AcDbLine
 10
40
 20
18.54101943969727
 11
65
 21
18.54101943969727
  0
LINE
  5
174
100
AcDbEntity
  8
0
  6
DASHED
 62
     7
100
AcDbLine
 10
45.99279281159673
 20
22.20819435834643
 11
64.99999827768222
 21
22.87194056806597
  0
LINE
  5
175
100
AcDbEntity
  8
0
  6
DASHED
 62
     7
100
AcDbLine
 10
46.00002743167038
 20
-22.20848325854825
 11
65.00000463768456
 21
-22.87197705187581
  0
LINE
  5
176
100
AcDbEntity
  8
0
  6
DASHED
 62
     7
100
AcDbLine
 10
45.4918158749481
 20
23.67059955807022
 11
64.94838198784078
 21
24.35003778662165
  0
LINE
  5
177
100
AcDbEntity
  8
0
  6
DASHED
 62
     7
100
AcDbLine
 10
45.49181006560951
 20
-23.67065661054105
 11
64.94837999087565
 21
-24.35009497222348
  0
LINE
  5
178
100
AcDbEntity
  8
0
  6
DASHED
 62
     7
100
AcDbLine
 10
-46.00001171621803
 20
-22.20849606933131
 11
-64.99999654697912
 21
-22.87199012892089
  0
LINE
  5
179
100
AcDbEntity
  8
0
  6
DASHED
 62
     7
100
AcDbLine
 10
-46.00002133793007
 20
22.2084391499915
 11
-65.00002141818499
 21
22.87193374210511
  0
LINE
  5
17a
100
AcDbEntity
  8
0
  6
DASHED
 62
     7
100
AcDbLine
 10
-45.49182223495043
 20
-23.67063604188007
 11
-64.94838072309621
 21
-24.35007400416947
  0
LINE
  5
17b
100
AcDbEntity
  8
0
  6
DASHED
 62
     7
100
AcDbLine
 10
-45.49181540898957
 20
23.67061290137732
 11
-64.948404396123
 21
24.35005192871479
  0
LINE
  5
17c
100
AcDbEntity
  8
0
  6
CONTINUOUS
 62
     7
100
AcDbLine
 10
-40
 20
34.99997711181641
 11
-40
 21
-30.00002288818359
  0
LINE
  5
17d
100
AcDbEntity
  8
0
  6
CONTINUOUS
 62
     7
100
AcDbLine
 10
40
 20
34.99997711181641
 11
40
 21
-30.00002288818359
  0
LINE
  5
17e
100
AcDbEntity
  8
0
  6
CENTER
 62
     3
100
AcDbLine
 10
0
 20
177.9084320068359
 11
0
 21
-60.49767684936523
  0
LINE
  5
17f
100
AcDbEntity
  8
0
  6
CONTINUOUS
 62
     7
100
AcDbLine
 10
-26.00000762939453
 20
131.9999542236328
 11
-26.00000762939453
 21
93.99996185302734
  0
LINE
  5
180
100
AcDbEntity
  8
0
  6
CONTINUOUS
 62
     7
100
AcDbLine
 10
-27.00008427202783
 20
98.7499347090731
 11
-26.00007817745296
 21
97.9999301195154
  0
LINE
  5
181
100
AcDbEntity
  8
0
  6
CONTINUOUS
 62
     7
100
AcDbLine
 10
-27.00006866455078
 20
117.2499618530273
 11
-27.00006866455078
 21
98.74993896484375
  0
LINE
  5
182
100
AcDbEntity
  8
0
  6
CONTINUOUS
 62
     7
100
AcDbLine
 10
-26.00013263225456
 20
117.9999203443512
 11
-27.00013262331387
 21
117.2499203324302
  0
LINE
  5
183
100
AcDbEntity
  8
0
  6
DASHED
 62
     7
100
AcDbLine
 10
-19.70009231567382
 20
114.5055298117519
 11
-26.97018732176359
 21
114.7594071117686
  0
LINE
  5
184
100
AcDbEntity
  8
0
  6
DASHED
 62
     7
100
AcDbLine
 10
-19.70009231567382
 20
113.6490281346873
 11
-27.00008918154469
 21
113.9039496306079
  0
LINE
  5
185
100
AcDbEntity
  8
0
  6
CENTER
 62
     3
100
AcDbLine
 10
-27.93154716491699
 20
107.9999542236328
 11
-19.70009231567383
 21
107.9999542236328
  0
LINE
  5
186
100
AcDbEntity
  8
0
  6
DASHED
 62
     7
100
AcDbLine
 10
-19.70009231567382
 20
101.4943986642246
 11
-26.97020289405117
 21
101.2405208204117
  0
LINE
  5
187
100
AcDbEntity
  8
0
  6
DASHED
 62
     7
100
AcDbLine
 10
-19.70009231567383
 20
102.3509385115141
 11
-27.00006605522108
 21
102.0960178231824
  0
LINE
  5
188
100
AcDbEntity
  8
0
  6
CONTINUOUS
 62
     7
100
AcDbLine
 10
-18.70009231567383
 20
117.6999435424805
 11
-18.70009231567383
 21
99.29994201660156
  0
LINE
  5
189
100
AcDbEntity
  8
0
  6
CONTINUOUS
 62
     7
100
AcDbLine
 10
18.6999626159668
 20
117.6999588012695
 11
-18.70008850097656
 21
117.6999588012695
  0
LINE
  5
18a
100
AcDbEntity
  8
0
  6
CONTINUOUS
 62
     7
100
AcDbLine
 10
18.6999626159668
 20
117.6999435424805
 11
18.6999626159668
 21
99.29994201660156
  0
LINE
  5
18b
100
AcDbEntity
  8
0
  6
CONTINUOUS
 62
     7
100
AcDbLine
 10
18.6999626159668
 20
99.29994201660156
 11
-18.70008850097656
 21
99.29994201660156
  0
LINE
  5
18c
100
AcDbEntity
  8
0
  6
CONTINUOUS
 62
     7
100
AcDbLine
 10
-7.000127792358398
 20
105.9999542236328
 11
-7.000127792358398
 21
99.29994201660156
  0
LINE
  5
18d
100
AcDbEntity
  8
0
  6
CENTER
 62
     3
100
AcDbLine
 10
6.999980449676514
 20
105.9999465942383
 11
-7.000127792358398
 21
105.9999465942383
  0
LINE
  5
18e
100
AcDbEntity
  8
0
  6
CONTINUOUS
 62
     7
100
AcDbLine
 10
-2.500005483627319
 20
107.4415969848633
 11
-2.500005483627319
 21
104.5583114624023
  0
LINE
  5
18f
100
AcDbEntity
  8
0
  6
CONTINUOUS
 62
     7
100
AcDbLine
 10
-2.500064180640486
 20
107.4415572129384
 11
-8.911715242021501e-005
 21
108.8849185147163
  0
LINE
  5
190
100
AcDbEntity
  8
0
  6
CONTINUOUS
 62
     7
100
AcDbLine
 10
-9.108568392690586e-005
 20
108.8849344582141
 11
2.499907103177215
 21
107.4415598049956
  0
LINE
  5
191
100
AcDbEntity
  8
0
  6
CONTINUOUS
 62
     7
100
AcDbLine
 10
2.5
 20
107.4415969848633
 11
2.5
 21
104.5583114624023
  0
LINE
  5
192
100
AcDbEntity
  8
0
  6
CONTINUOUS
 62
     7
100
AcDbLine
 10
-0.0001188907665508054
 20
103.1149048541825
 11
2.499958585087995
 21
104.5583252837688
  0
LINE
  5
193
100
AcDbEntity
  8
0
  6
CONTINUOUS
 62
     7
100
AcDbLine
 10
-2.500100677645413
 20
104.5582927952884
 11
-0.0001024887842717703
 21
103.1149181420698
  0
LINE
  5
194
100
AcDbEntity
  8
0
  6
CONTINUOUS
 62
     7
100
AcDbLine
 10
6.999980449676514
 20
105.9999542236328
 11
6.999980449676514
 21
99.29994201660156
  0
LINE
  5
195
100
AcDbEntity
  8
0
  6
CONTINUOUS
 62
     7
100
AcDbLine
 10
25.99997520446777
 20
131.9999542236328
 11
25.99997520446777
 21
93.99996185302734
  0
LINE
  5
196
100
AcDbEntity
  8
0
  6
CONTINUOUS
 62
     7
100
AcDbLine
 10
28.9999942779541
 20
97.49993896484375
 11
25.99988746643066
 21
97.49993896484375
  0
LINE
  5
197
100
AcDbEntity
  8
0
  6
CONTINUOUS
 62
     7
100
AcDbLine
 10
28.9999942779541
 20
124.4999465942383
 11
28.9999942779541
 21
97.49993896484375
  0
LINE
  5
198
100
AcDbEntity
  8
0
  6
CONTINUOUS
 62
     7
100
AcDbLine
 10
25.99997520446777
 20
124.9999389648438
 11
-26.00000762939453
 21
124.9999389648438
  0
LINE
  5
199
100
AcDbEntity
  8
0
  6
CENTER
 62
     3
100
AcDbLine
 10
-22.00005149841309
 20
137.3968353271484
 11
-22.00005149841309
 21
131.9999542236328
  0
LINE
  5
19a
100
AcDbEntity
  8
0
  6
CONTINUOUS
 62
     7
100
AcDbLine
 10
28.9999942779541
 20
124.4999465942383
 11
25.99988746643066
 21
124.4999465942383
  0
LINE
  5
19b
100
AcDbEntity
  8
0
  6
CONTINUOUS
 62
     7
100
AcDbLine
 10
25.9999573445057
 20
131.9999444921313
 11
24.99997323913622
 21
175.9999694824219
  0
LINE
  5
19c
100
AcDbEntity
  8
0
  6
CONTINUOUS
 62
     7
100
AcDbLine
 10
25.99997520446777
 20
131.9999542236328
 11
17.49920269480606
 21
131.9999542236328
  0
LINE
  5
19d
100
AcDbEntity
  8
0
  6
CONTINUOUS
 62
     7
100
AcDbLine
 10
16.50050479200455
 20
175.9999694824219
 11
17.49920269480605
 21
131.9999542236328
  0
LINE
  5
19e
100
AcDbEntity
  8
0
  6
CONTINUOUS
 62
     7
100
AcDbLine
 10
-26.00000762939453
 20
131.9999542236328
 11
-17.49937440039594
 21
131.9999542236328
  0
LINE
  5
19f
100
AcDbEntity
  8
0
  6
CONTINUOUS
 62
     7
100
AcDbLine
 10
-25.99997634605211
 20
131.9999575066017
 11
-24.99997343568708
 21
175.9999694824219
  0
LINE
  5
1a0
100
AcDbEntity
  8
0
  6
CONTINUOUS
 62
     7
100
AcDbLine
 10
-25.50002098083496
 20
132.9999389648438
 11
-18.50000762939453
 21
132.9999389648438
  0
LINE
  5
1a1
100
AcDbEntity
  8
0
  6
CONTINUOUS
 62
     7
100
AcDbLine
 10
-25.50002098083496
 20
134.2999496459961
 11
-25.50002098083496
 21
131.9999542236328
  0
LINE
  5
1a2
100
AcDbEntity
  8
0
  6
CONTINUOUS
 62
     7
100
AcDbLine
 10
-18.50000762939453
 20
134.2999496459961
 11
-18.50000762939453
 21
131.9999542236328
  0
LINE
  5
1a3
100
AcDbEntity
  8
0
  6
CONTINUOUS
 62
     7
100
AcDbLine
 10
-16.50067649759443
 20
175.9999694824219
 11
-17.49937440039593
 21
131.9999542236328
  0
LINE
  5
1a4
100
AcDbEntity
  8
0
  6
CONTINUOUS
 62
     7
100
AcDbLine
 10
-24.99997343568708
 20
175.9999694824219
 11
24.99997323913622
 21
175.9999694824219
  0
LINE
  5
1a5
100
AcDbEntity
  8
0
  6
CONTINUOUS
 62
     7
100
AcDbLine
 10
-36.99999237060547
 20
81.99996185302734
 11
-18.99998283386231
 21
81.99996185302734
  0
LINE
  5
1a6
100
AcDbEntity
  8
0
  6
CONTINUOUS
 62
     7
100
AcDbLine
 10
-18.99998283386231
 20
93.99996185302734
 11
-18.99998283386231
 21
81.99996185302734
  0
LINE
  5
1a7
100
AcDbEntity
  8
0
  6
CONTINUOUS
 62
     7
100
AcDbLine
 10
-22.5000114440918
 20
83.99999237060547
 11
-35.50000762939453
 21
83.99999237060547
  0
LINE
  5
1a8
100
AcDbEntity
  8
0
  6
CONTINUOUS
 62
     7
100
AcDbLine
 10
-22.5000114440918
 20
91.99996185302734
 11
-22.5000114440918
 21
81.99996185302734
  0
LINE
  5
1a9
100
AcDbEntity
  8
0
  6
CENTER
 62
     3
100
AcDbLine
 10
-28.99998283386231
 20
92.90126037597656
 11
-28.99998283386231
 21
34.99997711181641
  0
LINE
  5
1aa
100
AcDbEntity
  8
0
  6
CONTINUOUS
 62
     7
100
AcDbLine
 10
-22.5000114440918
 20
91.99996185302734
 11
-35.50000762939453
 21
91.99996185302734
  0
LINE
  5
1ab
100
AcDbEntity
  8
0
  6
CONTINUOUS
 62
     7
100
AcDbLine
 10
-35.50000762939453
 20
91.99996185302734
 11
-35.50000762939453
 21
81.99996185302734
  0
LINE
  5
1ac
100
AcDbEntity
  8
0
  6
CONTINUOUS
 62
     7
100
AcDbLine
 10
0.2999986410140991
 20
3.599989414215088
 11
0.2999986410140991
 21
1.799989223480225
  0
LINE
  5
1ad
100
AcDbEntity
  8
0
  6
CONTINUOUS
 62
     7
100
AcDbLine
 10
-8.70000171661377
 20
-1.089913530449849e-005
 11
7.499999046325684
 21
-1.089913530449849e-005
  0
LINE
  5
1ae
100
AcDbEntity
  8
0
  6
CONTINUOUS
 62
     7
100
AcDbLine
 10
-10.50000190734863
 20
1.799989223480225
 11
0.2999986410140991
 21
1.799989223480225
  0
LINE
  5
1af
100
AcDbEntity
  8
0
  6
CONTINUOUS
 62
     7
100
AcDbLine
 10
0.299999290023661
 20
3.599989347803331
 11
7.4999988839402
 21
-1.044915493908505e-005
  0
LINE
  5
1b0
100
AcDbEntity
  8
0
  6
CONTINUOUS
 62
     7
100
AcDbLine
 10
-10.50000255984531
 20
1.799989398764705
 11
-8.700002034312593
 21
-1.112676800740786e-005
  0
LINE
  5
1b1
100
AcDbEntity
  8
0
  6
CENTER
 62
     3
100
AcDbLine
 10
103.1492233276367
 20
110.9999465942383
 11
25.99987030029297
 21
110.9999465942383
  0
LINE
  5
1b2
100
AcDbEntity
  8
0
  6
CONTINUOUS
 62
     7
100
AcDbLine
 10
31.99998664855957
 20
121.4999465942383
 11
28.99999046325684
 21
121.4999465942383
  0
LINE
  5
1b3
100
AcDbEntity
  8
0
  6
CONTINUOUS
 62
     7
100
AcDbLine
 10
28.99999015368816
 20
120.2999306685535
 11
31.07845904214398
 21
121.4999352623437
  0
LINE
  5
1b4
100
AcDbEntity
  8
0
  6
CONTINUOUS
 62
     7
100
AcDbLine
 10
31.99998664855957
 20
127.9999465942383
 11
31.99998664855957
 21
96.99994659423828
  0
LINE
  5
1b5
100
AcDbEntity
  8
0
  6
CONTINUOUS
 62
     7
100
AcDbLine
 10
99.99998474121094
 20
124.9999465942383
 11
31.99998664855957
 21
124.9999465942383
  0
LINE
  5
1b6
100
AcDbEntity
  8
0
  6
CONTINUOUS
 62
     7
100
AcDbLine
 10
77.99998474121094
 20
125.9999465942383
 11
31.99998664855957
 21
125.9999465942383
  0
LINE
  5
1b7
100
AcDbEntity
  8
0
  6
CONTINUOUS
 62
     7
100
AcDbLine
 10
77.99998474121094
 20
127.9999465942383
 11
31.99998664855957
 21
127.9999465942383
  0
LINE
  5
1b8
100
AcDbEntity
  8
0
  6
CONTINUOUS
 62
     7
100
AcDbLine
 10
32.99998894710355
 20
127.9999448370203
 11
33.99998802883421
 21
133.9999389648437
  0
LINE
  5
1b9
100
AcDbEntity
  8
0
  6
CONTINUOUS
 62
     7
100
AcDbLine
 10
75.99998270276252
 20
133.9999389648438
 11
33.99998802883421
 21
133.9999389648438
  0
LINE
  5
1ba
100
AcDbEntity
  8
0
  6
CONTINUOUS
 62
     7
100
AcDbLine
 10
41.99998091561855
 20
127.9999543125985
 11
42.99997841808609
 21
133.9999389648438
  0
LINE
  5
1bb
100
AcDbEntity
  8
0
  6
CENTER
 62
     3
100
AcDbLine
 10
54.99998474121094
 20
136.1227722167969
 11
54.99998474121094
 21
95.47077178955078
  0
LINE
  5
1bc
100
AcDbEntity
  8
0
  6
CONTINUOUS
 62
     7
100
AcDbLine
 10
28.99999116389361
 20
101.6999345783906
 11
31.07844683785053
 21
100.499937613995
  0
LINE
  5
1bd
100
AcDbEntity
  8
0
  6
CONTINUOUS
 62
     7
100
AcDbLine
 10
31.99998664855957
 20
100.4999465942383
 11
28.99999046325684
 21
100.4999465942383
  0
LINE
  5
1be
100
AcDbEntity
  8
0
  6
CONTINUOUS
 62
     7
100
AcDbLine
 10
99.99998474121094
 20
96.99994659423828
 11
31.99998664855957
 21
96.99994659423828
  0
LINE
  5
1bf
100
AcDbEntity
  8
0
  6
CONTINUOUS
 62
     7
100
AcDbLine
 10
40.99998474121094
 20
119.9999465942383
 11
40.99998474121094
 21
96.99994659423828
  0
LINE
  5
1c0
100
AcDbEntity
  8
0
  6
CONTINUOUS
 62
     7
100
AcDbLine
 10
68.99998474121094
 20
119.9999465942383
 11
68.99998474121094
 21
96.99994659423828
  0
LINE
  5
1c1
100
AcDbEntity
  8
0
  6
CONTINUOUS
 62
     7
100
AcDbLine
 10
77.99998474121094
 20
127.9999465942383
 11
77.99998474121094
 21
96.99994659423828
  0
LINE
  5
1c2
100
AcDbEntity
  8
0
  6
CONTINUOUS
 62
     7
100
AcDbLine
 10
99.99998474121094
 20
124.9999465942383
 11
99.99998474121094
 21
96.99994659423828
  0
LINE
  5
1c3
100
AcDbEntity
  8
0
  6
DASHED
 62
     7
100
AcDbLine
 10
99.99998474121094
 20
121.4999465942383
 11
84.99998474121094
 21
121.4999465942383
  0
LINE
  5
1c4
100
AcDbEntity
  8
0
  6
DASHED
 62
     7
100
AcDbLine
 10
99.99998474121094
 20
120.2999420166016
 11
84.99998474121094
 21
120.2999420166016
  0
LINE
  5
1c5
100
AcDbEntity
  8
0
  6
DASHED
 62
     7
100
AcDbLine
 10
99.99998474121094
 20
101.6999435424805
 11
84.99998474121094
 21
101.6999435424805
  0
LINE
  5
1c6
100
AcDbEntity
  8
0
  6
DASHED
 62
     7
100
AcDbLine
 10
99.99998474121094
 20
100.4999465942383
 11
84.99998474121094
 21
100.4999465942383
  0
LINE
  5
1c7
100
AcDbEntity
  8
0
  6
CONTINUOUS
 62
     7
100
AcDbLine
 10
75.99998474121094
 20
108.9999465942383
 11
68.99998474121094
 21
108.9999465942383
  0
LINE
  5
1c8
100
AcDbEntity
  8
0
  6
CONTINUOUS
 62
     7
100
AcDbLine
 10
75.99998474121094
 20
119.9999465942383
 11
75.99998474121094
 21
108.9999465942383
  0
LINE
  5
1c9
100
AcDbEntity
  8
0
  6
CONTINUOUS
 62
     7
100
AcDbLine
 10
77.99998474121094
 20
119.9999465942383
 11
31.99998664855957
 21
119.9999465942383
  0
LINE
  5
1ca
100
AcDbEntity
  8
0
  6
CONTINUOUS
 62
     7
100
AcDbLine
 10
33.99998474121094
 20
119.9999465942383
 11
33.99998474121094
 21
108.9999465942383
  0
LINE
  5
1cb
100
AcDbEntity
  8
0
  6
CONTINUOUS
 62
     7
100
AcDbLine
 10
40.99998474121094
 20
108.9999465942383
 11
33.99998474121094
 21
108.9999465942383
  0
LINE
  5
1cc
100
AcDbEntity
  8
0
  6
CONTINUOUS
 62
     7
100
AcDbLine
 10
67.99997764242444
 20
127.9999519412538
 11
66.99997974473277
 21
133.9999389648438
  0
LINE
  5
1cd
100
AcDbEntity
  8
0
  6
CONTINUOUS
 62
     7
100
AcDbLine
 10
76.99998184002058
 20
127.999944503856
 11
75.99998270276254
 21
133.9999389648438
  0
LINE
  5
1ce
100
AcDbEntity
  8
0
  6
CONTINUOUS
 62
     7
100
AcDbLine
 10
18.50000762939453
 20
134.2999496459961
 11
18.50000762939453
 21
131.9999542236328
  0
LINE
  5
1cf
100
AcDbEntity
  8
0
  6
CONTINUOUS
 62
     7
100
AcDbLine
 10
25.50002098083496
 20
134.2999496459961
 11
25.50002098083496
 21
131.9999542236328
  0
LINE
  5
1d0
100
AcDbEntity
  8
0
  6
CONTINUOUS
 62
     7
100
AcDbLine
 10
25.50002098083496
 20
132.9999389648438
 11
18.50000762939453
 21
132.9999389648438
  0
LINE
  5
1d1
100
AcDbEntity
  8
0
  6
CENTER
 62
     3
100
AcDbLine
 10
22.00005149841309
 20
137.3968353271484
 11
22.00005149841309
 21
131.9999542236328
  0
LINE
  5
1d2
100
AcDbEntity
  8
0
  6
CONTINUOUS
 62
     7
100
AcDbLine
 10
41.49995422363281
 20
130.2999420166016
 11
41.49995422363281
 21
127.9999465942383
  0
LINE
  5
1d3
100
AcDbEntity
  8
0
  6
CENTER
 62
     3
100
AcDbLine
 10
37.99998474121094
 20
133.3968276977539
 11
37.99998474121094
 21
127.9999465942383
  0
LINE
  5
1d4
100
AcDbEntity
  8
0
  6
CONTINUOUS
 62
     7
100
AcDbLine
 10
34.49994087219238
 20
130.2999420166016
 11
34.49994087219238
 21
127.9999465942383
  0
LINE
  5
1d5
100
AcDbEntity
  8
0
  6
CONTINUOUS
 62
     7
100
AcDbLine
 10
41.49995422363281
 20
128.9999313354492
 11
34.49994087219238
 21
128.9999313354492
  0
LINE
  5
1d6
100
AcDbEntity
  8
0
  6
CONTINUOUS
 62
     7
100
AcDbLine
 10
68.49994087219238
 20
130.2999420166016
 11
68.49994087219238
 21
127.9999465942383
  0
LINE
  5
1d7
100
AcDbEntity
  8
0
  6
CONTINUOUS
 62
     7
100
AcDbLine
 10
75.49995422363281
 20
130.2999420166016
 11
75.49995422363281
 21
127.9999465942383
  0
LINE
  5
1d8
100
AcDbEntity
  8
0
  6
CONTINUOUS
 62
     7
100
AcDbLine
 10
75.49995422363281
 20
128.9999313354492
 11
68.49994087219238
 21
128.9999313354492
  0
LINE
  5
1d9
100
AcDbEntity
  8
0
  6
CENTER
 62
     3
100
AcDbLine
 10
71.99998474121094
 20
133.3968276977539
 11
71.99998474121094
 21
127.9999465942383
  0
LINE
  5
1da
100
AcDbEntity
  8
0
  6
CONTINUOUS
 62
     7
100
AcDbLine
 10
35.50000762939453
 20
91.99996185302734
 11
35.50000762939453
 21
81.99996185302734
  0
LINE
  5
1db
100
AcDbEntity
  8
0
  6
CONTINUOUS
 62
     7
100
AcDbLine
 10
22.5000114440918
 20
91.99996185302734
 11
35.50000762939453
 21
91.99996185302734
  0
LINE
  5
1dc
100
AcDbEntity
  8
0
  6
CENTER
 62
     3
100
AcDbLine
 10
28.99998283386231
 20
92.90126037597656
 11
28.99998283386231
 21
34.99997711181641
  0
LINE
  5
1dd
100
AcDbEntity
  8
0
  6
CONTINUOUS
 62
     7
100
AcDbLine
 10
22.5000114440918
 20
91.99996185302734
 11
22.5000114440918
 21
81.99996185302734
  0
LINE
  5
1de
100
AcDbEntity
  8
0
  6
CONTINUOUS
 62
     7
100
AcDbLine
 10
22.5000114440918
 20
83.99999237060547
 11
35.50000762939453
 21
83.99999237060547
  0
LINE
  5
1df
100
AcDbEntity
  8
0
  6
CONTINUOUS
 62
     7
100
AcDbLine
 10
18.99998283386231
 20
93.99996185302734
 11
18.99998283386231
 21
81.99996185302734
  0
LINE
  5
1e0
100
AcDbEntity
  8
0
  6
CONTINUOUS
 62
     7
100
AcDbLine
 10
36.99999237060547
 20
81.99996185302734
 11
18.99998283386231
 21
81.99996185302734
  0
ARC
  5
1e1
100
AcDbEntity
  8
0
  6
CONTINUOUS
 62
     7
100
AcDbCircle
 10
-5.449567652249243e-006
 20
105.9999465942383
 40
7.000005722045898
100
AcDbArc
 50
0
 51
180.0000186693354
  0
CIRCLE
  5
1e2
100
AcDbEntity
  8
0
  6
CONTINUOUS
 62
     7
100
AcDbCircle
 10
-5.449567652249243e-006
 20
105.9999465942383
 40
5.000003814697266
  0
CIRCLE
  5
1e3
100
AcDbEntity
  8
0
  6
CONTINUOUS
 62
     3
100
AcDbCircle
 10
-5.449567652249243e-006
 20
105.9999465942383
 40
4.250003337860107
  0
ARC
  5
1e4
100
AcDbEntity
  8
0
  6
CONTINUOUS
 62
     7
100
AcDbCircle
 10
-22.00001430511475
 20
130.2384372635624
 40
5.36152306371502
100
AcDbArc
 50
49.24689359943958
 51
130.7531064005604
  0
ARC
  5
1e5
100
AcDbEntity
  8
0
  6
CONTINUOUS
 62
     7
100
AcDbCircle
 10
22.00001430511475
 20
130.2384372635624
 40
5.36152306371502
100
AcDbArc
 50
49.24689359943961
 51
130.7531064005605
  0
ARC
  5
1e6
100
AcDbEntity
  8
0
  6
CONTINUOUS
 62
     7
100
AcDbCircle
 10
37.9999475479126
 20
126.2384296341679
 40
5.36152306371502
100
AcDbArc
 50
49.24689359943961
 51
130.7531064005605
  0
ARC
  5
1e7
100
AcDbEntity
  8
0
  6
CONTINUOUS
 62
     7
100
AcDbCircle
 10
71.9999475479126
 20
126.2384296341679
 40
5.36152306371502
100
AcDbArc
 50
49.24689359943955
 51
130.7531064005605
  0
MTEXT
  5
1e8
100
AcDbEntity
  8
0
  6
CONTINUOUS
 62
     7
100
AcDbMText
 10
-12.71015392243862
 20
165.6522827148438
 40
0.5
 41
36
 71
     7
 72
     1
  1
{\W0.8426;ＢＮ－５ＢＰ２１－４０－Ｇ／Ｈ＊＊＊}
  0
INSERT
  5
1e9
100
AcDbEntity
  8
0
  6
CONTINUOUS
 62
     7
100
AcDbBlockReference
  2
KOZU0007
 10
0
 20
0
  0
ENDBLK
  8
0
  5
1ea
100
AcDbEntity
100
AcDbBlockEnd
  0
BLOCK
  8
0
  5
1eb
100
AcDbEntity
100
AcDbBlockBegin
  2
KOZU0002
 70
    64
 10
0
 20
0
  0
POINT
  5
1ec
100
AcDbEntity
  8
0
  6
CONTINUOUS
 62
     7
100
AcDbPoint
 10
0
 20
0
  0
LINE
  5
1ed
100
AcDbEntity
  8
0
  6
CENTER
 62
     3
100
AcDbLine
 10
0
 20
43.88628005981445
 11
0
 21
-45.36371612548828
  0
LINE
  5
1ee
100
AcDbEntity
  8
0
  6
CONTINUOUS
 62
     7
100
AcDbLine
 10
-65.00000762939453
 20
29.99997901916504
 11
-65.00000762939453
 21
-30.00002288818359
  0
LINE
  5
1ef
100
AcDbEntity
  8
0
  6
CONTINUOUS
 62
     7
100
AcDbLine
 10
65
 20
29.99997901916504
 11
65
 21
23
  0
LINE
  5
1f0
100
AcDbEntity
  8
0
  6
CONTINUOUS
 62
     7
100
AcDbLine
 10
-65.00000762939453
 20
29.99997901916504
 11
-40
 21
29.99997901916504
  0
LINE
  5
1f1
100
AcDbEntity
  8
0
  6
CONTINUOUS
 62
     7
100
AcDbLine
 10
-65.00000762939453
 20
-30.00002288818359
 11
-40
 21
-30.00002288818359
  0
LINE
  5
1f2
100
AcDbEntity
  8
0
  6
CONTINUOUS
 62
     7
100
AcDbLine
 10
40
 20
29.99997901916504
 11
65
 21
29.99997901916504
  0
LINE
  5
1f3
100
AcDbEntity
  8
0
  6
CONTINUOUS
 62
     7
100
AcDbLine
 10
40
 20
-30.00002288818359
 11
65
 21
-30.00002288818359
  0
LINE
  5
1f4
100
AcDbEntity
  8
0
  6
CENTER
 62
     3
100
AcDbLine
 10
-69.47499847412109
 20
0
 11
104.125
 21
0
  0
LINE
  5
1f5
100
AcDbEntity
  8
0
  6
CONTINUOUS
 62
     7
100
AcDbLine
 10
-29.0000057220459
 20
36.99999237060547
 11
29.0000057220459
 21
36.99999237060547
  0
LINE
  5
1f6
100
AcDbEntity
  8
0
  6
CONTINUOUS
 62
     7
100
AcDbLine
 10
-37.00000381469727
 20
28.99998283386231
 11
-37.00000381469727
 21
-28.99998283386231
  0
LINE
  5
1f7
100
AcDbEntity
  8
0
  6
CONTINUOUS
 62
     7
100
AcDbLine
 10
37.00000381469727
 20
28.99998283386231
 11
37.00000381469727
 21
22.91607093811035
  0
LINE
  5
1f8
100
AcDbEntity
  8
0
  6
CONTINUOUS
 62
     7
100
AcDbLine
 10
-29.0000057220459
 20
-36.99999237060547
 11
29.0000057220459
 21
-36.99999237060547
  0
LINE
  5
1f9
100
AcDbEntity
  8
0
  6
CENTER
 62
     3
100
AcDbLine
 10
-29
 20
-22.50000619888306
 11
-29
 21
-35.50000524520874
  0
LINE
  5
1fa
100
AcDbEntity
  8
0
  6
CENTER
 62
     3
100
AcDbLine
 10
-35.49999952316284
 20
-29.0000057220459
 11
-22.50000047683716
 21
-29.0000057220459
  0
LINE
  5
1fb
100
AcDbEntity
  8
0
  6
CONTINUOUS
 62
     7
100
AcDbLine
 10
-32.50000955624007
 20
-28.99999347663249
 11
-30.74999943621666
 21
-25.96888838202034
  0
LINE
  5
1fc
100
AcDbEntity
  8
0
  6
CONTINUOUS
 62
     7
100
AcDbLine
 10
-30.74999809265137
 20
-25.96891212463379
 11
-27.25000190734863
 21
-25.96891212463379
  0
LINE
  5
1fd
100
AcDbEntity
  8
0
  6
CONTINUOUS
 62
     7
100
AcDbLine
 10
-27.24996710097647
 20
-25.96889013415644
 11
-25.49996842504866
 21
-28.99997540702235
  0
LINE
  5
1fe
100
AcDbEntity
  8
0
  6
CONTINUOUS
 62
     7
100
AcDbLine
 10
-25.49999922084541
 20
-29.00000519563236
 11
-27.25000743351956
 21
-32.03110698662014
  0
LINE
  5
1ff
100
AcDbEntity
  8
0
  6
CONTINUOUS
 62
     7
100
AcDbLine
 10
-27.25000190734863
 20
-32.03109741210938
 11
-30.74999809265137
 21
-32.03109741210938
  0
LINE
  5
200
100
AcDbEntity
  8
0
  6
CONTINUOUS
 62
     7
100
AcDbLine
 10
-30.74997626063814
 20
-32.03110763225506
 11
-32.49997445972863
 21
-29.00002318529524
  0
LINE
  5
201
100
AcDbEntity
  8
0
  6
CENTER
 62
     3
100
AcDbLine
 10
-29
 20
35.50000524520874
 11
-29
 21
22.50000619888306
  0
LINE
  5
202
100
AcDbEntity
  8
0
  6
CENTER
 62
     3
100
AcDbLine
 10
-35.49999952316284
 20
29.0000057220459
 11
-22.50000047683716
 21
29.0000057220459
  0
LINE
  5
203
100
AcDbEntity
  8
0
  6
CONTINUOUS
 62
     7
100
AcDbLine
 10
-32.50000150250831
 20
29.00000686341561
 11
-30.74999233615953
 21
32.03111030621557
  0
LINE
  5
204
100
AcDbEntity
  8
0
  6
CONTINUOUS
 62
     7
100
AcDbLine
 10
-30.74999809265137
 20
32.03109741210938
 11
-27.25000190734863
 21
32.03109741210938
  0
LINE
  5
205
100
AcDbEntity
  8
0
  6
CONTINUOUS
 62
     7
100
AcDbLine
 10
-27.24998989324937
 20
32.03109949417045
 11
-25.49999121732156
 21
29.00001422130454
  0
LINE
  5
206
100
AcDbEntity
  8
0
  6
CONTINUOUS
 62
     7
100
AcDbLine
 10
-25.49999141347188
 20
29.00001951323491
 11
-27.25000057982066
 21
25.96891607043495
  0
LINE
  5
207
100
AcDbEntity
  8
0
  6
CONTINUOUS
 62
     7
100
AcDbLine
 10
-27.25000190734863
 20
25.96891212463379
 11
-30.74999809265137
 21
25.96891212463379
  0
LINE
  5
208
100
AcDbEntity
  8
0
  6
CONTINUOUS
 62
     7
100
AcDbLine
 10
-30.74999792135186
 20
25.96892009046266
 11
-32.49999659727966
 21
29.00000536332857
  0
LINE
  5
209
100
AcDbEntity
  8
0
  6
CENTER
 62
     3
100
AcDbLine
 10
29.0000057220459
 20
35.50000524520874
 11
29.0000057220459
 21
22.50000619888306
  0
LINE
  5
20a
100
AcDbEntity
  8
0
  6
CENTER
 62
     3
100
AcDbLine
 10
22.50000619888306
 20
29.0000057220459
 11
35.50000524520874
 21
29.0000057220459
  0
LINE
  5
20b
100
AcDbEntity
  8
0
  6
CONTINUOUS
 62
     7
100
AcDbLine
 10
25.49999029329435
 20
29.00000594512518
 11
27.25000041331777
 21
32.03111103973733
  0
LINE
  5
20c
100
AcDbEntity
  8
0
  6
CONTINUOUS
 62
     7
100
AcDbLine
 10
27.25000762939453
 20
32.03109741210938
 11
30.75000190734863
 21
32.03109741210938
  0
LINE
  5
20d
100
AcDbEntity
  8
0
  6
CONTINUOUS
 62
     7
100
AcDbLine
 10
30.75003398971182
 20
32.03110682470666
 11
32.5000321888023
 21
29.00002237774685
  0
LINE
  5
20e
100
AcDbEntity
  8
0
  6
CONTINUOUS
 62
     7
100
AcDbLine
 10
32.50001413754986
 20
29.00001285577826
 11
30.75000401752644
 21
25.96890776116611
  0
LINE
  5
20f
100
AcDbEntity
  8
0
  6
CONTINUOUS
 62
     7
100
AcDbLine
 10
30.75000190734863
 20
25.96891212463379
 11
27.25000762939453
 21
25.96891212463379
  0
LINE
  5
210
100
AcDbEntity
  8
0
  6
CONTINUOUS
 62
     7
100
AcDbLine
 10
27.25001386279185
 20
25.96890832244819
 11
25.50001518686405
 21
28.9999935953141
  0
LINE
  5
211
100
AcDbEntity
  8
0
  6
CENTER
 62
     3
100
AcDbLine
 10
29.0000057220459
 20
-22.50000619888306
 11
29.0000057220459
 21
-35.50000524520874
  0
LINE
  5
212
100
AcDbEntity
  8
0
  6
CENTER
 62
     3
100
AcDbLine
 10
22.50000619888306
 20
-29.0000057220459
 11
35.50000524520874
 21
-29.0000057220459
  0
LINE
  5
213
100
AcDbEntity
  8
0
  6
CONTINUOUS
 62
     7
100
AcDbLine
 10
25.50000047338091
 20
-29.00000382101914
 11
27.25000963972969
 21
-25.96890037821918
  0
LINE
  5
214
100
AcDbEntity
  8
0
  6
CONTINUOUS
 62
     7
100
AcDbLine
 10
27.25000762939453
 20
-25.96891212463379
 11
30.75000190734863
 21
-25.96891212463379
  0
LINE
  5
215
100
AcDbEntity
  8
0
  6
CONTINUOUS
 62
     7
100
AcDbLine
 10
30.75004550907334
 20
-25.9689014253336
 11
32.50004418500114
 21
-28.9999866981995
  0
LINE
  5
216
100
AcDbEntity
  8
0
  6
CONTINUOUS
 62
     7
100
AcDbLine
 10
32.50000337562074
 20
-29.00001124848316
 11
30.74999373243463
 21
-32.03111551718921
  0
LINE
  5
217
100
AcDbEntity
  8
0
  6
CONTINUOUS
 62
     7
100
AcDbLine
 10
30.75000190734863
 20
-32.03109741210938
 11
27.25000762939453
 21
-32.03109741210938
  0
LINE
  5
218
100
AcDbEntity
  8
0
  6
CONTINUOUS
 62
     7
100
AcDbLine
 10
27.25002992922631
 20
-32.03111161804592
 11
25.50003125329851
 21
-29.00002634518
  0
LINE
  5
219
100
AcDbEntity
  8
0
  6
CONTINUOUS
 62
     7
100
AcDbLine
 10
-37.00000381469727
 20
-19.00000381469727
 11
-29
 21
-19.00000381469727
  0
LINE
  5
21a
100
AcDbEntity
  8
0
  6
CONTINUOUS
 62
     7
100
AcDbLine
 10
-19
 20
36.99999237060547
 11
-19
 21
29.0000057220459
  0
LINE
  5
21b
100
AcDbEntity
  8
0
  6
CONTINUOUS
 62
     7
100
AcDbLine
 10
19.00000381469727
 20
36.99999237060547
 11
19.00000381469727
 21
29.0000057220459
  0
LINE
  5
21c
100
AcDbEntity
  8
0
  6
CONTINUOUS
 62
     7
100
AcDbLine
 10
-37.00000381469727
 20
19.00000381469727
 11
-29
 21
19.00000381469727
  0
LINE
  5
21d
100
AcDbEntity
  8
0
  6
CONTINUOUS
 62
     7
100
AcDbLine
 10
29.0000057220459
 20
19.00000381469727
 11
32.34320068359375
 21
19.00000381469727
  0
LINE
  5
21e
100
AcDbEntity
  8
0
  6
CONTINUOUS
 62
     7
100
AcDbLine
 10
-19
 20
-29.0000057220459
 11
-19
 21
-36.99999237060547
  0
LINE
  5
21f
100
AcDbEntity
  8
0
  6
CONTINUOUS
 62
     7
100
AcDbLine
 10
19.00000381469727
 20
-29.0000057220459
 11
19.00000381469727
 21
-36.99999237060547
  0
LINE
  5
220
100
AcDbEntity
  8
0
  6
CONTINUOUS
 62
     7
100
AcDbLine
 10
29.0000057220459
 20
-19.00000381469727
 11
32.34320068359375
 21
-19.00000381469727
  0
LINE
  5
221
100
AcDbEntity
  8
0
  6
CONTINUOUS
 62
     7
100
AcDbLine
 10
-40
 20
31.99999237060547
 11
-40
 21
6
  0
LINE
  5
222
100
AcDbEntity
  8
0
  6
CONTINUOUS
 62
     7
100
AcDbLine
 10
-32.00000381469727
 20
-40
 11
32.00000381469727
 21
-40
  0
LINE
  5
223
100
AcDbEntity
  8
0
  6
CONTINUOUS
 62
     7
100
AcDbLine
 10
-32.00000381469727
 20
40
 11
32.00000381469727
 21
40
  0
LINE
  5
224
100
AcDbEntity
  8
0
  6
CONTINUOUS
 62
     7
100
AcDbLine
 10
-26.00000762939453
 20
-21.00004005432129
 11
-26.00000762939453
 21
20.99997329711914
  0
LINE
  5
225
100
AcDbEntity
  8
0
  6
CONTINUOUS
 62
     7
100
AcDbLine
 10
25.99996376037598
 20
20.99997329711914
 11
-26.00000762939453
 21
20.99997329711914
  0
LINE
  5
226
100
AcDbEntity
  8
0
  6
CONTINUOUS
 62
     3
100
AcDbLine
 10
-23.44955580074536
 20
17.44952969659759
 11
-20.55044580644621
 21
14.55042019105181
  0
LINE
  5
227
100
AcDbEntity
  8
0
  6
CONTINUOUS
 62
     3
100
AcDbLine
 10
-20.55038468501345
 20
17.44955354321461
 11
-23.44953296565659
 21
14.55040477381156
  0
LINE
  5
228
100
AcDbEntity
  8
0
  6
CONTINUOUS
 62
     7
100
AcDbLine
 10
-17.5000057220459
 20
20.99997329711914
 11
-17.5000057220459
 21
11.50000476837158
  0
LINE
  5
229
100
AcDbEntity
  8
0
  6
CONTINUOUS
 62
     7
100
AcDbLine
 10
-17.5000057220459
 20
11.50000476837158
 11
-26.00000762939453
 21
11.50000476837158
  0
LINE
  5
22a
100
AcDbEntity
  8
0
  6
CONTINUOUS
 62
     7
100
AcDbLine
 10
-26.00000762939453
 20
9.200003623962402
 11
25.99996376037598
 21
9.200003623962402
  0
LINE
  5
22b
100
AcDbEntity
  8
0
  6
CONTINUOUS
 62
     7
100
AcDbLine
 10
-26.0000352383194
 20
9.999994134848791
 11
-26.99999844442923
 21
9.250018191364836
  0
LINE
  5
22c
100
AcDbEntity
  8
0
  6
CONTINUOUS
 62
     7
100
AcDbLine
 10
-27.00001335144043
 20
9.250008583068848
 11
-27.00001335144043
 21
-9.250030517578125
  0
LINE
  5
22d
100
AcDbEntity
  8
0
  6
CONTINUOUS
 62
     7
100
AcDbLine
 10
-26.00000762939453
 20
6.799992084503174
 11
25.99996376037598
 21
6.799992084503174
  0
LINE
  5
22e
100
AcDbEntity
  8
0
  6
CONTINUOUS
 62
     7
100
AcDbLine
 10
-5.000005722045898
 20
26.75000953674316
 11
-5.000005722045898
 21
25.74999237060547
  0
LINE
  5
22f
100
AcDbEntity
  8
0
  6
CONTINUOUS
 62
     7
100
AcDbLine
 10
-5.000005722045898
 20
26.75000953674316
 11
5
 21
26.75000953674316
  0
LINE
  5
230
100
AcDbEntity
  8
0
  6
CONTINUOUS
 62
     7
100
AcDbLine
 10
-5.000005722045898
 20
25.74999237060547
 11
4.999989032745361
 21
25.74999237060547
  0
LINE
  5
231
100
AcDbEntity
  8
0
  6
PHANTOM
 62
     3
100
AcDbLine
 10
-4.499975204467773
 20
25.74999237060547
 11
-4.499975204467773
 21
20.99997329711914
  0
LINE
  5
232
100
AcDbEntity
  8
0
  6
CENTER
 62
     3
100
AcDbLine
 10
-4.250019550323486
 20
25.74999237060547
 11
-4.250019550323486
 21
20.99997329711914
  0
LINE
  5
233
100
AcDbEntity
  8
0
  6
PHANTOM
 62
     3
100
AcDbLine
 10
-4.000020980834961
 20
25.74999237060547
 11
-4.000020980834961
 21
20.99997329711914
  0
LINE
  5
234
100
AcDbEntity
  8
0
  6
CONTINUOUS
 62
     7
100
AcDbLine
 10
-3.849950551986694
 20
25.74999237060547
 11
-3.849950551986694
 21
20.99997329711914
  0
LINE
  5
235
100
AcDbEntity
  8
0
  6
PHANTOM
 62
     3
100
AcDbLine
 10
3.999993562698364
 20
25.50000953674316
 11
3.999993562698364
 21
20.99997329711914
  0
LINE
  5
236
100
AcDbEntity
  8
0
  6
CENTER
 62
     3
100
AcDbLine
 10
4.250030517578125
 20
25.74999237060547
 11
4.250030517578125
 21
20.99997329711914
  0
LINE
  5
237
100
AcDbEntity
  8
0
  6
PHANTOM
 62
     3
100
AcDbLine
 10
4.499980449676514
 20
25.50000953674316
 11
4.499980449676514
 21
20.99997329711914
  0
LINE
  5
238
100
AcDbEntity
  8
0
  6
CONTINUOUS
 62
     7
100
AcDbLine
 10
5
 20
26.75000953674316
 11
5
 21
25.74999237060547
  0
LINE
  5
239
100
AcDbEntity
  8
0
  6
CONTINUOUS
 62
     7
100
AcDbLine
 10
3.85009765625
 20
25.74999237060547
 11
3.85009765625
 21
20.99997329711914
  0
LINE
  5
23a
100
AcDbEntity
  8
0
  6
CONTINUOUS
 62
     7
100
AcDbLine
 10
-26.00000762939453
 20
5.200020790100098
 11
25.99996376037598
 21
5.200020790100098
  0
LINE
  5
23b
100
AcDbEntity
  8
0
  6
CONTINUOUS
 62
     7
100
AcDbLine
 10
-26.00000762939453
 20
2.79998779296875
 11
25.99996376037598
 21
2.79998779296875
  0
LINE
  5
23c
100
AcDbEntity
  8
0
  6
CONTINUOUS
 62
     7
100
AcDbLine
 10
-26.00000762939453
 20
-1.200038433074951
 11
25.99996376037598
 21
-1.200038433074951
  0
LINE
  5
23d
100
AcDbEntity
  8
0
  6
CONTINUOUS
 62
     7
100
AcDbLine
 10
-26.00000762939453
 20
1.199972987174988
 11
25.99996376037598
 21
1.199972987174988
  0
LINE
  5
23e
100
AcDbEntity
  8
0
  6
CONTINUOUS
 62
     7
100
AcDbLine
 10
-26.00000762939453
 20
-2.800009727478027
 11
25.99996376037598
 21
-2.800009727478027
  0
LINE
  5
23f
100
AcDbEntity
  8
0
  6
CONTINUOUS
 62
     7
100
AcDbLine
 10
-26.0000116111112
 20
-9.999993729610148
 11
-27.00000984382589
 21
-9.249989783784399
  0
LINE
  5
240
100
AcDbEntity
  8
0
  6
CONTINUOUS
 62
     7
100
AcDbLine
 10
-26.00000762939453
 20
-5.200020790100098
 11
25.99996376037598
 21
-5.200020790100098
  0
LINE
  5
241
100
AcDbEntity
  8
0
  6
CONTINUOUS
 62
     7
100
AcDbLine
 10
-26.00000762939453
 20
-6.800014019012451
 11
25.99996376037598
 21
-6.800014019012451
  0
LINE
  5
242
100
AcDbEntity
  8
0
  6
CONTINUOUS
 62
     7
100
AcDbLine
 10
-26.00000762939453
 20
-9.200003623962402
 11
25.99996376037598
 21
-9.200003623962402
  0
LINE
  5
243
100
AcDbEntity
  8
0
  6
CONTINUOUS
 62
     7
100
AcDbLine
 10
-17.5000057220459
 20
-11.50002670288086
 11
-26.00001335144043
 21
-11.50002670288086
  0
LINE
  5
244
100
AcDbEntity
  8
0
  6
CONTINUOUS
 62
     7
100
AcDbLine
 10
-17.5000057220459
 20
-21.00004005432129
 11
-17.5000057220459
 21
-11.50002670288086
  0
LINE
  5
245
100
AcDbEntity
  8
0
  6
CONTINUOUS
 62
     3
100
AcDbLine
 10
-23.4495611955381
 20
-14.55051561151749
 11
-20.55045120123895
 21
-17.44962511706327
  0
LINE
  5
246
100
AcDbEntity
  8
0
  6
CONTINUOUS
 62
     3
100
AcDbLine
 10
-20.55040592702246
 20
-14.55047726638592
 11
-23.44952217606344
 21
-17.44959400418139
  0
LINE
  5
247
100
AcDbEntity
  8
0
  6
CONTINUOUS
 62
     7
100
AcDbLine
 10
25.99996376037598
 20
-21.00004005432129
 11
-26.00000762939453
 21
-21.00004005432129
  0
LINE
  5
248
100
AcDbEntity
  8
0
  6
CONTINUOUS
 62
     7
100
AcDbLine
 10
25.99996376037598
 20
20.99997329711914
 11
25.99996376037598
 21
-21.00004005432129
  0
LINE
  5
249
100
AcDbEntity
  8
0
  6
CONTINUOUS
 62
     3
100
AcDbLine
 10
23.44967559059994
 20
-14.55049951991499
 11
20.55054281999574
 21
-17.44963277927648
  0
LINE
  5
24a
100
AcDbEntity
  8
0
  6
CONTINUOUS
 62
     3
100
AcDbLine
 10
20.55051222988364
 20
-14.55046975574006
 11
23.44962222418279
 21
-17.44957926128584
  0
LINE
  5
24b
100
AcDbEntity
  8
0
  6
CONTINUOUS
 62
     7
100
AcDbLine
 10
17.5
 20
-11.50002670288086
 11
25.99996376037598
 21
-11.50002670288086
  0
LINE
  5
24c
100
AcDbEntity
  8
0
  6
CONTINUOUS
 62
     7
100
AcDbLine
 10
17.5
 20
-20.90002822875977
 11
17.5
 21
-11.50002670288086
  0
LINE
  5
24d
100
AcDbEntity
  8
0
  6
CONTINUOUS
 62
     7
100
AcDbLine
 10
28.99992942810059
 20
-13.50003910064697
 11
25.99996376037598
 21
-13.50003910064697
  0
LINE
  5
24e
100
AcDbEntity
  8
0
  6
CONTINUOUS
 62
     7
100
AcDbLine
 10
28.99992942810059
 20
-13.50003910064697
 11
28.99992942810059
 21
13.49997425079346
  0
LINE
  5
24f
100
AcDbEntity
  8
0
  6
CONTINUOUS
 62
     7
100
AcDbLine
 10
28.99992942810059
 20
13.49997425079346
 11
25.99996376037598
 21
13.49997425079346
  0
LINE
  5
250
100
AcDbEntity
  8
0
  6
CONTINUOUS
 62
     3
100
AcDbLine
 10
20.55043602838381
 20
17.44950272261391
 11
23.44954602268296
 21
14.55039321706813
  0
LINE
  5
251
100
AcDbEntity
  8
0
  6
CONTINUOUS
 62
     3
100
AcDbLine
 10
23.44958489058294
 20
17.44948813130322
 11
20.55043627276504
 21
14.55033902472536
  0
LINE
  5
252
100
AcDbEntity
  8
0
  6
CONTINUOUS
 62
     7
100
AcDbLine
 10
17.5
 20
11.50000476837158
 11
25.99996376037598
 21
11.50000476837158
  0
LINE
  5
253
100
AcDbEntity
  8
0
  6
CONTINUOUS
 62
     7
100
AcDbLine
 10
17.5
 20
20.99997329711914
 11
17.5
 21
11.50000476837158
  0
LINE
  5
254
100
AcDbEntity
  8
0
  6
CONTINUOUS
 62
     7
100
AcDbLine
 10
40
 20
31.99996948242188
 11
40
 21
23
  0
LINE
  5
255
100
AcDbEntity
  8
0
  6
CONTINUOUS
 62
     7
100
AcDbLine
 10
37.00000381469727
 20
-22.91607093811035
 11
37.00000381469727
 21
-28.99998283386231
  0
LINE
  5
256
100
AcDbEntity
  8
0
  6
CONTINUOUS
 62
     7
100
AcDbLine
 10
40
 20
-23
 11
40
 21
-31.99999237060547
  0
LINE
  5
257
100
AcDbEntity
  8
0
  6
CONTINUOUS
 62
     7
100
AcDbLine
 10
-40
 20
-6
 11
-40
 21
-32.00001525878906
  0
LINE
  5
258
100
AcDbEntity
  8
0
  6
CONTINUOUS
 62
     7
100
AcDbLine
 10
31.07839508315558
 20
10.50000176038292
 11
28.99993115013685
 21
9.30000002761572
  0
LINE
  5
259
100
AcDbEntity
  8
0
  6
CONTINUOUS
 62
     7
100
AcDbLine
 10
32.00005340576172
 20
10.5
 11
28.99993133544922
 21
10.5
  0
LINE
  5
25a
100
AcDbEntity
  8
0
  6
CONTINUOUS
 62
     7
100
AcDbLine
 10
32.00005340576172
 20
17
 11
32.00005340576172
 21
-17
  0
LINE
  5
25b
100
AcDbEntity
  8
0
  6
CONTINUOUS
 62
     7
100
AcDbLine
 10
39.4142485014284
 20
15.58579564718445
 11
36.58582058312332
 21
18.4142233270709
  0
LINE
  5
25c
100
AcDbEntity
  8
0
  6
CONTINUOUS
 62
     7
100
AcDbLine
 10
39.41424386527546
 20
18.41421472911117
 11
36.58581662131999
 21
15.58578772357427
  0
LINE
  5
25d
100
AcDbEntity
  8
0
  6
CONTINUOUS
 62
     7
100
AcDbLine
 10
38.00002288818359
 20
13
 11
33.00002288818359
 21
13
  0
LINE
  5
25e
100
AcDbEntity
  8
0
  6
CONTINUOUS
 62
     7
100
AcDbLine
 10
33.00002288818359
 20
13
 11
33.00002288818359
 21
-13
  0
LINE
  5
25f
100
AcDbEntity
  8
0
  6
CONTINUOUS
 62
     7
100
AcDbLine
 10
42.00002288818359
 20
22
 11
42.00002288818359
 21
17
  0
LINE
  5
260
100
AcDbEntity
  8
0
  6
CONTINUOUS
 62
     7
100
AcDbLine
 10
68.00002288818359
 20
22
 11
42.00002288818359
 21
22
  0
LINE
  5
261
100
AcDbEntity
  8
0
  6
CONTINUOUS
 62
     7
100
AcDbLine
 10
71.99999237060547
 20
23
 11
38.00005340576172
 21
23
  0
LINE
  5
262
100
AcDbEntity
  8
0
  6
CENTER
 62
     3
100
AcDbLine
 10
55.00002288818359
 20
23
 11
55.00002288818359
 21
-23
  0
LINE
  5
263
100
AcDbEntity
  8
0
  6
CONTINUOUS
 62
     7
100
AcDbLine
 10
38.00002288818359
 20
-13
 11
33.00002288818359
 21
-13
  0
LINE
  5
264
100
AcDbEntity
  8
0
  6
CONTINUOUS
 62
     7
100
AcDbLine
 10
39.4142472370232
 20
-18.41421135736314
 11
36.58581190087247
 21
-15.58577625963167
  0
LINE
  5
265
100
AcDbEntity
  8
0
  6
CONTINUOUS
 62
     7
100
AcDbLine
 10
39.41424310663201
 20
-15.58579025238762
 11
36.58581586267654
 21
-18.41421725792452
  0
LINE
  5
266
100
AcDbEntity
  8
0
  6
CONTINUOUS
 62
     7
100
AcDbLine
 10
71.99999237060547
 20
-23
 11
38.00005340576172
 21
-23
  0
LINE
  5
267
100
AcDbEntity
  8
0
  6
CONTINUOUS
 62
     7
100
AcDbLine
 10
42.00002288818359
 20
-17
 11
42.00002288818359
 21
-22
  0
LINE
  5
268
100
AcDbEntity
  8
0
  6
CONTINUOUS
 62
     7
100
AcDbLine
 10
68.00002288818359
 20
-22
 11
42.00002288818359
 21
-22
  0
LINE
  5
269
100
AcDbEntity
  8
0
  6
CONTINUOUS
 62
     7
100
AcDbLine
 10
68.00002288818359
 20
-17
 11
68.00002288818359
 21
-22
  0
LINE
  5
26a
100
AcDbEntity
  8
0
  6
CONTINUOUS
 62
     7
100
AcDbLine
 10
77.00002288818359
 20
-13
 11
72.00002288818359
 21
-13
  0
LINE
  5
26b
100
AcDbEntity
  8
0
  6
CONTINUOUS
 62
     7
100
AcDbLine
 10
73.41425693896899
 20
-18.41420992436992
 11
70.58582430021667
 21
-15.58577752403664
  0
LINE
  5
26c
100
AcDbEntity
  8
0
  6
CONTINUOUS
 62
     7
100
AcDbLine
 10
73.41424741378097
 20
-15.58579708017722
 11
70.58582286722391
 21
-18.41422138831593
  0
LINE
  5
26d
100
AcDbEntity
  8
0
  6
CONTINUOUS
 62
     7
100
AcDbLine
 10
77.99999237060547
 20
17
 11
77.99999237060547
 21
-17
  0
LINE
  5
26e
100
AcDbEntity
  8
0
  6
CONTINUOUS
 62
     7
100
AcDbLine
 10
77.00002288818359
 20
13
 11
77.00002288818359
 21
-13
  0
LINE
  5
26f
100
AcDbEntity
  8
0
  6
CONTINUOUS
 62
     7
100
AcDbLine
 10
77.00002288818359
 20
13
 11
72.00002288818359
 21
13
  0
LINE
  5
270
100
AcDbEntity
  8
0
  6
CONTINUOUS
 62
     7
100
AcDbLine
 10
73.41424741378097
 20
15.58579708017722
 11
70.58582286722391
 21
18.41422138831593
  0
LINE
  5
271
100
AcDbEntity
  8
0
  6
CONTINUOUS
 62
     7
100
AcDbLine
 10
73.41424614937577
 20
18.41420992437038
 11
70.58581620802187
 21
15.58578022143529
  0
LINE
  5
272
100
AcDbEntity
  8
0
  6
CONTINUOUS
 62
     7
100
AcDbLine
 10
68.00002288818359
 20
22
 11
68.00002288818359
 21
17
  0
LINE
  5
273
100
AcDbEntity
  8
0
  6
CONTINUOUS
 62
     7
100
AcDbLine
 10
99.99999237060547
 20
14
 11
77.99999237060547
 21
14
  0
LINE
  5
274
100
AcDbEntity
  8
0
  6
CONTINUOUS
 62
     7
100
AcDbLine
 10
99.99999237060547
 20
14
 11
99.99999237060547
 21
-14
  0
LINE
  5
275
100
AcDbEntity
  8
0
  6
DASHED
 62
     7
100
AcDbLine
 10
99.99999237060547
 20
10.5
 11
84.99999237060547
 21
10.5
  0
LINE
  5
276
100
AcDbEntity
  8
0
  6
DASHED
 62
     7
100
AcDbLine
 10
99.99999237060547
 20
9.300000190734863
 11
84.99999237060547
 21
9.300000190734863
  0
LINE
  5
277
100
AcDbEntity
  8
0
  6
DASHED
 62
     7
100
AcDbLine
 10
99.99999237060547
 20
-9.300000190734863
 11
84.99999237060547
 21
-9.300000190734863
  0
LINE
  5
278
100
AcDbEntity
  8
0
  6
DASHED
 62
     7
100
AcDbLine
 10
99.99999237060547
 20
-10.5
 11
84.99999237060547
 21
-10.5
  0
LINE
  5
279
100
AcDbEntity
  8
0
  6
CONTINUOUS
 62
     7
100
AcDbLine
 10
99.99999237060547
 20
-14
 11
77.99999237060547
 21
-14
  0
LINE
  5
27a
100
AcDbEntity
  8
0
  6
CONTINUOUS
 62
     7
100
AcDbLine
 10
31.07839177953085
 20
-10.49999985303426
 11
28.99993115013685
 21
-9.30000002761572
  0
LINE
  5
27b
100
AcDbEntity
  8
0
  6
CONTINUOUS
 62
     7
100
AcDbLine
 10
32.00005340576172
 20
-10.5
 11
28.99993133544922
 21
-10.5
  0
LINE
  5
27c
100
AcDbEntity
  8
0
  6
CONTINUOUS
 62
     7
100
AcDbLine
 10
65
 20
-23
 11
65
 21
-30.00002288818359
  0
ARC
  5
27d
100
AcDbEntity
  8
0
  6
CONTINUOUS
 62
     7
100
AcDbCircle
 10
-29.0000057220459
 20
-28.99998283386231
 40
8
100
AcDbArc
 50
179.9999776881997
 51
270.0000280040027
  0
ARC
  5
27e
100
AcDbEntity
  8
0
  6
CONTINUOUS
 62
     7
100
AcDbCircle
 10
29.0000057220459
 20
28.99998283386231
 40
8
100
AcDbArc
 50
0
 51
89.99998201391065
  0
ARC
  5
27f
100
AcDbEntity
  8
0
  6
CONTINUOUS
 62
     7
100
AcDbCircle
 10
-29.0000057220459
 20
28.99998283386231
 40
8
100
AcDbArc
 50
89.99998201391065
 51
179.9999640278213
  0
ARC
  5
280
100
AcDbEntity
  8
0
  6
CONTINUOUS
 62
     7
100
AcDbCircle
 10
29.0000057220459
 20
-28.99998283386231
 40
8
100
AcDbArc
 50
270.00001798609
 51
360
  0
CIRCLE
  5
281
100
AcDbEntity
  8
0
  6
CONTINUOUS
 62
     7
100
AcDbCircle
 10
-29
 20
-29.0000057220459
 40
6.499999523162842
  0
CIRCLE
  5
282
100
AcDbEntity
  8
0
  6
CONTINUOUS
 62
     7
100
AcDbCircle
 10
-29
 20
29.0000057220459
 40
6.499999523162842
  0
CIRCLE
  5
283
100
AcDbEntity
  8
0
  6
CONTINUOUS
 62
     7
100
AcDbCircle
 10
29.0000057220459
 20
29.0000057220459
 40
6.499999523162842
  0
CIRCLE
  5
284
100
AcDbEntity
  8
0
  6
CONTINUOUS
 62
     7
100
AcDbCircle
 10
29.0000057220459
 20
-29.0000057220459
 40
6.499999523162842
  0
ARC
  5
285
100
AcDbEntity
  8
0
  6
CONTINUOUS
 62
     7
100
AcDbCircle
 10
-29
 20
-29.0000057220459
 40
10
100
AcDbArc
 50
72.54245562746496
 51
89.99998201391065
  0
ARC
  5
286
100
AcDbEntity
  8
0
  6
CONTINUOUS
 62
     7
100
AcDbCircle
 10
-29
 20
29.0000057220459
 40
10
100
AcDbArc
 50
270.00001798609
 51
287.4575572998326
  0
ARC
  5
287
100
AcDbEntity
  8
0
  6
CONTINUOUS
 62
     7
100
AcDbCircle
 10
29.0000057220459
 20
-29.0000057220459
 40
10
100
AcDbArc
 50
89.99998201391065
 51
107.4578704003824
  0
ARC
  5
288
100
AcDbEntity
  8
0
  6
CONTINUOUS
 62
     7
100
AcDbCircle
 10
-29
 20
-29.0000057220459
 40
10
100
AcDbArc
 50
0
 51
53.12977734581933
  0
ARC
  5
289
100
AcDbEntity
  8
0
  6
CONTINUOUS
 62
     7
100
AcDbCircle
 10
29.0000057220459
 20
29.0000057220459
 40
10
100
AcDbArc
 50
179.9999776881997
 51
233.1303663359504
  0
ARC
  5
28a
100
AcDbEntity
  8
0
  6
CONTINUOUS
 62
     7
100
AcDbCircle
 10
-32.00000381469727
 20
-31.99999237060547
 40
8
100
AcDbArc
 50
180.0001315948278
 51
270.00001798609
  0
ARC
  5
28b
100
AcDbEntity
  8
0
  6
CONTINUOUS
 62
     7
100
AcDbCircle
 10
32.00000381469727
 20
31.99999237060547
 40
8
100
AcDbArc
 50
359.9998438813483
 51
89.99998201391065
  0
ARC
  5
28c
100
AcDbEntity
  8
0
  6
CONTINUOUS
 62
     7
100
AcDbCircle
 10
-32.00000381469727
 20
31.99999237060547
 40
8
100
AcDbArc
 50
89.99998201391065
 51
180.0001142919838
  0
ARC
  5
28d
100
AcDbEntity
  8
0
  6
CONTINUOUS
 62
     7
100
AcDbCircle
 10
32.00000381469727
 20
-31.99999237060547
 40
8
100
AcDbArc
 50
270.00001798609
 51
359.9998438813483
  0
CIRCLE
  5
28e
100
AcDbEntity
  8
0
  6
CONTINUOUS
 62
     7
100
AcDbCircle
 10
-22.00005149841309
 20
15.99997425079346
 40
3.500001192092896
  0
ARC
  5
28f
100
AcDbEntity
  8
0
  6
CONTINUOUS
 62
    20
100
AcDbCircle
 10
-4.250019550323486
 20
25.74999237060547
 40
0.2500001490116119
100
AcDbArc
 50
180.000022311801
 51
360
  0
CIRCLE
  5
290
100
AcDbEntity
  8
0
  6
CONTINUOUS
 62
    20
100
AcDbCircle
 10
4.249987125396729
 20
25.50000953674316
 40
0.2500001490116119
  0
CIRCLE
  5
291
100
AcDbEntity
  8
0
  6
CONTINUOUS
 62
     7
100
AcDbCircle
 10
-21.99997520446777
 20
-16.00004005432129
 40
3.500001192092896
  0
CIRCLE
  5
292
100
AcDbEntity
  8
0
  6
CONTINUOUS
 62
     7
100
AcDbCircle
 10
22.00003433227539
 20
-16.00004005432129
 40
3.500001192092896
  0
CIRCLE
  5
293
100
AcDbEntity
  8
0
  6
CONTINUOUS
 62
     7
100
AcDbCircle
 10
21.99998092651367
 20
15.99997425079346
 40
3.500001192092896
  0
ARC
  5
294
100
AcDbEntity
  8
0
  6
CONTINUOUS
 62
     7
100
AcDbCircle
 10
-29
 20
29.0000057220459
 40
10
100
AcDbArc
 50
306.8695976918723
 51
360
  0
ARC
  5
295
100
AcDbEntity
  8
0
  6
CONTINUOUS
 62
     7
100
AcDbCircle
 10
29.0000057220459
 20
29.0000057220459
 40
10
100
AcDbArc
 50
252.5421295996183
 51
270.00001798609
  0
ARC
  5
296
100
AcDbEntity
  8
0
  6
CONTINUOUS
 62
     7
100
AcDbCircle
 10
29.0000057220459
 20
-29.0000057220459
 40
10
100
AcDbArc
 50
126.8702720593666
 51
179.9999640278213
  0
ARC
  5
297
100
AcDbEntity
  8
0
  6
CONTINUOUS
 62
     7
100
AcDbCircle
 10
-40
 20
0
 40
6
100
AcDbArc
 50
90.00000000000019
 51
270.0000000000005
  0
ARC
  5
298
100
AcDbEntity
  8
0
  6
CONTINUOUS
 62
     7
100
AcDbCircle
 10
38.00005340576172
 20
17
 40
6
100
AcDbArc
 50
90.000036655424
 51
180.0000186693354
  0
CIRCLE
  5
299
100
AcDbEntity
  8
0
  6
CONTINUOUS
 62
     7
100
AcDbCircle
 10
38.00002288818359
 20
17
 40
3.5
  0
ARC
  5
29a
100
AcDbEntity
  8
0
  6
CONTINUOUS
 62
     7
100
AcDbCircle
 10
38.00002288818359
 20
17
 40
4
100
AcDbArc
 50
270.00001798609
 51
5.46415133601103e-005
  0
ARC
  5
29b
100
AcDbEntity
  8
0
  6
CONTINUOUS
 62
     7
100
AcDbCircle
 10
38.00002288818359
 20
-17
 40
4
100
AcDbArc
 50
5.46415133601103e-005
 51
90.00003665542401
  0
CIRCLE
  5
29c
100
AcDbEntity
  8
0
  6
CONTINUOUS
 62
     7
100
AcDbCircle
 10
38.00002288818359
 20
-17
 40
3.5
  0
ARC
  5
29d
100
AcDbEntity
  8
0
  6
CONTINUOUS
 62
     7
100
AcDbCircle
 10
38.00005340576172
 20
-17
 40
6
100
AcDbArc
 50
180.0000186693354
 51
270.000000683246
  0
ARC
  5
29e
100
AcDbEntity
  8
0
  6
CONTINUOUS
 62
     7
100
AcDbCircle
 10
72.00002288818359
 20
-17
 40
4
100
AcDbArc
 50
90.00003665542391
 51
180.0000186693354
  0
CIRCLE
  5
29f
100
AcDbEntity
  8
0
  6
CONTINUOUS
 62
     7
100
AcDbCircle
 10
72.00002288818359
 20
-17
 40
3.5
  0
ARC
  5
2a0
100
AcDbEntity
  8
0
  6
CONTINUOUS
 62
     7
100
AcDbCircle
 10
71.99999237060547
 20
-17
 40
6
100
AcDbArc
 50
270.00001798609
 51
5.46415133601103e-005
  0
CIRCLE
  5
2a1
100
AcDbEntity
  8
0
  6
CONTINUOUS
 62
     7
100
AcDbCircle
 10
72.00002288818359
 20
17
 40
3.5
  0
ARC
  5
2a2
100
AcDbEntity
  8
0
  6
CONTINUOUS
 62
     7
100
AcDbCircle
 10
72.00002288818359
 20
17
 40
4
100
AcDbArc
 50
180.0000186693354
 51
270.000000683246
  0
ARC
  5
2a3
100
AcDbEntity
  8
0
  6
CONTINUOUS
 62
     7
100
AcDbCircle
 10
71.99999237060547
 20
17
 40
6
100
AcDbArc
 50
5.46415133601103e-005
 51
90.00003665542405
  0
MTEXT
  5
2a4
100
AcDbEntity
  8
0
  6
CONTINUOUS
 62
     7
100
AcDbMText
 10
-16.51453243196011
 20
30.67696571350098
 40
0.5
 41
36
 71
     7
 72
     1
  1
{\W0.8426;ＢＮ－５ＢＰ２１－４０－Ｇ／Ｈ＊＊＊}
  0
ENDBLK
  8
0
  5
2a5
100
AcDbEntity
100
AcDbBlockEnd
  0
BLOCK
  8
0
  5
2a6
100
AcDbEntity
100
AcDbBlockBegin
  2
KOZU0003
 70
    64
 10
0
 20
0
  0
POINT
  5
2a7
100
AcDbEntity
  8
0
  6
CONTINUOUS
 62
     7
100
AcDbPoint
 10
0
 20
0
  0
LINE
  5
2a8
100
AcDbEntity
  8
0
  6
DASHED
 62
     7
100
AcDbLine
 10
36.162841796875
 20
32.4999885559082
 11
30
 21
32.4999885559082
  0
LINE
  5
2a9
100
AcDbEntity
  8
0
  6
DASHED
 62
     7
100
AcDbLine
 10
36.162841796875
 20
29.49999046325684
 11
30
 21
29.49999046325684
  0
LINE
  5
2aa
100
AcDbEntity
  8
0
  6
DASHED
 62
     7
100
AcDbLine
 10
40
 20
33.94998550415039
 11
37
 21
33.94998550415039
  0
LINE
  5
2ab
100
AcDbEntity
  8
0
  6
DASHED
 62
     7
100
AcDbLine
 10
40
 20
28.04999351501465
 11
37
 21
28.04999351501465
  0
LINE
  5
2ac
100
AcDbEntity
  8
0
  6
CENTER
 62
     3
100
AcDbLine
 10
41.65000152587891
 20
30.99999046325684
 11
29.47848510742188
 21
30.99999046325684
  0
LINE
  5
2ad
100
AcDbEntity
  8
0
  6
DASHED
 62
     7
100
AcDbLine
 10
37
 20
33.94998550415039
 11
37
 21
28.04999351501465
  0
LINE
  5
2ae
100
AcDbEntity
  8
0
  6
CONTINUOUS
 62
     7
100
AcDbLine
 10
34.00000381469727
 20
68.99996948242188
 11
31.99999237060547
 21
68.99996948242188
  0
LINE
  5
2af
100
AcDbEntity
  8
0
  6
CONTINUOUS
 62
     7
100
AcDbLine
 10
-33.99998474121094
 20
68.99996948242188
 11
-33.99998474121094
 21
34.99996948242188
  0
LINE
  5
2b0
100
AcDbEntity
  8
0
  6
CONTINUOUS
 62
     7
100
AcDbLine
 10
33.99998474121094
 20
68.99996948242188
 11
33.99998474121094
 21
34.99996948242188
  0
LINE
  5
2b1
100
AcDbEntity
  8
0
  6
CONTINUOUS
 62
     7
100
AcDbLine
 10
-31.99999237060547
 20
68.99996948242188
 11
-34.00000381469727
 21
68.99996948242188
  0
LINE
  5
2b2
100
AcDbEntity
  8
0
  6
CONTINUOUS
 62
     7
100
AcDbLine
 10
-36.99999237060547
 20
93.99996185302734
 11
-36.99999237060547
 21
68.99996948242188
  0
LINE
  5
2b3
100
AcDbEntity
  8
0
  6
CONTINUOUS
 62
     7
100
AcDbLine
 10
36.99999237060547
 20
93.99996185302734
 11
36.99999237060547
 21
68.99996948242188
  0
LINE
  5
2b4
100
AcDbEntity
  8
0
  6
CONTINUOUS
 62
     7
100
AcDbLine
 10
36.99999237060547
 20
68.99996948242188
 11
-36.99999237060547
 21
68.99996948242188
  0
LINE
  5
2b5
100
AcDbEntity
  8
0
  6
CENTER
 62
     3
100
AcDbLine
 10
35.31834242440233
 20
0
 11
-35.0255171629122
 21
0
  0
LINE
  5
2b6
100
AcDbEntity
  8
0
  6
CENTER
 62
     3
100
AcDbLine
 10
0
 20
179.7048645019531
 11
0
 21
-61.38828277587891
  0
LINE
  5
2b7
100
AcDbEntity
  8
0
  6
CONTINUOUS
 62
     7
100
AcDbLine
 10
25
 20
68.99996185302734
 11
25
 21
34.99996185302734
  0
LINE
  5
2b8
100
AcDbEntity
  8
0
  6
CONTINUOUS
 62
     7
100
AcDbLine
 10
33.00000762939453
 20
68.99996185302734
 11
33.00000762939453
 21
34.99996185302734
  0
LINE
  5
2b9
100
AcDbEntity
  8
0
  6
CONTINUOUS
 62
     7
100
AcDbLine
 10
-32.9999885559082
 20
68.99996185302734
 11
-32.9999885559082
 21
34.99996185302734
  0
LINE
  5
2ba
100
AcDbEntity
  8
0
  6
CONTINUOUS
 62
     7
100
AcDbLine
 10
-25
 20
68.99996185302734
 11
-25
 21
34.99996185302734
  0
LINE
  5
2bb
100
AcDbEntity
  8
0
  6
CONTINUOUS
 62
     7
100
AcDbLine
 10
-35.49996566772461
 20
91.99996948242188
 11
-22.49995613098145
 21
91.99996948242188
  0
LINE
  5
2bc
100
AcDbEntity
  8
0
  6
CONTINUOUS
 62
     7
100
AcDbLine
 10
-35.49996566772461
 20
84.00000762939453
 11
-22.49995613098145
 21
84.00000762939453
  0
LINE
  5
2bd
100
AcDbEntity
  8
0
  6
CONTINUOUS
 62
     7
100
AcDbLine
 10
-22.49995613098145
 20
91.99996948242188
 11
-22.49995613098145
 21
81.99996948242188
  0
LINE
  5
2be
100
AcDbEntity
  8
0
  6
CENTER
 62
     3
100
AcDbLine
 10
-28.99998283386231
 20
93.09896850585938
 11
-28.99998283386231
 21
34.99998474121094
  0
LINE
  5
2bf
100
AcDbEntity
  8
0
  6
CONTINUOUS
 62
     7
100
AcDbLine
 10
-32.5
 20
-56.00000762939453
 11
32.5
 21
-56.00000762939453
  0
LINE
  5
2c0
100
AcDbEntity
  8
0
  6
CONTINUOUS
 62
     7
100
AcDbLine
 10
32.5
 20
-35.00003814697266
 11
32.5
 21
-56.00000762939453
  0
LINE
  5
2c1
100
AcDbEntity
  8
0
  6
CONTINUOUS
 62
     7
100
AcDbLine
 10
-32.5
 20
-35.00003814697266
 11
-32.5
 21
-56.00000762939453
  0
LINE
  5
2c2
100
AcDbEntity
  8
0
  6
CONTINUOUS
 62
     7
100
AcDbLine
 10
32.5
 20
-35.0000114440918
 11
-32.5
 21
-35.0000114440918
  0
LINE
  5
2c3
100
AcDbEntity
  8
0
  6
CONTINUOUS
 62
     7
100
AcDbLine
 10
40
 20
34.99996185302734
 11
40
 21
-30.0000114440918
  0
LINE
  5
2c4
100
AcDbEntity
  8
0
  6
CONTINUOUS
 62
     7
100
AcDbLine
 10
40
 20
34.9999885559082
 11
-40
 21
34.9999885559082
  0
LINE
  5
2c5
100
AcDbEntity
  8
0
  6
CONTINUOUS
 62
     7
100
AcDbLine
 10
40
 20
-30.0000114440918
 11
-40
 21
-30.0000114440918
  0
LINE
  5
2c6
100
AcDbEntity
  8
0
  6
CONTINUOUS
 62
     7
100
AcDbLine
 10
30
 20
18.54101966249684
 11
30
 21
-18.54101966249684
  0
LINE
  5
2c7
100
AcDbEntity
  8
0
  6
CONTINUOUS
 62
     7
100
AcDbLine
 10
5
 20
34.99996185302734
 11
5
 21
29.7213595499958
  0
LINE
  5
2c8
100
AcDbEntity
  8
0
  6
CONTINUOUS
 62
     7
100
AcDbLine
 10
33.00000762939453
 20
-35.0000114440918
 11
-33.00003051757813
 21
-35.0000114440918
  0
LINE
  5
2c9
100
AcDbEntity
  8
0
  6
CONTINUOUS
 62
     7
100
AcDbLine
 10
34.0000030287723
 20
-30.00001144409179
 11
32.99999086686179
 21
-34.99998502750209
  0
LINE
  5
2ca
100
AcDbEntity
  8
0
  6
CONTINUOUS
 62
     7
100
AcDbLine
 10
-40
 20
34.99996185302734
 11
-40
 21
-30.0000114440918
  0
LINE
  5
2cb
100
AcDbEntity
  8
0
  6
CONTINUOUS
 62
     7
100
AcDbLine
 10
-30
 20
18.54101966249684
 11
-30
 21
-18.54101966249684
  0
LINE
  5
2cc
100
AcDbEntity
  8
0
  6
CONTINUOUS
 62
     7
100
AcDbLine
 10
-5
 20
34.99996185302734
 11
-5
 21
29.7213595499958
  0
LINE
  5
2cd
100
AcDbEntity
  8
0
  6
CONTINUOUS
 62
     7
100
AcDbLine
 10
-34.00007694344192
 20
-30.00001144409179
 11
-33.00005782381484
 21
-35.00001981547804
  0
LINE
  5
2ce
100
AcDbEntity
  8
0
  6
CENTER
 62
     3
100
AcDbLine
 10
-31.57856559753418
 20
25.99999618530273
 11
-42.47266387939453
 21
25.99999618530273
  0
LINE
  5
2cf
100
AcDbEntity
  8
0
  6
DASHED
 62
     7
100
AcDbLine
 10
-34.00000381469727
 20
28.49999618530273
 11
-40
 21
28.49999618530273
  0
LINE
  5
2d0
100
AcDbEntity
  8
0
  6
DASHED
 62
     7
100
AcDbLine
 10
-34.00000381469727
 20
23.49999618530273
 11
-40
 21
23.49999618530273
  0
LINE
  5
2d1
100
AcDbEntity
  8
0
  6
DASHED
 62
     7
100
AcDbLine
 10
-34.00000381469727
 20
28.06698417663574
 11
-40
 21
28.06698417663574
  0
LINE
  5
2d2
100
AcDbEntity
  8
0
  6
DASHED
 62
     7
100
AcDbLine
 10
-34.00000381469727
 20
23.93301773071289
 11
-40
 21
23.93301773071289
  0
LINE
  5
2d3
100
AcDbEntity
  8
0
  6
CONTINUOUS
 62
     7
100
AcDbLine
 10
-35.49996566772461
 20
91.99996948242188
 11
-35.49996566772461
 21
81.99996948242188
  0
LINE
  5
2d4
100
AcDbEntity
  8
0
  6
CONTINUOUS
 62
     7
100
AcDbLine
 10
-18.99998283386231
 20
93.99996948242188
 11
-18.99998283386231
 21
81.99996948242188
  0
LINE
  5
2d5
100
AcDbEntity
  8
0
  6
CONTINUOUS
 62
     7
100
AcDbLine
 10
-18.99998283386231
 20
81.99996948242188
 11
-36.99999237060547
 21
81.99996948242188
  0
LINE
  5
2d6
100
AcDbEntity
  8
0
  6
CONTINUOUS
 62
     7
100
AcDbLine
 10
36.99999237060547
 20
93.99996948242188
 11
-36.99999237060547
 21
93.99996948242188
  0
LINE
  5
2d7
100
AcDbEntity
  8
0
  6
CONTINUOUS
 62
     7
100
AcDbLine
 10
20.99997329711914
 20
93.99996185302734
 11
20.99997329711914
 21
132.0000152587891
  0
LINE
  5
2d8
100
AcDbEntity
  8
0
  6
CENTER
 62
     3
100
AcDbLine
 10
-9.154978752136231
 20
107.9999542236328
 11
9.555075645446777
 21
107.9999542236328
  0
LINE
  5
2d9
100
AcDbEntity
  8
0
  6
CONTINUOUS
 62
     7
100
AcDbLine
 10
-20.99997329711914
 20
93.99996185302734
 11
-20.99997329711914
 21
132.0000152587891
  0
LINE
  5
2da
100
AcDbEntity
  8
0
  6
PHANTOM
 62
     7
100
AcDbLine
 10
-25.75001335144043
 20
101.9999160766602
 11
-20.99997329711914
 21
101.9999160766602
  0
LINE
  5
2db
100
AcDbEntity
  8
0
  6
CENTER
 62
     3
100
AcDbLine
 10
-25.75003623962402
 20
101.7499465942383
 11
-20.99997329711914
 21
101.7499465942383
  0
LINE
  5
2dc
100
AcDbEntity
  8
0
  6
PHANTOM
 62
     7
100
AcDbLine
 10
-25.75001335144043
 20
101.4999389648438
 11
-20.99997329711914
 21
101.4999389648438
  0
LINE
  5
2dd
100
AcDbEntity
  8
0
  6
CONTINUOUS
 62
     7
100
AcDbLine
 10
-25.75003623962402
 20
110.9999618530273
 11
-25.75003623962402
 21
100.9999313354492
  0
LINE
  5
2de
100
AcDbEntity
  8
0
  6
CONTINUOUS
 62
     7
100
AcDbLine
 10
-26.75003051757813
 20
100.9999313354492
 11
-25.75001335144043
 21
100.9999313354492
  0
LINE
  5
2df
100
AcDbEntity
  8
0
  6
CONTINUOUS
 62
     7
100
AcDbLine
 10
-26.75003051757813
 20
110.9999313354492
 11
-26.75003051757813
 21
100.9999313354492
  0
LINE
  5
2e0
100
AcDbEntity
  8
0
  6
CENTER
 62
     3
100
AcDbLine
 10
-28.05620574951172
 20
105.9999313354492
 11
-20.99997329711914
 21
105.9999313354492
  0
LINE
  5
2e1
100
AcDbEntity
  8
0
  6
CONTINUOUS
 62
     7
100
AcDbLine
 10
-26.75003051757813
 20
110.9999313354492
 11
-25.75001335144043
 21
110.9999313354492
  0
LINE
  5
2e2
100
AcDbEntity
  8
0
  6
CENTER
 62
     3
100
AcDbLine
 10
-25.75003623962402
 20
110.2499389648438
 11
-20.99997329711914
 21
110.2499389648438
  0
LINE
  5
2e3
100
AcDbEntity
  8
0
  6
PHANTOM
 62
     7
100
AcDbLine
 10
-25.50000953674316
 20
110.4999008178711
 11
-20.99997329711914
 21
110.4999008178711
  0
LINE
  5
2e4
100
AcDbEntity
  8
0
  6
PHANTOM
 62
     7
100
AcDbLine
 10
-25.50000953674316
 20
109.9999465942383
 11
-20.99997329711914
 21
109.9999465942383
  0
LINE
  5
2e5
100
AcDbEntity
  8
0
  6
CONTINUOUS
 62
     7
100
AcDbLine
 10
-25.75001335144043
 20
109.8500289916992
 11
-20.99997329711914
 21
109.8500289916992
  0
LINE
  5
2e6
100
AcDbEntity
  8
0
  6
CONTINUOUS
 62
     7
100
AcDbLine
 10
-25.75001335144043
 20
102.1499633789063
 11
-20.99997329711914
 21
102.1499633789063
  0
LINE
  5
2e7
100
AcDbEntity
  8
0
  6
CENTER
 62
     3
100
AcDbLine
 10
-15.99997425079346
 20
137.1055297851563
 11
-15.99997425079346
 21
132.0000152587891
  0
LINE
  5
2e8
100
AcDbEntity
  8
0
  6
CONTINUOUS
 62
     7
100
AcDbLine
 10
-20.99997329711914
 20
124.9999465942383
 11
20.99997329711914
 21
124.9999465942383
  0
LINE
  5
2e9
100
AcDbEntity
  8
0
  6
CONTINUOUS
 62
     7
100
AcDbLine
 10
20.99997329711914
 20
132.0000152587891
 11
11.49958358660135
 21
132.0000152587891
  0
LINE
  5
2ea
100
AcDbEntity
  8
0
  6
CONTINUOUS
 62
     7
100
AcDbLine
 10
20.00002187021294
 20
175.9999694824219
 11
21.00000676953857
 21
131.9999889130243
  0
LINE
  5
2eb
100
AcDbEntity
  8
0
  6
CONTINUOUS
 62
     7
100
AcDbLine
 10
10.80050302979547
 20
175.9999694824219
 11
11.49958358660135
 21
132.000015258789
  0
LINE
  5
2ec
100
AcDbEntity
  8
0
  6
CONTINUOUS
 62
     7
100
AcDbLine
 10
8.799765586853027
 20
173.5
 11
8.799765586853027
 21
125.9999618530273
  0
LINE
  5
2ed
100
AcDbEntity
  8
0
  6
CONTINUOUS
 62
     7
100
AcDbLine
 10
8.799765586853027
 20
125.9999542236328
 11
-8.800026893615723
 21
125.9999542236328
  0
LINE
  5
2ee
100
AcDbEntity
  8
0
  6
CONTINUOUS
 62
     7
100
AcDbLine
 10
7.199881553649902
 20
173.5
 11
7.199881553649902
 21
125.9999618530273
  0
LINE
  5
2ef
100
AcDbEntity
  8
0
  6
CONTINUOUS
 62
     7
100
AcDbLine
 10
4.799913883209229
 20
173.5
 11
4.799913883209229
 21
125.9999618530273
  0
LINE
  5
2f0
100
AcDbEntity
  8
0
  6
CONTINUOUS
 62
     7
100
AcDbLine
 10
3.199877023696899
 20
173.5
 11
3.199877023696899
 21
125.9999618530273
  0
LINE
  5
2f1
100
AcDbEntity
  8
0
  6
CONTINUOUS
 62
     7
100
AcDbLine
 10
0.7998875379562378
 20
173.5
 11
0.7998875379562378
 21
125.9999618530273
  0
LINE
  5
2f2
100
AcDbEntity
  8
0
  6
CONTINUOUS
 62
     7
100
AcDbLine
 10
-0.799996554851532
 20
173.5
 11
-0.799996554851532
 21
125.9999618530273
  0
LINE
  5
2f3
100
AcDbEntity
  8
0
  6
CONTINUOUS
 62
     7
100
AcDbLine
 10
-3.199920654296875
 20
173.5
 11
-3.199920654296875
 21
125.9999618530273
  0
LINE
  5
2f4
100
AcDbEntity
  8
0
  6
CONTINUOUS
 62
     7
100
AcDbLine
 10
-4.800197124481201
 20
173.5
 11
-4.800197124481201
 21
125.9999618530273
  0
LINE
  5
2f5
100
AcDbEntity
  8
0
  6
CONTINUOUS
 62
     7
100
AcDbLine
 10
-7.200164794921875
 20
173.5
 11
-7.200164794921875
 21
125.9999618530273
  0
LINE
  5
2f6
100
AcDbEntity
  8
0
  6
CONTINUOUS
 62
     7
100
AcDbLine
 10
-8.800026893615723
 20
173.5
 11
-8.800026893615723
 21
125.9999618530273
  0
LINE
  5
2f7
100
AcDbEntity
  8
0
  6
CONTINUOUS
 62
     7
100
AcDbLine
 10
-10.80033993090531
 20
175.9999694824219
 11
-11.49942048771118
 21
132.000015258789
  0
LINE
  5
2f8
100
AcDbEntity
  8
0
  6
CONTINUOUS
 62
     7
100
AcDbLine
 10
-20.99997329711914
 20
132.0000152587891
 11
-11.49942048771118
 21
132.0000152587891
  0
LINE
  5
2f9
100
AcDbEntity
  8
0
  6
CONTINUOUS
 62
     7
100
AcDbLine
 10
-19.50001335144043
 20
133
 11
-12.49997806549072
 21
133
  0
LINE
  5
2fa
100
AcDbEntity
  8
0
  6
CONTINUOUS
 62
     7
100
AcDbLine
 10
-12.49997806549072
 20
134.3000106811523
 11
-12.49997806549072
 21
132.0000152587891
  0
LINE
  5
2fb
100
AcDbEntity
  8
0
  6
CONTINUOUS
 62
     7
100
AcDbLine
 10
-19.50001335144043
 20
134.3000106811523
 11
-19.50001335144043
 21
132.0000152587891
  0
LINE
  5
2fc
100
AcDbEntity
  8
0
  6
CONTINUOUS
 62
     7
100
AcDbLine
 10
-20.00001614668948
 20
175.9999694824219
 11
-21.00000035557775
 21
132.0000192927131
  0
LINE
  5
2fd
100
AcDbEntity
  8
0
  6
CONTINUOUS
 62
     7
100
AcDbLine
 10
20.00002187021295
 20
175.9999694824219
 11
9.213356173342454
 21
175.9999694824219
  0
LINE
  5
2fe
100
AcDbEntity
  8
0
  6
CONTINUOUS
 62
     7
100
AcDbLine
 10
9.213356173342451
 20
175.9999694824219
 11
8.799758479426391
 21
173.5000105566322
  0
LINE
  5
2ff
100
AcDbEntity
  8
0
  6
CONTINUOUS
 62
     7
100
AcDbLine
 10
8.800026893615723
 20
173.4999694824219
 11
7.199924945831299
 21
173.4999694824219
  0
LINE
  5
300
100
AcDbEntity
  8
0
  6
CONTINUOUS
 62
     7
100
AcDbLine
 10
7.199893765637054
 20
173.4999476577614
 11
6.786284734399967
 21
175.9999694824219
  0
LINE
  5
301
100
AcDbEntity
  8
0
  6
CONTINUOUS
 62
     7
100
AcDbLine
 10
6.786284734399963
 20
175.9999694824219
 11
5.213521768062835
 21
175.9999694824219
  0
LINE
  5
302
100
AcDbEntity
  8
0
  6
CONTINUOUS
 62
     7
100
AcDbLine
 10
5.213521768062829
 20
175.9999694824219
 11
4.799927506004909
 21
173.5000369287092
  0
LINE
  5
303
100
AcDbEntity
  8
0
  6
CENTER
 62
     3
100
AcDbLine
 10
-22.28153800964356
 20
171.4999389648438
 11
-11.54309940338135
 21
171.4999389648438
  0
LINE
  5
304
100
AcDbEntity
  8
0
  6
DASHED
 62
     7
100
AcDbLine
 10
-20.16233253479004
 20
172.4999084472656
 11
-12.25971794128418
 21
172.4999084472656
  0
LINE
  5
305
100
AcDbEntity
  8
0
  6
DASHED
 62
     7
100
AcDbLine
 10
-20.19762420654297
 20
170.4999389648438
 11
-12.25971794128418
 21
170.4999389648438
  0
LINE
  5
306
100
AcDbEntity
  8
0
  6
CONTINUOUS
 62
     7
100
AcDbLine
 10
-20.00001614668948
 20
175.9999694824219
 11
-9.213593966220099
 21
175.9999694824219
  0
LINE
  5
307
100
AcDbEntity
  8
0
  6
CONTINUOUS
 62
     7
100
AcDbLine
 10
-9.213593966220099
 20
175.9999694824219
 11
-8.799984955906144
 21
173.4999421555498
  0
LINE
  5
308
100
AcDbEntity
  8
0
  6
CONTINUOUS
 62
     7
100
AcDbLine
 10
-8.800070762634277
 20
173.4999694824219
 11
-7.199924945831299
 21
173.4999694824219
  0
LINE
  5
309
100
AcDbEntity
  8
0
  6
CONTINUOUS
 62
     7
100
AcDbLine
 10
-7.200152558974434
 20
173.4999908104345
 11
-6.786551749247817
 21
175.9999694824219
  0
LINE
  5
30a
100
AcDbEntity
  8
0
  6
CONTINUOUS
 62
     7
100
AcDbLine
 10
-6.786551749247819
 20
175.9999694824219
 11
-5.213840433216526
 21
175.9999694824219
  0
LINE
  5
30b
100
AcDbEntity
  8
0
  6
CONTINUOUS
 62
     7
100
AcDbLine
 10
-5.213840433216525
 20
175.9999694824219
 11
-4.800237192088474
 21
173.499977026943
  0
LINE
  5
30c
100
AcDbEntity
  8
0
  6
CONTINUOUS
 62
     7
100
AcDbLine
 10
-4.800022602081299
 20
173.4999694824219
 11
-3.199964284896851
 21
173.4999694824219
  0
LINE
  5
30d
100
AcDbEntity
  8
0
  6
CONTINUOUS
 62
     7
100
AcDbLine
 10
-2.786305269927915
 20
175.9999694824219
 11
-3.199912490989284
 21
173.4999520576087
  0
LINE
  5
30e
100
AcDbEntity
  8
0
  6
CONTINUOUS
 62
     7
100
AcDbLine
 10
-2.786305269927913
 20
175.9999694824219
 11
-1.213620352511929
 21
175.9999694824219
  0
LINE
  5
30f
100
AcDbEntity
  8
0
  6
CONTINUOUS
 62
     7
100
AcDbLine
 10
-1.213620352511928
 20
175.9999694824219
 11
-0.8000198783928774
 21
173.4999899491781
  0
LINE
  5
310
100
AcDbEntity
  8
0
  6
CONTINUOUS
 62
     7
100
AcDbLine
 10
-0.8000619411468506
 20
173.4999694824219
 11
-2.179827060899697e-005
 21
173.4999694824219
  0
LINE
  5
311
100
AcDbEntity
  8
0
  6
CONTINUOUS
 62
     7
100
AcDbLine
 10
0.8000401258468628
 20
173.4999694824219
 11
-2.179827060899697e-005
 21
173.4999694824219
  0
LINE
  5
312
100
AcDbEntity
  8
0
  6
CONTINUOUS
 62
     7
100
AcDbLine
 10
1.213376674460839
 20
175.9999694824219
 11
0.7997744978096826
 21
173.4999740297124
  0
LINE
  5
313
100
AcDbEntity
  8
0
  6
CONTINUOUS
 62
     7
100
AcDbLine
 10
2.786259337546737
 20
175.9999694824219
 11
1.21337667446084
 21
175.9999694824219
  0
LINE
  5
314
100
AcDbEntity
  8
0
  6
CONTINUOUS
 62
     7
100
AcDbLine
 10
2.786259337546731
 20
175.9999694824219
 11
3.199863447242347
 21
173.4999670612519
  0
LINE
  5
315
100
AcDbEntity
  8
0
  6
CONTINUOUS
 62
     7
100
AcDbLine
 10
4.800022602081299
 20
173.4999694824219
 11
3.199942588806152
 21
173.4999694824219
  0
LINE
  5
316
100
AcDbEntity
  8
0
  6
DASHED
 62
     7
100
AcDbLine
 10
36.99999960118682
 20
28.0499926078945
 11
36.16284377097851
 21
29.49998901364292
  0
LINE
  5
317
100
AcDbEntity
  8
0
  6
DASHED
 62
     7
100
AcDbLine
 10
36.99999872362014
 20
33.94998214933942
 11
36.16284813862065
 21
32.49999482855899
  0
LINE
  5
318
100
AcDbEntity
  8
0
  6
DASHED
 62
     7
100
AcDbLine
 10
36.162841796875
 20
32.4999885559082
 11
36.162841796875
 21
29.49999046325684
  0
LINE
  5
319
100
AcDbEntity
  8
0
  6
CONTINUOUS
 62
     7
100
AcDbLine
 10
-23
 20
120
 11
-21
 21
120
  0
LINE
  5
31a
100
AcDbEntity
  8
0
  6
CONTINUOUS
 62
     7
100
AcDbLine
 10
23
 20
128
 11
23
 21
97
  0
LINE
  5
31b
100
AcDbEntity
  8
0
  6
CONTINUOUS
 62
     7
100
AcDbLine
 10
-23
 20
128
 11
-21
 21
128
  0
LINE
  5
31c
100
AcDbEntity
  8
0
  6
CONTINUOUS
 62
     7
100
AcDbLine
 10
22.00000538309417
 20
128.0000041696216
 11
20.94737591140907
 21
134.3157806180899
  0
LINE
  5
31d
100
AcDbEntity
  8
0
  6
CONTINUOUS
 62
     7
100
AcDbLine
 10
-23
 20
126
 11
-21
 21
126
  0
LINE
  5
31e
100
AcDbEntity
  8
0
  6
CONTINUOUS
 62
     7
100
AcDbLine
 10
-23
 20
125
 11
-21
 21
125
  0
LINE
  5
31f
100
AcDbEntity
  8
0
  6
CONTINUOUS
 62
     7
100
AcDbLine
 10
-21.99999534897638
 20
127.999994762636
 11
-20.9473711160422
 21
134.3157397786007
  0
LINE
  5
320
100
AcDbEntity
  8
0
  6
CONTINUOUS
 62
     7
100
AcDbLine
 10
-23
 20
128
 11
-23
 21
110.4999008178711
  0
LINE
  5
321
100
AcDbEntity
  8
0
  6
CONTINUOUS
 62
     7
100
AcDbLine
 10
21
 20
120
 11
23
 21
120
  0
LINE
  5
322
100
AcDbEntity
  8
0
  6
CONTINUOUS
 62
     7
100
AcDbLine
 10
21
 20
125
 11
23
 21
125
  0
LINE
  5
323
100
AcDbEntity
  8
0
  6
CONTINUOUS
 62
     7
100
AcDbLine
 10
21
 20
126
 11
23
 21
126
  0
LINE
  5
324
100
AcDbEntity
  8
0
  6
CONTINUOUS
 62
     7
100
AcDbLine
 10
21
 20
128
 11
23
 21
128
  0
LINE
  5
325
100
AcDbEntity
  8
0
  6
CONTINUOUS
 62
     7
100
AcDbLine
 10
-23
 20
101.4999389648438
 11
-23
 21
97
  0
LINE
  5
326
100
AcDbEntity
  8
0
  6
CONTINUOUS
 62
     7
100
AcDbLine
 10
19.50001335144043
 20
134.3000106811523
 11
19.50001335144043
 21
132.0000152587891
  0
LINE
  5
327
100
AcDbEntity
  8
0
  6
CONTINUOUS
 62
     7
100
AcDbLine
 10
12.49997806549072
 20
134.3000106811523
 11
12.49997806549072
 21
132.0000152587891
  0
LINE
  5
328
100
AcDbEntity
  8
0
  6
CONTINUOUS
 62
     7
100
AcDbLine
 10
19.50001335144043
 20
133
 11
12.49997806549072
 21
133
  0
LINE
  5
329
100
AcDbEntity
  8
0
  6
CENTER
 62
     3
100
AcDbLine
 10
15.99997425079346
 20
137.1055297851563
 11
15.99997425079346
 21
132.0000152587891
  0
LINE
  5
32a
100
AcDbEntity
  8
0
  6
CONTINUOUS
 62
     7
100
AcDbLine
 10
-23
 20
97
 11
-20.99997329711914
 21
97
  0
LINE
  5
32b
100
AcDbEntity
  8
0
  6
CONTINUOUS
 62
     7
100
AcDbLine
 10
20.99997329711914
 20
97
 11
23
 21
97
  0
LINE
  5
32c
100
AcDbEntity
  8
0
  6
CONTINUOUS
 62
     7
100
AcDbLine
 10
18.99998283386231
 20
81.99996948242188
 11
36.99999237060547
 21
81.99996948242188
  0
LINE
  5
32d
100
AcDbEntity
  8
0
  6
CONTINUOUS
 62
     7
100
AcDbLine
 10
18.99998283386231
 20
93.99996948242188
 11
18.99998283386231
 21
81.99996948242188
  0
LINE
  5
32e
100
AcDbEntity
  8
0
  6
CONTINUOUS
 62
     7
100
AcDbLine
 10
35.49996566772461
 20
91.99996948242188
 11
35.49996566772461
 21
81.99996948242188
  0
LINE
  5
32f
100
AcDbEntity
  8
0
  6
CENTER
 62
     3
100
AcDbLine
 10
28.99998283386231
 20
93.09896850585938
 11
28.99998283386231
 21
34.99998474121094
  0
LINE
  5
330
100
AcDbEntity
  8
0
  6
CONTINUOUS
 62
     7
100
AcDbLine
 10
22.49995613098145
 20
91.99996948242188
 11
22.49995613098145
 21
81.99996948242188
  0
LINE
  5
331
100
AcDbEntity
  8
0
  6
CONTINUOUS
 62
     7
100
AcDbLine
 10
35.49996566772461
 20
84.00000762939453
 11
22.49995613098145
 21
84.00000762939453
  0
LINE
  5
332
100
AcDbEntity
  8
0
  6
CONTINUOUS
 62
     7
100
AcDbLine
 10
35.49996566772461
 20
91.99996948242188
 11
22.49995613098145
 21
91.99996948242188
  0
ARC
  5
333
100
AcDbEntity
  8
0
  6
CONTINUOUS
 62
     7
100
AcDbCircle
 10
0
 20
-15
 40
45
100
AcDbArc
 50
48.1896851042214
 51
131.8103148957786
  0
ARC
  5
334
100
AcDbEntity
  8
0
  6
CONTINUOUS
 62
     7
100
AcDbCircle
 10
0
 20
15
 40
45
100
AcDbArc
 50
228.1896851042221
 51
311.8103148957793
  0
CIRCLE
  5
335
100
AcDbEntity
  8
0
  6
CONTINUOUS
 62
     7
100
AcDbCircle
 10
0
 20
0
 40
24.35185432434082
  0
CIRCLE
  5
336
100
AcDbEntity
  8
0
  6
CONTINUOUS
 62
     7
100
AcDbCircle
 10
0
 20
0
 40
22.87194633483887
  0
CIRCLE
  5
337
100
AcDbEntity
  8
0
  6
CONTINUOUS
 62
     7
100
AcDbCircle
 10
-25.50000953674316
 20
110.2499618530273
 40
0.2500001192092896
  0
ARC
  5
338
100
AcDbEntity
  8
0
  6
CONTINUOUS
 62
     7
100
AcDbCircle
 10
-25.75001335144043
 20
101.7499465942383
 40
0.2500001192092896
100
AcDbArc
 50
269.991248023196
 51
89.99992737239722
  0
CIRCLE
  5
339
100
AcDbEntity
  8
0
  6
CONTINUOUS
 62
     7
100
AcDbCircle
 10
0
 20
107.9999771118164
 40
5.903963565826416
  0
CIRCLE
  5
33a
100
AcDbEntity
  8
0
  6
CONTINUOUS
 62
     7
100
AcDbCircle
 10
0
 20
107.9999694824219
 40
6.760493755340576
  0
ARC
  5
33b
100
AcDbEntity
  8
0
  6
CONTINUOUS
 62
     7
100
AcDbCircle
 10
-15.99999570846558
 20
130.2384687712797
 40
5.36155259106792
100
AcDbArc
 50
49.24701080288003
 51
130.75298919712
  0
ARC
  5
33c
100
AcDbEntity
  8
0
  6
CONTINUOUS
 62
     7
100
AcDbCircle
 10
15.99999570846558
 20
130.2384687712797
 40
5.36155259106792
100
AcDbArc
 50
49.24701080288006
 51
130.75298919712
  0
MTEXT
  5
33d
100
AcDbEntity
  8
0
  6
CONTINUOUS
 62
     7
100
AcDbMText
 10
-17.07506023347378
 20
119.4562530517578
 40
0.5
 41
36
 71
     7
 72
     1
  1
{\W0.8426;ＢＮ－５ＢＰ２１－４０－Ｇ／Ｈ＊＊＊}
  0
INSERT
  5
33e
100
AcDbEntity
  8
0
  6
CONTINUOUS
 62
     7
100
AcDbBlockReference
  2
KOZU0008
 10
0
 20
0
  0
INSERT
  5
33f
100
AcDbEntity
  8
0
  6
CONTINUOUS
 62
     3
100
AcDbBlockReference
  2
KOZU0009
 10
0
 20
0
  0
ENDBLK
  8
0
  5
340
100
AcDbEntity
100
AcDbBlockEnd
  0
BLOCK
  8
0
  5
341
100
AcDbEntity
100
AcDbBlockBegin
  2
KOZU0004
 70
    64
 10
0
 20
0
  0
POINT
  5
342
100
AcDbEntity
  8
0
  6
CONTINUOUS
 62
     7
100
AcDbPoint
 10
0
 20
0
  0
LINE
  5
343
100
AcDbEntity
  8
0
  6
CONTINUOUS
 62
     7
100
AcDbLine
 10
-34.00000381469727
 20
68.99998474121094
 11
-31.99999237060547
 21
68.99998474121094
  0
LINE
  5
344
100
AcDbEntity
  8
0
  6
CONTINUOUS
 62
     7
100
AcDbLine
 10
33.99998474121094
 20
68.99997711181641
 11
33.99998474121094
 21
34.99997711181641
  0
LINE
  5
345
100
AcDbEntity
  8
0
  6
CONTINUOUS
 62
     7
100
AcDbLine
 10
-33.99998474121094
 20
68.99997711181641
 11
-33.99998474121094
 21
34.99997711181641
  0
LINE
  5
346
100
AcDbEntity
  8
0
  6
CONTINUOUS
 62
     7
100
AcDbLine
 10
31.99999237060547
 20
68.99998474121094
 11
34.00000381469727
 21
68.99998474121094
  0
LINE
  5
347
100
AcDbEntity
  8
0
  6
CONTINUOUS
 62
     7
100
AcDbLine
 10
36.99999237060547
 20
93.99996948242188
 11
36.99999237060547
 21
68.99997711181641
  0
LINE
  5
348
100
AcDbEntity
  8
0
  6
CONTINUOUS
 62
     7
100
AcDbLine
 10
-36.99999237060547
 20
93.99996948242188
 11
-36.99999237060547
 21
68.99997711181641
  0
LINE
  5
349
100
AcDbEntity
  8
0
  6
CONTINUOUS
 62
     7
100
AcDbLine
 10
-36.99999237060547
 20
68.99998474121094
 11
36.99999237060547
 21
68.99998474121094
  0
LINE
  5
34a
100
AcDbEntity
  8
0
  6
CENTER
 62
     3
100
AcDbLine
 10
-35.15118786581649
 20
1.089913530449849e-005
 11
35.01476748567968
 21
1.089913530449849e-005
  0
LINE
  5
34b
100
AcDbEntity
  8
0
  6
CENTER
 62
     3
100
AcDbLine
 10
0
 20
179.3868713378906
 11
0
 21
-61.38827133178711
  0
LINE
  5
34c
100
AcDbEntity
  8
0
  6
CONTINUOUS
 62
     7
100
AcDbLine
 10
-25
 20
68.99996948242188
 11
-25
 21
34.99997329711914
  0
LINE
  5
34d
100
AcDbEntity
  8
0
  6
CONTINUOUS
 62
     7
100
AcDbLine
 10
-33.00000762939453
 20
68.99996948242188
 11
-33.00000762939453
 21
34.99997329711914
  0
LINE
  5
34e
100
AcDbEntity
  8
0
  6
CONTINUOUS
 62
     7
100
AcDbLine
 10
32.9999885559082
 20
68.99996948242188
 11
32.9999885559082
 21
34.99997329711914
  0
LINE
  5
34f
100
AcDbEntity
  8
0
  6
CONTINUOUS
 62
     7
100
AcDbLine
 10
25
 20
68.99996948242188
 11
25
 21
34.99997329711914
  0
LINE
  5
350
100
AcDbEntity
  8
0
  6
CONTINUOUS
 62
     7
100
AcDbLine
 10
32.5
 20
-55.99999618530273
 11
-32.5
 21
-55.99999618530273
  0
LINE
  5
351
100
AcDbEntity
  8
0
  6
CONTINUOUS
 62
     7
100
AcDbLine
 10
-32.5
 20
-35.00002670288086
 11
-32.5
 21
-55.99999618530273
  0
LINE
  5
352
100
AcDbEntity
  8
0
  6
CONTINUOUS
 62
     7
100
AcDbLine
 10
32.5
 20
-35.00002670288086
 11
32.5
 21
-55.99999618530273
  0
LINE
  5
353
100
AcDbEntity
  8
0
  6
CONTINUOUS
 62
     7
100
AcDbLine
 10
-32.5
 20
-35
 11
32.5
 21
-35
  0
LINE
  5
354
100
AcDbEntity
  8
0
  6
CONTINUOUS
 62
     7
100
AcDbLine
 10
-40
 20
34.99997329711914
 11
-40
 21
-30
  0
LINE
  5
355
100
AcDbEntity
  8
0
  6
CONTINUOUS
 62
     7
100
AcDbLine
 10
-40
 20
35
 11
40
 21
35
  0
LINE
  5
356
100
AcDbEntity
  8
0
  6
CONTINUOUS
 62
     7
100
AcDbLine
 10
-40
 20
-30
 11
40
 21
-30
  0
LINE
  5
357
100
AcDbEntity
  8
0
  6
CONTINUOUS
 62
     7
100
AcDbLine
 10
-30
 20
18.54103015291432
 11
-30
 21
-18.54100821840505
  0
LINE
  5
358
100
AcDbEntity
  8
0
  6
CONTINUOUS
 62
     7
100
AcDbLine
 10
-5
 20
34.99997329711914
 11
-5
 21
29.72137004041328
  0
LINE
  5
359
100
AcDbEntity
  8
0
  6
CONTINUOUS
 62
     7
100
AcDbLine
 10
-33.00000762939453
 20
-35
 11
33.00003051757813
 21
-35
  0
LINE
  5
35a
100
AcDbEntity
  8
0
  6
CONTINUOUS
 62
     7
100
AcDbLine
 10
-34.00001309812213
 20
-29.99999999999999
 11
-33.00000208877479
 21
-34.99996782069498
  0
LINE
  5
35b
100
AcDbEntity
  8
0
  6
CONTINUOUS
 62
     7
100
AcDbLine
 10
40
 20
34.99997329711914
 11
40
 21
-30
  0
LINE
  5
35c
100
AcDbEntity
  8
0
  6
CONTINUOUS
 62
     7
100
AcDbLine
 10
30
 20
18.54103015291432
 11
30
 21
-18.54100821840505
  0
LINE
  5
35d
100
AcDbEntity
  8
0
  6
CONTINUOUS
 62
     7
100
AcDbLine
 10
5
 20
34.99997329711914
 11
5
 21
29.72137004041328
  0
LINE
  5
35e
100
AcDbEntity
  8
0
  6
CONTINUOUS
 62
     7
100
AcDbLine
 10
34.00006756156289
 20
-29.99999999999999
 11
33.00004809823956
 21
-35.00001008983751
  0
LINE
  5
35f
100
AcDbEntity
  8
0
  6
CENTER
 62
     3
100
AcDbLine
 10
31.57856559753418
 20
26.00000762939453
 11
42.47266387939453
 21
26.00000762939453
  0
LINE
  5
360
100
AcDbEntity
  8
0
  6
DASHED
 62
     7
100
AcDbLine
 10
34.00000381469727
 20
28.50000762939453
 11
40
 21
28.50000762939453
  0
LINE
  5
361
100
AcDbEntity
  8
0
  6
DASHED
 62
     7
100
AcDbLine
 10
34.00000381469727
 20
23.50000762939453
 11
40
 21
23.50000762939453
  0
LINE
  5
362
100
AcDbEntity
  8
0
  6
DASHED
 62
     7
100
AcDbLine
 10
34.00000381469727
 20
28.06699562072754
 11
40
 21
28.06699562072754
  0
LINE
  5
363
100
AcDbEntity
  8
0
  6
DASHED
 62
     7
100
AcDbLine
 10
34.00000381469727
 20
23.93302917480469
 11
40
 21
23.93302917480469
  0
LINE
  5
364
100
AcDbEntity
  8
0
  6
CONTINUOUS
 62
     7
100
AcDbLine
 10
-36.99999237060547
 20
81.99998474121094
 11
-18.99998283386231
 21
81.99998474121094
  0
LINE
  5
365
100
AcDbEntity
  8
0
  6
CONTINUOUS
 62
     7
100
AcDbLine
 10
-18.99998283386231
 20
93.99998474121094
 11
-18.99998283386231
 21
81.99998474121094
  0
LINE
  5
366
100
AcDbEntity
  8
0
  6
CONTINUOUS
 62
     7
100
AcDbLine
 10
-22.5
 20
84.00001525878906
 11
-35.50000762939453
 21
84.00001525878906
  0
LINE
  5
367
100
AcDbEntity
  8
0
  6
CONTINUOUS
 62
     7
100
AcDbLine
 10
-22.5
 20
91.99998474121094
 11
-22.5
 21
81.99998474121094
  0
LINE
  5
368
100
AcDbEntity
  8
0
  6
CENTER
 62
     3
100
AcDbLine
 10
-28.99998283386231
 20
93.1041259765625
 11
-28.99998283386231
 21
34.99999618530273
  0
LINE
  5
369
100
AcDbEntity
  8
0
  6
CONTINUOUS
 62
     7
100
AcDbLine
 10
-22.5
 20
91.99998474121094
 11
-35.50000762939453
 21
91.99998474121094
  0
LINE
  5
36a
100
AcDbEntity
  8
0
  6
CONTINUOUS
 62
     7
100
AcDbLine
 10
-35.50000762939453
 20
91.99998474121094
 11
-35.50000762939453
 21
81.99998474121094
  0
LINE
  5
36b
100
AcDbEntity
  8
0
  6
CONTINUOUS
 62
     7
100
AcDbLine
 10
-36.99999237060547
 20
93.99998474121094
 11
36.99999237060547
 21
93.99998474121094
  0
LINE
  5
36c
100
AcDbEntity
  8
0
  6
CONTINUOUS
 62
     7
100
AcDbLine
 10
-20.99997329711914
 20
93.99996948242188
 11
-20.99997329711914
 21
96.99994659423828
  0
LINE
  5
36d
100
AcDbEntity
  8
0
  6
CENTER
 62
     3
100
AcDbLine
 10
14
 20
110.9999465942383
 11
-14
 21
110.9999465942383
  0
LINE
  5
36e
100
AcDbEntity
  8
0
  6
CONTINUOUS
 62
     7
100
AcDbLine
 10
20.99997329711914
 20
93.99996948242188
 11
20.99997329711914
 21
96.99994659423828
  0
LINE
  5
36f
100
AcDbEntity
  8
0
  6
PHANTOM
 62
     7
100
AcDbLine
 10
25.75001335144043
 20
101.9999313354492
 11
23
 21
101.9999313354492
  0
LINE
  5
370
100
AcDbEntity
  8
0
  6
CENTER
 62
     3
100
AcDbLine
 10
25.75003623962402
 20
101.7499542236328
 11
23
 21
101.7499542236328
  0
LINE
  5
371
100
AcDbEntity
  8
0
  6
PHANTOM
 62
     7
100
AcDbLine
 10
25.75001335144043
 20
101.4999542236328
 11
23
 21
101.4999542236328
  0
LINE
  5
372
100
AcDbEntity
  8
0
  6
CONTINUOUS
 62
     7
100
AcDbLine
 10
25.75003623962402
 20
110.9999771118164
 11
25.75003623962402
 21
100.9999465942383
  0
LINE
  5
373
100
AcDbEntity
  8
0
  6
CONTINUOUS
 62
     7
100
AcDbLine
 10
26.75003051757813
 20
100.9999465942383
 11
25.75001335144043
 21
100.9999465942383
  0
LINE
  5
374
100
AcDbEntity
  8
0
  6
CONTINUOUS
 62
     7
100
AcDbLine
 10
26.75003051757813
 20
110.9999465942383
 11
26.75003051757813
 21
100.9999465942383
  0
LINE
  5
375
100
AcDbEntity
  8
0
  6
CENTER
 62
     3
100
AcDbLine
 10
28.05620574951172
 20
105.9999465942383
 11
23
 21
105.9999465942383
  0
LINE
  5
376
100
AcDbEntity
  8
0
  6
CONTINUOUS
 62
     7
100
AcDbLine
 10
26.75003051757813
 20
110.9999465942383
 11
25.75001335144043
 21
110.9999465942383
  0
LINE
  5
377
100
AcDbEntity
  8
0
  6
CENTER
 62
     3
100
AcDbLine
 10
25.75003623962402
 20
110.2499542236328
 11
23
 21
110.2499542236328
  0
LINE
  5
378
100
AcDbEntity
  8
0
  6
PHANTOM
 62
     7
100
AcDbLine
 10
25.50000953674316
 20
110.4999160766602
 11
23
 21
110.4999160766602
  0
LINE
  5
379
100
AcDbEntity
  8
0
  6
PHANTOM
 62
     7
100
AcDbLine
 10
25.50000953674316
 20
109.9999618530273
 11
23
 21
109.9999618530273
  0
LINE
  5
37a
100
AcDbEntity
  8
0
  6
CONTINUOUS
 62
     7
100
AcDbLine
 10
25.75001335144043
 20
109.8500442504883
 11
23
 21
109.8500442504883
  0
LINE
  5
37b
100
AcDbEntity
  8
0
  6
CONTINUOUS
 62
     7
100
AcDbLine
 10
25.75001335144043
 20
102.1499786376953
 11
23
 21
102.1499786376953
  0
LINE
  5
37c
100
AcDbEntity
  8
0
  6
CONTINUOUS
 62
     7
100
AcDbLine
 10
20.99997329711914
 20
124.9999618530273
 11
-20.99997329711914
 21
124.9999618530273
  0
LINE
  5
37d
100
AcDbEntity
  8
0
  6
CONTINUOUS
 62
     7
100
AcDbLine
 10
-20.00002724695083
 20
175.9999847412109
 11
-20.95455940231285
 21
133.9999542236328
  0
LINE
  5
37e
100
AcDbEntity
  8
0
  6
CONTINUOUS
 62
     7
100
AcDbLine
 10
-10.80049611079786
 20
175.9999847412109
 11
-11.46780132448772
 21
133.9999626125756
  0
LINE
  5
37f
100
AcDbEntity
  8
0
  6
CONTINUOUS
 62
     7
100
AcDbLine
 10
-8.799765586853027
 20
173.5000152587891
 11
-8.799765586853027
 21
133.9999542236328
  0
LINE
  5
380
100
AcDbEntity
  8
0
  6
CONTINUOUS
 62
     7
100
AcDbLine
 10
-9.169377326965332
 20
125.9999618530273
 11
9.169660568237305
 21
125.9999618530273
  0
LINE
  5
381
100
AcDbEntity
  8
0
  6
CONTINUOUS
 62
     7
100
AcDbLine
 10
-7.199881553649902
 20
173.5000152587891
 11
-7.199881553649902
 21
133.9999542236328
  0
LINE
  5
382
100
AcDbEntity
  8
0
  6
CONTINUOUS
 62
     7
100
AcDbLine
 10
-4.799913883209229
 20
173.5000152587891
 11
-4.799913883209229
 21
133.9999542236328
  0
LINE
  5
383
100
AcDbEntity
  8
0
  6
CONTINUOUS
 62
     7
100
AcDbLine
 10
-3.199877023696899
 20
173.5000152587891
 11
-3.199877023696899
 21
133.9999542236328
  0
LINE
  5
384
100
AcDbEntity
  8
0
  6
CONTINUOUS
 62
     7
100
AcDbLine
 10
-0.7998875379562378
 20
173.5000152587891
 11
-0.7998875379562378
 21
133.9999542236328
  0
LINE
  5
385
100
AcDbEntity
  8
0
  6
CONTINUOUS
 62
     7
100
AcDbLine
 10
0.799996554851532
 20
173.5000152587891
 11
0.799996554851532
 21
133.9999542236328
  0
LINE
  5
386
100
AcDbEntity
  8
0
  6
CONTINUOUS
 62
     7
100
AcDbLine
 10
3.199920654296875
 20
173.5000152587891
 11
3.199920654296875
 21
133.9999542236328
  0
LINE
  5
387
100
AcDbEntity
  8
0
  6
CONTINUOUS
 62
     7
100
AcDbLine
 10
4.800197124481201
 20
173.5000152587891
 11
4.800197124481201
 21
133.9999542236328
  0
LINE
  5
388
100
AcDbEntity
  8
0
  6
CONTINUOUS
 62
     7
100
AcDbLine
 10
7.200164794921875
 20
173.5000152587891
 11
7.200164794921875
 21
133.9999542236328
  0
LINE
  5
389
100
AcDbEntity
  8
0
  6
CONTINUOUS
 62
     7
100
AcDbLine
 10
8.800026893615723
 20
173.5000152587891
 11
8.800026893615723
 21
133.9999542236328
  0
LINE
  5
38a
100
AcDbEntity
  8
0
  6
CONTINUOUS
 62
     7
100
AcDbLine
 10
10.80034159605981
 20
175.9999847412109
 11
11.46764684874479
 21
133.9999601582324
  0
LINE
  5
38b
100
AcDbEntity
  8
0
  6
CONTINUOUS
 62
     7
100
AcDbLine
 10
20.00002152342736
 20
175.9999847412109
 11
20.95455367878938
 21
133.9999542236328
  0
LINE
  5
38c
100
AcDbEntity
  8
0
  6
CONTINUOUS
 62
     7
100
AcDbLine
 10
-20.00002724695084
 20
175.9999847412109
 11
-9.213364497610202
 21
175.9999847412109
  0
LINE
  5
38d
100
AcDbEntity
  8
0
  6
CONTINUOUS
 62
     7
100
AcDbLine
 10
-9.213364497610201
 20
175.9999847412109
 11
-8.799764124735003
 21
173.5000096226622
  0
LINE
  5
38e
100
AcDbEntity
  8
0
  6
CONTINUOUS
 62
     7
100
AcDbLine
 10
-8.800026893615723
 20
173.4999847412109
 11
-7.199924945831299
 21
173.4999847412109
  0
LINE
  5
38f
100
AcDbEntity
  8
0
  6
CONTINUOUS
 62
     7
100
AcDbLine
 10
-7.199898802122643
 20
173.4999639572128
 11
-6.786289943054992
 21
175.9999847412109
  0
LINE
  5
390
100
AcDbEntity
  8
0
  6
CONTINUOUS
 62
     7
100
AcDbLine
 10
-6.786289943054992
 20
175.9999847412109
 11
-5.213518492683351
 21
175.9999847412109
  0
LINE
  5
391
100
AcDbEntity
  8
0
  6
CONTINUOUS
 62
     7
100
AcDbLine
 10
-5.213518492683349
 20
175.9999847412109
 11
-4.799921860696639
 21
173.5000378626812
  0
LINE
  5
392
100
AcDbEntity
  8
0
  6
CENTER
 62
     3
100
AcDbLine
 10
22.28153800964356
 20
171.4999542236328
 11
11.54309940338135
 21
171.4999542236328
  0
LINE
  5
393
100
AcDbEntity
  8
0
  6
DASHED
 62
     7
100
AcDbLine
 10
20.16233253479004
 20
172.4999237060547
 11
12.25971794128418
 21
172.4999237060547
  0
LINE
  5
394
100
AcDbEntity
  8
0
  6
DASHED
 62
     7
100
AcDbLine
 10
20.19762420654297
 20
170.4999542236328
 11
12.25971794128418
 21
170.4999542236328
  0
LINE
  5
395
100
AcDbEntity
  8
0
  6
CONTINUOUS
 62
     7
100
AcDbLine
 10
20.00002152342737
 20
175.9999847412109
 11
9.213594557386136
 21
175.9999847412109
  0
LINE
  5
396
100
AcDbEntity
  8
0
  6
CONTINUOUS
 62
     7
100
AcDbLine
 10
9.213594557386134
 20
175.9999847412109
 11
8.799985564723258
 21
173.4999575210294
  0
LINE
  5
397
100
AcDbEntity
  8
0
  6
CONTINUOUS
 62
     7
100
AcDbLine
 10
8.800070762634277
 20
173.4999847412109
 11
7.199924945831299
 21
173.4999847412109
  0
LINE
  5
398
100
AcDbEntity
  8
0
  6
CONTINUOUS
 62
     7
100
AcDbLine
 10
7.200165122545112
 20
173.5000083551767
 11
6.786564691010554
 21
175.9999847412109
  0
LINE
  5
399
100
AcDbEntity
  8
0
  6
CONTINUOUS
 62
     7
100
AcDbLine
 10
6.786564691010552
 20
175.9999847412109
 11
5.213835224556279
 21
175.9999847412109
  0
LINE
  5
39a
100
AcDbEntity
  8
0
  6
CONTINUOUS
 62
     7
100
AcDbLine
 10
5.213835224556277
 20
175.9999847412109
 11
4.800229665010328
 21
173.4999782722363
  0
LINE
  5
39b
100
AcDbEntity
  8
0
  6
CONTINUOUS
 62
     7
100
AcDbLine
 10
4.800022602081299
 20
173.4999847412109
 11
3.199964284896851
 21
173.4999847412109
  0
LINE
  5
39c
100
AcDbEntity
  8
0
  6
CONTINUOUS
 62
     7
100
AcDbLine
 10
2.786296945661142
 20
175.999984741211
 11
3.199904355094851
 21
173.4999661777954
  0
LINE
  5
39d
100
AcDbEntity
  8
0
  6
CONTINUOUS
 62
     7
100
AcDbLine
 10
2.786296945661145
 20
175.9999847412109
 11
1.2136248102249
 21
175.9999847412109
  0
LINE
  5
39e
100
AcDbEntity
  8
0
  6
CONTINUOUS
 62
     7
100
AcDbLine
 10
1.2136248102249
 20
175.999984741211
 11
0.8000217601624904
 21
173.4999896378552
  0
LINE
  5
39f
100
AcDbEntity
  8
0
  6
CONTINUOUS
 62
     7
100
AcDbLine
 10
0.8000619411468506
 20
173.4999847412109
 11
2.179827060899697e-005
 21
173.4999847412109
  0
LINE
  5
3a0
100
AcDbEntity
  8
0
  6
CONTINUOUS
 62
     7
100
AcDbLine
 10
-0.8000401258468628
 20
173.4999847412109
 11
2.179827060899697e-005
 21
173.4999847412109
  0
LINE
  5
3a1
100
AcDbEntity
  8
0
  6
CONTINUOUS
 62
     7
100
AcDbLine
 10
-1.213392731819415
 20
175.9999847412109
 11
-0.799787670197766
 21
173.4999718504571
  0
LINE
  5
3a2
100
AcDbEntity
  8
0
  6
CONTINUOUS
 62
     7
100
AcDbLine
 10
-2.786258746385364
 20
175.9999847412109
 11
-1.213392731819415
 21
175.9999847412109
  0
LINE
  5
3a3
100
AcDbEntity
  8
0
  6
CONTINUOUS
 62
     7
100
AcDbLine
 10
-2.786258746385368
 20
175.999984741211
 11
-3.199862838429905
 21
173.4999824267317
  0
LINE
  5
3a4
100
AcDbEntity
  8
0
  6
CONTINUOUS
 62
     7
100
AcDbLine
 10
-4.800022602081299
 20
173.4999847412109
 11
-3.199942588806152
 21
173.4999847412109
  0
LINE
  5
3a5
100
AcDbEntity
  8
0
  6
CENTER
 62
     3
100
AcDbLine
 10
-42.17499923706055
 20
31
 11
-29.47848510742188
 21
31
  0
LINE
  5
3a6
100
AcDbEntity
  8
0
  6
DASHED
 62
     7
100
AcDbLine
 10
-37
 20
33.94999694824219
 11
-37
 21
28.05000305175781
  0
LINE
  5
3a7
100
AcDbEntity
  8
0
  6
DASHED
 62
     7
100
AcDbLine
 10
-40
 20
28.05000305175781
 11
-37
 21
28.05000305175781
  0
LINE
  5
3a8
100
AcDbEntity
  8
0
  6
DASHED
 62
     7
100
AcDbLine
 10
-40
 20
33.94999694824219
 11
-37
 21
33.94999694824219
  0
LINE
  5
3a9
100
AcDbEntity
  8
0
  6
DASHED
 62
     7
100
AcDbLine
 10
-36.162841796875
 20
29.5
 11
-30
 21
29.5
  0
LINE
  5
3aa
100
AcDbEntity
  8
0
  6
DASHED
 62
     7
100
AcDbLine
 10
-36.162841796875
 20
32.5
 11
-30
 21
32.5
  0
LINE
  5
3ab
100
AcDbEntity
  8
0
  6
DASHED
 62
     7
100
AcDbLine
 10
-37.00000144006462
 20
28.05000468165362
 11
-36.16284560985631
 21
29.50000108740204
  0
LINE
  5
3ac
100
AcDbEntity
  8
0
  6
DASHED
 62
     7
100
AcDbLine
 10
-36.99999758288038
 20
33.94999161761185
 11
-36.16284699788088
 21
32.50000429683142
  0
LINE
  5
3ad
100
AcDbEntity
  8
0
  6
DASHED
 62
     7
100
AcDbLine
 10
-36.162841796875
 20
32.5
 11
-36.162841796875
 21
29.5
  0
LINE
  5
3ae
100
AcDbEntity
  8
0
  6
CONTINUOUS
 62
     7
100
AcDbLine
 10
-14
 20
119.9999465942383
 11
-14
 21
96.99994659423828
  0
LINE
  5
3af
100
AcDbEntity
  8
0
  6
CONTINUOUS
 62
     7
100
AcDbLine
 10
-21
 20
108.9999465942383
 11
-14
 21
108.9999465942383
  0
LINE
  5
3b0
100
AcDbEntity
  8
0
  6
CONTINUOUS
 62
     7
100
AcDbLine
 10
-21
 20
119.9999465942383
 11
-21
 21
108.9999465942383
  0
LINE
  5
3b1
100
AcDbEntity
  8
0
  6
CONTINUOUS
 62
     7
100
AcDbLine
 10
-23
 20
119.9999465942383
 11
-10.72380828857422
 21
119.9999465942383
  0
LINE
  5
3b2
100
AcDbEntity
  8
0
  6
CONTINUOUS
 62
     7
100
AcDbLine
 10
10.72380828857422
 20
119.9999465942383
 11
23
 21
119.9999465942383
  0
LINE
  5
3b3
100
AcDbEntity
  8
0
  6
CONTINUOUS
 62
     7
100
AcDbLine
 10
14
 20
119.9999465942383
 11
14
 21
96.99994659423828
  0
LINE
  5
3b4
100
AcDbEntity
  8
0
  6
CONTINUOUS
 62
     7
100
AcDbLine
 10
14
 20
108.9999465942383
 11
21
 21
108.9999465942383
  0
LINE
  5
3b5
100
AcDbEntity
  8
0
  6
CONTINUOUS
 62
     7
100
AcDbLine
 10
21
 20
119.9999465942383
 11
21
 21
108.9999465942383
  0
LINE
  5
3b6
100
AcDbEntity
  8
0
  6
CONTINUOUS
 62
     7
100
AcDbLine
 10
23
 20
127.9999465942383
 11
23
 21
96.99994659423828
  0
LINE
  5
3b7
100
AcDbEntity
  8
0
  6
CONTINUOUS
 62
     7
100
AcDbLine
 10
-23
 20
127.9999542236328
 11
23
 21
127.9999542236328
  0
LINE
  5
3b8
100
AcDbEntity
  8
0
  6
CONTINUOUS
 62
     7
100
AcDbLine
 10
22.00000162030042
 20
127.999957134694
 11
21.0000020450505
 21
133.9999542236328
  0
LINE
  5
3b9
100
AcDbEntity
  8
0
  6
CONTINUOUS
 62
     7
100
AcDbLine
 10
-20.99999431041796
 20
133.9999542236328
 11
21.0000020450505
 21
133.9999542236328
  0
LINE
  5
3ba
100
AcDbEntity
  8
0
  6
CONTINUOUS
 62
     7
100
AcDbLine
 10
13.00000996535191
 20
127.9999357240031
 11
12.00000682165329
 21
133.9999542236328
  0
LINE
  5
3bb
100
AcDbEntity
  8
0
  6
CONTINUOUS
 62
     7
100
AcDbLine
 10
-23
 20
125.9999465942383
 11
23
 21
125.9999465942383
  0
LINE
  5
3bc
100
AcDbEntity
  8
0
  6
CONTINUOUS
 62
     7
100
AcDbLine
 10
-23
 20
124.9999465942383
 11
23
 21
124.9999465942383
  0
LINE
  5
3bd
100
AcDbEntity
  8
0
  6
CONTINUOUS
 62
     7
100
AcDbLine
 10
-12.99999491417512
 20
127.9999332154735
 11
-11.9999913523882
 21
133.9999542236328
  0
LINE
  5
3be
100
AcDbEntity
  8
0
  6
CONTINUOUS
 62
     7
100
AcDbLine
 10
-21.99999660324165
 20
127.9999408292524
 11
-20.99999431041796
 21
133.9999542236328
  0
LINE
  5
3bf
100
AcDbEntity
  8
0
  6
CONTINUOUS
 62
     7
100
AcDbLine
 10
-20.5
 20
128.9999542236328
 11
-13.5
 21
128.9999542236328
  0
LINE
  5
3c0
100
AcDbEntity
  8
0
  6
CONTINUOUS
 62
     7
100
AcDbLine
 10
-20.5
 20
130.2999496459961
 11
-20.5
 21
127.9999542236328
  0
LINE
  5
3c1
100
AcDbEntity
  8
0
  6
CENTER
 62
     3
100
AcDbLine
 10
-17
 20
132.9719543457031
 11
-17
 21
127.9999465942383
  0
LINE
  5
3c2
100
AcDbEntity
  8
0
  6
CONTINUOUS
 62
     7
100
AcDbLine
 10
-13.5
 20
130.2999496459961
 11
-13.5
 21
127.9999542236328
  0
LINE
  5
3c3
100
AcDbEntity
  8
0
  6
CONTINUOUS
 62
     7
100
AcDbLine
 10
-23
 20
127.9999465942383
 11
-23
 21
96.99994659423828
  0
LINE
  5
3c4
100
AcDbEntity
  8
0
  6
CONTINUOUS
 62
     7
100
AcDbLine
 10
-23
 20
96.99994659423828
 11
23
 21
96.99994659423828
  0
LINE
  5
3c5
100
AcDbEntity
  8
0
  6
CONTINUOUS
 62
     7
100
AcDbLine
 10
20.5
 20
128.9999542236328
 11
13.5
 21
128.9999542236328
  0
LINE
  5
3c6
100
AcDbEntity
  8
0
  6
CONTINUOUS
 62
     7
100
AcDbLine
 10
20.5
 20
130.2999496459961
 11
20.5
 21
127.9999542236328
  0
LINE
  5
3c7
100
AcDbEntity
  8
0
  6
CENTER
 62
     3
100
AcDbLine
 10
17
 20
132.9719543457031
 11
17
 21
127.9999465942383
  0
LINE
  5
3c8
100
AcDbEntity
  8
0
  6
CONTINUOUS
 62
     7
100
AcDbLine
 10
13.5
 20
130.2999496459961
 11
13.5
 21
127.9999542236328
  0
LINE
  5
3c9
100
AcDbEntity
  8
0
  6
CONTINUOUS
 62
     7
100
AcDbLine
 10
-19.49997425079346
 20
134.3000411987305
 11
-19.49997425079346
 21
133.9999542236328
  0
LINE
  5
3ca
100
AcDbEntity
  8
0
  6
CENTER
 62
     3
100
AcDbLine
 10
-15.99997425079346
 20
136.9720458984375
 11
-15.99997425079346
 21
133.9999542236328
  0
LINE
  5
3cb
100
AcDbEntity
  8
0
  6
CONTINUOUS
 62
     7
100
AcDbLine
 10
-12.49997425079346
 20
134.3000411987305
 11
-12.49997425079346
 21
133.9999542236328
  0
LINE
  5
3cc
100
AcDbEntity
  8
0
  6
CENTER
 62
     3
100
AcDbLine
 10
15.99997425079346
 20
136.9720458984375
 11
15.99997425079346
 21
133.9999542236328
  0
LINE
  5
3cd
100
AcDbEntity
  8
0
  6
CONTINUOUS
 62
     7
100
AcDbLine
 10
19.49997425079346
 20
134.3000411987305
 11
19.49997425079346
 21
133.9999542236328
  0
LINE
  5
3ce
100
AcDbEntity
  8
0
  6
CONTINUOUS
 62
     7
100
AcDbLine
 10
12.49997425079346
 20
134.3000411987305
 11
12.49997425079346
 21
133.9999542236328
  0
LINE
  5
3cf
100
AcDbEntity
  8
0
  6
CONTINUOUS
 62
     7
100
AcDbLine
 10
35.50000762939453
 20
91.99998474121094
 11
35.50000762939453
 21
81.99998474121094
  0
LINE
  5
3d0
100
AcDbEntity
  8
0
  6
CONTINUOUS
 62
     7
100
AcDbLine
 10
22.5
 20
91.99998474121094
 11
35.50000762939453
 21
91.99998474121094
  0
LINE
  5
3d1
100
AcDbEntity
  8
0
  6
CENTER
 62
     3
100
AcDbLine
 10
28.99998283386231
 20
93.1041259765625
 11
28.99998283386231
 21
34.99999618530273
  0
LINE
  5
3d2
100
AcDbEntity
  8
0
  6
CONTINUOUS
 62
     7
100
AcDbLine
 10
22.5
 20
91.99998474121094
 11
22.5
 21
81.99998474121094
  0
LINE
  5
3d3
100
AcDbEntity
  8
0
  6
CONTINUOUS
 62
     7
100
AcDbLine
 10
22.5
 20
84.00001525878906
 11
35.50000762939453
 21
84.00001525878906
  0
LINE
  5
3d4
100
AcDbEntity
  8
0
  6
CONTINUOUS
 62
     7
100
AcDbLine
 10
18.99998283386231
 20
93.99998474121094
 11
18.99998283386231
 21
81.99998474121094
  0
LINE
  5
3d5
100
AcDbEntity
  8
0
  6
CONTINUOUS
 62
     7
100
AcDbLine
 10
36.99999237060547
 20
81.99998474121094
 11
18.99998283386231
 21
81.99998474121094
  0
ARC
  5
3d6
100
AcDbEntity
  8
0
  6
CONTINUOUS
 62
     7
100
AcDbCircle
 10
0
 20
-14.99998950958252
 40
45
100
AcDbArc
 50
48.1896851042214
 51
131.8103148957786
  0
ARC
  5
3d7
100
AcDbEntity
  8
0
  6
CONTINUOUS
 62
     7
100
AcDbCircle
 10
0
 20
15.0000114440918
 40
45
100
AcDbArc
 50
228.1896851042221
 51
311.8103148957793
  0
CIRCLE
  5
3d8
100
AcDbEntity
  8
0
  6
CONTINUOUS
 62
     7
100
AcDbCircle
 10
0
 20
1.089913530449849e-005
 40
24.35185432434082
  0
CIRCLE
  5
3d9
100
AcDbEntity
  8
0
  6
CONTINUOUS
 62
     7
100
AcDbCircle
 10
0
 20
1.089913530449849e-005
 40
22.87194633483887
  0
CIRCLE
  5
3da
100
AcDbEntity
  8
0
  6
CONTINUOUS
 62
     7
100
AcDbCircle
 10
25.50000953674316
 20
110.2499771118164
 40
0.2500001192092896
  0
ARC
  5
3db
100
AcDbEntity
  8
0
  6
CONTINUOUS
 62
     7
100
AcDbCircle
 10
25.75001335144043
 20
101.7499542236328
 40
0.2500001192092896
100
AcDbArc
 50
90.00003665542394
 51
270.008716004627
  0
CIRCLE
  5
3dc
100
AcDbEntity
  8
0
  6
CONTINUOUS
 62
     7
100
AcDbCircle
 10
0
 20
110.9999465942383
 40
9.299999237060547
  0
CIRCLE
  5
3dd
100
AcDbEntity
  8
0
  6
CONTINUOUS
 62
     7
100
AcDbCircle
 10
0
 20
110.9999465942383
 40
10.5
  0
CIRCLE
  5
3de
100
AcDbEntity
  8
0
  6
CONTINUOUS
 62
     7
100
AcDbCircle
 10
0
 20
110.9999465942383
 40
14
  0
ARC
  5
3df
100
AcDbEntity
  8
0
  6
CONTINUOUS
 62
     7
100
AcDbCircle
 10
-17
 20
126.2383923050336
 40
5.361552763325801
100
AcDbArc
 50
49.24726127646159
 51
130.7527387235384
  0
ARC
  5
3e0
100
AcDbEntity
  8
0
  6
CONTINUOUS
 62
     7
100
AcDbCircle
 10
17
 20
126.2383923050336
 40
5.361552763325801
100
AcDbArc
 50
49.24726127646161
 51
130.7527387235384
  0
ARC
  5
3e1
100
AcDbEntity
  8
0
  6
CONTINUOUS
 62
     7
100
AcDbCircle
 10
-15.99997425079346
 20
130.238483857768
 40
5.361552763325801
100
AcDbArc
 50
49.24726127646149
 51
130.7527387235385
  0
ARC
  5
3e2
100
AcDbEntity
  8
0
  6
CONTINUOUS
 62
     7
100
AcDbCircle
 10
15.99997425079346
 20
130.238483857768
 40
5.361552763325801
100
AcDbArc
 50
49.24726127646149
 51
130.7527387235385
  0
MTEXT
  5
3e3
100
AcDbEntity
  8
0
  6
CONTINUOUS
 62
     7
100
AcDbMText
 10
-21.38883052766323
 20
76.52113342285156
 40
0.5
 41
36
 71
     7
 72
     1
  1
{\W0.8426;ＢＮ－５ＢＰ２１－４０－Ｇ／Ｈ＊＊＊}
  0
INSERT
  5
3e4
100
AcDbEntity
  8
0
  6
CONTINUOUS
 62
     7
100
AcDbBlockReference
  2
KOZU0010
 10
0
 20
0
  0
INSERT
  5
3e5
100
AcDbEntity
  8
0
  6
CONTINUOUS
 62
     3
100
AcDbBlockReference
  2
KOZU0011
 10
0
 20
0
  0
ENDBLK
  8
0
  5
3e6
100
AcDbEntity
100
AcDbBlockEnd
  0
BLOCK
  8
0
  5
3e7
100
AcDbEntity
100
AcDbBlockBegin
  2
KOZU0005
 70
    64
 10
0
 20
0
  0
POINT
  5
3e8
100
AcDbEntity
  8
0
  6
CONTINUOUS
 62
     7
100
AcDbPoint
 10
0
 20
0
  0
LINE
  5
3e9
100
AcDbEntity
  8
0
  6
CENTER
 62
     3
100
AcDbLine
 10
68.280029296875
 20
-1.089913530449849e-005
 11
-68.07861328125
 21
-1.089913530449849e-005
  0
LINE
  5
3ea
100
AcDbEntity
  8
0
  6
CONTINUOUS
 62
     7
100
AcDbLine
 10
-32.5
 20
-35.00003814697266
 11
-32.5
 21
-56.00001907348633
  0
LINE
  5
3eb
100
AcDbEntity
  8
0
  6
CONTINUOUS
 62
     7
100
AcDbLine
 10
32.5
 20
-35.00003814697266
 11
32.5
 21
-56.00001907348633
  0
LINE
  5
3ec
100
AcDbEntity
  8
0
  6
CONTINUOUS
 62
     7
100
AcDbLine
 10
-65
 20
29.99997901916504
 11
-65
 21
-30.00002288818359
  0
LINE
  5
3ed
100
AcDbEntity
  8
0
  6
CONTINUOUS
 62
     7
100
AcDbLine
 10
65
 20
29.99997901916504
 11
65
 21
-30.00002288818359
  0
LINE
  5
3ee
100
AcDbEntity
  8
0
  6
CONTINUOUS
 62
     7
100
AcDbLine
 10
46.00001907348633
 20
34.99997711181641
 11
-46.00001907348633
 21
34.99997711181641
  0
LINE
  5
3ef
100
AcDbEntity
  8
0
  6
CONTINUOUS
 62
     7
100
AcDbLine
 10
-46.00001907348633
 20
34.99996185302734
 11
-46.00001907348633
 21
29.99997901916504
  0
LINE
  5
3f0
100
AcDbEntity
  8
0
  6
CONTINUOUS
 62
     7
100
AcDbLine
 10
46.00001907348633
 20
34.99996185302734
 11
46.00001907348633
 21
29.99997901916504
  0
LINE
  5
3f1
100
AcDbEntity
  8
0
  6
CONTINUOUS
 62
     7
100
AcDbLine
 10
65
 20
29.99997901916504
 11
40
 21
29.99997901916504
  0
LINE
  5
3f2
100
AcDbEntity
  8
0
  6
CONTINUOUS
 62
     7
100
AcDbLine
 10
-40
 20
29.99997901916504
 11
-65
 21
29.99997901916504
  0
LINE
  5
3f3
100
AcDbEntity
  8
0
  6
CONTINUOUS
 62
     7
100
AcDbLine
 10
65
 20
-30.00002288818359
 11
-65
 21
-30.00002288818359
  0
LINE
  5
3f4
100
AcDbEntity
  8
0
  6
CONTINUOUS
 62
     7
100
AcDbLine
 10
33.00000762939453
 20
-35.00002288818359
 11
-33.00005340576172
 21
-35.00002288818359
  0
LINE
  5
3f5
100
AcDbEntity
  8
0
  6
CONTINUOUS
 62
     7
100
AcDbLine
 10
34.00000049662362
 20
-30.00002288818359
 11
32.99999977397147
 21
-35.00002619751886
  0
LINE
  5
3f6
100
AcDbEntity
  8
0
  6
CONTINUOUS
 62
     7
100
AcDbLine
 10
-34.00004328929848
 20
-30.00002288818359
 11
-33.00004466139266
 21
-35.0000157237878
  0
LINE
  5
3f7
100
AcDbEntity
  8
0
  6
DASHED
 62
     7
100
AcDbLine
 10
-45.99278512028432
 20
22.20819599827114
 11
-65.00001346061055
 21
22.87194300677673
  0
LINE
  5
3f8
100
AcDbEntity
  8
0
  6
DASHED
 62
     7
100
AcDbLine
 10
-46.00000074505619
 20
-22.20848232663119
 11
-64.99999701293764
 21
-22.87197678561379
  0
LINE
  5
3f9
100
AcDbEntity
  8
0
  6
DASHED
 62
     7
100
AcDbLine
 10
-45.49178912176841
 20
23.67060053233989
 11
-64.94835904703454
 21
24.35003889402232
  0
LINE
  5
3fa
100
AcDbEntity
  8
0
  6
DASHED
 62
     7
100
AcDbLine
 10
-45.49181381141747
 20
-23.67065864985878
 11
-64.94837992431015
 21
-24.3500968784102
  0
LINE
  5
3fb
100
AcDbEntity
  8
0
  6
DASHED
 62
     7
100
AcDbLine
 10
46.0000307780853
 20
-22.20849673498635
 11
65.00002704596676
 21
-22.87199119396895
  0
LINE
  5
3fc
100
AcDbEntity
  8
0
  6
DASHED
 62
     7
100
AcDbLine
 10
46.00000608843624
 20
22.20843861746746
 11
65.00000616869116
 21
22.87193320958107
  0
LINE
  5
3fd
100
AcDbEntity
  8
0
  6
DASHED
 62
     7
100
AcDbLine
 10
45.49179929414419
 20
-23.67063714928074
 11
64.9483730317838
 21
-24.35007564409418
  0
LINE
  5
3fe
100
AcDbEntity
  8
0
  6
DASHED
 62
     7
100
AcDbLine
 10
45.49181915479752
 20
23.67061494069505
 11
64.94838908006366
 21
24.35005330237748
  0
LINE
  5
3ff
100
AcDbEntity
  8
0
  6
CENTER
 62
     3
100
AcDbLine
 10
0
 20
177.9084320068359
 11
0
 21
-60.49767684936523
  0
LINE
  5
400
100
AcDbEntity
  8
0
  6
CONTINUOUS
 62
     7
100
AcDbLine
 10
-40
 20
34.99997711181641
 11
-40
 21
-30.00002288818359
  0
LINE
  5
401
100
AcDbEntity
  8
0
  6
CONTINUOUS
 62
     7
100
AcDbLine
 10
40
 20
34.99997711181641
 11
40
 21
-30.00002288818359
  0
LINE
  5
402
100
AcDbEntity
  8
0
  6
CONTINUOUS
 62
     7
100
AcDbLine
 10
65
 20
-18.54101943969727
 11
40
 21
-18.54101943969727
  0
LINE
  5
403
100
AcDbEntity
  8
0
  6
CONTINUOUS
 62
     7
100
AcDbLine
 10
65
 20
18.54101943969727
 11
40
 21
18.54101943969727
  0
LINE
  5
404
100
AcDbEntity
  8
0
  6
CONTINUOUS
 62
     7
100
AcDbLine
 10
-40
 20
18.54101943969727
 11
-65
 21
18.54101943969727
  0
LINE
  5
405
100
AcDbEntity
  8
0
  6
CONTINUOUS
 62
     7
100
AcDbLine
 10
-40
 20
-18.54101943969727
 11
-65
 21
-18.54101943969727
  0
LINE
  5
406
100
AcDbEntity
  8
0
  6
CONTINUOUS
 62
     7
100
AcDbLine
 10
-36.99999237060547
 20
93.99996185302734
 11
36.99999237060547
 21
93.99996185302734
  0
LINE
  5
407
100
AcDbEntity
  8
0
  6
CONTINUOUS
 62
     7
100
AcDbLine
 10
26.0000171661377
 20
131.9999542236328
 11
26.0000171661377
 21
93.99996185302734
  0
LINE
  5
408
100
AcDbEntity
  8
0
  6
CONTINUOUS
 62
     7
100
AcDbLine
 10
27.00006672442028
 20
98.74994539022524
 11
26.00006673336097
 21
97.99994537830432
  0
LINE
  5
409
100
AcDbEntity
  8
0
  6
CONTINUOUS
 62
     7
100
AcDbLine
 10
27.00007820129395
 20
117.2499618530273
 11
27.00007820129395
 21
98.74993896484375
  0
LINE
  5
40a
100
AcDbEntity
  8
0
  6
CONTINUOUS
 62
     7
100
AcDbLine
 10
26.00014331340739
 20
117.9999600172026
 11
27.0001616150134
 21
117.2499462723713
  0
LINE
  5
40b
100
AcDbEntity
  8
0
  6
DASHED
 62
     7
100
AcDbLine
 10
19.70008277893066
 20
114.5055294787215
 11
26.97020638363087
 21
114.7594077774237
  0
LINE
  5
40c
100
AcDbEntity
  8
0
  6
DASHED
 62
     7
100
AcDbLine
 10
19.70008277893066
 20
113.6490201676119
 11
27.00007991687307
 21
113.9039416730335
  0
LINE
  5
40d
100
AcDbEntity
  8
0
  6
CENTER
 62
     3
100
AcDbLine
 10
28.35000038146973
 20
107.9999542236328
 11
19.70008277893066
 21
107.9999542236328
  0
LINE
  5
40e
100
AcDbEntity
  8
0
  6
DASHED
 62
     7
100
AcDbLine
 10
19.70008277893066
 20
101.4944066313
 11
26.97024319023447
 21
101.240527047283
  0
LINE
  5
40f
100
AcDbEntity
  8
0
  6
DASHED
 62
     7
100
AcDbLine
 10
19.70008277893066
 20
102.3509388445445
 11
27.00007367996799
 21
102.0960175569204
  0
LINE
  5
410
100
AcDbEntity
  8
0
  6
CONTINUOUS
 62
     7
100
AcDbLine
 10
18.70008277893066
 20
117.6999435424805
 11
18.70008277893066
 21
99.29994201660156
  0
LINE
  5
411
100
AcDbEntity
  8
0
  6
CONTINUOUS
 62
     7
100
AcDbLine
 10
-18.699951171875
 20
117.6999588012695
 11
18.70008277893066
 21
117.6999588012695
  0
LINE
  5
412
100
AcDbEntity
  8
0
  6
CONTINUOUS
 62
     7
100
AcDbLine
 10
-18.699951171875
 20
117.6999435424805
 11
-18.699951171875
 21
99.29994201660156
  0
LINE
  5
413
100
AcDbEntity
  8
0
  6
CONTINUOUS
 62
     7
100
AcDbLine
 10
-18.699951171875
 20
99.29994201660156
 11
18.70008277893066
 21
99.29994201660156
  0
LINE
  5
414
100
AcDbEntity
  8
0
  6
CENTER
 62
     3
100
AcDbLine
 10
-6.000017642974854
 20
105.9999465942383
 11
6.000017642974854
 21
105.9999465942383
  0
LINE
  5
415
100
AcDbEntity
  8
0
  6
CONTINUOUS
 62
     7
100
AcDbLine
 10
6.000017642974854
 20
105.9999465942383
 11
6.000017642974854
 21
99.29994201660156
  0
LINE
  5
416
100
AcDbEntity
  8
0
  6
CONTINUOUS
 62
     7
100
AcDbLine
 10
-6.000017642974854
 20
105.9999465942383
 11
-6.000017642974854
 21
99.29994201660156
  0
LINE
  5
417
100
AcDbEntity
  8
0
  6
CONTINUOUS
 62
     7
100
AcDbLine
 10
-25.99997520446777
 20
131.9999542236328
 11
-25.99997520446777
 21
93.99996185302734
  0
LINE
  5
418
100
AcDbEntity
  8
0
  6
CONTINUOUS
 62
     7
100
AcDbLine
 10
-28.99998283386231
 20
97.49993896484375
 11
-25.99988746643066
 21
97.49993896484375
  0
LINE
  5
419
100
AcDbEntity
  8
0
  6
CONTINUOUS
 62
     7
100
AcDbLine
 10
-28.99998283386231
 20
124.4999465942383
 11
-28.99998283386231
 21
97.49993896484375
  0
LINE
  5
41a
100
AcDbEntity
  8
0
  6
CONTINUOUS
 62
     7
100
AcDbLine
 10
-25.99997520446777
 20
124.9999389648438
 11
26.0000171661377
 21
124.9999389648438
  0
LINE
  5
41b
100
AcDbEntity
  8
0
  6
CENTER
 62
     3
100
AcDbLine
 10
-21.99999237060547
 20
137.2229461669922
 11
-21.99999237060547
 21
131.9999542236328
  0
LINE
  5
41c
100
AcDbEntity
  8
0
  6
CONTINUOUS
 62
     7
100
AcDbLine
 10
-28.99998283386231
 20
124.4999465942383
 11
-25.99988746643066
 21
124.4999465942383
  0
LINE
  5
41d
100
AcDbEntity
  8
0
  6
CONTINUOUS
 62
     7
100
AcDbLine
 10
-25.99997415951643
 20
131.9999601370136
 11
-24.9999904097066
 21
175.9999694824219
  0
LINE
  5
41e
100
AcDbEntity
  8
0
  6
CONTINUOUS
 62
     7
100
AcDbLine
 10
-25.99997520446777
 20
131.9999542236328
 11
-17.49921032616561
 21
131.9999542236328
  0
LINE
  5
41f
100
AcDbEntity
  8
0
  6
CONTINUOUS
 62
     7
100
AcDbLine
 10
-16.5005124233641
 20
175.9999694824219
 11
-17.4992103261656
 21
131.9999542236328
  0
LINE
  5
420
100
AcDbEntity
  8
0
  6
CONTINUOUS
 62
     7
100
AcDbLine
 10
-18.49997329711914
 20
132.9999389648438
 11
-25.50000953674316
 21
132.9999389648438
  0
LINE
  5
421
100
AcDbEntity
  8
0
  6
CONTINUOUS
 62
     7
100
AcDbLine
 10
-18.49997329711914
 20
134.2999496459961
 11
-18.49997329711914
 21
131.9999542236328
  0
LINE
  5
422
100
AcDbEntity
  8
0
  6
CONTINUOUS
 62
     7
100
AcDbLine
 10
-25.50000953674316
 20
134.2999496459961
 11
-25.50000953674316
 21
131.9999542236328
  0
LINE
  5
423
100
AcDbEntity
  8
0
  6
CONTINUOUS
 62
     7
100
AcDbLine
 10
26.0000171661377
 20
131.9999542236328
 11
17.49937821607571
 21
131.9999542236328
  0
LINE
  5
424
100
AcDbEntity
  8
0
  6
CONTINUOUS
 62
     7
100
AcDbLine
 10
25.9999702787814
 20
131.9999726314382
 11
24.99996771216356
 21
175.9999694824219
  0
LINE
  5
425
100
AcDbEntity
  8
0
  6
CONTINUOUS
 62
     7
100
AcDbLine
 10
16.50068031327421
 20
175.9999694824219
 11
17.49937821607571
 21
131.9999542236328
  0
LINE
  5
426
100
AcDbEntity
  8
0
  6
CENTER
 62
     3
100
AcDbLine
 10
3.053763389587402
 20
171.5
 11
-3.078395366668701
 21
171.5
  0
LINE
  5
427
100
AcDbEntity
  8
0
  6
CONTINUOUS
 62
     7
100
AcDbLine
 10
24.99996771216356
 20
175.9999694824219
 11
-24.9999904097066
 21
175.9999694824219
  0
LINE
  5
428
100
AcDbEntity
  8
0
  6
CONTINUOUS
 62
     7
100
AcDbLine
 10
32.5
 20
-56.00001907348633
 11
-32.5
 21
-56.00001907348633
  0
LINE
  5
429
100
AcDbEntity
  8
0
  6
CONTINUOUS
 62
     7
100
AcDbLine
 10
33.99998474121094
 20
68.99996185302734
 11
31.99999237060547
 21
68.99996185302734
  0
LINE
  5
42a
100
AcDbEntity
  8
0
  6
CONTINUOUS
 62
     7
100
AcDbLine
 10
-33.99998474121094
 20
68.99996185302734
 11
-33.99998474121094
 21
34.99996185302734
  0
LINE
  5
42b
100
AcDbEntity
  8
0
  6
CONTINUOUS
 62
     7
100
AcDbLine
 10
33.99998474121094
 20
68.99996185302734
 11
33.99998474121094
 21
34.99996185302734
  0
LINE
  5
42c
100
AcDbEntity
  8
0
  6
CONTINUOUS
 62
     7
100
AcDbLine
 10
-31.99999237060547
 20
68.99996185302734
 11
-33.99998474121094
 21
68.99996185302734
  0
LINE
  5
42d
100
AcDbEntity
  8
0
  6
CONTINUOUS
 62
     7
100
AcDbLine
 10
-36.99999237060547
 20
93.99996185302734
 11
-36.99999237060547
 21
68.99996185302734
  0
LINE
  5
42e
100
AcDbEntity
  8
0
  6
CONTINUOUS
 62
     7
100
AcDbLine
 10
36.99999237060547
 20
93.99996185302734
 11
36.99999237060547
 21
68.99996185302734
  0
LINE
  5
42f
100
AcDbEntity
  8
0
  6
CONTINUOUS
 62
     7
100
AcDbLine
 10
36.99999237060547
 20
68.99996185302734
 11
-36.99999237060547
 21
68.99996185302734
  0
LINE
  5
430
100
AcDbEntity
  8
0
  6
CONTINUOUS
 62
     7
100
AcDbLine
 10
25
 20
68.99995422363281
 11
25
 21
34.99995803833008
  0
LINE
  5
431
100
AcDbEntity
  8
0
  6
CONTINUOUS
 62
     7
100
AcDbLine
 10
33.00000762939453
 20
68.99995422363281
 11
33.00000762939453
 21
34.99995803833008
  0
LINE
  5
432
100
AcDbEntity
  8
0
  6
CONTINUOUS
 62
     7
100
AcDbLine
 10
-32.99996566772461
 20
68.99995422363281
 11
-32.99996566772461
 21
34.99995803833008
  0
LINE
  5
433
100
AcDbEntity
  8
0
  6
CONTINUOUS
 62
     7
100
AcDbLine
 10
-25
 20
68.99995422363281
 11
-25
 21
34.99995803833008
  0
LINE
  5
434
100
AcDbEntity
  8
0
  6
CONTINUOUS
 62
     7
100
AcDbLine
 10
-35.49996566772461
 20
91.99996185302734
 11
-22.49995613098145
 21
91.99996185302734
  0
LINE
  5
435
100
AcDbEntity
  8
0
  6
CONTINUOUS
 62
     7
100
AcDbLine
 10
-35.49996566772461
 20
83.99999237060547
 11
-22.49995613098145
 21
83.99999237060547
  0
LINE
  5
436
100
AcDbEntity
  8
0
  6
CONTINUOUS
 62
     7
100
AcDbLine
 10
-22.49995613098145
 20
91.99996185302734
 11
-22.49995613098145
 21
81.99996185302734
  0
LINE
  5
437
100
AcDbEntity
  8
0
  6
CENTER
 62
     3
100
AcDbLine
 10
-28.99998283386231
 20
93.15782165527344
 11
-28.99998283386231
 21
34.99997711181641
  0
LINE
  5
438
100
AcDbEntity
  8
0
  6
CONTINUOUS
 62
     7
100
AcDbLine
 10
-35.49996566772461
 20
91.99996185302734
 11
-35.49996566772461
 21
81.99996185302734
  0
LINE
  5
439
100
AcDbEntity
  8
0
  6
CONTINUOUS
 62
     7
100
AcDbLine
 10
-18.99998283386231
 20
93.99996185302734
 11
-18.99998283386231
 21
81.99996185302734
  0
LINE
  5
43a
100
AcDbEntity
  8
0
  6
CONTINUOUS
 62
     7
100
AcDbLine
 10
-18.99998283386231
 20
81.99996185302734
 11
-36.99999237060547
 21
81.99996185302734
  0
LINE
  5
43b
100
AcDbEntity
  8
0
  6
CONTINUOUS
 62
     7
100
AcDbLine
 10
-0.2999986410140991
 20
3.599989414215088
 11
-0.2999986410140991
 21
1.799989223480225
  0
LINE
  5
43c
100
AcDbEntity
  8
0
  6
CONTINUOUS
 62
     7
100
AcDbLine
 10
8.70000171661377
 20
-1.089913530449849e-005
 11
-7.499999046325684
 21
-1.089913530449849e-005
  0
LINE
  5
43d
100
AcDbEntity
  8
0
  6
CONTINUOUS
 62
     7
100
AcDbLine
 10
10.50000190734863
 20
1.799989223480225
 11
-0.2999986410140991
 21
1.799989223480225
  0
LINE
  5
43e
100
AcDbEntity
  8
0
  6
CONTINUOUS
 62
     7
100
AcDbLine
 10
-0.299999290023661
 20
3.599989347803331
 11
-7.4999988839402
 21
-1.044915493908505e-005
  0
LINE
  5
43f
100
AcDbEntity
  8
0
  6
CONTINUOUS
 62
     7
100
AcDbLine
 10
10.50000255984531
 20
1.799989398764705
 11
8.700002034312593
 21
-1.112676800740786e-005
  0
LINE
  5
440
100
AcDbEntity
  8
0
  6
CENTER
 62
     3
100
AcDbLine
 10
-103.1492156982422
 20
110.9999465942383
 11
-25.99985885620117
 21
110.9999465942383
  0
LINE
  5
441
100
AcDbEntity
  8
0
  6
CONTINUOUS
 62
     7
100
AcDbLine
 10
-31.99997520446777
 20
121.4999465942383
 11
-28.99997901916504
 21
121.4999465942383
  0
LINE
  5
442
100
AcDbEntity
  8
0
  6
CONTINUOUS
 62
     7
100
AcDbLine
 10
-28.99997591704408
 20
120.2999400683551
 11
-31.07845141274935
 21
121.4999484768426
  0
LINE
  5
443
100
AcDbEntity
  8
0
  6
CONTINUOUS
 62
     7
100
AcDbLine
 10
-31.99997520446777
 20
127.9999465942383
 11
-31.99997520446777
 21
96.99994659423828
  0
LINE
  5
444
100
AcDbEntity
  8
0
  6
CONTINUOUS
 62
     7
100
AcDbLine
 10
-99.99997711181641
 20
124.9999465942383
 11
-31.99997520446777
 21
124.9999465942383
  0
LINE
  5
445
100
AcDbEntity
  8
0
  6
CONTINUOUS
 62
     7
100
AcDbLine
 10
-77.99997711181641
 20
125.9999465942383
 11
-31.99997520446777
 21
125.9999465942383
  0
LINE
  5
446
100
AcDbEntity
  8
0
  6
CONTINUOUS
 62
     7
100
AcDbLine
 10
-77.99997711181641
 20
127.9999465942383
 11
-31.99997520446777
 21
127.9999465942383
  0
LINE
  5
447
100
AcDbEntity
  8
0
  6
CONTINUOUS
 62
     7
100
AcDbLine
 10
-32.99998110794913
 20
127.9999616128112
 11
-33.99997739371446
 21
133.9999389648438
  0
LINE
  5
448
100
AcDbEntity
  8
0
  6
CONTINUOUS
 62
     7
100
AcDbLine
 10
-75.99996723349744
 20
133.9999389648438
 11
-33.99997739371447
 21
133.9999389648438
  0
LINE
  5
449
100
AcDbEntity
  8
0
  6
CONTINUOUS
 62
     7
100
AcDbLine
 10
-41.99996900010343
 20
127.9999408292528
 11
-42.9999687497954
 21
133.9999389648438
  0
LINE
  5
44a
100
AcDbEntity
  8
0
  6
CENTER
 62
     3
100
AcDbLine
 10
-54.99997711181641
 20
136.1227722167969
 11
-54.99997711181641
 21
95.47077178955078
  0
LINE
  5
44b
100
AcDbEntity
  8
0
  6
CONTINUOUS
 62
     7
100
AcDbLine
 10
-28.99997794939471
 20
101.6999422077852
 11
-31.07843362335163
 21
100.4999452433897
  0
LINE
  5
44c
100
AcDbEntity
  8
0
  6
CONTINUOUS
 62
     7
100
AcDbLine
 10
-31.99997520446777
 20
100.4999465942383
 11
-28.99997901916504
 21
100.4999465942383
  0
LINE
  5
44d
100
AcDbEntity
  8
0
  6
CONTINUOUS
 62
     7
100
AcDbLine
 10
-99.99997711181641
 20
96.99994659423828
 11
-31.99997520446777
 21
96.99994659423828
  0
LINE
  5
44e
100
AcDbEntity
  8
0
  6
CONTINUOUS
 62
     7
100
AcDbLine
 10
-40.99997711181641
 20
119.9999465942383
 11
-40.99997711181641
 21
96.99994659423828
  0
LINE
  5
44f
100
AcDbEntity
  8
0
  6
CONTINUOUS
 62
     7
100
AcDbLine
 10
-68.99997711181641
 20
119.9999465942383
 11
-68.99997711181641
 21
96.99994659423828
  0
LINE
  5
450
100
AcDbEntity
  8
0
  6
CONTINUOUS
 62
     7
100
AcDbLine
 10
-77.99997711181641
 20
127.9999465942383
 11
-77.99997711181641
 21
96.99994659423828
  0
LINE
  5
451
100
AcDbEntity
  8
0
  6
CONTINUOUS
 62
     7
100
AcDbLine
 10
-99.99997711181641
 20
124.9999465942383
 11
-99.99997711181641
 21
96.99994659423828
  0
LINE
  5
452
100
AcDbEntity
  8
0
  6
DASHED
 62
     7
100
AcDbLine
 10
-99.99997711181641
 20
121.4999465942383
 11
-84.99997711181641
 21
121.4999465942383
  0
LINE
  5
453
100
AcDbEntity
  8
0
  6
DASHED
 62
     7
100
AcDbLine
 10
-99.99997711181641
 20
120.2999420166016
 11
-84.99997711181641
 21
120.2999420166016
  0
LINE
  5
454
100
AcDbEntity
  8
0
  6
DASHED
 62
     7
100
AcDbLine
 10
-99.99997711181641
 20
101.6999435424805
 11
-84.99997711181641
 21
101.6999435424805
  0
LINE
  5
455
100
AcDbEntity
  8
0
  6
DASHED
 62
     7
100
AcDbLine
 10
-99.99997711181641
 20
100.4999465942383
 11
-84.99997711181641
 21
100.4999465942383
  0
LINE
  5
456
100
AcDbEntity
  8
0
  6
CONTINUOUS
 62
     7
100
AcDbLine
 10
-75.99997711181641
 20
108.9999465942383
 11
-68.99997711181641
 21
108.9999465942383
  0
LINE
  5
457
100
AcDbEntity
  8
0
  6
CONTINUOUS
 62
     7
100
AcDbLine
 10
-75.99997711181641
 20
119.9999465942383
 11
-75.99997711181641
 21
108.9999465942383
  0
LINE
  5
458
100
AcDbEntity
  8
0
  6
CONTINUOUS
 62
     7
100
AcDbLine
 10
-77.99997711181641
 20
119.9999465942383
 11
-31.99997520446777
 21
119.9999465942383
  0
LINE
  5
459
100
AcDbEntity
  8
0
  6
CONTINUOUS
 62
     7
100
AcDbLine
 10
-33.99997711181641
 20
119.9999465942383
 11
-33.99997711181641
 21
108.9999465942383
  0
LINE
  5
45a
100
AcDbEntity
  8
0
  6
CONTINUOUS
 62
     7
100
AcDbLine
 10
-40.99997711181641
 20
108.9999465942383
 11
-33.99997711181641
 21
108.9999465942383
  0
LINE
  5
45b
100
AcDbEntity
  8
0
  6
CONTINUOUS
 62
     7
100
AcDbLine
 10
-67.99996259124765
 20
127.9999494327242
 11
-66.99996427546768
 21
133.9999389648438
  0
LINE
  5
45c
100
AcDbEntity
  8
0
  6
CONTINUOUS
 62
     7
100
AcDbLine
 10
-76.99996553457899
 20
127.9999495209147
 11
-75.99996723349744
 21
133.9999389648438
  0
LINE
  5
45d
100
AcDbEntity
  8
0
  6
CONTINUOUS
 62
     7
100
AcDbLine
 10
25.50000953674316
 20
134.2999496459961
 11
25.50000953674316
 21
131.9999542236328
  0
LINE
  5
45e
100
AcDbEntity
  8
0
  6
CONTINUOUS
 62
     7
100
AcDbLine
 10
18.49997329711914
 20
134.2999496459961
 11
18.49997329711914
 21
131.9999542236328
  0
LINE
  5
45f
100
AcDbEntity
  8
0
  6
CONTINUOUS
 62
     7
100
AcDbLine
 10
18.49997329711914
 20
132.9999389648438
 11
25.50000953674316
 21
132.9999389648438
  0
LINE
  5
460
100
AcDbEntity
  8
0
  6
CENTER
 62
     3
100
AcDbLine
 10
21.99999237060547
 20
137.2229461669922
 11
21.99999237060547
 21
131.9999542236328
  0
LINE
  5
461
100
AcDbEntity
  8
0
  6
CONTINUOUS
 62
     7
100
AcDbLine
 10
18.99998283386231
 20
81.99996185302734
 11
36.99999237060547
 21
81.99996185302734
  0
LINE
  5
462
100
AcDbEntity
  8
0
  6
CONTINUOUS
 62
     7
100
AcDbLine
 10
18.99998283386231
 20
93.99996185302734
 11
18.99998283386231
 21
81.99996185302734
  0
LINE
  5
463
100
AcDbEntity
  8
0
  6
CONTINUOUS
 62
     7
100
AcDbLine
 10
35.49996566772461
 20
91.99996185302734
 11
35.49996566772461
 21
81.99996185302734
  0
LINE
  5
464
100
AcDbEntity
  8
0
  6
CENTER
 62
     3
100
AcDbLine
 10
28.99998283386231
 20
93.15782165527344
 11
28.99998283386231
 21
34.99997711181641
  0
LINE
  5
465
100
AcDbEntity
  8
0
  6
CONTINUOUS
 62
     7
100
AcDbLine
 10
22.49995613098145
 20
91.99996185302734
 11
22.49995613098145
 21
81.99996185302734
  0
LINE
  5
466
100
AcDbEntity
  8
0
  6
CONTINUOUS
 62
     7
100
AcDbLine
 10
35.49996566772461
 20
83.99999237060547
 11
22.49995613098145
 21
83.99999237060547
  0
LINE
  5
467
100
AcDbEntity
  8
0
  6
CONTINUOUS
 62
     7
100
AcDbLine
 10
35.49996566772461
 20
91.99996185302734
 11
22.49995613098145
 21
91.99996185302734
  0
LINE
  5
468
100
AcDbEntity
  8
0
  6
CONTINUOUS
 62
     7
100
AcDbLine
 10
-41.4999942779541
 20
130.2999420166016
 11
-41.4999942779541
 21
127.9999465942383
  0
LINE
  5
469
100
AcDbEntity
  8
0
  6
CONTINUOUS
 62
     7
100
AcDbLine
 10
-34.49995803833008
 20
130.2999420166016
 11
-34.49995803833008
 21
127.9999465942383
  0
LINE
  5
46a
100
AcDbEntity
  8
0
  6
CONTINUOUS
 62
     7
100
AcDbLine
 10
-34.49995803833008
 20
128.9999313354492
 11
-41.4999942779541
 21
128.9999313354492
  0
LINE
  5
46b
100
AcDbEntity
  8
0
  6
CENTER
 62
     3
100
AcDbLine
 10
-37.99997711181641
 20
133.2229385375977
 11
-37.99997711181641
 21
127.9999465942383
  0
LINE
  5
46c
100
AcDbEntity
  8
0
  6
CONTINUOUS
 62
     7
100
AcDbLine
 10
-68.49995803833008
 20
130.2999420166016
 11
-68.49995803833008
 21
127.9999465942383
  0
LINE
  5
46d
100
AcDbEntity
  8
0
  6
CONTINUOUS
 62
     7
100
AcDbLine
 10
-68.49995803833008
 20
128.9999313354492
 11
-75.4999942779541
 21
128.9999313354492
  0
LINE
  5
46e
100
AcDbEntity
  8
0
  6
CENTER
 62
     3
100
AcDbLine
 10
-71.99997711181641
 20
133.2229385375977
 11
-71.99997711181641
 21
127.9999465942383
  0
LINE
  5
46f
100
AcDbEntity
  8
0
  6
CONTINUOUS
 62
     7
100
AcDbLine
 10
-75.4999942779541
 20
130.2999420166016
 11
-75.4999942779541
 21
127.9999465942383
  0
CIRCLE
  5
470
100
AcDbEntity
  8
0
  6
CONTINUOUS
 62
     7
100
AcDbCircle
 10
0
 20
105.9999465942383
 40
5
  0
ARC
  5
471
100
AcDbEntity
  8
0
  6
CONTINUOUS
 62
     7
100
AcDbCircle
 10
0
 20
105.9999465942383
 40
6
100
AcDbArc
 50
0
 51
179.9999640278213
  0
CIRCLE
  5
472
100
AcDbEntity
  8
0
  6
CONTINUOUS
 62
     7
100
AcDbCircle
 10
0
 20
171.5
 40
1
  0
ARC
  5
473
100
AcDbEntity
  8
0
  6
CONTINUOUS
 62
     7
100
AcDbCircle
 10
-21.99999141693115
 20
130.2384064521584
 40
5.361553874990164
100
AcDbArc
 50
49.24701589979251
 51
130.7529841002075
  0
ARC
  5
474
100
AcDbEntity
  8
0
  6
CONTINUOUS
 62
     7
100
AcDbCircle
 10
21.99999141693115
 20
130.2384064521584
 40
5.361553874990164
100
AcDbArc
 50
49.24701589979254
 51
130.7529841002075
  0
ARC
  5
475
100
AcDbEntity
  8
0
  6
CONTINUOUS
 62
     7
100
AcDbCircle
 10
-37.99997615814209
 20
126.2383988227638
 40
5.361553874990164
100
AcDbArc
 50
49.24701589979251
 51
130.7529841002075
  0
ARC
  5
476
100
AcDbEntity
  8
0
  6
CONTINUOUS
 62
     7
100
AcDbCircle
 10
-71.99997615814209
 20
126.2383988227638
 40
5.361553874990164
100
AcDbArc
 50
49.24701589979251
 51
130.7529841002075
  0
MTEXT
  5
477
100
AcDbEntity
  8
0
  6
CONTINUOUS
 62
     7
100
AcDbMText
 10
-13.21954570710659
 20
167.2827301025391
 40
0.5
 41
36
 71
     7
 72
     1
  1
{\W0.8426;ＢＮ－５ＢＰ２１－４０－Ｇ／Ｈ＊＊＊}
  0
INSERT
  5
478
100
AcDbEntity
  8
0
  6
CONTINUOUS
 62
     7
100
AcDbBlockReference
  2
KOZU0012
 10
0
 20
0
  0
ENDBLK
  8
0
  5
479
100
AcDbEntity
100
AcDbBlockEnd
  0
BLOCK
  8
0
  5
47a
100
AcDbEntity
100
AcDbBlockBegin
  2
KOZU0006
 70
    64
 10
0
 20
0
  0
POINT
  5
47b
100
AcDbEntity
  8
0
  6
CONTINUOUS
 62
     7
100
AcDbPoint
 10
0
 20
0
  0
LINE
  5
47c
100
AcDbEntity
  8
0
  6
CENTER
 62
     3
100
AcDbLine
 10
-70.31453704833984
 20
0
 11
103.4249954223633
 21
0
  0
LINE
  5
47d
100
AcDbEntity
  8
0
  6
CENTER
 62
     3
100
AcDbLine
 10
0
 20
45.14999771118164
 11
0
 21
-45.14999771118164
  0
LINE
  5
47e
100
AcDbEntity
  8
0
  6
CONTINUOUS
 62
     7
100
AcDbLine
 10
-32.00000381469727
 20
40
 11
32.00000381469727
 21
40
  0
LINE
  5
47f
100
AcDbEntity
  8
0
  6
CONTINUOUS
 62
     7
100
AcDbLine
 10
-32.00000381469727
 20
-40
 11
32.00000381469727
 21
-40
  0
LINE
  5
480
100
AcDbEntity
  8
0
  6
CONTINUOUS
 62
     7
100
AcDbLine
 10
40
 20
32.00000381469727
 11
40
 21
-31.99999237060547
  0
LINE
  5
481
100
AcDbEntity
  8
0
  6
CONTINUOUS
 62
     7
100
AcDbLine
 10
-40
 20
32.00000381469727
 11
-40
 21
-31.99999237060547
  0
LINE
  5
482
100
AcDbEntity
  8
0
  6
CONTINUOUS
 62
     7
100
AcDbLine
 10
-65
 20
-30
 11
-40
 21
-30
  0
LINE
  5
483
100
AcDbEntity
  8
0
  6
CONTINUOUS
 62
     7
100
AcDbLine
 10
-65
 20
30
 11
-65
 21
-30
  0
LINE
  5
484
100
AcDbEntity
  8
0
  6
CONTINUOUS
 62
     7
100
AcDbLine
 10
-65
 20
30
 11
-40
 21
30
  0
LINE
  5
485
100
AcDbEntity
  8
0
  6
CONTINUOUS
 62
     7
100
AcDbLine
 10
40
 20
30
 11
65
 21
30
  0
LINE
  5
486
100
AcDbEntity
  8
0
  6
CONTINUOUS
 62
     7
100
AcDbLine
 10
65
 20
30
 11
65
 21
-30
  0
LINE
  5
487
100
AcDbEntity
  8
0
  6
CONTINUOUS
 62
     7
100
AcDbLine
 10
40
 20
-30
 11
65
 21
-30
  0
LINE
  5
488
100
AcDbEntity
  8
0
  6
CONTINUOUS
 62
     7
100
AcDbLine
 10
72
 20
23
 11
65
 21
23
  0
LINE
  5
489
100
AcDbEntity
  8
0
  6
CONTINUOUS
 62
     7
100
AcDbLine
 10
69
 20
23
 11
69
 21
14
  0
LINE
  5
48a
100
AcDbEntity
  8
0
  6
CONTINUOUS
 62
     7
100
AcDbLine
 10
72
 20
21
 11
69
 21
21
  0
LINE
  5
48b
100
AcDbEntity
  8
0
  6
CONTINUOUS
 62
     7
100
AcDbLine
 10
76
 20
17
 11
76
 21
14
  0
LINE
  5
48c
100
AcDbEntity
  8
0
  6
CONTINUOUS
 62
     7
100
AcDbLine
 10
78
 20
17
 11
78
 21
-17
  0
LINE
  5
48d
100
AcDbEntity
  8
0
  6
CONTINUOUS
 62
     7
100
AcDbLine
 10
78
 20
14
 11
69
 21
14
  0
LINE
  5
48e
100
AcDbEntity
  8
0
  6
CONTINUOUS
 62
     7
100
AcDbLine
 10
72
 20
-23
 11
65
 21
-23
  0
LINE
  5
48f
100
AcDbEntity
  8
0
  6
CONTINUOUS
 62
     7
100
AcDbLine
 10
72
 20
-21
 11
69
 21
-21
  0
LINE
  5
490
100
AcDbEntity
  8
0
  6
CONTINUOUS
 62
     7
100
AcDbLine
 10
69
 20
-14
 11
69
 21
-23
  0
LINE
  5
491
100
AcDbEntity
  8
0
  6
CONTINUOUS
 62
     7
100
AcDbLine
 10
78
 20
-14
 11
69
 21
-14
  0
LINE
  5
492
100
AcDbEntity
  8
0
  6
CONTINUOUS
 62
     7
100
AcDbLine
 10
76
 20
-14
 11
76
 21
-17
  0
LINE
  5
493
100
AcDbEntity
  8
0
  6
CONTINUOUS
 62
     7
100
AcDbLine
 10
100
 20
-14
 11
78
 21
-14
  0
LINE
  5
494
100
AcDbEntity
  8
0
  6
CONTINUOUS
 62
     7
100
AcDbLine
 10
100
 20
14
 11
100
 21
-14
  0
LINE
  5
495
100
AcDbEntity
  8
0
  6
CONTINUOUS
 62
     7
100
AcDbLine
 10
100
 20
14
 11
78
 21
14
  0
LINE
  5
496
100
AcDbEntity
  8
0
  6
DASHED
 62
     7
100
AcDbLine
 10
89
 20
-10.69999980926514
 11
100
 21
-10.69999980926514
  0
LINE
  5
497
100
AcDbEntity
  8
0
  6
DASHED
 62
     7
100
AcDbLine
 10
89
 20
10.69999980926514
 11
100
 21
10.69999980926514
  0
LINE
  5
498
100
AcDbEntity
  8
0
  6
DASHED
 62
     7
100
AcDbLine
 10
89
 20
-9.5
 11
100
 21
-9.5
  0
LINE
  5
499
100
AcDbEntity
  8
0
  6
DASHED
 62
     7
100
AcDbLine
 10
89
 20
9.5
 11
100
 21
9.5
  0
LINE
  5
49a
100
AcDbEntity
  8
0
  6
DASHED
 62
     7
100
AcDbLine
 10
-64.99999943030386
 20
23.99999946466803
 11
-45.00000026863019
 21
23.47628106353908
  0
LINE
  5
49b
100
AcDbEntity
  8
0
  6
DASHED
 62
     7
100
AcDbLine
 10
-64.99999943030386
 20
-23.99999946466803
 11
-45.00000026863019
 21
-23.47628106353908
  0
LINE
  5
49c
100
AcDbEntity
  8
0
  6
DASHED
 62
     7
100
AcDbLine
 10
-65.00000218804274
 20
-22.49948534816197
 11
-44.99999921297901
 21
-21.97576684717589
  0
LINE
  5
49d
100
AcDbEntity
  8
0
  6
DASHED
 62
     7
100
AcDbLine
 10
-65.00000218804274
 20
22.49948534816197
 11
-44.99999921297901
 21
21.97576684717589
  0
LINE
  5
49e
100
AcDbEntity
  8
0
  6
DASHED
 62
     7
100
AcDbLine
 10
64.99999943030386
 20
-23.99999946466803
 11
45.00000026863019
 21
-23.47628106353908
  0
LINE
  5
49f
100
AcDbEntity
  8
0
  6
DASHED
 62
     7
100
AcDbLine
 10
65.00000218804274
 20
-22.49948534816197
 11
44.99999921297901
 21
-21.97576684717589
  0
LINE
  5
4a0
100
AcDbEntity
  8
0
  6
DASHED
 62
     7
100
AcDbLine
 10
65.00000218804274
 20
22.49948534816197
 11
44.99999921297901
 21
21.97576684717589
  0
LINE
  5
4a1
100
AcDbEntity
  8
0
  6
DASHED
 62
     7
100
AcDbLine
 10
64.99999943030386
 20
23.99999946466803
 11
45.00000026863019
 21
23.47628106353908
  0
CIRCLE
  5
4a2
100
AcDbEntity
  8
0
  6
CONTINUOUS
 62
     7
100
AcDbCircle
 10
-5.449567652249243e-006
 20
0
 40
34
  0
CIRCLE
  5
4a3
100
AcDbEntity
  8
0
  6
CONTINUOUS
 62
     7
100
AcDbCircle
 10
0
 20
0
 40
32.5
  0
ARC
  5
4a4
100
AcDbEntity
  8
0
  6
CONTINUOUS
 62
     7
100
AcDbCircle
 10
32.00000381469727
 20
-31.99999237060547
 40
8
100
AcDbArc
 50
270.00001798609
 51
360
  0
ARC
  5
4a5
100
AcDbEntity
  8
0
  6
CONTINUOUS
 62
     7
100
AcDbCircle
 10
-32.00000381469727
 20
-31.99999237060547
 40
8
100
AcDbArc
 50
179.9999776881997
 51
270.0000280040027
  0
ARC
  5
4a6
100
AcDbEntity
  8
0
  6
CONTINUOUS
 62
     7
100
AcDbCircle
 10
32.00000381469727
 20
32.00000381469727
 40
8
100
AcDbArc
 50
0
 51
89.99998201391065
  0
ARC
  5
4a7
100
AcDbEntity
  8
0
  6
CONTINUOUS
 62
     7
100
AcDbCircle
 10
-32.00000381469727
 20
32.00000381469727
 40
8
100
AcDbArc
 50
89.99998201391065
 51
179.9999640278213
  0
ARC
  5
4a8
100
AcDbEntity
  8
0
  6
CONTINUOUS
 62
     7
100
AcDbCircle
 10
72
 20
17
 40
6
100
AcDbArc
 50
5.46415133601103e-005
 51
90.00003665542405
  0
ARC
  5
4a9
100
AcDbEntity
  8
0
  6
CONTINUOUS
 62
     7
100
AcDbCircle
 10
72
 20
17
 40
4
100
AcDbArc
 50
5.46415133601103e-005
 51
90.00003665542391
  0
ARC
  5
4aa
100
AcDbEntity
  8
0
  6
CONTINUOUS
 62
     7
100
AcDbCircle
 10
72
 20
-17
 40
4
100
AcDbArc
 50
270.0000179860901
 51
5.46415133601103e-005
  0
ARC
  5
4ab
100
AcDbEntity
  8
0
  6
CONTINUOUS
 62
     7
100
AcDbCircle
 10
72
 20
-17
 40
6
100
AcDbArc
 50
270.00001798609
 51
5.46415133601103e-005
  0
MTEXT
  5
4ac
100
AcDbEntity
  8
0
  6
CONTINUOUS
 62
     7
100
AcDbMText
 10
-33.06869922578335
 20
35.02920150756836
 40
0.5
 41
36
 71
     7
 72
     1
  1
{\W0.8426;ＢＮ－５ＢＰ２１－４０－Ｇ／Ｈ＊＊＊}
  0
ENDBLK
  8
0
  5
4ad
100
AcDbEntity
100
AcDbBlockEnd
  0
BLOCK
  8
0
  5
4ae
100
AcDbEntity
100
AcDbBlockBegin
  2
KOZU0007
 70
    64
 10
0
 20
0
  0
LINE
  5
4af
100
AcDbEntity
  8
0
  6
CONTINUOUS
 62
     7
100
AcDbLine
 10
28.45268150254679
 20
-49.00003051757813
 11
29.50001525878906
 21
-47.95269466666625
  0
LINE
  5
4b0
100
AcDbEntity
  8
0
  6
CONTINUOUS
 62
     7
100
AcDbLine
 10
26.76888518892991
 20
-49.00003051757813
 11
29.50001525878907
 21
-46.26889498545336
  0
LINE
  5
4b1
100
AcDbEntity
  8
0
  6
CONTINUOUS
 62
     7
100
AcDbLine
 10
25.08508887531302
 20
-49.00003051757813
 11
29.50001525878906
 21
-44.58509530424048
  0
LINE
  5
4b2
100
AcDbEntity
  8
0
  6
CONTINUOUS
 62
     7
100
AcDbLine
 10
23.40129256169614
 20
-49.00003051757813
 11
29.50001525878906
 21
-42.90129562302761
  0
LINE
  5
4b3
100
AcDbEntity
  8
0
  6
CONTINUOUS
 62
     7
100
AcDbLine
 10
21.71749624807925
 20
-49.00003051757813
 11
29.50001525878907
 21
-41.21749594181473
  0
LINE
  5
4b4
100
AcDbEntity
  8
0
  6
CONTINUOUS
 62
     7
100
AcDbLine
 10
20.03369993446237
 20
-49.00003051757813
 11
29.50001525878906
 21
-39.53369626060184
  0
LINE
  5
4b5
100
AcDbEntity
  8
0
  6
CONTINUOUS
 62
     7
100
AcDbLine
 10
19.50001525878907
 20
-47.84991657940897
 11
28.34988362086548
 21
-39.00003051757813
  0
LINE
  5
4b6
100
AcDbEntity
  8
0
  6
CONTINUOUS
 62
     7
100
AcDbLine
 10
19.50001525878907
 20
-46.16611689819608
 11
26.66608730724859
 21
-39.00003051757813
  0
LINE
  5
4b7
100
AcDbEntity
  8
0
  6
CONTINUOUS
 62
     7
100
AcDbLine
 10
19.50001525878906
 20
-44.48231721698321
 11
24.98229099363171
 21
-39.00003051757813
  0
LINE
  5
4b8
100
AcDbEntity
  8
0
  6
CONTINUOUS
 62
     7
100
AcDbLine
 10
19.50001525878906
 20
-42.79851753577033
 11
23.29849468001482
 21
-39.00003051757813
  0
LINE
  5
4b9
100
AcDbEntity
  8
0
  6
CONTINUOUS
 62
     7
100
AcDbLine
 10
19.50001525878906
 20
-41.11471785455745
 11
21.61469836639794
 21
-39.00003051757813
  0
LINE
  5
4ba
100
AcDbEntity
  8
0
  6
CONTINUOUS
 62
     7
100
AcDbLine
 10
19.50001525878906
 20
-39.43091817334457
 11
19.93090205278105
 21
-39.00003051757813
  0
LINE
  5
4bb
100
AcDbEntity
  8
0
  6
CONTINUOUS
 62
     7
100
AcDbLine
 10
29.50001525878906
 20
-39.58975057298364
 11
28.91029402394225
 21
-39.00003051757813
  0
LINE
  5
4bc
100
AcDbEntity
  8
0
  6
CONTINUOUS
 62
     7
100
AcDbLine
 10
29.50001525878906
 20
-41.27354688660054
 11
27.22649434272936
 21
-39.00003051757813
  0
LINE
  5
4bd
100
AcDbEntity
  8
0
  6
CONTINUOUS
 62
     7
100
AcDbLine
 10
29.50001525878907
 20
-42.95734320021742
 11
25.54269466151649
 21
-39.00003051757813
  0
LINE
  5
4be
100
AcDbEntity
  8
0
  6
CONTINUOUS
 62
     7
100
AcDbLine
 10
29.50001525878906
 20
-44.6411395138343
 11
23.85889498030361
 21
-39.00003051757813
  0
LINE
  5
4bf
100
AcDbEntity
  8
0
  6
CONTINUOUS
 62
     7
100
AcDbLine
 10
29.50001525878906
 20
-46.32493582745119
 11
22.17509529909073
 21
-39.00003051757813
  0
LINE
  5
4c0
100
AcDbEntity
  8
0
  6
CONTINUOUS
 62
     7
100
AcDbLine
 10
29.50001525878907
 20
-48.00873214106807
 11
20.49129561787785
 21
-39.00003051757813
  0
LINE
  5
4c1
100
AcDbEntity
  8
0
  6
CONTINUOUS
 62
     7
100
AcDbLine
 10
28.80751593668497
 20
-49.00003051757813
 11
19.50001525878906
 21
-39.69254845466496
  0
LINE
  5
4c2
100
AcDbEntity
  8
0
  6
CONTINUOUS
 62
     7
100
AcDbLine
 10
27.1237162554721
 20
-49.00003051757813
 11
19.50001525878906
 21
-41.37634476828184
  0
LINE
  5
4c3
100
AcDbEntity
  8
0
  6
CONTINUOUS
 62
     7
100
AcDbLine
 10
25.43991657425921
 20
-49.00003051757813
 11
19.50001525878906
 21
-43.06014108189873
  0
LINE
  5
4c4
100
AcDbEntity
  8
0
  6
CONTINUOUS
 62
     7
100
AcDbLine
 10
23.75611689304633
 20
-49.00003051757813
 11
19.50001525878906
 21
-44.74393739551562
  0
LINE
  5
4c5
100
AcDbEntity
  8
0
  6
CONTINUOUS
 62
     7
100
AcDbLine
 10
22.07231721183345
 20
-49.00003051757813
 11
19.50001525878906
 21
-46.4277337091325
  0
LINE
  5
4c6
100
AcDbEntity
  8
0
  6
CONTINUOUS
 62
     7
100
AcDbLine
 10
20.38851753062057
 20
-49.00003051757813
 11
19.50001525878906
 21
-48.11153002274939
  0
ENDBLK
  8
0
  5
4c7
100
AcDbEntity
100
AcDbBlockEnd
  0
BLOCK
  8
0
  5
4c8
100
AcDbEntity
100
AcDbBlockBegin
  2
KOZU0008
 70
    64
 10
0
 20
0
  0
LINE
  5
4c9
100
AcDbEntity
  8
0
  6
CONTINUOUS
 62
     7
100
AcDbLine
 10
-20.37740777765323
 20
-49.00002670288086
 11
-19.50001525878907
 21
-48.12263242922991
  0
LINE
  5
4ca
100
AcDbEntity
  8
0
  6
CONTINUOUS
 62
     7
100
AcDbLine
 10
-22.06120409127011
 20
-49.00002670288086
 11
-19.50001525878907
 21
-46.43883274801703
  0
LINE
  5
4cb
100
AcDbEntity
  8
0
  6
CONTINUOUS
 62
     7
100
AcDbLine
 10
-23.74500040488699
 20
-49.00002670288086
 11
-19.50001525878906
 21
-44.75503306680415
  0
LINE
  5
4cc
100
AcDbEntity
  8
0
  6
CONTINUOUS
 62
     7
100
AcDbLine
 10
-25.42879671850388
 20
-49.00002670288086
 11
-19.50001525878906
 21
-43.07123338559126
  0
LINE
  5
4cd
100
AcDbEntity
  8
0
  6
CONTINUOUS
 62
     7
100
AcDbLine
 10
-27.11259303212076
 20
-49.00002670288086
 11
-19.50001525878906
 21
-41.38743370437838
  0
LINE
  5
4ce
100
AcDbEntity
  8
0
  6
CONTINUOUS
 62
     7
100
AcDbLine
 10
-28.79638934573765
 20
-49.00002670288086
 11
-19.50001525878906
 21
-39.70363402316551
  0
LINE
  5
4cf
100
AcDbEntity
  8
0
  6
CONTINUOUS
 62
     7
100
AcDbLine
 10
-29.50001525878907
 20
-48.01985434197263
 11
-20.48020565933454
 21
-39.00002670288086
  0
LINE
  5
4d0
100
AcDbEntity
  8
0
  6
CONTINUOUS
 62
     7
100
AcDbLine
 10
-29.50001525878906
 20
-46.33605466075975
 11
-22.16400197295143
 21
-39.00002670288087
  0
LINE
  5
4d1
100
AcDbEntity
  8
0
  6
CONTINUOUS
 62
     7
100
AcDbLine
 10
-29.50001525878906
 20
-44.65225497954687
 11
-23.84779828656831
 21
-39.00002670288086
  0
LINE
  5
4d2
100
AcDbEntity
  8
0
  6
CONTINUOUS
 62
     7
100
AcDbLine
 10
-29.50001525878906
 20
-42.96845529833399
 11
-25.53159460018519
 21
-39.00002670288086
  0
LINE
  5
4d3
100
AcDbEntity
  8
0
  6
CONTINUOUS
 62
     7
100
AcDbLine
 10
-29.50001525878906
 20
-41.2846556171211
 11
-27.21539091380208
 21
-39.00002670288086
  0
LINE
  5
4d4
100
AcDbEntity
  8
0
  6
CONTINUOUS
 62
     7
100
AcDbLine
 10
-29.50001525878906
 20
-39.60085593590822
 11
-28.89918722741896
 21
-39.00002670288086
  0
LINE
  5
4d5
100
AcDbEntity
  8
0
  6
CONTINUOUS
 62
     7
100
AcDbLine
 10
-19.50001525878906
 20
-39.41991115025823
 11
-19.91990054593617
 21
-39.00002670288086
  0
LINE
  5
4d6
100
AcDbEntity
  8
0
  6
CONTINUOUS
 62
     7
100
AcDbLine
 10
-19.50001525878906
 20
-41.10370746387512
 11
-21.60370022714905
 21
-39.00002670288086
  0
LINE
  5
4d7
100
AcDbEntity
  8
0
  6
CONTINUOUS
 62
     7
100
AcDbLine
 10
-19.50001525878906
 20
-42.78750377749201
 11
-23.28749990836193
 21
-39.00002670288086
  0
LINE
  5
4d8
100
AcDbEntity
  8
0
  6
CONTINUOUS
 62
     7
100
AcDbLine
 10
-19.50001525878906
 20
-44.47130009110889
 11
-24.97129958957481
 21
-39.00002670288086
  0
LINE
  5
4d9
100
AcDbEntity
  8
0
  6
CONTINUOUS
 62
     7
100
AcDbLine
 10
-19.50001525878907
 20
-46.15509640472577
 11
-26.6550992707877
 21
-39.00002670288086
  0
LINE
  5
4da
100
AcDbEntity
  8
0
  6
CONTINUOUS
 62
     7
100
AcDbLine
 10
-19.50001525878906
 20
-47.83889271834266
 11
-28.33889895200057
 21
-39.00002670288086
  0
LINE
  5
4db
100
AcDbEntity
  8
0
  6
CONTINUOUS
 62
     7
100
AcDbLine
 10
-20.02267863319345
 20
-49.00002670288086
 11
-29.50001525878906
 21
-39.52270903193955
  0
LINE
  5
4dc
100
AcDbEntity
  8
0
  6
CONTINUOUS
 62
     7
100
AcDbLine
 10
-21.70647831440633
 20
-49.00002670288086
 11
-29.50001525878906
 21
-41.20650534555644
  0
LINE
  5
4dd
100
AcDbEntity
  8
0
  6
CONTINUOUS
 62
     7
100
AcDbLine
 10
-23.39027799561921
 20
-49.00002670288086
 11
-29.50001525878906
 21
-42.89030165917332
  0
LINE
  5
4de
100
AcDbEntity
  8
0
  6
CONTINUOUS
 62
     7
100
AcDbLine
 10
-25.07407767683209
 20
-49.00002670288086
 11
-29.50001525878906
 21
-44.57409797279021
  0
LINE
  5
4df
100
AcDbEntity
  8
0
  6
CONTINUOUS
 62
     7
100
AcDbLine
 10
-26.75787735804498
 20
-49.00002670288086
 11
-29.50001525878907
 21
-46.25789428640709
  0
LINE
  5
4e0
100
AcDbEntity
  8
0
  6
CONTINUOUS
 62
     7
100
AcDbLine
 10
-28.44167703925785
 20
-49.00002670288086
 11
-29.50001525878906
 21
-47.94169060002398
  0
ENDBLK
  8
0
  5
4e1
100
AcDbEntity
100
AcDbBlockEnd
  0
BLOCK
  8
0
  5
4e2
100
AcDbEntity
100
AcDbBlockBegin
  2
KOZU0009
 70
    64
 10
0
 20
0
  0
LINE
  5
4e3
100
AcDbEntity
  8
0
  6
CONTINUOUS
 62
     3
100
AcDbLine
 10
39.22749308205804
 20
28.04999351501465
 11
40.00000000000001
 21
28.82250201173941
  0
LINE
  5
4e4
100
AcDbEntity
  8
0
  6
CONTINUOUS
 62
     3
100
AcDbLine
 10
37.4314438271734
 20
28.04999351501465
 11
40
 21
30.61855493723411
  0
LINE
  5
4e5
100
AcDbEntity
  8
0
  6
CONTINUOUS
 62
     3
100
AcDbLine
 10
37
 20
29.41460173158838
 11
40
 21
32.41460786272882
  0
LINE
  5
4e6
100
AcDbEntity
  8
0
  6
CONTINUOUS
 62
     3
100
AcDbLine
 10
37
 20
31.21065465708308
 11
39.73932524867138
 21
33.94998550415039
  0
LINE
  5
4e7
100
AcDbEntity
  8
0
  6
CONTINUOUS
 62
     3
100
AcDbLine
 10
37
 20
33.00670758257778
 11
37.94327599378675
 21
33.94998550415039
  0
LINE
  5
4e8
100
AcDbEntity
  8
0
  6
CONTINUOUS
 62
     3
100
AcDbLine
 10
40.00000000000001
 20
32.65761084070477
 11
38.70762269531087
 21
33.9499855041504
  0
LINE
  5
4e9
100
AcDbEntity
  8
0
  6
CONTINUOUS
 62
     3
100
AcDbLine
 10
40
 20
30.86156158582014
 11
37
 21
33.86155545469224
  0
LINE
  5
4ea
100
AcDbEntity
  8
0
  6
CONTINUOUS
 62
     3
100
AcDbLine
 10
40
 20
29.06551233093551
 11
37
 21
32.06550619980762
  0
LINE
  5
4eb
100
AcDbEntity
  8
0
  6
CONTINUOUS
 62
     3
100
AcDbLine
 10
39.21946796585565
 20
28.04999351501465
 11
37
 21
30.26945694492298
  0
LINE
  5
4ec
100
AcDbEntity
  8
0
  6
CONTINUOUS
 62
     3
100
AcDbLine
 10
37.42341504036095
 20
28.04999351501465
 11
37
 21
28.47340769003834
  0
ENDBLK
  8
0
  5
4ed
100
AcDbEntity
100
AcDbBlockEnd
  0
BLOCK
  8
0
  5
4ee
100
AcDbEntity
100
AcDbBlockBegin
  2
KOZU0010
 70
    64
 10
0
 20
0
  0
LINE
  5
4ef
100
AcDbEntity
  8
0
  6
CONTINUOUS
 62
     7
100
AcDbLine
 10
28.45269676130534
 20
-49.00001525878906
 11
29.50001525878906
 21
-47.95269466666625
  0
LINE
  5
4f0
100
AcDbEntity
  8
0
  6
CONTINUOUS
 62
     7
100
AcDbLine
 10
26.76890044768845
 20
-49.00001525878906
 11
29.50001525878907
 21
-46.26889498545336
  0
LINE
  5
4f1
100
AcDbEntity
  8
0
  6
CONTINUOUS
 62
     7
100
AcDbLine
 10
25.08510413407156
 20
-49.00001525878906
 11
29.50001525878906
 21
-44.58509530424048
  0
LINE
  5
4f2
100
AcDbEntity
  8
0
  6
CONTINUOUS
 62
     7
100
AcDbLine
 10
23.40130782045468
 20
-49.00001525878906
 11
29.50001525878906
 21
-42.90129562302761
  0
LINE
  5
4f3
100
AcDbEntity
  8
0
  6
CONTINUOUS
 62
     7
100
AcDbLine
 10
21.7175115068378
 20
-49.00001525878906
 11
29.50001525878907
 21
-41.21749594181473
  0
LINE
  5
4f4
100
AcDbEntity
  8
0
  6
CONTINUOUS
 62
     7
100
AcDbLine
 10
20.03371519322091
 20
-49.00001525878906
 11
29.50001525878906
 21
-39.53369626060184
  0
LINE
  5
4f5
100
AcDbEntity
  8
0
  6
CONTINUOUS
 62
     7
100
AcDbLine
 10
19.50001525878907
 20
-47.84991657940897
 11
28.34989887962403
 21
-39.00001525878906
  0
LINE
  5
4f6
100
AcDbEntity
  8
0
  6
CONTINUOUS
 62
     7
100
AcDbLine
 10
19.50001525878907
 20
-46.16611689819608
 11
26.66610256600714
 21
-39.00001525878906
  0
LINE
  5
4f7
100
AcDbEntity
  8
0
  6
CONTINUOUS
 62
     7
100
AcDbLine
 10
19.50001525878906
 20
-44.48231721698321
 11
24.98230625239026
 21
-39.00001525878906
  0
LINE
  5
4f8
100
AcDbEntity
  8
0
  6
CONTINUOUS
 62
     7
100
AcDbLine
 10
19.50001525878906
 20
-42.79851753577033
 11
23.29850993877337
 21
-39.00001525878906
  0
LINE
  5
4f9
100
AcDbEntity
  8
0
  6
CONTINUOUS
 62
     7
100
AcDbLine
 10
19.50001525878906
 20
-41.11471785455745
 11
21.61471362515648
 21
-39.00001525878906
  0
LINE
  5
4fa
100
AcDbEntity
  8
0
  6
CONTINUOUS
 62
     7
100
AcDbLine
 10
19.50001525878906
 20
-39.43091817334457
 11
19.9309173115396
 21
-39.00001525878906
  0
LINE
  5
4fb
100
AcDbEntity
  8
0
  6
CONTINUOUS
 62
     7
100
AcDbLine
 10
29.50001525878906
 20
-39.58975057298364
 11
28.91027876512267
 21
-39.00001525878906
  0
LINE
  5
4fc
100
AcDbEntity
  8
0
  6
CONTINUOUS
 62
     7
100
AcDbLine
 10
29.50001525878906
 20
-41.27354688660054
 11
27.22647908390979
 21
-39.00001525878906
  0
LINE
  5
4fd
100
AcDbEntity
  8
0
  6
CONTINUOUS
 62
     7
100
AcDbLine
 10
29.50001525878907
 20
-42.95734320021742
 11
25.54267940269692
 21
-39.00001525878906
  0
LINE
  5
4fe
100
AcDbEntity
  8
0
  6
CONTINUOUS
 62
     7
100
AcDbLine
 10
29.50001525878906
 20
-44.6411395138343
 11
23.85887972148403
 21
-39.00001525878906
  0
LINE
  5
4ff
100
AcDbEntity
  8
0
  6
CONTINUOUS
 62
     7
100
AcDbLine
 10
29.50001525878906
 20
-46.32493582745119
 11
22.17508004027115
 21
-39.00001525878906
  0
LINE
  5
500
100
AcDbEntity
  8
0
  6
CONTINUOUS
 62
     7
100
AcDbLine
 10
29.50001525878907
 20
-48.00873214106807
 11
20.49128035905827
 21
-39.00001525878906
  0
LINE
  5
501
100
AcDbEntity
  8
0
  6
CONTINUOUS
 62
     7
100
AcDbLine
 10
28.80750067786539
 20
-49.00001525878906
 11
19.50001525878906
 21
-39.69254845466496
  0
LINE
  5
502
100
AcDbEntity
  8
0
  6
CONTINUOUS
 62
     7
100
AcDbLine
 10
27.12370099665252
 20
-49.00001525878906
 11
19.50001525878906
 21
-41.37634476828184
  0
LINE
  5
503
100
AcDbEntity
  8
0
  6
CONTINUOUS
 62
     7
100
AcDbLine
 10
25.43990131543964
 20
-49.00001525878906
 11
19.50001525878906
 21
-43.06014108189873
  0
LINE
  5
504
100
AcDbEntity
  8
0
  6
CONTINUOUS
 62
     7
100
AcDbLine
 10
23.75610163422675
 20
-49.00001525878906
 11
19.50001525878906
 21
-44.74393739551562
  0
LINE
  5
505
100
AcDbEntity
  8
0
  6
CONTINUOUS
 62
     7
100
AcDbLine
 10
22.07230195301387
 20
-49.00001525878906
 11
19.50001525878906
 21
-46.4277337091325
  0
LINE
  5
506
100
AcDbEntity
  8
0
  6
CONTINUOUS
 62
     7
100
AcDbLine
 10
20.38850227180098
 20
-49.00001525878906
 11
19.50001525878906
 21
-48.11153002274939
  0
ENDBLK
  8
0
  5
507
100
AcDbEntity
100
AcDbBlockEnd
  0
BLOCK
  8
0
  5
508
100
AcDbEntity
100
AcDbBlockBegin
  2
KOZU0011
 70
    64
 10
0
 20
0
  0
LINE
  5
509
100
AcDbEntity
  8
0
  6
CONTINUOUS
 62
     3
100
AcDbLine
 10
-38.00261534125751
 20
28.05000305175781
 11
-37
 21
29.05262044207381
  0
LINE
  5
50a
100
AcDbEntity
  8
0
  6
CONTINUOUS
 62
     3
100
AcDbLine
 10
-39.79866459614215
 20
28.05000305175781
 11
-37
 21
30.84867336756851
  0
LINE
  5
50b
100
AcDbEntity
  8
0
  6
CONTINUOUS
 62
     3
100
AcDbLine
 10
-40
 20
29.64472016192278
 11
-37
 21
32.64472629306322
  0
LINE
  5
50c
100
AcDbEntity
  8
0
  6
CONTINUOUS
 62
     3
100
AcDbLine
 10
-40
 20
31.44077308741748
 11
-37.49078126729943
 21
33.94999694824219
  0
LINE
  5
50d
100
AcDbEntity
  8
0
  6
CONTINUOUS
 62
     3
100
AcDbLine
 10
-40
 20
33.23682601291219
 11
-39.28683052218407
 21
33.94999694824219
  0
LINE
  5
50e
100
AcDbEntity
  8
0
  6
CONTINUOUS
 62
     3
100
AcDbLine
 10
-37
 20
32.42733551504944
 11
-38.52266454507645
 21
33.9499969482422
  0
LINE
  5
50f
100
AcDbEntity
  8
0
  6
CONTINUOUS
 62
     3
100
AcDbLine
 10
-36.99999999999999
 20
30.63128626016479
 11
-40
 21
33.6312801290369
  0
LINE
  5
510
100
AcDbEntity
  8
0
  6
CONTINUOUS
 62
     3
100
AcDbLine
 10
-37
 20
28.83523700528017
 11
-40
 21
31.83523087415227
  0
LINE
  5
511
100
AcDbEntity
  8
0
  6
CONTINUOUS
 62
     3
100
AcDbLine
 10
-38.01081736717914
 20
28.05000305175781
 11
-40
 21
30.03918161926763
  0
LINE
  5
512
100
AcDbEntity
  8
0
  6
CONTINUOUS
 62
     3
100
AcDbLine
 10
-39.80687029267384
 20
28.05000305175781
 11
-40
 21
28.24313236438299
  0
ENDBLK
  8
0
  5
513
100
AcDbEntity
100
AcDbBlockEnd
  0
BLOCK
  8
0
  5
514
100
AcDbEntity
100
AcDbBlockBegin
  2
KOZU0012
 70
    64
 10
0
 20
0
  0
LINE
  5
515
100
AcDbEntity
  8
0
  6
CONTINUOUS
 62
     7
100
AcDbLine
 10
-20.37741159234286
 20
-49.00003051757813
 11
-19.50001525878907
 21
-48.12263242922991
  0
LINE
  5
516
100
AcDbEntity
  8
0
  6
CONTINUOUS
 62
     7
100
AcDbLine
 10
-22.06120790595974
 20
-49.00003051757813
 11
-19.50001525878907
 21
-46.43883274801703
  0
LINE
  5
517
100
AcDbEntity
  8
0
  6
CONTINUOUS
 62
     7
100
AcDbLine
 10
-23.74500421957664
 20
-49.00003051757813
 11
-19.50001525878906
 21
-44.75503306680415
  0
LINE
  5
518
100
AcDbEntity
  8
0
  6
CONTINUOUS
 62
     7
100
AcDbLine
 10
-25.42880053319352
 20
-49.00003051757813
 11
-19.50001525878906
 21
-43.07123338559126
  0
LINE
  5
519
100
AcDbEntity
  8
0
  6
CONTINUOUS
 62
     7
100
AcDbLine
 10
-27.11259684681041
 20
-49.00003051757813
 11
-19.50001525878906
 21
-41.38743370437838
  0
LINE
  5
51a
100
AcDbEntity
  8
0
  6
CONTINUOUS
 62
     7
100
AcDbLine
 10
-28.79639316042729
 20
-49.00003051757813
 11
-19.50001525878906
 21
-39.70363402316551
  0
LINE
  5
51b
100
AcDbEntity
  8
0
  6
CONTINUOUS
 62
     7
100
AcDbLine
 10
-29.50001525878907
 20
-48.01985434197263
 11
-20.48020947402418
 21
-39.00003051757813
  0
LINE
  5
51c
100
AcDbEntity
  8
0
  6
CONTINUOUS
 62
     7
100
AcDbLine
 10
-29.50001525878906
 20
-46.33605466075975
 11
-22.16400578764106
 21
-39.00003051757813
  0
LINE
  5
51d
100
AcDbEntity
  8
0
  6
CONTINUOUS
 62
     7
100
AcDbLine
 10
-29.50001525878906
 20
-44.65225497954687
 11
-23.84780210125794
 21
-39.00003051757813
  0
LINE
  5
51e
100
AcDbEntity
  8
0
  6
CONTINUOUS
 62
     7
100
AcDbLine
 10
-29.50001525878906
 20
-42.96845529833399
 11
-25.53159841487483
 21
-39.00003051757813
  0
LINE
  5
51f
100
AcDbEntity
  8
0
  6
CONTINUOUS
 62
     7
100
AcDbLine
 10
-29.50001525878906
 20
-41.2846556171211
 11
-27.21539472849172
 21
-39.00003051757813
  0
LINE
  5
520
100
AcDbEntity
  8
0
  6
CONTINUOUS
 62
     7
100
AcDbLine
 10
-29.50001525878906
 20
-39.60085593590822
 11
-28.8991910421086
 21
-39.00003051757813
  0
LINE
  5
521
100
AcDbEntity
  8
0
  6
CONTINUOUS
 62
     7
100
AcDbLine
 10
-19.50001525878906
 20
-39.41991115025823
 11
-19.91989673123128
 21
-39.00003051757813
  0
LINE
  5
522
100
AcDbEntity
  8
0
  6
CONTINUOUS
 62
     7
100
AcDbLine
 10
-19.50001525878906
 20
-41.10370746387512
 11
-21.60369641244416
 21
-39.00003051757813
  0
LINE
  5
523
100
AcDbEntity
  8
0
  6
CONTINUOUS
 62
     7
100
AcDbLine
 10
-19.50001525878906
 20
-42.78750377749201
 11
-23.28749609365704
 21
-39.00003051757813
  0
LINE
  5
524
100
AcDbEntity
  8
0
  6
CONTINUOUS
 62
     7
100
AcDbLine
 10
-19.50001525878906
 20
-44.47130009110889
 11
-24.97129577486992
 21
-39.00003051757813
  0
LINE
  5
525
100
AcDbEntity
  8
0
  6
CONTINUOUS
 62
     7
100
AcDbLine
 10
-19.50001525878907
 20
-46.15509640472577
 11
-26.65509545608281
 21
-39.00003051757813
  0
LINE
  5
526
100
AcDbEntity
  8
0
  6
CONTINUOUS
 62
     7
100
AcDbLine
 10
-19.50001525878906
 20
-47.83889271834266
 11
-28.33889513729568
 21
-39.00003051757813
  0
LINE
  5
527
100
AcDbEntity
  8
0
  6
CONTINUOUS
 62
     7
100
AcDbLine
 10
-20.02267481848855
 20
-49.00003051757813
 11
-29.50001525878906
 21
-39.52270903193955
  0
LINE
  5
528
100
AcDbEntity
  8
0
  6
CONTINUOUS
 62
     7
100
AcDbLine
 10
-21.70647449970144
 20
-49.00003051757813
 11
-29.50001525878906
 21
-41.20650534555644
  0
LINE
  5
529
100
AcDbEntity
  8
0
  6
CONTINUOUS
 62
     7
100
AcDbLine
 10
-23.39027418091432
 20
-49.00003051757813
 11
-29.50001525878906
 21
-42.89030165917332
  0
LINE
  5
52a
100
AcDbEntity
  8
0
  6
CONTINUOUS
 62
     7
100
AcDbLine
 10
-25.0740738621272
 20
-49.00003051757813
 11
-29.50001525878906
 21
-44.57409797279021
  0
LINE
  5
52b
100
AcDbEntity
  8
0
  6
CONTINUOUS
 62
     7
100
AcDbLine
 10
-26.75787354334008
 20
-49.00003051757813
 11
-29.50001525878907
 21
-46.25789428640709
  0
LINE
  5
52c
100
AcDbEntity
  8
0
  6
CONTINUOUS
 62
     7
100
AcDbLine
 10
-28.44167322455296
 20
-49.00003051757813
 11
-29.50001525878906
 21
-47.94169060002398
  0
ENDBLK
  8
0
  5
52d
100
AcDbEntity
100
AcDbBlockEnd
  0
ENDSEC
  0
SECTION
  2
ENTITIES
  0
LINE
  5
52e
100
AcDbEntity
  8
0
  6
CONTINUOUS
 62
     7
100
AcDbLine
 10
264.3123931927152
 20
-139.7501713194671
 11
448.7518484441875
 21
-139.7501713194671
  0
LINE
  5
52f
100
AcDbEntity
  8
0
  6
CONTINUOUS
 62
     7
100
AcDbLine
 10
264.3124389690823
 20
-139.7501713194671
 11
264.3124389690823
 21
-180.7030521788421
  0
LINE
  5
530
100
AcDbEntity
  8
0
  6
CONTINUOUS
 62
     7
100
AcDbLine
 10
264.3123931927152
 20
-180.7030521788421
 11
448.7518484441875
 21
-180.7030521788421
  0
LINE
  5
531
100
AcDbEntity
  8
0
  6
CONTINUOUS
 62
     7
100
AcDbLine
 10
448.7518484441875
 20
-139.7501713194671
 11
448.7518484441875
 21
-180.7030521788421
  0
MTEXT
  5
532
100
AcDbEntity
  8
0
  6
CONTINUOUS
 62
     7
100
AcDbMText
 10
269.2524359268613
 20
-163.5006748595062
 40
8
 41
96
 71
     7
 72
     1
  1
{\W0.855331;品　名}
  0
MTEXT
  5
533
100
AcDbEntity
  8
0
  6
CONTINUOUS
 62
     7
100
AcDbMText
 10
269.2524359268613
 20
-176.1787144102874
 40
8
 41
96
 71
     7
 72
     1
  1
{\W0.855331;型　番}
  0
MTEXT
  5
534
100
AcDbEntity
  8
0
  6
CONTINUOUS
 62
     7
100
AcDbMText
 10
303.1104528946347
 20
-176.1787144102874
 40
8
 41
576
 71
     7
 72
     1
  1
{\W0.842599;ＢＮ－５ＢＰ２１－４０－Ｇ／Ｈ＊＊＊}
  0
MTEXT
  5
535
100
AcDbEntity
  8
0
  6
CONTINUOUS
 62
     7
100
AcDbMText
 10
303.1104528946347
 20
-163.5006748595062
 40
8
 41
224
 71
     7
 72
     1
  1
{\W0.846334;シリンダ操作弁}
  0
MTEXT
  5
536
100
AcDbEntity
  8
0
  6
CONTINUOUS
 62
     7
100
AcDbMText
 10
316.1472876114316
 20
-151.0190006651702
 40
8
 41
256
 71
     7
 72
     1
  1
{\W0.845552;日本精器株式会社}
  0
MTEXT
  5
537
100
AcDbEntity
  8
0
  6
CONTINUOUS
 62
     7
100
AcDbMText
 10
271.7248734235764
 20
157.4394073486328
 40
5
 41
40
 71
     7
 72
     1
  1
{\W0.864328;ＥＸ}
  0
MTEXT
  5
538
100
AcDbEntity
  8
0
  6
CONTINUOUS
 62
     7
100
AcDbMText
 10
108.6956169901954
 20
148.789879705641
 40
8
 41
64
 71
     7
 72
     1
  1
{\W0.864328;＊１}
  0
MTEXT
  5
539
100
AcDbEntity
  8
0
  6
CONTINUOUS
 62
     7
100
AcDbMText
 10
106.6987565736417
 20
205.7004015774197
 40
8
 41
64
 71
     7
 72
     1
  1
{\W0.864328;＊２}
  0
MTEXT
  5
53a
100
AcDbEntity
  8
0
  6
CONTINUOUS
 62
     7
100
AcDbMText
 10
-104.968447581044
 20
147.7914494973642
 40
8
 41
64
 71
     7
 72
     1
  1
{\W0.864328;＊３}
  0
MTEXT
  5
53b
100
AcDbEntity
  8
0
  6
CONTINUOUS
 62
     7
100
AcDbMText
 10
198.5386378178773
 20
148.7898797056411
 40
8
 41
64
 71
     7
 72
     1
  1
{\W0.864328;＊４}
  0
MTEXT
  5
53c
100
AcDbEntity
  8
0
  6
CONTINUOUS
 62
     7
100
AcDbMText
 10
408.2246794732412
 20
143.7977286642569
 40
8
 41
64
 71
     7
 72
     1
  1
{\W0.864328;＊５}
  0
MTEXT
  5
53d
100
AcDbEntity
  8
0
  6
CONTINUOUS
 62
     7
100
AcDbMText
 10
108.4674780368805
 20
-119.1458511352539
 40
8
 41
64
 71
     7
 72
     1
  1
{\W0.864328;＊６}
  0
LINE
  5
53e
100
AcDbEntity
  8
0
  6
CONTINUOUS
 62
     7
100
AcDbLine
 10
263.7628782962769
 20
159.3144083221687
 11
266.2628782962768
 21
159.3144078354008
  0
LINE
  5
53f
100
AcDbEntity
  8
0
  6
CONTINUOUS
 62
     7
100
AcDbLine
 10
263.7628785396609
 20
160.5644083221687
 11
266.2628785396608
 21
160.5644078354008
  0
LINE
  5
540
100
AcDbEntity
  8
0
  6
CONTINUOUS
 62
     7
100
AcDbLine
 10
268.7628647403568
 20
159.9394059677524
 11
266.262872893413
 21
162.4393987882291
  0
LINE
  5
541
100
AcDbEntity
  8
0
  6
CONTINUOUS
 62
     7
100
AcDbLine
 10
266.2628716148892
 20
157.4394138158178
 11
268.7628647403568
 21
159.9394059677524
  0
LINE
  5
542
100
AcDbEntity
  8
0
  6
CONTINUOUS
 62
     7
100
AcDbLine
 10
266.2628779312008
 20
157.4394078354008
 11
266.2628782962768
 21
159.3144078354008
  0
LINE
  5
543
100
AcDbEntity
  8
0
  6
CONTINUOUS
 62
     7
100
AcDbLine
 10
263.7628782962769
 20
159.3144083221687
 11
263.7628785396609
 21
160.5644083221687
  0
LINE
  5
544
100
AcDbEntity
  8
0
  6
CONTINUOUS
 62
     7
100
AcDbLine
 10
266.2628785396608
 20
160.5644078354008
 11
266.2628789047367
 21
162.4394078354007
  0
INSERT
  5
545
100
AcDbEntity
  8
0
  6
CONTINUOUS
 62
     7
100
AcDbBlockReference
  2
KOZU0001
 10
30.82240295410156
 20
-11.61172485351563
  0
INSERT
  5
546
100
AcDbEntity
  8
0
  6
CONTINUOUS
 62
     7
100
AcDbBlockReference
  2
KOZU0002
 10
30.82240295410156
 20
243.1470794677734
  0
INSERT
  5
547
100
AcDbEntity
  8
0
  6
CONTINUOUS
 62
     7
100
AcDbBlockReference
  2
KOZU0003
 10
-137.7490386962891
 20
-11.61172485351563
  0
INSERT
  5
548
100
AcDbEntity
  8
0
  6
CONTINUOUS
 62
     7
100
AcDbBlockReference
  2
KOZU0004
 10
239.3938293457031
 20
-11.61172485351563
  0
INSERT
  5
549
100
AcDbEntity
  8
0
  6
CONTINUOUS
 62
     7
100
AcDbBlockReference
  2
KOZU0005
 10
467.9652709960938
 20
-11.61172485351563
  0
INSERT
  5
54a
100
AcDbEntity
  8
0
  6
CONTINUOUS
 62
     7
100
AcDbBlockReference
  2
KOZU0006
 10
30.82240295410156
 20
-157.9551086425781
  0
LINE
  5
54b
100
AcDbEntity
  8
0
  6
CONTINUOUS
 62
     7
100
AcDbLine
 10
199.3847270728677
 20
19.15914514508793
 11
191.5196748547115
 21
31.4516188271684
  0
LINE
  5
54c
100
AcDbEntity
  8
0
  6
CONTINUOUS
 62
     7
100
AcDbLine
 10
199.3847270728677
 20
19.15914514508793
 11
196.9255391131866
 21
21.14720809142276
  0
LINE
  5
54d
100
AcDbEntity
  8
0
  6
CONTINUOUS
 62
     7
100
AcDbLine
 10
199.3847270728677
 20
19.15914514508793
 11
198.6102144729237
 21
22.22510827796447
  0
MTEXT
  5
54e
100
AcDbEntity
  8
0
  6
CONTINUOUS
 62
     7
100
AcDbMText
 10
182.4129943847657
 20
31.45162010192873
 40
5
 41
120
 71
     6
 72
     1
  1
{\W0.847393;シリンダＥＸ}
  0
LINE
  5
54f
100
AcDbEntity
  8
0
  6
CONTINUOUS
 62
     7
100
AcDbLine
 10
199.3847270728677
 20
19.15914514508793
 11
191.5196748547115
 21
31.4516188271684
  0
LINE
  5
550
100
AcDbEntity
  8
0
  6
CONTINUOUS
 62
     7
100
AcDbLine
 10
191.5196748547115
 20
31.45161882716839
 11
183.5559997558594
 21
31.45161882716839
  0
DIMENSION
  5
551
100
AcDbEntity
  8
0
  6
CONTINUOUS
 62
     7
100
AcDbDimension
  2
*D1
 70
     0
 10
279.3938293457031
 20
-102
 11
239.3938293457031
 21
-102
  3
DIMSTYLE
100
AcDbAlignedDimension
 13
199.3938446044922
 23
-41.61172485351563
 14
279.3938293457031
 24
-41.61172485351563
 50
0
100
AcDbRotatedDimension
1001
ACAD
1000
DSTYLE
1002
{
1070
     6
1000
_OPEN30
1070
     7
1000
_OPEN30
1070
    77
1070
     1
1070
   172
1070
     1
1070
    42
1040
0
1002
}
  0
DIMENSION
  5
552
100
AcDbEntity
  8
0
  6
CONTINUOUS
 62
     7
100
AcDbDimension
  2
*D2
 70
     0
 10
323.7177734375
 20
-11.61175918579102
 11
323.7177734375
 21
-39.6116943359375
 52
269.9997792015182
  3
DIMSTYLE
100
AcDbAlignedDimension
 13
296.7509765625
 23
-67.61170959472656
 14
310.8492126464844
 24
-11.61170959472656
 50
90
100
AcDbRotatedDimension
1001
ACAD
1000
DSTYLE
1002
{
1070
     6
1000
_OPEN30
1070
     7
1000
_OPEN30
1070
    77
1070
     1
1070
   172
1070
     1
1070
    42
1040
0
1002
}
  0
DIMENSION
  5
553
100
AcDbEntity
  8
0
  6
CONTINUOUS
 62
     7
100
AcDbDimension
  2
*D3
 70
     0
 10
323.7177734375
 20
164.3882904052734
 11
323.7177734375
 21
76.38829040527344
 52
269.9999525597839
  3
DIMSTYLE
100
AcDbAlignedDimension
 13
269.3938293457031
 23
-11.61170959472656
 14
286.8602600097656
 24
164.3883209228516
 50
90
100
AcDbRotatedDimension
1001
ACAD
1000
DSTYLE
1002
{
1070
     6
1000
_OPEN30
1070
     7
1000
_OPEN30
1070
    77
1070
     1
1070
   172
1070
     1
1070
    42
1040
0
1002
}
  0
DIMENSION
  5
554
100
AcDbEntity
  8
0
  6
CONTINUOUS
 62
     7
100
AcDbDimension
  2
*D4
 70
     0
 10
339.179006672612
 20
164.3883209228516
 11
339.179006672612
 21
48.3883056640625
  3
DIMSTYLE
100
AcDbAlignedDimension
 13
271.8938293457031
 23
-67.61170959472656
 14
259.3938598632813
 24
164.3883209228516
 50
90
100
AcDbRotatedDimension
1001
ACAD
1000
DSTYLE
1002
{
1070
     6
1000
_OPEN30
1070
     7
1000
_OPEN30
1070
    77
1070
     1
1070
   172
1070
     1
1070
    42
1040
0
1002
}
  0
DIMENSION
  5
555
100
AcDbEntity
  8
0
  6
CONTINUOUS
 62
     7
100
AcDbDimension
  2
*D5
 70
     0
 10
95.82240295410156
 20
-93.05047607421875
 11
30.82240295410156
 21
-93.05047607421875
  3
DIMSTYLE
100
AcDbAlignedDimension
 13
-34.17759704589844
 23
-41.61174011230469
 14
95.82240295410156
 24
-41.61174011230469
 50
0
100
AcDbRotatedDimension
1001
ACAD
1000
DSTYLE
1002
{
1070
     6
1000
_OPEN30
1070
     7
1000
_OPEN30
1070
    77
1070
     1
1070
   172
1070
     1
1070
    42
1040
0
1002
}
  0
LINE
  5
556
100
AcDbEntity
  8
0
  6
CONTINUOUS
 62
     7
100
AcDbLine
 10
-25.46879187078559
 20
12.43601201450185
 11
-30.5678497210627
 21
34.10173282720299
  0
LINE
  5
557
100
AcDbEntity
  8
0
  6
CONTINUOUS
 62
     7
100
AcDbLine
 10
-25.46879187078559
 20
12.43601201450185
 11
-26.73244562818493
 21
15.35207217815248
  0
LINE
  5
558
100
AcDbEntity
  8
0
  6
CONTINUOUS
 62
     7
100
AcDbLine
 10
-25.46879187078559
 20
12.43601201450185
 11
-25.63833872343003
 21
15.60957177624857
  0
MTEXT
  5
559
100
AcDbEntity
  8
0
  6
CONTINUOUS
 62
     7
100
AcDbMText
 10
-66.65591430664063
 20
30.97673416137695
 40
5
 41
100
 71
     7
 72
     1
  1
{\W0.848905;２－Ｒｃ１}
  0
MTEXT
  5
55a
100
AcDbEntity
  8
0
  6
CONTINUOUS
 62
     7
100
AcDbMText
 10
-41.65591430664063
 20
34.72673416137695
 40
2.5
 41
10
 71
     7
 72
     1
  1
{\W0.900315;１}
  0
MTEXT
  5
55b
100
AcDbEntity
  8
0
  6
CONTINUOUS
 62
     7
100
AcDbMText
 10
-41.65591430664063
 20
30.97673416137695
 40
2.5
 41
10
 71
     7
 72
     1
  1
{\W0.900315;２}
  0
LINE
  5
55c
100
AcDbEntity
  8
0
  6
CONTINUOUS
 62
     7
100
AcDbLine
 10
-25.46879187078559
 20
12.43601201450185
 11
-30.5678497210627
 21
34.10173282720299
  0
LINE
  5
55d
100
AcDbEntity
  8
0
  6
CONTINUOUS
 62
     7
100
AcDbLine
 10
-30.5678497210627
 20
34.10173282720299
 11
-38.01291275024414
 21
34.10173282720299
  0
LINE
  5
55e
100
AcDbEntity
  8
0
  6
CONTINUOUS
 62
     7
100
AcDbLine
 10
275.1363793961639
 20
16.88827921279854
 11
284.4534560975394
 21
33.742345130251
  0
LINE
  5
55f
100
AcDbEntity
  8
0
  6
CONTINUOUS
 62
     7
100
AcDbLine
 10
275.1363793961639
 20
16.88827921279854
 11
276.157872438202
 21
19.89772761104152
  0
LINE
  5
560
100
AcDbEntity
  8
0
  6
CONTINUOUS
 62
     7
100
AcDbLine
 10
275.1363793961639
 20
16.88827921279854
 11
277.1415700796898
 21
19.35393085472215
  0
MTEXT
  5
561
100
AcDbEntity
  8
0
  6
CONTINUOUS
 62
     7
100
AcDbMText
 10
289.7196655273438
 20
33.74235153198241
 40
5
 41
100
 71
     4
 72
     1
  1
{\W0.848905;Ｍ５ドレン}
  0
LINE
  5
562
100
AcDbEntity
  8
0
  6
CONTINUOUS
 62
     7
100
AcDbLine
 10
275.1363793961639
 20
16.88827921279854
 11
284.4534560975394
 21
33.742345130251
  0
LINE
  5
563
100
AcDbEntity
  8
0
  6
CONTINUOUS
 62
     7
100
AcDbLine
 10
284.4534560975394
 20
33.74234513025098
 11
288.57666015625
 21
33.74234513025098
  0
LINE
  5
564
100
AcDbEntity
  8
0
  6
CONTINUOUS
 62
     7
100
AcDbLine
 10
7.913524291002609
 20
103.1103450177194
 11
-1.707171086281079
 21
119.0562278059224
  0
LINE
  5
565
100
AcDbEntity
  8
0
  6
CONTINUOUS
 62
     7
100
AcDbLine
 10
7.913524291002609
 20
103.1103450177194
 11
5.507513467530474
 21
105.1624443371884
  0
LINE
  5
566
100
AcDbEntity
  8
0
  6
CONTINUOUS
 62
     7
100
AcDbLine
 10
7.913524291002609
 20
103.1103450177194
 11
7.219975223906292
 21
106.1956309673778
  0
MTEXT
  5
567
100
AcDbEntity
  8
0
  6
CONTINUOUS
 62
     7
100
AcDbMText
 10
-38.32536721229553
 20
116.5562210083008
 40
5
 41
100
 71
     7
 72
     1
  1
{\W0.848905;Ｒｃ１／４}
  0
MTEXT
  5
568
100
AcDbEntity
  8
0
  6
CONTINUOUS
 62
     7
100
AcDbMText
 10
-38.32536721229553
 20
109.0562210083008
 40
5
 41
60
 71
     7
 72
     1
  1
{\W0.855331;操作口}
  0
LINE
  5
569
100
AcDbEntity
  8
0
  6
CONTINUOUS
 62
     7
100
AcDbLine
 10
7.913524291002609
 20
103.1103450177194
 11
-1.707171086281079
 21
119.0562278059224
  0
LINE
  5
56a
100
AcDbEntity
  8
0
  6
CONTINUOUS
 62
     7
100
AcDbLine
 10
-1.707171086281079
 20
119.0562278059224
 11
-12.18236637115479
 21
119.0562278059224
  0
DIMENSION
  5
56b
100
AcDbEntity
  8
0
  6
CONTINUOUS
 62
     7
100
AcDbDimension
  2
*D6
 70
     0
 10
271.8938293457031
 20
-88.5
 11
239.3938293457031
 21
-88.5
  3
DIMSTYLE
100
AcDbAlignedDimension
 13
206.8938446044922
 23
-67.61172103881836
 14
271.8938293457031
 24
-67.61172103881836
 50
0
100
AcDbRotatedDimension
1001
ACAD
1000
DSTYLE
1002
{
1070
     6
1000
_OPEN30
1070
     7
1000
_OPEN30
1070
    77
1070
     1
1070
   172
1070
     1
1070
    42
1040
0
1002
}
  0
DIMENSION
  5
56c
100
AcDbEntity
  8
0
  6
CONTINUOUS
 62
     7
100
AcDbDimension
  2
*D7
 70
     0
 10
130.8223876953125
 20
180.6722564697266
 11
80.82240295410156
 21
180.6722564697266
  3
DIMSTYLE
100
AcDbAlignedDimension
 13
30.82240295410156
 23
164.3882446289063
 14
130.8223876953125
 24
112.3881912231445
 50
0
100
AcDbRotatedDimension
1001
ACAD
1000
DSTYLE
1002
{
1070
     6
1000
_OPEN30
1070
     7
1000
_OPEN30
1070
    77
1070
     1
1070
   172
1070
     1
1070
    42
1040
0
1002
}
  0
LINE
  5
56d
100
AcDbEntity
  8
0
  6
CONTINUOUS
 62
     7
100
AcDbLine
 10
124.4841372447439
 20
109.7982145151732
 11
147.6791396275842
 21
131.4435080163518
  0
LINE
  5
56e
100
AcDbEntity
  8
0
  6
CONTINUOUS
 62
     7
100
AcDbLine
 10
124.4841372447439
 20
109.7982145151732
 11
126.3876131911311
 21
112.3432109823899
  0
LINE
  5
56f
100
AcDbEntity
  8
0
  6
CONTINUOUS
 62
     7
100
AcDbLine
 10
124.4841372447439
 20
109.7982145151732
 11
127.1544749793565
 21
111.5214452251259
  0
MTEXT
  5
570
100
AcDbEntity
  8
0
  6
CONTINUOUS
 62
     7
100
AcDbMText
 10
153.1322907547904
 20
131.4435172638009
 40
5
 41
80
 71
     4
 72
     1
  1
{\W0.851241;Ｇ１／２}
  0
LINE
  5
571
100
AcDbEntity
  8
0
  6
CONTINUOUS
 62
     7
100
AcDbLine
 10
124.4841372447439
 20
109.7982145151732
 11
147.6791396275842
 21
131.4435080163518
  0
LINE
  5
572
100
AcDbEntity
  8
0
  6
CONTINUOUS
 62
     7
100
AcDbLine
 10
147.6791396275842
 20
131.4435080163518
 11
151.9892853836967
 21
131.4435080163518
  0
DIMENSION
  5
573
100
AcDbEntity
  8
0
  6
CONTINUOUS
 62
     7
100
AcDbDimension
  2
*D8
 70
     0
 10
269.3938293457031
 20
2.271931803884684
 11
187.2951082405137
 21
2.271931803884684
  3
DIMSTYLE
100
AcDbAlignedDimension
 13
209.3938293457031
 23
4.129092216491699
 14
269.3938293457031
 24
4.129092216491699
 50
0
100
AcDbRotatedDimension
1001
ACAD
1000
DSTYLE
1002
{
1070
    77
1070
     1
1070
   172
1070
     1
1070
    42
1040
0
1002
}
  0
ENDSEC
  0
SECTION
  2
OBJECTS
  0
DICTIONARY
  5
574
100
AcDbDictionary
  3
ACAD_GROUP
350
575
  3
ACAD_MLINESTYLE
350
576
  0
DICTIONARY
  5
575
102
{ACAD_REACTORS
330
574
102
}
100
AcDbDictionary
  0
DICTIONARY
  5
576
102
{ACAD_REACTORS
330
574
102
}
100
AcDbDictionary
  3
STANDARD
350
577
  0
MLINESTYLE
  5
577
102
{ACAD_REACTORS
330
576
102
}
100
AcDbMlineStyle
  2
STANDARD
 70
     0
  3

 62
     0
 51
90
 52
90
 71
     2
 49
0.5
 62
   256
  6
BYLAYER
 49
-0.5
 62
   256
  6
BYLAYER
  0
ENDSEC
  0
EOF
