  0
SECTION
  2
HEADER
  9
$ACADVER
  1
AC1015
  9
$ACADMAINTVER
 70
     6
  9
$DWGCODEPAGE
  3
ANSI_932
  9
$INSBASE
 10
0.0
 20
0.0
 30
0.0
  9
$EXTMIN
 10
-246.7906260441846
 20
-204.4290508411839
 30
0.0
  9
$EXTMAX
 10
438.2093739558154
 20
286.5569921463003
 30
0.0
  9
$LIMMIN
 10
-246.7906260441846
 20
-204.4290508411839
  9
$LIMMAX
 10
438.2093739558154
 20
286.5569921463003
  9
$ORTHOMODE
 70
     0
  9
$REGENMODE
 70
     1
  9
$FILLMODE
 70
     1
  9
$QTEXTMODE
 70
     0
  9
$MIRRTEXT
 70
     1
  9
$LTSCALE
 40
1.0
  9
$ATTMODE
 70
     1
  9
$TEXTSIZE
 40
2.5
  9
$TRACEWID
 40
1.0
  9
$TEXTSTYLE
  7
Standard
  9
$CLAYER
  8
0
  9
$CELTYPE
  6
ByLayer
  9
$CECOLOR
 62
   256
  9
$CELTSCALE
 40
1.0
  9
$DISPSILH
 70
     0
  9
$DIMSCALE
 40
1.0
  9
$DIMASZ
 40
2.5
  9
$DIMEXO
 40
0.625
  9
$DIMDLI
 40
3.75
  9
$DIMRND
 40
0.0
  9
$DIMDLE
 40
0.0
  9
$DIMEXE
 40
1.25
  9
$DIMTP
 40
0.0
  9
$DIMTM
 40
0.0
  9
$DIMTXT
 40
2.5
  9
$DIMCEN
 40
2.5
  9
$DIMTSZ
 40
0.0
  9
$DIMTOL
 70
     0
  9
$DIMLIM
 70
     0
  9
$DIMTIH
 70
     0
  9
$DIMTOH
 70
     0
  9
$DIMSE1
 70
     0
  9
$DIMSE2
 70
     0
  9
$DIMTAD
 70
     1
  9
$DIMZIN
 70
     8
  9
$DIMBLK
  1
Closed
  9
$DIMASO
 70
     1
  9
$DIMSHO
 70
     1
  9
$DIMPOST
  1

  9
$DIMAPOST
  1

  9
$DIMALT
 70
     0
  9
$DIMALTD
 70
     3
  9
$DIMALTF
 40
0.039370079
  9
$DIMLFAC
 40
1.0
  9
$DIMTOFL
 70
     1
  9
$DIMTVP
 40
0.0
  9
$DIMTIX
 70
     0
  9
$DIMSOXD
 70
     0
  9
$DIMSAH
 70
     0
  9
$DIMBLK1
  1

  9
$DIMBLK2
  1

  9
$DIMSTYLE
  2
DIMSTYLE_FULLSCALE
  9
$DIMCLRD
 70
     0
  9
$DIMCLRE
 70
     0
  9
$DIMCLRT
 70
     0
  9
$DIMTFAC
 40
1.0
  9
$DIMGAP
 40
0.625
  9
$DIMJUST
 70
     0
  9
$DIMSD1
 70
     0
  9
$DIMSD2
 70
     0
  9
$DIMTOLJ
 70
     0
  9
$DIMTZIN
 70
     8
  9
$DIMALTZ
 70
     0
  9
$DIMALTTZ
 70
     0
  9
$DIMUPT
 70
     0
  9
$DIMDEC
 70
     2
  9
$DIMTDEC
 70
     2
  9
$DIMALTU
 70
     2
  9
$DIMALTTD
 70
     3
  9
$DIMTXSTY
  7
Standard
  9
$DIMAUNIT
 70
     0
  9
$DIMADEC
 70
     0
  9
$DIMALTRND
 40
0.0
  9
$DIMAZIN
 70
     0
  9
$DIMDSEP
 70
    44
  9
$DIMATFIT
 70
     3
  9
$DIMFRAC
 70
     0
  9
$DIMLDRBLK
  1
Closed
  9
$DIMLUNIT
 70
     2
  9
$DIMLWD
 70
    -2
  9
$DIMLWE
 70
    -2
  9
$DIMTMOVE
 70
     0
  9
$LUNITS
 70
     2
  9
$LUPREC
 70
     4
  9
$SKETCHINC
 40
1.0
  9
$FILLETRAD
 40
10.0
  9
$AUNITS
 70
     0
  9
$AUPREC
 70
     0
  9
$MENU
  1
.
  9
$ELEVATION
 40
0.0
  9
$PELEVATION
 40
0.0
  9
$THICKNESS
 40
0.0
  9
$LIMCHECK
 70
     0
  9
$CHAMFERA
 40
0.0
  9
$CHAMFERB
 40
0.0
  9
$CHAMFERC
 40
0.0
  9
$CHAMFERD
 40
0.0
  9
$SKPOLY
 70
     0
  9
$TDCREATE
 40
2459025.381796748
  9
$TDUCREATE
 40
2459025.006796748
  9
$TDUPDATE
 40
2459025.381796921
  9
$TDUUPDATE
 40
2459025.006796921
  9
$TDINDWG
 40
0.0000000116
  9
$TDUSRTIMER
 40
0.0000000116
  9
$USRTIMER
 70
     1
  9
$ANGBASE
 50
0.0
  9
$ANGDIR
 70
     0
  9
$PDMODE
 70
     0
  9
$PDSIZE
 40
0.0
  9
$PLINEWID
 40
0.0
  9
$SPLFRAME
 70
     0
  9
$SPLINETYPE
 70
     6
  9
$SPLINESEGS
 70
     8
  9
$HANDSEED
  5
3A3
  9
$SURFTAB1
 70
     6
  9
$SURFTAB2
 70
     6
  9
$SURFTYPE
 70
     6
  9
$SURFU
 70
     6
  9
$SURFV
 70
     6
  9
$UCSBASE
  2

  9
$UCSNAME
  2

  9
$UCSORG
 10
0.0
 20
0.0
 30
0.0
  9
$UCSXDIR
 10
1.0
 20
0.0
 30
0.0
  9
$UCSYDIR
 10
0.0
 20
1.0
 30
0.0
  9
$UCSORTHOREF
  2

  9
$UCSORTHOVIEW
 70
     0
  9
$UCSORGTOP
 10
0.0
 20
0.0
 30
0.0
  9
$UCSORGBOTTOM
 10
0.0
 20
0.0
 30
0.0
  9
$UCSORGLEFT
 10
0.0
 20
0.0
 30
0.0
  9
$UCSORGRIGHT
 10
0.0
 20
0.0
 30
0.0
  9
$UCSORGFRONT
 10
0.0
 20
0.0
 30
0.0
  9
$UCSORGBACK
 10
0.0
 20
0.0
 30
0.0
  9
$PUCSBASE
  2

  9
$PUCSNAME
  2

  9
$PUCSORG
 10
0.0
 20
0.0
 30
0.0
  9
$PUCSXDIR
 10
1.0
 20
0.0
 30
0.0
  9
$PUCSYDIR
 10
0.0
 20
1.0
 30
0.0
  9
$PUCSORTHOREF
  2

  9
$PUCSORTHOVIEW
 70
     0
  9
$PUCSORGTOP
 10
0.0
 20
0.0
 30
0.0
  9
$PUCSORGBOTTOM
 10
0.0
 20
0.0
 30
0.0
  9
$PUCSORGLEFT
 10
0.0
 20
0.0
 30
0.0
  9
$PUCSORGRIGHT
 10
0.0
 20
0.0
 30
0.0
  9
$PUCSORGFRONT
 10
0.0
 20
0.0
 30
0.0
  9
$PUCSORGBACK
 10
0.0
 20
0.0
 30
0.0
  9
$USERI1
 70
     0
  9
$USERI2
 70
     0
  9
$USERI3
 70
     0
  9
$USERI4
 70
     0
  9
$USERI5
 70
     0
  9
$USERR1
 40
0.0
  9
$USERR2
 40
0.0
  9
$USERR3
 40
0.0
  9
$USERR4
 40
0.0
  9
$USERR5
 40
0.0
  9
$WORLDVIEW
 70
     1
  9
$SHADEDGE
 70
     3
  9
$SHADEDIF
 70
    70
  9
$TILEMODE
 70
     1
  9
$MAXACTVP
 70
    64
  9
$PINSBASE
 10
0.0
 20
0.0
 30
0.0
  9
$PLIMCHECK
 70
     0
  9
$PEXTMIN
 10
1.000000000000000E+20
 20
1.000000000000000E+20
 30
1.000000000000000E+20
  9
$PEXTMAX
 10
-1.000000000000000E+20
 20
-1.000000000000000E+20
 30
-1.000000000000000E+20
  9
$PLIMMIN
 10
-246.7906260441846
 20
-204.4290508411839
  9
$PLIMMAX
 10
438.2093739558154
 20
286.5569921463003
  9
$UNITMODE
 70
     0
  9
$VISRETAIN
 70
     1
  9
$PLINEGEN
 70
     0
  9
$PSLTSCALE
 70
     1
  9
$TREEDEPTH
 70
  3020
  9
$CMLSTYLE
  2
Standard
  9
$CMLJUST
 70
     0
  9
$CMLSCALE
 40
20.0
  9
$PROXYGRAPHICS
 70
     1
  9
$MEASUREMENT
 70
     1
  9
$CELWEIGHT
370
    -1
  9
$ENDCAPS
280
     0
  9
$JOINSTYLE
280
     0
  9
$LWDISPLAY
290
     0
  9
$INSUNITS
 70
     4
  9
$HYPERLINKBASE
  1

  9
$STYLESHEET
  1

  9
$XEDIT
290
     1
  9
$CEPSNTYPE
380
     0
  9
$PSTYLEMODE
290
     1
  9
$FINGERPRINTGUID
  2
{c5c7e8d4-24ff-498f-a6bf-f477d44d760b}
  9
$VERSIONGUID
  2
{FAEB1C32-E019-11D5-929B-00C0DF256EC4}
  9
$EXTNAMES
290
     1
  9
$PSVPSCALE
 40
0.0
  9
$OLESTARTUP
290
     0
  0
ENDSEC
  0
SECTION
  2
CLASSES
  0
CLASS
  1
ACDBDICTIONARYWDFLT
  2
AcDbDictionaryWithDefault
  3
ObjectDBX Classes
 90
        0
280
     0
281
     0
  0
CLASS
  1
VISUALSTYLE
  2
AcDbVisualStyle
  3
ObjectDBX Classes
 90
     4095
280
     0
281
     0
  0
CLASS
  1
MATERIAL
  2
AcDbMaterial
  3
ObjectDBX Classes
 90
     1153
280
     0
281
     0
  0
CLASS
  1
SCALE
  2
AcDbScale
  3
ObjectDBX Classes
 90
     1153
280
     0
281
     0
  0
CLASS
  1
TABLESTYLE
  2
AcDbTableStyle
  3
ObjectDBX Classes
 90
     4095
280
     0
281
     0
  0
CLASS
  1
MLEADERSTYLE
  2
AcDbMLeaderStyle
  3
ACDB_MLEADERSTYLE_CLASS
 90
     4095
280
     0
281
     0
  0
CLASS
  1
SUN
  2
AcDbSun
  3
SCENEOE
 90
     1153
280
     0
281
     0
  0
CLASS
  1
DICTIONARYVAR
  2
AcDbDictionaryVar
  3
ObjectDBX Classes
 90
        0
280
     0
281
     0
  0
CLASS
  1
ACDBPLACEHOLDER
  2
AcDbPlaceHolder
  3
ObjectDBX Classes
 90
        0
280
     0
281
     0
  0
CLASS
  1
LAYOUT
  2
AcDbLayout
  3
ObjectDBX Classes
 90
        0
280
     0
281
     0
  0
ENDSEC
  0
SECTION
  2
TABLES
  0
TABLE
  2
VPORT
  5
8
102
{ACAD_XDICTIONARY
360
361
102
}
330
0
100
AcDbSymbolTable
 70
     1
  0
VPORT
  5
29
330
8
100
AcDbSymbolTableRecord
100
AcDbViewportTableRecord
  2
*Active
 70
     0
 10
0.0
 20
0.0
 11
1.0
 21
1.0
 12
344.1869158878504
 22
148.5
 13
0.0
 23
0.0
 14
10.0
 24
10.0
 15
10.0
 25
10.0
 16
0.0
 26
0.0
 36
1.0
 17
0.0
 27
0.0
 37
0.0
 40
297.0
 41
1.972972972850329
 42
50.0
 43
0.0
 44
0.0
 50
0.0
 51
0.0
 71
     0
 72
   100
 73
     1
 74
     3
 75
     0
 76
     0
 77
     0
 78
     0
281
     0
 65
     1
110
0.0
120
0.0
130
0.0
111
1.0
121
0.0
131
0.0
112
0.0
122
1.0
132
0.0
 79
     0
146
0.0
  0
ENDTAB
  0
TABLE
  2
LTYPE
  5
5
330
0
100
AcDbSymbolTable
 70
     5
  0
LTYPE
  5
14
330
5
100
AcDbSymbolTableRecord
100
AcDbLinetypeTableRecord
  2
ByBlock
 70
     0
  3

 72
    65
 73
     0
 40
0.0
  0
LTYPE
  5
15
330
5
100
AcDbSymbolTableRecord
100
AcDbLinetypeTableRecord
  2
ByLayer
 70
     0
  3

 72
    65
 73
     0
 40
0.0
  0
LTYPE
  5
16
330
5
100
AcDbSymbolTableRecord
100
AcDbLinetypeTableRecord
  2
Continuous
 70
     0
  3
Solid line
 72
    65
 73
     0
 40
0.0
  0
LTYPE
  5
6E
330
5
100
AcDbSymbolTableRecord
100
AcDbLinetypeTableRecord
  2
CONTINOUS
 70
     0
  3
______________________________
 72
    65
 73
     0
 40
0.0
  0
LTYPE
  5
6F
330
5
100
AcDbSymbolTableRecord
100
AcDbLinetypeTableRecord
  2
DASHED
 70
     0
  3
__ __ __ __ __ __ __ __ __ __ __ __ __ __ __ __
 72
    65
 73
     2
 40
4.5
 49
3.0
 74
     0
 49
-1.5
 74
     0
  0
LTYPE
  5
70
330
5
100
AcDbSymbolTableRecord
100
AcDbLinetypeTableRecord
  2
PHANTOM
 70
     0
  3
______  __  __  ______  __  __  _____
 72
    65
 73
     6
 40
15.0
 49
7.5
 74
     0
 49
-1.5
 74
     0
 49
1.5
 74
     0
 49
-1.5
 74
     0
 49
1.5
 74
     0
 49
-1.5
 74
     0
  0
LTYPE
  5
71
330
5
100
AcDbSymbolTableRecord
100
AcDbLinetypeTableRecord
  2
CENTER
 70
     0
  3
____ _ ____ _ ____ _ ____ _ ____ _ ____
 72
    65
 73
     4
 40
12.0
 49
7.5
 74
     0
 49
-1.5
 74
     0
 49
1.5
 74
     0
 49
-1.5
 74
     0
  0
ENDTAB
  0
TABLE
  2
LAYER
  5
2
330
0
100
AcDbSymbolTable
 70
     2
  0
LAYER
  5
10
330
2
100
AcDbSymbolTableRecord
100
AcDbLayerTableRecord
  2
0
 70
     0
 62
     7
  6
Continuous
370
    -3
390
F
  0
LAYER
  5
2BF
330
2
100
AcDbSymbolTableRecord
100
AcDbLayerTableRecord
  2
Defpoints
 70
     0
 62
     7
  6
Continuous
290
     0
370
    -3
390
F
  0
ENDTAB
  0
TABLE
  2
STYLE
  5
3
330
0
100
AcDbSymbolTable
 70
     1
  0
STYLE
  5
11
330
3
100
AcDbSymbolTableRecord
100
AcDbTextStyleTableRecord
  2
Standard
 70
     0
 40
0.0
 41
1.0
 50
0.0
 71
     0
 42
2.5
  3
ROMANS
  4
EXTFONT
  0
ENDTAB
  0
TABLE
  2
VIEW
  5
6
330
0
100
AcDbSymbolTable
 70
     0
  0
ENDTAB
  0
TABLE
  2
UCS
  5
7
330
0
100
AcDbSymbolTable
 70
     0
  0
ENDTAB
  0
TABLE
  2
APPID
  5
9
330
0
100
AcDbSymbolTable
 70
     7
  0
APPID
  5
12
330
9
100
AcDbSymbolTableRecord
100
AcDbRegAppTableRecord
  2
ACAD
 70
     0
  0
APPID
  5
2A4
330
9
100
AcDbSymbolTableRecord
100
AcDbRegAppTableRecord
  2
ACAD_DSTYLE_DIMJAG
 70
     0
  0
APPID
  5
363
330
9
100
AcDbSymbolTableRecord
100
AcDbRegAppTableRecord
  2
ACAD_DSTYLE_DIMJOGGED_JOGANGLE_SYMBOL
 70
     0
  0
APPID
  5
364
330
9
100
AcDbSymbolTableRecord
100
AcDbRegAppTableRecord
  2
ACAD_DSTYLE_DIM_LINETYPE
 70
     0
  0
APPID
  5
365
330
9
100
AcDbSymbolTableRecord
100
AcDbRegAppTableRecord
  2
ACAD_DSTYLE_DIM_EXT1_LINETYPE
 70
     0
  0
APPID
  5
366
330
9
100
AcDbSymbolTableRecord
100
AcDbRegAppTableRecord
  2
ACAD_DSTYLE_DIM_EXT2_LINETYPE
 70
     0
  0
APPID
  5
39F
330
9
100
AcDbSymbolTableRecord
100
AcDbRegAppTableRecord
  2
ACAD_MLEADERVER
 70
     0
  0
ENDTAB
  0
TABLE
  2
DIMSTYLE
  5
A
330
0
100
AcDbSymbolTable
 70
     2
100
AcDbDimStyleTable
  0
DIMSTYLE
105
27
330
A
100
AcDbSymbolTableRecord
100
AcDbDimStyleTableRecord
  2
ISO-25
 70
     0
 41
2.5
 42
0.625
 43
3.75
 44
1.25
 73
     0
 74
     0
 77
     1
 78
     8
140
2.5
141
2.5
143
0.03937007874016
147
0.625
171
     3
172
     1
178
     0
271
     2
272
     2
274
     3
278
    44
283
     0
284
     8
340
11
  0
DIMSTYLE
105
29C
102
{ACAD_REACTORS
330
2B8
330
2CC
330
2E3
330
2F0
330
2FD
330
313
330
320
330
32D
330
33A
330
347
102
}
330
A
100
AcDbSymbolTableRecord
100
AcDbDimStyleTableRecord
  2
DIMSTYLE_FULLSCALE
 70
     0
 41
2.5
 42
0.625
 43
3.75
 44
1.25
 73
     0
 74
     0
 77
     1
 78
     8
140
2.5
141
2.5
143
0.039370079
147
0.625
171
     3
172
     1
178
     0
271
     2
272
     2
274
     3
278
    44
283
     0
284
     8
340
11
341
29D
342
29D
1001
ACAD_DSTYLE_DIMJAG
1070
   388
1040
1.5
1001
ACAD_DSTYLE_DIMJOGGED_JOGANGLE_SYMBOL
1070
   384
1040
1.570796326794897
1001
ACAD_DSTYLE_DIM_LINETYPE
1070
   380
1005
14
1001
ACAD_DSTYLE_DIM_EXT1_LINETYPE
1070
   381
1005
14
1001
ACAD_DSTYLE_DIM_EXT2_LINETYPE
1070
   382
1005
14
  0
ENDTAB
  0
TABLE
  2
BLOCK_RECORD
  5
1
330
0
100
AcDbSymbolTable
 70
    21
  0
BLOCK_RECORD
  5
1F
330
1
100
AcDbSymbolTableRecord
100
AcDbBlockTableRecord
  2
*Model_Space
340
22
  0
BLOCK_RECORD
  5
1B
330
1
100
AcDbSymbolTableRecord
100
AcDbBlockTableRecord
  2
*Paper_Space
340
1E
  0
BLOCK_RECORD
  5
23
330
1
100
AcDbSymbolTableRecord
100
AcDbBlockTableRecord
  2
*Paper_Space0
340
26
  0
BLOCK_RECORD
  5
72
330
1
100
AcDbSymbolTableRecord
100
AcDbBlockTableRecord
  2
DTL0001
340
0
102
{BLKREFS
331
2B2
102
}
  0
BLOCK_RECORD
  5
75
330
1
100
AcDbSymbolTableRecord
100
AcDbBlockTableRecord
  2
DTL0002
340
0
102
{BLKREFS
331
2B3
102
}
  0
BLOCK_RECORD
  5
78
330
1
100
AcDbSymbolTableRecord
100
AcDbBlockTableRecord
  2
DTL0003
340
0
102
{BLKREFS
331
2B4
102
}
  0
BLOCK_RECORD
  5
7B
330
1
100
AcDbSymbolTableRecord
100
AcDbBlockTableRecord
  2
DTL0004
340
0
102
{BLKREFS
331
2B5
102
}
  0
BLOCK_RECORD
  5
7E
330
1
100
AcDbSymbolTableRecord
100
AcDbBlockTableRecord
  2
DTL0005
340
0
102
{BLKREFS
331
2B6
102
}
  0
BLOCK_RECORD
  5
81
330
1
100
AcDbSymbolTableRecord
100
AcDbBlockTableRecord
  2
DTL0006
340
0
102
{BLKREFS
331
2B7
102
}
  0
BLOCK_RECORD
  5
29D
330
1
100
AcDbSymbolTableRecord
100
AcDbBlockTableRecord
  2
_Closed
340
0
  0
BLOCK_RECORD
  5
2B9
330
1
100
AcDbSymbolTableRecord
100
AcDbBlockTableRecord
  2
_Open30
340
0
102
{BLKREFS
331
2C7
331
2C6
331
2D5
331
2D4
331
2EB
331
2EA
331
2F8
331
2F7
331
305
331
304
331
31B
331
31A
331
328
331
327
331
335
331
334
331
342
331
341
331
34E
331
34D
102
}
  0
BLOCK_RECORD
  5
2C0
330
1
100
AcDbSymbolTableRecord
100
AcDbBlockTableRecord
  2
*D9
340
0
  0
BLOCK_RECORD
  5
2CD
330
1
100
AcDbSymbolTableRecord
100
AcDbBlockTableRecord
  2
*D10
340
0
  0
BLOCK_RECORD
  5
2DA
330
1
100
AcDbSymbolTableRecord
100
AcDbBlockTableRecord
  2
SYM0001
340
0
102
{BLKREFS
331
2E0
102
}
  0
BLOCK_RECORD
  5
2E4
330
1
100
AcDbSymbolTableRecord
100
AcDbBlockTableRecord
  2
*D12
340
0
  0
BLOCK_RECORD
  5
2F1
330
1
100
AcDbSymbolTableRecord
100
AcDbBlockTableRecord
  2
*D13
340
0
  0
BLOCK_RECORD
  5
2FE
330
1
100
AcDbSymbolTableRecord
100
AcDbBlockTableRecord
  2
*D14
340
0
  0
BLOCK_RECORD
  5
30A
330
1
100
AcDbSymbolTableRecord
100
AcDbBlockTableRecord
  2
SYM0002
340
0
102
{BLKREFS
331
310
102
}
  0
BLOCK_RECORD
  5
314
330
1
100
AcDbSymbolTableRecord
100
AcDbBlockTableRecord
  2
*D16
340
0
  0
BLOCK_RECORD
  5
321
330
1
100
AcDbSymbolTableRecord
100
AcDbBlockTableRecord
  2
*D17
340
0
  0
BLOCK_RECORD
  5
32E
330
1
100
AcDbSymbolTableRecord
100
AcDbBlockTableRecord
  2
*D18
340
0
  0
BLOCK_RECORD
  5
33B
330
1
100
AcDbSymbolTableRecord
100
AcDbBlockTableRecord
  2
*D19
340
0
  0
BLOCK_RECORD
  5
348
330
1
100
AcDbSymbolTableRecord
100
AcDbBlockTableRecord
  2
*D20
340
0
  0
ENDTAB
  0
ENDSEC
  0
SECTION
  2
BLOCKS
  0
BLOCK
  5
20
330
1F
100
AcDbEntity
  8
0
100
AcDbBlockBegin
  2
*Model_Space
 70
     0
 10
0.0
 20
0.0
 30
0.0
  3
*Model_Space
  1

  0
ENDBLK
  5
21
330
1F
100
AcDbEntity
  8
0
100
AcDbBlockEnd
  0
BLOCK
  5
1C
330
1B
100
AcDbEntity
 67
     1
  8
0
100
AcDbBlockBegin
  2
*Paper_Space
 70
     0
 10
0.0
 20
0.0
 30
0.0
  3
*Paper_Space
  1

  0
ENDBLK
  5
1D
330
1B
100
AcDbEntity
 67
     1
  8
0
100
AcDbBlockEnd
  0
BLOCK
  5
24
330
23
100
AcDbEntity
  8
0
100
AcDbBlockBegin
  2
*Paper_Space0
 70
     0
 10
0.0
 20
0.0
 30
0.0
  3
*Paper_Space0
  1

  0
ENDBLK
  5
25
330
23
100
AcDbEntity
  8
0
100
AcDbBlockEnd
  0
BLOCK
  5
73
330
72
100
AcDbEntity
  8
0
100
AcDbBlockBegin
  2
DTL0001
 70
     0
 10
0.0
 20
0.0
 30
0.0
  3
DTL0001
  1

  0
POINT
  5
84
330
72
100
AcDbEntity
  8
0
 62
     0
100
AcDbPoint
 10
0.0
 20
0.0
 30
0.0
  0
LINE
  5
85
330
72
100
AcDbEntity
  8
0
  6
Continuous
 62
     0
100
AcDbLine
 10
34.54560094581927
 20
33.61906174698485
 30
0.0
 11
39.54560049611502
 21
33.29251818131956
 31
0.0
  0
LINE
  5
86
330
72
100
AcDbEntity
  8
0
  6
Continuous
 62
     0
100
AcDbLine
 10
44.54559885685206
 20
32.96597469334284
 30
0.0
 11
49.54559959670652
 21
32.639431049989
 31
0.0
  0
LINE
  5
87
330
72
100
AcDbEntity
  8
0
  6
Continuous
 62
     0
100
AcDbLine
 10
54.54559914700228
 20
32.31288748432372
 30
0.0
 11
59.54559988685673
 21
31.98634384096987
 31
0.0
  0
LINE
  5
88
330
72
100
AcDbEntity
  8
0
  6
Continuous
 62
     0
100
AcDbLine
 10
64.54560062671119
 20
31.65980019761604
 30
0.0
 11
74.54561400200717
 21
31.0067121340228
 31
0.0
  0
LINE
  5
89
330
72
100
AcDbEntity
  8
0
  6
Continuous
 62
     0
100
AcDbLine
 10
66.99999417252891
 20
30.79801872626909
 30
0.0
 11
79.21662410520453
 21
30.00016627478373
 31
0.0
  0
LINE
  5
8A
330
72
100
AcDbEntity
  8
0
  6
Continuous
 62
     0
100
AcDbLine
 10
24.54561611993225
 20
34.27214794605275
 30
0.0
 11
29.5456002059648
 21
33.94560539033869
 31
0.0
  0
LINE
  5
8B
330
72
100
AcDbEntity
  8
0
  6
CENTER
 62
     4
100
AcDbLine
 10
41.99996885657357
 20
18.14805719035779
 30
0.0
 11
41.99996885657357
 21
17.10000012665987
 31
0.0
  0
LINE
  5
8C
330
72
100
AcDbEntity
  8
0
  6
CENTER
 62
     4
100
AcDbLine
 10
47.55635192804334
 20
18.93517543260321
 30
0.0
 11
47.7716682029649
 21
15.71479308669278
 31
0.0
  0
LINE
  5
8D
330
72
100
AcDbEntity
  8
0
  6
PHANTOM
 62
     0
100
AcDbLine
 10
48.38282971729303
 20
15.56811503005512
 30
0.0
 11
48.15206433876407
 21
19.0195622155162
 31
0.0
  0
LINE
  5
8E
330
72
100
AcDbEntity
  8
0
  6
PHANTOM
 62
     0
100
AcDbLine
 10
46.96063872205925
 20
18.8508005440628
 30
0.0
 11
47.16050637053143
 21
15.86147590107947
 31
0.0
  0
LINE
  5
8F
330
72
100
AcDbEntity
  8
0
  6
Continuous
 62
     0
100
AcDbLine
 10
66.93888564498894
 20
-13.20000628828993
 30
0.0
 11
63.49998379498745
 21
-13.20000628828993
 31
0.0
  0
LINE
  5
90
330
72
100
AcDbEntity
  8
0
  6
Continuous
 62
     0
100
AcDbLine
 10
82.02107242539671
 20
27.00130590684619
 30
0.0
 11
82.01551421936001
 21
23.81669185486189
 31
0.0
  0
LINE
  5
91
330
72
100
AcDbEntity
  8
0
  6
Continuous
 62
     0
100
AcDbLine
 10
14.61552867646426
 20
31.10426444330798
 30
0.0
 11
19.50003284168808
 21
22.49998695718653
 31
0.0
  0
LINE
  5
92
330
72
100
AcDbEntity
  8
0
  6
Continuous
 62
     0
100
AcDbLine
 10
14.61552082029641
 20
31.10426270080886
 30
0.0
 11
14.00001385187349
 21
33.99999567866333
 31
0.0
  0
LINE
  5
93
330
72
100
AcDbEntity
  8
0
  6
Continuous
 62
     0
100
AcDbLine
 10
-38.00002995133355
 20
24.0098175570737
 30
0.0
 11
9.000068707906708
 21
33.99999567866333
 31
0.0
  0
LINE
  5
94
330
72
100
AcDbEntity
  8
0
  6
Continuous
 62
     0
100
AcDbLine
 10
9.000068707906706
 20
33.99999567866332
 30
0.0
 11
14.00001385187348
 21
33.99999567866332
 31
0.0
  0
LINE
  5
95
330
72
100
AcDbEntity
  8
0
  6
Continuous
 62
     0
100
AcDbLine
 10
19.50003284168807
 20
22.49998695718654
 30
0.0
 11
81.99996826052714
 21
7.500004295580034
 31
0.0
  0
LINE
  5
96
330
72
100
AcDbEntity
  8
0
  6
Continuous
 62
     0
100
AcDbLine
 10
-24.76777397926987
 20
13.23222263629372
 30
0.0
 11
-21.2322391340721
 21
16.76775718346822
 31
0.0
  0
LINE
  5
97
330
72
100
AcDbEntity
  8
0
  6
Continuous
 62
     0
100
AcDbLine
 10
-24.76777318416777
 20
16.76774800893261
 30
0.0
 11
-21.23223918190698
 21
13.23221430469504
 31
0.0
  0
LINE
  5
98
330
72
100
AcDbEntity
  8
0
  6
Continuous
 62
     0
100
AcDbLine
 10
39.2539628062372
 20
17.75905756057507
 30
0.0
 11
82.01555362860803
 21
23.81671636788382
 31
0.0
  0
LINE
  5
99
330
72
100
AcDbEntity
  8
0
  6
Continuous
 62
     0
100
AcDbLine
 10
81.99996826052714
 20
7.500004295580027
 30
0.0
 11
81.99996826052714
 21
-14.50000406056636
 31
0.0
  0
LINE
  5
9A
330
72
100
AcDbEntity
  8
0
  6
Continuous
 62
     0
100
AcDbLine
 10
-38.00002995133355
 20
24.0098175570737
 30
0.0
 11
-38.00002995133355
 21
5.50001136213524
 31
0.0
  0
LINE
  5
9B
330
72
100
AcDbEntity
  8
0
  6
Continuous
 62
     0
100
AcDbLine
 10
17.0000121444462
 20
-11.50000555068246
 30
0.0
 11
66.89522166706291
 21
-11.50000555068246
 31
0.0
  0
LINE
  5
9C
330
72
100
AcDbEntity
  8
0
  6
Continuous
 62
     0
100
AcDbLine
 10
66.99996799849335
 20
-14.50000994480872
 30
0.0
 11
66.89520560909351
 21
-11.50000748711914
 31
0.0
  0
LINE
  5
9D
330
72
100
AcDbEntity
  8
0
  6
Continuous
 62
     0
100
AcDbLine
 10
-23.99998591817383
 20
-14.50000741332759
 30
0.0
 11
-37.99997739387541
 21
5.499979785474434
 31
0.0
  0
LINE
  5
9E
330
72
100
AcDbEntity
  8
0
  6
CENTER
 62
     4
100
AcDbLine
 10
-27.5500302381809
 20
14.99998070299655
 30
0.0
 11
-18.45003011152104
 21
14.99998070299655
 31
0.0
  0
LINE
  5
9F
330
72
100
AcDbEntity
  8
0
  6
CENTER
 62
     4
100
AcDbLine
 10
-23.00003017485097
 20
19.54998076632648
 30
0.0
 11
-23.00003017485097
 21
10.44998063966661
 31
0.0
  0
LINE
  5
A0
330
72
100
AcDbEntity
  8
0
  6
Continuous
 62
     0
100
AcDbLine
 10
19.15994702926421
 20
33.92239092242917
 30
0.0
 11
21.99999227207363
 21
33.73691120569942
 31
0.0
  0
LINE
  5
A1
330
72
100
AcDbEntity
  8
0
  6
Continuous
 62
     0
100
AcDbLine
 10
14.61587065864642
 20
31.10259754891349
 30
0.0
 11
17.029038579019
 21
31.61113171872714
 31
0.0
  0
LINE
  5
A2
330
72
100
AcDbEntity
  8
0
  6
Continuous
 62
     0
100
AcDbLine
 10
17.02959590124275
 20
31.930132542241
 30
0.0
 11
17.02903914270747
 21
31.61113374239178
 31
0.0
  0
LINE
  5
A3
330
72
100
AcDbEntity
  8
0
  6
Continuous
 62
     0
100
AcDbLine
 10
63.49998379498745
 20
-13.20000628828993
 30
0.0
 11
63.49998379498745
 21
-11.49677915130884
 31
0.0
  0
LINE
  5
A4
330
72
100
AcDbEntity
  8
0
  6
Continuous
 62
     0
100
AcDbLine
 10
17.00000518570254
 20
-11.50001076692562
 30
0.0
 11
11.9999949473968
 21
-14.50001677088805
 31
0.0
  0
LINE
  5
A5
330
72
100
AcDbEntity
  8
0
  6
Continuous
 62
     0
100
AcDbLine
 10
66.99997325241605
 20
-14.50000741332758
 30
0.0
 11
81.99998733401318
 21
-14.50000741332758
 31
0.0
  0
LINE
  5
A6
330
72
100
AcDbEntity
  8
0
  6
Continuous
 62
     0
100
AcDbLine
 10
-23.99998591817381
 20
-14.50000741332758
 30
0.0
 11
12.000012218952
 21
-14.50000741332758
 31
0.0
  0
LINE
  5
A7
330
72
100
AcDbEntity
  8
0
  6
CENTER
 62
     4
100
AcDbLine
 10
9.859398424544338
 20
0.0
 30
0.0
 11
-9.859398424544338
 21
0.0
 31
0.0
  0
LINE
  5
A8
330
72
100
AcDbEntity
  8
0
  6
CENTER
 62
     4
100
AcDbLine
 10
0.0
 20
-10.27160664353158
 30
0.0
 11
0.0
 21
10.27160664353158
 31
0.0
  0
ARC
  5
A9
330
72
100
AcDbEntity
  8
0
  6
Continuous
 62
     0
100
AcDbCircle
 10
39.2306131239144
 20
28.46946673885783
 30
0.0
 40
4.833328353862042
100
AcDbArc
 50
55.04221323794998
 51
117.4845949321503
  0
ARC
  5
AA
330
72
100
AcDbEntity
  8
0
  6
Continuous
 62
     0
100
AcDbCircle
 10
49.23061297490279
 20
27.81639057671442
 30
0.0
 40
4.833328353862042
100
AcDbArc
 50
55.04221323794998
 51
117.4845949321503
  0
ARC
  5
AB
330
72
100
AcDbEntity
  8
0
  6
Continuous
 62
     0
100
AcDbCircle
 10
29.23061327292601
 20
29.12256197448728
 30
0.0
 40
4.833328353862042
100
AcDbArc
 50
55.04221323794998
 51
117.4845949321503
  0
ARC
  5
AC
330
72
100
AcDbEntity
  8
0
  6
Continuous
 62
     0
100
AcDbCircle
 10
24.23061334743182
 20
29.44910005555898
 30
0.0
 40
4.833328353862042
100
AcDbArc
 50
55.04221323794998
 51
117.4845949321503
  0
ARC
  5
AD
330
72
100
AcDbEntity
  8
0
  6
Continuous
 62
     0
100
AcDbCircle
 10
74.23061260237378
 20
26.18368109786986
 30
0.0
 40
4.833314942817167
100
AcDbArc
 50
55.0421176153016
 51
117.4846905547986
  0
ARC
  5
AE
330
72
100
AcDbEntity
  8
0
  6
Continuous
 62
     0
100
AcDbCircle
 10
54.23061290039698
 20
27.48987156912876
 30
0.0
 40
4.833300041656195
100
AcDbArc
 50
55.04201174736946
 51
117.4847998378254
  0
ARC
  5
AF
330
72
100
AcDbEntity
  8
0
  6
Continuous
 62
     0
100
AcDbCircle
 10
44.2306130494086
 20
28.14294773127217
 30
0.0
 40
4.833314942817167
100
AcDbArc
 50
55.04206297378823
 51
117.484704215177
  0
ARC
  5
B0
330
72
100
AcDbEntity
  8
0
  6
Continuous
 62
     0
100
AcDbCircle
 10
34.23061319842021
 20
28.79600481992953
 30
0.0
 40
4.833328353862042
100
AcDbArc
 50
55.04219274738247
 51
117.4846359132853
  0
ARC
  5
B1
330
72
100
AcDbEntity
  8
0
  6
Continuous
 62
     0
100
AcDbCircle
 10
59.23061282589118
 20
27.16329534108497
 30
0.0
 40
4.833328353862042
100
AcDbArc
 50
55.04221323794998
 51
117.4845949321503
  0
ARC
  5
B2
330
72
100
AcDbEntity
  8
0
  6
Continuous
 62
     0
100
AcDbCircle
 10
64.2306127513854
 20
26.83675726001326
 30
0.0
 40
4.833328353862042
100
AcDbArc
 50
55.04221665304456
 51
117.4846085925286
  0
CIRCLE
  5
B3
330
72
100
AcDbEntity
  8
0
  6
Continuous
 62
     0
100
AcDbCircle
 10
0.0
 20
0.0
 30
0.0
 40
8.500000111758707
  0
ARC
  5
B4
330
72
100
AcDbEntity
  8
0
  6
Continuous
 62
     0
100
AcDbCircle
 10
79.0210712101896
 20
27.00654943277613
 30
0.0
 40
3.000000074505805
100
AcDbArc
 50
359.9000972909497
 51
86.26342457561763
  0
ARC
  5
B5
330
72
100
AcDbEntity
  8
0
  6
Continuous
 62
     0
100
AcDbCircle
 10
19.02957887903484
 20
31.9266505252324
 30
0.0
 40
2.0
100
AcDbArc
 50
86.26336993410426
 51
179.9000246998857
  0
CIRCLE
  5
B6
330
72
100
AcDbEntity
  8
0
  6
Continuous
 62
     0
100
AcDbCircle
 10
-23.00003017485097
 20
14.99998070299655
 30
0.0
 40
4.550000063329934
  0
ARC
  5
B7
330
72
100
AcDbEntity
  8
0
  6
Continuous
 62
     0
100
AcDbCircle
 10
72.02354323828902
 20
2.663955648780529
 30
0.0
 40
7.499999888241293
100
AcDbArc
 50
56.12893390093944
 51
96.8796217535143
  0
CIRCLE
  5
B8
330
72
100
AcDbEntity
  8
0
  6
Continuous
 62
     0
100
AcDbCircle
 10
-23.00003017485097
 20
14.99998070299655
 30
0.0
 40
4.0
  0
MTEXT
  5
B9
330
72
100
AcDbEntity
  8
0
 62
     0
100
AcDbMText
 10
-7.277083639212147
 20
25.21762666169378
 30
0.0
 40
0.5
 41
0.0
 71
     7
 72
     1
  1
{\W1;BN-4PA41-8}
 73
     1
 44
1.0
  0
ENDBLK
  5
74
330
72
100
AcDbEntity
  8
0
100
AcDbBlockEnd
  0
BLOCK
  5
76
330
75
100
AcDbEntity
  8
0
100
AcDbBlockBegin
  2
DTL0002
 70
     0
 10
0.0
 20
0.0
 30
0.0
  3
DTL0002
  1

  0
POINT
  5
BA
330
75
100
AcDbEntity
  8
0
 62
     0
100
AcDbPoint
 10
0.0
 20
0.0
 30
0.0
  0
LINE
  5
BB
330
75
100
AcDbEntity
  8
0
  6
Continuous
 62
     0
100
AcDbLine
 10
119.9686454185378
 20
-36.49999203732285
 30
0.0
 11
52.61552992402542
 21
-35.99999210281156
 31
0.0
  0
LINE
  5
BC
330
75
100
AcDbEntity
  8
0
  6
Continuous
 62
     0
100
AcDbLine
 10
70.00000627014515
 20
27.13546353855179
 30
0.0
 11
75.00001743967272
 21
24.24870569206171
 31
0.0
  0
LINE
  5
BD
330
75
100
AcDbEntity
  8
0
  6
Continuous
 62
     0
100
AcDbLine
 10
114.9999982863665
 20
1.154708845098185
 30
0.0
 11
114.9999982863665
 21
-16.74314473952137
 31
0.0
  0
LINE
  5
BE
330
75
100
AcDbEntity
  8
0
  6
Continuous
 62
     0
100
AcDbLine
 10
100.0000154738787
 20
9.814949838212357
 30
0.0
 11
105.000010125283
 21
6.928201528465422
 31
0.0
  0
LINE
  5
BF
330
75
100
AcDbEntity
  8
0
  6
Continuous
 62
     0
100
AcDbLine
 10
94.99999424337221
 20
15.01107930745609
 30
0.0
 11
100.000001283369
 21
12.12432384515181
 31
0.0
  0
LINE
  5
C0
330
75
100
AcDbEntity
  8
0
  6
Continuous
 62
     0
100
AcDbLine
 10
85.00000081103299
 20
20.78457831113574
 30
0.0
 11
89.99999546243718
 21
17.89783000138881
 31
0.0
  0
LINE
  5
C1
330
75
100
AcDbEntity
  8
0
  6
Continuous
 62
     0
100
AcDbLine
 10
74.99999499010123
 20
26.55808446737274
 30
0.0
 11
79.99998964150542
 21
23.67133615762581
 31
0.0
  0
LINE
  5
C2
330
75
100
AcDbEntity
  8
0
  6
Continuous
 62
     0
100
AcDbLine
 10
69.99999895691873
 20
34.99999947845936
 30
0.0
 11
69.99999895691873
 21
29.44486574165722
 31
0.0
  0
LINE
  5
C3
330
75
100
AcDbEntity
  8
0
  6
Continuous
 62
     0
100
AcDbLine
 10
59.99999910593034
 20
32.90897320346573
 30
0.0
 11
59.99999910593034
 21
22.89787258359979
 31
0.0
  0
LINE
  5
C4
330
75
100
AcDbEntity
  8
0
  6
Continuous
 62
     0
100
AcDbLine
 10
74.99999888241292
 20
34.99999947845936
 30
0.0
 11
74.99999888241292
 21
26.55811270239781
 31
0.0
  0
LINE
  5
C5
330
75
100
AcDbEntity
  8
0
  6
Continuous
 62
     0
100
AcDbLine
 10
84.99999873340131
 20
34.99999947845936
 30
0.0
 11
84.99999873340131
 21
20.78462569736502
 31
0.0
  0
LINE
  5
C6
330
75
100
AcDbEntity
  8
0
  6
Continuous
 62
     0
100
AcDbLine
 10
64.99999903142454
 20
30.02223923769236
 30
0.0
 11
64.99999903142454
 21
20.01111954434037
 31
0.0
  0
LINE
  5
C7
330
75
100
AcDbEntity
  8
0
  6
Continuous
 62
     0
100
AcDbLine
 10
94.9999985843897
 20
12.70172100213586
 30
0.0
 11
94.9999985843897
 21
-5.196151655969743
 31
0.0
  0
LINE
  5
C8
330
75
100
AcDbEntity
  8
0
  6
Continuous
 62
     0
100
AcDbLine
 10
104.9999984353781
 20
6.92821492361702
 30
0.0
 11
104.9999984353781
 21
-10.96964819774556
 31
0.0
  0
LINE
  5
C9
330
75
100
AcDbEntity
  8
0
  6
Continuous
 62
     0
100
AcDbLine
 10
99.99999850988391
 20
9.814967962876437
 30
0.0
 11
99.99999850988391
 21
-8.08290469522916
 31
0.0
  0
LINE
  5
CA
330
75
100
AcDbEntity
  8
0
  6
Continuous
 62
     0
100
AcDbLine
 10
109.9999983608723
 20
4.041461884357602
 30
0.0
 11
109.9999983608723
 21
-13.85640123700497
 31
0.0
  0
LINE
  5
CB
330
75
100
AcDbEntity
  8
0
  6
Continuous
 62
     0
100
AcDbLine
 10
89.9999986588955
 20
15.58847404139527
 30
0.0
 11
89.9999986588955
 21
-2.309379543224281
 31
0.0
  0
LINE
  5
CC
330
75
100
AcDbEntity
  8
0
  6
Continuous
 62
     0
100
AcDbLine
 10
75.00001470632347
 20
6.350852904861391
 30
0.0
 11
80.00002002533654
 21
11.35085822387445
 31
0.0
  0
LINE
  5
CD
330
75
100
AcDbEntity
  8
0
  6
Continuous
 62
     0
100
AcDbLine
 10
85.00002534434961
 20
-7.309392308181906
 30
0.0
 11
90.00003066336268
 21
-2.309386989168843
 31
0.0
  0
LINE
  5
CE
330
75
100
AcDbEntity
  8
0
  6
Continuous
 62
     0
100
AcDbLine
 10
95.00000226489743
 20
-13.0829237840108
 30
0.0
 11
100.0000075839105
 21
-8.082918464997732
 31
0.0
  0
LINE
  5
CF
330
75
100
AcDbEntity
  8
0
  6
Continuous
 62
     0
100
AcDbLine
 10
90.00001043287568
 20
-10.19615467434851
 30
0.0
 11
95.0000090083931
 21
-5.196156098831096
 31
0.0
  0
LINE
  5
D0
330
75
100
AcDbEntity
  8
0
  6
Continuous
 62
     0
100
AcDbLine
 10
100.0000345578931
 20
-15.96966591969044
 30
0.0
 11
105.0000331334106
 21
-10.96966734417302
 31
0.0
  0
LINE
  5
D1
330
75
100
AcDbEntity
  8
0
  6
Continuous
 62
     0
100
AcDbLine
 10
80.00003351232787
 20
3.464083795199087
 30
0.0
 11
85.00003208784528
 21
8.464082370716497
 31
0.0
  0
LINE
  5
D2
330
75
100
AcDbEntity
  8
0
  6
Continuous
 62
     0
100
AcDbLine
 10
110.0000153407066
 20
-31.75427614933314
 30
0.0
 11
104.9999993904499
 21
-28.86752658332452
 31
0.0
  0
LINE
  5
D3
330
75
100
AcDbEntity
  8
0
  6
Continuous
 62
     0
100
AcDbLine
 10
79.99999880790712
 20
21.36196104642806
 30
0.0
 11
79.99999880790712
 21
11.35086042656212
 31
0.0
  0
LINE
  5
D4
330
75
100
AcDbEntity
  8
0
  6
Continuous
 62
     0
100
AcDbLine
 10
74.99999888241292
 20
24.24871408568748
 30
0.0
 11
74.99999888241292
 21
14.23761346582154
 31
0.0
  0
LINE
  5
D5
330
75
100
AcDbEntity
  8
0
  6
Continuous
 62
     0
100
AcDbLine
 10
59.99999910593034
 20
15.01111961884618
 30
0.0
 11
59.99999910593034
 21
-2.886733965773374
 31
0.0
  0
LINE
  5
D6
330
75
100
AcDbEntity
  8
0
  6
Continuous
 62
     0
100
AcDbLine
 10
64.99999903142454
 20
12.12436657958676
 30
0.0
 11
64.99999903142454
 21
-5.773506078518835
 31
0.0
  0
LINE
  5
D7
330
75
100
AcDbEntity
  8
0
  6
Continuous
 62
     0
100
AcDbLine
 10
52.6155381222235
 20
35.9999930337388
 30
0.0
 11
119.9686726896964
 21
36.49999310983937
 31
0.0
  0
LINE
  5
D8
330
75
100
AcDbEntity
  8
0
  6
Continuous
 62
     0
100
AcDbLine
 10
119.9999982118607
 20
36.00002235174145
 30
0.0
 11
119.9999982118607
 21
-36.00000327825535
 31
0.0
  0
LINE
  5
D9
330
75
100
AcDbEntity
  8
0
  6
Continuous
 62
     0
100
AcDbLine
 10
69.99999895691873
 20
9.237613540327345
 30
0.0
 11
69.99999895691873
 21
-8.660249581035231
 31
0.0
  0
LINE
  5
DA
330
75
100
AcDbEntity
  8
0
  6
Continuous
 62
     0
100
AcDbLine
 10
74.99999888241292
 20
6.350860501067928
 30
0.0
 11
74.99999888241292
 21
-11.54699308355163
 31
0.0
  0
LINE
  5
DB
330
75
100
AcDbEntity
  8
0
  6
Continuous
 62
     0
100
AcDbLine
 10
3.000025704502676
 20
39.99999940395358
 30
0.0
 11
116.0000116229056
 21
39.99999940395358
 31
0.0
  0
LINE
  5
DC
330
75
100
AcDbEntity
  8
0
  6
Continuous
 62
     0
100
AcDbLine
 10
52.61550824917096
 20
36.00002235174145
 30
0.0
 11
52.61550824917096
 21
-36.00000327825541
 31
0.0
  0
LINE
  5
DD
330
75
100
AcDbEntity
  8
0
  6
Continuous
 62
     0
100
AcDbLine
 10
52.00000685453405
 20
39.99999940395358
 30
0.0
 11
52.00000685453405
 21
-39.99999940395355
 31
0.0
  0
LINE
  5
DE
330
75
100
AcDbEntity
  8
0
  6
Continuous
 62
     0
100
AcDbLine
 10
115.0000277121618
 20
1.154735387920901
 30
0.0
 11
110.0000320576052
 21
4.041481960156247
 31
0.0
  0
LINE
  5
DF
330
75
100
AcDbEntity
  8
0
  6
Continuous
 62
     0
100
AcDbLine
 10
65.00000414937135
 20
-8.08292543552454
 30
0.0
 11
60.00000949796716
 21
-5.196177125777613
 31
0.0
  0
LINE
  5
E0
330
75
100
AcDbEntity
  8
0
  6
Continuous
 62
     0
100
AcDbLine
 10
65.00002510656398
 20
32.33161276907164
 30
0.0
 11
70.00001049575513
 21
29.44486749018791
 31
0.0
  0
LINE
  5
E1
330
75
100
AcDbEntity
  8
0
  6
Continuous
 62
     0
100
AcDbLine
 10
65.00000171381944
 20
30.02218236560072
 30
0.0
 11
60.00000883367832
 21
32.90893374326304
 31
0.0
  0
LINE
  5
E2
330
75
100
AcDbEntity
  8
0
  6
Continuous
 62
     0
100
AcDbLine
 10
60.00001074730662
 20
-2.886774467488529
 30
0.0
 11
55.00001709905543
 21
-0.000024420230353
 31
0.0
  0
LINE
  5
E3
330
75
100
AcDbEntity
  8
0
  6
Continuous
 62
     0
100
AcDbLine
 10
69.99999880077554
 20
-10.96967374527146
 30
0.0
 11
74.99999345217974
 21
-13.85642205501839
 31
0.0
  0
LINE
  5
E4
330
75
100
AcDbEntity
  8
0
  6
Continuous
 62
     0
100
AcDbLine
 10
54.99999918043615
 20
34.99999947845939
 30
0.0
 11
54.99999918043615
 21
-34.99999947845936
 31
0.0
  0
LINE
  5
E5
330
75
100
AcDbEntity
  8
0
  6
Continuous
 62
     0
100
AcDbLine
 10
3.000025704502676
 20
-39.99999940395355
 30
0.0
 11
116.0000116229056
 21
-39.99999940395355
 31
0.0
  0
LINE
  5
E6
330
75
100
AcDbEntity
  8
0
  6
Continuous
 62
     0
100
AcDbLine
 10
57.49999914318325
 20
36.03625312612905
 30
0.0
 11
57.49999914318325
 21
34.99999947845936
 31
0.0
  0
LINE
  5
E7
330
75
100
AcDbEntity
  8
0
  6
Continuous
 62
     0
100
AcDbLine
 10
109.9999983608723
 20
34.99999947845936
 30
0.0
 11
109.9999983608723
 21
6.350860501067928
 31
0.0
  0
LINE
  5
E8
330
75
100
AcDbEntity
  8
0
  6
Continuous
 62
     0
100
AcDbLine
 10
0.0
 20
37.00000707805145
 30
0.0
 11
0.0
 21
-36.9999975413084
 31
0.0
  0
LINE
  5
E9
330
75
100
AcDbEntity
  8
0
  6
Continuous
 62
     0
100
AcDbLine
 10
84.99999873340131
 20
-7.309389005461497
 30
0.0
 11
84.99999873340131
 21
-17.32049916207046
 31
0.0
  0
LINE
  5
EA
330
75
100
AcDbEntity
  8
0
  6
Continuous
 62
     0
100
AcDbLine
 10
89.9999986588955
 20
-10.19615158146394
 30
0.0
 11
89.9999986588955
 21
-20.20724266458686
 31
0.0
  0
LINE
  5
EB
330
75
100
AcDbEntity
  8
0
  6
Continuous
 62
     0
100
AcDbLine
 10
79.99999880790712
 20
3.46410746180851
 30
0.0
 11
79.99999880790712
 21
-14.43374612281104
 31
0.0
  0
LINE
  5
EC
330
75
100
AcDbEntity
  8
0
  6
Continuous
 62
     0
100
AcDbLine
 10
99.99999850988391
 20
-15.96964812323975
 30
0.0
 11
99.99999850988391
 21
-25.98075827984871
 31
0.0
  0
LINE
  5
ED
330
75
100
AcDbEntity
  8
0
  6
Continuous
 62
     0
100
AcDbLine
 10
109.9999983608723
 20
-21.74314466501556
 30
0.0
 11
109.9999983608723
 21
-31.75425482162453
 31
0.0
  0
LINE
  5
EE
330
75
100
AcDbEntity
  8
0
  6
Continuous
 62
     0
100
AcDbLine
 10
94.9999985843897
 20
-13.08290462072335
 30
0.0
 11
94.9999985843897
 21
-23.09399570384628
 31
0.0
  0
LINE
  5
EF
330
75
100
AcDbEntity
  8
0
  6
Continuous
 62
     0
100
AcDbLine
 10
80.00001209107691
 20
21.36195738231479
 30
0.0
 11
85.0000067424811
 21
18.47520907256786
 31
0.0
  0
LINE
  5
F0
330
75
100
AcDbEntity
  8
0
  6
Continuous
 62
     0
100
AcDbLine
 10
105.000000064304
 20
9.237573151219088
 30
0.0
 11
110.0000029747699
 21
6.350820073100586
 31
0.0
  0
LINE
  5
F1
330
75
100
AcDbEntity
  8
0
  6
Continuous
 62
     0
100
AcDbLine
 10
79.99999880790712
 20
-16.74314473952137
 30
0.0
 11
79.99999880790712
 21
-34.99999947845936
 31
0.0
  0
LINE
  5
F2
330
75
100
AcDbEntity
  8
0
  6
Continuous
 62
     0
100
AcDbLine
 10
64.99997948679109
 20
-5.773512346285241
 30
0.0
 11
69.99997413819528
 21
-8.660260656032168
 31
0.0
  0
LINE
  5
F3
330
75
100
AcDbEntity
  8
0
  6
Continuous
 62
     0
100
AcDbLine
 10
79.99999223311475
 20
-16.7431727489511
 30
0.0
 11
85.00000340264232
 21
-19.62993059544118
 31
0.0
  0
LINE
  5
F4
330
75
100
AcDbEntity
  8
0
  6
Continuous
 62
     0
100
AcDbLine
 10
74.99999888241292
 20
-13.85640123700497
 30
0.0
 11
74.99999888241292
 21
-34.99999947845936
 31
0.0
  0
LINE
  5
F5
330
75
100
AcDbEntity
  8
0
  6
Continuous
 62
     0
100
AcDbLine
 10
99.99999850988391
 20
-28.29015689655904
 30
0.0
 11
99.99999850988391
 21
-34.99999947845936
 31
0.0
  0
LINE
  5
F6
330
75
100
AcDbEntity
  8
0
  6
Continuous
 62
     0
100
AcDbLine
 10
89.9999986588955
 20
-22.5166508180402
 30
0.0
 11
89.9999986588955
 21
-34.99999947845936
 31
0.0
  0
LINE
  5
F7
330
75
100
AcDbEntity
  8
0
  6
Continuous
 62
     0
100
AcDbLine
 10
84.99999873340131
 20
-19.62989777878079
 30
0.0
 11
84.99999873340131
 21
-34.99999947845936
 31
0.0
  0
LINE
  5
F8
330
75
100
AcDbEntity
  8
0
  6
Continuous
 62
     0
100
AcDbLine
 10
94.9999985843897
 20
-25.4033943205566
 30
0.0
 11
94.9999985843897
 21
-34.99999947845936
 31
0.0
  0
LINE
  5
F9
330
75
100
AcDbEntity
  8
0
  6
Continuous
 62
     0
100
AcDbLine
 10
104.9999984353781
 20
-31.17690993581846
 30
0.0
 11
104.9999984353781
 21
-34.99999947845936
 31
0.0
  0
LINE
  5
FA
330
75
100
AcDbEntity
  8
0
  6
Continuous
 62
     0
100
AcDbLine
 10
55.00001366075821
 20
17.89784167806686
 30
0.0
 11
60.0000189797713
 21
22.89784699707995
 31
0.0
  0
LINE
  5
FB
330
75
100
AcDbEntity
  8
0
  6
Continuous
 62
     0
100
AcDbLine
 10
94.9999985843897
 20
34.99999947845936
 30
0.0
 11
94.9999985843897
 21
15.01111961884618
 31
0.0
  0
LINE
  5
FC
330
75
100
AcDbEntity
  8
0
  6
Continuous
 62
     0
100
AcDbLine
 10
52.61551063335671
 20
-34.99999947845936
 30
0.0
 11
117.0000058859586
 21
-34.99999947845936
 31
0.0
  0
LINE
  5
FD
330
75
100
AcDbEntity
  8
0
  6
Continuous
 62
     0
100
AcDbLine
 10
84.99997461053124
 20
-17.3205151220161
 30
0.0
 11
89.99998990958966
 21
-20.20727535269197
 31
0.0
  0
LINE
  5
FE
330
75
100
AcDbEntity
  8
0
  6
Continuous
 62
     0
100
AcDbLine
 10
90.00000218357738
 20
-22.5166812893739
 30
0.0
 11
95.0000009645124
 21
-25.4034319833066
 31
0.0
  0
LINE
  5
FF
330
75
100
AcDbEntity
  8
0
  6
Continuous
 62
     0
100
AcDbLine
 10
74.99998117819202
 20
-11.54701611833647
 30
0.0
 11
79.99997995912705
 21
-14.43376681226917
 31
0.0
  0
LINE
  5
100
330
75
100
AcDbEntity
  8
0
  6
Continuous
 62
     0
100
AcDbLine
 10
100.00001213404
 20
-28.29018982979668
 30
0.0
 11
105.0000067854442
 21
-31.17693813954361
 31
0.0
  0
LINE
  5
101
330
75
100
AcDbEntity
  8
0
  6
Continuous
 62
     0
100
AcDbLine
 10
94.99998456099385
 20
-23.0940236624389
 30
0.0
 11
99.99998334192888
 21
-25.9807743563716
 31
0.0
  0
LINE
  5
102
330
75
100
AcDbEntity
  8
0
  6
Continuous
 62
     0
100
AcDbLine
 10
60.00000549277996
 20
15.0110995423872
 30
0.0
 11
65.00000406829739
 21
20.01109811790461
 31
0.0
  0
LINE
  5
103
330
75
100
AcDbEntity
  8
0
  6
Continuous
 62
     0
100
AcDbLine
 10
65.0000242987843
 20
12.124330432725
 30
0.0
 11
70.0000296177974
 21
17.12433575173808
 31
0.0
  0
LINE
  5
104
330
75
100
AcDbEntity
  8
0
  6
Continuous
 62
     0
100
AcDbLine
 10
70.00002287430175
 20
9.237595040540999
 30
0.0
 11
75.00002144981914
 21
14.2375936160584
 31
0.0
  0
LINE
  5
105
330
75
100
AcDbEntity
  8
0
  6
Continuous
 62
     0
100
AcDbLine
 10
89.9999986588955
 20
34.99999947845936
 30
0.0
 11
89.9999986588955
 21
17.8978726581056
 31
0.0
  0
LINE
  5
106
330
75
100
AcDbEntity
  8
0
  6
Continuous
 62
     0
100
AcDbLine
 10
99.99999850988391
 20
34.99999947845936
 30
0.0
 11
99.99999850988391
 21
12.12436657958676
 31
0.0
  0
LINE
  5
107
330
75
100
AcDbEntity
  8
0
  6
Continuous
 62
     0
100
AcDbLine
 10
59.99999910593034
 20
-5.196132582483699
 30
0.0
 11
59.99999910593034
 21
-34.99999947845936
 31
0.0
  0
LINE
  5
108
330
75
100
AcDbEntity
  8
0
  6
Continuous
 62
     0
100
AcDbLine
 10
104.9999984353781
 20
34.99999947845936
 30
0.0
 11
104.9999984353781
 21
9.237613540327345
 31
0.0
  0
LINE
  5
109
330
75
100
AcDbEntity
  8
0
  6
Continuous
 62
     0
100
AcDbLine
 10
64.99999903142454
 20
-8.08290469522916
 30
0.0
 11
64.99999903142454
 21
-34.99999947845936
 31
0.0
  0
LINE
  5
10A
330
75
100
AcDbEntity
  8
0
  6
Continuous
 62
     0
100
AcDbLine
 10
69.99999895691873
 20
-10.96964819774556
 30
0.0
 11
69.99999895691873
 21
-34.99999947845936
 31
0.0
  0
LINE
  5
10B
330
75
100
AcDbEntity
  8
0
  6
Continuous
 62
     0
100
AcDbLine
 10
105.0000263899149
 20
-18.85640805537005
 30
0.0
 11
110.0000249654323
 21
-13.85640947985267
 31
0.0
  0
LINE
  5
10C
330
75
100
AcDbEntity
  8
0
  6
Continuous
 62
     0
100
AcDbLine
 10
79.99999880790712
 20
34.99999947845936
 30
0.0
 11
79.99999880790712
 21
23.67137873662443
 31
0.0
  0
LINE
  5
10D
330
75
100
AcDbEntity
  8
0
  6
Continuous
 62
     0
100
AcDbLine
 10
64.99999903142454
 20
34.99999947845936
 30
0.0
 11
64.99999903142454
 21
32.33161878091664
 31
0.0
  0
LINE
  5
10E
330
75
100
AcDbEntity
  8
0
  6
Continuous
 62
     0
100
AcDbLine
 10
52.61551063335671
 20
34.99999947845939
 30
0.0
 11
117.0068243581738
 21
34.99999947845939
 31
0.0
  0
LINE
  5
10F
330
75
100
AcDbEntity
  8
0
  6
CENTER
 62
     4
100
AcDbLine
 10
-7.131099594666068
 20
0.0
 30
0.0
 11
125.6441288345437
 21
0.0
 31
0.0
  0
LINE
  5
110
330
75
100
AcDbEntity
  8
0
  6
Continuous
 62
     0
100
AcDbLine
 10
5.000009462237216
 20
-34.99999947845936
 30
0.0
 11
10.00000938773141
 21
-34.99999947845936
 31
0.0
  0
LINE
  5
111
330
75
100
AcDbEntity
  8
0
  6
Continuous
 62
     0
100
AcDbLine
 10
104.9999984353781
 20
-18.85640116249917
 30
0.0
 11
104.9999984353781
 21
-28.86751131910813
 31
0.0
  0
LINE
  5
112
330
75
100
AcDbEntity
  8
0
  6
Continuous
 62
     0
100
AcDbLine
 10
110.0000182219366
 20
-21.74316367804101
 30
0.0
 11
115.000016797454
 21
-16.74316510252361
 31
0.0
  0
LINE
  5
113
330
75
100
AcDbEntity
  8
0
  6
Continuous
 62
     0
100
AcDbLine
 10
4.999999925494194
 20
-18.0000016391277
 30
0.0
 11
4.999999925494194
 21
-34.99999947845936
 31
0.0
  0
LINE
  5
114
330
75
100
AcDbEntity
  8
0
  6
Continuous
 62
     0
100
AcDbLine
 10
5.000009462237216
 20
-17.99999210238468
 30
0.0
 11
10.00000938773141
 21
-17.99999210238468
 31
0.0
  0
LINE
  5
115
330
75
100
AcDbEntity
  8
0
  6
Continuous
 62
     0
100
AcDbLine
 10
57.49999914318325
 20
-34.99999947845936
 30
0.0
 11
57.49999914318325
 21
-36.03625243848185
 31
0.0
  0
LINE
  5
116
330
75
100
AcDbEntity
  8
0
  6
Continuous
 62
     0
100
AcDbLine
 10
9.999999850988388
 20
-18.0000016391277
 30
0.0
 11
9.999999850988388
 21
-34.99999947845936
 31
0.0
  0
LINE
  5
117
330
75
100
AcDbEntity
  8
0
  6
Continuous
 62
     0
100
AcDbLine
 10
84.99999873340131
 20
18.47522708065469
 30
0.0
 11
84.99999873340131
 21
8.464107387302704
 31
0.0
  0
LINE
  5
118
330
75
100
AcDbEntity
  8
0
  6
Continuous
 62
     0
100
AcDbLine
 10
69.99999895691873
 20
27.1354671249469
 30
0.0
 11
69.99999895691873
 21
17.12436650508096
 31
0.0
  0
LINE
  5
119
330
75
100
AcDbEntity
  8
0
  6
Continuous
 62
     0
100
AcDbLine
 10
90.00000965294699
 20
15.58845599444936
 30
0.0
 11
95.00001256341287
 21
12.70170291633086
 31
0.0
  0
ARC
  5
11A
330
75
100
AcDbEntity
  8
0
  6
Continuous
 62
     0
100
AcDbCircle
 10
117.0000058859586
 20
32.00000715255729
 30
0.0
 40
3.000000074505805
100
AcDbArc
 50
0.0
 51
89.99998201391067
  0
ARC
  5
11B
330
75
100
AcDbEntity
  8
0
  6
Continuous
 62
     0
100
AcDbCircle
 10
117.0000058859586
 20
-31.99998807907122
 30
0.0
 40
3.000000074505805
100
AcDbArc
 50
270.0
 51
0.0
  0
ARC
  5
11C
330
75
100
AcDbEntity
  8
0
  6
Continuous
 62
     0
100
AcDbCircle
 10
116.0000211596486
 20
36.00002235174148
 30
0.0
 40
4.0
100
AcDbArc
 50
0.0
 51
89.99998201391067
  0
ARC
  5
11D
330
75
100
AcDbEntity
  8
0
  6
Continuous
 62
     0
100
AcDbCircle
 10
3.000030472874187
 20
-36.99998800456541
 30
0.0
 40
3.000000968575463
100
AcDbArc
 50
180.0000359721787
 51
270.0000179860893
  0
ARC
  5
11E
330
75
100
AcDbEntity
  8
0
  6
Continuous
 62
     0
100
AcDbCircle
 10
116.0000211596486
 20
-36.00000327825541
 30
0.0
 40
4.0
100
AcDbArc
 50
270.0000179860893
 51
0.0
  0
ARC
  5
11F
330
75
100
AcDbEntity
  8
0
  6
Continuous
 62
     0
100
AcDbCircle
 10
3.000030472874187
 20
37.00000707805148
 30
0.0
 40
3.000000968575463
100
AcDbArc
 50
89.99998201391067
 51
180.0000186693347
  0
MTEXT
  5
120
330
75
100
AcDbEntity
  8
0
 62
     0
100
AcDbMText
 10
18.52155859674205
 20
32.60881225480003
 30
0.0
 40
0.5
 41
0.0
 71
     7
 72
     1
  1
{\W1;BN-4PA41-8}
 73
     1
 44
1.0
  0
ENDBLK
  5
77
330
75
100
AcDbEntity
  8
0
100
AcDbBlockEnd
  0
BLOCK
  5
79
330
78
100
AcDbEntity
  8
0
100
AcDbBlockBegin
  2
DTL0003
 70
     0
 10
0.0
 20
0.0
 30
0.0
  3
DTL0003
  1

  0
POINT
  5
121
330
78
100
AcDbEntity
  8
0
 62
     0
100
AcDbPoint
 10
0.0
 20
0.0
 30
0.0
  0
LINE
  5
122
330
78
100
AcDbEntity
  8
0
  6
Continuous
 62
     0
100
AcDbLine
 10
42.2499841116371
 20
-18.10000392645591
 30
0.0
 11
42.2499841116371
 21
-19.80000466406338
 31
0.0
  0
LINE
  5
123
330
78
100
AcDbEntity
  8
0
  6
Continuous
 62
     0
100
AcDbLine
 10
47.7499764002863
 20
-18.10000392645591
 30
0.0
 11
47.7499764002863
 21
-19.80000466406338
 31
0.0
  0
LINE
  5
124
330
78
100
AcDbEntity
  8
0
  6
Continuous
 62
     0
100
AcDbLine
 10
42.2499841116371
 20
-18.80000086426733
 30
0.0
 11
47.7499764002863
 21
-18.80000086426733
 31
0.0
  0
LINE
  5
125
330
78
100
AcDbEntity
  8
0
  6
CENTER
 62
     4
100
AcDbLine
 10
44.99999932944775
 20
-18.10000392645591
 30
0.0
 11
44.99999932944775
 21
-21.89898681791146
 31
0.0
  0
LINE
  5
126
330
78
100
AcDbEntity
  8
0
  6
CENTER
 62
     4
100
AcDbLine
 10
34.99999947845936
 20
-18.10000392645591
 30
0.0
 11
34.99999947845936
 21
-21.89898681791146
 31
0.0
  0
LINE
  5
127
330
78
100
AcDbEntity
  8
0
  6
Continuous
 62
     0
100
AcDbLine
 10
32.24998426064872
 20
-18.80000086426733
 30
0.0
 11
37.74997654929791
 21
-18.80000086426733
 31
0.0
  0
LINE
  5
128
330
78
100
AcDbEntity
  8
0
  6
Continuous
 62
     0
100
AcDbLine
 10
37.74997654929791
 20
-18.10000392645591
 30
0.0
 11
37.74997654929791
 21
-19.80000466406338
 31
0.0
  0
LINE
  5
129
330
78
100
AcDbEntity
  8
0
  6
Continuous
 62
     0
100
AcDbLine
 10
32.24998426064872
 20
-18.10000392645591
 30
0.0
 11
32.24998426064872
 21
-19.80000466406338
 31
0.0
  0
LINE
  5
12A
330
78
100
AcDbEntity
  8
0
  6
Continuous
 62
     0
100
AcDbLine
 10
45.50006798654692
 20
9.999999850988395
 30
0.0
 11
29.99999955296516
 21
9.999999850988395
 31
0.0
  0
LINE
  5
12B
330
78
100
AcDbEntity
  8
0
  6
Continuous
 62
     0
100
AcDbLine
 10
-7.750015143304864
 20
-18.10000392645591
 30
0.0
 11
-7.750015143304864
 21
-19.80000466406338
 31
0.0
  0
LINE
  5
12C
330
78
100
AcDbEntity
  8
0
  6
Continuous
 62
     0
100
AcDbLine
 10
-2.250022854655668
 20
-18.10000392645591
 30
0.0
 11
-2.250022854655668
 21
-19.80000466406338
 31
0.0
  0
LINE
  5
12D
330
78
100
AcDbEntity
  8
0
  6
Continuous
 62
     0
100
AcDbLine
 10
48.99997638165985
 20
-0.100002287328209
 30
0.0
 11
57.06815634566311
 21
-0.100002287328209
 31
0.0
  0
LINE
  5
12E
330
78
100
AcDbEntity
  8
0
  6
Continuous
 62
     0
100
AcDbLine
 10
48.99997638165985
 20
3.000075772403548
 30
0.0
 11
48.99997638165985
 21
-3.100013686716352
 31
0.0
  0
LINE
  5
12F
330
78
100
AcDbEntity
  8
0
  6
Continuous
 62
     0
100
AcDbLine
 10
57.74998864391615
 20
-18.10001620686791
 30
0.0
 11
57.06817010942154
 21
-0.100006842527527
 31
0.0
  0
LINE
  5
130
330
78
100
AcDbEntity
  8
0
  6
CENTER
 62
     4
100
AcDbLine
 10
51.50001449137903
 20
-10.10000780075777
 30
0.0
 11
51.50001449137903
 21
-13.10000787526357
 31
0.0
  0
LINE
  5
131
330
78
100
AcDbEntity
  8
0
  6
CENTER
 62
     4
100
AcDbLine
 10
50.00001445412613
 20
-11.60000783801067
 30
0.0
 11
53.00001452863194
 21
-11.60000783801067
 31
0.0
  0
LINE
  5
132
330
78
100
AcDbEntity
  8
0
  6
Continuous
 62
     0
100
AcDbLine
 10
-9.000015124678384
 20
-0.100002287328209
 30
0.0
 11
-17.06819508868165
 21
-0.100002287328209
 31
0.0
  0
LINE
  5
133
330
78
100
AcDbEntity
  8
0
  6
Continuous
 62
     0
100
AcDbLine
 10
-9.000015124678413
 20
3.00008530914657
 30
0.0
 11
-9.000015124678413
 21
-3.100006534159078
 31
0.0
  0
LINE
  5
134
330
78
100
AcDbEntity
  8
0
  6
Continuous
 62
     0
100
AcDbLine
 10
41.00002227723564
 20
-11.10000593811264
 30
0.0
 11
-1.000022873282091
 21
-11.10000593811264
 31
0.0
  0
LINE
  5
135
330
78
100
AcDbEntity
  8
0
  6
Continuous
 62
     0
100
AcDbLine
 10
-17.75008197255891
 20
-18.10001492801499
 30
0.0
 11
-17.06826346062563
 21
-0.100006159293903
 31
0.0
  0
LINE
  5
136
330
78
100
AcDbEntity
  8
0
  6
Continuous
 62
     0
100
AcDbLine
 10
57.26540480158619
 20
0.0
 30
0.0
 11
50.49998208135392
 21
0.0
 31
0.0
  0
LINE
  5
137
330
78
100
AcDbEntity
  8
0
  6
Continuous
 62
     0
100
AcDbLine
 10
44.99999932944775
 20
13.99999120831503
 30
0.0
 11
44.99999932944775
 21
10.99999172985567
 31
0.0
  0
LINE
  5
138
330
78
100
AcDbEntity
  8
0
  6
Continuous
 62
     0
100
AcDbLine
 10
45.00001306983299
 20
11.00004241208499
 30
0.0
 11
50.50001312194075
 21
0.000042307869467
 31
0.0
  0
LINE
  5
139
330
78
100
AcDbEntity
  8
0
  6
Continuous
 62
     0
100
AcDbLine
 10
59.9999802580441
 20
-20.99998783742851
 30
0.0
 11
58.82530779566293
 21
24.5773043144029
 31
0.0
  0
LINE
  5
13A
330
78
100
AcDbEntity
  8
0
  6
Continuous
 62
     0
100
AcDbLine
 10
-5.000018998980238
 20
13.99999597668654
 30
0.0
 11
44.9999802559617
 21
13.99999597668654
 31
0.0
  0
LINE
  5
13B
330
78
100
AcDbEntity
  8
0
  6
Continuous
 62
     0
100
AcDbLine
 10
12.99999217689049
 20
10.99999172985567
 30
0.0
 11
12.99999217689049
 21
6.499998472631002
 31
0.0
  0
LINE
  5
13C
330
78
100
AcDbEntity
  8
0
  6
Continuous
 62
     0
100
AcDbLine
 10
29.99999955296516
 20
6.499996088445251
 30
0.0
 11
26.99996908009098
 21
6.499996088445251
 31
0.0
  0
LINE
  5
13D
330
78
100
AcDbEntity
  8
0
  6
Continuous
 62
     0
100
AcDbLine
 10
12.99997310340444
 20
6.499996088445251
 30
0.0
 11
9.999999850988388
 21
6.499996088445251
 31
0.0
  0
LINE
  5
13E
330
78
100
AcDbEntity
  8
0
  6
Continuous
 62
     0
100
AcDbLine
 10
26.99996908009098
 20
10.99999888241293
 30
0.0
 11
26.99996908009098
 21
6.499998472631002
 31
0.0
  0
LINE
  5
13F
330
78
100
AcDbEntity
  8
0
  6
Continuous
 62
     0
100
AcDbLine
 10
9.999999850988388
 20
10.99999888241293
 30
0.0
 11
9.999999850988388
 21
-11.10000593811264
 31
0.0
  0
LINE
  5
140
330
78
100
AcDbEntity
  8
0
  6
Continuous
 62
     0
100
AcDbLine
 10
-5.500068582593372
 20
9.999999850988395
 30
0.0
 11
9.999999850988388
 21
9.999999850988395
 31
0.0
  0
LINE
  5
141
330
78
100
AcDbEntity
  8
0
  6
Continuous
 62
     0
100
AcDbLine
 10
-17.26545308134774
 20
0.0
 30
0.0
 11
-10.50001128762943
 21
0.0
 31
0.0
  0
LINE
  5
142
330
78
100
AcDbEntity
  8
0
  6
Continuous
 62
     0
100
AcDbLine
 10
-20.0000355543126
 20
-21.00000056101882
 30
0.0
 11
-18.82536303050374
 21
24.57729397420688
 31
0.0
  0
LINE
  5
143
330
78
100
AcDbEntity
  8
0
  6
Continuous
 62
     0
100
AcDbLine
 10
-5.000018998980238
 20
10.9999845772984
 30
0.0
 11
44.9999802559617
 21
10.9999845772984
 31
0.0
  0
LINE
  5
144
330
78
100
AcDbEntity
  8
0
  6
Continuous
 62
     0
100
AcDbLine
 10
-16.07078528298757
 20
18.01492664195707
 30
0.0
 11
56.07074653996904
 21
18.01492664195707
 31
0.0
  0
LINE
  5
145
330
78
100
AcDbEntity
  8
0
  6
Continuous
 62
     0
100
AcDbLine
 10
59.99998003244428
 20
-21.00000350177282
 30
0.0
 11
50.2499763630334
 21
-21.00000350177282
 31
0.0
  0
LINE
  5
146
330
78
100
AcDbEntity
  8
0
  6
CENTER
 62
     4
100
AcDbLine
 10
47.49997634440695
 20
9.999999850988395
 30
0.0
 11
55.49997634440695
 21
9.999999850988395
 31
0.0
  0
LINE
  5
147
330
78
100
AcDbEntity
  8
0
  6
CENTER
 62
     4
100
AcDbLine
 10
51.49997634440695
 20
13.9999998509884
 30
0.0
 11
51.49997634440695
 21
5.999999850988395
 31
0.0
  0
LINE
  5
148
330
78
100
AcDbEntity
  8
0
  6
Continuous
 62
     0
100
AcDbLine
 10
53.12633686561387
 20
8.373681874558645
 30
0.0
 11
49.87365219438044
 21
11.62636654579206
 31
0.0
  0
LINE
  5
149
330
78
100
AcDbEntity
  8
0
  6
Continuous
 62
     0
100
AcDbLine
 10
49.87369265535443
 20
8.37369536154996
 30
0.0
 11
53.12636721134434
 21
11.62636991753988
 31
0.0
  0
LINE
  5
14A
330
78
100
AcDbEntity
  8
0
  6
CENTER
 62
     4
100
AcDbLine
 10
19.99999970197678
 20
29.66216043141245
 30
0.0
 11
19.99999970197678
 21
-20.48085897444398
 31
0.0
  0
LINE
  5
14B
330
78
100
AcDbEntity
  8
0
  6
Continuous
 62
     0
100
AcDbLine
 10
-20.00001877546282
 20
-21.00000350177282
 30
0.0
 11
-10.25001510605196
 21
-21.00000350177282
 31
0.0
  0
LINE
  5
14C
330
78
100
AcDbEntity
  8
0
  6
Continuous
 62
     0
100
AcDbLine
 10
-15.82633948584885
 20
27.49999959021808
 30
0.0
 11
55.82630074283031
 21
27.49999959021808
 31
0.0
  0
LINE
  5
14D
330
78
100
AcDbEntity
  8
0
  6
Continuous
 62
     0
100
AcDbLine
 10
-10.25001510605196
 20
-18.09999349564323
 30
0.0
 11
-10.25001510605196
 21
-21.00000350177282
 31
0.0
  0
LINE
  5
14E
330
78
100
AcDbEntity
  8
0
  6
Continuous
 62
     0
100
AcDbLine
 10
-18.00122729057306
 20
-21.06980846409956
 30
0.0
 11
-17.26545371741089
 21
-0.00000907870101
 31
0.0
  0
LINE
  5
14F
330
78
100
AcDbEntity
  8
0
  6
Continuous
 62
     0
100
AcDbLine
 10
-7.750015143304864
 20
-18.80000086426733
 30
0.0
 11
-2.250022854655668
 21
-18.80000086426733
 31
0.0
  0
LINE
  5
150
330
78
100
AcDbEntity
  8
0
  6
Continuous
 62
     0
100
AcDbLine
 10
-13.12633660063449
 20
8.373668387567273
 30
0.0
 11
-9.873651929401062
 21
11.6263530588007
 31
0.0
  0
LINE
  5
151
330
78
100
AcDbEntity
  8
0
  6
CENTER
 62
     4
100
AcDbLine
 10
-4.999999925494222
 20
-18.10000392645591
 30
0.0
 11
-4.999999925494222
 21
-21.89898681791146
 31
0.0
  0
LINE
  5
152
330
78
100
AcDbEntity
  8
0
  6
CENTER
 62
     4
100
AcDbLine
 10
-11.50001508742551
 20
-10.10000780075777
 30
0.0
 11
-11.50001508742551
 21
-13.10000787526357
 31
0.0
  0
LINE
  5
153
330
78
100
AcDbEntity
  8
0
  6
CENTER
 62
     4
100
AcDbLine
 10
-7.50001508742551
 20
9.999999850988395
 30
0.0
 11
-15.50001508742551
 21
9.999999850988395
 31
0.0
  0
LINE
  5
154
330
78
100
AcDbEntity
  8
0
  6
Continuous
 62
     0
100
AcDbLine
 10
-9.87369913387069
 20
8.373702105045638
 30
0.0
 11
-13.12637031811278
 21
11.62637328928772
 31
0.0
  0
LINE
  5
155
330
78
100
AcDbEntity
  8
0
  6
CENTER
 62
     4
100
AcDbLine
 10
-10.00001505017261
 20
-11.60000783801067
 30
0.0
 11
-13.00001512467841
 21
-11.60000783801067
 31
0.0
  0
LINE
  5
156
330
78
100
AcDbEntity
  8
0
  6
CENTER
 62
     4
100
AcDbLine
 10
-11.50001508742551
 20
13.9999998509884
 30
0.0
 11
-11.50001508742551
 21
5.999999850988395
 31
0.0
  0
LINE
  5
157
330
78
100
AcDbEntity
  8
0
  6
Continuous
 62
     0
100
AcDbLine
 10
57.74998817874902
 20
-18.10000392645591
 30
0.0
 11
-17.75008155583316
 21
-18.10000392645591
 31
0.0
  0
LINE
  5
158
330
78
100
AcDbEntity
  8
0
  6
Continuous
 62
     0
100
AcDbLine
 10
29.99999955296516
 20
-11.10000593811264
 30
0.0
 11
29.99999955296516
 21
10.99999172985567
 31
0.0
  0
LINE
  5
159
330
78
100
AcDbEntity
  8
0
  6
Continuous
 62
     0
100
AcDbLine
 10
-5.000066887240648
 20
11.0000253522406
 30
0.0
 11
-10.50006693934841
 21
0.000025248025084
 31
0.0
  0
LINE
  5
15A
330
78
100
AcDbEntity
  8
0
  6
Continuous
 62
     0
100
AcDbLine
 10
-4.999999925494222
 20
13.99999120831503
 30
0.0
 11
-4.999999925494222
 21
10.99999172985567
 31
0.0
  0
LINE
  5
15B
330
78
100
AcDbEntity
  8
0
  6
Continuous
 62
     0
100
AcDbLine
 10
57.99875799536128
 20
-21.00000350177282
 30
0.0
 11
57.26542147811767
 21
0.000007729813428
 31
0.0
  0
LINE
  5
15C
330
78
100
AcDbEntity
  8
0
  6
Continuous
 62
     0
100
AcDbLine
 10
50.2499763630334
 20
-18.09999349564323
 30
0.0
 11
50.2499763630334
 21
-21.00000350177282
 31
0.0
  0
LINE
  5
15D
330
78
100
AcDbEntity
  8
0
  6
CENTER
 62
     4
100
AcDbLine
 10
48.20992382429685
 20
0.0
 30
0.0
 11
-8.209924420343302
 21
0.0
 31
0.0
  0
LINE
  5
15E
330
78
100
AcDbEntity
  8
0
  6
CENTER
 62
     4
100
AcDbLine
 10
0.0
 20
-7.908213125050689
 30
0.0
 11
0.0
 21
7.908213125050689
 31
0.0
  0
LINE
  5
15F
330
78
100
AcDbEntity
  8
0
  6
CENTER
 62
     4
100
AcDbLine
 10
39.99999940395355
 20
-7.908213125050689
 30
0.0
 11
39.99999940395355
 21
7.908213125050689
 31
0.0
  0
ARC
  5
160
330
78
100
AcDbEntity
  8
0
  6
Continuous
 62
     0
100
AcDbCircle
 10
44.9999802559617
 20
-16.51878153512715
 30
0.0
 40
4.281226928774768
100
AcDbArc
 50
230.0335955097687
 51
309.9664044902312
  0
ARC
  5
161
330
78
100
AcDbEntity
  8
0
  6
Continuous
 62
     0
100
AcDbCircle
 10
34.99998040497331
 20
-16.51878153512715
 30
0.0
 40
4.281226928774768
100
AcDbArc
 50
230.0335955097687
 51
309.9664044902312
  0
ARC
  5
162
330
78
100
AcDbEntity
  8
0
  6
Continuous
 62
     0
100
AcDbCircle
 10
-5.000018998980266
 20
-16.51878153512715
 30
0.0
 40
4.281226928774768
100
AcDbArc
 50
230.0335955097687
 51
309.9664044902312
  0
CIRCLE
  5
163
330
78
100
AcDbEntity
  8
0
  6
Continuous
 62
     0
100
AcDbCircle
 10
-11.50001508742551
 20
-11.60000783801067
 30
0.0
 40
1.199999806284907
  0
CIRCLE
  5
164
330
78
100
AcDbEntity
  8
0
  6
Continuous
 62
     4
100
AcDbCircle
 10
-11.50001508742551
 20
-11.60000783801067
 30
0.0
 40
1.500000037252902
  0
ARC
  5
165
330
78
100
AcDbEntity
  8
0
  6
Continuous
 62
     0
100
AcDbCircle
 10
-1.00002287328212
 20
-3.100013686716352
 30
0.0
 40
8.0
100
AcDbArc
 50
180.0000359721787
 51
270.0000179860893
  0
CIRCLE
  5
166
330
78
100
AcDbEntity
  8
0
  6
Continuous
 62
     0
100
AcDbCircle
 10
51.49997634440695
 20
9.999999850988395
 30
0.0
 40
4.0
  0
CIRCLE
  5
167
330
78
100
AcDbEntity
  8
0
  6
Continuous
 62
     0
100
AcDbCircle
 10
-11.50001508742551
 20
9.999999850988395
 30
0.0
 40
4.0
  0
CIRCLE
  5
168
330
78
100
AcDbEntity
  8
0
  6
Continuous
 62
     0
100
AcDbCircle
 10
51.50001449137903
 20
-11.60000783801067
 30
0.0
 40
1.199999806284907
  0
CIRCLE
  5
169
330
78
100
AcDbEntity
  8
0
  6
Continuous
 62
     4
100
AcDbCircle
 10
51.50001449137903
 20
-11.60000783801067
 30
0.0
 40
1.500000037252902
  0
CIRCLE
  5
16A
330
78
100
AcDbEntity
  8
0
  6
Continuous
 62
     4
100
AcDbCircle
 10
39.99999940395355
 20
0.0
 30
0.0
 40
6.750000018626451
  0
CIRCLE
  5
16B
330
78
100
AcDbEntity
  8
0
  6
Continuous
 62
     0
100
AcDbCircle
 10
39.99999940395355
 20
0.0
 30
0.0
 40
5.850000294297929
  0
ARC
  5
16C
330
78
100
AcDbEntity
  8
0
  6
Continuous
 62
     0
100
AcDbCircle
 10
41.00002227723564
 20
-3.100013686716352
 30
0.0
 40
8.0
100
AcDbArc
 50
269.999963344576
 51
359.9999453584866
  0
ARC
  5
16D
330
78
100
AcDbEntity
  8
0
  6
Continuous
 62
     0
100
AcDbCircle
 10
-16.07074713601551
 20
15.01493431605497
 30
0.0
 40
3.000000968575463
100
AcDbArc
 50
89.99987273088394
 51
178.5236596198581
  0
ARC
  5
16E
330
78
100
AcDbEntity
  8
0
  6
Continuous
 62
     0
100
AcDbCircle
 10
-15.82630133887679
 20
24.50002633780202
 30
0.0
 40
3.000000968575463
100
AcDbArc
 50
89.99998201391067
 51
178.5236596198581
  0
ARC
  5
16F
330
78
100
AcDbEntity
  8
0
  6
Continuous
 62
     0
100
AcDbCircle
 10
56.07070839299695
 20
15.01493431605497
 30
0.0
 40
3.000000968575463
100
AcDbArc
 50
1.476358409146361
 51
90.00014593845074
  0
ARC
  5
170
330
78
100
AcDbEntity
  8
0
  6
Continuous
 62
     0
100
AcDbCircle
 10
55.82626259585822
 20
24.50002633780202
 30
0.0
 40
3.000000968575463
100
AcDbArc
 50
1.47634047989979
 51
89.99987273088394
  0
CIRCLE
  5
171
330
78
100
AcDbEntity
  8
0
  6
Continuous
 62
     0
100
AcDbCircle
 10
19.99999970197678
 20
0.0
 30
0.0
 40
5.850000294297929
  0
CIRCLE
  5
172
330
78
100
AcDbEntity
  8
0
  6
Continuous
 62
     4
100
AcDbCircle
 10
19.99999970197678
 20
0.0
 30
0.0
 40
6.750000018626451
  0
CIRCLE
  5
173
330
78
100
AcDbEntity
  8
0
  6
Continuous
 62
     0
100
AcDbCircle
 10
0.0
 20
0.0
 30
0.0
 40
5.850000294297929
  0
CIRCLE
  5
174
330
78
100
AcDbEntity
  8
0
  6
Continuous
 62
     4
100
AcDbCircle
 10
0.0
 20
0.0
 30
0.0
 40
6.750000018626451
  0
MTEXT
  5
175
330
78
100
AcDbEntity
  8
0
 62
     0
100
AcDbMText
 10
-12.64234440815024
 20
23.21287867891462
 30
0.0
 40
0.5
 41
0.0
 71
     7
 72
     1
  1
{\W1;BN-4PA41-8}
 73
     1
 44
1.0
  0
MTEXT
  5
176
330
78
100
AcDbEntity
  8
0
 62
     0
100
AcDbMText
 10
36.14361275710108
 20
-10.07185779404851
 30
0.0
 40
2.0
 41
0.0
 71
     7
 72
     1
  1
{\W1;OUT1}
 73
     1
 44
1.0
  0
MTEXT
  5
177
330
78
100
AcDbEntity
  8
0
 62
     0
100
AcDbMText
 10
16.69327256029111
 20
-10.28169351403425
 30
0.0
 40
2.0
 41
0.0
 71
     7
 72
     1
  1
{\W1;OUT2}
 73
     1
 44
1.0
  0
MTEXT
  5
178
330
78
100
AcDbEntity
  8
0
 62
     0
100
AcDbMText
 10
-0.950521974577083
 20
-10.11811815026226
 30
0.0
 40
2.0
 41
0.0
 71
     7
 72
     1
  1
{\W1;IN}
 73
     1
 44
1.0
  0
ENDBLK
  5
7A
330
78
100
AcDbEntity
  8
0
100
AcDbBlockEnd
  0
BLOCK
  5
7C
330
7B
100
AcDbEntity
  8
0
100
AcDbBlockBegin
  2
DTL0004
 70
     0
 10
0.0
 20
0.0
 30
0.0
  3
DTL0004
  1

  0
POINT
  5
179
330
7B
100
AcDbEntity
  8
0
 62
     0
100
AcDbPoint
 10
0.0
 20
0.0
 30
0.0
  0
LINE
  5
17A
330
7B
100
AcDbEntity
  8
0
  6
Continuous
 62
     0
100
AcDbLine
 10
-31.23964263141687
 20
28.50000577419988
 30
0.0
 11
-31.23964263141687
 21
24.50000488013022
 31
0.0
  0
LINE
  5
17B
330
7B
100
AcDbEntity
  8
0
  6
Continuous
 62
     0
100
AcDbLine
 10
20.00000350177282
 20
12.49999027699246
 30
0.0
 11
20.00000350177282
 21
13.50001315027455
 31
0.0
  0
LINE
  5
17C
330
7B
100
AcDbEntity
  8
0
  6
Continuous
 62
     0
100
AcDbLine
 10
-20.00002257525887
 20
12.49999027699246
 30
0.0
 11
-20.00002257525887
 21
13.50001315027455
 31
0.0
  0
LINE
  5
17D
330
7B
100
AcDbEntity
  8
0
  6
Continuous
 62
     0
100
AcDbLine
 10
27.75001484528161
 20
0.0
 30
0.0
 11
27.75001484528161
 21
-1.700000737607468
 31
0.0
  0
LINE
  5
17E
330
7B
100
AcDbEntity
  8
0
  6
Continuous
 62
     0
100
AcDbLine
 10
22.25002255663242
 20
0.0
 30
0.0
 11
22.25002255663242
 21
-1.700000737607468
 31
0.0
  0
LINE
  5
17F
330
7B
100
AcDbEntity
  8
0
  6
Continuous
 62
     0
100
AcDbLine
 10
22.25002255663242
 20
-0.69999693781142
 30
0.0
 11
27.75001484528161
 21
-0.69999693781142
 31
0.0
  0
LINE
  5
180
330
7B
100
AcDbEntity
  8
0
  6
CENTER
 62
     4
100
AcDbLine
 10
24.99999962747097
 20
-0.000002384185755
 30
0.0
 11
24.99999962747097
 21
-3.367887817872898
 31
0.0
  0
LINE
  5
181
330
7B
100
AcDbEntity
  8
0
  6
CENTER
 62
     4
100
AcDbLine
 10
-14.99999977648258
 20
-0.000002384185755
 30
0.0
 11
-14.99999977648258
 21
-3.367887817872898
 31
0.0
  0
LINE
  5
182
330
7B
100
AcDbEntity
  8
0
  6
Continuous
 62
     0
100
AcDbLine
 10
-17.74997684732114
 20
-0.69999693781142
 30
0.0
 11
-12.24998455867194
 21
-0.69999693781142
 31
0.0
  0
LINE
  5
183
330
7B
100
AcDbEntity
  8
0
  6
Continuous
 62
     0
100
AcDbLine
 10
-17.74997684732114
 20
0.0
 30
0.0
 11
-17.74997684732114
 21
-1.700000737607468
 31
0.0
  0
LINE
  5
184
330
7B
100
AcDbEntity
  8
0
  6
Continuous
 62
     0
100
AcDbLine
 10
-12.24998455867194
 20
0.0
 30
0.0
 11
-12.24998455867194
 21
-1.700000737607468
 31
0.0
  0
LINE
  5
185
330
7B
100
AcDbEntity
  8
0
  6
Continuous
 62
     0
100
AcDbLine
 10
-22.24998440966033
 20
0.0
 30
0.0
 11
-22.24998440966033
 21
-1.700000737607468
 31
0.0
  0
LINE
  5
186
330
7B
100
AcDbEntity
  8
0
  6
Continuous
 62
     0
100
AcDbLine
 10
-27.74997669830952
 20
0.0
 30
0.0
 11
-27.74997669830952
 21
-1.700000737607468
 31
0.0
  0
LINE
  5
187
330
7B
100
AcDbEntity
  8
0
  6
Continuous
 62
     0
100
AcDbLine
 10
-27.74997669830952
 20
-0.69999693781142
 30
0.0
 11
-22.24998440966033
 21
-0.69999693781142
 31
0.0
  0
LINE
  5
188
330
7B
100
AcDbEntity
  8
0
  6
CENTER
 62
     4
100
AcDbLine
 10
-24.99999962747097
 20
-0.000002384185755
 30
0.0
 11
-24.99999962747097
 21
-3.367887817872898
 31
0.0
  0
LINE
  5
189
330
7B
100
AcDbEntity
  8
0
  6
Continuous
 62
     0
100
AcDbLine
 10
36.31103461517341
 20
24.50000488013022
 30
0.0
 11
35.40002770125824
 21
24.50000488013022
 31
0.0
  0
LINE
  5
18A
330
7B
100
AcDbEntity
  8
0
  6
Continuous
 62
     0
100
AcDbLine
 10
36.31103461517341
 20
24.90000449270003
 30
0.0
 11
35.40002770125824
 21
24.90000449270003
 31
0.0
  0
LINE
  5
18B
330
7B
100
AcDbEntity
  8
0
  6
Continuous
 62
     0
100
AcDbLine
 10
31.99998807907122
 20
24.50000488013022
 30
0.0
 11
31.23964263141687
 21
24.50000488013022
 31
0.0
  0
LINE
  5
18C
330
7B
100
AcDbEntity
  8
0
  6
Continuous
 62
     0
100
AcDbLine
 10
31.99998807907122
 20
24.90000449270003
 30
0.0
 11
31.23964263141687
 21
24.90000449270003
 31
0.0
  0
LINE
  5
18D
330
7B
100
AcDbEntity
  8
0
  6
Continuous
 62
     0
100
AcDbLine
 10
31.23964263141687
 20
28.50000577419988
 30
0.0
 11
31.23964263141687
 21
24.50000488013022
 31
0.0
  0
LINE
  5
18E
330
7B
100
AcDbEntity
  8
0
  6
Continuous
 62
     0
100
AcDbLine
 10
31.99998807907122
 20
28.50000577419988
 30
0.0
 11
31.23964263141687
 21
28.50000577419988
 31
0.0
  0
LINE
  5
18F
330
7B
100
AcDbEntity
  8
0
  6
Continuous
 62
     0
100
AcDbLine
 10
31.99998807907122
 20
28.10000616163006
 30
0.0
 11
31.23964263141687
 21
28.10000616163006
 31
0.0
  0
LINE
  5
190
330
7B
100
AcDbEntity
  8
0
  6
CENTER
 62
     4
100
AcDbLine
 10
39.23974076748851
 20
26.50000532716505
 30
0.0
 11
31.23964263141687
 21
26.50000532716505
 31
0.0
  0
LINE
  5
191
330
7B
100
AcDbEntity
  8
0
  6
Continuous
 62
     0
100
AcDbLine
 10
36.24233191844326
 20
28.10000616163006
 30
0.0
 11
35.40002770125824
 21
28.10000616163006
 31
0.0
  0
LINE
  5
192
330
7B
100
AcDbEntity
  8
0
  6
Continuous
 62
     0
100
AcDbLine
 10
-31.99998807907123
 20
24.50000488013022
 30
0.0
 11
-31.23964263141688
 21
24.50000488013022
 31
0.0
  0
LINE
  5
193
330
7B
100
AcDbEntity
  8
0
  6
Continuous
 62
     0
100
AcDbLine
 10
-31.99998807907123
 20
24.90000449270003
 30
0.0
 11
-31.23964263141688
 21
24.90000449270003
 31
0.0
  0
LINE
  5
194
330
7B
100
AcDbEntity
  8
0
  6
Continuous
 62
     0
100
AcDbLine
 10
-31.99998807907123
 20
28.10000616163006
 30
0.0
 11
-31.23964263141688
 21
28.10000616163006
 31
0.0
  0
LINE
  5
195
330
7B
100
AcDbEntity
  8
0
  6
Continuous
 62
     0
100
AcDbLine
 10
-31.99998807907123
 20
28.50000577419988
 30
0.0
 11
-31.23964263141688
 21
28.50000577419988
 31
0.0
  0
LINE
  5
196
330
7B
100
AcDbEntity
  8
0
  6
Continuous
 62
     0
100
AcDbLine
 10
-36.31104415191645
 20
24.90000449270003
 30
0.0
 11
-35.40002770125825
 21
24.90000449270003
 31
0.0
  0
LINE
  5
197
330
7B
100
AcDbEntity
  8
0
  6
Continuous
 62
     0
100
AcDbLine
 10
-36.24233191844327
 20
28.10000616163006
 30
0.0
 11
-35.40002770125825
 21
28.10000616163006
 31
0.0
  0
LINE
  5
198
330
7B
100
AcDbEntity
  8
0
  6
Continuous
 62
     0
100
AcDbLine
 10
-36.24233191844327
 20
28.50000577419988
 30
0.0
 11
-35.40002770125825
 21
28.50000577419988
 31
0.0
  0
LINE
  5
199
330
7B
100
AcDbEntity
  8
0
  6
Continuous
 62
     0
100
AcDbLine
 10
-36.31104415191645
 20
24.50000488013022
 30
0.0
 11
-35.40002770125825
 21
24.50000488013022
 31
0.0
  0
LINE
  5
19A
330
7B
100
AcDbEntity
  8
0
  6
Continuous
 62
     0
100
AcDbLine
 10
-39.04639185895932
 20
34.00000521540634
 30
0.0
 11
-36.14780372160966
 21
34.00000521540634
 31
0.0
  0
LINE
  5
19B
330
7B
100
AcDbEntity
  8
0
  6
Continuous
 62
     0
100
AcDbLine
 10
36.14786094206778
 20
34.00000521540634
 30
0.0
 11
39.04638232221629
 21
34.00000521540634
 31
0.0
  0
LINE
  5
19C
330
7B
100
AcDbEntity
  8
0
  6
Continuous
 62
     0
100
AcDbLine
 10
-39.43299234758329
 20
19.00000543892375
 30
0.0
 11
-36.40549605480588
 21
19.00000543892375
 31
0.0
  0
LINE
  5
19D
330
7B
100
AcDbEntity
  8
0
  6
Continuous
 62
     0
100
AcDbLine
 10
36.40556281200702
 20
19.00000543892375
 30
0.0
 11
39.43298281084026
 21
19.00000543892375
 31
0.0
  0
LINE
  5
19E
330
7B
100
AcDbEntity
  8
0
  6
Continuous
 62
     0
100
AcDbLine
 10
-38.82527379599048
 20
42.57731871928824
 30
0.0
 11
-39.99994699110622
 21
-3.000001862645124
 31
0.0
  0
LINE
  5
19F
330
7B
100
AcDbEntity
  8
0
  6
Continuous
 62
     0
100
AcDbLine
 10
30.24999573454267
 20
0.000005960464392
 30
0.0
 11
30.24999573454267
 21
-3.000001862645121
 31
0.0
  0
LINE
  5
1A0
330
7B
100
AcDbEntity
  8
0
  6
Continuous
 62
     0
100
AcDbLine
 10
-30.25003388151475
 20
0.000005960464392
 30
0.0
 11
-30.25003388151475
 21
-3.000001862645121
 31
0.0
  0
LINE
  5
1A1
330
7B
100
AcDbEntity
  8
0
  6
Continuous
 62
     0
100
AcDbLine
 10
-34.88465257160884
 20
35.49998230487135
 30
0.0
 11
34.88460488789372
 21
35.49998230487135
 31
0.0
  0
LINE
  5
1A2
330
7B
100
AcDbEntity
  8
0
  6
Continuous
 62
     0
100
AcDbLine
 10
7.483310587952872
 20
13.50001315027455
 30
0.0
 11
36.50005286186854
 21
13.50001315027455
 31
0.0
  0
LINE
  5
1A3
330
7B
100
AcDbEntity
  8
0
  6
Continuous
 62
     0
100
AcDbLine
 10
7.499999888241291
 20
12.50000577419988
 30
0.0
 11
7.499999888241291
 21
14.00000551342956
 31
0.0
  0
LINE
  5
1A4
330
7B
100
AcDbEntity
  8
0
  6
Continuous
 62
     0
100
AcDbLine
 10
-7.500018961727335
 20
12.50000577419988
 30
0.0
 11
-7.500018961727335
 21
14.00000551342956
 31
0.0
  0
LINE
  5
1A5
330
7B
100
AcDbEntity
  8
0
  6
PHANTOM
 62
     0
100
AcDbLine
 10
29.31325956318309
 20
13.50001321001339
 30
0.0
 11
27.77923887345696
 21
34.50942105367469
 31
0.0
  0
LINE
  5
1A6
330
7B
100
AcDbEntity
  8
0
  6
PHANTOM
 62
     0
100
AcDbLine
 10
28.11068739400074
 20
13.50001776736611
 30
0.0
 11
26.57666687789587
 21
34.50942323317179
 31
0.0
  0
LINE
  5
1A7
330
7B
100
AcDbEntity
  8
0
  6
PHANTOM
 62
     0
100
AcDbLine
 10
16.2208236154057
 20
34.50941812644335
 30
0.0
 11
14.61378529213147
 21
12.49998645437789
 31
0.0
  0
LINE
  5
1A8
330
7B
100
AcDbEntity
  8
0
  6
PHANTOM
 62
     0
100
AcDbLine
 10
17.42341498105431
 20
34.50942367268168
 30
0.0
 11
15.81637665778009
 21
12.49999200061621
 31
0.0
  0
LINE
  5
1A9
330
7B
100
AcDbEntity
  8
0
  6
CENTER
 62
     4
100
AcDbLine
 10
28.70986656153755
 20
13.50000456286974
 30
0.0
 11
27.17886889253682
 21
34.50941298973463
 31
0.0
  0
LINE
  5
1AA
330
7B
100
AcDbEntity
  8
0
  6
CENTER
 62
     4
100
AcDbLine
 10
16.82092885476256
 20
34.50941762690429
 30
0.0
 11
15.21624715112856
 21
12.49998851851684
 31
0.0
  0
LINE
  5
1AB
330
7B
100
AcDbEntity
  8
0
  6
CENTER
 62
     4
100
AcDbLine
 10
21.99998822808283
 20
34.50941988066703
 30
0.0
 11
21.99998822808283
 21
13.50001315027455
 31
0.0
  0
LINE
  5
1AC
330
7B
100
AcDbEntity
  8
0
  6
Continuous
 62
     0
100
AcDbLine
 10
-32.00002622604332
 20
34.50941988066703
 30
0.0
 11
31.99998807907122
 21
34.50941988066703
 31
0.0
  0
LINE
  5
1AD
330
7B
100
AcDbEntity
  8
0
  6
Continuous
 62
     0
100
AcDbLine
 10
34.61135812682869
 20
42.60424550467364
 30
0.0
 11
36.00004507330394
 21
42.60424550467364
 31
0.0
  0
LINE
  5
1AE
330
7B
100
AcDbEntity
  8
0
  6
Continuous
 62
     0
100
AcDbLine
 10
31.99998807907122
 20
22.59020771696854
 30
0.0
 11
35.39998955428615
 21
22.59020771696854
 31
0.0
  0
LINE
  5
1AF
330
7B
100
AcDbEntity
  8
0
  6
Continuous
 62
     0
100
AcDbLine
 10
31.99998807907122
 20
25.76641998043031
 30
0.0
 11
35.39998955428615
 21
25.76641998043031
 31
0.0
  0
LINE
  5
1B0
330
7B
100
AcDbEntity
  8
0
  6
Continuous
 62
     0
100
AcDbLine
 10
36.24233191844326
 20
28.50000577419988
 30
0.0
 11
35.40002770125824
 21
28.50000577419988
 31
0.0
  0
LINE
  5
1B1
330
7B
100
AcDbEntity
  8
0
  6
CENTER
 62
     4
100
AcDbLine
 10
-39.23963753765125
 20
26.50000532716505
 30
0.0
 11
-31.23964263141687
 21
26.50000532716505
 31
0.0
  0
LINE
  5
1B2
330
7B
100
AcDbEntity
  8
0
  6
Continuous
 62
     0
100
AcDbLine
 10
-35.40001816451523
 20
22.59020771696854
 30
0.0
 11
-32.00002622604332
 21
22.59020771696854
 31
0.0
  0
LINE
  5
1B3
330
7B
100
AcDbEntity
  8
0
  6
Continuous
 62
     0
100
AcDbLine
 10
-31.76705313076
 20
41.50000510364763
 30
0.0
 11
31.76700544704488
 21
41.50000510364763
 31
0.0
  0
LINE
  5
1B4
330
7B
100
AcDbEntity
  8
0
  6
Continuous
 62
     0
100
AcDbLine
 10
-35.40001816451523
 20
25.76641998043031
 30
0.0
 11
-32.00002622604332
 21
25.76641998043031
 31
0.0
  0
LINE
  5
1B5
330
7B
100
AcDbEntity
  8
0
  6
Continuous
 62
     0
100
AcDbLine
 10
-35.00003762543146
 20
32.50000905245529
 30
0.0
 11
-35.40001816451523
 21
32.50000905245529
 31
0.0
  0
LINE
  5
1B6
330
7B
100
AcDbEntity
  8
0
  6
Continuous
 62
     0
100
AcDbLine
 10
-34.61092959781463
 20
42.61530746901337
 30
0.0
 11
-34.9999794821354
 21
32.5000105520939
 31
0.0
  0
LINE
  5
1B7
330
7B
100
AcDbEntity
  8
0
  6
Continuous
 62
     0
100
AcDbLine
 10
-32.00002622604332
 20
20.50009696930503
 30
0.0
 11
-35.40001816451523
 21
20.50009696930503
 31
0.0
  0
LINE
  5
1B8
330
7B
100
AcDbEntity
  8
0
  6
Continuous
 62
     0
100
AcDbLine
 10
-31.99998807907122
 20
34.50941988066703
 30
0.0
 11
-31.99998807907122
 21
20.50011127441955
 31
0.0
  0
LINE
  5
1B9
330
7B
100
AcDbEntity
  8
0
  6
Continuous
 62
     0
100
AcDbLine
 10
-35.40002770125824
 20
32.50000666826953
 30
0.0
 11
-35.40002770125824
 21
20.50011127441955
 31
0.0
  0
LINE
  5
1BA
330
7B
100
AcDbEntity
  8
0
  6
Continuous
 62
     0
100
AcDbLine
 10
34.99999947845936
 20
32.50000905245529
 30
0.0
 11
35.39998955428615
 21
32.50000905245529
 31
0.0
  0
LINE
  5
1BB
330
7B
100
AcDbEntity
  8
0
  6
Continuous
 62
     0
100
AcDbLine
 10
34.61098430462393
 20
42.6153214767766
 30
0.0
 11
35.00003455547151
 21
32.50001503016008
 31
0.0
  0
LINE
  5
1BC
330
7B
100
AcDbEntity
  8
0
  6
Continuous
 62
     0
100
AcDbLine
 10
31.99998807907122
 20
20.50009696930503
 30
0.0
 11
35.39998955428615
 21
20.50009696930503
 31
0.0
  0
LINE
  5
1BD
330
7B
100
AcDbEntity
  8
0
  6
Continuous
 62
     0
100
AcDbLine
 10
31.99998807907122
 20
34.50941988066703
 30
0.0
 11
31.99998807907122
 21
20.50011127441955
 31
0.0
  0
LINE
  5
1BE
330
7B
100
AcDbEntity
  8
0
  6
Continuous
 62
     0
100
AcDbLine
 10
35.39998955428615
 20
32.50000666826953
 30
0.0
 11
35.39998955428615
 21
20.50011127441955
 31
0.0
  0
LINE
  5
1BF
330
7B
100
AcDbEntity
  8
0
  6
Continuous
 62
     0
100
AcDbLine
 10
38.82537636590207
 20
42.57734432440704
 30
0.0
 11
40.00005022094354
 21
-3.000001862645125
 31
0.0
  0
LINE
  5
1C0
330
7B
100
AcDbEntity
  8
0
  6
Continuous
 62
     0
100
AcDbLine
 10
-20.00000923871983
 20
12.49999027699246
 30
0.0
 11
19.99999970197678
 21
12.49999027699246
 31
0.0
  0
LINE
  5
1C1
330
7B
100
AcDbEntity
  8
0
  6
Continuous
 62
     0
100
AcDbLine
 10
36.00004507330392
 20
42.60424550467365
 30
0.0
 11
36.49974988394884
 21
13.51717660171062
 31
0.0
  0
LINE
  5
1C2
330
7B
100
AcDbEntity
  8
0
  6
Continuous
 62
     0
100
AcDbLine
 10
-36.49972800084242
 20
13.51717434173365
 30
0.0
 11
-36.00002315137196
 21
42.60424550467363
 31
0.0
  0
LINE
  5
1C3
330
7B
100
AcDbEntity
  8
0
  6
Continuous
 62
     0
100
AcDbLine
 10
-36.00002315137195
 20
42.60424550467364
 30
0.0
 11
-34.61138673705777
 21
42.60424550467364
 31
0.0
  0
LINE
  5
1C4
330
7B
100
AcDbEntity
  8
0
  6
Continuous
 62
     0
100
AcDbLine
 10
-36.50000517815344
 20
13.50001315027455
 30
0.0
 11
-7.500018961727335
 21
13.50001315027455
 31
0.0
  0
LINE
  5
1C5
330
7B
100
AcDbEntity
  8
0
  6
Continuous
 62
     0
100
AcDbLine
 10
30.24999573454267
 20
-3.000001862645121
 30
0.0
 11
40.00005022094348
 21
-3.000001862645121
 31
0.0
  0
LINE
  5
1C6
330
7B
100
AcDbEntity
  8
0
  6
Continuous
 62
     0
100
AcDbLine
 10
-30.2500052712857
 20
0.0
 30
0.0
 11
30.24999573454267
 21
0.0
 31
0.0
  0
LINE
  5
1C7
330
7B
100
AcDbEntity
  8
0
  6
Continuous
 62
     0
100
AcDbLine
 10
-35.82632011433959
 20
45.50000122934578
 30
0.0
 11
35.82632011433958
 21
45.50000122934578
 31
0.0
  0
LINE
  5
1C8
330
7B
100
AcDbEntity
  8
0
  6
Continuous
 62
     0
100
AcDbLine
 10
-39.99994699110623
 20
-3.000001862645121
 30
0.0
 11
-30.25003388151475
 21
-3.000001862645121
 31
0.0
  0
LINE
  5
1C9
330
7B
100
AcDbEntity
  8
0
  6
CENTER
 62
     4
100
AcDbLine
 10
0.0
 20
48.67165492964305
 30
0.0
 11
0.0
 21
-5.352945247993688
 31
0.0
  0
ARC
  5
1CA
330
7B
100
AcDbEntity
  8
0
  6
Continuous
 62
     0
100
AcDbCircle
 10
25.00001870095701
 20
1.581222391328765
 30
0.0
 40
4.281226928774768
100
AcDbArc
 50
230.0335955097687
 51
309.9664044902312
  0
ARC
  5
1CB
330
7B
100
AcDbEntity
  8
0
  6
Continuous
 62
     0
100
AcDbCircle
 10
-14.99998070299654
 20
1.581222391328765
 30
0.0
 40
4.281226928774768
100
AcDbArc
 50
230.0335955097687
 51
309.9664044902312
  0
ARC
  5
1CC
330
7B
100
AcDbEntity
  8
0
  6
Continuous
 62
     0
100
AcDbCircle
 10
-24.99998055398493
 20
1.581222391328765
 30
0.0
 40
4.281226928774768
100
AcDbArc
 50
230.0335955097687
 51
309.9664044902312
  0
ARC
  5
1CD
330
7B
100
AcDbEntity
  8
0
  6
Continuous
 62
     0
100
AcDbCircle
 10
31.76700544704488
 20
38.50001277774553
 30
0.0
 40
3.000000074505805
100
AcDbArc
 50
2.202597055668185
 51
89.99998201391067
  0
ARC
  5
1CE
330
7B
100
AcDbEntity
  8
0
  6
Continuous
 62
     0
100
AcDbCircle
 10
-31.76706266750301
 20
38.50001277774553
 30
0.0
 40
3.000000074505805
100
AcDbArc
 50
90.00009129693737
 51
177.797419265789
  0
ARC
  5
1CF
330
7B
100
AcDbEntity
  8
0
  6
Continuous
 62
     0
100
AcDbCircle
 10
0.0
 20
14.00000551342956
 30
0.0
 40
7.499999888241293
100
AcDbArc
 50
0.000017986089037
 51
179.9999640278213
  0
ARC
  5
1D0
330
7B
100
AcDbEntity
  8
0
  6
Continuous
 62
     0
100
AcDbCircle
 10
-31.61317778210076
 20
42.50000890344368
 30
0.0
 40
3.000000074505805
100
AcDbArc
 50
89.99998201391067
 51
177.797419265789
  0
ARC
  5
1D1
330
7B
100
AcDbEntity
  8
0
  6
Continuous
 62
     0
100
AcDbCircle
 10
31.61315870861472
 20
42.50000890344368
 30
0.0
 40
3.000000074505805
100
AcDbArc
 50
2.202599830432535
 51
90.00003665542401
  0
ARC
  5
1D2
330
7B
100
AcDbEntity
  8
0
  6
Continuous
 62
     0
100
AcDbCircle
 10
35.82632011433958
 20
42.50002797692972
 30
0.0
 40
3.000000968575463
100
AcDbArc
 50
1.476367373769647
 51
89.9999273723973
  0
ARC
  5
1D3
330
7B
100
AcDbEntity
  8
0
  6
Continuous
 62
     0
100
AcDbCircle
 10
-35.82628196736749
 20
42.50002797692972
 30
0.0
 40
3.000000968575463
100
AcDbArc
 50
89.9999273723973
 51
178.5236049783447
  0
MTEXT
  5
1D4
330
7B
100
AcDbEntity
  8
0
 62
     0
100
AcDbMText
 10
-30.80658205632574
 20
7.177430375142045
 30
0.0
 40
0.5
 41
0.0
 71
     7
 72
     1
  1
{\W1;BN-4PA41-8}
 73
     1
 44
1.0
  0
ENDBLK
  5
7D
330
7B
100
AcDbEntity
  8
0
100
AcDbBlockEnd
  0
BLOCK
  5
7F
330
7E
100
AcDbEntity
  8
0
100
AcDbBlockBegin
  2
DTL0005
 70
     0
 10
0.0
 20
0.0
 30
0.0
  3
DTL0005
  1

  0
POINT
  5
1D5
330
7E
100
AcDbEntity
  8
0
 62
     0
100
AcDbPoint
 10
0.0
 20
0.0
 30
0.0
  0
LINE
  5
1D6
330
7E
100
AcDbEntity
  8
0
  6
PHANTOM
 62
     0
100
AcDbLine
 10
-46.96074036659166
 20
18.85078360777542
 30
0.0
 11
-47.1606081741165
 21
15.86145658591757
 31
0.0
  0
LINE
  5
1D7
330
7E
100
AcDbEntity
  8
0
  6
Continuous
 62
     0
100
AcDbLine
 10
-34.54562813853128
 20
33.61907261216905
 30
0.0
 11
-39.54561936191609
 21
33.29252959032365
 31
0.0
  0
LINE
  5
1D8
330
7E
100
AcDbEntity
  8
0
  6
Continuous
 62
     0
100
AcDbLine
 10
-44.54562961824021
 20
32.96598532546138
 30
0.0
 11
-49.54562084162501
 21
32.63944230361597
 31
0.0
  0
LINE
  5
1D9
330
7E
100
AcDbEntity
  8
0
  6
Continuous
 62
     0
100
AcDbLine
 10
-54.54563109794912
 20
32.31289803875369
 30
0.0
 11
-59.54562232133392
 21
31.98635501690829
 31
0.0
  0
LINE
  5
1DA
330
7E
100
AcDbEntity
  8
0
  6
Continuous
 62
     0
100
AcDbLine
 10
-64.54563257765804
 20
31.65981075204601
 30
0.0
 11
-74.5456721232456
 21
31.00672097930456
 31
0.0
  0
LINE
  5
1DB
330
7E
100
AcDbEntity
  8
0
  6
Continuous
 62
     0
100
AcDbLine
 10
-17.02971533001962
 20
31.93012916216204
 30
0.0
 11
-17.02915857148434
 21
31.61113036231282
 31
0.0
  0
LINE
  5
1DC
330
7E
100
AcDbEntity
  8
0
  6
Continuous
 62
     0
100
AcDbLine
 10
37.99995365738936
 20
24.00985303825433
 30
0.0
 11
-9.000032372327464
 21
34.0000072197027
 31
0.0
  0
LINE
  5
1DD
330
7E
100
AcDbEntity
  8
0
  6
Continuous
 62
     0
100
AcDbLine
 10
37.99995365738937
 20
24.00985303825432
 30
0.0
 11
37.99995365738937
 21
5.50001136213524
 31
0.0
  0
LINE
  5
1DE
330
7E
100
AcDbEntity
  8
0
  6
Continuous
 62
     0
100
AcDbLine
 10
-14.61591512045723
 20
31.10260935459402
 30
0.0
 11
-17.02907837493541
 21
31.61114254114963
 31
0.0
  0
LINE
  5
1DF
330
7E
100
AcDbEntity
  8
0
  6
Continuous
 62
     0
100
AcDbLine
 10
-19.5000180290725
 20
22.500001602579
 30
0.0
 11
-82.00002548098519
 21
7.50000165303695
 31
0.0
  0
LINE
  5
1E0
330
7E
100
AcDbEntity
  8
0
  6
Continuous
 62
     0
100
AcDbLine
 10
-82.02117282232837
 20
27.00132640187798
 30
0.0
 11
-82.01561461213049
 21
23.81670996571156
 31
0.0
  0
LINE
  5
1E1
330
7E
100
AcDbEntity
  8
0
  6
PHANTOM
 62
     0
100
AcDbLine
 10
-48.3829088385863
 20
15.56811331441535
 30
0.0
 11
-48.15214346005734
 21
19.01956049987643
 31
0.0
  0
LINE
  5
1E2
330
7E
100
AcDbEntity
  8
0
  6
Continuous
 62
     0
100
AcDbLine
 10
-67.00000663101662
 20
-14.50000741332758
 30
0.0
 11
-82.00002548098527
 21
-14.50000741332758
 31
0.0
  0
LINE
  5
1E3
330
7E
100
AcDbEntity
  8
0
  6
Continuous
 62
     0
100
AcDbLine
 10
-14.61554047461043
 20
31.10423221262644
 30
0.0
 11
-19.50001802907247
 21
22.50000160257894
 31
0.0
  0
LINE
  5
1E4
330
7E
100
AcDbEntity
  8
0
  6
Continuous
 62
     0
100
AcDbLine
 10
-67.00001778679697
 20
-14.50000065961931
 30
0.0
 11
-66.8952553544936
 21
-11.49999697333283
 31
0.0
  0
LINE
  5
1E5
330
7E
100
AcDbEntity
  8
0
  6
Continuous
 62
     0
100
AcDbLine
 10
-82.00002548098524
 20
7.500001653036961
 30
0.0
 11
-82.00002548098524
 21
-14.50000406056636
 31
0.0
  0
LINE
  5
1E6
330
7E
100
AcDbEntity
  8
0
  6
Continuous
 62
     0
100
AcDbLine
 10
-24.54562665882237
 20
34.27215989887673
 30
0.0
 11
-29.54561788220717
 21
33.94561687703133
 31
0.0
  0
LINE
  5
1E7
330
7E
100
AcDbEntity
  8
0
  6
Continuous
 62
     0
100
AcDbLine
 10
-67.00002850259325
 20
30.79802912532197
 30
0.0
 11
-79.21664416056441
 21
30.00017760609927
 31
0.0
  0
LINE
  5
1E8
330
7E
100
AcDbEntity
  8
0
  6
Continuous
 62
     0
100
AcDbLine
 10
24.7677367658344
 20
16.76771604109924
 30
0.0
 11
21.23220276357362
 21
13.23218233686168
 31
0.0
  0
LINE
  5
1E9
330
7E
100
AcDbEntity
  8
0
  6
Continuous
 62
     0
100
AcDbLine
 10
-63.50002194195952
 20
-13.20000628828993
 30
0.0
 11
-63.50002194195952
 21
-11.49677915130884
 31
0.0
  0
LINE
  5
1EA
330
7E
100
AcDbEntity
  8
0
  6
Continuous
 62
     0
100
AcDbLine
 10
24.76776116317322
 20
13.2322107714064
 30
0.0
 11
21.23222716091244
 21
16.76774447564397
 31
0.0
  0
LINE
  5
1EB
330
7E
100
AcDbEntity
  8
0
  6
Continuous
 62
     0
100
AcDbLine
 10
-66.93893332870402
 20
-13.20000628828993
 30
0.0
 11
-63.50002194195952
 21
-13.20000628828993
 31
0.0
  0
LINE
  5
1EC
330
7E
100
AcDbEntity
  8
0
  6
Continuous
 62
     0
100
AcDbLine
 10
4.999999925494194
 20
-10.0000046193599
 30
0.0
 11
4.999999925494194
 21
-13.00000499188892
 31
0.0
  0
LINE
  5
1ED
330
7E
100
AcDbEntity
  8
0
  6
Continuous
 62
     0
100
AcDbLine
 10
10.99998457729839
 20
-10.0000046193599
 30
0.0
 11
10.99998457729839
 21
-13.00000499188892
 31
0.0
  0
LINE
  5
1EE
330
7E
100
AcDbEntity
  8
0
  6
Continuous
 62
     0
100
AcDbLine
 10
10.99998457729839
 20
-13.00000171363351
 30
0.0
 11
4.999999925494194
 21
-13.00000171363351
 31
0.0
  0
LINE
  5
1EF
330
7E
100
AcDbEntity
  8
0
  6
Continuous
 62
     0
100
AcDbLine
 10
10.99998457729839
 20
-10.00000938773141
 30
0.0
 11
4.999999925494194
 21
-10.00000938773141
 31
0.0
  0
LINE
  5
1F0
330
7E
100
AcDbEntity
  8
0
  6
Continuous
 62
     0
100
AcDbLine
 10
-19.1599742219763
 20
33.92240178761338
 30
0.0
 11
-22.00001232743347
 21
33.73692253701496
 31
0.0
  0
LINE
  5
1F1
330
7E
100
AcDbEntity
  8
0
  6
CENTER
 62
     4
100
AcDbLine
 10
-47.5564311254052
 20
18.93519044861139
 30
0.0
 11
-47.77174740032677
 21
15.71480810270095
 31
0.0
  0
LINE
  5
1F2
330
7E
100
AcDbEntity
  8
0
  6
Continuous
 62
     0
100
AcDbLine
 10
-9.000015124678384
 20
33.99999567866332
 30
0.0
 11
-14.00000499395344
 21
33.99999567866332
 31
0.0
  0
LINE
  5
1F3
330
7E
100
AcDbEntity
  8
0
  6
Continuous
 62
     0
100
AcDbLine
 10
-39.25398842057785
 20
17.7590312840691
 30
0.0
 11
-82.01556625955465
 21
23.81668825213451
 31
0.0
  0
LINE
  5
1F4
330
7E
100
AcDbEntity
  8
0
  6
Continuous
 62
     0
100
AcDbLine
 10
-14.61551338451126
 20
31.10425601018959
 30
0.0
 11
-14.00000499395349
 21
33.99999567866332
 31
0.0
  0
LINE
  5
1F5
330
7E
100
AcDbEntity
  8
0
  6
Continuous
 62
     0
100
AcDbLine
 10
-17.00007868592618
 20
-11.50000078018982
 30
0.0
 11
-12.000075603099
 21
-14.50000249086532
 31
0.0
  0
LINE
  5
1F6
330
7E
100
AcDbEntity
  8
0
  6
Continuous
 62
     0
100
AcDbLine
 10
-17.00004552304677
 20
-11.50000555068246
 30
0.0
 11
-66.89525504566348
 21
-11.50000555068246
 31
0.0
  0
LINE
  5
1F7
330
7E
100
AcDbEntity
  8
0
  6
Continuous
 62
     0
100
AcDbLine
 10
23.99997986296029
 20
-14.50000741332758
 30
0.0
 11
-12.00004559755257
 21
-14.50000741332758
 31
0.0
  0
LINE
  5
1F8
330
7E
100
AcDbEntity
  8
0
  6
Continuous
 62
     0
100
AcDbLine
 10
23.9999798629604
 20
-14.50000741332768
 30
0.0
 11
37.99997477227901
 21
5.49998469064138
 31
0.0
  0
LINE
  5
1F9
330
7E
100
AcDbEntity
  8
0
  6
CENTER
 62
     4
100
AcDbLine
 10
0.0
 20
-9.837205000885373
 30
0.0
 11
0.0
 21
9.837205000885373
 31
0.0
  0
LINE
  5
1FA
330
7E
100
AcDbEntity
  8
0
  6
CENTER
 62
     4
100
AcDbLine
 10
9.554451591998182
 20
0.0
 30
0.0
 11
-9.554451591998182
 21
0.0
 31
0.0
  0
LINE
  5
1FB
330
7E
100
AcDbEntity
  8
0
  6
CENTER
 62
     4
100
AcDbLine
 10
29.02802210800935
 20
14.99998070299655
 30
0.0
 11
16.97188565380423
 21
14.99998070299655
 31
0.0
  0
LINE
  5
1FC
330
7E
100
AcDbEntity
  8
0
  6
CENTER
 62
     4
100
AcDbLine
 10
22.99995388090679
 20
9.236202748388312
 30
0.0
 11
22.99995388090679
 21
20.76375865760478
 31
0.0
  0
ARC
  5
1FD
330
7E
100
AcDbEntity
  8
0
  6
Continuous
 62
     0
100
AcDbCircle
 10
-72.02358138526108
 20
2.663955648780529
 30
0.0
 40
7.499999888241293
100
AcDbArc
 50
83.12015785919942
 51
123.8712179570841
  0
ARC
  5
1FE
330
7E
100
AcDbEntity
  8
0
  6
Continuous
 62
     0
100
AcDbCircle
 10
-19.02963609949296
 20
31.9266505252324
 30
0.0
 40
2.0
100
AcDbArc
 50
0.099939327935627
 51
93.73659409371703
  0
CIRCLE
  5
1FF
330
7E
100
AcDbEntity
  8
0
  6
Continuous
 62
     0
100
AcDbCircle
 10
22.99995388090679
 20
14.99998070299655
 30
0.0
 40
4.0
  0
CIRCLE
  5
200
330
7E
100
AcDbEntity
  8
0
  6
Continuous
 62
     0
100
AcDbCircle
 10
22.99995388090679
 20
14.99998070299655
 30
0.0
 40
4.550000063329934
  0
ARC
  5
201
330
7E
100
AcDbEntity
  8
0
  6
Continuous
 62
     0
100
AcDbCircle
 10
-79.0211284306477
 20
27.00654943277613
 30
0.0
 40
3.000000074505805
100
AcDbArc
 50
93.73653945220369
 51
180.0998760350003
  0
CIRCLE
  5
202
330
7E
100
AcDbEntity
  8
0
  6
Continuous
 62
     4
100
AcDbCircle
 10
0.0
 20
0.0
 30
0.0
 40
5.199999731779102
  0
ARC
  5
203
330
7E
100
AcDbEntity
  8
0
  6
Continuous
 62
     0
100
AcDbCircle
 10
-39.23065127088648
 20
28.46946673885783
 30
0.0
 40
4.833328353862042
100
AcDbArc
 50
62.51536909567104
 51
124.9577507898713
  0
ARC
  5
204
330
7E
100
AcDbEntity
  8
0
  6
Continuous
 62
     0
100
AcDbCircle
 10
-59.23065097286326
 20
27.16329534108497
 30
0.0
 40
4.833328353862042
100
AcDbArc
 50
62.51536909567104
 51
124.9577507898713
  0
ARC
  5
205
330
7E
100
AcDbEntity
  8
0
  6
Continuous
 62
     0
100
AcDbCircle
 10
-34.23065134539229
 20
28.79600481992953
 30
0.0
 40
4.833328353862042
100
AcDbArc
 50
62.51532811453603
 51
124.9577644502497
  0
ARC
  5
206
330
7E
100
AcDbEntity
  8
0
  6
Continuous
 62
     0
100
AcDbCircle
 10
-44.23065119638068
 20
28.14294773127217
 30
0.0
 40
4.833314942817167
100
AcDbArc
 50
62.51525981264432
 51
124.9579010540331
  0
ARC
  5
207
330
7E
100
AcDbEntity
  8
0
  6
Continuous
 62
     0
100
AcDbCircle
 10
-54.23065104736907
 20
27.48987156912876
 30
0.0
 40
4.833300041656195
100
AcDbArc
 50
62.51516418999594
 51
124.9579556955464
  0
ARC
  5
208
330
7E
100
AcDbEntity
  8
0
  6
Continuous
 62
     0
100
AcDbCircle
 10
-74.23065074934584
 20
26.18368109786986
 30
0.0
 40
4.833314942817167
100
AcDbArc
 50
62.51527347302266
 51
124.9578464125197
  0
ARC
  5
209
330
7E
100
AcDbEntity
  8
0
  6
Continuous
 62
     0
100
AcDbCircle
 10
-24.2306514944039
 20
29.44910005555898
 30
0.0
 40
4.833328353862042
100
AcDbArc
 50
62.51536909567104
 51
124.9577507898713
  0
ARC
  5
20A
330
7E
100
AcDbEntity
  8
0
  6
Continuous
 62
     0
100
AcDbCircle
 10
-29.23065141989809
 20
29.12256197448728
 30
0.0
 40
4.833328353862042
100
AcDbArc
 50
62.51536909567104
 51
124.9577507898713
  0
ARC
  5
20B
330
7E
100
AcDbEntity
  8
0
  6
Continuous
 62
     0
100
AcDbCircle
 10
-64.23065089835745
 20
26.83675726001326
 30
0.0
 40
4.833328353862042
100
AcDbArc
 50
62.5153554352927
 51
124.9577507898713
  0
CIRCLE
  5
20C
330
7E
100
AcDbEntity
  8
0
  6
Continuous
 62
     0
100
AcDbCircle
 10
0.0
 20
0.0
 30
0.0
 40
7.499999888241293
  0
CIRCLE
  5
20D
330
7E
100
AcDbEntity
  8
0
  6
Continuous
 62
     0
100
AcDbCircle
 10
0.0
 20
0.0
 30
0.0
 40
4.399999612569815
  0
CIRCLE
  5
20E
330
7E
100
AcDbEntity
  8
0
  6
Continuous
 62
     0
100
AcDbCircle
 10
0.0
 20
0.0
 30
0.0
 40
8.500000111758707
  0
ARC
  5
20F
330
7E
100
AcDbEntity
  8
0
  6
Continuous
 62
     0
100
AcDbCircle
 10
-49.23065112187487
 20
27.81639057671442
 30
0.0
 40
4.833328353862042
100
AcDbArc
 50
62.51536909567104
 51
124.9577507898713
  0
MTEXT
  5
210
330
7E
100
AcDbEntity
  8
0
 62
     0
100
AcDbMText
 10
-10.66799416536951
 20
21.36455685683715
 30
0.0
 40
0.5
 41
0.0
 71
     7
 72
     1
  1
{\W1;BN-4PA41-8}
 73
     1
 44
1.0
  0
MTEXT
  5
211
330
7E
100
AcDbEntity
  8
0
 62
     0
100
AcDbMText
 10
6.565080025248153
 20
-12.48444158607063
 30
0.0
 40
2.0
 41
0.0
 71
     7
 72
     1
  1
{\W1;EX}
 73
     1
 44
1.0
  0
ENDBLK
  5
80
330
7E
100
AcDbEntity
  8
0
100
AcDbBlockEnd
  0
BLOCK
  5
82
330
81
100
AcDbEntity
  8
0
100
AcDbBlockBegin
  2
DTL0006
 70
     0
 10
0.0
 20
0.0
 30
0.0
  3
DTL0006
  1

  0
POINT
  5
212
330
81
100
AcDbEntity
  8
0
 62
     0
100
AcDbPoint
 10
0.0
 20
0.0
 30
0.0
  0
LINE
  5
213
330
81
100
AcDbEntity
  8
0
  6
Continuous
 62
     0
100
AcDbLine
 10
59.2499914877118
 20
-31.00000335276121
 30
0.0
 11
59.2499914877118
 21
-37.74999562278396
 31
0.0
  0
LINE
  5
214
330
81
100
AcDbEntity
  8
0
  6
CENTER
 62
     4
100
AcDbLine
 10
49.5000077858566
 20
-24.99999962747097
 30
0.0
 11
42.50000800937402
 21
-24.99999962747097
 31
0.0
  0
LINE
  5
215
330
81
100
AcDbEntity
  8
0
  6
Continuous
 62
     0
100
AcDbLine
 10
47.06067031165549
 20
-26.06064875742974
 30
0.0
 11
44.9393520227547
 21
-23.93933046852894
 31
0.0
  0
LINE
  5
216
330
81
100
AcDbEntity
  8
0
  6
Continuous
 62
     0
100
AcDbLine
 10
44.93934190751114
 20
-26.06064875742973
 30
0.0
 11
47.06065682466411
 21
-23.93933384027675
 31
0.0
  0
LINE
  5
217
330
81
100
AcDbEntity
  8
0
  6
CENTER
 62
     4
100
AcDbLine
 10
46.00000789761531
 20
-21.49999973922968
 30
0.0
 11
46.00000789761531
 21
-28.49999951571226
 31
0.0
  0
LINE
  5
218
330
81
100
AcDbEntity
  8
0
  6
Continuous
 62
     0
100
AcDbLine
 10
44.93934022163731
 20
13.93934827607909
 30
0.0
 11
47.06064839529463
 21
16.06065644973641
 31
0.0
  0
LINE
  5
219
330
81
100
AcDbEntity
  8
0
  6
Continuous
 62
     0
100
AcDbLine
 10
47.06064670942068
 20
13.93934996195301
 30
0.0
 11
44.93933853576338
 21
16.06065813561032
 31
0.0
  0
LINE
  5
21A
330
81
100
AcDbEntity
  8
0
  6
Continuous
 62
     0
100
AcDbLine
 10
2.999992325902099
 20
27.00000722706307
 30
0.0
 11
4.600028923153445
 21
27.00000722706307
 31
0.0
  0
LINE
  5
21B
330
81
100
AcDbEntity
  8
0
  6
Continuous
 62
     0
100
AcDbLine
 10
68.50002186745373
 20
-31.00000335276121
 30
0.0
 11
68.50002186745373
 21
-38.00000134110451
 31
0.0
  0
LINE
  5
21C
330
81
100
AcDbEntity
  8
0
  6
Continuous
 62
     0
100
AcDbLine
 10
59.50000674277534
 20
-31.00000335276121
 30
0.0
 11
59.50000674277534
 21
-38.00000134110451
 31
0.0
  0
LINE
  5
21D
330
81
100
AcDbEntity
  8
0
  6
Continuous
 62
     0
100
AcDbLine
 10
104.9999984353781
 20
-30.25000527128572
 30
0.0
 11
104.9999984353781
 21
-39.99999940395355
 31
0.0
  0
LINE
  5
21E
330
81
100
AcDbEntity
  8
0
  6
Continuous
 62
     0
100
AcDbLine
 10
104.9999984353781
 20
-30.25000527128572
 30
0.0
 11
120.0000172853467
 21
-30.25000527128572
 31
0.0
  0
LINE
  5
21F
330
81
100
AcDbEntity
  8
0
  6
Continuous
 62
     0
100
AcDbLine
 10
104.9999984353781
 20
30.25000050291419
 30
0.0
 11
120.0000172853467
 21
30.25000050291419
 31
0.0
  0
LINE
  5
220
330
81
100
AcDbEntity
  8
0
  6
Continuous
 62
     0
100
AcDbLine
 10
104.9999984353781
 20
39.99999940395355
 30
0.0
 11
104.9999984353781
 21
30.25000050291419
 31
0.0
  0
LINE
  5
221
330
81
100
AcDbEntity
  8
0
  6
Continuous
 62
     0
100
AcDbLine
 10
68.50001888722153
 20
-38.00000134110451
 30
0.0
 11
105.0000175088641
 21
-38.00000134110451
 31
0.0
  0
LINE
  5
222
330
81
100
AcDbEntity
  8
0
  6
Continuous
 62
     0
100
AcDbLine
 10
68.50001888722153
 20
38.00000134110448
 30
0.0
 11
105.0000175088641
 21
38.00000134110448
 31
0.0
  0
LINE
  5
223
330
81
100
AcDbEntity
  8
0
  6
Continuous
 62
     0
100
AcDbLine
 10
68.50002186745373
 20
38.00000134110448
 30
0.0
 11
68.50002186745373
 21
30.99999858438969
 31
0.0
  0
LINE
  5
224
330
81
100
AcDbEntity
  8
0
  6
Continuous
 62
     0
100
AcDbLine
 10
59.50000674277534
 20
38.00000134110448
 30
0.0
 11
59.50000674277534
 21
30.99999858438969
 31
0.0
  0
LINE
  5
225
330
81
100
AcDbEntity
  8
0
  6
Continuous
 62
     0
100
AcDbLine
 10
2.499999962747097
 20
-38.00000134110451
 30
0.0
 11
59.50001866370412
 21
-38.00000134110451
 31
0.0
  0
LINE
  5
226
330
81
100
AcDbEntity
  8
0
  6
Continuous
 62
     0
100
AcDbLine
 10
2.499999962747097
 20
38.00000134110448
 30
0.0
 11
59.50001866370412
 21
38.00000134110448
 31
0.0
  0
LINE
  5
227
330
81
100
AcDbEntity
  8
0
  6
Continuous
 62
     0
100
AcDbLine
 10
3.000035241245698
 20
-39.99999940395355
 30
0.0
 11
116.0000211596486
 21
-39.99999940395355
 31
0.0
  0
LINE
  5
228
330
81
100
AcDbEntity
  8
0
  6
Continuous
 62
     0
100
AcDbLine
 10
2.068328826601373
 20
24.99999962747097
 30
0.0
 11
2.068328826601373
 21
-24.99999962747097
 31
0.0
  0
LINE
  5
229
330
81
100
AcDbEntity
  8
0
  6
Continuous
 62
     0
100
AcDbLine
 10
0.000019073486044
 20
-30.49998237937717
 30
0.0
 11
2.500019036233141
 21
-30.49998237937717
 31
0.0
  0
LINE
  5
22A
330
81
100
AcDbEntity
  8
0
  6
Continuous
 62
     0
100
AcDbLine
 10
0.000019073486044
 20
30.50000145286319
 30
0.0
 11
2.500019036233141
 21
30.50000145286319
 31
0.0
  0
LINE
  5
22B
330
81
100
AcDbEntity
  8
0
  6
Continuous
 62
     0
100
AcDbLine
 10
0.000019073486044
 20
-24.99999962747097
 30
0.0
 11
2.500019036233141
 21
-24.99999962747097
 31
0.0
  0
LINE
  5
22C
330
81
100
AcDbEntity
  8
0
  6
Continuous
 62
     0
100
AcDbLine
 10
0.000019073486044
 20
25.0000043958425
 30
0.0
 11
2.500019036233141
 21
25.0000043958425
 31
0.0
  0
LINE
  5
22D
330
81
100
AcDbEntity
  8
0
  6
Continuous
 62
     0
100
AcDbLine
 10
14.00005319714467
 20
-38.00000134110451
 30
0.0
 11
14.00005319714467
 21
-39.99999940395355
 31
0.0
  0
LINE
  5
22E
330
81
100
AcDbEntity
  8
0
  6
Continuous
 62
     0
100
AcDbLine
 10
14.00005319714467
 20
39.99999940395355
 30
0.0
 11
14.00005319714467
 21
38.00000134110448
 31
0.0
  0
LINE
  5
22F
330
81
100
AcDbEntity
  8
0
  6
Continuous
 62
     0
100
AcDbLine
 10
54.99999918043615
 20
-38.00000134110451
 30
0.0
 11
54.99999918043615
 21
-39.99999940395355
 31
0.0
  0
LINE
  5
230
330
81
100
AcDbEntity
  8
0
  6
Continuous
 62
     0
100
AcDbLine
 10
49.99999925494195
 20
-38.00000134110451
 30
0.0
 11
49.99999925494195
 21
-39.99999940395355
 31
0.0
  0
LINE
  5
231
330
81
100
AcDbEntity
  8
0
  6
Continuous
 62
     0
100
AcDbLine
 10
54.99999918043615
 20
39.99999940395355
 30
0.0
 11
54.99999918043615
 21
38.00000134110448
 31
0.0
  0
LINE
  5
232
330
81
100
AcDbEntity
  8
0
  6
Continuous
 62
     0
100
AcDbLine
 10
49.99999925494195
 20
39.99999940395355
 30
0.0
 11
49.99999925494195
 21
38.00000134110448
 31
0.0
  0
LINE
  5
233
330
81
100
AcDbEntity
  8
0
  6
Continuous
 62
     0
100
AcDbLine
 10
117.5000173225996
 20
-14.99999977648258
 30
0.0
 11
118.0000335276122
 21
-14.99999977648258
 31
0.0
  0
LINE
  5
234
330
81
100
AcDbEntity
  8
0
  6
Continuous
 62
     0
100
AcDbLine
 10
117.5000173225996
 20
14.99999977648258
 30
0.0
 11
118.0000335276122
 21
14.99999977648258
 31
0.0
  0
LINE
  5
235
330
81
100
AcDbEntity
  8
0
  6
Continuous
 62
     0
100
AcDbLine
 10
118.0000287592407
 20
30.25000050291419
 30
0.0
 11
118.0000287592407
 21
-30.24999573454267
 31
0.0
  0
LINE
  5
236
330
81
100
AcDbEntity
  8
0
  6
Continuous
 62
     0
100
AcDbLine
 10
2.499999962747097
 20
38.00000134110448
 30
0.0
 11
2.499999962747097
 21
-38.00000134110451
 31
0.0
  0
LINE
  5
237
330
81
100
AcDbEntity
  8
0
  6
Continuous
 62
     0
100
AcDbLine
 10
117.4999982491136
 20
30.00000432133669
 30
0.0
 11
117.4999982491136
 21
-29.99999955296516
 31
0.0
  0
LINE
  5
238
330
81
100
AcDbEntity
  8
0
  6
Continuous
 62
     0
100
AcDbLine
 10
2.999992325902099
 20
36.50000040978193
 30
0.0
 11
2.999992325902099
 21
26.99999769032004
 31
0.0
  0
LINE
  5
239
330
81
100
AcDbEntity
  8
0
  6
Continuous
 62
     0
100
AcDbLine
 10
13.10001353770474
 20
37.75000515952698
 30
0.0
 11
59.2500069849192
 21
37.75000515952698
 31
0.0
  0
LINE
  5
23A
330
81
100
AcDbEntity
  8
0
  6
Continuous
 62
     0
100
AcDbLine
 10
13.10001353770474
 20
-37.75000515952701
 30
0.0
 11
59.2500069849192
 21
-37.75000515952701
 31
0.0
  0
LINE
  5
23B
330
81
100
AcDbEntity
  8
0
  6
Continuous
 62
     0
100
AcDbLine
 10
59.2499914877118
 20
37.75000039115548
 30
0.0
 11
59.2499914877118
 21
30.99999858438969
 31
0.0
  0
LINE
  5
23C
330
81
100
AcDbEntity
  8
0
  6
Continuous
 62
     0
100
AcDbLine
 10
68.74999897554518
 20
37.75000039115548
 30
0.0
 11
68.74999897554518
 21
30.99999858438969
 31
0.0
  0
LINE
  5
23D
330
81
100
AcDbEntity
  8
0
  6
Continuous
 62
     0
100
AcDbLine
 10
68.74999897554518
 20
-31.00000335276121
 30
0.0
 11
68.74999897554518
 21
-37.74999562278396
 31
0.0
  0
LINE
  5
23E
330
81
100
AcDbEntity
  8
0
  6
Continuous
 62
     0
100
AcDbLine
 10
68.75000732019532
 20
-37.75000515952701
 30
0.0
 11
104.700005878508
 21
-37.75000515952701
 31
0.0
  0
LINE
  5
23F
330
81
100
AcDbEntity
  8
0
  6
Continuous
 62
     0
100
AcDbLine
 10
68.75000732019532
 20
37.75000515952698
 30
0.0
 11
104.700005878508
 21
37.75000515952698
 31
0.0
  0
LINE
  5
240
330
81
100
AcDbEntity
  8
0
  6
Continuous
 62
     0
100
AcDbLine
 10
104.7000106468795
 20
30.00000432133669
 30
0.0
 11
117.4999982491136
 21
30.00000432133669
 31
0.0
  0
LINE
  5
241
330
81
100
AcDbEntity
  8
0
  6
Continuous
 62
     0
100
AcDbLine
 10
104.7000106468795
 20
-29.99999955296516
 30
0.0
 11
117.4999982491136
 21
-29.99999955296516
 31
0.0
  0
LINE
  5
242
330
81
100
AcDbEntity
  8
0
  6
Continuous
 62
     0
100
AcDbLine
 10
104.7000106468795
 20
37.75000039115548
 30
0.0
 11
104.7000106468795
 21
30.00000432133669
 31
0.0
  0
LINE
  5
243
330
81
100
AcDbEntity
  8
0
  6
Continuous
 62
     0
100
AcDbLine
 10
104.7000106468795
 20
-29.99999955296516
 30
0.0
 11
104.7000106468795
 21
-37.74999562278396
 31
0.0
  0
LINE
  5
244
330
81
100
AcDbEntity
  8
0
  6
Continuous
 62
     0
100
AcDbLine
 10
4.600028923153445
 20
29.00000052154064
 30
0.0
 11
4.600028923153445
 21
26.99999769032004
 31
0.0
  0
LINE
  5
245
330
81
100
AcDbEntity
  8
0
  6
Continuous
 62
     0
100
AcDbLine
 10
13.10001353770474
 20
37.75000039115548
 30
0.0
 11
13.10001353770474
 21
-37.74999562278396
 31
0.0
  0
LINE
  5
246
330
81
100
AcDbEntity
  8
0
  6
DASHED
 62
     0
100
AcDbLine
 10
14.700011987984
 20
37.75000039115548
 30
0.0
 11
14.700011987984
 21
-37.74999562278396
 31
0.0
  0
LINE
  5
247
330
81
100
AcDbEntity
  8
0
  6
Continuous
 62
     0
100
AcDbLine
 10
13.10002671965355
 20
-37.749982562543
 30
0.0
 11
3.000020409431123
 21
-36.49998259237724
 31
0.0
  0
LINE
  5
248
330
81
100
AcDbEntity
  8
0
  6
Continuous
 62
     0
100
AcDbLine
 10
3.000021919296629
 20
36.49999656948494
 30
0.0
 11
13.10002822951906
 21
37.7499965396507
 31
0.0
  0
LINE
  5
249
330
81
100
AcDbEntity
  8
0
  6
Continuous
 62
     0
100
AcDbLine
 10
3.000006631016632
 20
-26.99999769032007
 30
0.0
 11
4.600014618038912
 21
-26.99999769032007
 31
0.0
  0
LINE
  5
24A
330
81
100
AcDbEntity
  8
0
  6
Continuous
 62
     0
100
AcDbLine
 10
2.999992325902099
 20
-26.99999769032007
 30
0.0
 11
2.999992325902099
 21
-36.49999564141041
 31
0.0
  0
LINE
  5
24B
330
81
100
AcDbEntity
  8
0
  6
Continuous
 62
     0
100
AcDbLine
 10
4.600028923153445
 20
-26.99999769032007
 30
0.0
 11
4.600028923153445
 21
-28.99999575316912
 31
0.0
  0
LINE
  5
24C
330
81
100
AcDbEntity
  8
0
  6
Continuous
 62
     0
100
AcDbLine
 10
2.999992325902099
 20
29.00000052154064
 30
0.0
 11
13.10001353770474
 21
29.00000052154064
 31
0.0
  0
LINE
  5
24D
330
81
100
AcDbEntity
  8
0
  6
Continuous
 62
     0
100
AcDbLine
 10
2.999992325902099
 20
-29.00000528991217
 30
0.0
 11
13.10001353770474
 21
-29.00000528991217
 31
0.0
  0
LINE
  5
24E
330
81
100
AcDbEntity
  8
0
  6
Continuous
 62
     0
100
AcDbLine
 10
42.00000700354565
 20
13.24999789521101
 30
0.0
 11
42.96892102109013
 21
13.24999789521101
 31
0.0
  0
LINE
  5
24F
330
81
100
AcDbEntity
  8
0
  6
Continuous
 62
     0
100
AcDbLine
 10
42.00000700354565
 20
16.75000165775415
 30
0.0
 11
42.96892102109013
 21
16.75000165775415
 31
0.0
  0
LINE
  5
250
330
81
100
AcDbEntity
  8
0
  6
Continuous
 62
     0
100
AcDbLine
 10
42.00000700354565
 20
-8.64999758228663
 30
0.0
 11
46.00000789761532
 21
-8.64999758228663
 31
0.0
  0
LINE
  5
251
330
81
100
AcDbEntity
  8
0
  6
Continuous
 62
     0
100
AcDbLine
 10
42.00000700354565
 20
-12.15000134482978
 30
0.0
 11
46.00000789761532
 21
-12.15000134482978
 31
0.0
  0
LINE
  5
252
330
81
100
AcDbEntity
  8
0
  6
Continuous
 62
     0
100
AcDbLine
 10
22.00000730156888
 20
6.750001806765766
 30
0.0
 11
24.00000536441795
 21
6.750001806765766
 31
0.0
  0
LINE
  5
253
330
81
100
AcDbEntity
  8
0
  6
Continuous
 62
     0
100
AcDbLine
 10
22.00000730156888
 20
3.249998044222622
 30
0.0
 11
24.00000536441795
 21
3.249998044222622
 31
0.0
  0
LINE
  5
254
330
81
100
AcDbEntity
  8
0
  6
Continuous
 62
     0
100
AcDbLine
 10
119.9999982118607
 20
36.00001758336998
 30
0.0
 11
119.9999982118607
 21
-36.00000327825546
 31
0.0
  0
LINE
  5
255
330
81
100
AcDbEntity
  8
0
  6
Continuous
 62
     0
100
AcDbLine
 10
3.000035241245698
 20
39.99999940395355
 30
0.0
 11
116.0000211596486
 21
39.99999940395355
 31
0.0
  0
LINE
  5
256
330
81
100
AcDbEntity
  8
0
  6
Continuous
 62
     0
100
AcDbLine
 10
25.06068163700066
 20
23.93933194012256
 30
0.0
 11
22.93936166222594
 21
26.06065191489728
 31
0.0
  0
LINE
  5
257
330
81
100
AcDbEntity
  8
0
  6
Continuous
 62
     0
100
AcDbLine
 10
22.00000730156888
 20
-16.75000165775418
 30
0.0
 11
24.00000536441795
 21
-16.75000165775418
 31
0.0
  0
LINE
  5
258
330
81
100
AcDbEntity
  8
0
  6
CENTER
 62
     4
100
AcDbLine
 10
23.99997675418888
 20
27.71698910419659
 30
0.0
 11
23.99997675418888
 21
21.96896520303241
 31
0.0
  0
LINE
  5
259
330
81
100
AcDbEntity
  8
0
  6
CENTER
 62
     4
100
AcDbLine
 10
22.00000730156887
 20
6.750001806765766
 30
0.0
 11
22.00000730156887
 21
3.249998044222622
 31
0.0
  0
LINE
  5
25A
330
81
100
AcDbEntity
  8
0
  6
CENTER
 62
     4
100
AcDbLine
 10
64.00001430511453
 20
-28.50000339001411
 30
0.0
 11
64.00001430511453
 21
-33.50000331550831
 31
0.0
  0
LINE
  5
25B
330
81
100
AcDbEntity
  8
0
  6
CENTER
 62
     4
100
AcDbLine
 10
61.50001434240836
 20
30.99998904764669
 30
0.0
 11
66.5000142678207
 21
30.99998904764669
 31
0.0
  0
LINE
  5
25C
330
81
100
AcDbEntity
  8
0
  6
CENTER
 62
     4
100
AcDbLine
 10
61.50001434236744
 20
-31.00000335276121
 30
0.0
 11
66.50001426786163
 21
-31.00000335276121
 31
0.0
  0
LINE
  5
25D
330
81
100
AcDbEntity
  8
0
  6
CENTER
 62
     4
100
AcDbLine
 10
64.00001430511453
 20
33.50000331550831
 30
0.0
 11
64.00001430511453
 21
28.50000339001411
 31
0.0
  0
LINE
  5
25E
330
81
100
AcDbEntity
  8
0
  6
CENTER
 62
     4
100
AcDbLine
 10
22.00000730156887
 20
-13.24999789521104
 30
0.0
 11
22.00000730156887
 21
-16.75000165775418
 31
0.0
  0
LINE
  5
25F
330
81
100
AcDbEntity
  8
0
  6
CENTER
 62
     4
100
AcDbLine
 10
23.99997675418888
 20
-13.24999789521104
 30
0.0
 11
23.99997675418888
 21
-16.75000165775418
 31
0.0
  0
LINE
  5
260
330
81
100
AcDbEntity
  8
0
  6
CENTER
 62
     4
100
AcDbLine
 10
40.25000705945099
 20
-10.39998992681518
 30
0.0
 11
47.75002214682451
 21
-10.39998992681518
 31
0.0
  0
LINE
  5
261
330
81
100
AcDbEntity
  8
0
  6
CENTER
 62
     4
100
AcDbLine
 10
46.00002220272984
 20
-8.64999758228663
 30
0.0
 11
46.00002220272984
 21
-12.15000134482978
 31
0.0
  0
LINE
  5
262
330
81
100
AcDbEntity
  8
0
  6
CENTER
 62
     4
100
AcDbLine
 10
42.00000700354565
 20
-8.64999758228663
 30
0.0
 11
42.00000700354565
 21
-12.15000134482978
 31
0.0
  0
LINE
  5
263
330
81
100
AcDbEntity
  8
0
  6
Continuous
 62
     0
100
AcDbLine
 10
0.0
 20
37.00001661479448
 30
0.0
 11
0.0
 21
-36.99999754130846
 31
0.0
  0
LINE
  5
264
330
81
100
AcDbEntity
  8
0
  6
CENTER
 62
     4
100
AcDbLine
 10
16.79999982118606
 20
-24.99999962747097
 30
0.0
 11
23.19999958276749
 21
-24.99999962747097
 31
0.0
  0
LINE
  5
265
330
81
100
AcDbEntity
  8
0
  6
CENTER
 62
     4
100
AcDbLine
 10
19.99999970197678
 20
-21.79999974668027
 30
0.0
 11
19.99999970197678
 21
-28.1999995082617
 31
0.0
  0
LINE
  5
266
330
81
100
AcDbEntity
  8
0
  6
CENTER
 62
     4
100
AcDbLine
 10
104.9999984353781
 20
-12.99999992549419
 30
0.0
 11
104.9999984353781
 21
-26.99999947845939
 31
0.0
  0
LINE
  5
267
330
81
100
AcDbEntity
  8
0
  6
CENTER
 62
     4
100
AcDbLine
 10
97.99999865889552
 20
-19.99999970197678
 30
0.0
 11
111.9999982118607
 21
-19.99999970197678
 31
0.0
  0
LINE
  5
268
330
81
100
AcDbEntity
  8
0
  6
CENTER
 62
     4
100
AcDbLine
 10
97.99999865889552
 20
20.0000044703483
 30
0.0
 11
111.9999982118607
 21
20.0000044703483
 31
0.0
  0
LINE
  5
269
330
81
100
AcDbEntity
  8
0
  6
CENTER
 62
     4
100
AcDbLine
 10
104.9999984353781
 20
27.00000424683088
 30
0.0
 11
104.9999984353781
 21
13.00000469386569
 31
0.0
  0
LINE
  5
26A
330
81
100
AcDbEntity
  8
0
  6
CENTER
 62
     4
100
AcDbLine
 10
23.99997675418888
 20
6.749999869199058
 30
0.0
 11
23.99997675418888
 21
3.249998044222622
 31
0.0
  0
LINE
  5
26B
330
81
100
AcDbEntity
  8
0
  6
CENTER
 62
     4
100
AcDbLine
 10
20.25000735744823
 20
4.999999925494194
 30
0.0
 11
25.75001484528161
 21
4.999999925494194
 31
0.0
  0
LINE
  5
26C
330
81
100
AcDbEntity
  8
0
  6
CENTER
 62
     4
100
AcDbLine
 10
24.00001013278946
 20
25.0000043958425
 30
0.0
 11
27.07132299138124
 21
25.0000043958425
 31
0.0
  0
LINE
  5
26D
330
81
100
AcDbEntity
  8
0
  6
CENTER
 62
     4
100
AcDbLine
 10
20.25000735744823
 20
-14.99999977648258
 30
0.0
 11
25.75001484528161
 21
-14.99999977648258
 31
0.0
  0
LINE
  5
26E
330
81
100
AcDbEntity
  8
0
  6
Continuous
 62
     0
100
AcDbLine
 10
22.00000730156888
 20
-13.24999789521104
 30
0.0
 11
24.00000536441795
 21
-13.24999789521104
 31
0.0
  0
LINE
  5
26F
330
81
100
AcDbEntity
  8
0
  6
Continuous
 62
     0
100
AcDbLine
 10
106.626319835188
 20
18.37366871805196
 30
0.0
 11
103.3736419074503
 21
21.62634664578971
 31
0.0
  0
LINE
  5
270
330
81
100
AcDbEntity
  8
0
  6
Continuous
 62
     0
100
AcDbLine
 10
103.3736301063329
 20
18.37369737790846
 30
0.0
 11
106.6263147775663
 21
21.62638204914187
 31
0.0
  0
LINE
  5
271
330
81
100
AcDbEntity
  8
0
  6
Continuous
 62
     0
100
AcDbLine
 10
106.6263451232967
 20
-21.62629459797858
 30
0.0
 11
103.3736806825503
 21
-18.37363015723216
 31
0.0
  0
LINE
  5
272
330
81
100
AcDbEntity
  8
0
  6
Continuous
 62
     0
100
AcDbLine
 10
103.3736368498285
 20
-21.6262912262308
 30
0.0
 11
106.6263215210619
 21
-18.37360655499739
 31
0.0
  0
LINE
  5
273
330
81
100
AcDbEntity
  8
0
  6
CENTER
 62
     4
100
AcDbLine
 10
-4.265065129621846
 20
0.0
 30
0.0
 11
124.0393810862395
 21
0.0
 31
0.0
  0
LINE
  5
274
330
81
100
AcDbEntity
  8
0
  6
CENTER
 62
     4
100
AcDbLine
 10
46.00002220272984
 20
18.13876125009713
 30
0.0
 11
46.00002220272984
 21
12.06611615320867
 31
0.0
  0
LINE
  5
275
330
81
100
AcDbEntity
  8
0
  6
CENTER
 62
     4
100
AcDbLine
 10
19.89016026422143
 20
24.99999962747097
 30
0.0
 11
27.50001002103075
 21
24.99999962747097
 31
0.0
  0
LINE
  5
276
330
81
100
AcDbEntity
  8
0
  6
CENTER
 62
     4
100
AcDbLine
 10
49.5000077858566
 20
14.99999977648258
 30
0.0
 11
42.50000800937402
 21
14.99999977648258
 31
0.0
  0
LINE
  5
277
330
81
100
AcDbEntity
  8
0
  6
CENTER
 62
     4
100
AcDbLine
 10
46.00000789761531
 20
18.49999966472387
 30
0.0
 11
46.00000789761531
 21
11.49999988824129
 31
0.0
  0
LINE
  5
278
330
81
100
AcDbEntity
  8
0
  6
Continuous
 62
     0
100
AcDbLine
 10
22.93934817523462
 20
23.93932351075296
 30
0.0
 11
25.06066983588328
 21
26.06064517140162
 31
0.0
  0
LINE
  5
279
330
81
100
AcDbEntity
  8
0
  6
CENTER
 62
     4
100
AcDbLine
 10
24.00001013278946
 20
28.49999951571226
 30
0.0
 11
24.00001013278946
 21
21.49999973922968
 31
0.0
  0
CIRCLE
  5
27A
330
81
100
AcDbEntity
  8
0
  6
Continuous
 62
     0
100
AcDbCircle
 10
46.00000789761531
 20
-24.99999962747097
 30
0.0
 40
3.499999888241292
  0
CIRCLE
  5
27B
330
81
100
AcDbEntity
  8
0
  6
Continuous
 62
     0
100
AcDbCircle
 10
46.00000789761531
 20
-24.99999962747097
 30
0.0
 40
2.800000268220897
  0
CIRCLE
  5
27C
330
81
100
AcDbEntity
  8
0
  6
Continuous
 62
     0
100
AcDbCircle
 10
46.00000789761531
 20
14.99999977648258
 30
0.0
 40
3.499999888241292
  0
CIRCLE
  5
27D
330
81
100
AcDbEntity
  8
0
  6
Continuous
 62
     0
100
AcDbCircle
 10
46.00000789761531
 20
14.99999977648258
 30
0.0
 40
2.800000268220897
  0
CIRCLE
  5
27E
330
81
100
AcDbEntity
  8
0
  6
Continuous
 62
     0
100
AcDbCircle
 10
24.00001013278946
 20
24.99998532235645
 30
0.0
 40
2.800000268220897
  0
CIRCLE
  5
27F
330
81
100
AcDbEntity
  8
0
  6
Continuous
 62
     0
100
AcDbCircle
 10
24.00001013278946
 20
24.99999962747097
 30
0.0
 40
3.499999888241292
  0
CIRCLE
  5
280
330
81
100
AcDbEntity
  8
0
  6
Continuous
 62
     0
100
AcDbCircle
 10
64.00001430511453
 20
31.00000335276121
 30
0.0
 40
2.067000388100737
  0
CIRCLE
  5
281
330
81
100
AcDbEntity
  8
0
  6
Continuous
 62
     0
100
AcDbCircle
 10
64.00001430511453
 20
-31.00000335276121
 30
0.0
 40
2.067000388100737
  0
CIRCLE
  5
282
330
81
100
AcDbEntity
  8
0
  6
Continuous
 62
     4
100
AcDbCircle
 10
64.00001430511453
 20
-31.00000335276121
 30
0.0
 40
2.499999962747097
  0
CIRCLE
  5
283
330
81
100
AcDbEntity
  8
0
  6
Continuous
 62
     4
100
AcDbCircle
 10
64.00001430511453
 20
31.00000335276121
 30
0.0
 40
2.499999962747097
  0
ARC
  5
284
330
81
100
AcDbEntity
  8
0
  6
Continuous
 62
     0
100
AcDbCircle
 10
64.00001430511453
 20
-31.00000335276121
 30
0.0
 40
4.500000111758707
100
AcDbArc
 50
359.9999826971572
 51
179.9999640278213
  0
ARC
  5
285
330
81
100
AcDbEntity
  8
0
  6
Continuous
 62
     0
100
AcDbCircle
 10
64.00001430511453
 20
31.00000335276121
 30
0.0
 40
4.500000111758707
100
AcDbArc
 50
179.9999813306653
 51
0.0
  0
ARC
  5
286
330
81
100
AcDbEntity
  8
0
  6
Continuous
 62
     0
100
AcDbCircle
 10
116.0000211596486
 20
-36.00000327825541
 30
0.0
 40
4.0
100
AcDbArc
 50
270.0000179860893
 51
0.0
  0
ARC
  5
287
330
81
100
AcDbEntity
  8
0
  6
Continuous
 62
     0
100
AcDbCircle
 10
116.0000211596486
 20
36.00001281499843
 30
0.0
 40
4.0
100
AcDbArc
 50
0.0
 51
89.99998201391067
  0
ARC
  5
288
330
81
100
AcDbEntity
  8
0
  6
Continuous
 62
     0
100
AcDbCircle
 10
3.000030472874187
 20
-36.99999754130846
 30
0.0
 40
3.000000968575463
100
AcDbArc
 50
180.0000359721787
 51
270.0000179860893
  0
ARC
  5
289
330
81
100
AcDbEntity
  8
0
  6
Continuous
 62
     0
100
AcDbCircle
 10
3.000030472874187
 20
37.00001661479448
 30
0.0
 40
3.000000968575463
100
AcDbArc
 50
89.99998201391067
 51
180.0000186693347
  0
ARC
  5
28A
330
81
100
AcDbEntity
  8
0
  6
Continuous
 62
     0
100
AcDbCircle
 10
64.00001430511453
 20
-31.00000335276121
 30
0.0
 40
4.749999869614841
100
AcDbArc
 50
0.0
 51
180.0000186693347
  0
ARC
  5
28B
330
81
100
AcDbEntity
  8
0
  6
Continuous
 62
     0
100
AcDbCircle
 10
64.00001430511453
 20
31.00000335276121
 30
0.0
 40
4.749999869614841
100
AcDbArc
 50
179.9999640278213
 51
0.0
  0
ARC
  5
28C
330
81
100
AcDbEntity
  8
0
  6
Continuous
 62
     0
100
AcDbCircle
 10
22.00000730156887
 20
4.999999925494194
 30
0.0
 40
1.749999944120646
100
AcDbArc
 50
89.99998201391067
 51
270.0000006832453
  0
ARC
  5
28D
330
81
100
AcDbEntity
  8
0
  6
Continuous
 62
     0
100
AcDbCircle
 10
22.00000730156887
 20
25.0000043958425
 30
0.0
 40
1.749999944120646
100
AcDbArc
 50
137.8224667331037
 51
222.1772973979988
  0
CIRCLE
  5
28E
330
81
100
AcDbEntity
  8
0
  6
Continuous
 62
     0
100
AcDbCircle
 10
104.9999984353781
 20
20.0000044703483
 30
0.0
 40
6.999999776482585
  0
CIRCLE
  5
28F
330
81
100
AcDbEntity
  8
0
  6
Continuous
 62
     0
100
AcDbCircle
 10
104.9999984353781
 20
20.0000044703483
 30
0.0
 40
4.999999925494195
  0
CIRCLE
  5
290
330
81
100
AcDbEntity
  8
0
  6
Continuous
 62
     0
100
AcDbCircle
 10
104.9999984353781
 20
-19.99999970197678
 30
0.0
 40
6.999999776482585
  0
CIRCLE
  5
291
330
81
100
AcDbEntity
  8
0
  6
Continuous
 62
     0
100
AcDbCircle
 10
104.9999984353781
 20
-19.99999970197678
 30
0.0
 40
4.999999925494195
  0
CIRCLE
  5
292
330
81
100
AcDbEntity
  8
0
  6
Continuous
 62
     0
100
AcDbCircle
 10
19.99999970197678
 20
-24.99999962747097
 30
0.0
 40
3.199999880790712
  0
ARC
  5
293
330
81
100
AcDbEntity
  8
0
  6
Continuous
 62
     0
100
AcDbCircle
 10
46.00002220272984
 20
-10.39999946355823
 30
0.0
 40
1.749999944120646
100
AcDbArc
 50
269.7682833279292
 51
89.99998201391067
  0
ARC
  5
294
330
81
100
AcDbEntity
  8
0
  6
Continuous
 62
     0
100
AcDbCircle
 10
42.00000700354565
 20
14.99999977648258
 30
0.0
 40
1.749999944120646
100
AcDbArc
 50
89.99998201391067
 51
270.0000006832453
  0
ARC
  5
295
330
81
100
AcDbEntity
  8
0
  6
Continuous
 62
     0
100
AcDbCircle
 10
42.00000700354565
 20
-10.39999946355823
 30
0.0
 40
1.749999944120646
100
AcDbArc
 50
89.99998201391067
 51
270.0000006832453
  0
ARC
  5
296
330
81
100
AcDbEntity
  8
0
  6
Continuous
 62
     0
100
AcDbCircle
 10
24.00001490116097
 20
4.999999925494194
 30
0.0
 40
1.749999944120646
100
AcDbArc
 50
270.0000179860893
 51
89.99998201391067
  0
ARC
  5
297
330
81
100
AcDbEntity
  8
0
  6
Continuous
 62
     0
100
AcDbCircle
 10
22.00000730156887
 20
-14.99999977648258
 30
0.0
 40
1.749999944120646
100
AcDbArc
 50
89.99998201391067
 51
270.0000006832453
  0
CIRCLE
  5
298
330
81
100
AcDbEntity
  8
0
  6
Continuous
 62
     0
100
AcDbCircle
 10
104.9999984353781
 20
19.99999493360525
 30
0.0
 40
3.499999888241292
  0
CIRCLE
  5
299
330
81
100
AcDbEntity
  8
0
  6
Continuous
 62
     0
100
AcDbCircle
 10
104.9999984353781
 20
-19.99999970197678
 30
0.0
 40
3.499999888241292
  0
ARC
  5
29A
330
81
100
AcDbEntity
  8
0
  6
Continuous
 62
     0
100
AcDbCircle
 10
24.00001490116097
 20
-14.99999977648258
 30
0.0
 40
1.749999944120646
100
AcDbArc
 50
270.0000179860893
 51
89.99998201391067
  0
MTEXT
  5
29B
330
81
100
AcDbEntity
  8
0
 62
     0
100
AcDbMText
 10
30.7229463121214
 20
32.53747960538598
 30
0.0
 40
0.5
 41
0.0
 71
     7
 72
     1
  1
{\W1;BN-4PA41-8}
 73
     1
 44
1.0
  0
ENDBLK
  5
83
330
81
100
AcDbEntity
  8
0
100
AcDbBlockEnd
  0
BLOCK
  5
29E
330
29D
100
AcDbEntity
  8
0
100
AcDbBlockBegin
  2
_Closed
 70
     0
 10
0.0
 20
0.0
 30
0.0
  3
_Closed
  1

  0
LINE
  5
2A0
330
29D
100
AcDbEntity
  8
0
  6
ByBlock
 62
     0
370
    -2
100
AcDbLine
 10
-1.0
 20
0.166667
 30
0.0
 11
0.0
 21
0.0
 31
0.0
  0
LINE
  5
2A1
330
29D
100
AcDbEntity
  8
0
  6
ByBlock
 62
     0
370
    -2
100
AcDbLine
 10
0.0
 20
0.0
 30
0.0
 11
-1.0
 21
-0.166667
 31
0.0
  0
LINE
  5
2A2
330
29D
100
AcDbEntity
  8
0
  6
ByBlock
 62
     0
370
    -2
100
AcDbLine
 10
-1.0
 20
0.166667
 30
0.0
 11
-1.0
 21
-0.166667
 31
0.0
  0
LINE
  5
2A3
330
29D
100
AcDbEntity
  8
0
  6
ByBlock
 62
     0
370
    -2
100
AcDbLine
 10
0.0
 20
0.0
 30
0.0
 11
-1.0
 21
0.0
 31
0.0
  0
ENDBLK
  5
29F
330
29D
100
AcDbEntity
  8
0
100
AcDbBlockEnd
  0
BLOCK
  5
2BA
330
2B9
100
AcDbEntity
  8
0
100
AcDbBlockBegin
  2
_Open30
 70
     0
 10
0.0
 20
0.0
 30
0.0
  3
_Open30
  1

  0
LINE
  5
2BC
330
2B9
100
AcDbEntity
  8
0
  6
ByBlock
 62
     0
370
    -2
100
AcDbLine
 10
-1.0
 20
0.267949
 30
0.0
 11
0.0
 21
0.0
 31
0.0
  0
LINE
  5
2BD
330
2B9
100
AcDbEntity
  8
0
  6
ByBlock
 62
     0
370
    -2
100
AcDbLine
 10
0.0
 20
0.0
 30
0.0
 11
-1.0
 21
-0.267949
 31
0.0
  0
LINE
  5
2BE
330
2B9
100
AcDbEntity
  8
0
  6
ByBlock
 62
     0
370
    -2
100
AcDbLine
 10
0.0
 20
0.0
 30
0.0
 11
-1.0
 21
0.0
 31
0.0
  0
ENDBLK
  5
2BB
330
2B9
100
AcDbEntity
  8
0
100
AcDbBlockEnd
  0
BLOCK
  5
2C1
330
2C0
100
AcDbEntity
  8
0
100
AcDbBlockBegin
  2
*D9
 70
     1
 10
0.0
 20
0.0
 30
0.0
  3
*D9
  1

  0
LINE
  5
2C3
330
2C0
100
AcDbEntity
  8
0
  6
ByBlock
 62
     0
370
    -2
100
AcDbLine
 10
367.3270363758946
 20
12.61930115917528
 30
0.0
 11
367.3270363758946
 21
-38.37816346003559
 31
0.0
  0
LINE
  5
2C4
330
2C0
100
AcDbEntity
  8
0
  6
ByBlock
 62
     0
370
    -2
100
AcDbLine
 10
329.3270827185052
 20
-1.380710314718606
 30
0.0
 11
329.3270827185052
 21
-38.37816346003559
 31
0.0
  0
LINE
  5
2C5
330
2C0
100
AcDbEntity
  8
0
  6
ByBlock
 62
     0
370
    -2
100
AcDbLine
 10
364.3270363758946
 20
-36.09216346003559
 30
0.0
 11
332.3270827185052
 21
-36.09216346003559
 31
0.0
  0
INSERT
  5
2C6
330
2C0
100
AcDbEntity
  8
0
 62
     0
370
    -2
100
AcDbBlockReference
  2
_Open30
 10
367.3270363758946
 20
-36.09216346003559
 30
0.0
 41
3.0
 42
3.0
 43
3.0
  0
INSERT
  5
2C7
330
2C0
100
AcDbEntity
  8
0
 62
     0
370
    -2
100
AcDbBlockReference
  2
_Open30
 10
329.3270827185052
 20
-36.09216346003559
 30
0.0
 41
3.0
 42
3.0
 43
3.0
 50
180.0
  0
MTEXT
  5
2C8
330
2C0
100
AcDbEntity
  8
0
 62
     0
100
AcDbMText
 10
348.3290595471998
 20
-30.09216346003559
 30
0.0
 40
8.0
 41
0.0
 71
     5
 72
     1
  1
38
 73
     1
 44
1.0
  0
POINT
  5
2C9
330
2C0
100
AcDbEntity
  8
Defpoints
 62
     0
100
AcDbPoint
 10
367.3270363758946
 20
12.61930115917528
 30
0.0
  0
POINT
  5
2CA
330
2C0
100
AcDbEntity
  8
Defpoints
 62
     0
100
AcDbPoint
 10
329.3270827185052
 20
-1.380710314718606
 30
0.0
  0
POINT
  5
2CB
330
2C0
100
AcDbEntity
  8
Defpoints
 62
     0
100
AcDbPoint
 10
329.3270827185052
 20
-36.09316346003558
 30
0.0
  0
ENDBLK
  5
2C2
330
2C0
100
AcDbEntity
  8
0
100
AcDbBlockEnd
  0
BLOCK
  5
2CE
330
2CD
100
AcDbEntity
  8
0
100
AcDbBlockBegin
  2
*D10
 70
     1
 10
0.0
 20
0.0
 30
0.0
  3
*D10
  1

  0
LINE
  5
2D0
330
2CD
100
AcDbEntity
  8
0
  6
ByBlock
 62
     0
370
    -2
100
AcDbLine
 10
352.2857234286409
 20
-7.380717616287477
 30
0.0
 11
392.4160456186376
 21
-7.380717616287484
 31
0.0
  0
LINE
  5
2D1
330
2CD
100
AcDbEntity
  8
0
  6
ByBlock
 62
     0
370
    -2
100
AcDbLine
 10
337.8270828302639
 20
7.119289797040096
 30
0.0
 11
392.4160456186376
 21
7.119289797040085
 31
0.0
  0
LINE
  5
2D2
330
2CD
100
AcDbEntity
  8
0
  6
ByBlock
 62
     0
370
    -2
100
AcDbLine
 10
390.1300456186377
 20
7.119289797040086
 30
0.0
 11
390.1300456186377
 21
37.35738503513538
 31
0.0
  0
LINE
  5
2D3
330
2CD
100
AcDbEntity
  8
0
  6
ByBlock
 62
     0
370
    -2
100
AcDbLine
 10
390.1300456186377
 20
-4.380717616287484
 30
0.0
 11
390.1300456186377
 21
4.119289797040086
 31
0.0
  0
INSERT
  5
2D4
330
2CD
100
AcDbEntity
  8
0
 62
     0
370
    -2
100
AcDbBlockReference
  2
_Open30
 10
390.1300456186377
 20
-7.380717616287484
 30
0.0
 41
3.0
 42
3.0
 43
3.0
 50
270.0
  0
INSERT
  5
2D5
330
2CD
100
AcDbEntity
  8
0
 62
     0
370
    -2
100
AcDbBlockReference
  2
_Open30
 10
390.1300456186377
 20
7.119289797040086
 30
0.0
 41
3.0
 42
3.0
 43
3.0
 50
90.0
  0
MTEXT
  5
2D6
330
2CD
100
AcDbEntity
  8
0
 62
     0
100
AcDbMText
 10
384.1300456186377
 20
23.73833741608773
 30
0.0
 40
8.0
 41
0.0
 71
     5
 72
     1
  1
14.5
 11
0.0
 21
1.0
 31
0.0
 73
     1
 44
1.0
  0
POINT
  5
2D7
330
2CD
100
AcDbEntity
  8
Defpoints
 62
     0
100
AcDbPoint
 10
352.2857234286409
 20
-7.380717616287477
 30
0.0
  0
POINT
  5
2D8
330
2CD
100
AcDbEntity
  8
Defpoints
 62
     0
100
AcDbPoint
 10
337.8270828302639
 20
7.119289797040096
 30
0.0
  0
POINT
  5
2D9
330
2CD
100
AcDbEntity
  8
Defpoints
 62
     0
100
AcDbPoint
 10
390.1290456186377
 20
7.119289797040096
 30
0.0
  0
ENDBLK
  5
2CF
330
2CD
100
AcDbEntity
  8
0
100
AcDbBlockEnd
  0
BLOCK
  5
2E1
330
2DA
100
AcDbEntity
  8
0
100
AcDbBlockBegin
  2
SYM0001
 70
     0
 10
0.0
 20
0.0
 30
0.0
  3
SYM0001
  1

  0
LINE
  5
2DB
330
2DA
100
AcDbEntity
  8
0
  6
Continuous
 62
     7
100
AcDbLine
 10
0.0
 20
0.0
 30
0.0
 11
8.935080302008423
 21
-20.80406299650639
 31
0.0
  0
LINE
  5
2DC
330
2DA
100
AcDbEntity
  8
0
  6
Continuous
 62
     7
100
AcDbLine
 10
0.0
 20
0.0
 30
0.0
 11
1.957439531439668
 21
-2.483632517422393
 31
0.0
  0
LINE
  5
2DD
330
2DA
100
AcDbEntity
  8
0
  6
Continuous
 62
     7
100
AcDbLine
 10
0.0
 20
0.0
 30
0.0
 11
0.453376102068233
 21
-3.129608619446515
 31
0.0
  0
LINE
  5
2DE
330
2DA
100
AcDbEntity
  8
0
  6
Continuous
 62
     7
100
AcDbLine
 10
8.935080302008423
 20
-20.80406299650642
 30
0.0
 11
13.87667280778584
 21
-20.80406299650642
 31
0.0
  0
MTEXT
  5
2DF
102
{ACAD_XDICTIONARY
360
35F
102
}
330
2DA
100
AcDbEntity
  8
0
 62
     7
100
AcDbMText
 10
17.59142295720353
 20
-36.80405738637126
 30
0.0
 40
8.0
 41
66.65112204551697
 71
     7
 72
     1
  1
{\W0.83333x;2-M5}{\fArial|b0|i0|c0|p0;\W0.83333x;\U+00D7}{\W0.83333x;0.8}\P{\fＭＳ Ｐゴシック|b0|i0|c0|p0;\W0.83333x;\U+6DF1\U+3055}{\W0.83333x;10}
 73
     1
 44
0.7875
  0
ENDBLK
  5
2E2
330
2DA
100
AcDbEntity
  8
0
100
AcDbBlockEnd
  0
BLOCK
  5
2E5
330
2E4
100
AcDbEntity
  8
0
100
AcDbBlockBegin
  2
*D12
 70
     1
 10
0.0
 20
0.0
 30
0.0
  3
*D12
  1

  0
LINE
  5
2E7
330
2E4
100
AcDbEntity
  8
0
  6
ByBlock
 62
     0
370
    -2
100
AcDbLine
 10
-58.84014019608287
 20
195.2040311947721
 30
0.0
 11
-58.84014019608287
 21
223.4305902268623
 31
0.0
  0
LINE
  5
2E8
330
2E4
100
AcDbEntity
  8
0
  6
ByBlock
 62
     0
370
    -2
100
AcDbLine
 10
61.15985801577779
 20
194.2040464684621
 30
0.0
 11
61.15985801577779
 21
223.4305902268622
 31
0.0
  0
LINE
  5
2E9
330
2E4
100
AcDbEntity
  8
0
  6
ByBlock
 62
     0
370
    -2
100
AcDbLine
 10
-55.84014019608287
 20
221.1445902268622
 30
0.0
 11
58.15985801577779
 21
221.1445902268622
 31
0.0
  0
INSERT
  5
2EA
330
2E4
100
AcDbEntity
  8
0
 62
     0
370
    -2
100
AcDbBlockReference
  2
_Open30
 10
-58.84014019608287
 20
221.1445902268622
 30
0.0
 41
3.0
 42
3.0
 43
3.0
 50
180.0
  0
INSERT
  5
2EB
330
2E4
100
AcDbEntity
  8
0
 62
     0
370
    -2
100
AcDbBlockReference
  2
_Open30
 10
61.15985801577779
 20
221.1445902268622
 30
0.0
 41
3.0
 42
3.0
 43
3.0
 50
360.0
  0
MTEXT
  5
2EC
330
2E4
100
AcDbEntity
  8
0
 62
     0
100
AcDbMText
 10
1.160868446590509
 20
227.1445902268622
 30
0.0
 40
8.0
 41
0.0
 71
     5
 72
     1
  1
120
 73
     1
 44
1.0
  0
POINT
  5
2ED
330
2E4
100
AcDbEntity
  8
Defpoints
 62
     0
100
AcDbPoint
 10
-58.84014019608287
 20
195.2040311947721
 30
0.0
  0
POINT
  5
2EE
330
2E4
100
AcDbEntity
  8
Defpoints
 62
     0
100
AcDbPoint
 10
61.15985801577779
 20
194.2040464684621
 30
0.0
  0
POINT
  5
2EF
330
2E4
100
AcDbEntity
  8
Defpoints
 62
     0
100
AcDbPoint
 10
61.15985801577779
 20
221.1445902268622
 30
0.0
  0
ENDBLK
  5
2E6
330
2E4
100
AcDbEntity
  8
0
100
AcDbBlockEnd
  0
BLOCK
  5
2F2
330
2F1
100
AcDbEntity
  8
0
100
AcDbBlockBegin
  2
*D13
 70
     1
 10
0.0
 20
0.0
 30
0.0
  3
*D13
  1

  0
LINE
  5
2F4
330
2F1
100
AcDbEntity
  8
0
  6
ByBlock
 62
     0
370
    -2
100
AcDbLine
 10
-58.84014019608287
 20
-145.7066838134969
 30
0.0
 11
-58.84014019608287
 21
-171.1410929803781
 31
0.0
  0
LINE
  5
2F5
330
2F1
100
AcDbEntity
  8
0
  6
ByBlock
 62
     0
370
    -2
100
AcDbLine
 10
5.159912256003736
 20
-142.2066895874057
 30
0.0
 11
5.159912256003736
 21
-171.1410929803781
 31
0.0
  0
LINE
  5
2F6
330
2F1
100
AcDbEntity
  8
0
  6
ByBlock
 62
     0
370
    -2
100
AcDbLine
 10
-55.84014019608287
 20
-168.8550975310436
 30
0.0
 11
2.159912256003736
 21
-168.8550975310436
 31
0.0
  0
INSERT
  5
2F7
330
2F1
100
AcDbEntity
  8
0
 62
     0
370
    -2
100
AcDbBlockReference
  2
_Open30
 10
-58.84014019608287
 20
-168.8550975310436
 30
0.0
 41
3.0
 42
3.0
 43
3.0
 50
180.0
  0
INSERT
  5
2F8
330
2F1
100
AcDbEntity
  8
0
 62
     0
370
    -2
100
AcDbBlockReference
  2
_Open30
 10
5.159912256003736
 20
-168.8550975310436
 30
0.0
 41
3.0
 42
3.0
 43
3.0
  0
MTEXT
  5
2F9
330
2F1
100
AcDbEntity
  8
0
 62
     0
100
AcDbMText
 10
-26.83913304352561
 20
-162.8550975310436
 30
0.0
 40
8.0
 41
0.0
 71
     5
 72
     1
  1
64
 73
     1
 44
1.0
  0
POINT
  5
2FA
330
2F1
100
AcDbEntity
  8
Defpoints
 62
     0
100
AcDbPoint
 10
-58.84014019608287
 20
-145.7066838134969
 30
0.0
  0
POINT
  5
2FB
330
2F1
100
AcDbEntity
  8
Defpoints
 62
     0
100
AcDbPoint
 10
5.159912256003736
 20
-142.2066895874057
 30
0.0
  0
POINT
  5
2FC
330
2F1
100
AcDbEntity
  8
Defpoints
 62
     0
100
AcDbPoint
 10
5.159912256003736
 20
-168.8560975310436
 30
0.0
  0
ENDBLK
  5
2F3
330
2F1
100
AcDbEntity
  8
0
100
AcDbBlockEnd
  0
BLOCK
  5
2FF
330
2FE
100
AcDbEntity
  8
0
100
AcDbBlockBegin
  2
*D14
 70
     1
 10
0.0
 20
0.0
 30
0.0
  3
*D14
  1

  0
LINE
  5
301
330
2FE
100
AcDbEntity
  8
0
  6
ByBlock
 62
     0
370
    -2
100
AcDbLine
 10
7.659874071778752
 20
-139.7066896249496
 30
0.0
 11
25.23456081398486
 21
-139.7066896249496
 31
0.0
  0
LINE
  5
302
330
2FE
100
AcDbEntity
  8
0
  6
ByBlock
 62
     0
370
    -2
100
AcDbLine
 10
7.659874071737825
 20
-77.70669722454159
 30
0.0
 11
25.23456081398487
 21
-77.70669722454159
 31
0.0
  0
LINE
  5
303
330
2FE
100
AcDbEntity
  8
0
  6
ByBlock
 62
     0
370
    -2
100
AcDbLine
 10
22.94857013302191
 20
-136.7066896249496
 30
0.0
 11
22.94857013302192
 21
-80.70669722454159
 31
0.0
  0
INSERT
  5
304
330
2FE
100
AcDbEntity
  8
0
 62
     0
370
    -2
100
AcDbBlockReference
  2
_Open30
 10
22.94857013302191
 20
-139.7066896249496
 30
0.0
 41
3.0
 42
3.0
 43
3.0
 50
270.0
  0
INSERT
  5
305
330
2FE
100
AcDbEntity
  8
0
 62
     0
370
    -2
100
AcDbBlockReference
  2
_Open30
 10
22.94857013302192
 20
-77.70669722454159
 30
0.0
 41
3.0
 42
3.0
 43
3.0
 50
90.0
  0
MTEXT
  5
306
330
2FE
100
AcDbEntity
  8
0
 62
     0
100
AcDbMText
 10
19.94857156353339
 20
-108.7056862721883
 30
0.0
 40
3.999998092651367
 41
0.0
 71
     5
 72
     1
  1
62
 11
1.719055216582795E-16
 21
1.0
 31
0.0
 73
     1
 44
1.0
  0
POINT
  5
307
330
2FE
100
AcDbEntity
  8
Defpoints
 62
     0
100
AcDbPoint
 10
7.659874071778752
 20
-139.7066896249496
 30
0.0
  0
POINT
  5
308
330
2FE
100
AcDbEntity
  8
Defpoints
 62
     0
100
AcDbPoint
 10
7.659874071737825
 20
-77.70669722454159
 30
0.0
  0
POINT
  5
309
330
2FE
100
AcDbEntity
  8
Defpoints
 62
     0
100
AcDbPoint
 10
22.94857013302192
 20
-77.70669722454159
 30
0.0
  0
ENDBLK
  5
300
330
2FE
100
AcDbEntity
  8
0
100
AcDbBlockEnd
  0
BLOCK
  5
311
330
30A
100
AcDbEntity
  8
0
100
AcDbBlockBegin
  2
SYM0002
 70
     0
 10
0.0
 20
0.0
 30
0.0
  3
SYM0002
  1

  0
LINE
  5
30B
330
30A
100
AcDbEntity
  8
0
  6
Continuous
 62
     7
100
AcDbLine
 10
0.0
 20
0.0
 30
0.0
 11
-9.481317527561487
 21
-27.99549703882899
 31
0.0
  0
LINE
  5
30C
330
30A
100
AcDbEntity
  8
0
  6
Continuous
 62
     7
100
AcDbLine
 10
0.0
 20
0.0
 30
0.0
 11
-0.478907746755908
 21
-3.125547051333127
 31
0.0
  0
LINE
  5
30D
330
30A
100
AcDbEntity
  8
0
  6
Continuous
 62
     7
100
AcDbLine
 10
0.0
 20
0.0
 30
0.0
 11
-1.51888409646881
 21
-2.773335194579638
 31
0.0
  0
LINE
  5
30E
330
30A
100
AcDbEntity
  8
0
  6
Continuous
 62
     7
100
AcDbLine
 10
-9.481317527561487
 20
-27.995497038829
 30
0.0
 11
-13.4338909376969
 21
-27.995497038829
 31
0.0
  0
MTEXT
  5
30F
330
30A
100
AcDbEntity
  8
0
 62
     7
100
AcDbMText
 10
-86.86264763027418
 20
-31.99549146047599
 30
0.0
 40
8.0
 41
0.0
 71
     7
 72
     1
  1
{\W0.833333;(EX)Rc1/8}
 73
     1
 44
1.0
  0
ENDBLK
  5
312
330
30A
100
AcDbEntity
  8
0
100
AcDbBlockEnd
  0
BLOCK
  5
315
330
314
100
AcDbEntity
  8
0
100
AcDbBlockBegin
  2
*D16
 70
     1
 10
0.0
 20
0.0
 30
0.0
  3
*D16
  1

  0
LINE
  5
317
330
314
100
AcDbEntity
  8
0
  6
ByBlock
 62
     0
370
    -2
100
AcDbLine
 10
-43.79878433348563
 20
-7.380717616287484
 30
0.0
 11
-80.29005044467668
 21
-7.380717616287476
 31
0.0
  0
LINE
  5
318
330
314
100
AcDbEntity
  8
0
  6
ByBlock
 62
     0
370
    -2
100
AcDbLine
 10
-11.8401213461143
 20
41.11928547570346
 30
0.0
 11
-80.29005044467667
 21
41.11928547570348
 31
0.0
  0
LINE
  5
319
330
314
100
AcDbEntity
  8
0
  6
ByBlock
 62
     0
370
    -2
100
AcDbLine
 10
-76.7187976750166
 20
-4.380717616287477
 30
0.0
 11
-76.71879767501659
 21
38.11928547570348
 31
0.0
  0
INSERT
  5
31A
330
314
100
AcDbEntity
  8
0
 62
     0
370
    -2
100
AcDbBlockReference
  2
_Open30
 10
-76.7187976750166
 20
-7.380717616287477
 30
0.0
 41
3.0
 42
3.0
 43
3.0
 50
270.0
  0
INSERT
  5
31B
330
314
100
AcDbEntity
  8
0
 62
     0
370
    -2
100
AcDbBlockReference
  2
_Open30
 10
-76.71879767501659
 20
41.11928547570348
 30
0.0
 41
3.0
 42
3.0
 43
3.0
 50
89.99999999999999
  0
MTEXT
  5
31C
330
314
100
AcDbEntity
  8
0
 62
     0
100
AcDbMText
 10
-82.71879767501659
 20
16.87028392970799
 30
0.0
 40
8.0
 41
0.0
 71
     5
 72
     1
  1
48.5
 11
2.930072950355898E-16
 21
1.0
 31
0.0
 73
     1
 44
1.0
  0
POINT
  5
31D
330
314
100
AcDbEntity
  8
Defpoints
 62
     0
100
AcDbPoint
 10
-43.79878433348563
 20
-7.380717616287484
 30
0.0
  0
POINT
  5
31E
330
314
100
AcDbEntity
  8
Defpoints
 62
     0
100
AcDbPoint
 10
-11.8401213461143
 20
41.11928547570346
 30
0.0
  0
POINT
  5
31F
330
314
100
AcDbEntity
  8
Defpoints
 62
     0
100
AcDbPoint
 10
-76.7197976750166
 20
41.11928547570346
 30
0.0
  0
ENDBLK
  5
316
330
314
100
AcDbEntity
  8
0
100
AcDbBlockEnd
  0
BLOCK
  5
322
330
321
100
AcDbEntity
  8
0
100
AcDbBlockBegin
  2
*D17
 70
     1
 10
0.0
 20
0.0
 30
0.0
  3
*D17
  1

  0
LINE
  5
324
330
321
100
AcDbEntity
  8
0
  6
ByBlock
 62
     0
370
    -2
100
AcDbLine
 10
-156.6616032770037
 20
43.2814463168977
 30
0.0
 11
-156.6616032770037
 21
59.06634388594466
 31
0.0
  0
LINE
  5
325
330
321
100
AcDbEntity
  8
0
  6
ByBlock
 62
     0
370
    -2
100
AcDbLine
 10
-176.6616029789805
 20
20.36928590411173
 30
0.0
 11
-176.6616029789805
 21
59.06634388594466
 31
0.0
  0
LINE
  5
326
330
321
100
AcDbEntity
  8
0
  6
ByBlock
 62
     0
370
    -2
100
AcDbLine
 10
-159.6616032770037
 20
55.49509588465605
 30
0.0
 11
-173.6616029789805
 21
55.49509588465605
 31
0.0
  0
INSERT
  5
327
330
321
100
AcDbEntity
  8
0
 62
     0
370
    -2
100
AcDbBlockReference
  2
_Open30
 10
-156.6616032770037
 20
55.49509588465605
 30
0.0
 41
3.0
 42
3.0
 43
3.0
  0
INSERT
  5
328
330
321
100
AcDbEntity
  8
0
 62
     0
370
    -2
100
AcDbBlockReference
  2
_Open30
 10
-176.6616029789805
 20
55.49509588465605
 30
0.0
 41
3.0
 42
3.0
 43
3.0
 50
180.0
  0
MTEXT
  5
329
330
321
100
AcDbEntity
  8
0
 62
     0
100
AcDbMText
 10
-166.6596031279921
 20
61.49509588465605
 30
0.0
 40
8.0
 41
0.0
 71
     5
 72
     1
  1
20
 73
     1
 44
1.0
  0
POINT
  5
32A
330
321
100
AcDbEntity
  8
Defpoints
 62
     0
100
AcDbPoint
 10
-156.6616032770037
 20
43.2814463168977
 30
0.0
  0
POINT
  5
32B
330
321
100
AcDbEntity
  8
Defpoints
 62
     0
100
AcDbPoint
 10
-176.6616029789805
 20
20.36928590411173
 30
0.0
  0
POINT
  5
32C
330
321
100
AcDbEntity
  8
Defpoints
 62
     0
100
AcDbPoint
 10
-176.6616029789805
 20
55.49509588465605
 30
0.0
  0
ENDBLK
  5
323
330
321
100
AcDbEntity
  8
0
100
AcDbBlockEnd
  0
BLOCK
  5
32F
330
32E
100
AcDbEntity
  8
0
100
AcDbBlockBegin
  2
*D18
 70
     1
 10
0.0
 20
0.0
 30
0.0
  3
*D18
  1

  0
LINE
  5
331
330
32E
100
AcDbEntity
  8
0
  6
ByBlock
 62
     0
370
    -2
100
AcDbLine
 10
-55.84011449158021
 20
118.2040628597391
 30
0.0
 11
-88.75396953826832
 21
118.2040628597391
 31
0.0
  0
LINE
  5
332
330
32E
100
AcDbEntity
  8
0
  6
ByBlock
 62
     0
370
    -2
100
AcDbLine
 10
-55.84011449158021
 20
198.2040616676463
 30
0.0
 11
-88.75396953826831
 21
198.2040616676463
 31
0.0
  0
LINE
  5
333
330
32E
100
AcDbEntity
  8
0
  6
ByBlock
 62
     0
370
    -2
100
AcDbLine
 10
-86.46796953826832
 20
121.2040628597391
 30
0.0
 11
-86.4679695382683
 21
195.2040616676463
 31
0.0
  0
INSERT
  5
334
330
32E
100
AcDbEntity
  8
0
 62
     0
370
    -2
100
AcDbBlockReference
  2
_Open30
 10
-86.46796953826832
 20
118.2040628597391
 30
0.0
 41
3.0
 42
3.0
 43
3.0
 50
270.0
  0
INSERT
  5
335
330
32E
100
AcDbEntity
  8
0
 62
     0
370
    -2
100
AcDbBlockReference
  2
_Open30
 10
-86.4679695382683
 20
198.2040616676463
 30
0.0
 41
3.0
 42
3.0
 43
3.0
 50
89.99999999999999
  0
MTEXT
  5
336
330
32E
100
AcDbEntity
  8
0
 62
     0
100
AcDbMText
 10
-92.4679695382683
 20
158.2050622636927
 30
0.0
 40
8.0
 41
0.0
 71
     5
 72
     1
  1
80
 11
1.776356865870028E-16
 21
1.0
 31
0.0
 73
     1
 44
1.0
  0
POINT
  5
337
330
32E
100
AcDbEntity
  8
Defpoints
 62
     0
100
AcDbPoint
 10
-55.84011449158021
 20
118.2040628597391
 30
0.0
  0
POINT
  5
338
330
32E
100
AcDbEntity
  8
Defpoints
 62
     0
100
AcDbPoint
 10
-55.84011449158021
 20
198.2040616676463
 30
0.0
  0
POINT
  5
339
330
32E
100
AcDbEntity
  8
Defpoints
 62
     0
100
AcDbPoint
 10
-86.46896953826831
 20
198.2040616676463
 30
0.0
  0
ENDBLK
  5
330
330
32E
100
AcDbEntity
  8
0
100
AcDbBlockEnd
  0
BLOCK
  5
33C
330
33B
100
AcDbEntity
  8
0
100
AcDbBlockBegin
  2
*D19
 70
     1
 10
0.0
 20
0.0
 30
0.0
  3
*D19
  1

  0
LINE
  5
33E
330
33B
100
AcDbEntity
  8
0
  6
ByBlock
 62
     0
370
    -2
100
AcDbLine
 10
-196.6616217544433
 20
-7.380717616287484
 30
0.0
 11
-212.9541472074517
 21
-7.380717616287479
 31
0.0
  0
LINE
  5
33F
330
33B
100
AcDbEntity
  8
0
  6
ByBlock
 62
     0
370
    -2
100
AcDbLine
 10
-183.4116029976069
 20
13.61928588548528
 30
0.0
 11
-212.9541472074517
 21
13.61928588548529
 31
0.0
  0
LINE
  5
340
330
33B
100
AcDbEntity
  8
0
  6
ByBlock
 62
     0
370
    -2
100
AcDbLine
 10
-209.3829039745345
 20
-4.38071761628748
 30
0.0
 11
-209.3829039745345
 21
10.61928588548529
 31
0.0
  0
INSERT
  5
341
330
33B
100
AcDbEntity
  8
0
 62
     0
370
    -2
100
AcDbBlockReference
  2
_Open30
 10
-209.3829039745345
 20
-7.38071761628748
 30
0.0
 41
3.0
 42
3.0
 43
3.0
 50
270.0
  0
INSERT
  5
342
330
33B
100
AcDbEntity
  8
0
 62
     0
370
    -2
100
AcDbBlockReference
  2
_Open30
 10
-209.3829039745345
 20
13.61928588548529
 30
0.0
 41
3.0
 42
3.0
 43
3.0
 50
90.0
  0
MTEXT
  5
343
330
33B
100
AcDbEntity
  8
0
 62
     0
100
AcDbMText
 10
-215.3829039745345
 20
3.120284134598956
 30
0.0
 40
8.0
 41
0.0
 71
     5
 72
     1
  1
21
 11
0.0
 21
1.0
 31
0.0
 73
     1
 44
1.0
  0
POINT
  5
344
330
33B
100
AcDbEntity
  8
Defpoints
 62
     0
100
AcDbPoint
 10
-196.6616217544433
 20
-7.380717616287484
 30
0.0
  0
POINT
  5
345
330
33B
100
AcDbEntity
  8
Defpoints
 62
     0
100
AcDbPoint
 10
-183.4116029976069
 20
13.61928588548528
 30
0.0
  0
POINT
  5
346
330
33B
100
AcDbEntity
  8
Defpoints
 62
     0
100
AcDbPoint
 10
-209.3839039745345
 20
13.61928588548528
 30
0.0
  0
ENDBLK
  5
33D
330
33B
100
AcDbEntity
  8
0
100
AcDbBlockEnd
  0
BLOCK
  5
349
330
348
100
AcDbEntity
  8
0
100
AcDbBlockBegin
  2
*D20
 70
     1
 10
0.0
 20
0.0
 30
0.0
  3
*D20
  1

  0
LINE
  5
34B
330
348
100
AcDbEntity
  8
0
  6
ByBlock
 62
     0
370
    -2
100
AcDbLine
 10
-136.6616035750269
 20
20.36928590411173
 30
0.0
 11
-136.6616035750269
 21
59.06634388594466
 31
0.0
  0
LINE
  5
34C
330
348
100
AcDbEntity
  8
0
  6
ByBlock
 62
     0
370
    -2
100
AcDbLine
 10
-153.6616032770037
 20
55.49509588465605
 30
0.0
 11
-139.6616035750269
 21
55.49509588465605
 31
0.0
  0
INSERT
  5
34D
330
348
100
AcDbEntity
  8
0
 62
     0
370
    -2
100
AcDbBlockReference
  2
_Open30
 10
-156.6616032770037
 20
55.49509588465605
 30
0.0
 41
3.0
 42
3.0
 43
3.0
 50
180.0
  0
INSERT
  5
34E
330
348
100
AcDbEntity
  8
0
 62
     0
370
    -2
100
AcDbBlockReference
  2
_Open30
 10
-136.6616035750269
 20
55.49509588465605
 30
0.0
 41
3.0
 42
3.0
 43
3.0
  0
MTEXT
  5
34F
330
348
100
AcDbEntity
  8
0
 62
     0
100
AcDbMText
 10
-146.6606034260153
 20
61.49509588465605
 30
0.0
 40
8.0
 41
0.0
 71
     5
 72
     1
  1
20
 73
     1
 44
1.0
  0
POINT
  5
350
330
348
100
AcDbEntity
  8
Defpoints
 62
     0
100
AcDbPoint
 10
-156.6616032770037
 20
43.2814463168977
 30
0.0
  0
POINT
  5
351
330
348
100
AcDbEntity
  8
Defpoints
 62
     0
100
AcDbPoint
 10
-136.6616035750269
 20
20.36928590411173
 30
0.0
  0
POINT
  5
352
330
348
100
AcDbEntity
  8
Defpoints
 62
     0
100
AcDbPoint
 10
-136.6616035750269
 20
55.49509588465605
 30
0.0
  0
ENDBLK
  5
34A
330
348
100
AcDbEntity
  8
0
100
AcDbBlockEnd
  0
ENDSEC
  0
SECTION
  2
ENTITIES
  0
LINE
  5
2A5
330
1F
100
AcDbEntity
  8
0
  6
Continuous
 62
     7
100
AcDbLine
 10
438.2093739558154
 20
286.5569921463003
 30
0.0
 11
438.2093739558154
 21
-204.4290508411839
 31
0.0
  0
LINE
  5
2A6
330
1F
100
AcDbEntity
  8
0
  6
Continuous
 62
     7
100
AcDbLine
 10
-246.7906260441846
 20
286.5569921463003
 30
0.0
 11
-246.7906260441846
 21
-204.4290508411839
 31
0.0
  0
LINE
  5
2A7
330
1F
100
AcDbEntity
  8
0
  6
Continuous
 62
     7
100
AcDbLine
 10
-246.7906260441846
 20
-204.4290508411839
 30
0.0
 11
438.2093739558154
 21
-204.4290508411839
 31
0.0
  0
LINE
  5
2A8
330
1F
100
AcDbEntity
  8
0
  6
Continuous
 62
     7
100
AcDbLine
 10
-246.7906260441846
 20
286.5569921463003
 30
0.0
 11
438.2093739558154
 21
286.5569921463003
 31
0.0
  0
LINE
  5
2A9
330
1F
100
AcDbEntity
  8
0
  6
Continuous
 62
     7
100
AcDbLine
 10
-246.7906260441846
 20
255.5569921463004
 30
0.0
 11
438.2093739558154
 21
255.5569921463004
 31
0.0
  0
MTEXT
  5
2AA
330
1F
100
AcDbEntity
  8
0
 62
     7
100
AcDbMText
 10
-219.7932985131466
 20
263.5569921463003
 30
0.0
 40
15.0
 41
0.0
 71
     7
 72
     1
  1
{\W0.833333;NIHON　SEIKI　　BN-4PA41-8}
 73
     1
 44
1.0
  0
MTEXT
  5
2AB
330
1F
100
AcDbEntity
  8
0
 62
     7
100
AcDbMText
 10
105.4273881454408
 20
52.00864664522828
 30
0.0
 40
10.0
 41
0.0
 71
     7
 72
     1
  1
{\W1;*4}
 73
     1
 44
1.0
  0
MTEXT
  5
2AC
330
1F
100
AcDbEntity
  8
0
 62
     7
100
AcDbMText
 10
-123.6288087621537
 20
53.52367437128271
 30
0.0
 40
10.0
 41
0.0
 71
     7
 72
     1
  1
{\W1;*3}
 73
     1
 44
1.0
  0
MTEXT
  5
2AD
330
1F
100
AcDbEntity
  8
0
 62
     7
100
AcDbMText
 10
47.19178177425621
 20
52.79561429889293
 30
0.0
 40
10.0
 41
0.0
 71
     7
 72
     1
  1
{\W1;*1}
 73
     1
 44
1.0
  0
MTEXT
  5
2AE
330
1F
100
AcDbEntity
  8
0
 62
     7
100
AcDbMText
 10
247.8685334587435
 20
51.22167899156364
 30
0.0
 40
10.0
 41
0.0
 71
     7
 72
     1
  1
{\W1;*5}
 73
     1
 44
1.0
  0
MTEXT
  5
2AF
330
1F
100
AcDbEntity
  8
0
 62
     7
100
AcDbMText
 10
43.25694350593297
 20
97.59647846239102
 30
0.0
 40
10.0
 41
0.0
 71
     7
 72
     1
  1
{\W1;*2}
 73
     1
 44
1.0
  0
MTEXT
  5
2B0
330
1F
100
AcDbEntity
  8
0
 62
     7
100
AcDbMText
 10
49.5526847352502
 20
-53.98341907191946
 30
0.0
 40
10.0
 41
0.0
 71
     7
 72
     1
  1
{\W1;*6}
 73
     1
 44
1.0
  0
MTEXT
  5
2B1
330
1F
100
AcDbEntity
  8
0
 62
     7
100
AcDbMText
 10
432.1506752574314
 20
-203.9971157758836
 30
0.0
 40
0.5
 41
0.0
 71
     7
 72
     1
  1
{\W0.833333;EBAC-0007-D}
 73
     1
 44
1.0
  0
INSERT
  5
2B2
330
1F
100
AcDbEntity
  8
0
 62
     7
100
AcDbBlockReference
  2
DTL0001
 10
-20.84011024474933
 20
7.119289797040096
 30
0.0
  0
INSERT
  5
2B3
330
1F
100
AcDbEntity
  8
0
 62
     7
100
AcDbBlockReference
  2
DTL0002
 10
-58.84014019608287
 20
158.2040622636927
 30
0.0
  0
INSERT
  5
2B4
330
1F
100
AcDbEntity
  8
0
 62
     7
100
AcDbBlockReference
  2
DTL0003
 10
-176.6616029789805
 20
13.61928588548534
 30
0.0
  0
INSERT
  5
2B5
330
1F
100
AcDbEntity
  8
0
 62
     7
100
AcDbBlockReference
  2
DTL0004
 10
154.2434671633919
 20
-4.380715753642356
 30
0.0
  0
INSERT
  5
2B6
330
1F
100
AcDbEntity
  8
0
 62
     7
100
AcDbBlockReference
  2
DTL0005
 10
329.3270827185052
 20
7.119289797040096
 30
0.0
  0
INSERT
  5
2B7
330
1F
100
AcDbEntity
  8
0
 62
     7
100
AcDbBlockReference
  2
DTL0006
 10
-58.84014019608287
 20
-108.7066862721883
 30
0.0
  0
DIMENSION
  5
2B8
330
1F
100
AcDbEntity
  8
0
 62
     7
100
AcDbDimension
  2
*D9
 10
329.3270827185052
 20
-36.09216346003559
 30
0.0
 11
348.3290595471998
 21
-36.09216346003559
 31
0.0
 70
   160
 71
     5
 42
37.99995422363281
  3
DIMSTYLE_FULLSCALE
100
AcDbAlignedDimension
 13
367.3270363758946
 23
12.61930115917528
 33
0.0
 14
329.3270827185052
 24
-1.380710314718606
 34
0.0
100
AcDbRotatedDimension
1001
ACAD
1000
DSTYLE
1002
{
1070
    40
1040
1.0
1070
   278
1070
    46
1070
   147
1040
2.0
1070
    77
1070
     1
1070
    74
1070
     0
1070
    73
1070
     0
1070
    42
1040
0.0
1070
    44
1040
2.286000000000001
1070
    76
1070
     0
1070
    75
1070
     0
1070
   279
1070
     0
1070
   271
1070
     0
1070
   144
1040
1.000000014901161
1070
   173
1070
     1
1070
    41
1040
3.0
1070
   140
1040
8.0
1070
   344
1005
2B9
1070
   343
1005
2B9
1002
}
  0
DIMENSION
  5
2CC
330
1F
100
AcDbEntity
  8
0
 62
     7
100
AcDbDimension
  2
*D10
 10
390.1300456186377
 20
7.119289797040086
 30
0.0
 11
390.1300456186377
 21
23.73833741608773
 31
0.0
 70
   160
 71
     5
 42
14.5
  3
DIMSTYLE_FULLSCALE
100
AcDbAlignedDimension
 13
352.2857234286409
 23
-7.380717616287477
 33
0.0
 14
337.8270828302639
 24
7.119289797040096
 34
0.0
 50
270.0
100
AcDbRotatedDimension
1001
ACAD
1000
DSTYLE
1002
{
1070
    40
1040
1.0
1070
   278
1070
    46
1070
   147
1040
2.0
1070
    77
1070
     1
1070
    74
1070
     0
1070
    73
1070
     0
1070
    42
1040
0.0
1070
    44
1040
2.285999999999945
1070
    76
1070
     0
1070
    75
1070
     0
1070
   279
1070
     0
1070
    78
1070
     0
1070
   271
1070
     1
1070
   144
1040
0.999999488736291
1070
   173
1070
     1
1070
    41
1040
3.0
1070
   140
1040
8.0
1070
   344
1005
2B9
1070
   343
1005
2B9
1002
}
  0
INSERT
  5
2E0
330
1F
100
AcDbEntity
  8
0
 62
     7
100
AcDbBlockReference
  2
SYM0001
 10
6.284143427147633
 20
-141.9952546514296
 30
0.0
  0
DIMENSION
  5
2E3
330
1F
100
AcDbEntity
  8
0
 62
     7
100
AcDbDimension
  2
*D12
 10
61.15985801577779
 20
221.1445902268622
 30
0.0
 11
1.160868446590508
 21
221.1445902268622
 31
0.0
 70
   160
 71
     5
 42
120.0
  3
DIMSTYLE_FULLSCALE
100
AcDbAlignedDimension
 13
-58.84014019608287
 23
195.2040311947721
 33
0.0
 14
61.15985801577779
 24
194.2040464684621
 34
0.0
 50
180.0
100
AcDbRotatedDimension
1001
ACAD
1000
DSTYLE
1002
{
1070
    40
1040
1.0
1070
   278
1070
    46
1070
   147
1040
2.0
1070
    77
1070
     1
1070
    74
1070
     0
1070
    73
1070
     0
1070
    42
1040
0.0
1070
    44
1040
2.286000000000001
1070
    76
1070
     0
1070
    75
1070
     0
1070
   279
1070
     0
1070
   271
1070
     0
1070
   144
1040
1.000000014901161
1070
   173
1070
     1
1070
    41
1040
3.0
1070
   140
1040
8.0
1070
   344
1005
2B9
1070
   343
1005
2B9
1002
}
  0
DIMENSION
  5
2F0
330
1F
100
AcDbEntity
  8
0
 62
     7
100
AcDbDimension
  2
*D13
 10
5.159912256003736
 20
-168.8550975310436
 30
0.0
 11
-26.83913304352561
 21
-168.8550975310436
 31
0.0
 70
   160
 71
     5
 42
64.00001525878906
  3
DIMSTYLE_FULLSCALE
100
AcDbAlignedDimension
 13
-58.84014019608287
 23
-145.7066838134969
 33
0.0
 14
5.159912256003736
 24
-142.2066895874057
 34
0.0
 50
180.0
100
AcDbRotatedDimension
1001
ACAD
1000
DSTYLE
1002
{
1070
    40
1040
1.0
1070
   278
1070
    46
1070
   147
1040
2.0
1070
    77
1070
     1
1070
    74
1070
     0
1070
    73
1070
     0
1070
    42
1040
0.0
1070
    44
1040
2.285995449334564
1070
    76
1070
     0
1070
    75
1070
     0
1070
   279
1070
     0
1070
   271
1070
     0
1070
   144
1040
0.999999418855202
1070
   173
1070
     1
1070
    41
1040
3.0
1070
   140
1040
8.0
1070
   344
1005
2B9
1070
   343
1005
2B9
1002
}
  0
DIMENSION
  5
2FD
330
1F
100
AcDbEntity
  8
0
 62
     7
100
AcDbDimension
  2
*D14
 10
22.94857013302192
 20
-77.70669722454159
 30
0.0
 11
22.94857013302192
 21
-108.7056862721883
 31
0.0
 70
   160
 71
     5
 42
62.00000000000001
  3
DIMSTYLE_FULLSCALE
100
AcDbAlignedDimension
 13
7.659874071778752
 23
-139.7066896249496
 33
0.0
 14
7.659874071737825
 24
-77.70669722454159
 34
0.0
 50
270.0
100
AcDbRotatedDimension
1001
ACAD
1000
DSTYLE
1002
{
1070
    40
1040
1.0
1070
   278
1070
    46
1070
   147
1040
0.999999523162842
1070
    77
1070
     1
1070
    74
1070
     0
1070
    73
1070
     0
1070
    42
1040
0.0
1070
    44
1040
2.285990680962946
1070
    76
1070
     0
1070
    75
1070
     0
1070
   279
1070
     0
1070
   271
1070
     0
1070
   144
1040
1.000000122574079
1070
   173
1070
     1
1070
    41
1040
3.0
1070
   140
1040
3.999998092651367
1070
   344
1005
2B9
1070
   343
1005
2B9
1002
}
  0
INSERT
  5
310
330
1F
100
AcDbEntity
  8
0
 62
     7
100
AcDbBlockReference
  2
SYM0002
 10
327.6591596112183
 20
2.19407666804058
 30
0.0
  0
DIMENSION
  5
313
330
1F
100
AcDbEntity
  8
0
 62
     7
100
AcDbDimension
  2
*D16
 10
-76.71879767501659
 20
41.11928547570348
 30
0.0
 11
-76.71879767501659
 21
16.87028392970799
 31
0.0
 70
   160
 71
     5
 42
48.50000381469727
  3
DIMSTYLE_FULLSCALE
100
AcDbAlignedDimension
 13
-43.79878433348563
 23
-7.380717616287484
 33
0.0
 14
-11.8401213461143
 24
41.11928547570346
 34
0.0
 50
270.0
100
AcDbRotatedDimension
1001
ACAD
1000
DSTYLE
1002
{
1070
    40
1040
1.0
1070
   278
1070
    46
1070
   147
1040
2.0
1070
    77
1070
     1
1070
    74
1070
     0
1070
    73
1070
     0
1070
    42
1040
0.0
1070
    44
1040
3.571252769660077
1070
    76
1070
     0
1070
    75
1070
     0
1070
   279
1070
     0
1070
    78
1070
     0
1070
   271
1070
     1
1070
   144
1040
1.00000001490116
1070
   173
1070
     1
1070
    41
1040
3.0
1070
   140
1040
8.0
1070
   344
1005
2B9
1070
   343
1005
2B9
1002
}
  0
DIMENSION
  5
320
330
1F
100
AcDbEntity
  8
0
 62
     7
100
AcDbDimension
  2
*D17
 10
-176.6616029789805
 20
55.49509588465605
 30
0.0
 11
-166.6596031279921
 21
55.49509588465605
 31
0.0
 70
   160
 71
     5
 42
20.0
  3
DIMSTYLE_FULLSCALE
100
AcDbAlignedDimension
 13
-156.6616032770037
 23
43.2814463168977
 33
0.0
 14
-176.6616029789805
 24
20.36928590411173
 34
0.0
100
AcDbRotatedDimension
1001
ACAD
1000
DSTYLE
1002
{
1070
    40
1040
1.0
1070
   278
1070
    46
1070
   147
1040
2.0
1070
    77
1070
     1
1070
    74
1070
     0
1070
    73
1070
     0
1070
    42
1040
0.0
1070
    44
1040
3.571248001288609
1070
    76
1070
     0
1070
    75
1070
     0
1070
   279
1070
     0
1070
   271
1070
     0
1070
   144
1040
1.000000014901161
1070
   173
1070
     1
1070
    41
1040
3.0
1070
   140
1040
8.0
1070
   344
1005
2B9
1070
   343
1005
2B9
1002
}
  0
DIMENSION
  5
32D
330
1F
100
AcDbEntity
  8
0
 62
     7
100
AcDbDimension
  2
*D18
 10
-86.4679695382683
 20
198.2040616676463
 30
0.0
 11
-86.4679695382683
 21
158.2050622636927
 31
0.0
 70
   160
 71
     5
 42
80.00000000000001
  3
DIMSTYLE_FULLSCALE
100
AcDbAlignedDimension
 13
-55.84011449158021
 23
118.2040628597391
 33
0.0
 14
-55.84011449158021
 24
198.2040616676463
 34
0.0
 50
270.0
100
AcDbRotatedDimension
1001
ACAD
1000
DSTYLE
1002
{
1070
    40
1040
1.0
1070
   278
1070
    46
1070
   147
1040
2.0
1070
    77
1070
     1
1070
    74
1070
     0
1070
    73
1070
     0
1070
    42
1040
0.0
1070
    44
1040
2.286000000000001
1070
    76
1070
     0
1070
    75
1070
     0
1070
   279
1070
     0
1070
   271
1070
     0
1070
   144
1040
1.00000001490116
1070
   173
1070
     1
1070
    41
1040
3.0
1070
   140
1040
8.0
1070
   344
1005
2B9
1070
   343
1005
2B9
1002
}
  0
DIMENSION
  5
33A
330
1F
100
AcDbEntity
  8
0
 62
     7
100
AcDbDimension
  2
*D19
 10
-209.3829039745345
 20
13.61928588548529
 30
0.0
 11
-209.3829039745345
 21
3.120284134598956
 31
0.0
 70
   160
 71
     5
 42
21.00000381469727
  3
DIMSTYLE_FULLSCALE
100
AcDbAlignedDimension
 13
-196.6616217544433
 23
-7.380717616287484
 33
0.0
 14
-183.4116029976069
 24
13.61928588548528
 34
0.0
 50
270.0
100
AcDbRotatedDimension
1001
ACAD
1000
DSTYLE
1002
{
1070
    40
1040
1.0
1070
   278
1070
    46
1070
   147
1040
2.0
1070
    77
1070
     1
1070
    74
1070
     0
1070
    73
1070
     0
1070
    42
1040
0.0
1070
    44
1040
3.571243232917141
1070
    76
1070
     0
1070
    75
1070
     0
1070
   279
1070
     0
1070
   271
1070
     0
1070
   144
1040
1.000000014901164
1070
   173
1070
     1
1070
    41
1040
3.0
1070
   140
1040
8.0
1070
   344
1005
2B9
1070
   343
1005
2B9
1002
}
  0
DIMENSION
  5
347
330
1F
100
AcDbEntity
  8
0
 62
     7
100
AcDbDimension
  2
*D20
 10
-136.6616035750269
 20
55.49509588465605
 30
0.0
 11
-146.6606034260153
 21
55.49509588465605
 31
0.0
 70
   160
 71
     5
 42
20.0
  3
DIMSTYLE_FULLSCALE
100
AcDbAlignedDimension
 13
-156.6616032770037
 23
43.2814463168977
 33
0.0
 14
-136.6616035750269
 24
20.36928590411173
 34
0.0
 50
180.0
100
AcDbRotatedDimension
1001
ACAD
1000
DSTYLE
1002
{
1070
    40
1040
1.0
1070
   278
1070
    46
1070
   147
1040
2.0
1070
    77
1070
     1
1070
    74
1070
     0
1070
    73
1070
     0
1070
    42
1040
0.0
1070
    44
1040
3.571248001288609
1070
    76
1070
     0
1070
    75
1070
     1
1070
   279
1070
     0
1070
   271
1070
     0
1070
   144
1040
1.000000014901161
1070
   173
1070
     1
1070
    41
1040
3.0
1070
   140
1040
8.0
1070
   344
1005
2B9
1070
   343
1005
2B9
1002
}
  0
ENDSEC
  0
SECTION
  2
OBJECTS
  0
DICTIONARY
  5
C
330
0
100
AcDbDictionary
281
     1
  3
ACAD_GROUP
350
D
  3
ACAD_LAYOUT
350
1A
  3
ACAD_MATERIAL
350
43
  3
ACAD_MLEADERSTYLE
350
6B
  3
ACAD_MLINESTYLE
350
17
  3
ACAD_PLOTSETTINGS
350
19
  3
ACAD_PLOTSTYLENAME
350
E
  3
ACAD_SCALELIST
350
47
  3
ACAD_TABLESTYLE
350
69
  3
ACAD_VISUALSTYLE
350
2A
  3
ACDB_RECOMPOSE_DATA
350
3A2
  3
AcDbVariableDictionary
350
353
  3
DWGPROPS
350
35E
  0
DICTIONARY
  5
361
330
8
100
AcDbDictionary
280
     1
281
     1
  3
ACAD_XREC_ROUNDTRIP
360
362
  0
DICTIONARY
  5
35F
330
2DF
100
AcDbDictionary
280
     1
281
     1
  3
ACAD_MTEXT_RT
360
360
  0
DICTIONARY
  5
D
102
{ACAD_REACTORS
330
C
102
}
330
C
100
AcDbDictionary
281
     1
  0
DICTIONARY
  5
1A
102
{ACAD_REACTORS
330
C
102
}
330
C
100
AcDbDictionary
281
     1
  3
Layout1
350
1E
  3
Layout2
350
26
  3
Model
350
22
  0
DICTIONARY
  5
43
102
{ACAD_REACTORS
330
C
102
}
330
C
100
AcDbDictionary
281
     1
  3
ByBlock
350
45
  3
ByLayer
350
44
  3
Global
350
46
  0
DICTIONARY
  5
6B
102
{ACAD_REACTORS
330
C
102
}
330
C
100
AcDbDictionary
281
     1
  3
Standard
350
6C
  0
DICTIONARY
  5
17
102
{ACAD_REACTORS
330
C
102
}
330
C
100
AcDbDictionary
281
     1
  3
Standard
350
18
  0
DICTIONARY
  5
19
102
{ACAD_REACTORS
330
C
102
}
330
C
100
AcDbDictionary
281
     1
  0
ACDBDICTIONARYWDFLT
  5
E
102
{ACAD_REACTORS
330
C
102
}
330
C
100
AcDbDictionary
281
     1
  3
Normal
350
F
100
AcDbDictionaryWithDefault
340
F
  0
DICTIONARY
  5
47
102
{ACAD_REACTORS
330
C
102
}
330
C
100
AcDbDictionary
281
     1
  3
A0
350
48
  3
A1
350
49
  3
A2
350
4A
  3
A3
350
4B
  3
A4
350
4C
  3
A5
350
4D
  3
A6
350
4E
  3
A7
350
4F
  3
A8
350
50
  3
A9
350
51
  3
B0
350
52
  3
B1
350
53
  3
B2
350
54
  3
B3
350
55
  3
B4
350
56
  3
B5
350
57
  3
B6
350
58
  3
B7
350
59
  3
B8
350
5A
  3
B9
350
5B
  3
C0
350
5C
  3
C1
350
5D
  3
C2
350
5E
  3
C3
350
5F
  3
C4
350
60
  3
C5
350
61
  3
C6
350
62
  3
C7
350
63
  3
C8
350
64
  3
C9
350
65
  3
D0
350
66
  3
D1
350
67
  3
D2
350
68
  0
DICTIONARY
  5
69
102
{ACAD_REACTORS
330
C
102
}
330
C
100
AcDbDictionary
281
     1
  3
Standard
350
6A
  0
DICTIONARY
  5
2A
102
{ACAD_REACTORS
330
C
102
}
330
C
100
AcDbDictionary
281
     1
  3
2dWireframe
350
2F
  3
Basic
350
32
  3
Brighten
350
36
  3
ColorChange
350
3A
  3
Conceptual
350
34
  3
Dim
350
35
  3
EdgeColorOff
350
3D
  3
Facepattern
350
39
  3
Flat
350
2B
  3
FlatWithEdges
350
2C
  3
Gouraud
350
2D
  3
GouraudWithEdges
350
2E
  3
Hidden
350
31
  3
JitterOff
350
3B
  3
Linepattern
350
38
  3
OverhangOff
350
3C
  3
Realistic
350
33
  3
Shaded
350
42
  3
Shaded with edges
350
41
  3
Shades of Gray
350
3E
  3
Sketchy
350
3F
  3
Thicken
350
37
  3
Wireframe
350
30
  3
X-Ray
350
40
  0
XRECORD
  5
3A2
102
{ACAD_REACTORS
330
C
102
}
330
C
100
AcDbXrecord
280
     1
 90
        1
330
2DF
  0
DICTIONARY
  5
353
102
{ACAD_REACTORS
330
C
102
}
330
C
100
AcDbDictionary
281
     1
  3
CANNOSCALE
350
367
  3
CENTEREXE
350
35A
  3
CENTERLTYPEFILE
350
35B
  3
CMLEADERSTYLE
350
355
  3
CTABLESTYLE
350
354
  3
DIMASSOC
350
35C
  3
HIDETEXT
350
35D
  3
MSLTSCALE
350
368
  3
PSOLHEIGHT
350
357
  3
PSOLWIDTH
350
356
  0
XRECORD
  5
35E
102
{ACAD_REACTORS
330
C
102
}
330
C
100
AcDbXrecord
280
     1
  1
DWGPROPS COOKIE
  2

  3

  4

  6

  7

  8
CADAM
  9

300
=
301
=
302
=
303
=
304
=
305
=
306
=
307
=
308
=
309
=
 40
0.0
 41
2459025.006796748
 42
2459025.006796921
  1

 90
        0
  0
XRECORD
  5
362
102
{ACAD_REACTORS
330
361
102
}
330
361
100
AcDbXrecord
280
     1
102
VTR_0.000_0.000_1.000_1.000_VISUALSTYLE
340
2F
102
VTR_0.000_0.000_1.000_1.000_GRIDDISPLAY
 70
     3
102
VTR_0.000_0.000_1.000_1.000_GRIDMAJOR
 70
     5
102
VTR_0.000_0.000_1.000_1.000_DEFAULTLIGHTING
280
     1
102
VTR_0.000_0.000_1.000_1.000_DEFAULTLIGHTINGTYPE
 70
     1
102
VTR_0.000_0.000_1.000_1.000_BRIGHTNESS
141
0.0
102
VTR_0.000_0.000_1.000_1.000_CONTRAST
142
0.0
  0
XRECORD
  5
360
102
{ACAD_REACTORS
330
35F
102
}
330
35F
100
AcDbXrecord
280
     1
 40
691169.0
  1
\W0.833333;\pxql;2-M5×0.8\P深さ10}
  0
LAYOUT
  5
1E
102
{ACAD_REACTORS
330
1A
102
}
330
1A
100
AcDbPlotSettings
  1

  2
none_device
  4

  6

 40
0.0
 41
0.0
 42
0.0
 43
0.0
 44
0.0
 45
0.0
 46
0.0
 47
0.0
 48
0.0
 49
0.0
140
0.0
141
0.0
142
1.0
143
1.0
 70
   688
 72
     1
 73
     0
 74
     5
  7

 75
    16
147
1.0
148
0.0
149
0.0
100
AcDbLayout
  1
Layout1
 70
     1
 71
     1
 10
-246.7906260441846
 20
-204.4290508411839
 11
438.2093739558154
 21
286.5569921463003
 12
0.0
 22
0.0
 32
0.0
 14
1.000000000000000E+20
 24
1.000000000000000E+20
 34
1.000000000000000E+20
 15
-1.000000000000000E+20
 25
-1.000000000000000E+20
 35
-1.000000000000000E+20
146
0.0
 13
0.0
 23
0.0
 33
0.0
 16
1.0
 26
0.0
 36
0.0
 17
0.0
 27
1.0
 37
0.0
 76
     0
330
1B
  0
LAYOUT
  5
26
102
{ACAD_REACTORS
330
1A
102
}
330
1A
100
AcDbPlotSettings
  1

  2
none_device
  4

  6

 40
0.0
 41
0.0
 42
0.0
 43
0.0
 44
0.0
 45
0.0
 46
0.0
 47
0.0
 48
0.0
 49
0.0
140
0.0
141
0.0
142
1.0
143
1.0
 70
   688
 72
     1
 73
     0
 74
     5
  7

 75
    16
147
1.0
148
0.0
149
0.0
100
AcDbLayout
  1
Layout2
 70
     1
 71
     2
 10
0.0
 20
0.0
 11
0.0
 21
0.0
 12
0.0
 22
0.0
 32
0.0
 14
0.0
 24
0.0
 34
0.0
 15
0.0
 25
0.0
 35
0.0
146
0.0
 13
0.0
 23
0.0
 33
0.0
 16
1.0
 26
0.0
 36
0.0
 17
0.0
 27
1.0
 37
0.0
 76
     0
330
23
  0
LAYOUT
  5
22
102
{ACAD_REACTORS
330
1A
102
}
330
1A
100
AcDbPlotSettings
  1

  2
none_device
  4
Letter_(8.50_x_11.00_Inches)
  6

 40
6.35
 41
6.35
 42
6.35000508
 43
6.35000508
 44
215.9
 45
279.4
 46
0.0
 47
0.0
 48
0.0
 49
0.0
140
0.0
141
0.0
142
1.0
143
1.0
 70
  1712
 72
     1
 73
     0
 74
     0
  7

 75
     0
147
1.0
148
0.0
149
0.0
100
AcDbLayout
  1
Model
 70
     1
 71
     0
 10
-246.7906260441846
 20
-204.4290508411839
 11
438.2093739558154
 21
286.5569921463003
 12
0.0
 22
0.0
 32
0.0
 14
-246.7906260441846
 24
-204.4290508411839
 34
0.0
 15
438.2093739558154
 25
286.5569921463003
 35
0.0
146
0.0
 13
0.0
 23
0.0
 33
0.0
 16
1.0
 26
0.0
 36
0.0
 17
0.0
 27
1.0
 37
0.0
 76
     0
330
1F
331
29
  0
MATERIAL
  5
45
102
{ACAD_REACTORS
330
43
102
}
102
{ACAD_XDICTIONARY
360
39B
102
}
330
43
100
AcDbMaterial
  1
ByBlock
  0
MATERIAL
  5
44
102
{ACAD_REACTORS
330
43
102
}
102
{ACAD_XDICTIONARY
360
399
102
}
330
43
100
AcDbMaterial
  1
ByLayer
  0
MATERIAL
  5
46
102
{ACAD_REACTORS
330
43
102
}
102
{ACAD_XDICTIONARY
360
39D
102
}
330
43
100
AcDbMaterial
  1
Global
  0
MLEADERSTYLE
  5
6C
102
{ACAD_REACTORS
330
6B
102
}
102
{ACAD_XDICTIONARY
360
3A0
102
}
330
6B
100
AcDbMLeaderStyle
170
     2
171
     1
172
     0
 90
        2
 40
0.0
 41
0.0
173
     1
 91
-1056964608
340
14
 92
       -2
290
     1
 42
2.0
291
     1
 43
8.0
  3
Standard
341
0
 44
4.0
300

342
11
174
     1
178
     6
175
     1
176
     0
 93
-1056964608
 45
4.0
292
     0
297
     0
 46
4.0
343
0
 94
-1056964608
 47
1.0
 49
1.0
140
1.0
293
     1
141
0.0
294
     1
177
     0
142
1.0
295
     0
296
     0
143
3.75
1001
ACAD_MLEADERVER
1070
     2
  0
MLINESTYLE
  5
18
102
{ACAD_REACTORS
330
17
102
}
330
17
100
AcDbMlineStyle
  2
Standard
 70
     0
  3

 62
   256
 51
90.0
 52
90.0
 71
     2
 49
0.5
 62
   256
  6
BYLAYER
 49
-0.5
 62
   256
  6
BYLAYER
  0
ACDBPLACEHOLDER
  5
F
102
{ACAD_REACTORS
330
E
102
}
330
E
  0
SCALE
  5
48
102
{ACAD_REACTORS
330
47
102
}
330
47
100
AcDbScale
 70
     0
300
1:1
140
1.0
141
1.0
290
     1
  0
SCALE
  5
49
102
{ACAD_REACTORS
330
47
102
}
330
47
100
AcDbScale
 70
     0
300
1:2
140
1.0
141
2.0
290
     0
  0
SCALE
  5
4A
102
{ACAD_REACTORS
330
47
102
}
330
47
100
AcDbScale
 70
     0
300
1:4
140
1.0
141
4.0
290
     0
  0
SCALE
  5
4B
102
{ACAD_REACTORS
330
47
102
}
330
47
100
AcDbScale
 70
     0
300
1:5
140
1.0
141
5.0
290
     0
  0
SCALE
  5
4C
102
{ACAD_REACTORS
330
47
102
}
330
47
100
AcDbScale
 70
     0
300
1:8
140
1.0
141
8.0
290
     0
  0
SCALE
  5
4D
102
{ACAD_REACTORS
330
47
102
}
330
47
100
AcDbScale
 70
     0
300
1:10
140
1.0
141
10.0
290
     0
  0
SCALE
  5
4E
102
{ACAD_REACTORS
330
47
102
}
330
47
100
AcDbScale
 70
     0
300
1:16
140
1.0
141
16.0
290
     0
  0
SCALE
  5
4F
102
{ACAD_REACTORS
330
47
102
}
330
47
100
AcDbScale
 70
     0
300
1:20
140
1.0
141
20.0
290
     0
  0
SCALE
  5
50
102
{ACAD_REACTORS
330
47
102
}
330
47
100
AcDbScale
 70
     0
300
1:30
140
1.0
141
30.0
290
     0
  0
SCALE
  5
51
102
{ACAD_REACTORS
330
47
102
}
330
47
100
AcDbScale
 70
     0
300
1:40
140
1.0
141
40.0
290
     0
  0
SCALE
  5
52
102
{ACAD_REACTORS
330
47
102
}
330
47
100
AcDbScale
 70
     0
300
1:50
140
1.0
141
50.0
290
     0
  0
SCALE
  5
53
102
{ACAD_REACTORS
330
47
102
}
330
47
100
AcDbScale
 70
     0
300
1:100
140
1.0
141
100.0
290
     0
  0
SCALE
  5
54
102
{ACAD_REACTORS
330
47
102
}
330
47
100
AcDbScale
 70
     0
300
2:1
140
2.0
141
1.0
290
     0
  0
SCALE
  5
55
102
{ACAD_REACTORS
330
47
102
}
330
47
100
AcDbScale
 70
     0
300
4:1
140
4.0
141
1.0
290
     0
  0
SCALE
  5
56
102
{ACAD_REACTORS
330
47
102
}
330
47
100
AcDbScale
 70
     0
300
8:1
140
8.0
141
1.0
290
     0
  0
SCALE
  5
57
102
{ACAD_REACTORS
330
47
102
}
330
47
100
AcDbScale
 70
     0
300
10:1
140
10.0
141
1.0
290
     0
  0
SCALE
  5
58
102
{ACAD_REACTORS
330
47
102
}
330
47
100
AcDbScale
 70
     0
300
100:1
140
100.0
141
1.0
290
     0
  0
SCALE
  5
59
102
{ACAD_REACTORS
330
47
102
}
330
47
100
AcDbScale
 70
     0
300
1/128" = 1'-0"
140
0.0078125
141
12.0
290
     0
  0
SCALE
  5
5A
102
{ACAD_REACTORS
330
47
102
}
330
47
100
AcDbScale
 70
     0
300
1/64" = 1'-0"
140
0.015625
141
12.0
290
     0
  0
SCALE
  5
5B
102
{ACAD_REACTORS
330
47
102
}
330
47
100
AcDbScale
 70
     0
300
1/32" = 1'-0"
140
0.03125
141
12.0
290
     0
  0
SCALE
  5
5C
102
{ACAD_REACTORS
330
47
102
}
330
47
100
AcDbScale
 70
     0
300
1/16" = 1'-0"
140
0.0625
141
12.0
290
     0
  0
SCALE
  5
5D
102
{ACAD_REACTORS
330
47
102
}
330
47
100
AcDbScale
 70
     0
300
3/32" = 1'-0"
140
0.09375
141
12.0
290
     0
  0
SCALE
  5
5E
102
{ACAD_REACTORS
330
47
102
}
330
47
100
AcDbScale
 70
     0
300
1/8" = 1'-0"
140
0.125
141
12.0
290
     0
  0
SCALE
  5
5F
102
{ACAD_REACTORS
330
47
102
}
330
47
100
AcDbScale
 70
     0
300
3/16" = 1'-0"
140
0.1875
141
12.0
290
     0
  0
SCALE
  5
60
102
{ACAD_REACTORS
330
47
102
}
330
47
100
AcDbScale
 70
     0
300
1/4" = 1'-0"
140
0.25
141
12.0
290
     0
  0
SCALE
  5
61
102
{ACAD_REACTORS
330
47
102
}
330
47
100
AcDbScale
 70
     0
300
3/8" = 1'-0"
140
0.375
141
12.0
290
     0
  0
SCALE
  5
62
102
{ACAD_REACTORS
330
47
102
}
330
47
100
AcDbScale
 70
     0
300
1/2" = 1'-0"
140
0.5
141
12.0
290
     0
  0
SCALE
  5
63
102
{ACAD_REACTORS
330
47
102
}
330
47
100
AcDbScale
 70
     0
300
3/4" = 1'-0"
140
0.75
141
12.0
290
     0
  0
SCALE
  5
64
102
{ACAD_REACTORS
330
47
102
}
330
47
100
AcDbScale
 70
     0
300
1" = 1'-0"
140
1.0
141
12.0
290
     0
  0
SCALE
  5
65
102
{ACAD_REACTORS
330
47
102
}
330
47
100
AcDbScale
 70
     0
300
1-1/2" = 1'-0"
140
1.5
141
12.0
290
     0
  0
SCALE
  5
66
102
{ACAD_REACTORS
330
47
102
}
330
47
100
AcDbScale
 70
     0
300
3" = 1'-0"
140
3.0
141
12.0
290
     0
  0
SCALE
  5
67
102
{ACAD_REACTORS
330
47
102
}
330
47
100
AcDbScale
 70
     0
300
6" = 1'-0"
140
6.0
141
12.0
290
     0
  0
SCALE
  5
68
102
{ACAD_REACTORS
330
47
102
}
330
47
100
AcDbScale
 70
     0
300
1'-0" = 1'-0"
140
12.0
141
12.0
290
     0
  0
TABLESTYLE
  5
6A
102
{ACAD_REACTORS
330
69
102
}
330
69
100
AcDbTableStyle
  3
Standard
 70
     0
 71
     0
 40
1.5
 41
1.5
280
     0
281
     0
  7
Standard
140
4.5
170
     2
 62
     0
 63
   257
283
     0
274
    -2
284
     1
 64
     0
275
    -2
285
     1
 65
     0
276
    -2
286
     1
 66
     0
277
    -2
287
     1
 67
     0
278
    -2
288
     1
 68
     0
279
    -2
289
     1
 69
     0
  7
Standard
140
6.0
170
     5
 62
     0
 63
   257
283
     0
274
    -2
284
     1
 64
     0
275
    -2
285
     1
 65
     0
276
    -2
286
     1
 66
     0
277
    -2
287
     1
 67
     0
278
    -2
288
     1
 68
     0
279
    -2
289
     1
 69
     0
  7
Standard
140
4.5
170
     5
 62
     0
 63
   257
283
     0
274
    -2
284
     1
 64
     0
275
    -2
285
     1
 65
     0
276
    -2
286
     1
 66
     0
277
    -2
287
     1
 67
     0
278
    -2
288
     1
 68
     0
279
    -2
289
     1
 69
     0
  0
VISUALSTYLE
  5
2F
102
{ACAD_REACTORS
330
2A
102
}
102
{ACAD_XDICTIONARY
360
371
102
}
330
2A
100
AcDbVisualStyle
  2
2dWireframe
 70
     4
 71
     0
 72
     2
 73
     0
 90
        0
 40
0.6
 41
30.0
 62
     5
 63
     7
 74
     1
 91
        4
 64
     7
 65
   257
 75
     1
175
     1
 42
1.0
 92
        0
 66
   257
 43
1.0
 76
     1
 77
     6
 78
     2
 67
     7
 79
     5
170
     0
171
     0
290
     0
174
     0
 93
        1
 44
0.0
173
     0
291
     0
 45
0.0
1001
ACAD
1000
AcDbSavedByObjectVersion
1070
     0
  0
VISUALSTYLE
  5
32
102
{ACAD_REACTORS
330
2A
102
}
102
{ACAD_XDICTIONARY
360
377
102
}
330
2A
100
AcDbVisualStyle
  2
Basic
 70
     7
 71
     1
 72
     0
 73
     1
 90
        0
 40
0.6
 41
30.0
 62
     5
 63
     7
 74
     0
 91
        4
 64
     7
 65
   257
 75
     1
175
     1
 42
1.0
 92
        8
 66
     7
 43
1.0
 76
     1
 77
     6
 78
     2
 67
     7
 79
     5
170
     0
171
     0
290
     0
174
     0
 93
        1
 44
0.0
173
     0
291
     1
 45
0.0
1001
ACAD
1000
AcDbSavedByObjectVersion
1070
     0
  0
VISUALSTYLE
  5
36
102
{ACAD_REACTORS
330
2A
102
}
102
{ACAD_XDICTIONARY
360
37F
102
}
330
2A
100
AcDbVisualStyle
  2
Brighten
 70
    12
 71
     2
 72
     2
 73
     0
 90
        0
 40
0.6
 41
30.0
 62
     5
 63
     7
 74
     1
 91
        4
 64
     7
 65
   257
 75
     1
175
     1
 42
1.0
 92
        8
 66
     7
 43
1.0
 76
     1
 77
     6
 78
     2
 67
     7
 79
     5
170
     0
171
     0
290
     0
174
     0
 93
        1
 44
50.0
173
     0
291
     1
 45
0.0
1001
ACAD
1000
AcDbSavedByObjectVersion
1070
     0
  0
VISUALSTYLE
  5
3A
102
{ACAD_REACTORS
330
2A
102
}
102
{ACAD_XDICTIONARY
360
387
102
}
330
2A
100
AcDbVisualStyle
  2
ColorChange
 70
    16
 71
     2
 72
     2
 73
     3
 90
        0
 40
0.6
 41
30.0
 62
     5
 63
     8
 74
     1
 91
        4
 64
     7
 65
   257
 75
     1
175
     1
 42
1.0
 92
        8
 66
     8
 43
1.0
 76
     1
 77
     6
 78
     2
 67
     7
 79
     5
170
     0
171
     0
290
     0
174
     0
 93
        1
 44
0.0
173
     0
291
     1
 45
0.0
1001
ACAD
1000
AcDbSavedByObjectVersion
1070
     0
  0
VISUALSTYLE
  5
34
102
{ACAD_REACTORS
330
2A
102
}
102
{ACAD_XDICTIONARY
360
37B
102
}
330
2A
100
AcDbVisualStyle
  2
Conceptual
 70
     9
 71
     3
 72
     2
 73
     0
 90
        0
 40
0.6
 41
30.0
 62
     5
 63
     7
 74
     2
 91
        2
 64
     7
 65
   257
 75
     1
175
     1
 42
179.0
 92
        8
 66
     7
 43
1.0
 76
     1
 77
     6
 78
     2
 67
     7
 79
     3
170
     0
171
     0
290
     0
174
     0
 93
        1
 44
0.0
173
     0
291
     0
 45
0.0
1001
ACAD
1000
AcDbSavedByObjectVersion
1070
     0
  0
VISUALSTYLE
  5
35
102
{ACAD_REACTORS
330
2A
102
}
102
{ACAD_XDICTIONARY
360
37D
102
}
330
2A
100
AcDbVisualStyle
  2
Dim
 70
    11
 71
     2
 72
     2
 73
     0
 90
        0
 40
0.6
 41
30.0
 62
     5
 63
     7
 74
     1
 91
        4
 64
     7
 65
   257
 75
     1
175
     1
 42
1.0
 92
        8
 66
     7
 43
1.0
 76
     1
 77
     6
 78
     2
 67
     7
 79
     5
170
     0
171
     0
290
     0
174
     0
 93
        1
 44
-50.0
173
     0
291
     1
 45
0.0
1001
ACAD
1000
AcDbSavedByObjectVersion
1070
     0
  0
VISUALSTYLE
  5
3D
102
{ACAD_REACTORS
330
2A
102
}
102
{ACAD_XDICTIONARY
360
38D
102
}
330
2A
100
AcDbVisualStyle
  2
EdgeColorOff
 70
    22
 71
     2
 72
     2
 73
     0
 90
        0
 40
0.6
 41
30.0
 62
     5
 63
     7
 74
     1
 91
        4
 64
     7
 65
   257
 75
     1
175
     1
 42
1.0
 92
        8
 66
     7
 43
1.0
 76
     1
 77
     6
 78
     2
 67
     7
 79
     5
170
     0
171
     0
290
     0
174
     0
 93
        1
 44
0.0
173
     0
291
     1
 45
0.0
1001
ACAD
1000
AcDbSavedByObjectVersion
1070
     0
  0
VISUALSTYLE
  5
39
102
{ACAD_REACTORS
330
2A
102
}
102
{ACAD_XDICTIONARY
360
385
102
}
330
2A
100
AcDbVisualStyle
  2
Facepattern
 70
    15
 71
     2
 72
     2
 73
     0
 90
        0
 40
0.6
 41
30.0
 62
     5
 63
     7
 74
     1
 91
        4
 64
     7
 65
   257
 75
     1
175
     1
 42
1.0
 92
        8
 66
     7
 43
1.0
 76
     1
 77
     6
 78
     2
 67
     7
 79
     5
170
     0
171
     0
290
     0
174
     0
 93
        1
 44
0.0
173
     0
291
     1
 45
0.0
1001
ACAD
1000
AcDbSavedByObjectVersion
1070
     0
  0
VISUALSTYLE
  5
2B
102
{ACAD_REACTORS
330
2A
102
}
102
{ACAD_XDICTIONARY
360
369
102
}
330
2A
100
AcDbVisualStyle
  2
Flat
 70
     0
 71
     2
 72
     1
 73
     1
 90
        2
 40
0.6
 41
30.0
 62
     5
 63
     7
 74
     0
 91
        0
 64
     7
 65
   257
 75
     1
175
     1
 42
1.0
 92
        8
 66
     7
 43
1.0
 76
     1
 77
     6
 78
     2
 67
     7
 79
     5
170
     0
171
     0
290
     0
174
     0
 93
       13
 44
0.0
173
     0
291
     1
 45
0.0
1001
ACAD
1000
AcDbSavedByObjectVersion
1070
     0
  0
VISUALSTYLE
  5
2C
102
{ACAD_REACTORS
330
2A
102
}
102
{ACAD_XDICTIONARY
360
36B
102
}
330
2A
100
AcDbVisualStyle
  2
FlatWithEdges
 70
     1
 71
     2
 72
     1
 73
     1
 90
        2
 40
0.6
 41
30.0
 62
     5
 63
     7
 74
     1
 91
        0
 64
     7
 65
   257
 75
     1
175
     1
 42
1.0
 92
        0
 66
   257
 43
1.0
 76
     1
 77
     6
 78
     2
 67
     7
 79
     5
170
     0
171
     0
290
     0
174
     0
 93
       13
 44
0.0
173
     0
291
     1
 45
0.0
1001
ACAD
1000
AcDbSavedByObjectVersion
1070
     0
  0
VISUALSTYLE
  5
2D
102
{ACAD_REACTORS
330
2A
102
}
102
{ACAD_XDICTIONARY
360
36D
102
}
330
2A
100
AcDbVisualStyle
  2
Gouraud
 70
     2
 71
     2
 72
     2
 73
     1
 90
        2
 40
0.6
 41
30.0
 62
     5
 63
     7
 74
     0
 91
        0
 64
     7
 65
   257
 75
     1
175
     1
 42
1.0
 92
        0
 66
     7
 43
1.0
 76
     1
 77
     6
 78
     2
 67
     7
 79
     5
170
     0
171
     0
290
     0
174
     0
 93
       13
 44
0.0
173
     0
291
     1
 45
0.0
1001
ACAD
1000
AcDbSavedByObjectVersion
1070
     0
  0
VISUALSTYLE
  5
2E
102
{ACAD_REACTORS
330
2A
102
}
102
{ACAD_XDICTIONARY
360
36F
102
}
330
2A
100
AcDbVisualStyle
  2
GouraudWithEdges
 70
     3
 71
     2
 72
     2
 73
     1
 90
        2
 40
0.6
 41
30.0
 62
     5
 63
     7
 74
     1
 91
        0
 64
     7
 65
   257
 75
     1
175
     1
 42
1.0
 92
        0
 66
   257
 43
1.0
 76
     1
 77
     6
 78
     2
 67
     7
 79
     5
170
     0
171
     0
290
     0
174
     0
 93
       13
 44
0.0
173
     0
291
     1
 45
0.0
1001
ACAD
1000
AcDbSavedByObjectVersion
1070
     0
  0
VISUALSTYLE
  5
31
102
{ACAD_REACTORS
330
2A
102
}
102
{ACAD_XDICTIONARY
360
375
102
}
330
2A
100
AcDbVisualStyle
  2
Hidden
 70
     6
 71
     1
 72
     2
 73
     2
 90
        0
 40
0.6
 41
30.0
 62
     5
 63
     7
 74
     2
 91
        2
 64
     7
 65
   257
 75
     2
175
     1
 42
40.0
 92
        0
 66
   257
 43
1.0
 76
     1
 77
     6
 78
     2
 67
     7
 79
     3
170
     0
171
     0
290
     0
174
     0
 93
        1
 44
0.0
173
     0
291
     0
 45
0.0
1001
ACAD
1000
AcDbSavedByObjectVersion
1070
     0
  0
VISUALSTYLE
  5
3B
102
{ACAD_REACTORS
330
2A
102
}
102
{ACAD_XDICTIONARY
360
389
102
}
330
2A
100
AcDbVisualStyle
  2
JitterOff
 70
    20
 71
     2
 72
     2
 73
     0
 90
        0
 40
0.6
 41
30.0
 62
     5
 63
     7
 74
     1
 91
        4
 64
     7
 65
   257
 75
     1
175
     1
 42
1.0
 92
       10
 66
     7
 43
1.0
 76
     1
 77
     6
 78
     2
 67
     7
 79
     5
170
     0
171
     0
290
     0
174
     0
 93
        1
 44
0.0
173
     0
291
     1
 45
0.0
1001
ACAD
1000
AcDbSavedByObjectVersion
1070
     0
  0
VISUALSTYLE
  5
38
102
{ACAD_REACTORS
330
2A
102
}
102
{ACAD_XDICTIONARY
360
383
102
}
330
2A
100
AcDbVisualStyle
  2
Linepattern
 70
    14
 71
     2
 72
     2
 73
     0
 90
        0
 40
0.6
 41
30.0
 62
     5
 63
     7
 74
     1
 91
        4
 64
     7
 65
   257
 75
     7
175
     7
 42
1.0
 92
        8
 66
     7
 43
1.0
 76
     1
 77
     6
 78
     2
 67
     7
 79
     5
170
     0
171
     0
290
     0
174
     0
 93
        1
 44
0.0
173
     0
291
     1
 45
0.0
1001
ACAD
1000
AcDbSavedByObjectVersion
1070
     0
  0
VISUALSTYLE
  5
3C
102
{ACAD_REACTORS
330
2A
102
}
102
{ACAD_XDICTIONARY
360
38B
102
}
330
2A
100
AcDbVisualStyle
  2
OverhangOff
 70
    21
 71
     2
 72
     2
 73
     0
 90
        0
 40
0.6
 41
30.0
 62
     5
 63
     7
 74
     1
 91
        4
 64
     7
 65
   257
 75
     1
175
     1
 42
1.0
 92
        9
 66
     7
 43
1.0
 76
     1
 77
     6
 78
     2
 67
     7
 79
     5
170
     0
171
     0
290
     0
174
     0
 93
        1
 44
0.0
173
     0
291
     1
 45
0.0
1001
ACAD
1000
AcDbSavedByObjectVersion
1070
     0
  0
VISUALSTYLE
  5
33
102
{ACAD_REACTORS
330
2A
102
}
102
{ACAD_XDICTIONARY
360
379
102
}
330
2A
100
AcDbVisualStyle
  2
Realistic
 70
     8
 71
     2
 72
     3
 73
     0
 90
        2
 40
0.6
 41
30.0
 62
     5
 63
     7
 74
     0
 91
        0
 64
     7
 65
   257
 75
     1
175
     1
 42
1.0
 92
        8
 66
   257
 43
1.0
 76
     1
 77
     6
 78
     2
 67
     7
 79
     3
170
     0
171
     0
290
     0
174
     0
 93
       13
 44
0.0
173
     0
291
     0
 45
0.0
1001
ACAD
1000
AcDbSavedByObjectVersion
1070
     0
  0
VISUALSTYLE
  5
42
102
{ACAD_REACTORS
330
2A
102
}
102
{ACAD_XDICTIONARY
360
397
102
}
330
2A
100
AcDbVisualStyle
  2
Shaded
 70
    27
 71
     2
 72
     2
 73
     1
 90
        2
 40
0.6
 41
30.0
 62
     5
 63
     7
 74
     0
 91
        4
 64
     7
 65
   257
 75
     1
175
     1
 42
1.0
 92
        8
 66
   257
 43
1.0
 76
     1
 77
     6
 78
     2
 67
     8
 79
     3
170
     0
171
     0
290
     0
174
     0
 93
        5
 44
0.0
173
     0
291
     0
 45
0.0
1001
ACAD
1000
AcDbSavedByObjectVersion
1070
     0
  0
VISUALSTYLE
  5
41
102
{ACAD_REACTORS
330
2A
102
}
102
{ACAD_XDICTIONARY
360
395
102
}
330
2A
100
AcDbVisualStyle
  2
Shaded with edges
 70
    26
 71
     2
 72
     2
 73
     1
 90
        2
 40
0.6
 41
30.0
 62
     5
 63
     7
 74
     1
 91
       10
 64
     7
 65
   257
 75
     2
175
     1
 42
1.0
 92
        8
 66
   257
 43
1.0
 76
     1
 77
     6
 78
     2
 67
     7
 79
     3
170
     0
171
     0
290
     0
174
     0
 93
        5
 44
0.0
173
     0
291
     0
 45
0.0
1001
ACAD
1000
AcDbSavedByObjectVersion
1070
     0
  0
VISUALSTYLE
  5
3E
102
{ACAD_REACTORS
330
2A
102
}
102
{ACAD_XDICTIONARY
360
38F
102
}
330
2A
100
AcDbVisualStyle
  2
Shades of Gray
 70
    23
 71
     2
 72
     2
 73
     3
 90
        0
 40
0.6
 41
30.0
 62
     5
 63
     7
 74
     2
 91
        2
 64
     7
 65
     7
 75
     1
175
     1
 42
40.0
 92
        8
 66
     7
 43
1.0
 76
     1
 77
     6
 78
     2
 67
     7
 79
     3
170
     0
171
     0
290
     0
174
     0
 93
        1
 44
0.0
173
     0
291
     0
 45
0.0
1001
ACAD
1000
AcDbSavedByObjectVersion
1070
     0
  0
VISUALSTYLE
  5
3F
102
{ACAD_REACTORS
330
2A
102
}
102
{ACAD_XDICTIONARY
360
391
102
}
330
2A
100
AcDbVisualStyle
  2
Sketchy
 70
    24
 71
     1
 72
     2
 73
     2
 90
        0
 40
0.6
 41
30.0
 62
     5
 63
     7
 74
     2
 91
        2
 64
     7
 65
     7
 75
     1
175
     1
 42
40.0
 92
       11
 66
     7
 43
1.0
 76
     1
 77
     6
 78
     2
 67
     7
 79
     6
170
     0
171
     0
290
     0
174
     0
 93
        1
 44
0.0
173
     0
291
     0
 45
0.0
1001
ACAD
1000
AcDbSavedByObjectVersion
1070
     0
  0
VISUALSTYLE
  5
37
102
{ACAD_REACTORS
330
2A
102
}
102
{ACAD_XDICTIONARY
360
381
102
}
330
2A
100
AcDbVisualStyle
  2
Thicken
 70
    13
 71
     2
 72
     2
 73
     0
 90
        0
 40
0.6
 41
30.0
 62
     5
 63
     7
 74
     1
 91
        4
 64
     7
 65
   257
 75
     1
175
     1
 42
1.0
 92
       12
 66
     7
 43
1.0
 76
     1
 77
     6
 78
     2
 67
     7
 79
     5
170
     0
171
     0
290
     0
174
     0
 93
        1
 44
0.0
173
     0
291
     1
 45
0.0
1001
ACAD
1000
AcDbSavedByObjectVersion
1070
     0
  0
VISUALSTYLE
  5
30
102
{ACAD_REACTORS
330
2A
102
}
102
{ACAD_XDICTIONARY
360
373
102
}
330
2A
100
AcDbVisualStyle
  2
Wireframe
 70
     5
 71
     0
 72
     2
 73
     0
 90
        0
 40
0.6
 41
30.0
 62
     5
 63
     7
 74
     1
 91
        4
 64
     7
 65
   257
 75
     1
175
     1
 42
1.0
 92
        0
 66
   257
 43
1.0
 76
     1
 77
     6
 78
     2
 67
     7
 79
     3
170
     0
171
     0
290
     0
174
     0
 93
        1
 44
0.0
173
     0
291
     0
 45
0.0
1001
ACAD
1000
AcDbSavedByObjectVersion
1070
     0
  0
VISUALSTYLE
  5
40
102
{ACAD_REACTORS
330
2A
102
}
102
{ACAD_XDICTIONARY
360
393
102
}
330
2A
100
AcDbVisualStyle
  2
X-Ray
 70
    25
 71
     2
 72
     2
 73
     1
 90
        1
 40
0.5
 41
30.0
 62
     5
 63
     7
 74
     1
 91
        0
 64
     7
 65
   257
 75
     1
175
     1
 42
1.0
 92
        8
 66
     7
 43
1.0
 76
     1
 77
     6
 78
     2
 67
     7
 79
     3
170
     0
171
     0
290
     0
174
     0
 93
       13
 44
0.0
173
     0
291
     0
 45
0.0
1001
ACAD
1000
AcDbSavedByObjectVersion
1070
     0
  0
DICTIONARYVAR
  5
367
102
{ACAD_REACTORS
330
353
102
}
330
353
100
DictionaryVariables
280
     0
  1
1:1
  0
DICTIONARYVAR
  5
35A
102
{ACAD_REACTORS
330
353
102
}
330
353
100
DictionaryVariables
280
     0
  1
3.500000
  0
DICTIONARYVAR
  5
35B
102
{ACAD_REACTORS
330
353
102
}
330
353
100
DictionaryVariables
280
     0
  1
acadiso.lin
  0
DICTIONARYVAR
  5
355
102
{ACAD_REACTORS
330
353
102
}
330
353
100
DictionaryVariables
280
     0
  1
Standard
  0
DICTIONARYVAR
  5
354
102
{ACAD_REACTORS
330
353
102
}
330
353
100
DictionaryVariables
280
     0
  1
Standard
  0
DICTIONARYVAR
  5
35C
102
{ACAD_REACTORS
330
353
102
}
330
353
100
DictionaryVariables
280
     0
  1
2
  0
DICTIONARYVAR
  5
35D
102
{ACAD_REACTORS
330
353
102
}
330
353
100
DictionaryVariables
280
     0
  1
1
  0
DICTIONARYVAR
  5
368
102
{ACAD_REACTORS
330
353
102
}
330
353
100
DictionaryVariables
280
     0
  1
1
  0
DICTIONARYVAR
  5
357
102
{ACAD_REACTORS
330
353
102
}
330
353
100
DictionaryVariables
280
     0
  1
80.000000
  0
DICTIONARYVAR
  5
356
102
{ACAD_REACTORS
330
353
102
}
330
353
100
DictionaryVariables
280
     0
  1
5.000000
  0
DICTIONARY
  5
39B
330
45
100
AcDbDictionary
280
     1
281
     1
  3
ACAD_XREC_ROUNDTRIP
360
39C
  0
DICTIONARY
  5
399
330
44
100
AcDbDictionary
280
     1
281
     1
  3
ACAD_XREC_ROUNDTRIP
360
39A
  0
DICTIONARY
  5
39D
330
46
100
AcDbDictionary
280
     1
281
     1
  3
ACAD_XREC_ROUNDTRIP
360
39E
  0
DICTIONARY
  5
3A0
330
6C
100
AcDbDictionary
280
     1
281
     1
  3
ACAD_XREC_ROUNDTRIP
360
3A1
  0
DICTIONARY
  5
371
330
2F
100
AcDbDictionary
280
     1
281
     1
  3
ACAD_XREC_ROUNDTRIP
360
372
  0
DICTIONARY
  5
377
330
32
100
AcDbDictionary
280
     1
281
     1
  3
ACAD_XREC_ROUNDTRIP
360
378
  0
DICTIONARY
  5
37F
330
36
100
AcDbDictionary
280
     1
281
     1
  3
ACAD_XREC_ROUNDTRIP
360
380
  0
DICTIONARY
  5
387
330
3A
100
AcDbDictionary
280
     1
281
     1
  3
ACAD_XREC_ROUNDTRIP
360
388
  0
DICTIONARY
  5
37B
330
34
100
AcDbDictionary
280
     1
281
     1
  3
ACAD_XREC_ROUNDTRIP
360
37C
  0
DICTIONARY
  5
37D
330
35
100
AcDbDictionary
280
     1
281
     1
  3
ACAD_XREC_ROUNDTRIP
360
37E
  0
DICTIONARY
  5
38D
330
3D
100
AcDbDictionary
280
     1
281
     1
  3
ACAD_XREC_ROUNDTRIP
360
38E
  0
DICTIONARY
  5
385
330
39
100
AcDbDictionary
280
     1
281
     1
  3
ACAD_XREC_ROUNDTRIP
360
386
  0
DICTIONARY
  5
369
330
2B
100
AcDbDictionary
280
     1
281
     1
  3
ACAD_XREC_ROUNDTRIP
360
36A
  0
DICTIONARY
  5
36B
330
2C
100
AcDbDictionary
280
     1
281
     1
  3
ACAD_XREC_ROUNDTRIP
360
36C
  0
DICTIONARY
  5
36D
330
2D
100
AcDbDictionary
280
     1
281
     1
  3
ACAD_XREC_ROUNDTRIP
360
36E
  0
DICTIONARY
  5
36F
330
2E
100
AcDbDictionary
280
     1
281
     1
  3
ACAD_XREC_ROUNDTRIP
360
370
  0
DICTIONARY
  5
375
330
31
100
AcDbDictionary
280
     1
281
     1
  3
ACAD_XREC_ROUNDTRIP
360
376
  0
DICTIONARY
  5
389
330
3B
100
AcDbDictionary
280
     1
281
     1
  3
ACAD_XREC_ROUNDTRIP
360
38A
  0
DICTIONARY
  5
383
330
38
100
AcDbDictionary
280
     1
281
     1
  3
ACAD_XREC_ROUNDTRIP
360
384
  0
DICTIONARY
  5
38B
330
3C
100
AcDbDictionary
280
     1
281
     1
  3
ACAD_XREC_ROUNDTRIP
360
38C
  0
DICTIONARY
  5
379
330
33
100
AcDbDictionary
280
     1
281
     1
  3
ACAD_XREC_ROUNDTRIP
360
37A
  0
DICTIONARY
  5
397
330
42
100
AcDbDictionary
280
     1
281
     1
  3
ACAD_XREC_ROUNDTRIP
360
398
  0
DICTIONARY
  5
395
330
41
100
AcDbDictionary
280
     1
281
     1
  3
ACAD_XREC_ROUNDTRIP
360
396
  0
DICTIONARY
  5
38F
330
3E
100
AcDbDictionary
280
     1
281
     1
  3
ACAD_XREC_ROUNDTRIP
360
390
  0
DICTIONARY
  5
391
330
3F
100
AcDbDictionary
280
     1
281
     1
  3
ACAD_XREC_ROUNDTRIP
360
392
  0
DICTIONARY
  5
381
330
37
100
AcDbDictionary
280
     1
281
     1
  3
ACAD_XREC_ROUNDTRIP
360
382
  0
DICTIONARY
  5
373
330
30
100
AcDbDictionary
280
     1
281
     1
  3
ACAD_XREC_ROUNDTRIP
360
374
  0
DICTIONARY
  5
393
330
40
100
AcDbDictionary
280
     1
281
     1
  3
ACAD_XREC_ROUNDTRIP
360
394
  0
XRECORD
  5
39C
102
{ACAD_REACTORS
330
39B
102
}
330
39B
100
AcDbXrecord
280
     1
102
MATERIAL
148
0.0
149
0.0
149
0.0
 93
        0
 94
      127
282
     0
 72
     1
 77
     1
171
     1
175
     1
179
     1
273
     0
  0
XRECORD
  5
39A
102
{ACAD_REACTORS
330
399
102
}
330
399
100
AcDbXrecord
280
     1
102
MATERIAL
148
0.0
149
0.0
149
0.0
 93
        0
 94
      127
282
     0
 72
     1
 77
     1
171
     1
175
     1
179
     1
273
     0
  0
XRECORD
  5
39E
102
{ACAD_REACTORS
330
39D
102
}
330
39D
100
AcDbXrecord
280
     1
102
MATERIAL
148
0.0
149
0.0
149
0.0
 93
        0
 94
      127
282
     0
 72
     1
 77
     1
171
     1
175
     1
179
     1
273
     0
  0
XRECORD
  5
3A1
102
{ACAD_REACTORS
330
3A0
102
}
330
3A0
100
AcDbXrecord
280
     1
102
ACAD_ROUNDTRIP_2010_MLEADER_STYLE
  0
XRECORD
  5
372
102
{ACAD_REACTORS
330
371
102
}
330
371
100
AcDbXrecord
280
     1
102
RTVSPropertyOp0
 70
     1
102
RTVSPropertyOp1
 70
     1
102
RTVSPropertyOp2
 70
     1
102
RTVSPropertyOp3
 70
     1
102
RTVSPropertyOp4
 70
     1
102
RTVSPropertyOp5
 70
     1
102
RTVSPropertyOp6
 70
     1
102
RTVSPropertyOp7
 70
     1
102
RTVSPropertyOp8
 70
     1
102
RTVSPropertyOp9
 70
     1
102
RTVSPropertyOp10
 70
     1
102
RTVSPropertyOp11
 70
     1
102
RTVSPropertyOp12
 70
     1
102
RTVSPropertyOp13
 70
     1
102
RTVSPropertyOp14
 70
     1
102
RTVSPropertyOp15
 70
     1
102
RTVSPropertyOp16
 70
     1
102
RTVSPropertyOp17
 70
     1
102
RTVSPropertyOp18
 70
     1
102
RTVSPropertyOp19
 70
     1
102
RTVSPropertyOp20
 70
     1
102
RTVSPropertyOp21
 70
     1
102
RTVSPropertyOp22
 70
     1
102
RTVSPropertyOp23
 70
     1
102
RTVSPropertyOp24
 70
     1
102
RTVSPropertyOp25
 70
     1
102
RTVSPropertyOp26
 70
     1
102
RTVSPropertyOp27
 70
     1
102
RTVSPropertyOp28
 70
     1
102
RTVSPropertyOp29
 70
     1
102
RTVSPropertyOp30
 70
     1
102
RTVSPropertyOp31
 70
     1
102
RTVSPropertyOp32
 70
     1
102
RTVSPropertyOp33
 70
     1
102
RTVSPropertyOp34
 70
     1
102
RTVSPropertyOp35
 70
     1
102
RTVSPropertyOp36
 70
     1
102
RTVSPropertyOp37
 70
     1
102
RTVSPropertyOp38
 70
     1
102
RTVSPropertyOp39
 70
     1
102
RTVSPropertyOp40
 70
     1
102
RTVSPropertyOp41
 70
     1
102
RTVSPropertyOp42
 70
     1
102
RTVSPropertyOp43
 70
     1
102
RTVSPropertyOp44
 70
     1
102
RTVSPropertyOp45
 70
     1
102
RTVSPropertyOp46
 70
     1
102
RTVSPropertyOp47
 70
     1
102
RTVSPropertyOp48
 70
     1
102
RTVSPropertyOp49
 70
     1
102
RTVSPropertyOp50
 70
     1
102
RTVSPropertyOp51
 70
     0
102
RTVSPropertyOp52
 70
     0
102
RTVSPropertyOp53
 70
     1
102
RTVSPropertyOp54
 70
     1
102
RTVSPropertyOp55
 70
     1
102
RTVSPropertyOp56
 70
     1
102
RTVSPropertyOp57
 70
     1
102
RTVSPost2010Prop28
280
     1
102
RTVSPost2010PropOp28
 70
     1
102
RTVSPost2010Prop29
280
     1
102
RTVSPost2010PropOp29
 70
     1
102
RTVSPost2010Prop30
280
     0
102
RTVSPost2010PropOp30
 70
     1
102
RTVSPost2010Prop31
280
     0
102
RTVSPost2010PropOp31
 70
     1
102
RTVSPost2010Prop32
280
     0
102
RTVSPost2010PropOp32
 70
     1
102
RTVSPost2010Prop33
280
     0
102
RTVSPost2010PropOp33
 70
     1
102
RTVSPost2010Prop34
280
     0
102
RTVSPost2010PropOp34
 70
     1
102
RTVSPost2010Prop35
280
     0
102
RTVSPost2010PropOp35
 70
     1
102
RTVSPost2010Prop36
280
     0
102
RTVSPost2010PropOp36
 70
     1
102
RTVSPost2010Prop37
 90
       50
102
RTVSPost2010PropOp37
 70
     1
102
RTVSPost2010Prop38
140
0.0
102
RTVSPost2010PropOp38
 70
     1
102
RTVSPost2010Prop39
140
1.0
102
RTVSPost2010PropOp39
 70
     1
102
RTVSPost2010Prop40
 90
        0
102
RTVSPost2010PropOp40
 70
     1
102
RTVSPost2010Prop41ColorIndex
 90
       18
102
RTVSPost2010Prop41ColorRGB
 90
        0
102
RTVSPost2010PropOp41
 70
     1
102
RTVSPost2010Prop42
 90
       50
102
RTVSPost2010PropOp42
 70
     1
102
RTVSPost2010Prop43
 90
        3
102
RTVSPost2010PropOp43
 70
     1
102
RTVSPost2010Prop44ColorIndex
 90
        5
102
RTVSPost2010Prop44ColorRGB
 90
      255
102
RTVSPost2010PropOp44
 70
     1
102
RTVSPost2010Prop45
280
     0
102
RTVSPost2010PropOp45
 70
     1
102
RTVSPost2010Prop46
 90
       50
102
RTVSPost2010PropOp46
 70
     1
102
RTVSPost2010Prop47
 90
       50
102
RTVSPost2010PropOp47
 70
     1
102
RTVSPost2010Prop48
 90
       50
102
RTVSPost2010PropOp48
 70
     1
102
RTVSPost2010Prop49
280
     0
102
RTVSPost2010PropOp49
 70
     1
102
RTVSPost2010Prop50
 90
       50
102
RTVSPost2010PropOp50
 70
     1
102
RTVSPost2010Prop51ColorIndex
 90
      256
102
RTVSPost2010Prop51ColorRGB
 90
-16777216
102
RTVSPost2010PropOp51
 70
     0
102
RTVSPost2010Prop52
140
1.0
102
RTVSPost2010PropOp52
 70
     0
102
RTVSPost2010Prop53
 90
        2
102
RTVSPost2010PropOp53
 70
     1
102
RTVSPost2010Prop54
  1
strokes_ogs.tif
102
RTVSPost2010PropOp54
 70
     1
102
RTVSPost2010Prop55
280
     0
102
RTVSPost2010PropOp55
 70
     1
102
RTVSPost2010Prop56
140
1.0
102
RTVSPost2010PropOp56
 70
     1
102
RTVSPost2010Prop57
140
1.0
102
RTVSPost2010PropOp57
 70
     1
  0
XRECORD
  5
378
102
{ACAD_REACTORS
330
377
102
}
330
377
100
AcDbXrecord
280
     1
102
RTVSPropertyOp0
 70
     1
102
RTVSPropertyOp1
 70
     1
102
RTVSPropertyOp2
 70
     1
102
RTVSPropertyOp3
 70
     1
102
RTVSPropertyOp4
 70
     1
102
RTVSPropertyOp5
 70
     1
102
RTVSPropertyOp6
 70
     1
102
RTVSPropertyOp7
 70
     1
102
RTVSPropertyOp8
 70
     1
102
RTVSPropertyOp9
 70
     1
102
RTVSPropertyOp10
 70
     1
102
RTVSPropertyOp11
 70
     1
102
RTVSPropertyOp12
 70
     1
102
RTVSPropertyOp13
 70
     1
102
RTVSPropertyOp14
 70
     1
102
RTVSPropertyOp15
 70
     1
102
RTVSPropertyOp16
 70
     1
102
RTVSPropertyOp17
 70
     1
102
RTVSPropertyOp18
 70
     1
102
RTVSPropertyOp19
 70
     1
102
RTVSPropertyOp20
 70
     1
102
RTVSPropertyOp21
 70
     1
102
RTVSPropertyOp22
 70
     1
102
RTVSPropertyOp23
 70
     1
102
RTVSPropertyOp24
 70
     1
102
RTVSPropertyOp25
 70
     1
102
RTVSPropertyOp26
 70
     1
102
RTVSPropertyOp27
 70
     1
102
RTVSPropertyOp28
 70
     1
102
RTVSPropertyOp29
 70
     1
102
RTVSPropertyOp30
 70
     1
102
RTVSPropertyOp31
 70
     1
102
RTVSPropertyOp32
 70
     1
102
RTVSPropertyOp33
 70
     1
102
RTVSPropertyOp34
 70
     1
102
RTVSPropertyOp35
 70
     1
102
RTVSPropertyOp36
 70
     1
102
RTVSPropertyOp37
 70
     1
102
RTVSPropertyOp38
 70
     1
102
RTVSPropertyOp39
 70
     1
102
RTVSPropertyOp40
 70
     1
102
RTVSPropertyOp41
 70
     1
102
RTVSPropertyOp42
 70
     1
102
RTVSPropertyOp43
 70
     1
102
RTVSPropertyOp44
 70
     1
102
RTVSPropertyOp45
 70
     1
102
RTVSPropertyOp46
 70
     1
102
RTVSPropertyOp47
 70
     1
102
RTVSPropertyOp48
 70
     1
102
RTVSPropertyOp49
 70
     1
102
RTVSPropertyOp50
 70
     1
102
RTVSPropertyOp51
 70
     0
102
RTVSPropertyOp52
 70
     0
102
RTVSPropertyOp53
 70
     1
102
RTVSPropertyOp54
 70
     1
102
RTVSPropertyOp55
 70
     1
102
RTVSPropertyOp56
 70
     1
102
RTVSPropertyOp57
 70
     1
102
RTVSPost2010Prop28
280
     0
102
RTVSPost2010PropOp28
 70
     1
102
RTVSPost2010Prop29
280
     1
102
RTVSPost2010PropOp29
 70
     1
102
RTVSPost2010Prop30
280
     1
102
RTVSPost2010PropOp30
 70
     1
102
RTVSPost2010Prop31
280
     0
102
RTVSPost2010PropOp31
 70
     1
102
RTVSPost2010Prop32
280
     0
102
RTVSPost2010PropOp32
 70
     1
102
RTVSPost2010Prop33
280
     0
102
RTVSPost2010PropOp33
 70
     1
102
RTVSPost2010Prop34
280
     0
102
RTVSPost2010PropOp34
 70
     1
102
RTVSPost2010Prop35
280
     0
102
RTVSPost2010PropOp35
 70
     1
102
RTVSPost2010Prop36
280
     0
102
RTVSPost2010PropOp36
 70
     1
102
RTVSPost2010Prop37
 90
       50
102
RTVSPost2010PropOp37
 70
     1
102
RTVSPost2010Prop38
140
0.0
102
RTVSPost2010PropOp38
 70
     1
102
RTVSPost2010Prop39
140
1.0
102
RTVSPost2010PropOp39
 70
     1
102
RTVSPost2010Prop40
 90
        0
102
RTVSPost2010PropOp40
 70
     1
102
RTVSPost2010Prop41ColorIndex
 90
       18
102
RTVSPost2010Prop41ColorRGB
 90
        0
102
RTVSPost2010PropOp41
 70
     1
102
RTVSPost2010Prop42
 90
       50
102
RTVSPost2010PropOp42
 70
     1
102
RTVSPost2010Prop43
 90
        3
102
RTVSPost2010PropOp43
 70
     1
102
RTVSPost2010Prop44ColorIndex
 90
        5
102
RTVSPost2010Prop44ColorRGB
 90
      255
102
RTVSPost2010PropOp44
 70
     1
102
RTVSPost2010Prop45
280
     0
102
RTVSPost2010PropOp45
 70
     1
102
RTVSPost2010Prop46
 90
       50
102
RTVSPost2010PropOp46
 70
     1
102
RTVSPost2010Prop47
 90
       50
102
RTVSPost2010PropOp47
 70
     1
102
RTVSPost2010Prop48
 90
       50
102
RTVSPost2010PropOp48
 70
     1
102
RTVSPost2010Prop49
280
     0
102
RTVSPost2010PropOp49
 70
     1
102
RTVSPost2010Prop50
 90
       50
102
RTVSPost2010PropOp50
 70
     1
102
RTVSPost2010Prop51ColorIndex
 90
      256
102
RTVSPost2010Prop51ColorRGB
 90
-16777216
102
RTVSPost2010PropOp51
 70
     0
102
RTVSPost2010Prop52
140
1.0
102
RTVSPost2010PropOp52
 70
     0
102
RTVSPost2010Prop53
 90
        2
102
RTVSPost2010PropOp53
 70
     1
102
RTVSPost2010Prop54
  1
strokes_ogs.tif
102
RTVSPost2010PropOp54
 70
     1
102
RTVSPost2010Prop55
280
     0
102
RTVSPost2010PropOp55
 70
     1
102
RTVSPost2010Prop56
140
1.0
102
RTVSPost2010PropOp56
 70
     1
102
RTVSPost2010Prop57
140
1.0
102
RTVSPost2010PropOp57
 70
     1
  0
XRECORD
  5
380
102
{ACAD_REACTORS
330
37F
102
}
330
37F
100
AcDbXrecord
280
     1
102
RTVSPropertyOp0
 70
     1
102
RTVSPropertyOp1
 70
     1
102
RTVSPropertyOp2
 70
     1
102
RTVSPropertyOp3
 70
     1
102
RTVSPropertyOp4
 70
     1
102
RTVSPropertyOp5
 70
     1
102
RTVSPropertyOp6
 70
     1
102
RTVSPropertyOp7
 70
     1
102
RTVSPropertyOp8
 70
     1
102
RTVSPropertyOp9
 70
     1
102
RTVSPropertyOp10
 70
     1
102
RTVSPropertyOp11
 70
     1
102
RTVSPropertyOp12
 70
     1
102
RTVSPropertyOp13
 70
     1
102
RTVSPropertyOp14
 70
     1
102
RTVSPropertyOp15
 70
     1
102
RTVSPropertyOp16
 70
     1
102
RTVSPropertyOp17
 70
     1
102
RTVSPropertyOp18
 70
     1
102
RTVSPropertyOp19
 70
     1
102
RTVSPropertyOp20
 70
     1
102
RTVSPropertyOp21
 70
     1
102
RTVSPropertyOp22
 70
     1
102
RTVSPropertyOp23
 70
     1
102
RTVSPropertyOp24
 70
     1
102
RTVSPropertyOp25
 70
     1
102
RTVSPropertyOp26
 70
     1
102
RTVSPropertyOp27
 70
     1
102
RTVSPropertyOp28
 70
     1
102
RTVSPropertyOp29
 70
     1
102
RTVSPropertyOp30
 70
     1
102
RTVSPropertyOp31
 70
     1
102
RTVSPropertyOp32
 70
     1
102
RTVSPropertyOp33
 70
     1
102
RTVSPropertyOp34
 70
     1
102
RTVSPropertyOp35
 70
     1
102
RTVSPropertyOp36
 70
     1
102
RTVSPropertyOp37
 70
     1
102
RTVSPropertyOp38
 70
     1
102
RTVSPropertyOp39
 70
     1
102
RTVSPropertyOp40
 70
     1
102
RTVSPropertyOp41
 70
     1
102
RTVSPropertyOp42
 70
     1
102
RTVSPropertyOp43
 70
     1
102
RTVSPropertyOp44
 70
     1
102
RTVSPropertyOp45
 70
     1
102
RTVSPropertyOp46
 70
     1
102
RTVSPropertyOp47
 70
     1
102
RTVSPropertyOp48
 70
     1
102
RTVSPropertyOp49
 70
     1
102
RTVSPropertyOp50
 70
     1
102
RTVSPropertyOp51
 70
     0
102
RTVSPropertyOp52
 70
     0
102
RTVSPropertyOp53
 70
     1
102
RTVSPropertyOp54
 70
     1
102
RTVSPropertyOp55
 70
     1
102
RTVSPropertyOp56
 70
     1
102
RTVSPropertyOp57
 70
     1
102
RTVSPost2010Prop28
280
     0
102
RTVSPost2010PropOp28
 70
     1
102
RTVSPost2010Prop29
280
     1
102
RTVSPost2010PropOp29
 70
     1
102
RTVSPost2010Prop30
280
     1
102
RTVSPost2010PropOp30
 70
     1
102
RTVSPost2010Prop31
280
     0
102
RTVSPost2010PropOp31
 70
     1
102
RTVSPost2010Prop32
280
     0
102
RTVSPost2010PropOp32
 70
     1
102
RTVSPost2010Prop33
280
     0
102
RTVSPost2010PropOp33
 70
     1
102
RTVSPost2010Prop34
280
     0
102
RTVSPost2010PropOp34
 70
     1
102
RTVSPost2010Prop35
280
     0
102
RTVSPost2010PropOp35
 70
     1
102
RTVSPost2010Prop36
280
     0
102
RTVSPost2010PropOp36
 70
     1
102
RTVSPost2010Prop37
 90
       50
102
RTVSPost2010PropOp37
 70
     1
102
RTVSPost2010Prop38
140
0.0
102
RTVSPost2010PropOp38
 70
     1
102
RTVSPost2010Prop39
140
1.0
102
RTVSPost2010PropOp39
 70
     1
102
RTVSPost2010Prop40
 90
        0
102
RTVSPost2010PropOp40
 70
     1
102
RTVSPost2010Prop41ColorIndex
 90
       18
102
RTVSPost2010Prop41ColorRGB
 90
        0
102
RTVSPost2010PropOp41
 70
     1
102
RTVSPost2010Prop42
 90
       50
102
RTVSPost2010PropOp42
 70
     1
102
RTVSPost2010Prop43
 90
        3
102
RTVSPost2010PropOp43
 70
     1
102
RTVSPost2010Prop44ColorIndex
 90
        5
102
RTVSPost2010Prop44ColorRGB
 90
      255
102
RTVSPost2010PropOp44
 70
     1
102
RTVSPost2010Prop45
280
     0
102
RTVSPost2010PropOp45
 70
     1
102
RTVSPost2010Prop46
 90
       50
102
RTVSPost2010PropOp46
 70
     1
102
RTVSPost2010Prop47
 90
       50
102
RTVSPost2010PropOp47
 70
     1
102
RTVSPost2010Prop48
 90
       50
102
RTVSPost2010PropOp48
 70
     1
102
RTVSPost2010Prop49
280
     0
102
RTVSPost2010PropOp49
 70
     1
102
RTVSPost2010Prop50
 90
       50
102
RTVSPost2010PropOp50
 70
     1
102
RTVSPost2010Prop51ColorIndex
 90
      256
102
RTVSPost2010Prop51ColorRGB
 90
-16777216
102
RTVSPost2010PropOp51
 70
     0
102
RTVSPost2010Prop52
140
1.0
102
RTVSPost2010PropOp52
 70
     0
102
RTVSPost2010Prop53
 90
        2
102
RTVSPost2010PropOp53
 70
     1
102
RTVSPost2010Prop54
  1
strokes_ogs.tif
102
RTVSPost2010PropOp54
 70
     1
102
RTVSPost2010Prop55
280
     0
102
RTVSPost2010PropOp55
 70
     1
102
RTVSPost2010Prop56
140
1.0
102
RTVSPost2010PropOp56
 70
     1
102
RTVSPost2010Prop57
140
1.0
102
RTVSPost2010PropOp57
 70
     1
  0
XRECORD
  5
388
102
{ACAD_REACTORS
330
387
102
}
330
387
100
AcDbXrecord
280
     1
102
RTVSPropertyOp0
 70
     1
102
RTVSPropertyOp1
 70
     1
102
RTVSPropertyOp2
 70
     1
102
RTVSPropertyOp3
 70
     1
102
RTVSPropertyOp4
 70
     1
102
RTVSPropertyOp5
 70
     1
102
RTVSPropertyOp6
 70
     1
102
RTVSPropertyOp7
 70
     1
102
RTVSPropertyOp8
 70
     1
102
RTVSPropertyOp9
 70
     1
102
RTVSPropertyOp10
 70
     1
102
RTVSPropertyOp11
 70
     1
102
RTVSPropertyOp12
 70
     1
102
RTVSPropertyOp13
 70
     1
102
RTVSPropertyOp14
 70
     1
102
RTVSPropertyOp15
 70
     1
102
RTVSPropertyOp16
 70
     1
102
RTVSPropertyOp17
 70
     1
102
RTVSPropertyOp18
 70
     1
102
RTVSPropertyOp19
 70
     1
102
RTVSPropertyOp20
 70
     1
102
RTVSPropertyOp21
 70
     1
102
RTVSPropertyOp22
 70
     1
102
RTVSPropertyOp23
 70
     1
102
RTVSPropertyOp24
 70
     1
102
RTVSPropertyOp25
 70
     1
102
RTVSPropertyOp26
 70
     1
102
RTVSPropertyOp27
 70
     1
102
RTVSPropertyOp28
 70
     1
102
RTVSPropertyOp29
 70
     1
102
RTVSPropertyOp30
 70
     1
102
RTVSPropertyOp31
 70
     1
102
RTVSPropertyOp32
 70
     1
102
RTVSPropertyOp33
 70
     1
102
RTVSPropertyOp34
 70
     1
102
RTVSPropertyOp35
 70
     1
102
RTVSPropertyOp36
 70
     1
102
RTVSPropertyOp37
 70
     1
102
RTVSPropertyOp38
 70
     1
102
RTVSPropertyOp39
 70
     1
102
RTVSPropertyOp40
 70
     1
102
RTVSPropertyOp41
 70
     1
102
RTVSPropertyOp42
 70
     1
102
RTVSPropertyOp43
 70
     1
102
RTVSPropertyOp44
 70
     1
102
RTVSPropertyOp45
 70
     1
102
RTVSPropertyOp46
 70
     1
102
RTVSPropertyOp47
 70
     1
102
RTVSPropertyOp48
 70
     1
102
RTVSPropertyOp49
 70
     1
102
RTVSPropertyOp50
 70
     1
102
RTVSPropertyOp51
 70
     0
102
RTVSPropertyOp52
 70
     0
102
RTVSPropertyOp53
 70
     1
102
RTVSPropertyOp54
 70
     1
102
RTVSPropertyOp55
 70
     1
102
RTVSPropertyOp56
 70
     1
102
RTVSPropertyOp57
 70
     1
102
RTVSPost2010Prop28
280
     0
102
RTVSPost2010PropOp28
 70
     1
102
RTVSPost2010Prop29
280
     1
102
RTVSPost2010PropOp29
 70
     1
102
RTVSPost2010Prop30
280
     1
102
RTVSPost2010PropOp30
 70
     1
102
RTVSPost2010Prop31
280
     0
102
RTVSPost2010PropOp31
 70
     1
102
RTVSPost2010Prop32
280
     0
102
RTVSPost2010PropOp32
 70
     1
102
RTVSPost2010Prop33
280
     0
102
RTVSPost2010PropOp33
 70
     1
102
RTVSPost2010Prop34
280
     0
102
RTVSPost2010PropOp34
 70
     1
102
RTVSPost2010Prop35
280
     0
102
RTVSPost2010PropOp35
 70
     1
102
RTVSPost2010Prop36
280
     0
102
RTVSPost2010PropOp36
 70
     1
102
RTVSPost2010Prop37
 90
       50
102
RTVSPost2010PropOp37
 70
     1
102
RTVSPost2010Prop38
140
0.0
102
RTVSPost2010PropOp38
 70
     1
102
RTVSPost2010Prop39
140
1.0
102
RTVSPost2010PropOp39
 70
     1
102
RTVSPost2010Prop40
 90
        0
102
RTVSPost2010PropOp40
 70
     1
102
RTVSPost2010Prop41ColorIndex
 90
       18
102
RTVSPost2010Prop41ColorRGB
 90
        0
102
RTVSPost2010PropOp41
 70
     1
102
RTVSPost2010Prop42
 90
       50
102
RTVSPost2010PropOp42
 70
     1
102
RTVSPost2010Prop43
 90
        3
102
RTVSPost2010PropOp43
 70
     1
102
RTVSPost2010Prop44ColorIndex
 90
        5
102
RTVSPost2010Prop44ColorRGB
 90
      255
102
RTVSPost2010PropOp44
 70
     1
102
RTVSPost2010Prop45
280
     0
102
RTVSPost2010PropOp45
 70
     1
102
RTVSPost2010Prop46
 90
       50
102
RTVSPost2010PropOp46
 70
     1
102
RTVSPost2010Prop47
 90
       50
102
RTVSPost2010PropOp47
 70
     1
102
RTVSPost2010Prop48
 90
       50
102
RTVSPost2010PropOp48
 70
     1
102
RTVSPost2010Prop49
280
     0
102
RTVSPost2010PropOp49
 70
     1
102
RTVSPost2010Prop50
 90
       50
102
RTVSPost2010PropOp50
 70
     1
102
RTVSPost2010Prop51ColorIndex
 90
      256
102
RTVSPost2010Prop51ColorRGB
 90
-16777216
102
RTVSPost2010PropOp51
 70
     0
102
RTVSPost2010Prop52
140
1.0
102
RTVSPost2010PropOp52
 70
     0
102
RTVSPost2010Prop53
 90
        2
102
RTVSPost2010PropOp53
 70
     1
102
RTVSPost2010Prop54
  1
strokes_ogs.tif
102
RTVSPost2010PropOp54
 70
     1
102
RTVSPost2010Prop55
280
     0
102
RTVSPost2010PropOp55
 70
     1
102
RTVSPost2010Prop56
140
1.0
102
RTVSPost2010PropOp56
 70
     1
102
RTVSPost2010Prop57
140
1.0
102
RTVSPost2010PropOp57
 70
     1
  0
XRECORD
  5
37C
102
{ACAD_REACTORS
330
37B
102
}
330
37B
100
AcDbXrecord
280
     1
102
RTVSPropertyOp0
 70
     1
102
RTVSPropertyOp1
 70
     1
102
RTVSPropertyOp2
 70
     1
102
RTVSPropertyOp3
 70
     1
102
RTVSPropertyOp4
 70
     1
102
RTVSPropertyOp5
 70
     1
102
RTVSPropertyOp6
 70
     1
102
RTVSPropertyOp7
 70
     1
102
RTVSPropertyOp8
 70
     1
102
RTVSPropertyOp9
 70
     1
102
RTVSPropertyOp10
 70
     1
102
RTVSPropertyOp11
 70
     1
102
RTVSPropertyOp12
 70
     1
102
RTVSPropertyOp13
 70
     1
102
RTVSPropertyOp14
 70
     1
102
RTVSPropertyOp15
 70
     1
102
RTVSPropertyOp16
 70
     1
102
RTVSPropertyOp17
 70
     1
102
RTVSPropertyOp18
 70
     1
102
RTVSPropertyOp19
 70
     1
102
RTVSPropertyOp20
 70
     1
102
RTVSPropertyOp21
 70
     1
102
RTVSPropertyOp22
 70
     1
102
RTVSPropertyOp23
 70
     1
102
RTVSPropertyOp24
 70
     1
102
RTVSPropertyOp25
 70
     1
102
RTVSPropertyOp26
 70
     1
102
RTVSPropertyOp27
 70
     1
102
RTVSPropertyOp28
 70
     1
102
RTVSPropertyOp29
 70
     1
102
RTVSPropertyOp30
 70
     1
102
RTVSPropertyOp31
 70
     1
102
RTVSPropertyOp32
 70
     1
102
RTVSPropertyOp33
 70
     1
102
RTVSPropertyOp34
 70
     1
102
RTVSPropertyOp35
 70
     1
102
RTVSPropertyOp36
 70
     1
102
RTVSPropertyOp37
 70
     1
102
RTVSPropertyOp38
 70
     1
102
RTVSPropertyOp39
 70
     1
102
RTVSPropertyOp40
 70
     1
102
RTVSPropertyOp41
 70
     1
102
RTVSPropertyOp42
 70
     1
102
RTVSPropertyOp43
 70
     1
102
RTVSPropertyOp44
 70
     1
102
RTVSPropertyOp45
 70
     1
102
RTVSPropertyOp46
 70
     1
102
RTVSPropertyOp47
 70
     1
102
RTVSPropertyOp48
 70
     1
102
RTVSPropertyOp49
 70
     1
102
RTVSPropertyOp50
 70
     1
102
RTVSPropertyOp51
 70
     0
102
RTVSPropertyOp52
 70
     0
102
RTVSPropertyOp53
 70
     1
102
RTVSPropertyOp54
 70
     1
102
RTVSPropertyOp55
 70
     1
102
RTVSPropertyOp56
 70
     1
102
RTVSPropertyOp57
 70
     1
102
RTVSPost2010Prop28
280
     0
102
RTVSPost2010PropOp28
 70
     1
102
RTVSPost2010Prop29
280
     1
102
RTVSPost2010PropOp29
 70
     1
102
RTVSPost2010Prop30
280
     1
102
RTVSPost2010PropOp30
 70
     1
102
RTVSPost2010Prop31
280
     0
102
RTVSPost2010PropOp31
 70
     1
102
RTVSPost2010Prop32
280
     0
102
RTVSPost2010PropOp32
 70
     1
102
RTVSPost2010Prop33
280
     0
102
RTVSPost2010PropOp33
 70
     1
102
RTVSPost2010Prop34
280
     0
102
RTVSPost2010PropOp34
 70
     1
102
RTVSPost2010Prop35
280
     0
102
RTVSPost2010PropOp35
 70
     1
102
RTVSPost2010Prop36
280
     0
102
RTVSPost2010PropOp36
 70
     1
102
RTVSPost2010Prop37
 90
       50
102
RTVSPost2010PropOp37
 70
     1
102
RTVSPost2010Prop38
140
0.0
102
RTVSPost2010PropOp38
 70
     1
102
RTVSPost2010Prop39
140
1.0
102
RTVSPost2010PropOp39
 70
     1
102
RTVSPost2010Prop40
 90
        0
102
RTVSPost2010PropOp40
 70
     1
102
RTVSPost2010Prop41ColorIndex
 90
       18
102
RTVSPost2010Prop41ColorRGB
 90
        0
102
RTVSPost2010PropOp41
 70
     1
102
RTVSPost2010Prop42
 90
       50
102
RTVSPost2010PropOp42
 70
     1
102
RTVSPost2010Prop43
 90
        3
102
RTVSPost2010PropOp43
 70
     1
102
RTVSPost2010Prop44ColorIndex
 90
        5
102
RTVSPost2010Prop44ColorRGB
 90
      255
102
RTVSPost2010PropOp44
 70
     1
102
RTVSPost2010Prop45
280
     0
102
RTVSPost2010PropOp45
 70
     1
102
RTVSPost2010Prop46
 90
       50
102
RTVSPost2010PropOp46
 70
     1
102
RTVSPost2010Prop47
 90
       50
102
RTVSPost2010PropOp47
 70
     1
102
RTVSPost2010Prop48
 90
       50
102
RTVSPost2010PropOp48
 70
     1
102
RTVSPost2010Prop49
280
     0
102
RTVSPost2010PropOp49
 70
     1
102
RTVSPost2010Prop50
 90
       50
102
RTVSPost2010PropOp50
 70
     1
102
RTVSPost2010Prop51ColorIndex
 90
      256
102
RTVSPost2010Prop51ColorRGB
 90
-16777216
102
RTVSPost2010PropOp51
 70
     0
102
RTVSPost2010Prop52
140
1.0
102
RTVSPost2010PropOp52
 70
     0
102
RTVSPost2010Prop53
 90
        2
102
RTVSPost2010PropOp53
 70
     1
102
RTVSPost2010Prop54
  1
strokes_ogs.tif
102
RTVSPost2010PropOp54
 70
     1
102
RTVSPost2010Prop55
280
     0
102
RTVSPost2010PropOp55
 70
     1
102
RTVSPost2010Prop56
140
1.0
102
RTVSPost2010PropOp56
 70
     1
102
RTVSPost2010Prop57
140
1.0
102
RTVSPost2010PropOp57
 70
     1
  0
XRECORD
  5
37E
102
{ACAD_REACTORS
330
37D
102
}
330
37D
100
AcDbXrecord
280
     1
102
RTVSPropertyOp0
 70
     1
102
RTVSPropertyOp1
 70
     1
102
RTVSPropertyOp2
 70
     1
102
RTVSPropertyOp3
 70
     1
102
RTVSPropertyOp4
 70
     1
102
RTVSPropertyOp5
 70
     1
102
RTVSPropertyOp6
 70
     1
102
RTVSPropertyOp7
 70
     1
102
RTVSPropertyOp8
 70
     1
102
RTVSPropertyOp9
 70
     1
102
RTVSPropertyOp10
 70
     1
102
RTVSPropertyOp11
 70
     1
102
RTVSPropertyOp12
 70
     1
102
RTVSPropertyOp13
 70
     1
102
RTVSPropertyOp14
 70
     1
102
RTVSPropertyOp15
 70
     1
102
RTVSPropertyOp16
 70
     1
102
RTVSPropertyOp17
 70
     1
102
RTVSPropertyOp18
 70
     1
102
RTVSPropertyOp19
 70
     1
102
RTVSPropertyOp20
 70
     1
102
RTVSPropertyOp21
 70
     1
102
RTVSPropertyOp22
 70
     1
102
RTVSPropertyOp23
 70
     1
102
RTVSPropertyOp24
 70
     1
102
RTVSPropertyOp25
 70
     1
102
RTVSPropertyOp26
 70
     1
102
RTVSPropertyOp27
 70
     1
102
RTVSPropertyOp28
 70
     1
102
RTVSPropertyOp29
 70
     1
102
RTVSPropertyOp30
 70
     1
102
RTVSPropertyOp31
 70
     1
102
RTVSPropertyOp32
 70
     1
102
RTVSPropertyOp33
 70
     1
102
RTVSPropertyOp34
 70
     1
102
RTVSPropertyOp35
 70
     1
102
RTVSPropertyOp36
 70
     1
102
RTVSPropertyOp37
 70
     1
102
RTVSPropertyOp38
 70
     1
102
RTVSPropertyOp39
 70
     1
102
RTVSPropertyOp40
 70
     1
102
RTVSPropertyOp41
 70
     1
102
RTVSPropertyOp42
 70
     1
102
RTVSPropertyOp43
 70
     1
102
RTVSPropertyOp44
 70
     1
102
RTVSPropertyOp45
 70
     1
102
RTVSPropertyOp46
 70
     1
102
RTVSPropertyOp47
 70
     1
102
RTVSPropertyOp48
 70
     1
102
RTVSPropertyOp49
 70
     1
102
RTVSPropertyOp50
 70
     1
102
RTVSPropertyOp51
 70
     0
102
RTVSPropertyOp52
 70
     0
102
RTVSPropertyOp53
 70
     1
102
RTVSPropertyOp54
 70
     1
102
RTVSPropertyOp55
 70
     1
102
RTVSPropertyOp56
 70
     1
102
RTVSPropertyOp57
 70
     1
102
RTVSPost2010Prop28
280
     0
102
RTVSPost2010PropOp28
 70
     1
102
RTVSPost2010Prop29
280
     1
102
RTVSPost2010PropOp29
 70
     1
102
RTVSPost2010Prop30
280
     1
102
RTVSPost2010PropOp30
 70
     1
102
RTVSPost2010Prop31
280
     0
102
RTVSPost2010PropOp31
 70
     1
102
RTVSPost2010Prop32
280
     0
102
RTVSPost2010PropOp32
 70
     1
102
RTVSPost2010Prop33
280
     0
102
RTVSPost2010PropOp33
 70
     1
102
RTVSPost2010Prop34
280
     0
102
RTVSPost2010PropOp34
 70
     1
102
RTVSPost2010Prop35
280
     0
102
RTVSPost2010PropOp35
 70
     1
102
RTVSPost2010Prop36
280
     0
102
RTVSPost2010PropOp36
 70
     1
102
RTVSPost2010Prop37
 90
       50
102
RTVSPost2010PropOp37
 70
     1
102
RTVSPost2010Prop38
140
0.0
102
RTVSPost2010PropOp38
 70
     1
102
RTVSPost2010Prop39
140
1.0
102
RTVSPost2010PropOp39
 70
     1
102
RTVSPost2010Prop40
 90
        0
102
RTVSPost2010PropOp40
 70
     1
102
RTVSPost2010Prop41ColorIndex
 90
       18
102
RTVSPost2010Prop41ColorRGB
 90
        0
102
RTVSPost2010PropOp41
 70
     1
102
RTVSPost2010Prop42
 90
       50
102
RTVSPost2010PropOp42
 70
     1
102
RTVSPost2010Prop43
 90
        3
102
RTVSPost2010PropOp43
 70
     1
102
RTVSPost2010Prop44ColorIndex
 90
        5
102
RTVSPost2010Prop44ColorRGB
 90
      255
102
RTVSPost2010PropOp44
 70
     1
102
RTVSPost2010Prop45
280
     0
102
RTVSPost2010PropOp45
 70
     1
102
RTVSPost2010Prop46
 90
       50
102
RTVSPost2010PropOp46
 70
     1
102
RTVSPost2010Prop47
 90
       50
102
RTVSPost2010PropOp47
 70
     1
102
RTVSPost2010Prop48
 90
       50
102
RTVSPost2010PropOp48
 70
     1
102
RTVSPost2010Prop49
280
     0
102
RTVSPost2010PropOp49
 70
     1
102
RTVSPost2010Prop50
 90
       50
102
RTVSPost2010PropOp50
 70
     1
102
RTVSPost2010Prop51ColorIndex
 90
      256
102
RTVSPost2010Prop51ColorRGB
 90
-16777216
102
RTVSPost2010PropOp51
 70
     0
102
RTVSPost2010Prop52
140
1.0
102
RTVSPost2010PropOp52
 70
     0
102
RTVSPost2010Prop53
 90
        2
102
RTVSPost2010PropOp53
 70
     1
102
RTVSPost2010Prop54
  1
strokes_ogs.tif
102
RTVSPost2010PropOp54
 70
     1
102
RTVSPost2010Prop55
280
     0
102
RTVSPost2010PropOp55
 70
     1
102
RTVSPost2010Prop56
140
1.0
102
RTVSPost2010PropOp56
 70
     1
102
RTVSPost2010Prop57
140
1.0
102
RTVSPost2010PropOp57
 70
     1
  0
XRECORD
  5
38E
102
{ACAD_REACTORS
330
38D
102
}
330
38D
100
AcDbXrecord
280
     1
102
RTVSPropertyOp0
 70
     0
102
RTVSPropertyOp1
 70
     0
102
RTVSPropertyOp2
 70
     0
102
RTVSPropertyOp3
 70
     0
102
RTVSPropertyOp4
 70
     0
102
RTVSPropertyOp5
 70
     0
102
RTVSPropertyOp6
 70
     0
102
RTVSPropertyOp7
 70
     0
102
RTVSPropertyOp8
 70
     0
102
RTVSPropertyOp9
 70
     0
102
RTVSPropertyOp10
 70
     0
102
RTVSPropertyOp11
 70
     0
102
RTVSPropertyOp12
 70
     0
102
RTVSPropertyOp13
 70
     0
102
RTVSPropertyOp14
 70
     2
102
RTVSPropertyOp15
 70
     0
102
RTVSPropertyOp16
 70
     0
102
RTVSPropertyOp17
 70
     0
102
RTVSPropertyOp18
 70
     0
102
RTVSPropertyOp19
 70
     0
102
RTVSPropertyOp20
 70
     0
102
RTVSPropertyOp21
 70
     0
102
RTVSPropertyOp22
 70
     0
102
RTVSPropertyOp23
 70
     0
102
RTVSPropertyOp24
 70
     0
102
RTVSPropertyOp25
 70
     0
102
RTVSPropertyOp26
 70
     0
102
RTVSPropertyOp27
 70
     0
102
RTVSPropertyOp28
 70
     0
102
RTVSPropertyOp29
 70
     0
102
RTVSPropertyOp30
 70
     0
102
RTVSPropertyOp31
 70
     0
102
RTVSPropertyOp32
 70
     0
102
RTVSPropertyOp33
 70
     0
102
RTVSPropertyOp34
 70
     0
102
RTVSPropertyOp35
 70
     0
102
RTVSPropertyOp36
 70
     0
102
RTVSPropertyOp37
 70
     0
102
RTVSPropertyOp38
 70
     0
102
RTVSPropertyOp39
 70
     0
102
RTVSPropertyOp40
 70
     0
102
RTVSPropertyOp41
 70
     0
102
RTVSPropertyOp42
 70
     0
102
RTVSPropertyOp43
 70
     0
102
RTVSPropertyOp44
 70
     0
102
RTVSPropertyOp45
 70
     0
102
RTVSPropertyOp46
 70
     0
102
RTVSPropertyOp47
 70
     0
102
RTVSPropertyOp48
 70
     0
102
RTVSPropertyOp49
 70
     0
102
RTVSPropertyOp50
 70
     0
102
RTVSPropertyOp51
 70
     0
102
RTVSPropertyOp52
 70
     0
102
RTVSPropertyOp53
 70
     0
102
RTVSPropertyOp54
 70
     0
102
RTVSPropertyOp55
 70
     0
102
RTVSPropertyOp56
 70
     0
102
RTVSPropertyOp57
 70
     0
102
RTVSPost2010Prop28
280
     0
102
RTVSPost2010PropOp28
 70
     0
102
RTVSPost2010Prop29
280
     1
102
RTVSPost2010PropOp29
 70
     0
102
RTVSPost2010Prop30
280
     1
102
RTVSPost2010PropOp30
 70
     0
102
RTVSPost2010Prop31
280
     0
102
RTVSPost2010PropOp31
 70
     0
102
RTVSPost2010Prop32
280
     0
102
RTVSPost2010PropOp32
 70
     0
102
RTVSPost2010Prop33
280
     0
102
RTVSPost2010PropOp33
 70
     0
102
RTVSPost2010Prop34
280
     0
102
RTVSPost2010PropOp34
 70
     0
102
RTVSPost2010Prop35
280
     0
102
RTVSPost2010PropOp35
 70
     0
102
RTVSPost2010Prop36
280
     0
102
RTVSPost2010PropOp36
 70
     0
102
RTVSPost2010Prop37
 90
       50
102
RTVSPost2010PropOp37
 70
     0
102
RTVSPost2010Prop38
140
0.0
102
RTVSPost2010PropOp38
 70
     0
102
RTVSPost2010Prop39
140
1.0
102
RTVSPost2010PropOp39
 70
     0
102
RTVSPost2010Prop40
 90
        0
102
RTVSPost2010PropOp40
 70
     0
102
RTVSPost2010Prop41ColorIndex
 90
       18
102
RTVSPost2010Prop41ColorRGB
 90
        0
102
RTVSPost2010PropOp41
 70
     0
102
RTVSPost2010Prop42
 90
       50
102
RTVSPost2010PropOp42
 70
     0
102
RTVSPost2010Prop43
 90
        3
102
RTVSPost2010PropOp43
 70
     0
102
RTVSPost2010Prop44ColorIndex
 90
        5
102
RTVSPost2010Prop44ColorRGB
 90
      255
102
RTVSPost2010PropOp44
 70
     0
102
RTVSPost2010Prop45
280
     0
102
RTVSPost2010PropOp45
 70
     0
102
RTVSPost2010Prop46
 90
       50
102
RTVSPost2010PropOp46
 70
     0
102
RTVSPost2010Prop47
 90
       50
102
RTVSPost2010PropOp47
 70
     0
102
RTVSPost2010Prop48
 90
       50
102
RTVSPost2010PropOp48
 70
     0
102
RTVSPost2010Prop49
280
     0
102
RTVSPost2010PropOp49
 70
     0
102
RTVSPost2010Prop50
 90
       50
102
RTVSPost2010PropOp50
 70
     0
102
RTVSPost2010Prop51ColorIndex
 90
      256
102
RTVSPost2010Prop51ColorRGB
 90
-16777216
102
RTVSPost2010PropOp51
 70
     0
102
RTVSPost2010Prop52
140
1.0
102
RTVSPost2010PropOp52
 70
     0
102
RTVSPost2010Prop53
 90
        2
102
RTVSPost2010PropOp53
 70
     0
102
RTVSPost2010Prop54
  1
strokes_ogs.tif
102
RTVSPost2010PropOp54
 70
     0
102
RTVSPost2010Prop55
280
     0
102
RTVSPost2010PropOp55
 70
     0
102
RTVSPost2010Prop56
140
1.0
102
RTVSPost2010PropOp56
 70
     0
102
RTVSPost2010Prop57
140
1.0
102
RTVSPost2010PropOp57
 70
     0
  0
XRECORD
  5
386
102
{ACAD_REACTORS
330
385
102
}
330
385
100
AcDbXrecord
280
     1
102
RTVSPropertyOp0
 70
     1
102
RTVSPropertyOp1
 70
     1
102
RTVSPropertyOp2
 70
     1
102
RTVSPropertyOp3
 70
     1
102
RTVSPropertyOp4
 70
     1
102
RTVSPropertyOp5
 70
     1
102
RTVSPropertyOp6
 70
     1
102
RTVSPropertyOp7
 70
     1
102
RTVSPropertyOp8
 70
     1
102
RTVSPropertyOp9
 70
     1
102
RTVSPropertyOp10
 70
     1
102
RTVSPropertyOp11
 70
     1
102
RTVSPropertyOp12
 70
     1
102
RTVSPropertyOp13
 70
     1
102
RTVSPropertyOp14
 70
     1
102
RTVSPropertyOp15
 70
     1
102
RTVSPropertyOp16
 70
     1
102
RTVSPropertyOp17
 70
     1
102
RTVSPropertyOp18
 70
     1
102
RTVSPropertyOp19
 70
     1
102
RTVSPropertyOp20
 70
     1
102
RTVSPropertyOp21
 70
     1
102
RTVSPropertyOp22
 70
     1
102
RTVSPropertyOp23
 70
     1
102
RTVSPropertyOp24
 70
     1
102
RTVSPropertyOp25
 70
     1
102
RTVSPropertyOp26
 70
     1
102
RTVSPropertyOp27
 70
     1
102
RTVSPropertyOp28
 70
     1
102
RTVSPropertyOp29
 70
     1
102
RTVSPropertyOp30
 70
     1
102
RTVSPropertyOp31
 70
     1
102
RTVSPropertyOp32
 70
     1
102
RTVSPropertyOp33
 70
     1
102
RTVSPropertyOp34
 70
     1
102
RTVSPropertyOp35
 70
     1
102
RTVSPropertyOp36
 70
     1
102
RTVSPropertyOp37
 70
     1
102
RTVSPropertyOp38
 70
     1
102
RTVSPropertyOp39
 70
     1
102
RTVSPropertyOp40
 70
     1
102
RTVSPropertyOp41
 70
     1
102
RTVSPropertyOp42
 70
     1
102
RTVSPropertyOp43
 70
     1
102
RTVSPropertyOp44
 70
     1
102
RTVSPropertyOp45
 70
     1
102
RTVSPropertyOp46
 70
     1
102
RTVSPropertyOp47
 70
     1
102
RTVSPropertyOp48
 70
     1
102
RTVSPropertyOp49
 70
     1
102
RTVSPropertyOp50
 70
     1
102
RTVSPropertyOp51
 70
     0
102
RTVSPropertyOp52
 70
     0
102
RTVSPropertyOp53
 70
     1
102
RTVSPropertyOp54
 70
     1
102
RTVSPropertyOp55
 70
     1
102
RTVSPropertyOp56
 70
     1
102
RTVSPropertyOp57
 70
     1
102
RTVSPost2010Prop28
280
     0
102
RTVSPost2010PropOp28
 70
     1
102
RTVSPost2010Prop29
280
     1
102
RTVSPost2010PropOp29
 70
     1
102
RTVSPost2010Prop30
280
     1
102
RTVSPost2010PropOp30
 70
     1
102
RTVSPost2010Prop31
280
     0
102
RTVSPost2010PropOp31
 70
     1
102
RTVSPost2010Prop32
280
     0
102
RTVSPost2010PropOp32
 70
     1
102
RTVSPost2010Prop33
280
     0
102
RTVSPost2010PropOp33
 70
     1
102
RTVSPost2010Prop34
280
     0
102
RTVSPost2010PropOp34
 70
     1
102
RTVSPost2010Prop35
280
     0
102
RTVSPost2010PropOp35
 70
     1
102
RTVSPost2010Prop36
280
     0
102
RTVSPost2010PropOp36
 70
     1
102
RTVSPost2010Prop37
 90
       50
102
RTVSPost2010PropOp37
 70
     1
102
RTVSPost2010Prop38
140
0.0
102
RTVSPost2010PropOp38
 70
     1
102
RTVSPost2010Prop39
140
1.0
102
RTVSPost2010PropOp39
 70
     1
102
RTVSPost2010Prop40
 90
        0
102
RTVSPost2010PropOp40
 70
     1
102
RTVSPost2010Prop41ColorIndex
 90
       18
102
RTVSPost2010Prop41ColorRGB
 90
        0
102
RTVSPost2010PropOp41
 70
     1
102
RTVSPost2010Prop42
 90
       50
102
RTVSPost2010PropOp42
 70
     1
102
RTVSPost2010Prop43
 90
        3
102
RTVSPost2010PropOp43
 70
     1
102
RTVSPost2010Prop44ColorIndex
 90
        5
102
RTVSPost2010Prop44ColorRGB
 90
      255
102
RTVSPost2010PropOp44
 70
     1
102
RTVSPost2010Prop45
280
     0
102
RTVSPost2010PropOp45
 70
     1
102
RTVSPost2010Prop46
 90
       50
102
RTVSPost2010PropOp46
 70
     1
102
RTVSPost2010Prop47
 90
       50
102
RTVSPost2010PropOp47
 70
     1
102
RTVSPost2010Prop48
 90
       50
102
RTVSPost2010PropOp48
 70
     1
102
RTVSPost2010Prop49
280
     0
102
RTVSPost2010PropOp49
 70
     1
102
RTVSPost2010Prop50
 90
       50
102
RTVSPost2010PropOp50
 70
     1
102
RTVSPost2010Prop51ColorIndex
 90
      256
102
RTVSPost2010Prop51ColorRGB
 90
-16777216
102
RTVSPost2010PropOp51
 70
     0
102
RTVSPost2010Prop52
140
1.0
102
RTVSPost2010PropOp52
 70
     0
102
RTVSPost2010Prop53
 90
        2
102
RTVSPost2010PropOp53
 70
     1
102
RTVSPost2010Prop54
  1
strokes_ogs.tif
102
RTVSPost2010PropOp54
 70
     1
102
RTVSPost2010Prop55
280
     0
102
RTVSPost2010PropOp55
 70
     1
102
RTVSPost2010Prop56
140
1.0
102
RTVSPost2010PropOp56
 70
     1
102
RTVSPost2010Prop57
140
1.0
102
RTVSPost2010PropOp57
 70
     1
  0
XRECORD
  5
36A
102
{ACAD_REACTORS
330
369
102
}
330
369
100
AcDbXrecord
280
     1
102
RTVSPropertyOp0
 70
     1
102
RTVSPropertyOp1
 70
     1
102
RTVSPropertyOp2
 70
     1
102
RTVSPropertyOp3
 70
     1
102
RTVSPropertyOp4
 70
     1
102
RTVSPropertyOp5
 70
     1
102
RTVSPropertyOp6
 70
     1
102
RTVSPropertyOp7
 70
     1
102
RTVSPropertyOp8
 70
     1
102
RTVSPropertyOp9
 70
     1
102
RTVSPropertyOp10
 70
     1
102
RTVSPropertyOp11
 70
     1
102
RTVSPropertyOp12
 70
     1
102
RTVSPropertyOp13
 70
     1
102
RTVSPropertyOp14
 70
     1
102
RTVSPropertyOp15
 70
     1
102
RTVSPropertyOp16
 70
     1
102
RTVSPropertyOp17
 70
     1
102
RTVSPropertyOp18
 70
     1
102
RTVSPropertyOp19
 70
     1
102
RTVSPropertyOp20
 70
     1
102
RTVSPropertyOp21
 70
     1
102
RTVSPropertyOp22
 70
     1
102
RTVSPropertyOp23
 70
     1
102
RTVSPropertyOp24
 70
     1
102
RTVSPropertyOp25
 70
     1
102
RTVSPropertyOp26
 70
     1
102
RTVSPropertyOp27
 70
     1
102
RTVSPropertyOp28
 70
     1
102
RTVSPropertyOp29
 70
     1
102
RTVSPropertyOp30
 70
     1
102
RTVSPropertyOp31
 70
     1
102
RTVSPropertyOp32
 70
     1
102
RTVSPropertyOp33
 70
     1
102
RTVSPropertyOp34
 70
     1
102
RTVSPropertyOp35
 70
     1
102
RTVSPropertyOp36
 70
     1
102
RTVSPropertyOp37
 70
     1
102
RTVSPropertyOp38
 70
     1
102
RTVSPropertyOp39
 70
     1
102
RTVSPropertyOp40
 70
     1
102
RTVSPropertyOp41
 70
     1
102
RTVSPropertyOp42
 70
     1
102
RTVSPropertyOp43
 70
     1
102
RTVSPropertyOp44
 70
     1
102
RTVSPropertyOp45
 70
     1
102
RTVSPropertyOp46
 70
     1
102
RTVSPropertyOp47
 70
     1
102
RTVSPropertyOp48
 70
     1
102
RTVSPropertyOp49
 70
     1
102
RTVSPropertyOp50
 70
     1
102
RTVSPropertyOp51
 70
     0
102
RTVSPropertyOp52
 70
     0
102
RTVSPropertyOp53
 70
     1
102
RTVSPropertyOp54
 70
     1
102
RTVSPropertyOp55
 70
     1
102
RTVSPropertyOp56
 70
     1
102
RTVSPropertyOp57
 70
     1
102
RTVSPost2010Prop28
280
     0
102
RTVSPost2010PropOp28
 70
     1
102
RTVSPost2010Prop29
280
     1
102
RTVSPost2010PropOp29
 70
     1
102
RTVSPost2010Prop30
280
     1
102
RTVSPost2010PropOp30
 70
     1
102
RTVSPost2010Prop31
280
     0
102
RTVSPost2010PropOp31
 70
     1
102
RTVSPost2010Prop32
280
     0
102
RTVSPost2010PropOp32
 70
     1
102
RTVSPost2010Prop33
280
     0
102
RTVSPost2010PropOp33
 70
     1
102
RTVSPost2010Prop34
280
     0
102
RTVSPost2010PropOp34
 70
     1
102
RTVSPost2010Prop35
280
     0
102
RTVSPost2010PropOp35
 70
     1
102
RTVSPost2010Prop36
280
     0
102
RTVSPost2010PropOp36
 70
     1
102
RTVSPost2010Prop37
 90
       50
102
RTVSPost2010PropOp37
 70
     1
102
RTVSPost2010Prop38
140
0.0
102
RTVSPost2010PropOp38
 70
     1
102
RTVSPost2010Prop39
140
1.0
102
RTVSPost2010PropOp39
 70
     1
102
RTVSPost2010Prop40
 90
        0
102
RTVSPost2010PropOp40
 70
     1
102
RTVSPost2010Prop41ColorIndex
 90
       18
102
RTVSPost2010Prop41ColorRGB
 90
        0
102
RTVSPost2010PropOp41
 70
     1
102
RTVSPost2010Prop42
 90
       50
102
RTVSPost2010PropOp42
 70
     1
102
RTVSPost2010Prop43
 90
        3
102
RTVSPost2010PropOp43
 70
     1
102
RTVSPost2010Prop44ColorIndex
 90
        5
102
RTVSPost2010Prop44ColorRGB
 90
      255
102
RTVSPost2010PropOp44
 70
     1
102
RTVSPost2010Prop45
280
     0
102
RTVSPost2010PropOp45
 70
     1
102
RTVSPost2010Prop46
 90
       50
102
RTVSPost2010PropOp46
 70
     1
102
RTVSPost2010Prop47
 90
       50
102
RTVSPost2010PropOp47
 70
     1
102
RTVSPost2010Prop48
 90
       50
102
RTVSPost2010PropOp48
 70
     1
102
RTVSPost2010Prop49
280
     0
102
RTVSPost2010PropOp49
 70
     1
102
RTVSPost2010Prop50
 90
       50
102
RTVSPost2010PropOp50
 70
     1
102
RTVSPost2010Prop51ColorIndex
 90
      256
102
RTVSPost2010Prop51ColorRGB
 90
-16777216
102
RTVSPost2010PropOp51
 70
     0
102
RTVSPost2010Prop52
140
1.0
102
RTVSPost2010PropOp52
 70
     0
102
RTVSPost2010Prop53
 90
        2
102
RTVSPost2010PropOp53
 70
     1
102
RTVSPost2010Prop54
  1
strokes_ogs.tif
102
RTVSPost2010PropOp54
 70
     1
102
RTVSPost2010Prop55
280
     0
102
RTVSPost2010PropOp55
 70
     1
102
RTVSPost2010Prop56
140
1.0
102
RTVSPost2010PropOp56
 70
     1
102
RTVSPost2010Prop57
140
1.0
102
RTVSPost2010PropOp57
 70
     1
  0
XRECORD
  5
36C
102
{ACAD_REACTORS
330
36B
102
}
330
36B
100
AcDbXrecord
280
     1
102
RTVSPropertyOp0
 70
     1
102
RTVSPropertyOp1
 70
     1
102
RTVSPropertyOp2
 70
     1
102
RTVSPropertyOp3
 70
     1
102
RTVSPropertyOp4
 70
     1
102
RTVSPropertyOp5
 70
     1
102
RTVSPropertyOp6
 70
     1
102
RTVSPropertyOp7
 70
     1
102
RTVSPropertyOp8
 70
     1
102
RTVSPropertyOp9
 70
     1
102
RTVSPropertyOp10
 70
     1
102
RTVSPropertyOp11
 70
     1
102
RTVSPropertyOp12
 70
     1
102
RTVSPropertyOp13
 70
     1
102
RTVSPropertyOp14
 70
     1
102
RTVSPropertyOp15
 70
     1
102
RTVSPropertyOp16
 70
     1
102
RTVSPropertyOp17
 70
     1
102
RTVSPropertyOp18
 70
     1
102
RTVSPropertyOp19
 70
     1
102
RTVSPropertyOp20
 70
     1
102
RTVSPropertyOp21
 70
     1
102
RTVSPropertyOp22
 70
     1
102
RTVSPropertyOp23
 70
     1
102
RTVSPropertyOp24
 70
     1
102
RTVSPropertyOp25
 70
     1
102
RTVSPropertyOp26
 70
     1
102
RTVSPropertyOp27
 70
     1
102
RTVSPropertyOp28
 70
     1
102
RTVSPropertyOp29
 70
     1
102
RTVSPropertyOp30
 70
     1
102
RTVSPropertyOp31
 70
     1
102
RTVSPropertyOp32
 70
     1
102
RTVSPropertyOp33
 70
     1
102
RTVSPropertyOp34
 70
     1
102
RTVSPropertyOp35
 70
     1
102
RTVSPropertyOp36
 70
     1
102
RTVSPropertyOp37
 70
     1
102
RTVSPropertyOp38
 70
     1
102
RTVSPropertyOp39
 70
     1
102
RTVSPropertyOp40
 70
     1
102
RTVSPropertyOp41
 70
     1
102
RTVSPropertyOp42
 70
     1
102
RTVSPropertyOp43
 70
     1
102
RTVSPropertyOp44
 70
     1
102
RTVSPropertyOp45
 70
     1
102
RTVSPropertyOp46
 70
     1
102
RTVSPropertyOp47
 70
     1
102
RTVSPropertyOp48
 70
     1
102
RTVSPropertyOp49
 70
     1
102
RTVSPropertyOp50
 70
     1
102
RTVSPropertyOp51
 70
     0
102
RTVSPropertyOp52
 70
     0
102
RTVSPropertyOp53
 70
     1
102
RTVSPropertyOp54
 70
     1
102
RTVSPropertyOp55
 70
     1
102
RTVSPropertyOp56
 70
     1
102
RTVSPropertyOp57
 70
     1
102
RTVSPost2010Prop28
280
     0
102
RTVSPost2010PropOp28
 70
     1
102
RTVSPost2010Prop29
280
     1
102
RTVSPost2010PropOp29
 70
     1
102
RTVSPost2010Prop30
280
     1
102
RTVSPost2010PropOp30
 70
     1
102
RTVSPost2010Prop31
280
     0
102
RTVSPost2010PropOp31
 70
     1
102
RTVSPost2010Prop32
280
     0
102
RTVSPost2010PropOp32
 70
     1
102
RTVSPost2010Prop33
280
     0
102
RTVSPost2010PropOp33
 70
     1
102
RTVSPost2010Prop34
280
     0
102
RTVSPost2010PropOp34
 70
     1
102
RTVSPost2010Prop35
280
     0
102
RTVSPost2010PropOp35
 70
     1
102
RTVSPost2010Prop36
280
     0
102
RTVSPost2010PropOp36
 70
     1
102
RTVSPost2010Prop37
 90
       50
102
RTVSPost2010PropOp37
 70
     1
102
RTVSPost2010Prop38
140
0.0
102
RTVSPost2010PropOp38
 70
     1
102
RTVSPost2010Prop39
140
1.0
102
RTVSPost2010PropOp39
 70
     1
102
RTVSPost2010Prop40
 90
        0
102
RTVSPost2010PropOp40
 70
     1
102
RTVSPost2010Prop41ColorIndex
 90
       18
102
RTVSPost2010Prop41ColorRGB
 90
        0
102
RTVSPost2010PropOp41
 70
     1
102
RTVSPost2010Prop42
 90
       50
102
RTVSPost2010PropOp42
 70
     1
102
RTVSPost2010Prop43
 90
        3
102
RTVSPost2010PropOp43
 70
     1
102
RTVSPost2010Prop44ColorIndex
 90
        5
102
RTVSPost2010Prop44ColorRGB
 90
      255
102
RTVSPost2010PropOp44
 70
     1
102
RTVSPost2010Prop45
280
     0
102
RTVSPost2010PropOp45
 70
     1
102
RTVSPost2010Prop46
 90
       50
102
RTVSPost2010PropOp46
 70
     1
102
RTVSPost2010Prop47
 90
       50
102
RTVSPost2010PropOp47
 70
     1
102
RTVSPost2010Prop48
 90
       50
102
RTVSPost2010PropOp48
 70
     1
102
RTVSPost2010Prop49
280
     0
102
RTVSPost2010PropOp49
 70
     1
102
RTVSPost2010Prop50
 90
       50
102
RTVSPost2010PropOp50
 70
     1
102
RTVSPost2010Prop51ColorIndex
 90
      256
102
RTVSPost2010Prop51ColorRGB
 90
-16777216
102
RTVSPost2010PropOp51
 70
     0
102
RTVSPost2010Prop52
140
1.0
102
RTVSPost2010PropOp52
 70
     0
102
RTVSPost2010Prop53
 90
        2
102
RTVSPost2010PropOp53
 70
     1
102
RTVSPost2010Prop54
  1
strokes_ogs.tif
102
RTVSPost2010PropOp54
 70
     1
102
RTVSPost2010Prop55
280
     0
102
RTVSPost2010PropOp55
 70
     1
102
RTVSPost2010Prop56
140
1.0
102
RTVSPost2010PropOp56
 70
     1
102
RTVSPost2010Prop57
140
1.0
102
RTVSPost2010PropOp57
 70
     1
  0
XRECORD
  5
36E
102
{ACAD_REACTORS
330
36D
102
}
330
36D
100
AcDbXrecord
280
     1
102
RTVSPropertyOp0
 70
     1
102
RTVSPropertyOp1
 70
     1
102
RTVSPropertyOp2
 70
     1
102
RTVSPropertyOp3
 70
     1
102
RTVSPropertyOp4
 70
     1
102
RTVSPropertyOp5
 70
     1
102
RTVSPropertyOp6
 70
     1
102
RTVSPropertyOp7
 70
     1
102
RTVSPropertyOp8
 70
     1
102
RTVSPropertyOp9
 70
     1
102
RTVSPropertyOp10
 70
     1
102
RTVSPropertyOp11
 70
     1
102
RTVSPropertyOp12
 70
     1
102
RTVSPropertyOp13
 70
     1
102
RTVSPropertyOp14
 70
     1
102
RTVSPropertyOp15
 70
     1
102
RTVSPropertyOp16
 70
     1
102
RTVSPropertyOp17
 70
     1
102
RTVSPropertyOp18
 70
     1
102
RTVSPropertyOp19
 70
     1
102
RTVSPropertyOp20
 70
     1
102
RTVSPropertyOp21
 70
     1
102
RTVSPropertyOp22
 70
     1
102
RTVSPropertyOp23
 70
     1
102
RTVSPropertyOp24
 70
     1
102
RTVSPropertyOp25
 70
     1
102
RTVSPropertyOp26
 70
     1
102
RTVSPropertyOp27
 70
     1
102
RTVSPropertyOp28
 70
     1
102
RTVSPropertyOp29
 70
     1
102
RTVSPropertyOp30
 70
     1
102
RTVSPropertyOp31
 70
     1
102
RTVSPropertyOp32
 70
     1
102
RTVSPropertyOp33
 70
     1
102
RTVSPropertyOp34
 70
     1
102
RTVSPropertyOp35
 70
     1
102
RTVSPropertyOp36
 70
     1
102
RTVSPropertyOp37
 70
     1
102
RTVSPropertyOp38
 70
     1
102
RTVSPropertyOp39
 70
     1
102
RTVSPropertyOp40
 70
     1
102
RTVSPropertyOp41
 70
     1
102
RTVSPropertyOp42
 70
     1
102
RTVSPropertyOp43
 70
     1
102
RTVSPropertyOp44
 70
     1
102
RTVSPropertyOp45
 70
     1
102
RTVSPropertyOp46
 70
     1
102
RTVSPropertyOp47
 70
     1
102
RTVSPropertyOp48
 70
     1
102
RTVSPropertyOp49
 70
     1
102
RTVSPropertyOp50
 70
     1
102
RTVSPropertyOp51
 70
     0
102
RTVSPropertyOp52
 70
     0
102
RTVSPropertyOp53
 70
     1
102
RTVSPropertyOp54
 70
     1
102
RTVSPropertyOp55
 70
     1
102
RTVSPropertyOp56
 70
     1
102
RTVSPropertyOp57
 70
     1
102
RTVSPost2010Prop28
280
     0
102
RTVSPost2010PropOp28
 70
     1
102
RTVSPost2010Prop29
280
     1
102
RTVSPost2010PropOp29
 70
     1
102
RTVSPost2010Prop30
280
     1
102
RTVSPost2010PropOp30
 70
     1
102
RTVSPost2010Prop31
280
     0
102
RTVSPost2010PropOp31
 70
     1
102
RTVSPost2010Prop32
280
     0
102
RTVSPost2010PropOp32
 70
     1
102
RTVSPost2010Prop33
280
     0
102
RTVSPost2010PropOp33
 70
     1
102
RTVSPost2010Prop34
280
     0
102
RTVSPost2010PropOp34
 70
     1
102
RTVSPost2010Prop35
280
     0
102
RTVSPost2010PropOp35
 70
     1
102
RTVSPost2010Prop36
280
     0
102
RTVSPost2010PropOp36
 70
     1
102
RTVSPost2010Prop37
 90
       50
102
RTVSPost2010PropOp37
 70
     1
102
RTVSPost2010Prop38
140
0.0
102
RTVSPost2010PropOp38
 70
     1
102
RTVSPost2010Prop39
140
1.0
102
RTVSPost2010PropOp39
 70
     1
102
RTVSPost2010Prop40
 90
        0
102
RTVSPost2010PropOp40
 70
     1
102
RTVSPost2010Prop41ColorIndex
 90
       18
102
RTVSPost2010Prop41ColorRGB
 90
        0
102
RTVSPost2010PropOp41
 70
     1
102
RTVSPost2010Prop42
 90
       50
102
RTVSPost2010PropOp42
 70
     1
102
RTVSPost2010Prop43
 90
        3
102
RTVSPost2010PropOp43
 70
     1
102
RTVSPost2010Prop44ColorIndex
 90
        5
102
RTVSPost2010Prop44ColorRGB
 90
      255
102
RTVSPost2010PropOp44
 70
     1
102
RTVSPost2010Prop45
280
     0
102
RTVSPost2010PropOp45
 70
     1
102
RTVSPost2010Prop46
 90
       50
102
RTVSPost2010PropOp46
 70
     1
102
RTVSPost2010Prop47
 90
       50
102
RTVSPost2010PropOp47
 70
     1
102
RTVSPost2010Prop48
 90
       50
102
RTVSPost2010PropOp48
 70
     1
102
RTVSPost2010Prop49
280
     0
102
RTVSPost2010PropOp49
 70
     1
102
RTVSPost2010Prop50
 90
       50
102
RTVSPost2010PropOp50
 70
     1
102
RTVSPost2010Prop51ColorIndex
 90
      256
102
RTVSPost2010Prop51ColorRGB
 90
-16777216
102
RTVSPost2010PropOp51
 70
     0
102
RTVSPost2010Prop52
140
1.0
102
RTVSPost2010PropOp52
 70
     0
102
RTVSPost2010Prop53
 90
        2
102
RTVSPost2010PropOp53
 70
     1
102
RTVSPost2010Prop54
  1
strokes_ogs.tif
102
RTVSPost2010PropOp54
 70
     1
102
RTVSPost2010Prop55
280
     0
102
RTVSPost2010PropOp55
 70
     1
102
RTVSPost2010Prop56
140
1.0
102
RTVSPost2010PropOp56
 70
     1
102
RTVSPost2010Prop57
140
1.0
102
RTVSPost2010PropOp57
 70
     1
  0
XRECORD
  5
370
102
{ACAD_REACTORS
330
36F
102
}
330
36F
100
AcDbXrecord
280
     1
102
RTVSPropertyOp0
 70
     1
102
RTVSPropertyOp1
 70
     1
102
RTVSPropertyOp2
 70
     1
102
RTVSPropertyOp3
 70
     1
102
RTVSPropertyOp4
 70
     1
102
RTVSPropertyOp5
 70
     1
102
RTVSPropertyOp6
 70
     1
102
RTVSPropertyOp7
 70
     1
102
RTVSPropertyOp8
 70
     1
102
RTVSPropertyOp9
 70
     1
102
RTVSPropertyOp10
 70
     1
102
RTVSPropertyOp11
 70
     1
102
RTVSPropertyOp12
 70
     1
102
RTVSPropertyOp13
 70
     1
102
RTVSPropertyOp14
 70
     1
102
RTVSPropertyOp15
 70
     1
102
RTVSPropertyOp16
 70
     1
102
RTVSPropertyOp17
 70
     1
102
RTVSPropertyOp18
 70
     1
102
RTVSPropertyOp19
 70
     1
102
RTVSPropertyOp20
 70
     1
102
RTVSPropertyOp21
 70
     1
102
RTVSPropertyOp22
 70
     1
102
RTVSPropertyOp23
 70
     1
102
RTVSPropertyOp24
 70
     1
102
RTVSPropertyOp25
 70
     1
102
RTVSPropertyOp26
 70
     1
102
RTVSPropertyOp27
 70
     1
102
RTVSPropertyOp28
 70
     1
102
RTVSPropertyOp29
 70
     1
102
RTVSPropertyOp30
 70
     1
102
RTVSPropertyOp31
 70
     1
102
RTVSPropertyOp32
 70
     1
102
RTVSPropertyOp33
 70
     1
102
RTVSPropertyOp34
 70
     1
102
RTVSPropertyOp35
 70
     1
102
RTVSPropertyOp36
 70
     1
102
RTVSPropertyOp37
 70
     1
102
RTVSPropertyOp38
 70
     1
102
RTVSPropertyOp39
 70
     1
102
RTVSPropertyOp40
 70
     1
102
RTVSPropertyOp41
 70
     1
102
RTVSPropertyOp42
 70
     1
102
RTVSPropertyOp43
 70
     1
102
RTVSPropertyOp44
 70
     1
102
RTVSPropertyOp45
 70
     1
102
RTVSPropertyOp46
 70
     1
102
RTVSPropertyOp47
 70
     1
102
RTVSPropertyOp48
 70
     1
102
RTVSPropertyOp49
 70
     1
102
RTVSPropertyOp50
 70
     1
102
RTVSPropertyOp51
 70
     0
102
RTVSPropertyOp52
 70
     0
102
RTVSPropertyOp53
 70
     1
102
RTVSPropertyOp54
 70
     1
102
RTVSPropertyOp55
 70
     1
102
RTVSPropertyOp56
 70
     1
102
RTVSPropertyOp57
 70
     1
102
RTVSPost2010Prop28
280
     0
102
RTVSPost2010PropOp28
 70
     1
102
RTVSPost2010Prop29
280
     1
102
RTVSPost2010PropOp29
 70
     1
102
RTVSPost2010Prop30
280
     1
102
RTVSPost2010PropOp30
 70
     1
102
RTVSPost2010Prop31
280
     0
102
RTVSPost2010PropOp31
 70
     1
102
RTVSPost2010Prop32
280
     0
102
RTVSPost2010PropOp32
 70
     1
102
RTVSPost2010Prop33
280
     0
102
RTVSPost2010PropOp33
 70
     1
102
RTVSPost2010Prop34
280
     0
102
RTVSPost2010PropOp34
 70
     1
102
RTVSPost2010Prop35
280
     0
102
RTVSPost2010PropOp35
 70
     1
102
RTVSPost2010Prop36
280
     0
102
RTVSPost2010PropOp36
 70
     1
102
RTVSPost2010Prop37
 90
       50
102
RTVSPost2010PropOp37
 70
     1
102
RTVSPost2010Prop38
140
0.0
102
RTVSPost2010PropOp38
 70
     1
102
RTVSPost2010Prop39
140
1.0
102
RTVSPost2010PropOp39
 70
     1
102
RTVSPost2010Prop40
 90
        0
102
RTVSPost2010PropOp40
 70
     1
102
RTVSPost2010Prop41ColorIndex
 90
       18
102
RTVSPost2010Prop41ColorRGB
 90
        0
102
RTVSPost2010PropOp41
 70
     1
102
RTVSPost2010Prop42
 90
       50
102
RTVSPost2010PropOp42
 70
     1
102
RTVSPost2010Prop43
 90
        3
102
RTVSPost2010PropOp43
 70
     1
102
RTVSPost2010Prop44ColorIndex
 90
        5
102
RTVSPost2010Prop44ColorRGB
 90
      255
102
RTVSPost2010PropOp44
 70
     1
102
RTVSPost2010Prop45
280
     0
102
RTVSPost2010PropOp45
 70
     1
102
RTVSPost2010Prop46
 90
       50
102
RTVSPost2010PropOp46
 70
     1
102
RTVSPost2010Prop47
 90
       50
102
RTVSPost2010PropOp47
 70
     1
102
RTVSPost2010Prop48
 90
       50
102
RTVSPost2010PropOp48
 70
     1
102
RTVSPost2010Prop49
280
     0
102
RTVSPost2010PropOp49
 70
     1
102
RTVSPost2010Prop50
 90
       50
102
RTVSPost2010PropOp50
 70
     1
102
RTVSPost2010Prop51ColorIndex
 90
      256
102
RTVSPost2010Prop51ColorRGB
 90
-16777216
102
RTVSPost2010PropOp51
 70
     0
102
RTVSPost2010Prop52
140
1.0
102
RTVSPost2010PropOp52
 70
     0
102
RTVSPost2010Prop53
 90
        2
102
RTVSPost2010PropOp53
 70
     1
102
RTVSPost2010Prop54
  1
strokes_ogs.tif
102
RTVSPost2010PropOp54
 70
     1
102
RTVSPost2010Prop55
280
     0
102
RTVSPost2010PropOp55
 70
     1
102
RTVSPost2010Prop56
140
1.0
102
RTVSPost2010PropOp56
 70
     1
102
RTVSPost2010Prop57
140
1.0
102
RTVSPost2010PropOp57
 70
     1
  0
XRECORD
  5
376
102
{ACAD_REACTORS
330
375
102
}
330
375
100
AcDbXrecord
280
     1
102
RTVSPropertyOp0
 70
     1
102
RTVSPropertyOp1
 70
     1
102
RTVSPropertyOp2
 70
     1
102
RTVSPropertyOp3
 70
     1
102
RTVSPropertyOp4
 70
     1
102
RTVSPropertyOp5
 70
     1
102
RTVSPropertyOp6
 70
     1
102
RTVSPropertyOp7
 70
     1
102
RTVSPropertyOp8
 70
     1
102
RTVSPropertyOp9
 70
     1
102
RTVSPropertyOp10
 70
     1
102
RTVSPropertyOp11
 70
     1
102
RTVSPropertyOp12
 70
     1
102
RTVSPropertyOp13
 70
     1
102
RTVSPropertyOp14
 70
     1
102
RTVSPropertyOp15
 70
     1
102
RTVSPropertyOp16
 70
     1
102
RTVSPropertyOp17
 70
     1
102
RTVSPropertyOp18
 70
     1
102
RTVSPropertyOp19
 70
     1
102
RTVSPropertyOp20
 70
     1
102
RTVSPropertyOp21
 70
     1
102
RTVSPropertyOp22
 70
     1
102
RTVSPropertyOp23
 70
     1
102
RTVSPropertyOp24
 70
     1
102
RTVSPropertyOp25
 70
     1
102
RTVSPropertyOp26
 70
     1
102
RTVSPropertyOp27
 70
     1
102
RTVSPropertyOp28
 70
     1
102
RTVSPropertyOp29
 70
     1
102
RTVSPropertyOp30
 70
     1
102
RTVSPropertyOp31
 70
     1
102
RTVSPropertyOp32
 70
     1
102
RTVSPropertyOp33
 70
     1
102
RTVSPropertyOp34
 70
     1
102
RTVSPropertyOp35
 70
     1
102
RTVSPropertyOp36
 70
     1
102
RTVSPropertyOp37
 70
     1
102
RTVSPropertyOp38
 70
     1
102
RTVSPropertyOp39
 70
     1
102
RTVSPropertyOp40
 70
     1
102
RTVSPropertyOp41
 70
     1
102
RTVSPropertyOp42
 70
     1
102
RTVSPropertyOp43
 70
     1
102
RTVSPropertyOp44
 70
     1
102
RTVSPropertyOp45
 70
     1
102
RTVSPropertyOp46
 70
     1
102
RTVSPropertyOp47
 70
     1
102
RTVSPropertyOp48
 70
     1
102
RTVSPropertyOp49
 70
     1
102
RTVSPropertyOp50
 70
     1
102
RTVSPropertyOp51
 70
     0
102
RTVSPropertyOp52
 70
     0
102
RTVSPropertyOp53
 70
     1
102
RTVSPropertyOp54
 70
     1
102
RTVSPropertyOp55
 70
     1
102
RTVSPropertyOp56
 70
     1
102
RTVSPropertyOp57
 70
     1
102
RTVSPost2010Prop28
280
     0
102
RTVSPost2010PropOp28
 70
     1
102
RTVSPost2010Prop29
280
     1
102
RTVSPost2010PropOp29
 70
     1
102
RTVSPost2010Prop30
280
     1
102
RTVSPost2010PropOp30
 70
     1
102
RTVSPost2010Prop31
280
     0
102
RTVSPost2010PropOp31
 70
     1
102
RTVSPost2010Prop32
280
     0
102
RTVSPost2010PropOp32
 70
     1
102
RTVSPost2010Prop33
280
     0
102
RTVSPost2010PropOp33
 70
     1
102
RTVSPost2010Prop34
280
     0
102
RTVSPost2010PropOp34
 70
     1
102
RTVSPost2010Prop35
280
     0
102
RTVSPost2010PropOp35
 70
     1
102
RTVSPost2010Prop36
280
     0
102
RTVSPost2010PropOp36
 70
     1
102
RTVSPost2010Prop37
 90
       50
102
RTVSPost2010PropOp37
 70
     1
102
RTVSPost2010Prop38
140
0.0
102
RTVSPost2010PropOp38
 70
     1
102
RTVSPost2010Prop39
140
1.0
102
RTVSPost2010PropOp39
 70
     1
102
RTVSPost2010Prop40
 90
        0
102
RTVSPost2010PropOp40
 70
     1
102
RTVSPost2010Prop41ColorIndex
 90
       18
102
RTVSPost2010Prop41ColorRGB
 90
        0
102
RTVSPost2010PropOp41
 70
     1
102
RTVSPost2010Prop42
 90
       50
102
RTVSPost2010PropOp42
 70
     1
102
RTVSPost2010Prop43
 90
        3
102
RTVSPost2010PropOp43
 70
     1
102
RTVSPost2010Prop44ColorIndex
 90
        5
102
RTVSPost2010Prop44ColorRGB
 90
      255
102
RTVSPost2010PropOp44
 70
     1
102
RTVSPost2010Prop45
280
     0
102
RTVSPost2010PropOp45
 70
     1
102
RTVSPost2010Prop46
 90
       50
102
RTVSPost2010PropOp46
 70
     1
102
RTVSPost2010Prop47
 90
       50
102
RTVSPost2010PropOp47
 70
     1
102
RTVSPost2010Prop48
 90
       50
102
RTVSPost2010PropOp48
 70
     1
102
RTVSPost2010Prop49
280
     0
102
RTVSPost2010PropOp49
 70
     1
102
RTVSPost2010Prop50
 90
       50
102
RTVSPost2010PropOp50
 70
     1
102
RTVSPost2010Prop51ColorIndex
 90
      256
102
RTVSPost2010Prop51ColorRGB
 90
-16777216
102
RTVSPost2010PropOp51
 70
     0
102
RTVSPost2010Prop52
140
1.0
102
RTVSPost2010PropOp52
 70
     0
102
RTVSPost2010Prop53
 90
        2
102
RTVSPost2010PropOp53
 70
     1
102
RTVSPost2010Prop54
  1
strokes_ogs.tif
102
RTVSPost2010PropOp54
 70
     1
102
RTVSPost2010Prop55
280
     0
102
RTVSPost2010PropOp55
 70
     1
102
RTVSPost2010Prop56
140
1.0
102
RTVSPost2010PropOp56
 70
     1
102
RTVSPost2010Prop57
140
1.0
102
RTVSPost2010PropOp57
 70
     1
  0
XRECORD
  5
38A
102
{ACAD_REACTORS
330
389
102
}
330
389
100
AcDbXrecord
280
     1
102
RTVSPropertyOp0
 70
     0
102
RTVSPropertyOp1
 70
     0
102
RTVSPropertyOp2
 70
     0
102
RTVSPropertyOp3
 70
     0
102
RTVSPropertyOp4
 70
     0
102
RTVSPropertyOp5
 70
     0
102
RTVSPropertyOp6
 70
     0
102
RTVSPropertyOp7
 70
     0
102
RTVSPropertyOp8
 70
     0
102
RTVSPropertyOp9
 70
     0
102
RTVSPropertyOp10
 70
     0
102
RTVSPropertyOp11
 70
     0
102
RTVSPropertyOp12
 70
     0
102
RTVSPropertyOp13
 70
     0
102
RTVSPropertyOp14
 70
     2
102
RTVSPropertyOp15
 70
     0
102
RTVSPropertyOp16
 70
     0
102
RTVSPropertyOp17
 70
     0
102
RTVSPropertyOp18
 70
     0
102
RTVSPropertyOp19
 70
     0
102
RTVSPropertyOp20
 70
     0
102
RTVSPropertyOp21
 70
     0
102
RTVSPropertyOp22
 70
     0
102
RTVSPropertyOp23
 70
     0
102
RTVSPropertyOp24
 70
     0
102
RTVSPropertyOp25
 70
     0
102
RTVSPropertyOp26
 70
     0
102
RTVSPropertyOp27
 70
     0
102
RTVSPropertyOp28
 70
     0
102
RTVSPropertyOp29
 70
     0
102
RTVSPropertyOp30
 70
     0
102
RTVSPropertyOp31
 70
     0
102
RTVSPropertyOp32
 70
     0
102
RTVSPropertyOp33
 70
     0
102
RTVSPropertyOp34
 70
     0
102
RTVSPropertyOp35
 70
     0
102
RTVSPropertyOp36
 70
     0
102
RTVSPropertyOp37
 70
     0
102
RTVSPropertyOp38
 70
     0
102
RTVSPropertyOp39
 70
     0
102
RTVSPropertyOp40
 70
     0
102
RTVSPropertyOp41
 70
     0
102
RTVSPropertyOp42
 70
     0
102
RTVSPropertyOp43
 70
     0
102
RTVSPropertyOp44
 70
     0
102
RTVSPropertyOp45
 70
     0
102
RTVSPropertyOp46
 70
     0
102
RTVSPropertyOp47
 70
     0
102
RTVSPropertyOp48
 70
     0
102
RTVSPropertyOp49
 70
     0
102
RTVSPropertyOp50
 70
     0
102
RTVSPropertyOp51
 70
     0
102
RTVSPropertyOp52
 70
     0
102
RTVSPropertyOp53
 70
     0
102
RTVSPropertyOp54
 70
     0
102
RTVSPropertyOp55
 70
     0
102
RTVSPropertyOp56
 70
     0
102
RTVSPropertyOp57
 70
     0
102
RTVSPost2010Prop28
280
     0
102
RTVSPost2010PropOp28
 70
     0
102
RTVSPost2010Prop29
280
     1
102
RTVSPost2010PropOp29
 70
     0
102
RTVSPost2010Prop30
280
     1
102
RTVSPost2010PropOp30
 70
     0
102
RTVSPost2010Prop31
280
     0
102
RTVSPost2010PropOp31
 70
     0
102
RTVSPost2010Prop32
280
     0
102
RTVSPost2010PropOp32
 70
     0
102
RTVSPost2010Prop33
280
     0
102
RTVSPost2010PropOp33
 70
     0
102
RTVSPost2010Prop34
280
     0
102
RTVSPost2010PropOp34
 70
     0
102
RTVSPost2010Prop35
280
     0
102
RTVSPost2010PropOp35
 70
     0
102
RTVSPost2010Prop36
280
     0
102
RTVSPost2010PropOp36
 70
     0
102
RTVSPost2010Prop37
 90
       50
102
RTVSPost2010PropOp37
 70
     0
102
RTVSPost2010Prop38
140
0.0
102
RTVSPost2010PropOp38
 70
     0
102
RTVSPost2010Prop39
140
1.0
102
RTVSPost2010PropOp39
 70
     0
102
RTVSPost2010Prop40
 90
        0
102
RTVSPost2010PropOp40
 70
     0
102
RTVSPost2010Prop41ColorIndex
 90
       18
102
RTVSPost2010Prop41ColorRGB
 90
        0
102
RTVSPost2010PropOp41
 70
     0
102
RTVSPost2010Prop42
 90
       50
102
RTVSPost2010PropOp42
 70
     0
102
RTVSPost2010Prop43
 90
        3
102
RTVSPost2010PropOp43
 70
     0
102
RTVSPost2010Prop44ColorIndex
 90
        5
102
RTVSPost2010Prop44ColorRGB
 90
      255
102
RTVSPost2010PropOp44
 70
     0
102
RTVSPost2010Prop45
280
     0
102
RTVSPost2010PropOp45
 70
     0
102
RTVSPost2010Prop46
 90
       50
102
RTVSPost2010PropOp46
 70
     0
102
RTVSPost2010Prop47
 90
       50
102
RTVSPost2010PropOp47
 70
     0
102
RTVSPost2010Prop48
 90
       50
102
RTVSPost2010PropOp48
 70
     0
102
RTVSPost2010Prop49
280
     0
102
RTVSPost2010PropOp49
 70
     0
102
RTVSPost2010Prop50
 90
       50
102
RTVSPost2010PropOp50
 70
     0
102
RTVSPost2010Prop51ColorIndex
 90
      256
102
RTVSPost2010Prop51ColorRGB
 90
-16777216
102
RTVSPost2010PropOp51
 70
     0
102
RTVSPost2010Prop52
140
1.0
102
RTVSPost2010PropOp52
 70
     0
102
RTVSPost2010Prop53
 90
        2
102
RTVSPost2010PropOp53
 70
     0
102
RTVSPost2010Prop54
  1
strokes_ogs.tif
102
RTVSPost2010PropOp54
 70
     0
102
RTVSPost2010Prop55
280
     0
102
RTVSPost2010PropOp55
 70
     0
102
RTVSPost2010Prop56
140
1.0
102
RTVSPost2010PropOp56
 70
     0
102
RTVSPost2010Prop57
140
1.0
102
RTVSPost2010PropOp57
 70
     0
  0
XRECORD
  5
384
102
{ACAD_REACTORS
330
383
102
}
330
383
100
AcDbXrecord
280
     1
102
RTVSPropertyOp0
 70
     1
102
RTVSPropertyOp1
 70
     1
102
RTVSPropertyOp2
 70
     1
102
RTVSPropertyOp3
 70
     1
102
RTVSPropertyOp4
 70
     1
102
RTVSPropertyOp5
 70
     1
102
RTVSPropertyOp6
 70
     1
102
RTVSPropertyOp7
 70
     1
102
RTVSPropertyOp8
 70
     1
102
RTVSPropertyOp9
 70
     1
102
RTVSPropertyOp10
 70
     1
102
RTVSPropertyOp11
 70
     1
102
RTVSPropertyOp12
 70
     1
102
RTVSPropertyOp13
 70
     1
102
RTVSPropertyOp14
 70
     1
102
RTVSPropertyOp15
 70
     1
102
RTVSPropertyOp16
 70
     1
102
RTVSPropertyOp17
 70
     1
102
RTVSPropertyOp18
 70
     1
102
RTVSPropertyOp19
 70
     1
102
RTVSPropertyOp20
 70
     1
102
RTVSPropertyOp21
 70
     1
102
RTVSPropertyOp22
 70
     1
102
RTVSPropertyOp23
 70
     1
102
RTVSPropertyOp24
 70
     1
102
RTVSPropertyOp25
 70
     1
102
RTVSPropertyOp26
 70
     1
102
RTVSPropertyOp27
 70
     1
102
RTVSPropertyOp28
 70
     1
102
RTVSPropertyOp29
 70
     1
102
RTVSPropertyOp30
 70
     1
102
RTVSPropertyOp31
 70
     1
102
RTVSPropertyOp32
 70
     1
102
RTVSPropertyOp33
 70
     1
102
RTVSPropertyOp34
 70
     1
102
RTVSPropertyOp35
 70
     1
102
RTVSPropertyOp36
 70
     1
102
RTVSPropertyOp37
 70
     1
102
RTVSPropertyOp38
 70
     1
102
RTVSPropertyOp39
 70
     1
102
RTVSPropertyOp40
 70
     1
102
RTVSPropertyOp41
 70
     1
102
RTVSPropertyOp42
 70
     1
102
RTVSPropertyOp43
 70
     1
102
RTVSPropertyOp44
 70
     1
102
RTVSPropertyOp45
 70
     1
102
RTVSPropertyOp46
 70
     1
102
RTVSPropertyOp47
 70
     1
102
RTVSPropertyOp48
 70
     1
102
RTVSPropertyOp49
 70
     1
102
RTVSPropertyOp50
 70
     1
102
RTVSPropertyOp51
 70
     0
102
RTVSPropertyOp52
 70
     0
102
RTVSPropertyOp53
 70
     1
102
RTVSPropertyOp54
 70
     1
102
RTVSPropertyOp55
 70
     1
102
RTVSPropertyOp56
 70
     1
102
RTVSPropertyOp57
 70
     1
102
RTVSPost2010Prop28
280
     0
102
RTVSPost2010PropOp28
 70
     1
102
RTVSPost2010Prop29
280
     1
102
RTVSPost2010PropOp29
 70
     1
102
RTVSPost2010Prop30
280
     1
102
RTVSPost2010PropOp30
 70
     1
102
RTVSPost2010Prop31
280
     0
102
RTVSPost2010PropOp31
 70
     1
102
RTVSPost2010Prop32
280
     0
102
RTVSPost2010PropOp32
 70
     1
102
RTVSPost2010Prop33
280
     0
102
RTVSPost2010PropOp33
 70
     1
102
RTVSPost2010Prop34
280
     0
102
RTVSPost2010PropOp34
 70
     1
102
RTVSPost2010Prop35
280
     0
102
RTVSPost2010PropOp35
 70
     1
102
RTVSPost2010Prop36
280
     0
102
RTVSPost2010PropOp36
 70
     1
102
RTVSPost2010Prop37
 90
       50
102
RTVSPost2010PropOp37
 70
     1
102
RTVSPost2010Prop38
140
0.0
102
RTVSPost2010PropOp38
 70
     1
102
RTVSPost2010Prop39
140
1.0
102
RTVSPost2010PropOp39
 70
     1
102
RTVSPost2010Prop40
 90
        0
102
RTVSPost2010PropOp40
 70
     1
102
RTVSPost2010Prop41ColorIndex
 90
       18
102
RTVSPost2010Prop41ColorRGB
 90
        0
102
RTVSPost2010PropOp41
 70
     1
102
RTVSPost2010Prop42
 90
       50
102
RTVSPost2010PropOp42
 70
     1
102
RTVSPost2010Prop43
 90
        3
102
RTVSPost2010PropOp43
 70
     1
102
RTVSPost2010Prop44ColorIndex
 90
        5
102
RTVSPost2010Prop44ColorRGB
 90
      255
102
RTVSPost2010PropOp44
 70
     1
102
RTVSPost2010Prop45
280
     0
102
RTVSPost2010PropOp45
 70
     1
102
RTVSPost2010Prop46
 90
       50
102
RTVSPost2010PropOp46
 70
     1
102
RTVSPost2010Prop47
 90
       50
102
RTVSPost2010PropOp47
 70
     1
102
RTVSPost2010Prop48
 90
       50
102
RTVSPost2010PropOp48
 70
     1
102
RTVSPost2010Prop49
280
     0
102
RTVSPost2010PropOp49
 70
     1
102
RTVSPost2010Prop50
 90
       50
102
RTVSPost2010PropOp50
 70
     1
102
RTVSPost2010Prop51ColorIndex
 90
      256
102
RTVSPost2010Prop51ColorRGB
 90
-16777216
102
RTVSPost2010PropOp51
 70
     0
102
RTVSPost2010Prop52
140
1.0
102
RTVSPost2010PropOp52
 70
     0
102
RTVSPost2010Prop53
 90
        2
102
RTVSPost2010PropOp53
 70
     1
102
RTVSPost2010Prop54
  1
strokes_ogs.tif
102
RTVSPost2010PropOp54
 70
     1
102
RTVSPost2010Prop55
280
     0
102
RTVSPost2010PropOp55
 70
     1
102
RTVSPost2010Prop56
140
1.0
102
RTVSPost2010PropOp56
 70
     1
102
RTVSPost2010Prop57
140
1.0
102
RTVSPost2010PropOp57
 70
     1
  0
XRECORD
  5
38C
102
{ACAD_REACTORS
330
38B
102
}
330
38B
100
AcDbXrecord
280
     1
102
RTVSPropertyOp0
 70
     0
102
RTVSPropertyOp1
 70
     0
102
RTVSPropertyOp2
 70
     0
102
RTVSPropertyOp3
 70
     0
102
RTVSPropertyOp4
 70
     0
102
RTVSPropertyOp5
 70
     0
102
RTVSPropertyOp6
 70
     0
102
RTVSPropertyOp7
 70
     0
102
RTVSPropertyOp8
 70
     0
102
RTVSPropertyOp9
 70
     0
102
RTVSPropertyOp10
 70
     0
102
RTVSPropertyOp11
 70
     0
102
RTVSPropertyOp12
 70
     0
102
RTVSPropertyOp13
 70
     0
102
RTVSPropertyOp14
 70
     2
102
RTVSPropertyOp15
 70
     0
102
RTVSPropertyOp16
 70
     0
102
RTVSPropertyOp17
 70
     0
102
RTVSPropertyOp18
 70
     0
102
RTVSPropertyOp19
 70
     0
102
RTVSPropertyOp20
 70
     0
102
RTVSPropertyOp21
 70
     0
102
RTVSPropertyOp22
 70
     0
102
RTVSPropertyOp23
 70
     0
102
RTVSPropertyOp24
 70
     0
102
RTVSPropertyOp25
 70
     0
102
RTVSPropertyOp26
 70
     0
102
RTVSPropertyOp27
 70
     0
102
RTVSPropertyOp28
 70
     0
102
RTVSPropertyOp29
 70
     0
102
RTVSPropertyOp30
 70
     0
102
RTVSPropertyOp31
 70
     0
102
RTVSPropertyOp32
 70
     0
102
RTVSPropertyOp33
 70
     0
102
RTVSPropertyOp34
 70
     0
102
RTVSPropertyOp35
 70
     0
102
RTVSPropertyOp36
 70
     0
102
RTVSPropertyOp37
 70
     0
102
RTVSPropertyOp38
 70
     0
102
RTVSPropertyOp39
 70
     0
102
RTVSPropertyOp40
 70
     0
102
RTVSPropertyOp41
 70
     0
102
RTVSPropertyOp42
 70
     0
102
RTVSPropertyOp43
 70
     0
102
RTVSPropertyOp44
 70
     0
102
RTVSPropertyOp45
 70
     0
102
RTVSPropertyOp46
 70
     0
102
RTVSPropertyOp47
 70
     0
102
RTVSPropertyOp48
 70
     0
102
RTVSPropertyOp49
 70
     0
102
RTVSPropertyOp50
 70
     0
102
RTVSPropertyOp51
 70
     0
102
RTVSPropertyOp52
 70
     0
102
RTVSPropertyOp53
 70
     0
102
RTVSPropertyOp54
 70
     0
102
RTVSPropertyOp55
 70
     0
102
RTVSPropertyOp56
 70
     0
102
RTVSPropertyOp57
 70
     0
102
RTVSPost2010Prop28
280
     0
102
RTVSPost2010PropOp28
 70
     0
102
RTVSPost2010Prop29
280
     1
102
RTVSPost2010PropOp29
 70
     0
102
RTVSPost2010Prop30
280
     1
102
RTVSPost2010PropOp30
 70
     0
102
RTVSPost2010Prop31
280
     0
102
RTVSPost2010PropOp31
 70
     0
102
RTVSPost2010Prop32
280
     0
102
RTVSPost2010PropOp32
 70
     0
102
RTVSPost2010Prop33
280
     0
102
RTVSPost2010PropOp33
 70
     0
102
RTVSPost2010Prop34
280
     0
102
RTVSPost2010PropOp34
 70
     0
102
RTVSPost2010Prop35
280
     0
102
RTVSPost2010PropOp35
 70
     0
102
RTVSPost2010Prop36
280
     0
102
RTVSPost2010PropOp36
 70
     0
102
RTVSPost2010Prop37
 90
       50
102
RTVSPost2010PropOp37
 70
     0
102
RTVSPost2010Prop38
140
0.0
102
RTVSPost2010PropOp38
 70
     0
102
RTVSPost2010Prop39
140
1.0
102
RTVSPost2010PropOp39
 70
     0
102
RTVSPost2010Prop40
 90
        0
102
RTVSPost2010PropOp40
 70
     0
102
RTVSPost2010Prop41ColorIndex
 90
       18
102
RTVSPost2010Prop41ColorRGB
 90
        0
102
RTVSPost2010PropOp41
 70
     0
102
RTVSPost2010Prop42
 90
       50
102
RTVSPost2010PropOp42
 70
     0
102
RTVSPost2010Prop43
 90
        3
102
RTVSPost2010PropOp43
 70
     0
102
RTVSPost2010Prop44ColorIndex
 90
        5
102
RTVSPost2010Prop44ColorRGB
 90
      255
102
RTVSPost2010PropOp44
 70
     0
102
RTVSPost2010Prop45
280
     0
102
RTVSPost2010PropOp45
 70
     0
102
RTVSPost2010Prop46
 90
       50
102
RTVSPost2010PropOp46
 70
     0
102
RTVSPost2010Prop47
 90
       50
102
RTVSPost2010PropOp47
 70
     0
102
RTVSPost2010Prop48
 90
       50
102
RTVSPost2010PropOp48
 70
     0
102
RTVSPost2010Prop49
280
     0
102
RTVSPost2010PropOp49
 70
     0
102
RTVSPost2010Prop50
 90
       50
102
RTVSPost2010PropOp50
 70
     0
102
RTVSPost2010Prop51ColorIndex
 90
      256
102
RTVSPost2010Prop51ColorRGB
 90
-16777216
102
RTVSPost2010PropOp51
 70
     0
102
RTVSPost2010Prop52
140
1.0
102
RTVSPost2010PropOp52
 70
     0
102
RTVSPost2010Prop53
 90
        2
102
RTVSPost2010PropOp53
 70
     0
102
RTVSPost2010Prop54
  1
strokes_ogs.tif
102
RTVSPost2010PropOp54
 70
     0
102
RTVSPost2010Prop55
280
     0
102
RTVSPost2010PropOp55
 70
     0
102
RTVSPost2010Prop56
140
1.0
102
RTVSPost2010PropOp56
 70
     0
102
RTVSPost2010Prop57
140
1.0
102
RTVSPost2010PropOp57
 70
     0
  0
XRECORD
  5
37A
102
{ACAD_REACTORS
330
379
102
}
330
379
100
AcDbXrecord
280
     1
102
RTVSPropertyOp0
 70
     1
102
RTVSPropertyOp1
 70
     1
102
RTVSPropertyOp2
 70
     1
102
RTVSPropertyOp3
 70
     1
102
RTVSPropertyOp4
 70
     1
102
RTVSPropertyOp5
 70
     1
102
RTVSPropertyOp6
 70
     1
102
RTVSPropertyOp7
 70
     1
102
RTVSPropertyOp8
 70
     1
102
RTVSPropertyOp9
 70
     1
102
RTVSPropertyOp10
 70
     1
102
RTVSPropertyOp11
 70
     1
102
RTVSPropertyOp12
 70
     1
102
RTVSPropertyOp13
 70
     1
102
RTVSPropertyOp14
 70
     1
102
RTVSPropertyOp15
 70
     1
102
RTVSPropertyOp16
 70
     1
102
RTVSPropertyOp17
 70
     1
102
RTVSPropertyOp18
 70
     1
102
RTVSPropertyOp19
 70
     1
102
RTVSPropertyOp20
 70
     1
102
RTVSPropertyOp21
 70
     1
102
RTVSPropertyOp22
 70
     1
102
RTVSPropertyOp23
 70
     1
102
RTVSPropertyOp24
 70
     1
102
RTVSPropertyOp25
 70
     1
102
RTVSPropertyOp26
 70
     1
102
RTVSPropertyOp27
 70
     1
102
RTVSPropertyOp28
 70
     1
102
RTVSPropertyOp29
 70
     1
102
RTVSPropertyOp30
 70
     1
102
RTVSPropertyOp31
 70
     1
102
RTVSPropertyOp32
 70
     1
102
RTVSPropertyOp33
 70
     1
102
RTVSPropertyOp34
 70
     1
102
RTVSPropertyOp35
 70
     1
102
RTVSPropertyOp36
 70
     1
102
RTVSPropertyOp37
 70
     1
102
RTVSPropertyOp38
 70
     1
102
RTVSPropertyOp39
 70
     1
102
RTVSPropertyOp40
 70
     1
102
RTVSPropertyOp41
 70
     1
102
RTVSPropertyOp42
 70
     1
102
RTVSPropertyOp43
 70
     1
102
RTVSPropertyOp44
 70
     1
102
RTVSPropertyOp45
 70
     1
102
RTVSPropertyOp46
 70
     1
102
RTVSPropertyOp47
 70
     1
102
RTVSPropertyOp48
 70
     1
102
RTVSPropertyOp49
 70
     1
102
RTVSPropertyOp50
 70
     1
102
RTVSPropertyOp51
 70
     0
102
RTVSPropertyOp52
 70
     0
102
RTVSPropertyOp53
 70
     1
102
RTVSPropertyOp54
 70
     1
102
RTVSPropertyOp55
 70
     1
102
RTVSPropertyOp56
 70
     1
102
RTVSPropertyOp57
 70
     1
102
RTVSPost2010Prop28
280
     0
102
RTVSPost2010PropOp28
 70
     1
102
RTVSPost2010Prop29
280
     1
102
RTVSPost2010PropOp29
 70
     1
102
RTVSPost2010Prop30
280
     1
102
RTVSPost2010PropOp30
 70
     1
102
RTVSPost2010Prop31
280
     0
102
RTVSPost2010PropOp31
 70
     1
102
RTVSPost2010Prop32
280
     0
102
RTVSPost2010PropOp32
 70
     1
102
RTVSPost2010Prop33
280
     0
102
RTVSPost2010PropOp33
 70
     1
102
RTVSPost2010Prop34
280
     0
102
RTVSPost2010PropOp34
 70
     1
102
RTVSPost2010Prop35
280
     0
102
RTVSPost2010PropOp35
 70
     1
102
RTVSPost2010Prop36
280
     0
102
RTVSPost2010PropOp36
 70
     1
102
RTVSPost2010Prop37
 90
       50
102
RTVSPost2010PropOp37
 70
     1
102
RTVSPost2010Prop38
140
0.0
102
RTVSPost2010PropOp38
 70
     1
102
RTVSPost2010Prop39
140
1.0
102
RTVSPost2010PropOp39
 70
     1
102
RTVSPost2010Prop40
 90
        0
102
RTVSPost2010PropOp40
 70
     1
102
RTVSPost2010Prop41ColorIndex
 90
       18
102
RTVSPost2010Prop41ColorRGB
 90
        0
102
RTVSPost2010PropOp41
 70
     1
102
RTVSPost2010Prop42
 90
       50
102
RTVSPost2010PropOp42
 70
     1
102
RTVSPost2010Prop43
 90
        3
102
RTVSPost2010PropOp43
 70
     1
102
RTVSPost2010Prop44ColorIndex
 90
        5
102
RTVSPost2010Prop44ColorRGB
 90
      255
102
RTVSPost2010PropOp44
 70
     1
102
RTVSPost2010Prop45
280
     0
102
RTVSPost2010PropOp45
 70
     1
102
RTVSPost2010Prop46
 90
       50
102
RTVSPost2010PropOp46
 70
     1
102
RTVSPost2010Prop47
 90
       50
102
RTVSPost2010PropOp47
 70
     1
102
RTVSPost2010Prop48
 90
       50
102
RTVSPost2010PropOp48
 70
     1
102
RTVSPost2010Prop49
280
     0
102
RTVSPost2010PropOp49
 70
     1
102
RTVSPost2010Prop50
 90
       50
102
RTVSPost2010PropOp50
 70
     1
102
RTVSPost2010Prop51ColorIndex
 90
      256
102
RTVSPost2010Prop51ColorRGB
 90
-16777216
102
RTVSPost2010PropOp51
 70
     0
102
RTVSPost2010Prop52
140
1.0
102
RTVSPost2010PropOp52
 70
     0
102
RTVSPost2010Prop53
 90
        2
102
RTVSPost2010PropOp53
 70
     1
102
RTVSPost2010Prop54
  1
strokes_ogs.tif
102
RTVSPost2010PropOp54
 70
     1
102
RTVSPost2010Prop55
280
     0
102
RTVSPost2010PropOp55
 70
     1
102
RTVSPost2010Prop56
140
1.0
102
RTVSPost2010PropOp56
 70
     1
102
RTVSPost2010Prop57
140
1.0
102
RTVSPost2010PropOp57
 70
     1
  0
XRECORD
  5
398
102
{ACAD_REACTORS
330
397
102
}
330
397
100
AcDbXrecord
280
     1
102
RTVSPropertyOp0
 70
     1
102
RTVSPropertyOp1
 70
     1
102
RTVSPropertyOp2
 70
     1
102
RTVSPropertyOp3
 70
     1
102
RTVSPropertyOp4
 70
     1
102
RTVSPropertyOp5
 70
     1
102
RTVSPropertyOp6
 70
     1
102
RTVSPropertyOp7
 70
     1
102
RTVSPropertyOp8
 70
     1
102
RTVSPropertyOp9
 70
     1
102
RTVSPropertyOp10
 70
     1
102
RTVSPropertyOp11
 70
     1
102
RTVSPropertyOp12
 70
     1
102
RTVSPropertyOp13
 70
     1
102
RTVSPropertyOp14
 70
     1
102
RTVSPropertyOp15
 70
     1
102
RTVSPropertyOp16
 70
     1
102
RTVSPropertyOp17
 70
     1
102
RTVSPropertyOp18
 70
     1
102
RTVSPropertyOp19
 70
     1
102
RTVSPropertyOp20
 70
     1
102
RTVSPropertyOp21
 70
     1
102
RTVSPropertyOp22
 70
     1
102
RTVSPropertyOp23
 70
     1
102
RTVSPropertyOp24
 70
     1
102
RTVSPropertyOp25
 70
     1
102
RTVSPropertyOp26
 70
     1
102
RTVSPropertyOp27
 70
     1
102
RTVSPropertyOp28
 70
     1
102
RTVSPropertyOp29
 70
     1
102
RTVSPropertyOp30
 70
     1
102
RTVSPropertyOp31
 70
     1
102
RTVSPropertyOp32
 70
     1
102
RTVSPropertyOp33
 70
     1
102
RTVSPropertyOp34
 70
     1
102
RTVSPropertyOp35
 70
     1
102
RTVSPropertyOp36
 70
     1
102
RTVSPropertyOp37
 70
     1
102
RTVSPropertyOp38
 70
     1
102
RTVSPropertyOp39
 70
     1
102
RTVSPropertyOp40
 70
     1
102
RTVSPropertyOp41
 70
     1
102
RTVSPropertyOp42
 70
     1
102
RTVSPropertyOp43
 70
     1
102
RTVSPropertyOp44
 70
     1
102
RTVSPropertyOp45
 70
     1
102
RTVSPropertyOp46
 70
     1
102
RTVSPropertyOp47
 70
     1
102
RTVSPropertyOp48
 70
     1
102
RTVSPropertyOp49
 70
     1
102
RTVSPropertyOp50
 70
     1
102
RTVSPropertyOp51
 70
     0
102
RTVSPropertyOp52
 70
     0
102
RTVSPropertyOp53
 70
     1
102
RTVSPropertyOp54
 70
     1
102
RTVSPropertyOp55
 70
     1
102
RTVSPropertyOp56
 70
     1
102
RTVSPropertyOp57
 70
     1
102
RTVSPost2010Prop28
280
     0
102
RTVSPost2010PropOp28
 70
     1
102
RTVSPost2010Prop29
280
     1
102
RTVSPost2010PropOp29
 70
     1
102
RTVSPost2010Prop30
280
     1
102
RTVSPost2010PropOp30
 70
     1
102
RTVSPost2010Prop31
280
     0
102
RTVSPost2010PropOp31
 70
     1
102
RTVSPost2010Prop32
280
     0
102
RTVSPost2010PropOp32
 70
     1
102
RTVSPost2010Prop33
280
     0
102
RTVSPost2010PropOp33
 70
     1
102
RTVSPost2010Prop34
280
     0
102
RTVSPost2010PropOp34
 70
     1
102
RTVSPost2010Prop35
280
     0
102
RTVSPost2010PropOp35
 70
     1
102
RTVSPost2010Prop36
280
     0
102
RTVSPost2010PropOp36
 70
     1
102
RTVSPost2010Prop37
 90
       50
102
RTVSPost2010PropOp37
 70
     1
102
RTVSPost2010Prop38
140
0.0
102
RTVSPost2010PropOp38
 70
     1
102
RTVSPost2010Prop39
140
1.0
102
RTVSPost2010PropOp39
 70
     1
102
RTVSPost2010Prop40
 90
        0
102
RTVSPost2010PropOp40
 70
     1
102
RTVSPost2010Prop41ColorIndex
 90
       18
102
RTVSPost2010Prop41ColorRGB
 90
        0
102
RTVSPost2010PropOp41
 70
     1
102
RTVSPost2010Prop42
 90
       50
102
RTVSPost2010PropOp42
 70
     1
102
RTVSPost2010Prop43
 90
        3
102
RTVSPost2010PropOp43
 70
     1
102
RTVSPost2010Prop44ColorIndex
 90
        5
102
RTVSPost2010Prop44ColorRGB
 90
      255
102
RTVSPost2010PropOp44
 70
     1
102
RTVSPost2010Prop45
280
     0
102
RTVSPost2010PropOp45
 70
     1
102
RTVSPost2010Prop46
 90
       50
102
RTVSPost2010PropOp46
 70
     1
102
RTVSPost2010Prop47
 90
       50
102
RTVSPost2010PropOp47
 70
     1
102
RTVSPost2010Prop48
 90
       50
102
RTVSPost2010PropOp48
 70
     1
102
RTVSPost2010Prop49
280
     0
102
RTVSPost2010PropOp49
 70
     1
102
RTVSPost2010Prop50
 90
       50
102
RTVSPost2010PropOp50
 70
     1
102
RTVSPost2010Prop51ColorIndex
 90
      256
102
RTVSPost2010Prop51ColorRGB
 90
-16777216
102
RTVSPost2010PropOp51
 70
     0
102
RTVSPost2010Prop52
140
1.0
102
RTVSPost2010PropOp52
 70
     0
102
RTVSPost2010Prop53
 90
        2
102
RTVSPost2010PropOp53
 70
     1
102
RTVSPost2010Prop54
  1
strokes_ogs.tif
102
RTVSPost2010PropOp54
 70
     1
102
RTVSPost2010Prop55
280
     0
102
RTVSPost2010PropOp55
 70
     1
102
RTVSPost2010Prop56
140
1.0
102
RTVSPost2010PropOp56
 70
     1
102
RTVSPost2010Prop57
140
1.0
102
RTVSPost2010PropOp57
 70
     1
  0
XRECORD
  5
396
102
{ACAD_REACTORS
330
395
102
}
330
395
100
AcDbXrecord
280
     1
102
RTVSPropertyOp0
 70
     1
102
RTVSPropertyOp1
 70
     1
102
RTVSPropertyOp2
 70
     1
102
RTVSPropertyOp3
 70
     1
102
RTVSPropertyOp4
 70
     1
102
RTVSPropertyOp5
 70
     1
102
RTVSPropertyOp6
 70
     1
102
RTVSPropertyOp7
 70
     1
102
RTVSPropertyOp8
 70
     1
102
RTVSPropertyOp9
 70
     1
102
RTVSPropertyOp10
 70
     1
102
RTVSPropertyOp11
 70
     1
102
RTVSPropertyOp12
 70
     1
102
RTVSPropertyOp13
 70
     1
102
RTVSPropertyOp14
 70
     1
102
RTVSPropertyOp15
 70
     1
102
RTVSPropertyOp16
 70
     1
102
RTVSPropertyOp17
 70
     1
102
RTVSPropertyOp18
 70
     1
102
RTVSPropertyOp19
 70
     1
102
RTVSPropertyOp20
 70
     1
102
RTVSPropertyOp21
 70
     1
102
RTVSPropertyOp22
 70
     1
102
RTVSPropertyOp23
 70
     1
102
RTVSPropertyOp24
 70
     1
102
RTVSPropertyOp25
 70
     1
102
RTVSPropertyOp26
 70
     1
102
RTVSPropertyOp27
 70
     1
102
RTVSPropertyOp28
 70
     1
102
RTVSPropertyOp29
 70
     1
102
RTVSPropertyOp30
 70
     1
102
RTVSPropertyOp31
 70
     1
102
RTVSPropertyOp32
 70
     1
102
RTVSPropertyOp33
 70
     1
102
RTVSPropertyOp34
 70
     1
102
RTVSPropertyOp35
 70
     1
102
RTVSPropertyOp36
 70
     1
102
RTVSPropertyOp37
 70
     1
102
RTVSPropertyOp38
 70
     1
102
RTVSPropertyOp39
 70
     1
102
RTVSPropertyOp40
 70
     1
102
RTVSPropertyOp41
 70
     1
102
RTVSPropertyOp42
 70
     1
102
RTVSPropertyOp43
 70
     1
102
RTVSPropertyOp44
 70
     1
102
RTVSPropertyOp45
 70
     1
102
RTVSPropertyOp46
 70
     1
102
RTVSPropertyOp47
 70
     1
102
RTVSPropertyOp48
 70
     1
102
RTVSPropertyOp49
 70
     1
102
RTVSPropertyOp50
 70
     1
102
RTVSPropertyOp51
 70
     0
102
RTVSPropertyOp52
 70
     0
102
RTVSPropertyOp53
 70
     1
102
RTVSPropertyOp54
 70
     1
102
RTVSPropertyOp55
 70
     1
102
RTVSPropertyOp56
 70
     1
102
RTVSPropertyOp57
 70
     1
102
RTVSPost2010Prop28
280
     0
102
RTVSPost2010PropOp28
 70
     1
102
RTVSPost2010Prop29
280
     1
102
RTVSPost2010PropOp29
 70
     1
102
RTVSPost2010Prop30
280
     1
102
RTVSPost2010PropOp30
 70
     1
102
RTVSPost2010Prop31
280
     0
102
RTVSPost2010PropOp31
 70
     1
102
RTVSPost2010Prop32
280
     0
102
RTVSPost2010PropOp32
 70
     1
102
RTVSPost2010Prop33
280
     0
102
RTVSPost2010PropOp33
 70
     1
102
RTVSPost2010Prop34
280
     0
102
RTVSPost2010PropOp34
 70
     1
102
RTVSPost2010Prop35
280
     0
102
RTVSPost2010PropOp35
 70
     1
102
RTVSPost2010Prop36
280
     0
102
RTVSPost2010PropOp36
 70
     1
102
RTVSPost2010Prop37
 90
       50
102
RTVSPost2010PropOp37
 70
     1
102
RTVSPost2010Prop38
140
0.0
102
RTVSPost2010PropOp38
 70
     1
102
RTVSPost2010Prop39
140
1.0
102
RTVSPost2010PropOp39
 70
     1
102
RTVSPost2010Prop40
 90
        0
102
RTVSPost2010PropOp40
 70
     1
102
RTVSPost2010Prop41ColorIndex
 90
       18
102
RTVSPost2010Prop41ColorRGB
 90
        0
102
RTVSPost2010PropOp41
 70
     1
102
RTVSPost2010Prop42
 90
       50
102
RTVSPost2010PropOp42
 70
     1
102
RTVSPost2010Prop43
 90
        3
102
RTVSPost2010PropOp43
 70
     1
102
RTVSPost2010Prop44ColorIndex
 90
        5
102
RTVSPost2010Prop44ColorRGB
 90
      255
102
RTVSPost2010PropOp44
 70
     1
102
RTVSPost2010Prop45
280
     0
102
RTVSPost2010PropOp45
 70
     1
102
RTVSPost2010Prop46
 90
       50
102
RTVSPost2010PropOp46
 70
     1
102
RTVSPost2010Prop47
 90
       50
102
RTVSPost2010PropOp47
 70
     1
102
RTVSPost2010Prop48
 90
       50
102
RTVSPost2010PropOp48
 70
     1
102
RTVSPost2010Prop49
280
     0
102
RTVSPost2010PropOp49
 70
     1
102
RTVSPost2010Prop50
 90
       50
102
RTVSPost2010PropOp50
 70
     1
102
RTVSPost2010Prop51ColorIndex
 90
      256
102
RTVSPost2010Prop51ColorRGB
 90
-16777216
102
RTVSPost2010PropOp51
 70
     0
102
RTVSPost2010Prop52
140
1.0
102
RTVSPost2010PropOp52
 70
     0
102
RTVSPost2010Prop53
 90
        2
102
RTVSPost2010PropOp53
 70
     1
102
RTVSPost2010Prop54
  1
strokes_ogs.tif
102
RTVSPost2010PropOp54
 70
     1
102
RTVSPost2010Prop55
280
     0
102
RTVSPost2010PropOp55
 70
     1
102
RTVSPost2010Prop56
140
1.0
102
RTVSPost2010PropOp56
 70
     1
102
RTVSPost2010Prop57
140
1.0
102
RTVSPost2010PropOp57
 70
     1
  0
XRECORD
  5
390
102
{ACAD_REACTORS
330
38F
102
}
330
38F
100
AcDbXrecord
280
     1
102
RTVSPropertyOp0
 70
     1
102
RTVSPropertyOp1
 70
     1
102
RTVSPropertyOp2
 70
     1
102
RTVSPropertyOp3
 70
     1
102
RTVSPropertyOp4
 70
     1
102
RTVSPropertyOp5
 70
     1
102
RTVSPropertyOp6
 70
     1
102
RTVSPropertyOp7
 70
     1
102
RTVSPropertyOp8
 70
     1
102
RTVSPropertyOp9
 70
     1
102
RTVSPropertyOp10
 70
     1
102
RTVSPropertyOp11
 70
     1
102
RTVSPropertyOp12
 70
     1
102
RTVSPropertyOp13
 70
     1
102
RTVSPropertyOp14
 70
     1
102
RTVSPropertyOp15
 70
     1
102
RTVSPropertyOp16
 70
     1
102
RTVSPropertyOp17
 70
     1
102
RTVSPropertyOp18
 70
     1
102
RTVSPropertyOp19
 70
     1
102
RTVSPropertyOp20
 70
     1
102
RTVSPropertyOp21
 70
     1
102
RTVSPropertyOp22
 70
     1
102
RTVSPropertyOp23
 70
     1
102
RTVSPropertyOp24
 70
     1
102
RTVSPropertyOp25
 70
     1
102
RTVSPropertyOp26
 70
     1
102
RTVSPropertyOp27
 70
     1
102
RTVSPropertyOp28
 70
     1
102
RTVSPropertyOp29
 70
     1
102
RTVSPropertyOp30
 70
     1
102
RTVSPropertyOp31
 70
     1
102
RTVSPropertyOp32
 70
     1
102
RTVSPropertyOp33
 70
     1
102
RTVSPropertyOp34
 70
     1
102
RTVSPropertyOp35
 70
     1
102
RTVSPropertyOp36
 70
     1
102
RTVSPropertyOp37
 70
     1
102
RTVSPropertyOp38
 70
     1
102
RTVSPropertyOp39
 70
     1
102
RTVSPropertyOp40
 70
     1
102
RTVSPropertyOp41
 70
     1
102
RTVSPropertyOp42
 70
     1
102
RTVSPropertyOp43
 70
     1
102
RTVSPropertyOp44
 70
     1
102
RTVSPropertyOp45
 70
     1
102
RTVSPropertyOp46
 70
     1
102
RTVSPropertyOp47
 70
     1
102
RTVSPropertyOp48
 70
     1
102
RTVSPropertyOp49
 70
     1
102
RTVSPropertyOp50
 70
     1
102
RTVSPropertyOp51
 70
     0
102
RTVSPropertyOp52
 70
     0
102
RTVSPropertyOp53
 70
     1
102
RTVSPropertyOp54
 70
     1
102
RTVSPropertyOp55
 70
     1
102
RTVSPropertyOp56
 70
     1
102
RTVSPropertyOp57
 70
     1
102
RTVSPost2010Prop28
280
     0
102
RTVSPost2010PropOp28
 70
     1
102
RTVSPost2010Prop29
280
     1
102
RTVSPost2010PropOp29
 70
     1
102
RTVSPost2010Prop30
280
     1
102
RTVSPost2010PropOp30
 70
     1
102
RTVSPost2010Prop31
280
     0
102
RTVSPost2010PropOp31
 70
     1
102
RTVSPost2010Prop32
280
     0
102
RTVSPost2010PropOp32
 70
     1
102
RTVSPost2010Prop33
280
     0
102
RTVSPost2010PropOp33
 70
     1
102
RTVSPost2010Prop34
280
     0
102
RTVSPost2010PropOp34
 70
     1
102
RTVSPost2010Prop35
280
     0
102
RTVSPost2010PropOp35
 70
     1
102
RTVSPost2010Prop36
280
     0
102
RTVSPost2010PropOp36
 70
     1
102
RTVSPost2010Prop37
 90
       50
102
RTVSPost2010PropOp37
 70
     1
102
RTVSPost2010Prop38
140
0.0
102
RTVSPost2010PropOp38
 70
     1
102
RTVSPost2010Prop39
140
1.0
102
RTVSPost2010PropOp39
 70
     1
102
RTVSPost2010Prop40
 90
        0
102
RTVSPost2010PropOp40
 70
     1
102
RTVSPost2010Prop41ColorIndex
 90
       18
102
RTVSPost2010Prop41ColorRGB
 90
        0
102
RTVSPost2010PropOp41
 70
     1
102
RTVSPost2010Prop42
 90
       50
102
RTVSPost2010PropOp42
 70
     1
102
RTVSPost2010Prop43
 90
        3
102
RTVSPost2010PropOp43
 70
     1
102
RTVSPost2010Prop44ColorIndex
 90
        5
102
RTVSPost2010Prop44ColorRGB
 90
      255
102
RTVSPost2010PropOp44
 70
     1
102
RTVSPost2010Prop45
280
     0
102
RTVSPost2010PropOp45
 70
     1
102
RTVSPost2010Prop46
 90
       50
102
RTVSPost2010PropOp46
 70
     1
102
RTVSPost2010Prop47
 90
       50
102
RTVSPost2010PropOp47
 70
     1
102
RTVSPost2010Prop48
 90
       50
102
RTVSPost2010PropOp48
 70
     1
102
RTVSPost2010Prop49
280
     0
102
RTVSPost2010PropOp49
 70
     1
102
RTVSPost2010Prop50
 90
       50
102
RTVSPost2010PropOp50
 70
     1
102
RTVSPost2010Prop51ColorIndex
 90
      256
102
RTVSPost2010Prop51ColorRGB
 90
-16777216
102
RTVSPost2010PropOp51
 70
     0
102
RTVSPost2010Prop52
140
1.0
102
RTVSPost2010PropOp52
 70
     0
102
RTVSPost2010Prop53
 90
        2
102
RTVSPost2010PropOp53
 70
     1
102
RTVSPost2010Prop54
  1
strokes_ogs.tif
102
RTVSPost2010PropOp54
 70
     1
102
RTVSPost2010Prop55
280
     0
102
RTVSPost2010PropOp55
 70
     1
102
RTVSPost2010Prop56
140
1.0
102
RTVSPost2010PropOp56
 70
     1
102
RTVSPost2010Prop57
140
1.0
102
RTVSPost2010PropOp57
 70
     1
  0
XRECORD
  5
392
102
{ACAD_REACTORS
330
391
102
}
330
391
100
AcDbXrecord
280
     1
102
RTVSPropertyOp0
 70
     1
102
RTVSPropertyOp1
 70
     1
102
RTVSPropertyOp2
 70
     1
102
RTVSPropertyOp3
 70
     1
102
RTVSPropertyOp4
 70
     1
102
RTVSPropertyOp5
 70
     1
102
RTVSPropertyOp6
 70
     1
102
RTVSPropertyOp7
 70
     1
102
RTVSPropertyOp8
 70
     1
102
RTVSPropertyOp9
 70
     1
102
RTVSPropertyOp10
 70
     1
102
RTVSPropertyOp11
 70
     1
102
RTVSPropertyOp12
 70
     1
102
RTVSPropertyOp13
 70
     1
102
RTVSPropertyOp14
 70
     1
102
RTVSPropertyOp15
 70
     1
102
RTVSPropertyOp16
 70
     1
102
RTVSPropertyOp17
 70
     1
102
RTVSPropertyOp18
 70
     1
102
RTVSPropertyOp19
 70
     1
102
RTVSPropertyOp20
 70
     1
102
RTVSPropertyOp21
 70
     1
102
RTVSPropertyOp22
 70
     1
102
RTVSPropertyOp23
 70
     1
102
RTVSPropertyOp24
 70
     1
102
RTVSPropertyOp25
 70
     1
102
RTVSPropertyOp26
 70
     1
102
RTVSPropertyOp27
 70
     1
102
RTVSPropertyOp28
 70
     1
102
RTVSPropertyOp29
 70
     1
102
RTVSPropertyOp30
 70
     1
102
RTVSPropertyOp31
 70
     1
102
RTVSPropertyOp32
 70
     1
102
RTVSPropertyOp33
 70
     1
102
RTVSPropertyOp34
 70
     1
102
RTVSPropertyOp35
 70
     1
102
RTVSPropertyOp36
 70
     1
102
RTVSPropertyOp37
 70
     1
102
RTVSPropertyOp38
 70
     1
102
RTVSPropertyOp39
 70
     1
102
RTVSPropertyOp40
 70
     1
102
RTVSPropertyOp41
 70
     1
102
RTVSPropertyOp42
 70
     1
102
RTVSPropertyOp43
 70
     1
102
RTVSPropertyOp44
 70
     1
102
RTVSPropertyOp45
 70
     1
102
RTVSPropertyOp46
 70
     1
102
RTVSPropertyOp47
 70
     1
102
RTVSPropertyOp48
 70
     1
102
RTVSPropertyOp49
 70
     1
102
RTVSPropertyOp50
 70
     1
102
RTVSPropertyOp51
 70
     0
102
RTVSPropertyOp52
 70
     0
102
RTVSPropertyOp53
 70
     1
102
RTVSPropertyOp54
 70
     1
102
RTVSPropertyOp55
 70
     1
102
RTVSPropertyOp56
 70
     1
102
RTVSPropertyOp57
 70
     1
102
RTVSPost2010Prop28
280
     0
102
RTVSPost2010PropOp28
 70
     1
102
RTVSPost2010Prop29
280
     1
102
RTVSPost2010PropOp29
 70
     1
102
RTVSPost2010Prop30
280
     1
102
RTVSPost2010PropOp30
 70
     1
102
RTVSPost2010Prop31
280
     0
102
RTVSPost2010PropOp31
 70
     1
102
RTVSPost2010Prop32
280
     0
102
RTVSPost2010PropOp32
 70
     1
102
RTVSPost2010Prop33
280
     0
102
RTVSPost2010PropOp33
 70
     1
102
RTVSPost2010Prop34
280
     0
102
RTVSPost2010PropOp34
 70
     1
102
RTVSPost2010Prop35
280
     0
102
RTVSPost2010PropOp35
 70
     1
102
RTVSPost2010Prop36
280
     0
102
RTVSPost2010PropOp36
 70
     1
102
RTVSPost2010Prop37
 90
       50
102
RTVSPost2010PropOp37
 70
     1
102
RTVSPost2010Prop38
140
0.0
102
RTVSPost2010PropOp38
 70
     1
102
RTVSPost2010Prop39
140
1.0
102
RTVSPost2010PropOp39
 70
     1
102
RTVSPost2010Prop40
 90
        0
102
RTVSPost2010PropOp40
 70
     1
102
RTVSPost2010Prop41ColorIndex
 90
       18
102
RTVSPost2010Prop41ColorRGB
 90
        0
102
RTVSPost2010PropOp41
 70
     1
102
RTVSPost2010Prop42
 90
       50
102
RTVSPost2010PropOp42
 70
     1
102
RTVSPost2010Prop43
 90
        3
102
RTVSPost2010PropOp43
 70
     1
102
RTVSPost2010Prop44ColorIndex
 90
        5
102
RTVSPost2010Prop44ColorRGB
 90
      255
102
RTVSPost2010PropOp44
 70
     1
102
RTVSPost2010Prop45
280
     0
102
RTVSPost2010PropOp45
 70
     1
102
RTVSPost2010Prop46
 90
       50
102
RTVSPost2010PropOp46
 70
     1
102
RTVSPost2010Prop47
 90
       50
102
RTVSPost2010PropOp47
 70
     1
102
RTVSPost2010Prop48
 90
       50
102
RTVSPost2010PropOp48
 70
     1
102
RTVSPost2010Prop49
280
     0
102
RTVSPost2010PropOp49
 70
     1
102
RTVSPost2010Prop50
 90
       50
102
RTVSPost2010PropOp50
 70
     1
102
RTVSPost2010Prop51ColorIndex
 90
      256
102
RTVSPost2010Prop51ColorRGB
 90
-16777216
102
RTVSPost2010PropOp51
 70
     0
102
RTVSPost2010Prop52
140
1.0
102
RTVSPost2010PropOp52
 70
     0
102
RTVSPost2010Prop53
 90
        2
102
RTVSPost2010PropOp53
 70
     1
102
RTVSPost2010Prop54
  1
strokes_ogs.tif
102
RTVSPost2010PropOp54
 70
     1
102
RTVSPost2010Prop55
280
     0
102
RTVSPost2010PropOp55
 70
     1
102
RTVSPost2010Prop56
140
1.0
102
RTVSPost2010PropOp56
 70
     1
102
RTVSPost2010Prop57
140
1.0
102
RTVSPost2010PropOp57
 70
     1
  0
XRECORD
  5
382
102
{ACAD_REACTORS
330
381
102
}
330
381
100
AcDbXrecord
280
     1
102
RTVSPropertyOp0
 70
     1
102
RTVSPropertyOp1
 70
     1
102
RTVSPropertyOp2
 70
     1
102
RTVSPropertyOp3
 70
     1
102
RTVSPropertyOp4
 70
     1
102
RTVSPropertyOp5
 70
     1
102
RTVSPropertyOp6
 70
     1
102
RTVSPropertyOp7
 70
     1
102
RTVSPropertyOp8
 70
     1
102
RTVSPropertyOp9
 70
     1
102
RTVSPropertyOp10
 70
     1
102
RTVSPropertyOp11
 70
     1
102
RTVSPropertyOp12
 70
     1
102
RTVSPropertyOp13
 70
     1
102
RTVSPropertyOp14
 70
     1
102
RTVSPropertyOp15
 70
     1
102
RTVSPropertyOp16
 70
     1
102
RTVSPropertyOp17
 70
     1
102
RTVSPropertyOp18
 70
     1
102
RTVSPropertyOp19
 70
     1
102
RTVSPropertyOp20
 70
     1
102
RTVSPropertyOp21
 70
     1
102
RTVSPropertyOp22
 70
     1
102
RTVSPropertyOp23
 70
     1
102
RTVSPropertyOp24
 70
     1
102
RTVSPropertyOp25
 70
     1
102
RTVSPropertyOp26
 70
     1
102
RTVSPropertyOp27
 70
     1
102
RTVSPropertyOp28
 70
     1
102
RTVSPropertyOp29
 70
     1
102
RTVSPropertyOp30
 70
     1
102
RTVSPropertyOp31
 70
     1
102
RTVSPropertyOp32
 70
     1
102
RTVSPropertyOp33
 70
     1
102
RTVSPropertyOp34
 70
     1
102
RTVSPropertyOp35
 70
     1
102
RTVSPropertyOp36
 70
     1
102
RTVSPropertyOp37
 70
     1
102
RTVSPropertyOp38
 70
     1
102
RTVSPropertyOp39
 70
     1
102
RTVSPropertyOp40
 70
     1
102
RTVSPropertyOp41
 70
     1
102
RTVSPropertyOp42
 70
     1
102
RTVSPropertyOp43
 70
     1
102
RTVSPropertyOp44
 70
     1
102
RTVSPropertyOp45
 70
     1
102
RTVSPropertyOp46
 70
     1
102
RTVSPropertyOp47
 70
     1
102
RTVSPropertyOp48
 70
     1
102
RTVSPropertyOp49
 70
     1
102
RTVSPropertyOp50
 70
     1
102
RTVSPropertyOp51
 70
     0
102
RTVSPropertyOp52
 70
     0
102
RTVSPropertyOp53
 70
     1
102
RTVSPropertyOp54
 70
     1
102
RTVSPropertyOp55
 70
     1
102
RTVSPropertyOp56
 70
     1
102
RTVSPropertyOp57
 70
     1
102
RTVSPost2010Prop28
280
     0
102
RTVSPost2010PropOp28
 70
     1
102
RTVSPost2010Prop29
280
     1
102
RTVSPost2010PropOp29
 70
     1
102
RTVSPost2010Prop30
280
     1
102
RTVSPost2010PropOp30
 70
     1
102
RTVSPost2010Prop31
280
     0
102
RTVSPost2010PropOp31
 70
     1
102
RTVSPost2010Prop32
280
     0
102
RTVSPost2010PropOp32
 70
     1
102
RTVSPost2010Prop33
280
     0
102
RTVSPost2010PropOp33
 70
     1
102
RTVSPost2010Prop34
280
     0
102
RTVSPost2010PropOp34
 70
     1
102
RTVSPost2010Prop35
280
     0
102
RTVSPost2010PropOp35
 70
     1
102
RTVSPost2010Prop36
280
     0
102
RTVSPost2010PropOp36
 70
     1
102
RTVSPost2010Prop37
 90
       50
102
RTVSPost2010PropOp37
 70
     1
102
RTVSPost2010Prop38
140
0.0
102
RTVSPost2010PropOp38
 70
     1
102
RTVSPost2010Prop39
140
1.0
102
RTVSPost2010PropOp39
 70
     1
102
RTVSPost2010Prop40
 90
        0
102
RTVSPost2010PropOp40
 70
     1
102
RTVSPost2010Prop41ColorIndex
 90
       18
102
RTVSPost2010Prop41ColorRGB
 90
        0
102
RTVSPost2010PropOp41
 70
     1
102
RTVSPost2010Prop42
 90
       50
102
RTVSPost2010PropOp42
 70
     1
102
RTVSPost2010Prop43
 90
        3
102
RTVSPost2010PropOp43
 70
     1
102
RTVSPost2010Prop44ColorIndex
 90
        5
102
RTVSPost2010Prop44ColorRGB
 90
      255
102
RTVSPost2010PropOp44
 70
     1
102
RTVSPost2010Prop45
280
     0
102
RTVSPost2010PropOp45
 70
     1
102
RTVSPost2010Prop46
 90
       50
102
RTVSPost2010PropOp46
 70
     1
102
RTVSPost2010Prop47
 90
       50
102
RTVSPost2010PropOp47
 70
     1
102
RTVSPost2010Prop48
 90
       50
102
RTVSPost2010PropOp48
 70
     1
102
RTVSPost2010Prop49
280
     0
102
RTVSPost2010PropOp49
 70
     1
102
RTVSPost2010Prop50
 90
       50
102
RTVSPost2010PropOp50
 70
     1
102
RTVSPost2010Prop51ColorIndex
 90
      256
102
RTVSPost2010Prop51ColorRGB
 90
-16777216
102
RTVSPost2010PropOp51
 70
     0
102
RTVSPost2010Prop52
140
1.0
102
RTVSPost2010PropOp52
 70
     0
102
RTVSPost2010Prop53
 90
        2
102
RTVSPost2010PropOp53
 70
     1
102
RTVSPost2010Prop54
  1
strokes_ogs.tif
102
RTVSPost2010PropOp54
 70
     1
102
RTVSPost2010Prop55
280
     0
102
RTVSPost2010PropOp55
 70
     1
102
RTVSPost2010Prop56
140
1.0
102
RTVSPost2010PropOp56
 70
     1
102
RTVSPost2010Prop57
140
1.0
102
RTVSPost2010PropOp57
 70
     1
  0
XRECORD
  5
374
102
{ACAD_REACTORS
330
373
102
}
330
373
100
AcDbXrecord
280
     1
102
RTVSPropertyOp0
 70
     1
102
RTVSPropertyOp1
 70
     1
102
RTVSPropertyOp2
 70
     1
102
RTVSPropertyOp3
 70
     1
102
RTVSPropertyOp4
 70
     1
102
RTVSPropertyOp5
 70
     1
102
RTVSPropertyOp6
 70
     1
102
RTVSPropertyOp7
 70
     1
102
RTVSPropertyOp8
 70
     1
102
RTVSPropertyOp9
 70
     1
102
RTVSPropertyOp10
 70
     1
102
RTVSPropertyOp11
 70
     1
102
RTVSPropertyOp12
 70
     1
102
RTVSPropertyOp13
 70
     1
102
RTVSPropertyOp14
 70
     1
102
RTVSPropertyOp15
 70
     1
102
RTVSPropertyOp16
 70
     1
102
RTVSPropertyOp17
 70
     1
102
RTVSPropertyOp18
 70
     1
102
RTVSPropertyOp19
 70
     1
102
RTVSPropertyOp20
 70
     1
102
RTVSPropertyOp21
 70
     1
102
RTVSPropertyOp22
 70
     1
102
RTVSPropertyOp23
 70
     1
102
RTVSPropertyOp24
 70
     1
102
RTVSPropertyOp25
 70
     1
102
RTVSPropertyOp26
 70
     1
102
RTVSPropertyOp27
 70
     1
102
RTVSPropertyOp28
 70
     1
102
RTVSPropertyOp29
 70
     1
102
RTVSPropertyOp30
 70
     1
102
RTVSPropertyOp31
 70
     1
102
RTVSPropertyOp32
 70
     1
102
RTVSPropertyOp33
 70
     1
102
RTVSPropertyOp34
 70
     1
102
RTVSPropertyOp35
 70
     1
102
RTVSPropertyOp36
 70
     1
102
RTVSPropertyOp37
 70
     1
102
RTVSPropertyOp38
 70
     1
102
RTVSPropertyOp39
 70
     1
102
RTVSPropertyOp40
 70
     1
102
RTVSPropertyOp41
 70
     1
102
RTVSPropertyOp42
 70
     1
102
RTVSPropertyOp43
 70
     1
102
RTVSPropertyOp44
 70
     1
102
RTVSPropertyOp45
 70
     1
102
RTVSPropertyOp46
 70
     1
102
RTVSPropertyOp47
 70
     1
102
RTVSPropertyOp48
 70
     1
102
RTVSPropertyOp49
 70
     1
102
RTVSPropertyOp50
 70
     1
102
RTVSPropertyOp51
 70
     0
102
RTVSPropertyOp52
 70
     0
102
RTVSPropertyOp53
 70
     1
102
RTVSPropertyOp54
 70
     1
102
RTVSPropertyOp55
 70
     1
102
RTVSPropertyOp56
 70
     1
102
RTVSPropertyOp57
 70
     1
102
RTVSPost2010Prop28
280
     0
102
RTVSPost2010PropOp28
 70
     1
102
RTVSPost2010Prop29
280
     1
102
RTVSPost2010PropOp29
 70
     1
102
RTVSPost2010Prop30
280
     1
102
RTVSPost2010PropOp30
 70
     1
102
RTVSPost2010Prop31
280
     0
102
RTVSPost2010PropOp31
 70
     1
102
RTVSPost2010Prop32
280
     0
102
RTVSPost2010PropOp32
 70
     1
102
RTVSPost2010Prop33
280
     0
102
RTVSPost2010PropOp33
 70
     1
102
RTVSPost2010Prop34
280
     0
102
RTVSPost2010PropOp34
 70
     1
102
RTVSPost2010Prop35
280
     0
102
RTVSPost2010PropOp35
 70
     1
102
RTVSPost2010Prop36
280
     0
102
RTVSPost2010PropOp36
 70
     1
102
RTVSPost2010Prop37
 90
       50
102
RTVSPost2010PropOp37
 70
     1
102
RTVSPost2010Prop38
140
0.0
102
RTVSPost2010PropOp38
 70
     1
102
RTVSPost2010Prop39
140
1.0
102
RTVSPost2010PropOp39
 70
     1
102
RTVSPost2010Prop40
 90
        0
102
RTVSPost2010PropOp40
 70
     1
102
RTVSPost2010Prop41ColorIndex
 90
       18
102
RTVSPost2010Prop41ColorRGB
 90
        0
102
RTVSPost2010PropOp41
 70
     1
102
RTVSPost2010Prop42
 90
       50
102
RTVSPost2010PropOp42
 70
     1
102
RTVSPost2010Prop43
 90
        3
102
RTVSPost2010PropOp43
 70
     1
102
RTVSPost2010Prop44ColorIndex
 90
        5
102
RTVSPost2010Prop44ColorRGB
 90
      255
102
RTVSPost2010PropOp44
 70
     1
102
RTVSPost2010Prop45
280
     0
102
RTVSPost2010PropOp45
 70
     1
102
RTVSPost2010Prop46
 90
       50
102
RTVSPost2010PropOp46
 70
     1
102
RTVSPost2010Prop47
 90
       50
102
RTVSPost2010PropOp47
 70
     1
102
RTVSPost2010Prop48
 90
       50
102
RTVSPost2010PropOp48
 70
     1
102
RTVSPost2010Prop49
280
     0
102
RTVSPost2010PropOp49
 70
     1
102
RTVSPost2010Prop50
 90
       50
102
RTVSPost2010PropOp50
 70
     1
102
RTVSPost2010Prop51ColorIndex
 90
      256
102
RTVSPost2010Prop51ColorRGB
 90
-16777216
102
RTVSPost2010PropOp51
 70
     0
102
RTVSPost2010Prop52
140
1.0
102
RTVSPost2010PropOp52
 70
     0
102
RTVSPost2010Prop53
 90
        2
102
RTVSPost2010PropOp53
 70
     1
102
RTVSPost2010Prop54
  1
strokes_ogs.tif
102
RTVSPost2010PropOp54
 70
     1
102
RTVSPost2010Prop55
280
     0
102
RTVSPost2010PropOp55
 70
     1
102
RTVSPost2010Prop56
140
1.0
102
RTVSPost2010PropOp56
 70
     1
102
RTVSPost2010Prop57
140
1.0
102
RTVSPost2010PropOp57
 70
     1
  0
XRECORD
  5
394
102
{ACAD_REACTORS
330
393
102
}
330
393
100
AcDbXrecord
280
     1
102
RTVSPropertyOp0
 70
     1
102
RTVSPropertyOp1
 70
     1
102
RTVSPropertyOp2
 70
     1
102
RTVSPropertyOp3
 70
     1
102
RTVSPropertyOp4
 70
     1
102
RTVSPropertyOp5
 70
     1
102
RTVSPropertyOp6
 70
     1
102
RTVSPropertyOp7
 70
     1
102
RTVSPropertyOp8
 70
     1
102
RTVSPropertyOp9
 70
     1
102
RTVSPropertyOp10
 70
     1
102
RTVSPropertyOp11
 70
     1
102
RTVSPropertyOp12
 70
     1
102
RTVSPropertyOp13
 70
     1
102
RTVSPropertyOp14
 70
     1
102
RTVSPropertyOp15
 70
     1
102
RTVSPropertyOp16
 70
     1
102
RTVSPropertyOp17
 70
     1
102
RTVSPropertyOp18
 70
     1
102
RTVSPropertyOp19
 70
     1
102
RTVSPropertyOp20
 70
     1
102
RTVSPropertyOp21
 70
     1
102
RTVSPropertyOp22
 70
     1
102
RTVSPropertyOp23
 70
     1
102
RTVSPropertyOp24
 70
     1
102
RTVSPropertyOp25
 70
     1
102
RTVSPropertyOp26
 70
     1
102
RTVSPropertyOp27
 70
     1
102
RTVSPropertyOp28
 70
     1
102
RTVSPropertyOp29
 70
     1
102
RTVSPropertyOp30
 70
     1
102
RTVSPropertyOp31
 70
     1
102
RTVSPropertyOp32
 70
     1
102
RTVSPropertyOp33
 70
     1
102
RTVSPropertyOp34
 70
     1
102
RTVSPropertyOp35
 70
     1
102
RTVSPropertyOp36
 70
     1
102
RTVSPropertyOp37
 70
     1
102
RTVSPropertyOp38
 70
     1
102
RTVSPropertyOp39
 70
     1
102
RTVSPropertyOp40
 70
     1
102
RTVSPropertyOp41
 70
     1
102
RTVSPropertyOp42
 70
     1
102
RTVSPropertyOp43
 70
     1
102
RTVSPropertyOp44
 70
     1
102
RTVSPropertyOp45
 70
     1
102
RTVSPropertyOp46
 70
     1
102
RTVSPropertyOp47
 70
     1
102
RTVSPropertyOp48
 70
     1
102
RTVSPropertyOp49
 70
     1
102
RTVSPropertyOp50
 70
     1
102
RTVSPropertyOp51
 70
     0
102
RTVSPropertyOp52
 70
     0
102
RTVSPropertyOp53
 70
     1
102
RTVSPropertyOp54
 70
     1
102
RTVSPropertyOp55
 70
     1
102
RTVSPropertyOp56
 70
     1
102
RTVSPropertyOp57
 70
     1
102
RTVSPost2010Prop28
280
     0
102
RTVSPost2010PropOp28
 70
     1
102
RTVSPost2010Prop29
280
     1
102
RTVSPost2010PropOp29
 70
     1
102
RTVSPost2010Prop30
280
     1
102
RTVSPost2010PropOp30
 70
     1
102
RTVSPost2010Prop31
280
     0
102
RTVSPost2010PropOp31
 70
     1
102
RTVSPost2010Prop32
280
     0
102
RTVSPost2010PropOp32
 70
     1
102
RTVSPost2010Prop33
280
     0
102
RTVSPost2010PropOp33
 70
     1
102
RTVSPost2010Prop34
280
     0
102
RTVSPost2010PropOp34
 70
     1
102
RTVSPost2010Prop35
280
     0
102
RTVSPost2010PropOp35
 70
     1
102
RTVSPost2010Prop36
280
     0
102
RTVSPost2010PropOp36
 70
     1
102
RTVSPost2010Prop37
 90
       50
102
RTVSPost2010PropOp37
 70
     1
102
RTVSPost2010Prop38
140
0.0
102
RTVSPost2010PropOp38
 70
     1
102
RTVSPost2010Prop39
140
1.0
102
RTVSPost2010PropOp39
 70
     1
102
RTVSPost2010Prop40
 90
        0
102
RTVSPost2010PropOp40
 70
     1
102
RTVSPost2010Prop41ColorIndex
 90
       18
102
RTVSPost2010Prop41ColorRGB
 90
        0
102
RTVSPost2010PropOp41
 70
     1
102
RTVSPost2010Prop42
 90
       50
102
RTVSPost2010PropOp42
 70
     1
102
RTVSPost2010Prop43
 90
        3
102
RTVSPost2010PropOp43
 70
     1
102
RTVSPost2010Prop44ColorIndex
 90
        5
102
RTVSPost2010Prop44ColorRGB
 90
      255
102
RTVSPost2010PropOp44
 70
     1
102
RTVSPost2010Prop45
280
     0
102
RTVSPost2010PropOp45
 70
     1
102
RTVSPost2010Prop46
 90
       50
102
RTVSPost2010PropOp46
 70
     1
102
RTVSPost2010Prop47
 90
       50
102
RTVSPost2010PropOp47
 70
     1
102
RTVSPost2010Prop48
 90
       50
102
RTVSPost2010PropOp48
 70
     1
102
RTVSPost2010Prop49
280
     0
102
RTVSPost2010PropOp49
 70
     1
102
RTVSPost2010Prop50
 90
       50
102
RTVSPost2010PropOp50
 70
     1
102
RTVSPost2010Prop51ColorIndex
 90
      256
102
RTVSPost2010Prop51ColorRGB
 90
-16777216
102
RTVSPost2010PropOp51
 70
     0
102
RTVSPost2010Prop52
140
1.0
102
RTVSPost2010PropOp52
 70
     0
102
RTVSPost2010Prop53
 90
        2
102
RTVSPost2010PropOp53
 70
     1
102
RTVSPost2010Prop54
  1
strokes_ogs.tif
102
RTVSPost2010PropOp54
 70
     1
102
RTVSPost2010Prop55
280
     0
102
RTVSPost2010PropOp55
 70
     1
102
RTVSPost2010Prop56
140
1.0
102
RTVSPost2010PropOp56
 70
     1
102
RTVSPost2010Prop57
140
1.0
102
RTVSPost2010PropOp57
 70
     1
  0
ENDSEC
  0
EOF
