  0
SECTION
  2
HEADER
  9
$ACADVER
  1
AC1015
  9
$EXTMAX
 10
717.014892578125
 20
357.0730895996094
 30
0
  9
$EXTMIN
 10
-358.18505859375
 20
-461.9269104003906
 30
0
  9
$LIMMAX
 10
717.014892578125
 20
357.0730895996094
  9
$LIMMIN
 10
-358.18505859375
 20
-461.9269104003906
  9
$PLIMMAX
 10
717.014892578125
 20
357.0730895996094
  9
$PLIMMIN
 10
-358.18505859375
 20
-461.9269104003906
  9
$TEXTSIZE
 40
3.2
  9
$DIMSHO
 70
     0
  9
$DIMASZ
 40
1.0
  9
$DIMTAD
 70
     1
  9
$DIMTIH
 70
     0
  9
$DIMTOH
 70
     0
  9
$DIMEXE
 40
2.54
  9
$DIMEXO
 40
2.54
  9
$DIMTVP
 40
1.0
  9
$DIMSAH
 70
     1
  9
$DIMDLE
 40
0.0
  9
$DIMTXT
 40
4
  9
$DIMGAP
 40
2
  9
$DIMAUNIT
 70
     1
  9
$DIMDEC
 70
     1
  9
$HANDSEED
  5
     836
  9
$MEASUREMENT
 70
     1
  0
ENDSEC
  0
SECTION
  2
TABLES
  0
TABLE
  2
LTYPE
  5
25
100
AcDbSymbolTable
 70
    48
  0
LTYPE
  5
26
100
AcDbSymbolTableRecord
100
AcDbLinetypeTableRecord
  2
BYBLOCK
 70
    64
  3

 72
    65
 73
     0
 40
0.0
  0
LTYPE
  5
27
100
AcDbSymbolTableRecord
100
AcDbLinetypeTableRecord
  2
BYLAYER
 70
    64
  3

 72
    65
 73
     0
 40
0.0
  0
LTYPE
  5
28
100
AcDbSymbolTableRecord
100
AcDbLinetypeTableRecord
  2
CONTINUOUS
 70
    64
  3
Solid line
 72
    65
 73
     0
 40
0.0
  0
LTYPE
  5
29
100
AcDbSymbolTableRecord
100
AcDbLinetypeTableRecord
  2
DASHED
 70
    64
  3
Dashed __ __ __ __ __ __ __ __ __ __ __ __ __ _
 72
    65
 73
     2
 40
4.5
 49
3.0
 74
     0
 49
-1.5
 74
     0
  0
LTYPE
  5
2a
100
AcDbSymbolTableRecord
100
AcDbLinetypeTableRecord
  2
CENTER
 70
    64
  3
Center ____ _ ____ _ ____ _ ____ _ ____ _ ____
 72
    65
 73
     4
 74
     0
 40
12.0
 49
7.5
 74
     0
 49
-1.5
 74
     0
 49
1.5
 74
     0
 49
-1.5
 74
     0
  0
LTYPE
  5
2b
100
AcDbSymbolTableRecord
100
AcDbLinetypeTableRecord
  2
PHANTOM
 70
    64
  3
Phantom ______  __  __  ______  __  __  ______
 72
    65
 73
     6
 74
     0
 40
15.0
 49
7.5
 74
     0
 49
-1.5
 74
     0
 49
1.5
 74
     0
 49
-1.5
 74
     0
 49
1.5
 74
     0
 49
-1.5
 74
     0
  0
LTYPE
  5
2c
100
AcDbSymbolTableRecord
100
AcDbLinetypeTableRecord
  2
DOT
 70
    64
  3
Dot . . . . . . . . . . . . . . . . . . . . . .
 72
    65
 73
     2
 74
     0
 40
1.5
 49
0.0
 74
     0
 49
-1.5
 74
     0
  0
LTYPE
  5
2d
100
AcDbSymbolTableRecord
100
AcDbLinetypeTableRecord
  2
HIDDEN
 70
    64
  3
Hidden __ __ __ __ __ __ __ __ __ __ __ __ __ _
 72
    65
 73
     2
 74
     0
 40
4.5
 49
3.0
 74
     0
 49
-1.5
 74
     0
  0
LTYPE
  5
2e
100
AcDbSymbolTableRecord
100
AcDbLinetypeTableRecord
  2
BORDER
 70
    64
  3
Border __ __ . __ __ . __ __ . __ __ . __ __ .
 72
    65
 73
     6
 40
3.5
 49
1.0
 74
     0
 49
-0.5
 74
     0
 49
1.0
 74
     0
 49
-0.5
 74
     0
 49
0.0
 74
     0
 49
-0.5
 74
     0
  0
LTYPE
  5
2f
100
AcDbSymbolTableRecord
100
AcDbLinetypeTableRecord
  2
BORDER2
 70
    64
  3
Border (.5x) __.__.__.__.__.__.__.__.__.__.__.
 72
    65
 73
     6
 40
1.75
 49
0.5
 74
     0
 49
-0.25
 74
     0
 49
0.5
 74
     0
 49
-0.25
 74
     0
 49
0.0
 74
     0
 49
-0.25
 74
     0
  0
LTYPE
  5
30
100
AcDbSymbolTableRecord
100
AcDbLinetypeTableRecord
  2
BORDERX2
 70
    64
  3
Border (2x) ____  ____  .  ____  ____  .  ___
 72
    65
 73
     6
 40
7.0
 49
2.0
 74
     0
 49
-1.0
 74
     0
 49
2.0
 74
     0
 49
-1.0
 74
     0
 49
0.0
 74
     0
 49
-1.0
 74
     0
  0
LTYPE
  5
31
100
AcDbSymbolTableRecord
100
AcDbLinetypeTableRecord
  2
CENTER2
 70
    64
  3
Center (.5x) ___ _ ___ _ ___ _ ___ _ ___ _ ___
 72
    65
 73
     4
 40
6.0
 49
3.75
 74
     0
 49
-0.75
 74
     0
 49
0.75
 74
     0
 49
-0.75
 74
     0
  0
LTYPE
  5
32
100
AcDbSymbolTableRecord
100
AcDbLinetypeTableRecord
  2
CENTERX2
 70
    64
  3
Center (2x) ________  __  ________  __  _____
 72
    65
 73
     4
 40
24.0
 49
15.0
 74
     0
 49
-3.0
 74
     0
 49
3.0
 74
     0
 49
-3.0
 74
     0
  0
LTYPE
  5
33
100
AcDbSymbolTableRecord
100
AcDbLinetypeTableRecord
  2
DASHDOT
 70
    64
  3
Dash dot __ . __ . __ . __ . __ . __ . __ . __
 72
    65
 73
     4
 40
6.0
 49
3.0
 74
     0
 49
-1.5
 74
     0
 49
0.0
 74
     0
 49
-1.5
 74
     0
  0
LTYPE
  5
34
100
AcDbSymbolTableRecord
100
AcDbLinetypeTableRecord
  2
DASHDOT2
 70
    64
  3
Dash dot (.5x) _._._._._._._._._._._._._._._.
 72
    65
 73
     4
 40
3.0
 49
1.5
 74
     0
 49
-0.75
 74
     0
 49
0.0
 74
     0
 49
-0.75
 74
     0
  0
LTYPE
  5
35
100
AcDbSymbolTableRecord
100
AcDbLinetypeTableRecord
  2
DASHDOTX2
 70
    64
  3
Dash dot (2x) ____  .  ____  .  ____  .  ___
 72
    65
 73
     4
 40
12.0
 49
6.0
 74
     0
 49
-3.0
 74
     0
 49
0.0
 74
     0
 49
-3.0
 74
     0
  0
LTYPE
  5
36
100
AcDbSymbolTableRecord
100
AcDbLinetypeTableRecord
  2
DASHED2
 70
    64
  3
Dashed (.5x) _ _ _ _ _ _ _ _ _ _ _ _ _ _ _ _ _
 72
    65
 73
     2
 40
2.25
 49
1.5
 74
     0
 49
-0.75
 74
     0
  0
LTYPE
  5
37
100
AcDbSymbolTableRecord
100
AcDbLinetypeTableRecord
  2
DASHEDX2
 70
    64
  3
Dashed (2x) ____  ____  ____  ____  ____  ___
 72
    65
 73
     2
 40
9.0
 49
6.0
 74
     0
 49
-3.0
 74
     0
  0
LTYPE
  5
38
100
AcDbSymbolTableRecord
100
AcDbLinetypeTableRecord
  2
DIVIDE
 70
    64
  3
Divide ____ . . ____ . . ____ . . ____ . . ____
 72
    65
 73
     6
 40
7.5
 49
3.0
 74
     0
 49
-1.5
 74
     0
 49
0.0
 74
     0
 49
-1.5
 74
     0
 49
0.0
 74
     0
 49
-1.5
 74
     0
  0
LTYPE
  5
39
100
AcDbSymbolTableRecord
100
AcDbLinetypeTableRecord
  2
DIVIDE2
 70
    64
  3
Divide (.5x) __..__..__..__..__..__..__..__.._
 72
    65
 73
     6
 40
3.75
 49
1.5
 74
     0
 49
-0.75
 74
     0
 49
0.0
 74
     0
 49
-0.75
 74
     0
 49
0.0
 74
     0
 49
-0.75
 74
     0
  0
LTYPE
  5
3a
100
AcDbSymbolTableRecord
100
AcDbLinetypeTableRecord
  2
DIVIDEX2
 70
    64
  3
Divide (2x) ________  .  .  ________  .  .  _
 72
    65
 73
     6
 40
15.0
 49
6.0
 74
     0
 49
-3.0
 74
     0
 49
0.0
 74
     0
 49
-3.0
 74
     0
 49
0.0
 74
     0
 49
-3.0
 74
     0
  0
LTYPE
  5
3b
100
AcDbSymbolTableRecord
100
AcDbLinetypeTableRecord
  2
DOT2
 70
    64
  3
Dot (.5x) .....................................
 72
    65
 73
     2
 40
0.75
 49
0.0
 74
     0
 49
-0.75
 74
     0
  0
LTYPE
  5
3c
100
AcDbSymbolTableRecord
100
AcDbLinetypeTableRecord
  2
DOTX2
 70
    64
  3
Dot (2x) .  .  .  .  .  .  .  .  .  .  .  .  . 
 72
    65
 73
     2
 40
3.0
 49
0.0
 74
     0
 49
-3.0
 74
     0
  0
LTYPE
  5
3d
100
AcDbSymbolTableRecord
100
AcDbLinetypeTableRecord
  2
HIDDEN2
 70
    64
  3
Hidden (.5x) _ _ _ _ _ _ _ _ _ _ _ _ _ _ _ _ _
 72
    65
 73
     2
 40
2.25
 49
1.5
 74
     0
 49
-0.75
 74
     0
  0
LTYPE
  5
3e
100
AcDbSymbolTableRecord
100
AcDbLinetypeTableRecord
  2
HIDDENX2
 70
    64
  3
Hidden (2x) ____ ____ ____ ____ ____ ____ ____
 72
    65
 73
     2
 40
9.0
 49
6.0
 74
     0
 49
-3.0
 74
     0
  0
LTYPE
  5
3f
100
AcDbSymbolTableRecord
100
AcDbLinetypeTableRecord
  2
PHANTOM2
 70
    64
  3
Phantom (.5x) ___ _ _ ___ _ _ ___ _ _ ___ _ _
 72
    65
 73
     6
 40
7.5
 49
3.75
 74
     0
 49
-0.75
 74
     0
 49
0.75
 74
     0
 49
-0.75
 74
     0
 49
0.75
 74
     0
 49
-0.75
 74
     0
  0
LTYPE
  5
40
100
AcDbSymbolTableRecord
100
AcDbLinetypeTableRecord
  2
PHANTOMX2
 70
    64
  3
Phantom (2x) ____________    ____    ____   _
 72
    65
 73
     6
 40
30.0
 49
15.0
 74
     0
 49
-3.0
 74
     0
 49
3.0
 74
     0
 49
-3.0
 74
     0
 49
3.0
 74
     0
 49
-3.0
 74
     0
  0
LTYPE
  5
41
100
AcDbSymbolTableRecord
100
AcDbLinetypeTableRecord
  2
ACAD_ISO02W100
 70
     0
  3
ISO dash __ __ __ __ __ __ __ __ __ __ __ __ __
 72
    65
 73
     2
 40
15.0
 49
12.0
 74
     0
 49
-3.0
 74
     0
  0
LTYPE
  5
42
100
AcDbSymbolTableRecord
100
AcDbLinetypeTableRecord
  2
ACAD_ISO03W100
 70
     0
  3
ISO dash space __    __    __    __    __    __
 72
    65
 73
     2
 40
30.0
 49
12.0
 74
     0
 49
-18.0
 74
     0
  0
LTYPE
  5
43
100
AcDbSymbolTableRecord
100
AcDbLinetypeTableRecord
  2
ACAD_ISO04W100
 70
     0
  3
ISO long-dash dot ____ . ____ . ____ . ____ . _
 72
    65
 73
     4
 40
30.0
 49
24.0
 74
     0
 49
-3.0
 74
     0
 49
0.0
 74
     0
 49
-3.0
 74
     0
  0
LTYPE
  5
44
100
AcDbSymbolTableRecord
100
AcDbLinetypeTableRecord
  2
ACAD_ISO05W100
 70
     0
  3
ISO long-dash double-dot ____ .. ____ .. ____ .
 72
    65
 73
     6
 40
33.0
 49
24.0
 74
     0
 49
-3.0
 74
     0
 49
0.0
 74
     0
 49
-3.0
 74
     0
 49
0.0
 74
     0
 49
-3.0
 74
     0
  0
LTYPE
  5
45
100
AcDbSymbolTableRecord
100
AcDbLinetypeTableRecord
  2
ACAD_ISO06W100
 70
     0
  3
ISO long-dash triple-dot ____ ... ____ ... ____
 72
    65
 73
     8
 40
36.0
 49
24.0
 74
     0
 49
-3.0
 74
     0
 49
0.0
 74
     0
 49
-3.0
 74
     0
 49
0.0
 74
     0
 49
-3.0
 74
     0
 49
0.0
 74
     0
 49
-3.0
 74
     0
  0
LTYPE
  5
46
100
AcDbSymbolTableRecord
100
AcDbLinetypeTableRecord
  2
ACAD_ISO07W100
 70
     0
  3
ISO dot . . . . . . . . . . . . . . . . . . . .
 72
    65
 73
     2
 40
3.0
 49
0.0
 74
     0
 49
-3.0
 74
     0
  0
LTYPE
  5
47
100
AcDbSymbolTableRecord
100
AcDbLinetypeTableRecord
  2
ACAD_ISO08W100
 70
     0
  3
ISO long-dash short-dash ____ __ ____ __ ____ _
 72
    65
 73
     4
 40
36.0
 49
24.0
 74
     0
 49
-3.0
 74
     0
 49
6.0
 74
     0
 49
-3.0
 74
     0
  0
LTYPE
  5
48
100
AcDbSymbolTableRecord
100
AcDbLinetypeTableRecord
  2
ACAD_ISO09W100
 70
     0
  3
ISO long-dash double-short-dash ____ __ __ ____
 72
    65
 73
     6
 40
45.0
 49
24.0
 74
     0
 49
-3.0
 74
     0
 49
6.0
 74
     0
 49
-3.0
 74
     0
 49
6.0
 74
     0
 49
-3.0
 74
     0
  0
LTYPE
  5
49
100
AcDbSymbolTableRecord
100
AcDbLinetypeTableRecord
  2
ACAD_ISO10W100
 70
     0
  3
ISO dash dot __ . __ . __ . __ . __ . __ . __ .
 72
    65
 73
     4
 40
18.0
 49
12.0
 74
     0
 49
-3.0
 74
     0
 49
0.0
 74
     0
 49
-3.0
 74
     0
  0
LTYPE
  5
4a
100
AcDbSymbolTableRecord
100
AcDbLinetypeTableRecord
  2
ACAD_ISO11W100
 70
     0
  3
ISO double-dash dot __ __ . __ __ . __ __ . __ 
 72
    65
 73
     6
 40
33.0
 49
12.0
 74
     0
 49
-3.0
 74
     0
 49
12.0
 74
     0
 49
-3.0
 74
     0
 49
0.0
 74
     0
 49
-3.0
 74
     0
  0
LTYPE
  5
4b
100
AcDbSymbolTableRecord
100
AcDbLinetypeTableRecord
  2
ACAD_ISO12W100
 70
     0
  3
ISO dash double-dot __ . . __ . . __ . . __ . .
 72
    65
 73
     6
 40
21.0
 49
12.0
 74
     0
 49
-3.0
 74
     0
 49
0.0
 74
     0
 49
-3.0
 74
     0
 49
0.0
 74
     0
 49
-3.0
 74
     0
  0
LTYPE
  5
4c
100
AcDbSymbolTableRecord
100
AcDbLinetypeTableRecord
  2
ACAD_ISO13W100
 70
     0
  3
ISO double-dash double-dot __ __ . . __ __ . . 
 72
    65
 73
     8
 40
36.0
 49
12.0
 74
     0
 49
-3.0
 74
     0
 49
12.0
 74
     0
 49
-3.0
 74
     0
 49
0.0
 74
     0
 49
-3.0
 74
     0
 49
0.0
 74
     0
 49
-3.0
 74
     0
  0
LTYPE
  5
4d
100
AcDbSymbolTableRecord
100
AcDbLinetypeTableRecord
  2
ACAD_ISO14W100
 70
     0
  3
ISO dash triple-dot __ . . . __ . . . __ . . . 
 72
    65
 73
     8
 40
24.0
 49
12.0
 74
     0
 49
-3.0
 74
     0
 49
0.0
 74
     0
 49
-3.0
 74
     0
 49
0.0
 74
     0
 49
-3.0
 74
     0
 49
0.0
 74
     0
 49
-3.0
 74
     0
  0
LTYPE
  5
4e
100
AcDbSymbolTableRecord
100
AcDbLinetypeTableRecord
  2
ACAD_ISO15W100
 70
     0
  3
ISO double-dash triple-dot __ __ . . . __ __ . 
 72
    65
 73
    10
 40
39.0
 49
12.0
 74
     0
 49
-3.0
 74
     0
 49
12.0
 74
     0
 49
-3.0
 74
     0
 49
0.0
 74
     0
 49
-3.0
 74
     0
 49
0.0
 74
     0
 49
-3.0
 74
     0
 49
0.0
 74
     0
 49
-3.0
 74
     0
  0
LTYPE
  5
4f
100
AcDbSymbolTableRecord
100
AcDbLinetypeTableRecord
  2
FENCELINE1
 70
     0
  3
Fenceline circle ----0-----0----0-----0----0---
 72
    65
 73
     4
 40
1.45
 49
0.25
 74
     0
 49
-0.1
 74
     4
 75
   133
340
24
 46
0.1
 50
0.0
 44
-0.1
 45
0.0
 49
-0.1
 74
     0
 49
1.0
 74
     0
  0
LTYPE
  5
50
100
AcDbSymbolTableRecord
100
AcDbLinetypeTableRecord
  2
FENCELINE2
 70
     0
  3
Fenceline square ----[]-----[]----[]-----[]----
 72
    65
 73
     4
 40
1.45
 49
0.25
 74
     0
 49
-0.1
 74
     4
 75
   132
340
24
 46
0.1
 50
0.0
 44
-0.1
 45
0.0
 49
-0.1
 74
     0
 49
1.0
 74
     0
  0
LTYPE
  5
51
100
AcDbSymbolTableRecord
100
AcDbLinetypeTableRecord
  2
TRACKS
 70
     0
  3
Tracks -|-|-|-|-|-|-|-|-|-|-|-|-|-|-|-|-|-|-|-|
 72
    65
 73
     2
 40
0.3
 49
0.15
 74
     4
 75
   130
340
24
 46
0.25
 50
0.0
 44
0.0
 45
0.0
 49
0.15
 74
     0
  0
LTYPE
  5
52
100
AcDbSymbolTableRecord
100
AcDbLinetypeTableRecord
  2
BATTING
 70
     0
  3
Batting SSSSSSSSSSSSSSSSSSSSSSSSSSSSSSSSSSSSSSS
 72
    65
 73
     4
 40
0.4001000000000002
 49
0.0001
 74
     0
 49
-0.1
 74
     4
 75
   134
340
24
 46
0.1
 50
0.0
 44
-0.1
 45
0.0
 49
-0.2
 74
     4
 75
   134
340
24
 46
0.1
 50
180.0
 44
0.1
 45
0.0
 49
-0.1
 74
     0
  0
LTYPE
  5
53
100
AcDbSymbolTableRecord
100
AcDbLinetypeTableRecord
  2
HOT_WATER_SUPPLY
 70
     0
  3
Hot water supply ---- HW ---- HW ---- HW ----
 72
    65
 73
     3
 40
0.9
 49
0.5
 74
     0
 49
-0.2
 74
     2
 75
     1
340
23
 46
0.1
 50
0.0
 44
-0.1
 45
-0.05
  9
HW
 49
-0.2
 74
     0
  0
LTYPE
  5
54
100
AcDbSymbolTableRecord
100
AcDbLinetypeTableRecord
  2
GAS_LINE
 70
     0
  3
Gas line ----GAS----GAS----GAS----GAS----GAS---
 72
    65
 73
     3
 40
0.95
 49
0.5
 74
     0
 49
-0.2
 74
     2
 75
     1
340
23
 46
0.1
 50
0.0
 44
-0.1
 45
-0.05
  9
GAS
 49
-0.25
 74
     0
  0
LTYPE
  5
55
100
AcDbSymbolTableRecord
100
AcDbLinetypeTableRecord
  2
ZIGZAG
 70
     0
  3
Zig zag /\/\/\/\/\/\/\/\/\/\/\/\/\/\/\/\/\/\/\/
 72
    65
 73
     4
 40
0.8001000000000001
 49
0.0001
 74
     0
 49
-0.2
 74
     4
 75
   131
340
24
 46
0.2
 50
0.0
 44
-0.2
 45
0.0
 49
-0.4
 74
     4
 75
   131
340
24
 46
0.2
 50
180.0
 44
0.2
 45
0.0
 49
-0.2
 74
     0
  0
ENDTAB
  0
TABLE
  2
LAYER
  5
c8
100
AcDbSymbolTable
 70
     2
  0
LAYER
  5
c9
100
AcDbSymbolTableRecord
100
AcDbLayerTableRecord
  2
0
 70
     0
 62
     7
  6
CONTINUOUS
390
F
  0
LAYER
  5
ca
100
AcDbSymbolTableRecord
100
AcDbLayerTableRecord
  2
DEFPOINTS
 70
     0
 62
     7
  6
CONTINUOUS
290
0
390
F
  0
ENDTAB
  0
TABLE
  2
STYLE
  5
cb
100
AcDbSymbolTable
 70
     2
  0
STYLE
  5
      23
100
AcDbSymbolTableRecord
100
AcDbTextStyleTableRecord
  2
STANDARD
 70
     0
 40
0.0
 41
1.0
 50
0.0
 71
     0
 42
0.2
  3
txt
  4
BIGFONT
  0
STYLE
  5
24
100
AcDbSymbolTableRecord
100
AcDbTextStyleTableRecord
  2

 70
     1
 40
0.0
 41
1.0
 50
0.0
 71
     0
 42
0.2
  3
ltypeshp.shx
  4

  0
ENDTAB
  0
TABLE
  2
DIMSTYLE
  5
cc
100
AcDbSymbolTable
100
AcDbDimStyleTable
 70
     1
  0
DIMSTYLE
105
cd
100
AcDbSymbolTableRecord
100
AcDbDimStyleTableRecord
  2
DIMSTYLE
 70
     0
  3

  4

  5
_OPEN
  6
_OPEN
  7
_OPEN
 40
1
 41
1
 42
0.009999999776482582
 43
0.38
 44
2.54
 45
0
 46
0
 47
0
 48
0
140
4
141
0.09
142
0
143
25.4
144
1
145
0
146
1
147
2
 71
     0
 72
     0
 73
     0
 74
     0
 75
     0
 76
     0
 78
     0
170
     0
171
     2
 77
     0
172
     0
173
     1
174
     0
175
     0
176
     0
177
     0
178
     0
271
     1
275
     1
340
23
  0
ENDTAB
  0
TABLE
  2
APPID
  5
ce
100
AcDbSymbolTable
 70
     1
  0
APPID
  5
cf
100
AcDbSymbolTableRecord
100
AcDbRegAppTableRecord
  2
ACAD
 70
     0
  0
ENDTAB
  0
TABLE
  2
VIEW
  5
d0
100
AcDbSymbolTable
 70
     0
  0
ENDTAB
  0
TABLE
  2
UCS
  5
d1
100
AcDbSymbolTable
 70
     0
  0
ENDTAB
  0
TABLE
  2
BLOCK_RECORD
  5
d2
100
AcDbSymbolTable
 70
    51
  0
BLOCK_RECORD
  5
d3
100
AcDbSymbolTableRecord
100
AcDbBlockTableRecord
  2
*MODEL_SPACE
  0
BLOCK_RECORD
  5
d4
100
AcDbSymbolTableRecord
100
AcDbBlockTableRecord
  2
*PAPER_SPACE
  0
BLOCK_RECORD
  5
d5
100
AcDbSymbolTableRecord
100
AcDbBlockTableRecord
  2
_OPEN
  0
BLOCK_RECORD
  5
d6
100
AcDbSymbolTableRecord
100
AcDbBlockTableRecord
  2
_NONE
  0
BLOCK_RECORD
  5
d7
100
AcDbSymbolTableRecord
100
AcDbBlockTableRecord
  2
_OPEN30
  0
BLOCK_RECORD
  5
d8
100
AcDbSymbolTableRecord
100
AcDbBlockTableRecord
  2
KOZU0001
  0
BLOCK_RECORD
  5
d9
100
AcDbSymbolTableRecord
100
AcDbBlockTableRecord
  2
KOZU0002
  0
BLOCK_RECORD
  5
da
100
AcDbSymbolTableRecord
100
AcDbBlockTableRecord
  2
KOZU0003
  0
BLOCK_RECORD
  5
db
100
AcDbSymbolTableRecord
100
AcDbBlockTableRecord
  2
KOZU0004
  0
BLOCK_RECORD
  5
dc
100
AcDbSymbolTableRecord
100
AcDbBlockTableRecord
  2
KOZU0005
  0
BLOCK_RECORD
  5
dd
100
AcDbSymbolTableRecord
100
AcDbBlockTableRecord
  2
KOZU0006
  0
BLOCK_RECORD
  5
de
100
AcDbSymbolTableRecord
100
AcDbBlockTableRecord
  2
KOZU0007
  0
BLOCK_RECORD
  5
df
100
AcDbSymbolTableRecord
100
AcDbBlockTableRecord
  2
KOZU0008
  0
BLOCK_RECORD
  5
e0
100
AcDbSymbolTableRecord
100
AcDbBlockTableRecord
  2
KOZU0009
  0
BLOCK_RECORD
  5
e1
100
AcDbSymbolTableRecord
100
AcDbBlockTableRecord
  2
KOZU0010
  0
BLOCK_RECORD
  5
e2
100
AcDbSymbolTableRecord
100
AcDbBlockTableRecord
  2
*D1
  0
BLOCK_RECORD
  5
e3
100
AcDbSymbolTableRecord
100
AcDbBlockTableRecord
  2
*D2
  0
BLOCK_RECORD
  5
e4
100
AcDbSymbolTableRecord
100
AcDbBlockTableRecord
  2
*D3
  0
BLOCK_RECORD
  5
e5
100
AcDbSymbolTableRecord
100
AcDbBlockTableRecord
  2
*D4
  0
BLOCK_RECORD
  5
e6
100
AcDbSymbolTableRecord
100
AcDbBlockTableRecord
  2
*D5
  0
BLOCK_RECORD
  5
e7
100
AcDbSymbolTableRecord
100
AcDbBlockTableRecord
  2
*D6
  0
BLOCK_RECORD
  5
e8
100
AcDbSymbolTableRecord
100
AcDbBlockTableRecord
  2
*D7
  0
BLOCK_RECORD
  5
e9
100
AcDbSymbolTableRecord
100
AcDbBlockTableRecord
  2
*D8
  0
BLOCK_RECORD
  5
ea
100
AcDbSymbolTableRecord
100
AcDbBlockTableRecord
  2
*D9
  0
BLOCK_RECORD
  5
eb
100
AcDbSymbolTableRecord
100
AcDbBlockTableRecord
  2
*D10
  0
BLOCK_RECORD
  5
ec
100
AcDbSymbolTableRecord
100
AcDbBlockTableRecord
  2
*D11
  0
BLOCK_RECORD
  5
ed
100
AcDbSymbolTableRecord
100
AcDbBlockTableRecord
  2
*D12
  0
BLOCK_RECORD
  5
ee
100
AcDbSymbolTableRecord
100
AcDbBlockTableRecord
  2
*D13
  0
BLOCK_RECORD
  5
ef
100
AcDbSymbolTableRecord
100
AcDbBlockTableRecord
  2
*D14
  0
BLOCK_RECORD
  5
f0
100
AcDbSymbolTableRecord
100
AcDbBlockTableRecord
  2
*D15
  0
BLOCK_RECORD
  5
f1
100
AcDbSymbolTableRecord
100
AcDbBlockTableRecord
  2
*D16
  0
BLOCK_RECORD
  5
f2
100
AcDbSymbolTableRecord
100
AcDbBlockTableRecord
  2
*D17
  0
BLOCK_RECORD
  5
f3
100
AcDbSymbolTableRecord
100
AcDbBlockTableRecord
  2
*D18
  0
BLOCK_RECORD
  5
f4
100
AcDbSymbolTableRecord
100
AcDbBlockTableRecord
  2
*D19
  0
BLOCK_RECORD
  5
f5
100
AcDbSymbolTableRecord
100
AcDbBlockTableRecord
  2
*D20
  0
BLOCK_RECORD
  5
f6
100
AcDbSymbolTableRecord
100
AcDbBlockTableRecord
  2
*D21
  0
BLOCK_RECORD
  5
f7
100
AcDbSymbolTableRecord
100
AcDbBlockTableRecord
  2
*D22
  0
BLOCK_RECORD
  5
f8
100
AcDbSymbolTableRecord
100
AcDbBlockTableRecord
  2
*D23
  0
BLOCK_RECORD
  5
f9
100
AcDbSymbolTableRecord
100
AcDbBlockTableRecord
  2
*D24
  0
BLOCK_RECORD
  5
fa
100
AcDbSymbolTableRecord
100
AcDbBlockTableRecord
  2
*D25
  0
BLOCK_RECORD
  5
fb
100
AcDbSymbolTableRecord
100
AcDbBlockTableRecord
  2
*D26
  0
BLOCK_RECORD
  5
fc
100
AcDbSymbolTableRecord
100
AcDbBlockTableRecord
  2
*D27
  0
BLOCK_RECORD
  5
fd
100
AcDbSymbolTableRecord
100
AcDbBlockTableRecord
  2
*D28
  0
BLOCK_RECORD
  5
fe
100
AcDbSymbolTableRecord
100
AcDbBlockTableRecord
  2
*D29
  0
BLOCK_RECORD
  5
ff
100
AcDbSymbolTableRecord
100
AcDbBlockTableRecord
  2
*D30
  0
BLOCK_RECORD
  5
100
100
AcDbSymbolTableRecord
100
AcDbBlockTableRecord
  2
*D31
  0
BLOCK_RECORD
  5
101
100
AcDbSymbolTableRecord
100
AcDbBlockTableRecord
  2
*D32
  0
BLOCK_RECORD
  5
102
100
AcDbSymbolTableRecord
100
AcDbBlockTableRecord
  2
*D33
  0
BLOCK_RECORD
  5
103
100
AcDbSymbolTableRecord
100
AcDbBlockTableRecord
  2
*D34
  0
BLOCK_RECORD
  5
104
100
AcDbSymbolTableRecord
100
AcDbBlockTableRecord
  2
*D35
  0
BLOCK_RECORD
  5
105
100
AcDbSymbolTableRecord
100
AcDbBlockTableRecord
  2
*D36
  0
ENDTAB
  0
TABLE
  2
VPORT
  5
106
100
AcDbSymbolTable
 70
     0
  0
ENDTAB
  0
ENDSEC
  0
SECTION
  2
BLOCKS
  0
BLOCK
  8
0
  5
107
100
AcDbEntity
100
AcDbBlockBegin
  2
*MODEL_SPACE
 70
     0
 10
0
 20
0
  3
*MODEL_SPACE
  0
ENDBLK
  8
0
  5
108
100
AcDbEntity
100
AcDbBlockEnd
  0
BLOCK
  8
0
  5
109
 67
     1
100
AcDbEntity
100
AcDbBlockBegin
  2
*PAPER_SPACE
 70
     0
 10
0
 20
0
  3
*PAPER_SPACE
  0
ENDBLK
  8
0
  5
10a
 67
     1
100
AcDbEntity
100
AcDbBlockEnd
  0
BLOCK
  8
0
  5
10b
100
AcDbEntity
100
AcDbBlockBegin
  2
_OPEN
 70
    64
 10
0
 20
0
  3
_OPEN
  0
LINE
  5
10c
100
AcDbEntity
  8
0
  6
BYBLOCK
 62
     0
100
AcDbLine
 10
0
 20
0
 11
-3.12799995302215
 21
-0.5619999915596265
  0
LINE
  5
10d
100
AcDbEntity
  8
0
  6
BYBLOCK
 62
     0
100
AcDbLine
 10
0
 20
0
 11
-3.127999953022157
 21
0.5619999915595884
  0
LINE
  5
10e
100
AcDbEntity
  8
0
  6
BYBLOCK
 62
     0
100
AcDbLine
 10
0
 20
0
 11
-2.99999995494452
 21
0
  0
ENDBLK
  8
0
  5
10f
100
AcDbEntity
100
AcDbBlockEnd
  0
BLOCK
  8
0
  5
110
100
AcDbEntity
100
AcDbBlockBegin
  2
_NONE
 70
    64
 10
0
 20
0
  3
_NONE
  0
CIRCLE
  5
111
100
AcDbEntity
  8
0
  6
BYBLOCK
 62
     0
100
AcDbCircle
 10
0
 20
0
 40
0.001
  0
ENDBLK
  8
0
  5
112
100
AcDbEntity
100
AcDbBlockEnd
  0
BLOCK
  8
0
  5
113
100
AcDbEntity
100
AcDbBlockBegin
  2
_OPEN30
 70
    64
 10
0
 20
0
  3
_OPEN30
  0
LINE
  5
114
100
AcDbEntity
  8
0
  6
BYBLOCK
 62
     0
100
AcDbLine
 10
0
 20
0
 11
-2.999999954944514
 21
-0.9999999849815249
  0
LINE
  5
115
100
AcDbEntity
  8
0
  6
BYBLOCK
 62
     0
100
AcDbLine
 10
0
 20
0
 11
-2.999999954944526
 21
0.9999999849814883
  0
LINE
  5
116
100
AcDbEntity
  8
0
  6
BYBLOCK
 62
     0
100
AcDbLine
 10
0
 20
0
 11
-2.99999995494452
 21
0
  0
ENDBLK
  8
0
  5
117
100
AcDbEntity
100
AcDbBlockEnd
  0
BLOCK
  8
0
  5
118
100
AcDbEntity
100
AcDbBlockBegin
  2
*D1
 70
    65
 10
0
 20
0
  0
LINE
  5
119
100
AcDbEntity
  8
0
  6
CONTINUOUS
 62
     7
100
AcDbLine
 10
-120.8153686973992
 20
165.9640502929688
 11
-109.8153686072883
 21
165.9640502929687
  0
INSERT
  5
11a
100
AcDbEntity
  8
0
  6
CONTINUOUS
 62
     7
100
AcDbBlockReference
  2
_OPEN30
 10
-123.8153686523438
 20
165.9640502929688
 41
1
 42
1
 43
1
 50
180.0000000000004
  0
INSERT
  5
11b
100
AcDbEntity
  8
0
  6
CONTINUOUS
 62
     7
100
AcDbBlockReference
  2
_OPEN30
 10
-106.8153686523438
 20
165.9640502929688
 41
1
 42
1
 43
1
  0
LINE
  5
11c
100
AcDbEntity
  8
0
  6
CONTINUOUS
 62
     7
100
AcDbLine
 10
-123.8153686523438
 20
149.7800445556641
 11
-123.8153686523438
 21
168.821044921875
  0
LINE
  5
11d
100
AcDbEntity
  8
0
  6
CONTINUOUS
 62
     7
100
AcDbLine
 10
-106.8153686523438
 20
153.6989135742188
 11
-106.8153686523438
 21
168.821044921875
  0
MTEXT
  5
11e
100
AcDbEntity
  8
0
  6
CONTINUOUS
 62
     7
100
AcDbMText
 10
-115.3153686523438
 20
165.9640502929688
 40
6
 41
48
 71
     8
 72
     1
  1
{\W0.864328;１７}
  0
POINT
  5
11f
100
AcDbEntity
  8
DEFPOINTS
  6
CONTINUOUS
 62
     7
100
AcDbPoint
 10
-123.8153686523438
 20
149.7800445556641
  0
POINT
  5
120
100
AcDbEntity
  8
DEFPOINTS
  6
CONTINUOUS
 62
     7
100
AcDbPoint
 10
-106.8153686523438
 20
153.6989135742188
  0
POINT
  5
121
100
AcDbEntity
  8
DEFPOINTS
  6
CONTINUOUS
 62
     7
100
AcDbPoint
 10
-106.8153686523438
 20
165.9640502929688
  0
ENDBLK
  8
0
  5
122
100
AcDbEntity
100
AcDbBlockEnd
  0
BLOCK
  8
0
  5
123
100
AcDbEntity
100
AcDbBlockBegin
  2
*D2
 70
    65
 10
0
 20
0
  0
LINE
  5
124
100
AcDbEntity
  8
0
  6
CONTINUOUS
 62
     7
100
AcDbLine
 10
89.18463139271174
 20
165.9640502929687
 11
78.18463130260076
 21
165.9640502929688
  0
INSERT
  5
125
100
AcDbEntity
  8
0
  6
CONTINUOUS
 62
     7
100
AcDbBlockReference
  2
_OPEN30
 10
92.18463134765625
 20
165.9640502929688
 41
1
 42
1
 43
1
  0
INSERT
  5
126
100
AcDbEntity
  8
0
  6
CONTINUOUS
 62
     7
100
AcDbBlockReference
  2
_OPEN30
 10
75.18463134765625
 20
165.9640502929688
 41
1
 42
1
 43
1
 50
180.0000000000004
  0
LINE
  5
127
100
AcDbEntity
  8
0
  6
CONTINUOUS
 62
     7
100
AcDbLine
 10
92.18463134765625
 20
149.7800445556641
 11
92.18463134765625
 21
168.821044921875
  0
LINE
  5
128
100
AcDbEntity
  8
0
  6
CONTINUOUS
 62
     7
100
AcDbLine
 10
75.18463134765625
 20
152.966552734375
 11
75.18463134765625
 21
168.821044921875
  0
MTEXT
  5
129
100
AcDbEntity
  8
0
  6
CONTINUOUS
 62
     7
100
AcDbMText
 10
83.68463134765625
 20
165.9640502929688
 40
6
 41
48
 71
     8
 72
     1
  1
{\W0.864328;１７}
  0
POINT
  5
12a
100
AcDbEntity
  8
DEFPOINTS
  6
CONTINUOUS
 62
     7
100
AcDbPoint
 10
92.18463134765625
 20
149.7800445556641
  0
POINT
  5
12b
100
AcDbEntity
  8
DEFPOINTS
  6
CONTINUOUS
 62
     7
100
AcDbPoint
 10
75.18463134765625
 20
152.966552734375
  0
POINT
  5
12c
100
AcDbEntity
  8
DEFPOINTS
  6
CONTINUOUS
 62
     7
100
AcDbPoint
 10
75.18463134765625
 20
165.9640502929688
  0
ENDBLK
  8
0
  5
12d
100
AcDbEntity
100
AcDbBlockEnd
  0
BLOCK
  8
0
  5
12e
100
AcDbEntity
100
AcDbBlockBegin
  2
*D3
 70
    65
 10
0
 20
0
  0
LINE
  5
12f
100
AcDbEntity
  8
0
  6
CONTINUOUS
 62
     7
100
AcDbLine
 10
-148.9484558105469
 20
80.78002925181951
 11
-148.9484558105469
 21
119.7800293419305
  0
INSERT
  5
130
100
AcDbEntity
  8
0
  6
CONTINUOUS
 62
     7
100
AcDbBlockReference
  2
_OPEN30
 10
-148.9484558105469
 20
77.780029296875
 41
1
 42
1
 43
1
 50
270.0000000000005
  0
INSERT
  5
131
100
AcDbEntity
  8
0
  6
CONTINUOUS
 62
     7
100
AcDbBlockReference
  2
_OPEN30
 10
-148.9484558105469
 20
122.780029296875
 41
1
 42
1
 43
1
 50
90.00000000000019
  0
LINE
  5
132
100
AcDbEntity
  8
0
  6
CONTINUOUS
 62
     7
100
AcDbLine
 10
-126.8153686523438
 20
77.78002166748047
 11
-151.8054504394531
 21
77.78002166748047
  0
LINE
  5
133
100
AcDbEntity
  8
0
  6
CONTINUOUS
 62
     7
100
AcDbLine
 10
-126.8153686523438
 20
122.7800216674805
 11
-151.8054504394531
 21
122.7800216674805
  0
MTEXT
  5
134
100
AcDbEntity
  8
0
  6
CONTINUOUS
 62
     7
100
AcDbMText
 10
-148.9484558105469
 20
100.2800216674805
 40
6
 41
132
 71
     8
 72
     1
  1
{\W0.855331;\U+2205４５}
 11
0
 21
1
  0
POINT
  5
135
100
AcDbEntity
  8
DEFPOINTS
  6
CONTINUOUS
 62
     7
100
AcDbPoint
 10
-126.8153686523438
 20
77.78002166748047
  0
POINT
  5
136
100
AcDbEntity
  8
DEFPOINTS
  6
CONTINUOUS
 62
     7
100
AcDbPoint
 10
-126.8153686523438
 20
122.7800216674805
  0
POINT
  5
137
100
AcDbEntity
  8
DEFPOINTS
  6
CONTINUOUS
 62
     7
100
AcDbPoint
 10
-148.9484558105469
 20
122.780029296875
  0
ENDBLK
  8
0
  5
138
100
AcDbEntity
100
AcDbBlockEnd
  0
BLOCK
  8
0
  5
139
100
AcDbEntity
100
AcDbBlockBegin
  2
*D4
 70
    65
 10
0
 20
0
  0
LINE
  5
13a
100
AcDbEntity
  8
0
  6
CONTINUOUS
 62
     7
100
AcDbLine
 10
89.18463139271174
 20
9.173545837402326
 11
-120.8153686973992
 21
9.173545837402344
  0
INSERT
  5
13b
100
AcDbEntity
  8
0
  6
CONTINUOUS
 62
     7
100
AcDbBlockReference
  2
_OPEN30
 10
92.18463134765625
 20
9.173545837402344
 41
1
 42
1
 43
1
  0
INSERT
  5
13c
100
AcDbEntity
  8
0
  6
CONTINUOUS
 62
     7
100
AcDbBlockReference
  2
_OPEN30
 10
-123.8153686523438
 20
9.173545837402344
 41
1
 42
1
 43
1
 50
180.0000000000004
  0
LINE
  5
13d
100
AcDbEntity
  8
0
  6
CONTINUOUS
 62
     7
100
AcDbLine
 10
-123.8153686523438
 20
50.78003692626953
 11
-123.8153686523438
 21
6.316545486450195
  0
MTEXT
  5
13e
100
AcDbEntity
  8
0
  6
CONTINUOUS
 62
     7
100
AcDbMText
 10
-15.81536865234375
 20
9.173545837402344
 40
6
 41
216
 71
     8
 72
     1
  1
{\W0.84495;１１６＋ストロ－ク}
  0
POINT
  5
13f
100
AcDbEntity
  8
DEFPOINTS
  6
CONTINUOUS
 62
     7
100
AcDbPoint
 10
92.18463134765625
 20
50.78003692626953
  0
POINT
  5
140
100
AcDbEntity
  8
DEFPOINTS
  6
CONTINUOUS
 62
     7
100
AcDbPoint
 10
-123.8153686523438
 20
50.78003692626953
  0
POINT
  5
141
100
AcDbEntity
  8
DEFPOINTS
  6
CONTINUOUS
 62
     7
100
AcDbPoint
 10
-123.8153686523438
 20
9.173545837402344
  0
ENDBLK
  8
0
  5
142
100
AcDbEntity
100
AcDbBlockEnd
  0
BLOCK
  8
0
  5
143
100
AcDbEntity
100
AcDbBlockBegin
  2
*D5
 70
    65
 10
0
 20
0
  0
LINE
  5
144
100
AcDbEntity
  8
0
  6
CONTINUOUS
 62
     7
100
AcDbLine
 10
141.1846465613898
 20
60.42560577392578
 11
148.1846313927117
 21
60.42560577392576
  0
INSERT
  5
145
100
AcDbEntity
  8
0
  6
CONTINUOUS
 62
     7
100
AcDbBlockReference
  2
_OPEN30
 10
138.1846466064453
 20
60.42560577392578
 41
1
 42
1
 43
1
 50
180.0000000000004
  0
INSERT
  5
146
100
AcDbEntity
  8
0
  6
CONTINUOUS
 62
     7
100
AcDbBlockReference
  2
_OPEN30
 10
151.1846313476563
 20
60.42560577392578
 41
1
 42
1
 43
1
  0
LINE
  5
147
100
AcDbEntity
  8
0
  6
CONTINUOUS
 62
     7
100
AcDbLine
 10
138.1846466064453
 20
86.38648986816406
 11
138.1846466064453
 21
57.56860733032227
  0
LINE
  5
148
100
AcDbEntity
  8
0
  6
CONTINUOUS
 62
     7
100
AcDbLine
 10
151.1846313476563
 20
86.38649749755859
 11
151.1846313476563
 21
57.56860733032227
  0
MTEXT
  5
149
100
AcDbEntity
  8
0
  6
CONTINUOUS
 62
     7
100
AcDbMText
 10
144.6846313476563
 20
60.42560577392578
 40
6
 41
48
 71
     8
 72
     1
  1
{\W0.864328;１３}
  0
POINT
  5
14a
100
AcDbEntity
  8
DEFPOINTS
  6
CONTINUOUS
 62
     7
100
AcDbPoint
 10
138.1846466064453
 20
86.38648986816406
  0
POINT
  5
14b
100
AcDbEntity
  8
DEFPOINTS
  6
CONTINUOUS
 62
     7
100
AcDbPoint
 10
151.1846313476563
 20
86.38649749755859
  0
POINT
  5
14c
100
AcDbEntity
  8
DEFPOINTS
  6
CONTINUOUS
 62
     7
100
AcDbPoint
 10
151.1846313476563
 20
60.42560577392578
  0
ENDBLK
  8
0
  5
14d
100
AcDbEntity
100
AcDbBlockEnd
  0
BLOCK
  8
0
  5
14e
100
AcDbEntity
100
AcDbBlockBegin
  2
*D6
 70
    65
 10
0
 20
0
  0
LINE
  5
14f
100
AcDbEntity
  8
0
  6
CONTINUOUS
 62
     7
100
AcDbLine
 10
-124.8153686973992
 20
-6.253509521484375
 11
160.1846466515008
 21
-6.253509521484394
  0
INSERT
  5
150
100
AcDbEntity
  8
0
  6
CONTINUOUS
 62
     7
100
AcDbBlockReference
  2
_OPEN30
 10
-127.8153686523438
 20
-6.253509521484375
 41
1
 42
1
 43
1
 50
180.0000000000004
  0
INSERT
  5
151
100
AcDbEntity
  8
0
  6
CONTINUOUS
 62
     7
100
AcDbBlockReference
  2
_OPEN30
 10
163.1846466064453
 20
-6.253509521484375
 41
1
 42
1
 43
1
  0
LINE
  5
152
100
AcDbEntity
  8
0
  6
CONTINUOUS
 62
     7
100
AcDbLine
 10
-127.8153686523438
 20
78.780029296875
 11
-127.8153686523438
 21
-9.110509872436523
  0
LINE
  5
153
100
AcDbEntity
  8
0
  6
CONTINUOUS
 62
     7
100
AcDbLine
 10
163.1846466064453
 20
90.28003692626953
 11
163.1846466064453
 21
-9.110509872436523
  0
MTEXT
  5
154
100
AcDbEntity
  8
0
  6
CONTINUOUS
 62
     7
100
AcDbMText
 10
17.68463134765625
 20
-6.253509521484375
 40
6
 41
216
 71
     8
 72
     1
  1
{\W0.84495;１９１＋ストロ－ク}
  0
POINT
  5
155
100
AcDbEntity
  8
DEFPOINTS
  6
CONTINUOUS
 62
     7
100
AcDbPoint
 10
-127.8153686523438
 20
78.780029296875
  0
POINT
  5
156
100
AcDbEntity
  8
DEFPOINTS
  6
CONTINUOUS
 62
     7
100
AcDbPoint
 10
163.1846466064453
 20
90.28003692626953
  0
POINT
  5
157
100
AcDbEntity
  8
DEFPOINTS
  6
CONTINUOUS
 62
     7
100
AcDbPoint
 10
163.1846466064453
 20
-6.253509521484375
  0
ENDBLK
  8
0
  5
158
100
AcDbEntity
100
AcDbBlockEnd
  0
BLOCK
  8
0
  5
159
100
AcDbEntity
100
AcDbBlockBegin
  2
*D7
 70
    65
 10
0
 20
0
  0
LINE
  5
15a
100
AcDbEntity
  8
0
  6
CONTINUOUS
 62
     7
100
AcDbLine
 10
115.5861358642578
 20
112.7800445556641
 11
115.5861358642578
 21
143.1961669921875
  0
LINE
  5
15b
100
AcDbEntity
  8
0
  6
CONTINUOUS
 62
     7
100
AcDbLine
 10
115.5861358642578
 20
90.78003688121405
 11
115.5861358642578
 21
109.7800446007196
  0
INSERT
  5
15c
100
AcDbEntity
  8
0
  6
CONTINUOUS
 62
     7
100
AcDbBlockReference
  2
_OPEN30
 10
115.5861358642578
 20
87.78003692626953
 41
1
 42
1
 43
1
 50
270.0000000000005
  0
INSERT
  5
15d
100
AcDbEntity
  8
0
  6
CONTINUOUS
 62
     7
100
AcDbBlockReference
  2
_OPEN30
 10
115.5861358642578
 20
112.7800445556641
 41
1
 42
1
 43
1
 50
90.00000000000019
  0
LINE
  5
15e
100
AcDbEntity
  8
0
  6
CONTINUOUS
 62
     7
100
AcDbLine
 10
120.5865631103516
 20
87.78003692626953
 11
112.729133605957
 21
87.78003692626953
  0
LINE
  5
15f
100
AcDbEntity
  8
0
  6
CONTINUOUS
 62
     7
100
AcDbLine
 10
120.5865631103516
 20
112.7800521850586
 11
112.729133605957
 21
112.7800521850586
  0
MTEXT
  5
160
100
AcDbEntity
  8
0
  6
CONTINUOUS
 62
     7
100
AcDbMText
 10
115.5861358642578
 20
135.0534362792969
 40
6
 41
132
 71
     8
 72
     1
  1
{\W0.855331;\U+2205２５}
 11
0
 21
1
  0
POINT
  5
161
100
AcDbEntity
  8
DEFPOINTS
  6
CONTINUOUS
 62
     7
100
AcDbPoint
 10
120.5865631103516
 20
87.78003692626953
  0
POINT
  5
162
100
AcDbEntity
  8
DEFPOINTS
  6
CONTINUOUS
 62
     7
100
AcDbPoint
 10
120.5865631103516
 20
112.7800521850586
  0
POINT
  5
163
100
AcDbEntity
  8
DEFPOINTS
  6
CONTINUOUS
 62
     7
100
AcDbPoint
 10
115.5861358642578
 20
112.7800445556641
  0
ENDBLK
  8
0
  5
164
100
AcDbEntity
100
AcDbBlockEnd
  0
BLOCK
  8
0
  5
165
100
AcDbEntity
100
AcDbBlockBegin
  2
*D8
 70
    65
 10
0
 20
0
  0
LINE
  5
166
100
AcDbEntity
  8
0
  6
CONTINUOUS
 62
     7
100
AcDbLine
 10
95.18463130260076
 20
9.173545837402344
 11
120.1846466515008
 21
9.173545837402326
  0
INSERT
  5
167
100
AcDbEntity
  8
0
  6
CONTINUOUS
 62
     7
100
AcDbBlockReference
  2
_OPEN30
 10
92.18463134765625
 20
9.173545837402344
 41
1
 42
1
 43
1
 50
180.0000000000004
  0
INSERT
  5
168
100
AcDbEntity
  8
0
  6
CONTINUOUS
 62
     7
100
AcDbBlockReference
  2
_OPEN30
 10
123.1846466064453
 20
9.173545837402344
 41
1
 42
1
 43
1
  0
LINE
  5
169
100
AcDbEntity
  8
0
  6
CONTINUOUS
 62
     7
100
AcDbLine
 10
92.18463134765625
 20
50.78003692626953
 11
92.18463134765625
 21
6.316545486450195
  0
LINE
  5
16a
100
AcDbEntity
  8
0
  6
CONTINUOUS
 62
     7
100
AcDbLine
 10
123.1846466064453
 20
89.28005218505859
 11
123.1846466064453
 21
6.316545486450195
  0
MTEXT
  5
16b
100
AcDbEntity
  8
0
  6
CONTINUOUS
 62
     7
100
AcDbMText
 10
107.6846313476563
 20
9.173545837402344
 40
6
 41
48
 71
     8
 72
     1
  1
{\W0.864328;３１}
  0
POINT
  5
16c
100
AcDbEntity
  8
DEFPOINTS
  6
CONTINUOUS
 62
     7
100
AcDbPoint
 10
92.18463134765625
 20
50.78003692626953
  0
POINT
  5
16d
100
AcDbEntity
  8
DEFPOINTS
  6
CONTINUOUS
 62
     7
100
AcDbPoint
 10
123.1846466064453
 20
89.28005218505859
  0
POINT
  5
16e
100
AcDbEntity
  8
DEFPOINTS
  6
CONTINUOUS
 62
     7
100
AcDbPoint
 10
123.1846466064453
 20
9.173545837402344
  0
ENDBLK
  8
0
  5
16f
100
AcDbEntity
100
AcDbBlockEnd
  0
BLOCK
  8
0
  5
170
100
AcDbEntity
100
AcDbBlockBegin
  2
*D9
 70
    65
 10
0
 20
0
  0
LINE
  5
171
100
AcDbEntity
  8
0
  6
CONTINUOUS
 62
     7
100
AcDbLine
 10
126.1846465613898
 20
9.173545837402344
 11
160.1846466515008
 21
9.173545837402326
  0
INSERT
  5
172
100
AcDbEntity
  8
0
  6
CONTINUOUS
 62
     7
100
AcDbBlockReference
  2
_OPEN30
 10
123.1846466064453
 20
9.173545837402344
 41
1
 42
1
 43
1
 50
180.0000000000004
  0
INSERT
  5
173
100
AcDbEntity
  8
0
  6
CONTINUOUS
 62
     7
100
AcDbBlockReference
  2
_OPEN30
 10
163.1846466064453
 20
9.173545837402344
 41
1
 42
1
 43
1
  0
LINE
  5
174
100
AcDbEntity
  8
0
  6
CONTINUOUS
 62
     7
100
AcDbLine
 10
163.1846466064453
 20
90.28003692626953
 11
163.1846466064453
 21
6.316545486450195
  0
MTEXT
  5
175
100
AcDbEntity
  8
0
  6
CONTINUOUS
 62
     7
100
AcDbMText
 10
143.1846466064453
 20
9.173545837402344
 40
6
 41
48
 71
     8
 72
     1
  1
{\W0.864328;４０}
  0
POINT
  5
176
100
AcDbEntity
  8
DEFPOINTS
  6
CONTINUOUS
 62
     7
100
AcDbPoint
 10
123.1846466064453
 20
89.28005218505859
  0
POINT
  5
177
100
AcDbEntity
  8
DEFPOINTS
  6
CONTINUOUS
 62
     7
100
AcDbPoint
 10
163.1846466064453
 20
90.28003692626953
  0
POINT
  5
178
100
AcDbEntity
  8
DEFPOINTS
  6
CONTINUOUS
 62
     7
100
AcDbPoint
 10
163.1846466064453
 20
9.173545837402344
  0
ENDBLK
  8
0
  5
179
100
AcDbEntity
100
AcDbBlockEnd
  0
BLOCK
  8
0
  5
17a
100
AcDbEntity
100
AcDbBlockBegin
  2
*D10
 70
    65
 10
0
 20
0
  0
LINE
  5
17b
100
AcDbEntity
  8
0
  6
CONTINUOUS
 62
     7
100
AcDbLine
 10
160.1846466515008
 20
23.42415618896483
 11
129.1846313026008
 21
23.42415618896484
  0
INSERT
  5
17c
100
AcDbEntity
  8
0
  6
CONTINUOUS
 62
     7
100
AcDbBlockReference
  2
_OPEN30
 10
163.1846466064453
 20
23.42415618896484
 41
1
 42
1
 43
1
  0
INSERT
  5
17d
100
AcDbEntity
  8
0
  6
CONTINUOUS
 62
     7
100
AcDbBlockReference
  2
_OPEN30
 10
126.1846313476563
 20
23.42415618896484
 41
1
 42
1
 43
1
 50
180.0000000000004
  0
LINE
  5
17e
100
AcDbEntity
  8
0
  6
CONTINUOUS
 62
     7
100
AcDbLine
 10
163.1846466064453
 20
90.28003692626953
 11
163.1846466064453
 21
20.56715202331543
  0
LINE
  5
17f
100
AcDbEntity
  8
0
  6
CONTINUOUS
 62
     7
100
AcDbLine
 10
126.1846313476563
 20
89.28003692626953
 11
126.1846313476563
 21
20.56715202331543
  0
MTEXT
  5
180
100
AcDbEntity
  8
0
  6
CONTINUOUS
 62
     7
100
AcDbMText
 10
144.6846313476563
 20
23.42415618896484
 40
6
 41
48
 71
     8
 72
     1
  1
{\W0.864328;３７}
  0
POINT
  5
181
100
AcDbEntity
  8
DEFPOINTS
  6
CONTINUOUS
 62
     7
100
AcDbPoint
 10
163.1846466064453
 20
90.28003692626953
  0
POINT
  5
182
100
AcDbEntity
  8
DEFPOINTS
  6
CONTINUOUS
 62
     7
100
AcDbPoint
 10
126.1846313476563
 20
89.28003692626953
  0
POINT
  5
183
100
AcDbEntity
  8
DEFPOINTS
  6
CONTINUOUS
 62
     7
100
AcDbPoint
 10
126.1846313476563
 20
23.42415618896484
  0
ENDBLK
  8
0
  5
184
100
AcDbEntity
100
AcDbBlockEnd
  0
BLOCK
  8
0
  5
185
100
AcDbEntity
100
AcDbBlockBegin
  2
*D11
 70
    65
 10
0
 20
0
  0
LINE
  5
186
100
AcDbEntity
  8
0
  6
CONTINUOUS
 62
     7
100
AcDbLine
 10
-120.8153686973992
 20
23.42415618896484
 11
-92.81536860728826
 21
23.42415618896483
  0
INSERT
  5
187
100
AcDbEntity
  8
0
  6
CONTINUOUS
 62
     7
100
AcDbBlockReference
  2
_OPEN30
 10
-123.8153686523438
 20
23.42415618896484
 41
1
 42
1
 43
1
 50
180.0000000000004
  0
INSERT
  5
188
100
AcDbEntity
  8
0
  6
CONTINUOUS
 62
     7
100
AcDbBlockReference
  2
_OPEN30
 10
-89.81536865234375
 20
23.42415618896484
 41
1
 42
1
 43
1
  0
LINE
  5
189
100
AcDbEntity
  8
0
  6
CONTINUOUS
 62
     7
100
AcDbLine
 10
-123.8153686523438
 20
50.78003692626953
 11
-123.8153686523438
 21
20.56715202331543
  0
LINE
  5
18a
100
AcDbEntity
  8
0
  6
CONTINUOUS
 62
     7
100
AcDbLine
 10
-89.81536865234375
 20
50.78003692626953
 11
-89.81536865234375
 21
20.56715202331543
  0
MTEXT
  5
18b
100
AcDbEntity
  8
0
  6
CONTINUOUS
 62
     7
100
AcDbMText
 10
-106.8153686523438
 20
23.42415618896484
 40
6
 41
48
 71
     8
 72
     1
  1
{\W0.864328;３４}
  0
POINT
  5
18c
100
AcDbEntity
  8
DEFPOINTS
  6
CONTINUOUS
 62
     7
100
AcDbPoint
 10
-123.8153686523438
 20
50.78003692626953
  0
POINT
  5
18d
100
AcDbEntity
  8
DEFPOINTS
  6
CONTINUOUS
 62
     7
100
AcDbPoint
 10
-89.81536865234375
 20
50.78003692626953
  0
POINT
  5
18e
100
AcDbEntity
  8
DEFPOINTS
  6
CONTINUOUS
 62
     7
100
AcDbPoint
 10
-89.81536865234375
 20
23.42415618896484
  0
ENDBLK
  8
0
  5
18f
100
AcDbEntity
100
AcDbBlockEnd
  0
BLOCK
  8
0
  5
190
100
AcDbEntity
100
AcDbBlockBegin
  2
*D12
 70
    65
 10
0
 20
0
  0
LINE
  5
191
100
AcDbEntity
  8
0
  6
CONTINUOUS
 62
     7
100
AcDbLine
 10
61.18463130260077
 20
23.42415618896484
 11
89.18463139271174
 21
23.42415618896483
  0
INSERT
  5
192
100
AcDbEntity
  8
0
  6
CONTINUOUS
 62
     7
100
AcDbBlockReference
  2
_OPEN30
 10
58.18463134765625
 20
23.42415618896484
 41
1
 42
1
 43
1
 50
180.0000000000004
  0
INSERT
  5
193
100
AcDbEntity
  8
0
  6
CONTINUOUS
 62
     7
100
AcDbBlockReference
  2
_OPEN30
 10
92.18463134765625
 20
23.42415618896484
 41
1
 42
1
 43
1
  0
LINE
  5
194
100
AcDbEntity
  8
0
  6
CONTINUOUS
 62
     7
100
AcDbLine
 10
58.18463134765625
 20
50.78003692626953
 11
58.18463134765625
 21
20.56715202331543
  0
LINE
  5
195
100
AcDbEntity
  8
0
  6
CONTINUOUS
 62
     7
100
AcDbLine
 10
92.18463134765625
 20
50.78003692626953
 11
92.18463134765625
 21
20.56715202331543
  0
MTEXT
  5
196
100
AcDbEntity
  8
0
  6
CONTINUOUS
 62
     7
100
AcDbMText
 10
75.18463134765625
 20
23.42415618896484
 40
6
 41
48
 71
     8
 72
     1
  1
{\W0.864328;３４}
  0
POINT
  5
197
100
AcDbEntity
  8
DEFPOINTS
  6
CONTINUOUS
 62
     7
100
AcDbPoint
 10
58.18463134765625
 20
50.78003692626953
  0
POINT
  5
198
100
AcDbEntity
  8
DEFPOINTS
  6
CONTINUOUS
 62
     7
100
AcDbPoint
 10
92.18463134765625
 20
50.78003692626953
  0
POINT
  5
199
100
AcDbEntity
  8
DEFPOINTS
  6
CONTINUOUS
 62
     7
100
AcDbPoint
 10
92.18463134765625
 20
23.42415618896484
  0
ENDBLK
  8
0
  5
19a
100
AcDbEntity
100
AcDbBlockEnd
  0
BLOCK
  8
0
  5
19b
100
AcDbEntity
100
AcDbBlockBegin
  2
*D13
 70
    65
 10
0
 20
0
  0
LINE
  5
19c
100
AcDbEntity
  8
0
  6
CONTINUOUS
 62
     7
100
AcDbLine
 10
95.18463130260076
 20
23.42415618896484
 11
104.1846313927117
 21
23.42415618896483
  0
INSERT
  5
19d
100
AcDbEntity
  8
0
  6
CONTINUOUS
 62
     7
100
AcDbBlockReference
  2
_OPEN30
 10
92.18463134765625
 20
23.42415618896484
 41
1
 42
1
 43
1
 50
180.0000000000004
  0
INSERT
  5
19e
100
AcDbEntity
  8
0
  6
CONTINUOUS
 62
     7
100
AcDbBlockReference
  2
_OPEN30
 10
107.1846313476563
 20
23.42415618896484
 41
1
 42
1
 43
1
  0
LINE
  5
19f
100
AcDbEntity
  8
0
  6
CONTINUOUS
 62
     7
100
AcDbLine
 10
107.1846313476563
 20
78.48004150390625
 11
107.1846313476563
 21
20.56715202331543
  0
MTEXT
  5
1a0
100
AcDbEntity
  8
0
  6
CONTINUOUS
 62
     7
100
AcDbMText
 10
99.68463134765625
 20
23.42415618896484
 40
6
 41
48
 71
     8
 72
     1
  1
{\W0.864328;１５}
  0
POINT
  5
1a1
100
AcDbEntity
  8
DEFPOINTS
  6
CONTINUOUS
 62
     7
100
AcDbPoint
 10
92.18463134765625
 20
50.78003692626953
  0
POINT
  5
1a2
100
AcDbEntity
  8
DEFPOINTS
  6
CONTINUOUS
 62
     7
100
AcDbPoint
 10
107.1846313476563
 20
78.48004150390625
  0
POINT
  5
1a3
100
AcDbEntity
  8
DEFPOINTS
  6
CONTINUOUS
 62
     7
100
AcDbPoint
 10
107.1846313476563
 20
23.42415618896484
  0
ENDBLK
  8
0
  5
1a4
100
AcDbEntity
100
AcDbBlockEnd
  0
BLOCK
  8
0
  5
1a5
100
AcDbEntity
100
AcDbBlockBegin
  2
*D14
 70
    65
 10
0
 20
0
  0
LINE
  5
1a6
100
AcDbEntity
  8
0
  6
CONTINUOUS
 62
     7
100
AcDbLine
 10
-283.0482788536492
 20
23.42415618896484
 11
-215.0482482459601
 21
23.42415618896483
  0
INSERT
  5
1a7
100
AcDbEntity
  8
0
  6
CONTINUOUS
 62
     7
100
AcDbBlockReference
  2
_OPEN30
 10
-286.0482788085938
 20
23.42415618896484
 41
1
 42
1
 43
1
 50
180.0000000000004
  0
INSERT
  5
1a8
100
AcDbEntity
  8
0
  6
CONTINUOUS
 62
     7
100
AcDbBlockReference
  2
_OPEN30
 10
-212.0482482910156
 20
23.42415618896484
 41
1
 42
1
 43
1
  0
LINE
  5
1a9
100
AcDbEntity
  8
0
  6
CONTINUOUS
 62
     7
100
AcDbLine
 10
-286.0482788085938
 20
53.030029296875
 11
-286.0482788085938
 21
20.56715202331543
  0
LINE
  5
1aa
100
AcDbEntity
  8
0
  6
CONTINUOUS
 62
     7
100
AcDbLine
 10
-212.0482177734375
 20
53.030029296875
 11
-212.0482177734375
 21
20.56715202331543
  0
MTEXT
  5
1ab
100
AcDbEntity
  8
0
  6
CONTINUOUS
 62
     7
100
AcDbMText
 10
-249.0482788085938
 20
23.42415618896484
 40
6
 41
72
 71
     8
 72
     1
  1
{\W0.855331;□７４}
  0
POINT
  5
1ac
100
AcDbEntity
  8
DEFPOINTS
  6
CONTINUOUS
 62
     7
100
AcDbPoint
 10
-286.0482788085938
 20
53.030029296875
  0
POINT
  5
1ad
100
AcDbEntity
  8
DEFPOINTS
  6
CONTINUOUS
 62
     7
100
AcDbPoint
 10
-212.0482177734375
 20
53.030029296875
  0
POINT
  5
1ae
100
AcDbEntity
  8
DEFPOINTS
  6
CONTINUOUS
 62
     7
100
AcDbPoint
 10
-212.0482482910156
 20
23.42415618896484
  0
ENDBLK
  8
0
  5
1af
100
AcDbEntity
100
AcDbBlockEnd
  0
BLOCK
  8
0
  5
1b0
100
AcDbEntity
100
AcDbBlockBegin
  2
*D15
 70
    65
 10
0
 20
0
  0
LINE
  5
1b1
100
AcDbEntity
  8
0
  6
CONTINUOUS
 62
     7
100
AcDbLine
 10
263.4175109412727
 20
23.42415618896484
 11
331.4175110313836
 21
23.42415618896483
  0
INSERT
  5
1b2
100
AcDbEntity
  8
0
  6
CONTINUOUS
 62
     7
100
AcDbBlockReference
  2
_OPEN30
 10
260.4175109863281
 20
23.42415618896484
 41
1
 42
1
 43
1
 50
180.0000000000004
  0
INSERT
  5
1b3
100
AcDbEntity
  8
0
  6
CONTINUOUS
 62
     7
100
AcDbBlockReference
  2
_OPEN30
 10
334.4175109863281
 20
23.42415618896484
 41
1
 42
1
 43
1
  0
LINE
  5
1b4
100
AcDbEntity
  8
0
  6
CONTINUOUS
 62
     7
100
AcDbLine
 10
260.4175109863281
 20
53.030029296875
 11
260.4175109863281
 21
20.56715202331543
  0
LINE
  5
1b5
100
AcDbEntity
  8
0
  6
CONTINUOUS
 62
     7
100
AcDbLine
 10
334.4175109863281
 20
53.030029296875
 11
334.4175109863281
 21
20.56715202331543
  0
MTEXT
  5
1b6
100
AcDbEntity
  8
0
  6
CONTINUOUS
 62
     7
100
AcDbMText
 10
297.4175109863281
 20
23.42415618896484
 40
6
 41
72
 71
     8
 72
     1
  1
{\W0.855331;□７４}
  0
POINT
  5
1b7
100
AcDbEntity
  8
DEFPOINTS
  6
CONTINUOUS
 62
     7
100
AcDbPoint
 10
260.4175109863281
 20
53.030029296875
  0
POINT
  5
1b8
100
AcDbEntity
  8
DEFPOINTS
  6
CONTINUOUS
 62
     7
100
AcDbPoint
 10
334.4175109863281
 20
53.030029296875
  0
POINT
  5
1b9
100
AcDbEntity
  8
DEFPOINTS
  6
CONTINUOUS
 62
     7
100
AcDbPoint
 10
334.4175109863281
 20
23.42415618896484
  0
ENDBLK
  8
0
  5
1ba
100
AcDbEntity
100
AcDbBlockEnd
  0
BLOCK
  8
0
  5
1bb
100
AcDbEntity
100
AcDbBlockBegin
  2
*D16
 70
    65
 10
0
 20
0
  0
LINE
  5
1bc
100
AcDbEntity
  8
0
  6
CONTINUOUS
 62
     7
100
AcDbLine
 10
250.4175109412726
 20
9.173545837402344
 11
344.4175110313836
 21
9.173545837402326
  0
INSERT
  5
1bd
100
AcDbEntity
  8
0
  6
CONTINUOUS
 62
     7
100
AcDbBlockReference
  2
_OPEN30
 10
247.4175109863281
 20
9.173545837402344
 41
1
 42
1
 43
1
 50
180.0000000000004
  0
INSERT
  5
1be
100
AcDbEntity
  8
0
  6
CONTINUOUS
 62
     7
100
AcDbBlockReference
  2
_OPEN30
 10
347.4175109863281
 20
9.173545837402344
 41
1
 42
1
 43
1
  0
LINE
  5
1bf
100
AcDbEntity
  8
0
  6
CONTINUOUS
 62
     7
100
AcDbLine
 10
247.4175109863281
 20
58.280029296875
 11
247.4175109863281
 21
6.316545486450195
  0
LINE
  5
1c0
100
AcDbEntity
  8
0
  6
CONTINUOUS
 62
     7
100
AcDbLine
 10
347.4175109863281
 20
58.280029296875
 11
347.4175109863281
 21
6.316545486450195
  0
MTEXT
  5
1c1
100
AcDbEntity
  8
0
  6
CONTINUOUS
 62
     7
100
AcDbMText
 10
297.4175109863281
 20
9.173545837402344
 40
6
 41
96
 71
     8
 72
     1
  1
{\W0.851241;□１００}
  0
POINT
  5
1c2
100
AcDbEntity
  8
DEFPOINTS
  6
CONTINUOUS
 62
     7
100
AcDbPoint
 10
247.4175109863281
 20
58.280029296875
  0
POINT
  5
1c3
100
AcDbEntity
  8
DEFPOINTS
  6
CONTINUOUS
 62
     7
100
AcDbPoint
 10
347.4175109863281
 20
58.280029296875
  0
POINT
  5
1c4
100
AcDbEntity
  8
DEFPOINTS
  6
CONTINUOUS
 62
     7
100
AcDbPoint
 10
347.4175109863281
 20
9.173545837402344
  0
ENDBLK
  8
0
  5
1c5
100
AcDbEntity
100
AcDbBlockEnd
  0
BLOCK
  8
0
  5
1c6
100
AcDbEntity
100
AcDbBlockBegin
  2
*D17
 70
    65
 10
0
 20
0
  0
LINE
  5
1c7
100
AcDbEntity
  8
0
  6
CONTINUOUS
 62
     7
100
AcDbLine
 10
-53.58401489257813
 20
-263.9563904259148
 11
-53.5840148925781
 21
-233.9563903358039
  0
INSERT
  5
1c8
100
AcDbEntity
  8
0
  6
CONTINUOUS
 62
     7
100
AcDbBlockReference
  2
_OPEN30
 10
-53.58401489257813
 20
-266.9563903808594
 41
1
 42
1
 43
1
 50
270.0000000000005
  0
INSERT
  5
1c9
100
AcDbEntity
  8
0
  6
CONTINUOUS
 62
     7
100
AcDbBlockReference
  2
_OPEN30
 10
-53.58401489257813
 20
-230.9563903808594
 41
1
 42
1
 43
1
 50
90.00000000000019
  0
LINE
  5
1ca
100
AcDbEntity
  8
0
  6
CONTINUOUS
 62
     7
100
AcDbLine
 10
-90.81535339355469
 20
-266.9563903808594
 11
-50.72702026367188
 21
-266.9563903808594
  0
LINE
  5
1cb
100
AcDbEntity
  8
0
  6
CONTINUOUS
 62
     7
100
AcDbLine
 10
-90.81535339355469
 20
-230.9563903808594
 11
-50.72702026367188
 21
-230.9563903808594
  0
MTEXT
  5
1cc
100
AcDbEntity
  8
0
  6
CONTINUOUS
 62
     7
100
AcDbMText
 10
-53.58401489257813
 20
-248.9563903808594
 40
6
 41
132
 71
     8
 72
     1
  1
{\W0.855331;\U+2205３６}
 11
0
 21
1
  0
POINT
  5
1cd
100
AcDbEntity
  8
DEFPOINTS
  6
CONTINUOUS
 62
     7
100
AcDbPoint
 10
-90.81535339355469
 20
-266.9563903808594
  0
POINT
  5
1ce
100
AcDbEntity
  8
DEFPOINTS
  6
CONTINUOUS
 62
     7
100
AcDbPoint
 10
-90.81535339355469
 20
-230.9563903808594
  0
POINT
  5
1cf
100
AcDbEntity
  8
DEFPOINTS
  6
CONTINUOUS
 62
     7
100
AcDbPoint
 10
-53.58401489257813
 20
-230.9563903808594
  0
ENDBLK
  8
0
  5
1d0
100
AcDbEntity
100
AcDbBlockEnd
  0
BLOCK
  8
0
  5
1d1
100
AcDbEntity
100
AcDbBlockBegin
  2
*D18
 70
    65
 10
0
 20
0
  0
LINE
  5
1d2
100
AcDbEntity
  8
0
  6
CONTINUOUS
 62
     7
100
AcDbLine
 10
-102.3153686072883
 20
-291.5811947541414
 11
-185.3153686973992
 21
-291.5811947541414
  0
INSERT
  5
1d3
100
AcDbEntity
  8
0
  6
CONTINUOUS
 62
     7
100
AcDbBlockReference
  2
_OPEN30
 10
-99.31536865234375
 20
-291.5811947541414
 41
1
 42
1
 43
1
  0
INSERT
  5
1d4
100
AcDbEntity
  8
0
  6
CONTINUOUS
 62
     7
100
AcDbBlockReference
  2
_OPEN30
 10
-188.3153686523438
 20
-291.5811947541414
 41
1
 42
1
 43
1
 50
180.0000000000004
  0
LINE
  5
1d5
100
AcDbEntity
  8
0
  6
CONTINUOUS
 62
     7
100
AcDbLine
 10
-99.31536865234375
 20
-270.6380310058594
 11
-99.31536865234375
 21
-293.8671947541414
  0
LINE
  5
1d6
100
AcDbEntity
  8
0
  6
CONTINUOUS
 62
     7
100
AcDbLine
 10
-188.3153686523438
 20
-259.9563903808594
 11
-188.3153686523438
 21
-293.8671947541414
  0
MTEXT
  5
1d7
100
AcDbEntity
  8
0
  6
CONTINUOUS
 62
     7
100
AcDbMText
 10
-143.8153686523438
 20
-291.5811947541414
 40
6
 41
48
 71
     8
 72
     1
  1
{\W0.864328;８９}
  0
POINT
  5
1d8
100
AcDbEntity
  8
DEFPOINTS
  6
CONTINUOUS
 62
     7
100
AcDbPoint
 10
-99.31536865234375
 20
-270.6380310058594
  0
POINT
  5
1d9
100
AcDbEntity
  8
DEFPOINTS
  6
CONTINUOUS
 62
     7
100
AcDbPoint
 10
-188.3153686523438
 20
-259.9563903808594
  0
POINT
  5
1da
100
AcDbEntity
  8
DEFPOINTS
  6
CONTINUOUS
 62
     7
100
AcDbPoint
 10
-188.3153686523438
 20
-291.5811947541414
  0
ENDBLK
  8
0
  5
1db
100
AcDbEntity
100
AcDbBlockEnd
  0
BLOCK
  8
0
  5
1dc
100
AcDbEntity
100
AcDbBlockBegin
  2
*D19
 70
    65
 10
0
 20
0
  0
LINE
  5
1dd
100
AcDbEntity
  8
0
  6
CONTINUOUS
 62
     7
100
AcDbLine
 10
-83.31536860728826
 20
-420.3521728515625
 11
-167.3153381798211
 21
-420.3521728515625
  0
INSERT
  5
1de
100
AcDbEntity
  8
0
  6
CONTINUOUS
 62
     7
100
AcDbBlockReference
  2
_OPEN30
 10
-80.31536865234375
 20
-420.3521728515625
 41
1
 42
1
 43
1
  0
INSERT
  5
1df
100
AcDbEntity
  8
0
  6
CONTINUOUS
 62
     7
100
AcDbBlockReference
  2
_OPEN30
 10
-170.3153381347656
 20
-420.3521728515625
 41
1
 42
1
 43
1
 50
180.0000000000004
  0
LINE
  5
1e0
100
AcDbEntity
  8
0
  6
CONTINUOUS
 62
     7
100
AcDbLine
 10
-80.31536865234375
 20
-374.605712890625
 11
-80.31536865234375
 21
-423.2091674804688
  0
LINE
  5
1e1
100
AcDbEntity
  8
0
  6
CONTINUOUS
 62
     7
100
AcDbLine
 10
-170.3153381347656
 20
-377.105712890625
 11
-170.3153381347656
 21
-423.2091674804688
  0
MTEXT
  5
1e2
100
AcDbEntity
  8
0
  6
CONTINUOUS
 62
     7
100
AcDbMText
 10
-125.3153533935547
 20
-420.3521728515625
 40
6
 41
48
 71
     8
 72
     1
  1
{\W0.864328;９０}
  0
POINT
  5
1e3
100
AcDbEntity
  8
DEFPOINTS
  6
CONTINUOUS
 62
     7
100
AcDbPoint
 10
-80.31536865234375
 20
-374.605712890625
  0
POINT
  5
1e4
100
AcDbEntity
  8
DEFPOINTS
  6
CONTINUOUS
 62
     7
100
AcDbPoint
 10
-170.3153381347656
 20
-377.105712890625
  0
POINT
  5
1e5
100
AcDbEntity
  8
DEFPOINTS
  6
CONTINUOUS
 62
     7
100
AcDbPoint
 10
-170.3153381347656
 20
-420.3521728515625
  0
ENDBLK
  8
0
  5
1e6
100
AcDbEntity
100
AcDbBlockEnd
  0
BLOCK
  8
0
  5
1e7
100
AcDbEntity
100
AcDbBlockBegin
  2
*D20
 70
    65
 10
0
 20
0
  0
LINE
  5
1e8
100
AcDbEntity
  8
0
  6
CONTINUOUS
 62
     7
100
AcDbLine
 10
-53.58401489257813
 20
-371.6057129356805
 11
-53.5840148925781
 21
-349.6057128455695
  0
INSERT
  5
1e9
100
AcDbEntity
  8
0
  6
CONTINUOUS
 62
     7
100
AcDbBlockReference
  2
_OPEN30
 10
-53.58401489257813
 20
-374.605712890625
 41
1
 42
1
 43
1
 50
270.0000000000005
  0
INSERT
  5
1ea
100
AcDbEntity
  8
0
  6
CONTINUOUS
 62
     7
100
AcDbBlockReference
  2
_OPEN30
 10
-53.58401489257813
 20
-346.605712890625
 41
1
 42
1
 43
1
 50
90.00000000000019
  0
LINE
  5
1eb
100
AcDbEntity
  8
0
  6
CONTINUOUS
 62
     7
100
AcDbLine
 10
-80.31535339355469
 20
-374.605712890625
 11
-50.72701644897461
 21
-374.605712890625
  0
LINE
  5
1ec
100
AcDbEntity
  8
0
  6
CONTINUOUS
 62
     7
100
AcDbLine
 10
-80.31535339355469
 20
-346.605712890625
 11
-50.72701644897461
 21
-346.605712890625
  0
MTEXT
  5
1ed
100
AcDbEntity
  8
0
  6
CONTINUOUS
 62
     7
100
AcDbMText
 10
-55.08401489257812
 20
-371.7484627366066
 40
6
 41
48
 71
     7
 72
     1
  1
{\W0.864328;２８}
 11
0
 21
1
  0
MTEXT
  5
1ee
100
AcDbEntity
  8
0
  6
CONTINUOUS
 62
     7
100
AcDbMText
 10
-59.58401489257813
 20
-359.7484629750252
 40
3
 41
48
 71
     7
 72
     1
  1
{\W0.851241;－０．１}
 11
0
 21
1
  0
MTEXT
  5
1ef
100
AcDbEntity
  8
0
  6
CONTINUOUS
 62
     7
100
AcDbMText
 10
-55.08401489257813
 20
-359.7484629750252
 40
3
 41
48
 71
     7
 72
     1
  1
{\W0.851241;－０．３}
 11
0
 21
1
  0
POINT
  5
1f0
100
AcDbEntity
  8
DEFPOINTS
  6
CONTINUOUS
 62
     7
100
AcDbPoint
 10
-80.31535339355469
 20
-374.605712890625
  0
POINT
  5
1f1
100
AcDbEntity
  8
DEFPOINTS
  6
CONTINUOUS
 62
     7
100
AcDbPoint
 10
-80.31535339355469
 20
-346.605712890625
  0
POINT
  5
1f2
100
AcDbEntity
  8
DEFPOINTS
  6
CONTINUOUS
 62
     7
100
AcDbPoint
 10
-53.58401489257813
 20
-346.605712890625
  0
ENDBLK
  8
0
  5
1f3
100
AcDbEntity
100
AcDbBlockEnd
  0
BLOCK
  8
0
  5
1f4
100
AcDbEntity
100
AcDbBlockBegin
  2
*D21
 70
    65
 10
0
 20
0
  0
LINE
  5
1f5
100
AcDbEntity
  8
0
  6
CONTINUOUS
 62
     7
100
AcDbLine
 10
199.9297638390008
 20
-290.4751586914063
 11
134.9297790076789
 21
-290.4751586914063
  0
INSERT
  5
1f6
100
AcDbEntity
  8
0
  6
CONTINUOUS
 62
     7
100
AcDbBlockReference
  2
_OPEN30
 10
202.9297637939453
 20
-290.4751586914063
 41
1
 42
1
 43
1
  0
INSERT
  5
1f7
100
AcDbEntity
  8
0
  6
CONTINUOUS
 62
     7
100
AcDbBlockReference
  2
_OPEN30
 10
131.9297790527344
 20
-290.4751586914063
 41
1
 42
1
 43
1
 50
180.0000000000004
  0
LINE
  5
1f8
100
AcDbEntity
  8
0
  6
CONTINUOUS
 62
     7
100
AcDbLine
 10
202.9297637939453
 20
-272.9563903808594
 11
202.9297637939453
 21
-293.3321533203125
  0
LINE
  5
1f9
100
AcDbEntity
  8
0
  6
CONTINUOUS
 62
     7
100
AcDbLine
 10
131.9297790527344
 20
-265.4563903808594
 11
131.9297790527344
 21
-293.3321533203125
  0
MTEXT
  5
1fa
100
AcDbEntity
  8
0
  6
CONTINUOUS
 62
     7
100
AcDbMText
 10
167.4297790527344
 20
-290.4751586914063
 40
6
 41
48
 71
     8
 72
     1
  1
{\W0.864328;７１}
  0
POINT
  5
1fb
100
AcDbEntity
  8
DEFPOINTS
  6
CONTINUOUS
 62
     7
100
AcDbPoint
 10
202.9297637939453
 20
-272.9563903808594
  0
POINT
  5
1fc
100
AcDbEntity
  8
DEFPOINTS
  6
CONTINUOUS
 62
     7
100
AcDbPoint
 10
131.9297790527344
 20
-265.4563903808594
  0
POINT
  5
1fd
100
AcDbEntity
  8
DEFPOINTS
  6
CONTINUOUS
 62
     7
100
AcDbPoint
 10
131.9297790527344
 20
-290.4751586914063
  0
ENDBLK
  8
0
  5
1fe
100
AcDbEntity
100
AcDbBlockEnd
  0
BLOCK
  8
0
  5
1ff
100
AcDbEntity
100
AcDbBlockBegin
  2
*D22
 70
    65
 10
0
 20
0
  0
LINE
  5
200
100
AcDbEntity
  8
0
  6
CONTINUOUS
 62
     7
100
AcDbLine
 10
128.9297790977899
 20
-290.4751586914063
 11
121.9297790076789
 21
-290.4751586914063
  0
INSERT
  5
201
100
AcDbEntity
  8
0
  6
CONTINUOUS
 62
     7
100
AcDbBlockReference
  2
_OPEN30
 10
131.9297790527344
 20
-290.4751586914063
 41
1
 42
1
 43
1
  0
INSERT
  5
202
100
AcDbEntity
  8
0
  6
CONTINUOUS
 62
     7
100
AcDbBlockReference
  2
_OPEN30
 10
118.9297790527344
 20
-290.4751586914063
 41
1
 42
1
 43
1
 50
180.0000000000004
  0
LINE
  5
203
100
AcDbEntity
  8
0
  6
CONTINUOUS
 62
     7
100
AcDbLine
 10
118.9297790527344
 20
-262.8499450683594
 11
118.9297790527344
 21
-293.3321533203125
  0
MTEXT
  5
204
100
AcDbEntity
  8
0
  6
CONTINUOUS
 62
     7
100
AcDbMText
 10
125.4297790527344
 20
-290.4751586914063
 40
6
 41
48
 71
     8
 72
     1
  1
{\W0.864328;１３}
  0
POINT
  5
205
100
AcDbEntity
  8
DEFPOINTS
  6
CONTINUOUS
 62
     7
100
AcDbPoint
 10
131.9297790527344
 20
-265.4563903808594
  0
POINT
  5
206
100
AcDbEntity
  8
DEFPOINTS
  6
CONTINUOUS
 62
     7
100
AcDbPoint
 10
118.9297790527344
 20
-262.8499450683594
  0
POINT
  5
207
100
AcDbEntity
  8
DEFPOINTS
  6
CONTINUOUS
 62
     7
100
AcDbPoint
 10
118.9297790527344
 20
-290.4751586914063
  0
ENDBLK
  8
0
  5
208
100
AcDbEntity
100
AcDbBlockEnd
  0
BLOCK
  8
0
  5
209
100
AcDbEntity
100
AcDbBlockBegin
  2
*D23
 70
    65
 10
0
 20
0
  0
LINE
  5
20a
100
AcDbEntity
  8
0
  6
CONTINUOUS
 62
     7
100
AcDbLine
 10
199.9297638390008
 20
-305.0262756347656
 11
116.9297637488898
 21
-305.0262756347656
  0
INSERT
  5
20b
100
AcDbEntity
  8
0
  6
CONTINUOUS
 62
     7
100
AcDbBlockReference
  2
_OPEN30
 10
202.9297637939453
 20
-305.0262756347656
 41
1
 42
1
 43
1
  0
INSERT
  5
20c
100
AcDbEntity
  8
0
  6
CONTINUOUS
 62
     7
100
AcDbBlockReference
  2
_OPEN30
 10
113.9297637939453
 20
-305.0262756347656
 41
1
 42
1
 43
1
 50
180.0000000000004
  0
LINE
  5
20d
100
AcDbEntity
  8
0
  6
CONTINUOUS
 62
     7
100
AcDbLine
 10
202.9297637939453
 20
-272.9563903808594
 11
202.9297637939453
 21
-307.8832702636719
  0
LINE
  5
20e
100
AcDbEntity
  8
0
  6
CONTINUOUS
 62
     7
100
AcDbLine
 10
113.9297637939453
 20
-259.9563903808594
 11
113.9297637939453
 21
-307.8832702636719
  0
MTEXT
  5
20f
100
AcDbEntity
  8
0
  6
CONTINUOUS
 62
     7
100
AcDbMText
 10
158.4297637939453
 20
-305.0262756347656
 40
6
 41
48
 71
     8
 72
     1
  1
{\W0.864328;８９}
  0
POINT
  5
210
100
AcDbEntity
  8
DEFPOINTS
  6
CONTINUOUS
 62
     7
100
AcDbPoint
 10
202.9297637939453
 20
-272.9563903808594
  0
POINT
  5
211
100
AcDbEntity
  8
DEFPOINTS
  6
CONTINUOUS
 62
     7
100
AcDbPoint
 10
113.9297637939453
 20
-259.9563903808594
  0
POINT
  5
212
100
AcDbEntity
  8
DEFPOINTS
  6
CONTINUOUS
 62
     7
100
AcDbPoint
 10
113.9297637939453
 20
-305.0262756347656
  0
ENDBLK
  8
0
  5
213
100
AcDbEntity
100
AcDbBlockEnd
  0
BLOCK
  8
0
  5
214
100
AcDbEntity
100
AcDbBlockBegin
  2
*D24
 70
    65
 10
0
 20
0
  0
LINE
  5
215
100
AcDbEntity
  8
0
  6
CONTINUOUS
 62
     7
100
AcDbLine
 10
199.9297638390008
 20
-419.7481689453125
 11
173.9297637488898
 21
-419.7481689453125
  0
INSERT
  5
216
100
AcDbEntity
  8
0
  6
CONTINUOUS
 62
     7
100
AcDbBlockReference
  2
_OPEN30
 10
202.9297637939453
 20
-419.7481689453125
 41
1
 42
1
 43
1
  0
INSERT
  5
217
100
AcDbEntity
  8
0
  6
CONTINUOUS
 62
     7
100
AcDbBlockReference
  2
_OPEN30
 10
170.9297637939453
 20
-419.7481689453125
 41
1
 42
1
 43
1
 50
180.0000000000004
  0
LINE
  5
218
100
AcDbEntity
  8
0
  6
CONTINUOUS
 62
     7
100
AcDbLine
 10
202.9297637939453
 20
-402.4894104003906
 11
202.9297637939453
 21
-422.6051635742188
  0
LINE
  5
219
100
AcDbEntity
  8
0
  6
CONTINUOUS
 62
     7
100
AcDbLine
 10
170.9297637939453
 20
-374.605712890625
 11
170.9297637939453
 21
-422.6051635742188
  0
MTEXT
  5
21a
100
AcDbEntity
  8
0
  6
CONTINUOUS
 62
     7
100
AcDbMText
 10
186.9297637939453
 20
-419.7481689453125
 40
6
 41
48
 71
     8
 72
     1
  1
{\W0.864328;３２}
  0
POINT
  5
21b
100
AcDbEntity
  8
DEFPOINTS
  6
CONTINUOUS
 62
     7
100
AcDbPoint
 10
202.9297637939453
 20
-402.4894104003906
  0
POINT
  5
21c
100
AcDbEntity
  8
DEFPOINTS
  6
CONTINUOUS
 62
     7
100
AcDbPoint
 10
170.9297637939453
 20
-374.605712890625
  0
POINT
  5
21d
100
AcDbEntity
  8
DEFPOINTS
  6
CONTINUOUS
 62
     7
100
AcDbPoint
 10
170.9297637939453
 20
-419.7481689453125
  0
ENDBLK
  8
0
  5
21e
100
AcDbEntity
100
AcDbBlockEnd
  0
BLOCK
  8
0
  5
21f
100
AcDbEntity
100
AcDbBlockBegin
  2
*D25
 70
    65
 10
0
 20
0
  0
LINE
  5
220
100
AcDbEntity
  8
0
  6
CONTINUOUS
 62
     7
100
AcDbLine
 10
248.9530944824219
 20
-371.6057129356805
 11
248.9530944824219
 21
-349.6057128455695
  0
INSERT
  5
221
100
AcDbEntity
  8
0
  6
CONTINUOUS
 62
     7
100
AcDbBlockReference
  2
_OPEN30
 10
248.9530944824219
 20
-374.605712890625
 41
1
 42
1
 43
1
 50
270.0000000000005
  0
INSERT
  5
222
100
AcDbEntity
  8
0
  6
CONTINUOUS
 62
     7
100
AcDbBlockReference
  2
_OPEN30
 10
248.9530944824219
 20
-346.605712890625
 41
1
 42
1
 43
1
 50
90.00000000000019
  0
LINE
  5
223
100
AcDbEntity
  8
0
  6
CONTINUOUS
 62
     7
100
AcDbLine
 10
221.9297637939453
 20
-374.605712890625
 11
251.8100891113281
 21
-374.605712890625
  0
LINE
  5
224
100
AcDbEntity
  8
0
  6
CONTINUOUS
 62
     7
100
AcDbLine
 10
221.9297637939453
 20
-346.605712890625
 11
251.8100891113281
 21
-346.605712890625
  0
MTEXT
  5
225
100
AcDbEntity
  8
0
  6
CONTINUOUS
 62
     7
100
AcDbMText
 10
247.4530944824219
 20
-371.7484627366066
 40
6
 41
48
 71
     7
 72
     1
  1
{\W0.864328;２８}
 11
0
 21
1
  0
MTEXT
  5
226
100
AcDbEntity
  8
0
  6
CONTINUOUS
 62
     7
100
AcDbMText
 10
242.9530944824219
 20
-359.7484629750252
 40
3
 41
48
 71
     7
 72
     1
  1
{\W0.851241;＋０．３}
 11
0
 21
1
  0
MTEXT
  5
227
100
AcDbEntity
  8
0
  6
CONTINUOUS
 62
     7
100
AcDbMText
 10
247.4530944824219
 20
-359.7484629750252
 40
3
 41
48
 71
     7
 72
     1
  1
{\W0.851241;＋０．１}
 11
0
 21
1
  0
POINT
  5
228
100
AcDbEntity
  8
DEFPOINTS
  6
CONTINUOUS
 62
     7
100
AcDbPoint
 10
221.9297637939453
 20
-374.605712890625
  0
POINT
  5
229
100
AcDbEntity
  8
DEFPOINTS
  6
CONTINUOUS
 62
     7
100
AcDbPoint
 10
221.9297637939453
 20
-346.605712890625
  0
POINT
  5
22a
100
AcDbEntity
  8
DEFPOINTS
  6
CONTINUOUS
 62
     7
100
AcDbPoint
 10
248.9530944824219
 20
-346.605712890625
  0
ENDBLK
  8
0
  5
22b
100
AcDbEntity
100
AcDbBlockEnd
  0
BLOCK
  8
0
  5
22c
100
AcDbEntity
100
AcDbBlockBegin
  2
*D26
 70
    65
 10
0
 20
0
  0
LINE
  5
22d
100
AcDbEntity
  8
0
  6
CONTINUOUS
 62
     7
100
AcDbLine
 10
215.7412415237509
 20
-262.9873372429477
 11
233.804221608026
 21
-282.7696140019131
  0
LINE
  5
22e
100
AcDbEntity
  8
0
  6
CONTINUOUS
 62
     7
100
AcDbLine
 10
202.9297843010926
 20
-248.9563969486705
 11
213.7183752762743
 21
-260.7719082034576
  0
INSERT
  5
22f
100
AcDbEntity
  8
0
  6
CONTINUOUS
 62
     7
100
AcDbBlockReference
  2
_OPEN30
 10
215.7412360480443
 20
-262.9873165242196
 41
1
 42
1
 43
1
 50
312.3988009920885
  0
MTEXT
  5
230
100
AcDbEntity
  8
0
  6
CONTINUOUS
 62
     7
100
AcDbMText
 10
228.3136596679688
 20
-276.7564392089844
 40
6
 41
72
 71
     8
 72
     1
  1
{\W0.855331;Ｒ１９}
 11
0.6743023875837249
 21
-0.7384553406258825
  0
POINT
  5
231
100
AcDbEntity
  8
DEFPOINTS
  6
CONTINUOUS
 62
     7
100
AcDbPoint
 10
202.9297843010926
 20
-248.9563969486705
  0
POINT
  5
232
100
AcDbEntity
  8
DEFPOINTS
  6
CONTINUOUS
 62
     7
100
AcDbPoint
 10
215.7412360480443
 20
-262.9873165242196
  0
ENDBLK
  8
0
  5
233
100
AcDbEntity
100
AcDbBlockEnd
  0
BLOCK
  8
0
  5
234
100
AcDbEntity
100
AcDbBlockBegin
  2
*D27
 70
    65
 10
0
 20
0
  0
LINE
  5
235
100
AcDbEntity
  8
0
  6
CONTINUOUS
 62
     7
100
AcDbLine
 10
465.0358276367188
 20
127.1763610839844
 11
465.0358276367188
 21
146.8717498779297
  0
LINE
  5
236
100
AcDbEntity
  8
0
  6
CONTINUOUS
 62
     7
100
AcDbLine
 10
465.0358276367188
 20
85.17630000377264
 11
465.0358276367188
 21
124.1763611290399
  0
INSERT
  5
237
100
AcDbEntity
  8
0
  6
CONTINUOUS
 62
     7
100
AcDbBlockReference
  2
_OPEN30
 10
465.0358276367188
 20
82.17630004882813
 41
1
 42
1
 43
1
 50
270.0000000000005
  0
INSERT
  5
238
100
AcDbEntity
  8
0
  6
CONTINUOUS
 62
     7
100
AcDbBlockReference
  2
_OPEN30
 10
465.0358276367188
 20
127.1763610839844
 41
1
 42
1
 43
1
 50
90.00000000000019
  0
LINE
  5
239
100
AcDbEntity
  8
0
  6
CONTINUOUS
 62
     7
100
AcDbLine
 10
472.6503921039467
 20
77.78003927674888
 11
462.1788188293547
 21
83.82578676354828
  0
LINE
  5
23a
100
AcDbEntity
  8
0
  6
CONTINUOUS
 62
     7
100
AcDbLine
 10
472.6503993728595
 20
122.7800922205635
 11
462.1788260982674
 21
128.825839707363
  0
MTEXT
  5
23b
100
AcDbEntity
  8
0
  6
CONTINUOUS
 62
     7
100
AcDbMText
 10
465.0358276367188
 20
138.72900390625
 40
6
 41
132
 71
     8
 72
     1
  1
{\W0.855331;\U+2205４５}
 11
0
 21
1
  0
POINT
  5
23c
100
AcDbEntity
  8
DEFPOINTS
  6
CONTINUOUS
 62
     7
100
AcDbPoint
 10
472.6503921039467
 20
77.78003927674888
  0
POINT
  5
23d
100
AcDbEntity
  8
DEFPOINTS
  6
CONTINUOUS
 62
     7
100
AcDbPoint
 10
472.6503993728595
 20
122.7800922205635
  0
POINT
  5
23e
100
AcDbEntity
  8
DEFPOINTS
  6
CONTINUOUS
 62
     7
100
AcDbPoint
 10
465.0358276367188
 20
127.1763610839844
  0
ENDBLK
  8
0
  5
23f
100
AcDbEntity
100
AcDbBlockEnd
  0
BLOCK
  8
0
  5
240
100
AcDbEntity
100
AcDbBlockBegin
  2
*D28
 70
    65
 10
0
 20
0
  0
LINE
  5
241
100
AcDbEntity
  8
0
  6
CONTINUOUS
 62
     7
100
AcDbLine
 10
-127.8153686523438
 20
9.173545837402344
 11
-137.9313049316406
 21
9.173545837402344
  0
LINE
  5
242
100
AcDbEntity
  8
0
  6
CONTINUOUS
 62
     7
100
AcDbLine
 10
-123.8153686523438
 20
9.173545837402344
 11
-127.8153686523438
 21
9.173545837402344
  0
INSERT
  5
243
100
AcDbEntity
  8
0
  6
CONTINUOUS
 62
     7
100
AcDbBlockReference
  2
_OPEN30
 10
-123.8153686523438
 20
9.173545837402344
 41
1
 42
1
 43
1
 50
180
  0
LINE
  5
244
100
AcDbEntity
  8
0
  6
CONTINUOUS
 62
     7
100
AcDbLine
 10
-120.8153686973992
 20
9.173545837402344
 11
-117.4653687477112
 21
9.173545837402344
  0
INSERT
  5
245
100
AcDbEntity
  8
0
  6
CONTINUOUS
 62
     7
100
AcDbBlockReference
  2
_OPEN30
 10
-127.8153686523438
 20
9.173545837402344
 41
1
 42
1
 43
1
 50
3.562221243239139e-013
  0
LINE
  5
246
100
AcDbEntity
  8
0
  6
CONTINUOUS
 62
     7
100
AcDbLine
 10
-130.8153686072883
 20
9.173545837402326
 11
-134.1653685569763
 21
9.173545837402305
  0
LINE
  5
247
100
AcDbEntity
  8
0
  6
CONTINUOUS
 62
     7
100
AcDbLine
 10
-127.8153686523438
 20
78.780029296875
 11
-127.8153686523438
 21
6.316545486450195
  0
MTEXT
  5
248
100
AcDbEntity
  8
0
  6
CONTINUOUS
 62
     7
100
AcDbMText
 10
-135.7885589599609
 20
9.173545837402344
 40
6
 41
24
 71
     8
 72
     1
  1
{\W0.900315;４}
  0
POINT
  5
249
100
AcDbEntity
  8
DEFPOINTS
  6
CONTINUOUS
 62
     7
100
AcDbPoint
 10
-123.8153686523438
 20
50.78003692626953
  0
POINT
  5
24a
100
AcDbEntity
  8
DEFPOINTS
  6
CONTINUOUS
 62
     7
100
AcDbPoint
 10
-127.8153686523438
 20
78.780029296875
  0
POINT
  5
24b
100
AcDbEntity
  8
DEFPOINTS
  6
CONTINUOUS
 62
     7
100
AcDbPoint
 10
-127.8153686523438
 20
9.173545837402344
  0
ENDBLK
  8
0
  5
24c
100
AcDbEntity
100
AcDbBlockEnd
  0
BLOCK
  8
0
  5
24d
100
AcDbEntity
100
AcDbBlockBegin
  2
*D29
 70
    65
 10
0
 20
0
  0
LINE
  5
24e
100
AcDbEntity
  8
0
  6
CONTINUOUS
 62
     7
100
AcDbLine
 10
-85.60930155912506
 20
-233.0458993502158
 11
-68.86490426829654
 21
-213.6084063701128
  0
LINE
  5
24f
100
AcDbEntity
  8
0
  6
CONTINUOUS
 62
     7
100
AcDbLine
 10
-99.31536865234372
 20
-248.9563903808593
 11
-87.56731111446422
 21
-235.3188266061718
  0
INSERT
  5
250
100
AcDbEntity
  8
0
  6
CONTINUOUS
 62
     7
100
AcDbBlockReference
  2
_OPEN
 10
-85.60930155912507
 20
-233.0458993502158
 41
1
 42
1
 43
1
 50
49.25679823506165
  0
MTEXT
  5
251
100
AcDbEntity
  8
0
  6
CONTINUOUS
 62
     7
100
AcDbMText
 10
-74.17943179987539
 20
-219.777699286031
 40
6
 41
72
 71
     8
 72
     1
  1
{\W0.855331;Ｒ２１}
 11
0.6520984038303921
 21
0.7581343361976524
  0
POINT
  5
252
100
AcDbEntity
  8
DEFPOINTS
  6
CONTINUOUS
 62
     7
100
AcDbPoint
 10
-99.31536865234372
 20
-248.9563903808593
  0
POINT
  5
253
100
AcDbEntity
  8
DEFPOINTS
  6
CONTINUOUS
 62
     7
100
AcDbPoint
 10
-85.60930155912507
 20
-233.0458993502158
  0
ENDBLK
  8
0
  5
254
100
AcDbEntity
100
AcDbBlockEnd
  0
BLOCK
  8
0
  5
255
100
AcDbEntity
100
AcDbBlockBegin
  2
*D30
 70
    65
 10
0
 20
0
  0
LINE
  5
256
100
AcDbEntity
  8
0
  6
CONTINUOUS
 62
     7
100
AcDbLine
 10
-128.3153686973992
 20
-395.9613347578529
 11
-102.3153686072883
 21
-395.9613347578529
  0
INSERT
  5
257
100
AcDbEntity
  8
0
  6
CONTINUOUS
 62
     7
100
AcDbBlockReference
  2
_OPEN
 10
-131.3153686523438
 20
-395.9613347578529
 41
1
 42
1
 43
1
 50
180.0000000000004
  0
INSERT
  5
258
100
AcDbEntity
  8
0
  6
CONTINUOUS
 62
     7
100
AcDbBlockReference
  2
_OPEN
 10
-99.31536865234375
 20
-395.9613347578529
 41
1
 42
1
 43
1
  0
LINE
  5
259
100
AcDbEntity
  8
0
  6
CONTINUOUS
 62
     7
100
AcDbLine
 10
-131.3153686523438
 20
-378.605712890625
 11
-131.3153686523438
 21
-398.2473347578529
  0
LINE
  5
25a
100
AcDbEntity
  8
0
  6
CONTINUOUS
 62
     7
100
AcDbLine
 10
-99.31536865234375
 20
-374.605712890625
 11
-99.31536865234375
 21
-398.2473347578529
  0
MTEXT
  5
25b
100
AcDbEntity
  8
0
  6
CONTINUOUS
 62
     7
100
AcDbMText
 10
-115.3153686523438
 20
-395.9613347578529
 40
6
 41
48
 71
     8
 72
     1
  1
{\W0.864328;３２}
  0
POINT
  5
25c
100
AcDbEntity
  8
DEFPOINTS
  6
CONTINUOUS
 62
     7
100
AcDbPoint
 10
-131.3153686523438
 20
-378.605712890625
  0
POINT
  5
25d
100
AcDbEntity
  8
DEFPOINTS
  6
CONTINUOUS
 62
     7
100
AcDbPoint
 10
-99.31536865234375
 20
-374.605712890625
  0
POINT
  5
25e
100
AcDbEntity
  8
DEFPOINTS
  6
CONTINUOUS
 62
     7
100
AcDbPoint
 10
-99.31536865234375
 20
-395.9613347578529
  0
ENDBLK
  8
0
  5
25f
100
AcDbEntity
100
AcDbBlockEnd
  0
BLOCK
  8
0
  5
260
100
AcDbEntity
100
AcDbBlockBegin
  2
*D31
 70
    65
 10
0
 20
0
  0
LINE
  5
261
100
AcDbEntity
  8
0
  6
CONTINUOUS
 62
     7
100
AcDbLine
 10
-167.3153381798211
 20
-408.680936863581
 11
-102.3153686072883
 21
-408.680936863581
  0
INSERT
  5
262
100
AcDbEntity
  8
0
  6
CONTINUOUS
 62
     7
100
AcDbBlockReference
  2
_OPEN
 10
-170.3153381347656
 20
-408.680936863581
 41
1
 42
1
 43
1
 50
180.0000000000004
  0
INSERT
  5
263
100
AcDbEntity
  8
0
  6
CONTINUOUS
 62
     7
100
AcDbBlockReference
  2
_OPEN
 10
-99.31536865234375
 20
-408.680936863581
 41
1
 42
1
 43
1
  0
LINE
  5
264
100
AcDbEntity
  8
0
  6
CONTINUOUS
 62
     7
100
AcDbLine
 10
-170.3153381347656
 20
-376.605712890625
 11
-170.3153381347656
 21
-410.966936863581
  0
LINE
  5
265
100
AcDbEntity
  8
0
  6
CONTINUOUS
 62
     7
100
AcDbLine
 10
-99.31536865234375
 20
-374.605712890625
 11
-99.31536865234375
 21
-410.966936863581
  0
MTEXT
  5
266
100
AcDbEntity
  8
0
  6
CONTINUOUS
 62
     7
100
AcDbMText
 10
-134.8153533935547
 20
-408.680936863581
 40
6
 41
48
 71
     8
 72
     1
  1
{\W0.864328;７１}
  0
POINT
  5
267
100
AcDbEntity
  8
DEFPOINTS
  6
CONTINUOUS
 62
     7
100
AcDbPoint
 10
-170.3153381347656
 20
-376.605712890625
  0
POINT
  5
268
100
AcDbEntity
  8
DEFPOINTS
  6
CONTINUOUS
 62
     7
100
AcDbPoint
 10
-99.31536865234375
 20
-374.605712890625
  0
POINT
  5
269
100
AcDbEntity
  8
DEFPOINTS
  6
CONTINUOUS
 62
     7
100
AcDbPoint
 10
-99.31536865234375
 20
-408.680936863581
  0
ENDBLK
  8
0
  5
26a
100
AcDbEntity
100
AcDbBlockEnd
  0
BLOCK
  8
0
  5
26b
100
AcDbEntity
100
AcDbBlockBegin
  2
*D32
 70
    65
 10
0
 20
0
  0
LINE
  5
26c
100
AcDbEntity
  8
0
  6
CONTINUOUS
 62
     7
100
AcDbLine
 10
-96.31536869739924
 20
-408.680936863581
 11
-83.31536860728826
 21
-408.680936863581
  0
INSERT
  5
26d
100
AcDbEntity
  8
0
  6
CONTINUOUS
 62
     7
100
AcDbBlockReference
  2
_OPEN
 10
-99.31536865234375
 20
-408.680936863581
 41
1
 42
1
 43
1
 50
180.0000000000004
  0
INSERT
  5
26e
100
AcDbEntity
  8
0
  6
CONTINUOUS
 62
     7
100
AcDbBlockReference
  2
_OPEN
 10
-80.31536865234375
 20
-408.680936863581
 41
1
 42
1
 43
1
  0
LINE
  5
26f
100
AcDbEntity
  8
0
  6
CONTINUOUS
 62
     7
100
AcDbLine
 10
-80.31536865234375
 20
-374.605712890625
 11
-80.31536865234375
 21
-410.966936863581
  0
MTEXT
  5
270
100
AcDbEntity
  8
0
  6
CONTINUOUS
 62
     7
100
AcDbMText
 10
-89.81536865234375
 20
-408.680936863581
 40
6
 41
48
 71
     8
 72
     1
  1
{\W0.864328;１９}
  0
POINT
  5
271
100
AcDbEntity
  8
DEFPOINTS
  6
CONTINUOUS
 62
     7
100
AcDbPoint
 10
-99.31536865234375
 20
-374.605712890625
  0
POINT
  5
272
100
AcDbEntity
  8
DEFPOINTS
  6
CONTINUOUS
 62
     7
100
AcDbPoint
 10
-80.31536865234375
 20
-374.605712890625
  0
POINT
  5
273
100
AcDbEntity
  8
DEFPOINTS
  6
CONTINUOUS
 62
     7
100
AcDbPoint
 10
-80.31536865234375
 20
-408.680936863581
  0
ENDBLK
  8
0
  5
274
100
AcDbEntity
100
AcDbBlockEnd
  0
BLOCK
  8
0
  5
275
100
AcDbEntity
100
AcDbBlockBegin
  2
*D33
 70
    65
 10
0
 20
0
  0
LINE
  5
276
100
AcDbEntity
  8
0
  6
CONTINUOUS
 62
     7
100
AcDbLine
 10
-173.3153380897101
 20
-408.680936863581
 11
-180.3153381798211
 21
-408.680936863581
  0
INSERT
  5
277
100
AcDbEntity
  8
0
  6
CONTINUOUS
 62
     7
100
AcDbBlockReference
  2
_OPEN
 10
-170.3153381347656
 20
-408.680936863581
 41
1
 42
1
 43
1
  0
INSERT
  5
278
100
AcDbEntity
  8
0
  6
CONTINUOUS
 62
     7
100
AcDbBlockReference
  2
_OPEN
 10
-183.3153381347656
 20
-408.680936863581
 41
1
 42
1
 43
1
 50
180.0000000000004
  0
LINE
  5
279
100
AcDbEntity
  8
0
  6
CONTINUOUS
 62
     7
100
AcDbLine
 10
-183.3153381347656
 20
-376.605712890625
 11
-183.3153381347656
 21
-410.966936863581
  0
MTEXT
  5
27a
100
AcDbEntity
  8
0
  6
CONTINUOUS
 62
     7
100
AcDbMText
 10
-176.8153381347656
 20
-408.680936863581
 40
6
 41
48
 71
     8
 72
     1
  1
{\W0.864328;１３}
  0
POINT
  5
27b
100
AcDbEntity
  8
DEFPOINTS
  6
CONTINUOUS
 62
     7
100
AcDbPoint
 10
-170.3153381347656
 20
-376.605712890625
  0
POINT
  5
27c
100
AcDbEntity
  8
DEFPOINTS
  6
CONTINUOUS
 62
     7
100
AcDbPoint
 10
-183.3153381347656
 20
-376.605712890625
  0
POINT
  5
27d
100
AcDbEntity
  8
DEFPOINTS
  6
CONTINUOUS
 62
     7
100
AcDbPoint
 10
-183.3153381347656
 20
-408.680936863581
  0
ENDBLK
  8
0
  5
27e
100
AcDbEntity
100
AcDbBlockEnd
  0
BLOCK
  8
0
  5
27f
100
AcDbEntity
100
AcDbBlockBegin
  2
*D34
 70
    65
 10
0
 20
0
  0
LINE
  5
280
100
AcDbEntity
  8
0
  6
CONTINUOUS
 62
     7
100
AcDbLine
 10
145.2374663537475
 20
-230.9564056396484
 11
145.2374663537475
 21
-210.2079352728525
  0
LINE
  5
281
100
AcDbEntity
  8
0
  6
CONTINUOUS
 62
     7
100
AcDbLine
 10
145.2374663537475
 20
-263.9563904259148
 11
145.2374663537475
 21
-233.956405594593
  0
INSERT
  5
282
100
AcDbEntity
  8
0
  6
CONTINUOUS
 62
     7
100
AcDbBlockReference
  2
_OPEN
 10
145.2374663537475
 20
-266.9563903808594
 41
1
 42
1
 43
1
 50
270.0000000000005
  0
INSERT
  5
283
100
AcDbEntity
  8
0
  6
CONTINUOUS
 62
     7
100
AcDbBlockReference
  2
_OPEN
 10
145.2374663537475
 20
-230.9564056396484
 41
1
 42
1
 43
1
 50
90.00000000000019
  0
LINE
  5
284
100
AcDbEntity
  8
0
  6
CONTINUOUS
 62
     7
100
AcDbLine
 10
133.4297790527344
 20
-266.9563903808594
 11
147.5234663537475
 21
-266.9563903808594
  0
LINE
  5
285
100
AcDbEntity
  8
0
  6
CONTINUOUS
 62
     7
100
AcDbLine
 10
133.4297790527344
 20
-230.9564056396484
 11
147.5234663537475
 21
-230.9564056396484
  0
MTEXT
  5
286
100
AcDbEntity
  8
0
  6
CONTINUOUS
 62
     7
100
AcDbMText
 10
145.2374663537475
 20
-218.3506852976481
 40
6
 41
132
 71
     8
 72
     1
  1
{\W0.855331;\U+2205３６}
 11
0
 21
1
  0
POINT
  5
287
100
AcDbEntity
  8
DEFPOINTS
  6
CONTINUOUS
 62
     7
100
AcDbPoint
 10
133.4297790527344
 20
-266.9563903808594
  0
POINT
  5
288
100
AcDbEntity
  8
DEFPOINTS
  6
CONTINUOUS
 62
     7
100
AcDbPoint
 10
133.4297790527344
 20
-230.9564056396484
  0
POINT
  5
289
100
AcDbEntity
  8
DEFPOINTS
  6
CONTINUOUS
 62
     7
100
AcDbPoint
 10
145.2374663537475
 20
-230.9564056396484
  0
ENDBLK
  8
0
  5
28a
100
AcDbEntity
100
AcDbBlockEnd
  0
BLOCK
  8
0
  5
28b
100
AcDbEntity
100
AcDbBlockBegin
  2
*D35
 70
    65
 10
0
 20
0
  0
LINE
  5
28c
100
AcDbEntity
  8
0
  6
CONTINUOUS
 62
     7
100
AcDbLine
 10
261.8736771939284
 20
-385.1057129356805
 11
261.8736771939284
 21
-336.1057128455695
  0
INSERT
  5
28d
100
AcDbEntity
  8
0
  6
CONTINUOUS
 62
     7
100
AcDbBlockReference
  2
_OPEN
 10
261.8736771939284
 20
-388.105712890625
 41
1
 42
1
 43
1
 50
270.0000000000005
  0
INSERT
  5
28e
100
AcDbEntity
  8
0
  6
CONTINUOUS
 62
     7
100
AcDbBlockReference
  2
_OPEN
 10
261.8736771939284
 20
-333.105712890625
 41
1
 42
1
 43
1
 50
90.00000000000019
  0
LINE
  5
28f
100
AcDbEntity
  8
0
  6
CONTINUOUS
 62
     7
100
AcDbLine
 10
219.4297790527344
 20
-388.105712890625
 11
264.1596771939284
 21
-388.105712890625
  0
LINE
  5
290
100
AcDbEntity
  8
0
  6
CONTINUOUS
 62
     7
100
AcDbLine
 10
219.4297637939453
 20
-333.105712890625
 11
264.1596771939284
 21
-333.105712890625
  0
MTEXT
  5
291
100
AcDbEntity
  8
0
  6
CONTINUOUS
 62
     7
100
AcDbMText
 10
261.8736771939284
 20
-360.605712890625
 40
6
 41
48
 71
     8
 72
     1
  1
{\W0.864328;５５}
 11
0
 21
1
  0
POINT
  5
292
100
AcDbEntity
  8
DEFPOINTS
  6
CONTINUOUS
 62
     7
100
AcDbPoint
 10
219.4297790527344
 20
-388.105712890625
  0
POINT
  5
293
100
AcDbEntity
  8
DEFPOINTS
  6
CONTINUOUS
 62
     7
100
AcDbPoint
 10
219.4297637939453
 20
-333.105712890625
  0
POINT
  5
294
100
AcDbEntity
  8
DEFPOINTS
  6
CONTINUOUS
 62
     7
100
AcDbPoint
 10
261.8736771939284
 20
-333.105712890625
  0
ENDBLK
  8
0
  5
295
100
AcDbEntity
100
AcDbBlockEnd
  0
BLOCK
  8
0
  5
296
100
AcDbEntity
100
AcDbBlockBegin
  2
*D36
 70
    65
 10
0
 20
0
  0
LINE
  5
297
100
AcDbEntity
  8
0
  6
CONTINUOUS
 62
     7
100
AcDbLine
 10
276.3241811918269
 20
-396.6056824181023
 11
276.3241811918269
 21
-324.6056823279914
  0
INSERT
  5
298
100
AcDbEntity
  8
0
  6
CONTINUOUS
 62
     7
100
AcDbBlockReference
  2
_OPEN
 10
276.3241811918269
 20
-399.6056823730469
 41
1
 42
1
 43
1
 50
270.0000000000005
  0
INSERT
  5
299
100
AcDbEntity
  8
0
  6
CONTINUOUS
 62
     7
100
AcDbBlockReference
  2
_OPEN
 10
276.3241811918269
 20
-321.6056823730469
 41
1
 42
1
 43
1
 50
90.00000000000019
  0
LINE
  5
29a
100
AcDbEntity
  8
0
  6
CONTINUOUS
 62
     7
100
AcDbLine
 10
210.7297515869141
 20
-399.6056823730469
 11
278.6101811918269
 21
-399.6056823730469
  0
LINE
  5
29b
100
AcDbEntity
  8
0
  6
CONTINUOUS
 62
     7
100
AcDbLine
 10
210.7297515869141
 20
-321.6056823730469
 11
278.6101811918269
 21
-321.6056823730469
  0
MTEXT
  5
29c
100
AcDbEntity
  8
0
  6
CONTINUOUS
 62
     7
100
AcDbMText
 10
276.3241811918269
 20
-360.6056823730469
 40
6
 41
48
 71
     8
 72
     1
  1
{\W0.864328;７８}
 11
0
 21
1
  0
POINT
  5
29d
100
AcDbEntity
  8
DEFPOINTS
  6
CONTINUOUS
 62
     7
100
AcDbPoint
 10
210.7297515869141
 20
-399.6056823730469
  0
POINT
  5
29e
100
AcDbEntity
  8
DEFPOINTS
  6
CONTINUOUS
 62
     7
100
AcDbPoint
 10
210.7297515869141
 20
-321.6056823730469
  0
POINT
  5
29f
100
AcDbEntity
  8
DEFPOINTS
  6
CONTINUOUS
 62
     7
100
AcDbPoint
 10
276.3241811918269
 20
-321.6056823730469
  0
ENDBLK
  8
0
  5
2a0
100
AcDbEntity
100
AcDbBlockEnd
  0
BLOCK
  8
0
  5
2a1
100
AcDbEntity
100
AcDbBlockBegin
  2
KOZU0001
 70
    64
 10
0
 20
0
  0
POINT
  5
2a2
100
AcDbEntity
  8
0
  6
CONTINUOUS
 62
     7
100
AcDbPoint
 10
0
 20
0
  0
LINE
  5
2a3
100
AcDbEntity
  8
0
  6
CONTINUOUS
 62
     7
100
AcDbLine
 10
0
 20
-49.49998474121094
 11
0
 21
49.50002288818359
  0
LINE
  5
2a4
100
AcDbEntity
  8
0
  6
CONTINUOUS
 62
     7
100
AcDbLine
 10
14.29998779296875
 20
22.50003051757813
 11
0
 21
22.50003051757813
  0
LINE
  5
2a5
100
AcDbEntity
  8
0
  6
CONTINUOUS
 62
     7
100
AcDbLine
 10
14.30006553385377
 20
22.5000327718519
 11
15.00006733840287
 21
21.80003090829705
  0
LINE
  5
2a6
100
AcDbEntity
  8
0
  6
CONTINUOUS
 62
     7
100
AcDbLine
 10
14.30000305175781
 20
22.50001525878906
 11
14.30000305175781
 21
-22.49998474121094
  0
LINE
  5
2a7
100
AcDbEntity
  8
0
  6
CONTINUOUS
 62
     7
100
AcDbLine
 10
15
 20
-21.79998016357422
 11
15
 21
21.80001068115234
  0
LINE
  5
2a8
100
AcDbEntity
  8
0
  6
CONTINUOUS
 62
     7
100
AcDbLine
 10
15
 20
12.50003051757813
 11
28.40193176269531
 21
12.50003051757813
  0
LINE
  5
2a9
100
AcDbEntity
  8
0
  6
CONTINUOUS
 62
     7
100
AcDbLine
 10
28.40193176269531
 20
5.937187194824219
 11
28.40193176269531
 21
12.50002288818359
  0
LINE
  5
2aa
100
AcDbEntity
  8
0
  6
CONTINUOUS
 62
     7
100
AcDbLine
 10
28.40189306980767
 20
12.49997132918353
 11
30.99996926950327
 21
10.99997130899177
  0
LINE
  5
2ab
100
AcDbEntity
  8
0
  6
CONTINUOUS
 62
     7
100
AcDbLine
 10
31.00001525878906
 20
11.00003051757813
 11
46.00001525878906
 21
11.00003051757813
  0
LINE
  5
2ac
100
AcDbEntity
  8
0
  6
CONTINUOUS
 62
     7
100
AcDbLine
 10
32.59360653322323
 20
10.99998572934867
 11
34.00002895475568
 21
10.18798735110865
  0
LINE
  5
2ad
100
AcDbEntity
  8
0
  6
CONTINUOUS
 62
     7
100
AcDbLine
 10
34
 20
11.00002288818359
 11
34
 21
-10.99998474121094
  0
LINE
  5
2ae
100
AcDbEntity
  8
0
  6
CONTINUOUS
 62
     7
100
AcDbLine
 10
34
 20
10.18801879882813
 11
46.00001525878906
 21
10.18801879882813
  0
LINE
  5
2af
100
AcDbEntity
  8
0
  6
CONTINUOUS
 62
     7
100
AcDbLine
 10
31.00001525878906
 20
-10.99998474121094
 11
31.00001525878906
 21
11.00001525878906
  0
LINE
  5
2b0
100
AcDbEntity
  8
0
  6
CONTINUOUS
 62
     7
100
AcDbLine
 10
20
 20
5.93719482421875
 11
31.00001525878906
 21
5.93719482421875
  0
LINE
  5
2b1
100
AcDbEntity
  8
0
  6
CONTINUOUS
 62
     7
100
AcDbLine
 10
20
 20
-5.937164306640625
 11
20
 21
5.937187194824219
  0
LINE
  5
2b2
100
AcDbEntity
  8
0
  6
CONTINUOUS
 62
     7
100
AcDbLine
 10
20.00003806363893
 20
5.937244023800221
 11
31.0000355107625
 21
-5.937094831101662
  0
LINE
  5
2b3
100
AcDbEntity
  8
0
  6
CONTINUOUS
 62
     7
100
AcDbLine
 10
20.00003064211837
 20
-5.93717344906539
 11
31.00000151713496
 21
5.937136721629615
  0
LINE
  5
2b4
100
AcDbEntity
  8
0
  6
CONTINUOUS
 62
     7
100
AcDbLine
 10
20
 20
-5.937164306640625
 11
31.00001525878906
 21
-5.937164306640625
  0
LINE
  5
2b5
100
AcDbEntity
  8
0
  6
CONTINUOUS
 62
     7
100
AcDbLine
 10
28.40193176269531
 20
-5.937156677246094
 11
28.40193176269531
 21
-12.49998474121094
  0
LINE
  5
2b6
100
AcDbEntity
  8
0
  6
CONTINUOUS
 62
     7
100
AcDbLine
 10
28.40196537542074
 20
-12.49995160768264
 11
31.00002836061744
 21
-10.99995921688552
  0
LINE
  5
2b7
100
AcDbEntity
  8
0
  6
CONTINUOUS
 62
     7
100
AcDbLine
 10
15
 20
-12.49998474121094
 11
28.40193176269531
 21
-12.49998474121094
  0
LINE
  5
2b8
100
AcDbEntity
  8
0
  6
CONTINUOUS
 62
     7
100
AcDbLine
 10
15.00004324726332
 20
-21.79999238608215
 11
14.30004677850531
 21
-22.49998879583487
  0
LINE
  5
2b9
100
AcDbEntity
  8
0
  6
CONTINUOUS
 62
     7
100
AcDbLine
 10
14.29998779296875
 20
-22.49998474121094
 11
0
 21
-22.49998474121094
  0
LINE
  5
2ba
100
AcDbEntity
  8
0
  6
CONTINUOUS
 62
     7
100
AcDbLine
 10
31.00001525878906
 20
-10.99998474121094
 11
46.00001525878906
 21
-10.99998474121094
  0
LINE
  5
2bb
100
AcDbEntity
  8
0
  6
CONTINUOUS
 62
     7
100
AcDbLine
 10
32.59358378198104
 20
-10.99997684061968
 11
34.00000289988876
 21
-10.18798036972832
  0
LINE
  5
2bc
100
AcDbEntity
  8
0
  6
CONTINUOUS
 62
     7
100
AcDbLine
 10
34
 20
-10.18798828125
 11
46.00001525878906
 21
-10.18798828125
  0
LINE
  5
2bd
100
AcDbEntity
  8
0
  6
CONTINUOUS
 62
     7
100
AcDbLine
 10
46.00001525878906
 20
13.89357757568359
 11
46.00001525878906
 21
-13.89353179931641
  0
LINE
  5
2be
100
AcDbEntity
  8
0
  6
CONTINUOUS
 62
     7
100
AcDbLine
 10
47.00001525878906
 20
-9.287078857421875
 11
58.00001525878906
 21
-9.287078857421875
  0
LINE
  5
2bf
100
AcDbEntity
  8
0
  6
CONTINUOUS
 62
     7
100
AcDbLine
 10
46.9999396243827
 20
-18.49998590499867
 11
45.99993818059529
 21
-13.893523267418
  0
LINE
  5
2c0
100
AcDbEntity
  8
0
  6
CONTINUOUS
 62
     7
100
AcDbLine
 10
47.00001525878906
 20
-18.49998474121094
 11
58.00001525878906
 21
-18.49998474121094
  0
LINE
  5
2c1
100
AcDbEntity
  8
0
  6
CONTINUOUS
 62
     7
100
AcDbLine
 10
57.99994684669823
 20
-18.49995610908407
 11
58.99994581209561
 21
-13.89350488809797
  0
LINE
  5
2c2
100
AcDbEntity
  8
0
  6
CONTINUOUS
 62
     7
100
AcDbLine
 10
59
 20
13.89356231689453
 11
59
 21
-13.89352416992188
  0
LINE
  5
2c3
100
AcDbEntity
  8
0
  6
CONTINUOUS
 62
     7
100
AcDbLine
 10
59
 20
-10.99998474121094
 11
69.50001525878906
 21
-10.99998474121094
  0
LINE
  5
2c4
100
AcDbEntity
  8
0
  6
CONTINUOUS
 62
     7
100
AcDbLine
 10
59
 20
-10.18798828125
 11
70.718017578125
 21
-10.18798828125
  0
LINE
  5
2c5
100
AcDbEntity
  8
0
  6
CONTINUOUS
 62
     7
100
AcDbLine
 10
69.50001525878906
 20
-10.99998474121094
 11
69.50001525878906
 21
11.00002288818359
  0
LINE
  5
2c6
100
AcDbEntity
  8
0
  6
CONTINUOUS
 62
     7
100
AcDbLine
 10
69.50004263347447
 20
-11.00002657377406
 11
71.00005910165741
 21
-10.00001563080375
  0
LINE
  5
2c7
100
AcDbEntity
  8
0
  6
CONTINUOUS
 62
     7
100
AcDbLine
 10
71.00001525878906
 20
10.18801116943359
 11
71.00001525878906
 21
-9.999984741210938
  0
LINE
  5
2c8
100
AcDbEntity
  8
0
  6
CONTINUOUS
 62
     7
100
AcDbLine
 10
69.50007860569845
 20
11.00017681072051
 11
71.00008237780133
 21
10.00017433180327
  0
LINE
  5
2c9
100
AcDbEntity
  8
0
  6
CENTER
 62
     3
100
AcDbLine
 10
-226.9271240234375
 20
0
 11
77.52392578125
 21
0
  0
LINE
  5
2ca
100
AcDbEntity
  8
0
  6
CONTINUOUS
 62
     7
100
AcDbLine
 10
59
 20
10.18801879882813
 11
70.718017578125
 21
10.18801879882813
  0
LINE
  5
2cb
100
AcDbEntity
  8
0
  6
CONTINUOUS
 62
     7
100
AcDbLine
 10
59
 20
11.00003051757813
 11
69.50001525878906
 21
11.00003051757813
  0
LINE
  5
2cc
100
AcDbEntity
  8
0
  6
CONTINUOUS
 62
     7
100
AcDbLine
 10
47.00001525878906
 20
9.287109375
 11
58.00001525878906
 21
9.287109375
  0
LINE
  5
2cd
100
AcDbEntity
  8
0
  6
CONTINUOUS
 62
     7
100
AcDbLine
 10
57.99994880984529
 20
18.50001899204676
 11
58.99994787640145
 21
13.8935673050772
  0
LINE
  5
2ce
100
AcDbEntity
  8
0
  6
CONTINUOUS
 62
     7
100
AcDbLine
 10
47.00001525878906
 20
18.50003051757813
 11
58.00001525878906
 21
18.50003051757813
  0
LINE
  5
2cf
100
AcDbEntity
  8
0
  6
CONTINUOUS
 62
     7
100
AcDbLine
 10
46.99996505636592
 20
18.50003113019681
 11
45.99996280330829
 21
13.89356476474852
  0
LINE
  5
2d0
100
AcDbEntity
  8
0
  6
CONTINUOUS
 62
     7
100
AcDbLine
 10
-34
 20
-49.49998474121094
 11
-34
 21
49.50000762939453
  0
LINE
  5
2d1
100
AcDbEntity
  8
0
  6
CONTINUOUS
 62
     7
100
AcDbLine
 10
-33.5
 20
-49.99998474121094
 11
-0.5
 21
-49.99998474121094
  0
LINE
  5
2d2
100
AcDbEntity
  8
0
  6
CONTINUOUS
 62
     7
100
AcDbLine
 10
-34
 20
-44.49998474121094
 11
-34.5
 21
-44.49998474121094
  0
LINE
  5
2d3
100
AcDbEntity
  8
0
  6
CONTINUOUS
 62
     7
100
AcDbLine
 10
-34.5
 20
-44.49998474121094
 11
-34.5
 21
-42.42998504638672
  0
LINE
  5
2d4
100
AcDbEntity
  8
0
  6
CONTINUOUS
 62
     7
100
AcDbLine
 10
-181.2000122070313
 20
-43.19998168945313
 11
-34.80000305175781
 21
-43.19998168945313
  0
LINE
  5
2d5
100
AcDbEntity
  8
0
  6
CONTINUOUS
 62
     7
100
AcDbLine
 10
-182
 20
-42.43498229980469
 11
-34.00003051757813
 21
-42.43498229980469
  0
LINE
  5
2d6
100
AcDbEntity
  8
0
  6
CONTINUOUS
 62
     7
100
AcDbLine
 10
-34.79996180943306
 20
-43.20003565868026
 11
-34.49996257742527
 21
-42.90003640138442
  0
LINE
  5
2d7
100
AcDbEntity
  8
0
  6
CENTER
 62
     3
100
AcDbLine
 10
-182
 20
-36.99996948242188
 11
-34
 21
-36.99996948242188
  0
LINE
  5
2d8
100
AcDbEntity
  8
0
  6
CONTINUOUS
 62
     7
100
AcDbLine
 10
-182
 20
-31.56497192382813
 11
-34.00003051757813
 21
-31.56497192382813
  0
LINE
  5
2d9
100
AcDbEntity
  8
0
  6
CONTINUOUS
 62
     7
100
AcDbLine
 10
-34.5
 20
-31.56998443603516
 11
-34.5
 21
31.56501007080078
  0
LINE
  5
2da
100
AcDbEntity
  8
0
  6
CONTINUOUS
 62
     7
100
AcDbLine
 10
-0.5
 20
50.00003814697266
 11
-33.5
 21
50.00003814697266
  0
LINE
  5
2db
100
AcDbEntity
  8
0
  6
CENTER
 62
     3
100
AcDbLine
 10
-17
 20
52.68653106689453
 11
-17
 21
35.00002288818359
  0
LINE
  5
2dc
100
AcDbEntity
  8
0
  6
DASHED
 62
     7
100
AcDbLine
 10
-3.29998779296875
 20
50.30002212524414
 11
-3.29998779296875
 21
48.80002212524414
  0
LINE
  5
2dd
100
AcDbEntity
  8
0
  6
DASHED
 62
     7
100
AcDbLine
 10
-3.300003051757813
 20
48.8000373840332
 11
-30.69999694824219
 21
48.8000373840332
  0
LINE
  5
2de
100
AcDbEntity
  8
0
  6
DASHED
 62
     7
100
AcDbLine
 10
-6.149995304955429
 20
48.8000326799975
 11
-7.50607453906569
 21
47.44395344588725
  0
LINE
  5
2df
100
AcDbEntity
  8
0
  6
DASHED
 62
     7
100
AcDbLine
 10
-7.514602661132813
 20
47.20003128051758
 11
-26.48539733886719
 21
47.20003128051758
  0
LINE
  5
2e0
100
AcDbEntity
  8
0
  6
DASHED
 62
     7
100
AcDbLine
 10
-7.930112151844023
 20
35.30001930137896
 11
-7.506037170135323
 21
47.44393845651761
  0
LINE
  5
2e1
100
AcDbEntity
  8
0
  6
DASHED
 62
     7
100
AcDbLine
 10
-6.767440810551059
 20
35.30000814255791
 11
-6.301293767560313
 21
48.64871355705235
  0
LINE
  5
2e2
100
AcDbEntity
  8
0
  6
DASHED
 62
     7
100
AcDbLine
 10
-30.70001220703125
 20
50.30002212524414
 11
-30.70001220703125
 21
48.80002212524414
  0
LINE
  5
2e3
100
AcDbEntity
  8
0
  6
DASHED
 62
     7
100
AcDbLine
 10
-27.85002518658361
 20
48.79999491642124
 11
-26.49394595247335
 21
47.44391568231098
  0
LINE
  5
2e4
100
AcDbEntity
  8
0
  6
DASHED
 62
     7
100
AcDbLine
 10
-26.06981899703714
 20
35.30001571286871
 11
-26.49389451126987
 21
47.44395011750119
  0
LINE
  5
2e5
100
AcDbEntity
  8
0
  6
DASHED
 62
     7
100
AcDbLine
 10
-27.23251252573949
 20
35.30001141329127
 11
-27.6986590362062
 21
48.6487015782919
  0
LINE
  5
2e6
100
AcDbEntity
  8
0
  6
CONTINUOUS
 62
     7
100
AcDbLine
 10
-34
 20
44.50003814697266
 11
-34.5
 21
44.50003814697266
  0
LINE
  5
2e7
100
AcDbEntity
  8
0
  6
CONTINUOUS
 62
     7
100
AcDbLine
 10
-34.5
 20
44.50000762939453
 11
-34.5
 21
42.43001556396484
  0
LINE
  5
2e8
100
AcDbEntity
  8
0
  6
CONTINUOUS
 62
     7
100
AcDbLine
 10
-34.79995506593566
 20
43.20007477095539
 11
-34.49995583392786
 21
42.90007551365955
  0
LINE
  5
2e9
100
AcDbEntity
  8
0
  6
CONTINUOUS
 62
     7
100
AcDbLine
 10
-181.2000122070313
 20
43.20001983642578
 11
-34.80000305175781
 21
43.20001983642578
  0
LINE
  5
2ea
100
AcDbEntity
  8
0
  6
CONTINUOUS
 62
     7
100
AcDbLine
 10
-182
 20
42.43503570556641
 11
-34.00003051757813
 21
42.43503570556641
  0
LINE
  5
2eb
100
AcDbEntity
  8
0
  6
CENTER
 62
     3
100
AcDbLine
 10
-182
 20
37.00000762939453
 11
-34
 21
37.00000762939453
  0
LINE
  5
2ec
100
AcDbEntity
  8
0
  6
CONTINUOUS
 62
     7
100
AcDbLine
 10
-182
 20
31.56501007080078
 11
-34.00003051757813
 21
31.56501007080078
  0
LINE
  5
2ed
100
AcDbEntity
  8
0
  6
CONTINUOUS
 62
     7
100
AcDbLine
 10
-215.5
 20
50.00003814697266
 11
-182.5
 21
50.00003814697266
  0
LINE
  5
2ee
100
AcDbEntity
  8
0
  6
DASHED
 62
     7
100
AcDbLine
 10
-185.2999877929688
 20
50.30002212524414
 11
-185.2999877929688
 21
48.80002212524414
  0
LINE
  5
2ef
100
AcDbEntity
  8
0
  6
DASHED
 62
     7
100
AcDbLine
 10
-212.7000122070313
 20
48.8000373840332
 11
-185.3000183105469
 21
48.8000373840332
  0
LINE
  5
2f0
100
AcDbEntity
  8
0
  6
CONTINUOUS
 62
     7
100
AcDbLine
 10
-182
 20
-49.49998474121094
 11
-182
 21
49.50000762939453
  0
LINE
  5
2f1
100
AcDbEntity
  8
0
  6
CONTINUOUS
 62
     7
100
AcDbLine
 10
-182
 20
44.50003814697266
 11
-181.5
 21
44.50003814697266
  0
LINE
  5
2f2
100
AcDbEntity
  8
0
  6
CONTINUOUS
 62
     7
100
AcDbLine
 10
-181.5
 20
44.50000762939453
 11
-181.5
 21
42.43500518798828
  0
LINE
  5
2f3
100
AcDbEntity
  8
0
  6
CONTINUOUS
 62
     7
100
AcDbLine
 10
-181.5000483171245
 20
42.90012621632205
 11
-181.2000490598287
 21
43.20012544832986
  0
LINE
  5
2f4
100
AcDbEntity
  8
0
  6
CONTINUOUS
 62
     7
100
AcDbLine
 10
-181.5
 20
-31.56998443603516
 11
-181.5
 21
31.56501007080078
  0
LINE
  5
2f5
100
AcDbEntity
  8
0
  6
DASHED
 62
     7
100
AcDbLine
 10
-212.7000122070313
 20
50.30002212524414
 11
-212.7000122070313
 21
48.80002212524414
  0
LINE
  5
2f6
100
AcDbEntity
  8
0
  6
DASHED
 62
     7
100
AcDbLine
 10
-209.2325652541087
 20
35.30001656098159
 11
-209.6987122970994
 21
48.64872197547604
  0
LINE
  5
2f7
100
AcDbEntity
  8
0
  6
DASHED
 62
     7
100
AcDbLine
 10
-209.850013811004
 20
48.80005695658225
 11
-208.2500034534033
 21
47.2000465989816
  0
LINE
  5
2f8
100
AcDbEntity
  8
0
  6
DASHED
 62
     7
100
AcDbLine
 10
-208.25
 20
47.20003128051758
 11
-189.75
 21
47.20003128051758
  0
LINE
  5
2f9
100
AcDbEntity
  8
0
  6
DASHED
 62
     7
100
AcDbLine
 10
-208.0698692866956
 20
35.30000567763072
 11
-208.4939442684043
 21
47.44392483276937
  0
LINE
  5
2fa
100
AcDbEntity
  8
0
  6
DASHED
 62
     7
100
AcDbLine
 10
-188.149994718969
 20
48.80000300861616
 11
-189.7499942869764
 21
47.20000344060874
  0
LINE
  5
2fb
100
AcDbEntity
  8
0
  6
DASHED
 62
     7
100
AcDbLine
 10
-188.7675151938056
 20
35.3000113851178
 11
-188.3013681508149
 21
48.64871679961225
  0
LINE
  5
2fc
100
AcDbEntity
  8
0
  6
DASHED
 62
     7
100
AcDbLine
 10
-189.9301947801113
 20
35.30003237441726
 11
-189.5061202643612
 21
47.44393818624882
  0
LINE
  5
2fd
100
AcDbEntity
  8
0
  6
CONTINUOUS
 62
     7
100
AcDbLine
 10
-216
 20
-49.49998474121094
 11
-216
 21
49.50002288818359
  0
LINE
  5
2fe
100
AcDbEntity
  8
0
  6
CONTINUOUS
 62
     7
100
AcDbLine
 10
-219
 20
22.5
 11
-216
 21
22.5
  0
LINE
  5
2ff
100
AcDbEntity
  8
0
  6
CONTINUOUS
 62
     7
100
AcDbLine
 10
-219.999999943783
 20
21.50001240253826
 11
-218.9999988650793
 21
22.50001348124205
  0
LINE
  5
300
100
AcDbEntity
  8
0
  6
CONTINUOUS
 62
     7
100
AcDbLine
 10
-220
 20
21.50000762939453
 11
-220
 21
-21.49999237060547
  0
LINE
  5
301
100
AcDbEntity
  8
0
  6
CONTINUOUS
 62
     7
100
AcDbLine
 10
-219
 20
22.50000762939453
 11
-219
 21
-22.49999237060547
  0
LINE
  5
302
100
AcDbEntity
  8
0
  6
CENTER
 62
     3
100
AcDbLine
 10
-199
 20
53.41889190673828
 11
-199
 21
35.00002288818359
  0
LINE
  5
303
100
AcDbEntity
  8
0
  6
CONTINUOUS
 62
     7
100
AcDbLine
 10
-181.5000213431458
 20
-42.90002371518534
 11
-181.2000274806468
 21
-43.20001755239676
  0
LINE
  5
304
100
AcDbEntity
  8
0
  6
CONTINUOUS
 62
     7
100
AcDbLine
 10
-181.5
 20
-44.49998474121094
 11
-181.5
 21
-42.42998504638672
  0
LINE
  5
305
100
AcDbEntity
  8
0
  6
CONTINUOUS
 62
     7
100
AcDbLine
 10
-182
 20
-44.49998474121094
 11
-181.5
 21
-44.49998474121094
  0
LINE
  5
306
100
AcDbEntity
  8
0
  6
CONTINUOUS
 62
     7
100
AcDbLine
 10
-215.5
 20
-49.99998474121094
 11
-182.5
 21
-49.99998474121094
  0
LINE
  5
307
100
AcDbEntity
  8
0
  6
CONTINUOUS
 62
     7
100
AcDbLine
 10
-219.9999891541898
 20
-21.50000161294504
 11
-218.999988075486
 21
-22.50000269164883
  0
LINE
  5
308
100
AcDbEntity
  8
0
  6
CONTINUOUS
 62
     7
100
AcDbLine
 10
-219
 20
-22.5
 11
-216
 21
-22.5
  0
LINE
  5
309
100
AcDbEntity
  8
0
  6
CONTINUOUS
 62
     7
100
AcDbLine
 10
-2
 20
50.3000373840332
 11
-32
 21
50.3000373840332
  0
LINE
  5
30a
100
AcDbEntity
  8
0
  6
CONTINUOUS
 62
     7
100
AcDbLine
 10
-2
 20
50.3000373840332
 11
-2
 21
50.00003814697266
  0
LINE
  5
30b
100
AcDbEntity
  8
0
  6
CONTINUOUS
 62
     7
100
AcDbLine
 10
-32
 20
50.3000373840332
 11
-32
 21
50.00003814697266
  0
LINE
  5
30c
100
AcDbEntity
  8
0
  6
CONTINUOUS
 62
     7
100
AcDbLine
 10
-214
 20
50.3000373840332
 11
-184
 21
50.3000373840332
  0
LINE
  5
30d
100
AcDbEntity
  8
0
  6
CONTINUOUS
 62
     7
100
AcDbLine
 10
-184
 20
50.3000373840332
 11
-184
 21
50.00003814697266
  0
LINE
  5
30e
100
AcDbEntity
  8
0
  6
CONTINUOUS
 62
     7
100
AcDbLine
 10
-214
 20
50.3000373840332
 11
-214
 21
50.00003814697266
  0
ARC
  5
30f
100
AcDbEntity
  8
0
  6
CONTINUOUS
 62
     7
100
AcDbCircle
 10
27.8125
 20
0
 40
9.8125
100
AcDbArc
 50
142.7666904091142
 51
217.2333059484209
  0
ARC
  5
310
100
AcDbEntity
  8
0
  6
CONTINUOUS
 62
     7
100
AcDbCircle
 10
89.625
 20
0
 40
43.625
100
AcDbArc
 50
167.7085741635198
 51
192.2914358543935
  0
ARC
  5
311
100
AcDbEntity
  8
0
  6
CONTINUOUS
 62
     7
100
AcDbCircle
 10
57.1097412109375
 20
-13.89352416992188
 40
11.10971927642822
100
AcDbArc
 50
155.5037910978941
 51
180.000005008957
  0
ARC
  5
312
100
AcDbEntity
  8
0
  6
CONTINUOUS
 62
     7
100
AcDbCircle
 10
47.89028930664063
 20
-13.89352416992188
 40
11.10971927642822
100
AcDbArc
 50
6.252776074688882e-013
 51
24.4962070808731
  0
ARC
  5
313
100
AcDbEntity
  8
0
  6
CONTINUOUS
 62
     7
100
AcDbCircle
 10
15.37501525878906
 20
0
 40
43.625
100
AcDbArc
 50
347.7085529328649
 51
12.29144621336216
  0
ARC
  5
314
100
AcDbEntity
  8
0
  6
CONTINUOUS
 62
     7
100
AcDbCircle
 10
47.89028930664063
 20
13.8935546875
 40
11.10971927642822
100
AcDbArc
 50
335.5037382776143
 51
359.9999453584874
  0
ARC
  5
315
100
AcDbEntity
  8
0
  6
CONTINUOUS
 62
     7
100
AcDbCircle
 10
57.1097412109375
 20
13.8935546875
 40
11.10971927642822
100
AcDbArc
 50
179.9999230466863
 51
204.4961369577493
  0
ARC
  5
316
100
AcDbEntity
  8
0
  6
CONTINUOUS
 62
     7
100
AcDbCircle
 10
-0.5
 20
-49.49998474121094
 40
0.5
100
AcDbArc
 50
269.9999974955226
 51
360
  0
ARC
  5
317
100
AcDbEntity
  8
0
  6
CONTINUOUS
 62
     7
100
AcDbCircle
 10
-33.5
 20
-49.49998474121094
 40
0.5
100
AcDbArc
 50
179.9999813306655
 51
270.0000179860897
  0
ARC
  5
318
100
AcDbEntity
  8
0
  6
CONTINUOUS
 62
     7
100
AcDbCircle
 10
-0.5
 20
49.50003814697266
 40
0.5
100
AcDbArc
 50
0
 51
90.00000250447816
  0
ARC
  5
319
100
AcDbEntity
  8
0
  6
CONTINUOUS
 62
     7
100
AcDbCircle
 10
-33.5
 20
49.50003814697266
 40
0.5
100
AcDbArc
 50
89.99998201391097
 51
179.9999640278211
  0
ARC
  5
31a
100
AcDbEntity
  8
0
  6
CONTINUOUS
 62
     7
100
AcDbCircle
 10
-182.5
 20
49.50003814697266
 40
0.5
100
AcDbArc
 50
0
 51
89.99998201391097
  0
ARC
  5
31b
100
AcDbEntity
  8
0
  6
CONTINUOUS
 62
     7
100
AcDbCircle
 10
-215.5
 20
49.50003814697266
 40
0.5
100
AcDbArc
 50
90.00000250447847
 51
180.0000050089568
  0
ARC
  5
31c
100
AcDbEntity
  8
0
  6
CONTINUOUS
 62
     7
100
AcDbCircle
 10
-182.5
 20
-49.49998474121094
 40
0.5
100
AcDbArc
 50
270.0000179860897
 51
360
  0
ARC
  5
31d
100
AcDbEntity
  8
0
  6
CONTINUOUS
 62
     7
100
AcDbCircle
 10
-215.5
 20
-49.49998474121094
 40
0.5
100
AcDbArc
 50
179.9999949910439
 51
269.9999974955222
  0
MTEXT
  5
31e
100
AcDbEntity
  8
0
  6
CONTINUOUS
 62
     7
100
AcDbMText
 10
-54.6035617440939
 20
-16.35000038146973
 40
0.5
 41
32
 71
     7
 72
     1
  1
{\W0.842888;ＢＮ－６１０５－Ｓ－８０－Ｂ－＊}
  0
ENDBLK
  8
0
  5
31f
100
AcDbEntity
100
AcDbBlockEnd
  0
BLOCK
  8
0
  5
320
100
AcDbEntity
100
AcDbBlockBegin
  2
KOZU0002
 70
    64
 10
0
 20
0
  0
POINT
  5
321
100
AcDbEntity
  8
0
  6
CONTINUOUS
 62
     7
100
AcDbPoint
 10
0
 20
0
  0
LINE
  5
322
100
AcDbEntity
  8
0
  6
CONTINUOUS
 62
     7
100
AcDbLine
 10
46.45722961425781
 20
0
 11
58.54266357421875
 21
0
  0
LINE
  5
323
100
AcDbEntity
  8
0
  6
CONTINUOUS
 62
     7
100
AcDbLine
 10
69.50006485161254
 20
11.00013554846051
 11
71.00006862371542
 21
10.00013306954327
  0
LINE
  5
324
100
AcDbEntity
  8
0
  6
CONTINUOUS
 62
     7
100
AcDbLine
 10
59
 20
11
 11
69.50001525878906
 21
11
  0
LINE
  5
325
100
AcDbEntity
  8
0
  6
CONTINUOUS
 62
     7
100
AcDbLine
 10
59
 20
10.18798828125
 11
70.718017578125
 21
10.18798828125
  0
LINE
  5
326
100
AcDbEntity
  8
0
  6
CONTINUOUS
 62
     7
100
AcDbLine
 10
69.50001525878906
 20
-11
 11
69.50001525878906
 21
11
  0
LINE
  5
327
100
AcDbEntity
  8
0
  6
CONTINUOUS
 62
     7
100
AcDbLine
 10
71.00001525878906
 20
10.00015258789063
 11
71.00001525878906
 21
-10
  0
LINE
  5
328
100
AcDbEntity
  8
0
  6
CONTINUOUS
 62
     7
100
AcDbLine
 10
69.50004051746119
 20
-11.00002339975405
 11
71.00005698564415
 21
-10.00001245678374
  0
LINE
  5
329
100
AcDbEntity
  8
0
  6
CONTINUOUS
 62
     7
100
AcDbLine
 10
59
 20
-11
 11
69.50001525878906
 21
-11
  0
LINE
  5
32a
100
AcDbEntity
  8
0
  6
CONTINUOUS
 62
     7
100
AcDbLine
 10
59
 20
-10.18798828125
 11
70.718017578125
 21
-10.18798828125
  0
LINE
  5
32b
100
AcDbEntity
  8
0
  6
CONTINUOUS
 62
     7
100
AcDbLine
 10
58.54265748214505
 20
-16.00001941636624
 11
58.999953419569
 21
-13.89350580766321
  0
LINE
  5
32c
100
AcDbEntity
  8
0
  6
CONTINUOUS
 62
     7
100
AcDbLine
 10
46.45722961425781
 20
-16
 11
58.54266357421875
 21
-16
  0
LINE
  5
32d
100
AcDbEntity
  8
0
  6
CONTINUOUS
 62
     7
100
AcDbLine
 10
59
 20
13.8935546875
 11
59
 21
-13.89352416992188
  0
LINE
  5
32e
100
AcDbEntity
  8
0
  6
CONTINUOUS
 62
     7
100
AcDbLine
 10
58.5426974565359
 20
15.99999710984896
 11
58.9999772085556
 21
13.89355805849822
  0
LINE
  5
32f
100
AcDbEntity
  8
0
  6
CONTINUOUS
 62
     7
100
AcDbLine
 10
46.45724487304688
 20
16
 11
58.54269409179688
 21
16
  0
LINE
  5
330
100
AcDbEntity
  8
0
  6
CONTINUOUS
 62
     7
100
AcDbLine
 10
46.45725050184999
 20
15.99998647681816
 11
45.99996751274944
 21
13.89353251399697
  0
LINE
  5
331
100
AcDbEntity
  8
0
  6
CONTINUOUS
 62
     7
100
AcDbLine
 10
46.00001525878906
 20
13.8935546875
 11
46.00001525878906
 21
-13.89353942871094
  0
LINE
  5
332
100
AcDbEntity
  8
0
  6
CONTINUOUS
 62
     7
100
AcDbLine
 10
46.45723833667362
 20
-16.00002034611014
 11
45.99994887341137
 21
-13.89353656034803
  0
LINE
  5
333
100
AcDbEntity
  8
0
  6
CONTINUOUS
 62
     7
100
AcDbLine
 10
20
 20
-11
 11
46.00001525878906
 21
-11
  0
LINE
  5
334
100
AcDbEntity
  8
0
  6
CONTINUOUS
 62
     7
100
AcDbLine
 10
34
 20
-10.18798828125
 11
46.00001525878906
 21
-10.18798828125
  0
LINE
  5
335
100
AcDbEntity
  8
0
  6
CONTINUOUS
 62
     7
100
AcDbLine
 10
32.59359045770134
 20
-10.99998840330622
 11
34.00000957560907
 21
-10.18799193241485
  0
LINE
  5
336
100
AcDbEntity
  8
0
  6
CONTINUOUS
 62
     7
100
AcDbLine
 10
34
 20
11
 11
34
 21
-11
  0
LINE
  5
337
100
AcDbEntity
  8
0
  6
CONTINUOUS
 62
     7
100
AcDbLine
 10
31.00001525878906
 20
11
 11
31.00001525878906
 21
-11
  0
LINE
  5
338
100
AcDbEntity
  8
0
  6
CONTINUOUS
 62
     7
100
AcDbLine
 10
28.40193176269531
 20
11
 11
28.40193176269531
 21
-11
  0
LINE
  5
339
100
AcDbEntity
  8
0
  6
CONTINUOUS
 62
     7
100
AcDbLine
 10
20.00000762939453
 20
11
 11
46.00001525878906
 21
11
  0
LINE
  5
33a
100
AcDbEntity
  8
0
  6
CONTINUOUS
 62
     7
100
AcDbLine
 10
34
 20
10.18798828125
 11
46.00001525878906
 21
10.18798828125
  0
LINE
  5
33b
100
AcDbEntity
  8
0
  6
CONTINUOUS
 62
     7
100
AcDbLine
 10
32.59359669081991
 20
11.0000068287785
 11
34.00001911235236
 21
10.18800845053848
  0
LINE
  5
33c
100
AcDbEntity
  8
0
  6
CONTINUOUS
 62
     7
100
AcDbLine
 10
18.00001464486142
 20
12.50001657009108
 11
20.00001462698002
 21
11.00001654624922
  0
LINE
  5
33d
100
AcDbEntity
  8
0
  6
CONTINUOUS
 62
     7
100
AcDbLine
 10
15
 20
12.5
 11
18.00000762939453
 21
12.5
  0
LINE
  5
33e
100
AcDbEntity
  8
0
  6
CONTINUOUS
 62
     7
100
AcDbLine
 10
14.30007902084506
 20
22.50002737705472
 11
15.00008082539417
 21
21.80002551349987
  0
LINE
  5
33f
100
AcDbEntity
  8
0
  6
CONTINUOUS
 62
     7
100
AcDbLine
 10
14.29998779296875
 20
22.5
 11
0
 21
22.5
  0
LINE
  5
340
100
AcDbEntity
  8
0
  6
CONTINUOUS
 62
     7
100
AcDbLine
 10
15
 20
-21.79998779296875
 11
15
 21
21.79998779296875
  0
LINE
  5
341
100
AcDbEntity
  8
0
  6
CONTINUOUS
 62
     7
100
AcDbLine
 10
14.30000305175781
 20
22.5
 11
14.30000305175781
 21
-22.5
  0
LINE
  5
342
100
AcDbEntity
  8
0
  6
CENTER
 62
     3
100
AcDbLine
 10
-226.9271240234375
 20
0
 11
77.52392578125
 21
0
  0
LINE
  5
343
100
AcDbEntity
  8
0
  6
CONTINUOUS
 62
     7
100
AcDbLine
 10
17.99999786019334
 20
-12.50000770092014
 11
19.99999822378167
 21
-11.00000739097598
  0
LINE
  5
344
100
AcDbEntity
  8
0
  6
CONTINUOUS
 62
     7
100
AcDbLine
 10
15
 20
-12.5
 11
18.00000762939453
 21
-12.5
  0
LINE
  5
345
100
AcDbEntity
  8
0
  6
CONTINUOUS
 62
     7
100
AcDbLine
 10
15.00002571417417
 20
-21.79999643217886
 11
14.30002924541617
 21
-22.49999284193158
  0
LINE
  5
346
100
AcDbEntity
  8
0
  6
CONTINUOUS
 62
     7
100
AcDbLine
 10
14.29998779296875
 20
-22.5
 11
0
 21
-22.5
  0
LINE
  5
347
100
AcDbEntity
  8
0
  6
CONTINUOUS
 62
     7
100
AcDbLine
 10
-33.5
 20
-50
 11
-0.5
 21
-50
  0
LINE
  5
348
100
AcDbEntity
  8
0
  6
CONTINUOUS
 62
     7
100
AcDbLine
 10
0
 20
-49.5
 11
0
 21
49.5
  0
LINE
  5
349
100
AcDbEntity
  8
0
  6
CONTINUOUS
 62
     7
100
AcDbLine
 10
-34
 20
-49.5
 11
-34
 21
49.5
  0
LINE
  5
34a
100
AcDbEntity
  8
0
  6
CONTINUOUS
 62
     7
100
AcDbLine
 10
-32.00000754453824
 20
-16.00002265405725
 11
-28.0000140193163
 21
-20.00001617927919
  0
LINE
  5
34b
100
AcDbEntity
  8
0
  6
CONTINUOUS
 62
     7
100
AcDbLine
 10
-32
 20
16
 11
-32
 21
-16
  0
LINE
  5
34c
100
AcDbEntity
  8
0
  6
CENTER
 62
     3
100
AcDbLine
 10
-30.20000076293945
 20
-14
 11
-25.80000305175781
 21
-14
  0
LINE
  5
34d
100
AcDbEntity
  8
0
  6
CENTER
 62
     3
100
AcDbLine
 10
-28
 20
-11.80000305175781
 11
-28
 21
-16.19999694824219
  0
LINE
  5
34e
100
AcDbEntity
  8
0
  6
CONTINUOUS
 62
     7
100
AcDbLine
 10
-28
 20
-20
 11
-6.000007629394531
 21
-20
  0
LINE
  5
34f
100
AcDbEntity
  8
0
  6
CENTER
 62
     3
100
AcDbLine
 10
-17
 20
16.65933227539063
 11
-17
 21
-16.55667114257813
  0
LINE
  5
350
100
AcDbEntity
  8
0
  6
CONTINUOUS
 62
     7
100
AcDbLine
 10
-2.000021039207847
 20
-16.0000119487449
 11
-6.000029231535277
 21
-20.00001238604403
  0
LINE
  5
351
100
AcDbEntity
  8
0
  6
CONTINUOUS
 62
     7
100
AcDbLine
 10
-2
 20
16
 11
-2
 21
-16
  0
LINE
  5
352
100
AcDbEntity
  8
0
  6
CENTER
 62
     3
100
AcDbLine
 10
-6
 20
16.20001220703125
 11
-6
 21
11.79998779296875
  0
LINE
  5
353
100
AcDbEntity
  8
0
  6
CENTER
 62
     3
100
AcDbLine
 10
-8.199996948242188
 20
14
 11
-3.800003051757813
 21
14
  0
LINE
  5
354
100
AcDbEntity
  8
0
  6
CONTINUOUS
 62
     7
100
AcDbLine
 10
-1.999988670427988
 20
16.00000394090849
 11
-6.000000740264254
 21
20.0000005006875
  0
LINE
  5
355
100
AcDbEntity
  8
0
  6
CONTINUOUS
 62
     7
100
AcDbLine
 10
-28
 20
20
 11
-6.000015258789063
 21
20
  0
LINE
  5
356
100
AcDbEntity
  8
0
  6
CONTINUOUS
 62
     7
100
AcDbLine
 10
-31.99999675494502
 20
16.00000107487081
 11
-28.00000322972308
 21
19.99999460009276
  0
LINE
  5
357
100
AcDbEntity
  8
0
  6
CONTINUOUS
 62
     7
100
AcDbLine
 10
-0.5
 20
50
 11
-33.5
 21
50
  0
LINE
  5
358
100
AcDbEntity
  8
0
  6
CONTINUOUS
 62
     7
100
AcDbLine
 10
-34
 20
44.5
 11
-34.5
 21
44.5
  0
LINE
  5
359
100
AcDbEntity
  8
0
  6
CONTINUOUS
 62
     7
100
AcDbLine
 10
-181.2000122070313
 20
43.20001220703125
 11
-34.80000305175781
 21
43.20001220703125
  0
LINE
  5
35a
100
AcDbEntity
  8
0
  6
CONTINUOUS
 62
     7
100
AcDbLine
 10
-34.5
 20
44.5
 11
-34.5
 21
42.42999267578125
  0
LINE
  5
35b
100
AcDbEntity
  8
0
  6
CONTINUOUS
 62
     7
100
AcDbLine
 10
-182
 20
42.43499755859375
 11
-34.00003051757813
 21
42.43499755859375
  0
LINE
  5
35c
100
AcDbEntity
  8
0
  6
CONTINUOUS
 62
     7
100
AcDbLine
 10
-182
 20
31.56500244140625
 11
-34.00003051757813
 21
31.56500244140625
  0
LINE
  5
35d
100
AcDbEntity
  8
0
  6
CONTINUOUS
 62
     7
100
AcDbLine
 10
-34.5
 20
-31.56999206542969
 11
-34.5
 21
31.56500244140625
  0
LINE
  5
35e
100
AcDbEntity
  8
0
  6
CONTINUOUS
 62
     7
100
AcDbLine
 10
-34.79994798526572
 20
43.2000602724392
 11
-34.49995414805431
 21
42.9000664099402
  0
LINE
  5
35f
100
AcDbEntity
  8
0
  6
CENTER
 62
     3
100
AcDbLine
 10
-182
 20
37
 11
-34
 21
37
  0
LINE
  5
360
100
AcDbEntity
  8
0
  6
CONTINUOUS
 62
     7
100
AcDbLine
 10
-34
 20
-44.5
 11
-34.5
 21
-44.5
  0
LINE
  5
361
100
AcDbEntity
  8
0
  6
CONTINUOUS
 62
     7
100
AcDbLine
 10
-34.5
 20
-44.5
 11
-34.5
 21
-42.42999267578125
  0
LINE
  5
362
100
AcDbEntity
  8
0
  6
CONTINUOUS
 62
     7
100
AcDbLine
 10
-34.79998338861859
 20
-43.2000572378676
 11
-34.49997876181442
 21
-42.90005258577493
  0
LINE
  5
363
100
AcDbEntity
  8
0
  6
CONTINUOUS
 62
     7
100
AcDbLine
 10
-181.2000122070313
 20
-43.19998168945313
 11
-34.80000305175781
 21
-43.19998168945313
  0
LINE
  5
364
100
AcDbEntity
  8
0
  6
CONTINUOUS
 62
     7
100
AcDbLine
 10
-182
 20
-42.43499755859375
 11
-34.00003051757813
 21
-42.43499755859375
  0
LINE
  5
365
100
AcDbEntity
  8
0
  6
CENTER
 62
     3
100
AcDbLine
 10
-182
 20
-36.99998474121094
 11
-34
 21
-36.99998474121094
  0
LINE
  5
366
100
AcDbEntity
  8
0
  6
CONTINUOUS
 62
     7
100
AcDbLine
 10
-182
 20
-31.56498718261719
 11
-34.00003051757813
 21
-31.56498718261719
  0
LINE
  5
367
100
AcDbEntity
  8
0
  6
CONTINUOUS
 62
     7
100
AcDbLine
 10
-215.5
 20
50
 11
-182.5
 21
50
  0
LINE
  5
368
100
AcDbEntity
  8
0
  6
CONTINUOUS
 62
     7
100
AcDbLine
 10
-216
 20
-49.5
 11
-216
 21
49.5
  0
LINE
  5
369
100
AcDbEntity
  8
0
  6
CONTINUOUS
 62
     7
100
AcDbLine
 10
-182
 20
-49.5
 11
-182
 21
49.5
  0
LINE
  5
36a
100
AcDbEntity
  8
0
  6
CONTINUOUS
 62
     7
100
AcDbLine
 10
-182
 20
44.5
 11
-181.5
 21
44.5
  0
LINE
  5
36b
100
AcDbEntity
  8
0
  6
CONTINUOUS
 62
     7
100
AcDbLine
 10
-181.5
 20
44.5
 11
-181.5
 21
42.43499755859375
  0
LINE
  5
36c
100
AcDbEntity
  8
0
  6
CONTINUOUS
 62
     7
100
AcDbLine
 10
-181.5000213431431
 20
42.90008845274465
 11
-181.2000166910504
 21
43.20009307954884
  0
LINE
  5
36d
100
AcDbEntity
  8
0
  6
CONTINUOUS
 62
     7
100
AcDbLine
 10
-181.5
 20
-31.56999206542969
 11
-181.5
 21
31.56500244140625
  0
LINE
  5
36e
100
AcDbEntity
  8
0
  6
CENTER
 62
     3
100
AcDbLine
 10
-190.1999969482422
 20
14
 11
-185.8000030517578
 21
14
  0
LINE
  5
36f
100
AcDbEntity
  8
0
  6
CENTER
 62
     3
100
AcDbLine
 10
-188
 20
16.20001220703125
 11
-188
 21
11.79998779296875
  0
LINE
  5
370
100
AcDbEntity
  8
0
  6
CONTINUOUS
 62
     7
100
AcDbLine
 10
-188.000003188838
 20
20.00000538968598
 11
-183.9999988740228
 21
16.00000107487081
  0
LINE
  5
371
100
AcDbEntity
  8
0
  6
CONTINUOUS
 62
     7
100
AcDbLine
 10
-184
 20
16
 11
-184
 21
-16
  0
LINE
  5
372
100
AcDbEntity
  8
0
  6
CONTINUOUS
 62
     7
100
AcDbLine
 10
-210.0000152587891
 20
20
 11
-188
 21
20
  0
LINE
  5
373
100
AcDbEntity
  8
0
  6
CONTINUOUS
 62
     7
100
AcDbLine
 10
-214.0000346072887
 20
16.00001060003189
 11
-210.0000486684942
 21
20.00001171166689
  0
LINE
  5
374
100
AcDbEntity
  8
0
  6
CONTINUOUS
 62
     7
100
AcDbLine
 10
-214
 20
16
 11
-214
 21
-16
  0
LINE
  5
375
100
AcDbEntity
  8
0
  6
CONTINUOUS
 62
     7
100
AcDbLine
 10
-220
 20
21.5
 11
-220
 21
-21.5
  0
LINE
  5
376
100
AcDbEntity
  8
0
  6
CONTINUOUS
 62
     7
100
AcDbLine
 10
-219
 20
22.5
 11
-219
 21
-22.5
  0
LINE
  5
377
100
AcDbEntity
  8
0
  6
CENTER
 62
     3
100
AcDbLine
 10
-199
 20
16.65933227539063
 11
-199
 21
-16.32916259765625
  0
LINE
  5
378
100
AcDbEntity
  8
0
  6
CONTINUOUS
 62
     7
100
AcDbLine
 10
-183.9999624592255
 20
-15.99999905179708
 11
-187.999952275529
 21
-19.99999628593403
  0
LINE
  5
379
100
AcDbEntity
  8
0
  6
CONTINUOUS
 62
     7
100
AcDbLine
 10
-210
 20
-20
 11
-188
 21
-20
  0
LINE
  5
37a
100
AcDbEntity
  8
0
  6
CONTINUOUS
 62
     7
100
AcDbLine
 10
-209.9999999463383
 20
-19.99998920529615
 11
-213.9999934715603
 21
-15.99999568007421
  0
LINE
  5
37b
100
AcDbEntity
  8
0
  6
CENTER
 62
     3
100
AcDbLine
 10
-210
 20
-11.80000305175781
 11
-210
 21
-16.19999694824219
  0
LINE
  5
37c
100
AcDbEntity
  8
0
  6
CENTER
 62
     3
100
AcDbLine
 10
-212.1999969482422
 20
-14
 11
-207.8000030517578
 21
-14
  0
LINE
  5
37d
100
AcDbEntity
  8
0
  6
CONTINUOUS
 62
     7
100
AcDbLine
 10
-181.5000267379418
 20
-42.9000398995754
 11
-181.2000328754427
 21
-43.20003373678681
  0
LINE
  5
37e
100
AcDbEntity
  8
0
  6
CONTINUOUS
 62
     7
100
AcDbLine
 10
-181.5
 20
-44.5
 11
-181.5
 21
-42.42999267578125
  0
LINE
  5
37f
100
AcDbEntity
  8
0
  6
CONTINUOUS
 62
     7
100
AcDbLine
 10
-182
 20
-44.5
 11
-181.5
 21
-44.5
  0
LINE
  5
380
100
AcDbEntity
  8
0
  6
CONTINUOUS
 62
     7
100
AcDbLine
 10
-215.5
 20
-50
 11
-182.5
 21
-50
  0
LINE
  5
381
100
AcDbEntity
  8
0
  6
CONTINUOUS
 62
     7
100
AcDbLine
 10
-218.9999847412109
 20
22.5
 11
-216
 21
22.5
  0
LINE
  5
382
100
AcDbEntity
  8
0
  6
CONTINUOUS
 62
     7
100
AcDbLine
 10
-219
 20
-22.5
 11
-216
 21
-22.5
  0
LINE
  5
383
100
AcDbEntity
  8
0
  6
CONTINUOUS
 62
     7
100
AcDbLine
 10
-219.9999869899754
 20
21.50000751398814
 11
-218.999978282713
 21
22.50000096407521
  0
LINE
  5
384
100
AcDbEntity
  8
0
  6
CONTINUOUS
 62
     7
100
AcDbLine
 10
-219.9999891541898
 20
-21.50000161294504
 11
-218.9999988650793
 21
-22.49999190205561
  0
ARC
  5
385
100
AcDbEntity
  8
0
  6
CONTINUOUS
 62
     7
100
AcDbCircle
 10
-11.19903564453125
 20
-8
 40
70.19903564453125
100
AcDbArc
 50
353.456259999155
 51
6.543740000845703
  0
ARC
  5
386
100
AcDbEntity
  8
0
  6
CONTINUOUS
 62
     7
100
AcDbCircle
 10
-11.20137023925781
 20
8.0001220703125
 40
70.20137023925781
100
AcDbArc
 50
353.456378246805
 51
6.543421116388826
  0
ARC
  5
387
100
AcDbEntity
  8
0
  6
CONTINUOUS
 62
     7
100
AcDbCircle
 10
116.2153472900391
 20
8
 40
70.21533203125
100
AcDbArc
 50
173.457803935108
 51
186.5421787620487
  0
ARC
  5
388
100
AcDbEntity
  8
0
  6
CONTINUOUS
 62
     7
100
AcDbCircle
 10
116.2165222167969
 20
-8.00006103515625
 40
70.21649932861328
100
AcDbArc
 50
173.4578585766214
 51
186.5420148375086
  0
ARC
  5
389
100
AcDbEntity
  8
0
  6
CONTINUOUS
 62
     7
100
AcDbCircle
 10
-0.5
 20
-49.5
 40
0.5
100
AcDbArc
 50
269.9999974955226
 51
360
  0
ARC
  5
38a
100
AcDbEntity
  8
0
  6
CONTINUOUS
 62
     7
100
AcDbCircle
 10
-33.5
 20
-49.5
 40
0.5
100
AcDbArc
 50
179.9999813306655
 51
270.0000179860897
  0
CIRCLE
  5
38b
100
AcDbEntity
  8
0
  6
CONTINUOUS
 62
     7
100
AcDbCircle
 10
-28
 20
-14
 40
2.200000047683716
  0
CIRCLE
  5
38c
100
AcDbEntity
  8
0
  6
CONTINUOUS
 62
     7
100
AcDbCircle
 10
-17
 20
0
 40
13.69999694824219
  0
CIRCLE
  5
38d
100
AcDbEntity
  8
0
  6
CONTINUOUS
 62
     7
100
AcDbCircle
 10
-17
 20
0
 40
10.69999980926514
  0
CIRCLE
  5
38e
100
AcDbEntity
  8
0
  6
CONTINUOUS
 62
     7
100
AcDbCircle
 10
-17
 20
0
 40
9.5
  0
CIRCLE
  5
38f
100
AcDbEntity
  8
0
  6
CONTINUOUS
 62
     7
100
AcDbCircle
 10
-6
 20
14
 40
2.200000047683716
  0
ARC
  5
390
100
AcDbEntity
  8
0
  6
CONTINUOUS
 62
     7
100
AcDbCircle
 10
-0.5
 20
49.5
 40
0.5
100
AcDbArc
 50
0
 51
90.00000250447816
  0
ARC
  5
391
100
AcDbEntity
  8
0
  6
CONTINUOUS
 62
     7
100
AcDbCircle
 10
-33.5
 20
49.5
 40
0.5
100
AcDbArc
 50
89.99998201391097
 51
179.9999640278211
  0
ARC
  5
392
100
AcDbEntity
  8
0
  6
CONTINUOUS
 62
     7
100
AcDbCircle
 10
-215.5
 20
49.5
 40
0.5
100
AcDbArc
 50
90.00000250447847
 51
180.0000050089568
  0
ARC
  5
393
100
AcDbEntity
  8
0
  6
CONTINUOUS
 62
     7
100
AcDbCircle
 10
-182.5
 20
49.5
 40
0.5
100
AcDbArc
 50
0
 51
89.99998201391097
  0
CIRCLE
  5
394
100
AcDbEntity
  8
0
  6
CONTINUOUS
 62
     7
100
AcDbCircle
 10
-199
 20
0
 40
13.70001220703125
  0
CIRCLE
  5
395
100
AcDbEntity
  8
0
  6
CONTINUOUS
 62
     7
100
AcDbCircle
 10
-199
 20
0
 40
10.69999980926514
  0
CIRCLE
  5
396
100
AcDbEntity
  8
0
  6
CONTINUOUS
 62
     7
100
AcDbCircle
 10
-199
 20
0
 40
9.5
  0
CIRCLE
  5
397
100
AcDbEntity
  8
0
  6
CONTINUOUS
 62
     7
100
AcDbCircle
 10
-188
 20
14
 40
2.200000047683716
  0
CIRCLE
  5
398
100
AcDbEntity
  8
0
  6
CONTINUOUS
 62
     7
100
AcDbCircle
 10
-210
 20
-14
 40
2.200000047683716
  0
ARC
  5
399
100
AcDbEntity
  8
0
  6
CONTINUOUS
 62
     7
100
AcDbCircle
 10
-182.5
 20
-49.5
 40
0.5
100
AcDbArc
 50
270.0000179860897
 51
360
  0
ARC
  5
39a
100
AcDbEntity
  8
0
  6
CONTINUOUS
 62
     7
100
AcDbCircle
 10
-215.5
 20
-49.5
 40
0.5
100
AcDbArc
 50
179.9999949910439
 51
269.9999974955222
  0
MTEXT
  5
39b
100
AcDbEntity
  8
0
  6
CONTINUOUS
 62
     7
100
AcDbMText
 10
-52.50355945527554
 20
-18.79999923706055
 40
0.5
 41
32
 71
     7
 72
     1
  1
{\W0.842888;ＢＮ－６１０５－Ｓ－８０－Ｂ－＊}
  0
ENDBLK
  8
0
  5
39c
100
AcDbEntity
100
AcDbBlockEnd
  0
BLOCK
  8
0
  5
39d
100
AcDbEntity
100
AcDbBlockBegin
  2
KOZU0003
 70
    64
 10
0
 20
0
  0
POINT
  5
39e
100
AcDbEntity
  8
0
  6
CONTINUOUS
 62
     7
100
AcDbPoint
 10
0
 20
0
  0
LINE
  5
39f
100
AcDbEntity
  8
0
  6
CENTER
 62
     3
100
AcDbLine
 10
54.52264404296875
 20
0
 11
-54.41079711914063
 21
0
  0
LINE
  5
3a0
100
AcDbEntity
  8
0
  6
CENTER
 62
     3
100
AcDbLine
 10
0
 20
54.99997711181641
 11
0
 21
-55.00002288818359
  0
LINE
  5
3a1
100
AcDbEntity
  8
0
  6
CONTINUOUS
 62
     7
100
AcDbLine
 10
-41.99996948242188
 20
50.00000762939453
 11
42
 21
50.00000762939453
  0
LINE
  5
3a2
100
AcDbEntity
  8
0
  6
CONTINUOUS
 62
     7
100
AcDbLine
 10
-20
 20
50.30000686645508
 11
-20
 21
49.99999237060547
  0
LINE
  5
3a3
100
AcDbEntity
  8
0
  6
DASHED
 62
    64
100
AcDbLine
 10
-13.699951171875
 20
50.30000686645508
 11
-13.699951171875
 21
48.79999160766602
  0
LINE
  5
3a4
100
AcDbEntity
  8
0
  6
DASHED
 62
     7
100
AcDbLine
 10
-13.69998168945313
 20
48.80000686645508
 11
13.70001220703125
 21
48.80000686645508
  0
LINE
  5
3a5
100
AcDbEntity
  8
0
  6
CONTINUOUS
 62
     7
100
AcDbLine
 10
-15.49996948242188
 20
47.00000762939453
 11
15.50003051757813
 21
47.00000762939453
  0
LINE
  5
3a6
100
AcDbEntity
  8
0
  6
DASHED
 62
     7
100
AcDbLine
 10
-10.84992862406834
 20
48.79999761381954
 11
-9.493849389958076
 21
47.44391837970929
  0
LINE
  5
3a7
100
AcDbEntity
  8
0
  6
DASHED
 62
     7
100
AcDbLine
 10
-10.23273621748529
 20
35.29999514715836
 11
-10.698882727952
 21
48.64868531215899
  0
LINE
  5
3a8
100
AcDbEntity
  8
0
  6
DASHED
 62
     7
100
AcDbLine
 10
-9.069973855776075
 20
35.30000948448224
 11
-9.494047239912675
 21
47.44388289113942
  0
LINE
  5
3a9
100
AcDbEntity
  8
0
  6
CONTINUOUS
 62
     7
100
AcDbLine
 10
-50
 20
41.99999237060547
 11
-50
 21
-42.00002288818359
  0
LINE
  5
3aa
100
AcDbEntity
  8
0
  6
CENTER
 62
     3
100
AcDbLine
 10
-47.24996948242188
 20
36.99997711181641
 11
-26.74996948242188
 21
36.99997711181641
  0
LINE
  5
3ab
100
AcDbEntity
  8
0
  6
CENTER
 62
     3
100
AcDbLine
 10
-37
 20
47.24999237060547
 11
-37
 21
26.74999237060547
  0
LINE
  5
3ac
100
AcDbEntity
  8
0
  6
CONTINUOUS
 62
     7
100
AcDbLine
 10
-30.999966121272
 20
40.46408745836783
 11
-36.99997212215875
 21
43.99998906275198
  0
LINE
  5
3ad
100
AcDbEntity
  8
0
  6
CONTINUOUS
 62
     7
100
AcDbLine
 10
-36.99999198016277
 20
43.99999077098769
 11
-42.99999798104953
 21
40.46408916660354
  0
LINE
  5
3ae
100
AcDbEntity
  8
0
  6
CONTINUOUS
 62
     7
100
AcDbLine
 10
-43
 20
40.46407318115234
 11
-43
 21
33.53588104248047
  0
LINE
  5
3af
100
AcDbEntity
  8
0
  6
CONTINUOUS
 62
     7
100
AcDbLine
 10
-43.00001259304687
 20
33.53588309359475
 11
-37.00000659216011
 21
29.99998148921059
  0
LINE
  5
3b0
100
AcDbEntity
  8
0
  6
CONTINUOUS
 62
     7
100
AcDbLine
 10
-36.99997968624622
 20
29.99996071957208
 11
-30.99998683121699
 21
33.53585457688753
  0
LINE
  5
3b1
100
AcDbEntity
  8
0
  6
CONTINUOUS
 62
     7
100
AcDbLine
 10
-31
 20
40.46407318115234
 11
-31
 21
33.53588104248047
  0
LINE
  5
3b2
100
AcDbEntity
  8
0
  6
CONTINUOUS
 62
     7
100
AcDbLine
 10
-24
 20
38.49999237060547
 11
-24
 21
31.99999237060547
  0
LINE
  5
3b3
100
AcDbEntity
  8
0
  6
DASHED
 62
    64
100
AcDbLine
 10
13.70001220703125
 20
50.29997634887695
 11
13.70001220703125
 21
48.79999160766602
  0
LINE
  5
3b4
100
AcDbEntity
  8
0
  6
CONTINUOUS
 62
     7
100
AcDbLine
 10
20
 20
50.30000686645508
 11
20
 21
49.99999237060547
  0
LINE
  5
3b5
100
AcDbEntity
  8
0
  6
DASHED
 62
     7
100
AcDbLine
 10
10.23248041024706
 20
35.29996590991862
 11
10.70391195548617
 21
48.79999967634924
  0
LINE
  5
3b6
100
AcDbEntity
  8
0
  6
DASHED
 62
     7
100
AcDbLine
 10
9.069749346311541
 20
35.30000205643516
 11
9.493824594282257
 21
47.44392883632072
  0
LINE
  5
3b7
100
AcDbEntity
  8
0
  6
DASHED
 62
     7
100
AcDbLine
 10
10.85001359211494
 20
48.79992343536617
 11
9.493934358004676
 21
47.4438442012559
  0
LINE
  5
3b8
100
AcDbEntity
  8
0
  6
CONTINUOUS
 62
     7
100
AcDbLine
 10
24.00006103515625
 20
38.49999237060547
 11
24.00006103515625
 21
31.99999237060547
  0
LINE
  5
3b9
100
AcDbEntity
  8
0
  6
CONTINUOUS
 62
     7
100
AcDbLine
 10
-20.99996948242188
 20
36.00000762939453
 11
21
 21
36.00000762939453
  0
LINE
  5
3ba
100
AcDbEntity
  8
0
  6
CONTINUOUS
 62
     7
100
AcDbLine
 10
-38.49996948242188
 20
23.99996948242188
 11
-31.99996948242188
 21
23.99996948242188
  0
LINE
  5
3bb
100
AcDbEntity
  8
0
  6
CONTINUOUS
 62
     7
100
AcDbLine
 10
-47
 20
15.49997711181641
 11
-47
 21
-15.50000762939453
  0
LINE
  5
3bc
100
AcDbEntity
  8
0
  6
DASHED
 62
    64
100
AcDbLine
 10
-49.99996948242188
 20
8.25
 11
-48.49996948242188
 21
8.25
  0
LINE
  5
3bd
100
AcDbEntity
  8
0
  6
DASHED
 62
     7
100
AcDbLine
 10
-48.5
 20
8.249992370605469
 11
-48.5
 21
-8.250022888183594
  0
LINE
  5
3be
100
AcDbEntity
  8
0
  6
DASHED
 62
    64
100
AcDbLine
 10
-48.49996948242188
 20
5
 11
-39.99996948242188
 21
5
  0
LINE
  5
3bf
100
AcDbEntity
  8
0
  6
CONTINUOUS
 62
     7
100
AcDbLine
 10
-23.664306640625
 20
6.499969482421875
 11
-43.99996948242188
 21
6.499969482421875
  0
LINE
  5
3c0
100
AcDbEntity
  8
0
  6
CONTINUOUS
 62
     7
100
AcDbLine
 10
-25.9630308683261
 20
23.84186090472195
 11
-18.80881845111664
 21
16.68764848751249
  0
LINE
  5
3c1
100
AcDbEntity
  8
0
  6
CONTINUOUS
 62
     7
100
AcDbLine
 10
-23.84169307597118
 20
25.96319869707688
 11
-16.68748065876172
 21
18.80898627986742
  0
LINE
  5
3c2
100
AcDbEntity
  8
0
  6
CONTINUOUS
 62
     7
100
AcDbLine
 10
-10
 20
27.99997711181641
 11
-10
 21
21.93738555908203
  0
LINE
  5
3c3
100
AcDbEntity
  8
0
  6
CONTINUOUS
 62
     7
100
AcDbLine
 10
10.00006103515625
 20
27.99997711181641
 11
10.00006103515625
 21
21.93738555908203
  0
LINE
  5
3c4
100
AcDbEntity
  8
0
  6
CONTINUOUS
 62
     7
100
AcDbLine
 10
-9.999969482421875
 20
27.99997711181641
 11
10
 21
27.99997711181641
  0
LINE
  5
3c5
100
AcDbEntity
  8
0
  6
CONTINUOUS
 62
     7
100
AcDbLine
 10
15.00032300961401
 20
32.99975034735435
 11
10.00031761609506
 21
27.9997449538354
  0
LINE
  5
3c6
100
AcDbEntity
  8
0
  6
CONTINUOUS
 62
     7
100
AcDbLine
 10
-14.99996948242188
 20
32.99997711181641
 11
15
 21
32.99997711181641
  0
LINE
  5
3c7
100
AcDbEntity
  8
0
  6
CONTINUOUS
 62
     7
100
AcDbLine
 10
15.00006103515625
 20
35.99999237060547
 11
15.00006103515625
 21
32.99997711181641
  0
LINE
  5
3c8
100
AcDbEntity
  8
0
  6
CONTINUOUS
 62
     7
100
AcDbLine
 10
-15
 20
35.99999237060547
 11
-15
 21
32.99997711181641
  0
LINE
  5
3c9
100
AcDbEntity
  8
0
  6
CONTINUOUS
 62
     7
100
AcDbLine
 10
-9.999832758749792
 20
28.00012191524849
 11
-14.99985973145518
 21
33.00014888795387
  0
LINE
  5
3ca
100
AcDbEntity
  8
0
  6
DASHED
 62
     7
100
AcDbLine
 10
-40
 20
4.999977111816406
 11
-40
 21
3.599983215332031
  0
LINE
  5
3cb
100
AcDbEntity
  8
0
  6
DASHED
 62
     7
100
AcDbLine
 10
-39.99996948242188
 20
3.999969482421875
 11
-33.99996948242188
 21
3.999969482421875
  0
LINE
  5
3cc
100
AcDbEntity
  8
0
  6
DASHED
 62
     7
100
AcDbLine
 10
-39.99996948242188
 20
3.600006103515625
 11
-32.99996948242188
 21
3.600006103515625
  0
LINE
  5
3cd
100
AcDbEntity
  8
0
  6
CONTINUOUS
 62
     7
100
AcDbLine
 10
-22.44992065429688
 20
1.499969482421875
 11
-46.99996948242188
 21
1.499969482421875
  0
LINE
  5
3ce
100
AcDbEntity
  8
0
  6
DASHED
 62
     7
100
AcDbLine
 10
-33.30712825932039
 20
3.600034662602495
 11
-33.9999380076401
 21
4.000028564471258
  0
LINE
  5
3cf
100
AcDbEntity
  8
0
  6
DASHED
 62
     7
100
AcDbLine
 10
-34
 20
3.999977111816406
 11
-34
 21
1.457984924316406
  0
LINE
  5
3d0
100
AcDbEntity
  8
0
  6
DASHED
 62
     7
100
AcDbLine
 10
-33
 20
3.599983215332031
 11
-33
 21
1.249977111816406
  0
LINE
  5
3d1
100
AcDbEntity
  8
0
  6
DASHED
 62
    64
100
AcDbLine
 10
-32.99996948242188
 20
1.25
 11
-29.99996948242188
 21
1.25
  0
LINE
  5
3d2
100
AcDbEntity
  8
0
  6
DASHED
 62
    64
100
AcDbLine
 10
-32.99996948242188
 20
-1.25
 11
-29.99996948242188
 21
-1.25
  0
LINE
  5
3d3
100
AcDbEntity
  8
0
  6
DASHED
 62
     7
100
AcDbLine
 10
-33
 20
-1.250022888183594
 11
-33
 21
-3.600028991699219
  0
LINE
  5
3d4
100
AcDbEntity
  8
0
  6
DASHED
 62
     7
100
AcDbLine
 10
-33.30707008518631
 20
-3.600135423156607
 11
-33.99987983350601
 21
-4.00012932502537
  0
LINE
  5
3d5
100
AcDbEntity
  8
0
  6
DASHED
 62
     7
100
AcDbLine
 10
-39.99996948242188
 20
-3.600006103515625
 11
-32.99996948242188
 21
-3.600006103515625
  0
LINE
  5
3d6
100
AcDbEntity
  8
0
  6
DASHED
 62
     7
100
AcDbLine
 10
-34
 20
-1.458015441894531
 11
-34
 21
-4.000007629394531
  0
LINE
  5
3d7
100
AcDbEntity
  8
0
  6
DASHED
 62
     7
100
AcDbLine
 10
-39.99996948242188
 20
-4
 11
-33.99996948242188
 21
-4
  0
LINE
  5
3d8
100
AcDbEntity
  8
0
  6
DASHED
 62
     7
100
AcDbLine
 10
-40
 20
-3.600028991699219
 11
-40
 21
-5.000022888183594
  0
LINE
  5
3d9
100
AcDbEntity
  8
0
  6
DASHED
 62
    64
100
AcDbLine
 10
-48.49996948242188
 20
-5
 11
-39.99996948242188
 21
-5
  0
LINE
  5
3da
100
AcDbEntity
  8
0
  6
CONTINUOUS
 62
     7
100
AcDbLine
 10
-22.44992065429688
 20
-1.5
 11
-46.99996948242188
 21
-1.5
  0
LINE
  5
3db
100
AcDbEntity
  8
0
  6
DASHED
 62
    64
100
AcDbLine
 10
-49.99996948242188
 20
-8.250030517578125
 11
-48.49996948242188
 21
-8.250030517578125
  0
LINE
  5
3dc
100
AcDbEntity
  8
0
  6
CONTINUOUS
 62
     7
100
AcDbLine
 10
-23.664306640625
 20
-6.5
 11
-43.99996948242188
 21
-6.5
  0
LINE
  5
3dd
100
AcDbEntity
  8
0
  6
CONTINUOUS
 62
     7
100
AcDbLine
 10
50.00006103515625
 20
41.99999237060547
 11
50.00006103515625
 21
-42.00002288818359
  0
LINE
  5
3de
100
AcDbEntity
  8
0
  6
CENTER
 62
     3
100
AcDbLine
 10
26.75003051757813
 20
36.99997711181641
 11
47.25
 21
36.99997711181641
  0
LINE
  5
3df
100
AcDbEntity
  8
0
  6
CONTINUOUS
 62
     7
100
AcDbLine
 10
43.00006103515625
 20
40.46407318115234
 11
43.00006103515625
 21
33.53588104248047
  0
LINE
  5
3e0
100
AcDbEntity
  8
0
  6
CONTINUOUS
 62
     7
100
AcDbLine
 10
37.00007103828917
 20
29.99999234789107
 11
43.00007046624717
 21
33.53589007874088
  0
LINE
  5
3e1
100
AcDbEntity
  8
0
  6
CONTINUOUS
 62
     7
100
AcDbLine
 10
43.00007186891858
 20
40.46409432943691
 11
37.00006586803182
 21
43.99999593382106
  0
LINE
  5
3e2
100
AcDbEntity
  8
0
  6
CENTER
 62
     3
100
AcDbLine
 10
37.00006103515625
 20
47.24999237060547
 11
37.00006103515625
 21
26.74999237060547
  0
LINE
  5
3e3
100
AcDbEntity
  8
0
  6
CONTINUOUS
 62
     7
100
AcDbLine
 10
31.00006103515625
 20
40.46407318115234
 11
31.00006103515625
 21
33.53588104248047
  0
LINE
  5
3e4
100
AcDbEntity
  8
0
  6
CONTINUOUS
 62
     7
100
AcDbLine
 10
37.00006690295405
 20
43.99997850112978
 11
31.00004775620975
 21
40.46406914967692
  0
LINE
  5
3e5
100
AcDbEntity
  8
0
  6
CONTINUOUS
 62
     7
100
AcDbLine
 10
31.00005338353004
 20
33.53587734618276
 11
37.00004623855927
 21
29.99998348886731
  0
LINE
  5
3e6
100
AcDbEntity
  8
0
  6
CONTINUOUS
 62
     7
100
AcDbLine
 10
23.84183418361999
 20
25.96305758942806
 11
16.68760558202071
 21
18.80882898782877
  0
LINE
  5
3e7
100
AcDbEntity
  8
0
  6
CONTINUOUS
 62
     7
100
AcDbLine
 10
25.96317298749928
 20
23.84175115432843
 11
18.80897135988304
 21
16.68754952671219
  0
LINE
  5
3e8
100
AcDbEntity
  8
0
  6
CONTINUOUS
 62
     7
100
AcDbLine
 10
32
 20
23.99996948242188
 11
38.50003051757813
 21
23.99996948242188
  0
LINE
  5
3e9
100
AcDbEntity
  8
0
  6
CONTINUOUS
 62
     7
100
AcDbLine
 10
47.00006103515625
 20
15.49997711181641
 11
47.00006103515625
 21
-15.50000762939453
  0
LINE
  5
3ea
100
AcDbEntity
  8
0
  6
CONTINUOUS
 62
     7
100
AcDbLine
 10
23.66433715820313
 20
6.499969482421875
 11
44
 21
6.499969482421875
  0
LINE
  5
3eb
100
AcDbEntity
  8
0
  6
CONTINUOUS
 62
     7
100
AcDbLine
 10
22.449951171875
 20
1.499969482421875
 11
47
 21
1.499969482421875
  0
LINE
  5
3ec
100
AcDbEntity
  8
0
  6
CONTINUOUS
 62
     7
100
AcDbLine
 10
22.449951171875
 20
-1.5
 11
47
 21
-1.5
  0
LINE
  5
3ed
100
AcDbEntity
  8
0
  6
CONTINUOUS
 62
     7
100
AcDbLine
 10
23.66433715820313
 20
-6.5
 11
44
 21
-6.5
  0
LINE
  5
3ee
100
AcDbEntity
  8
0
  6
CONTINUOUS
 62
     7
100
AcDbLine
 10
23.84188248390839
 20
-25.96305244751254
 11
16.68764848751249
 21
-18.80881845111664
  0
LINE
  5
3ef
100
AcDbEntity
  8
0
  6
CONTINUOUS
 62
     7
100
AcDbLine
 10
25.96322027626331
 20
-23.84171465515762
 11
18.80898627986742
 21
-16.68748065876172
  0
LINE
  5
3f0
100
AcDbEntity
  8
0
  6
CONTINUOUS
 62
     7
100
AcDbLine
 10
32
 20
-24
 11
38.50003051757813
 21
-24
  0
LINE
  5
3f1
100
AcDbEntity
  8
0
  6
CONTINUOUS
 62
     7
100
AcDbLine
 10
43.00006202923032
 20
-33.53591942237419
 11
37.00006917420109
 21
-30.00002556505874
  0
LINE
  5
3f2
100
AcDbEntity
  8
0
  6
CENTER
 62
     3
100
AcDbLine
 10
37.00006103515625
 20
-26.75002288818359
 11
37.00006103515625
 21
-47.25002288818359
  0
LINE
  5
3f3
100
AcDbEntity
  8
0
  6
CONTINUOUS
 62
     7
100
AcDbLine
 10
37.00006795451092
 20
-30.00005039229489
 11
31.00006195362415
 21
-33.53595199667904
  0
LINE
  5
3f4
100
AcDbEntity
  8
0
  6
CONTINUOUS
 62
     7
100
AcDbLine
 10
31.00006103515625
 20
-33.53592681884766
 11
31.00006103515625
 21
-40.46413421630859
  0
LINE
  5
3f5
100
AcDbEntity
  8
0
  6
CENTER
 62
     3
100
AcDbLine
 10
26.75003051757813
 20
-37.00003051757813
 11
47.25
 21
-37.00003051757813
  0
LINE
  5
3f6
100
AcDbEntity
  8
0
  6
CONTINUOUS
 62
     7
100
AcDbLine
 10
43.00006103515625
 20
-33.53592681884766
 11
43.00006103515625
 21
-40.46413421630859
  0
LINE
  5
3f7
100
AcDbEntity
  8
0
  6
CONTINUOUS
 62
     7
100
AcDbLine
 10
37.00007208984605
 20
-44.00003654553359
 11
43.00007809073281
 21
-40.46413494114944
  0
LINE
  5
3f8
100
AcDbEntity
  8
0
  6
CONTINUOUS
 62
     7
100
AcDbLine
 10
31.00007903520092
 20
-40.46413628905994
 11
37.00007189023015
 21
-44.00003014637538
  0
LINE
  5
3f9
100
AcDbEntity
  8
0
  6
CONTINUOUS
 62
     7
100
AcDbLine
 10
-41.99996948242188
 20
-50.00002288818359
 11
42
 21
-50.00002288818359
  0
LINE
  5
3fa
100
AcDbEntity
  8
0
  6
CONTINUOUS
 62
     7
100
AcDbLine
 10
24.00006103515625
 20
-32.00002288818359
 11
24.00006103515625
 21
-38.50002288818359
  0
LINE
  5
3fb
100
AcDbEntity
  8
0
  6
CONTINUOUS
 62
     7
100
AcDbLine
 10
-1.5
 20
-25.09981536865234
 11
-1.5
 21
-44.00000762939453
  0
LINE
  5
3fc
100
AcDbEntity
  8
0
  6
CONTINUOUS
 62
     7
100
AcDbLine
 10
1.5
 20
-25.09981536865234
 11
1.5
 21
-44.00000762939453
  0
LINE
  5
3fd
100
AcDbEntity
  8
0
  6
CONTINUOUS
 62
     7
100
AcDbLine
 10
-15.49996948242188
 20
-47.00002288818359
 11
15.50003051757813
 21
-47.00002288818359
  0
LINE
  5
3fe
100
AcDbEntity
  8
0
  6
CONTINUOUS
 62
     7
100
AcDbLine
 10
-24
 20
-32.00002288818359
 11
-24
 21
-38.50002288818359
  0
LINE
  5
3ff
100
AcDbEntity
  8
0
  6
CONTINUOUS
 62
     7
100
AcDbLine
 10
-25.96308995820772
 20
-23.84186655239965
 11
-18.80885596181182
 21
-16.68763255600375
  0
LINE
  5
400
100
AcDbEntity
  8
0
  6
CONTINUOUS
 62
     7
100
AcDbLine
 10
-23.84172418034538
 20
-25.96314601351624
 11
-16.68751176313592
 21
-18.80893359630678
  0
LINE
  5
401
100
AcDbEntity
  8
0
  6
CONTINUOUS
 62
     7
100
AcDbLine
 10
-38.49996948242188
 20
-24
 11
-31.99996948242188
 21
-24
  0
LINE
  5
402
100
AcDbEntity
  8
0
  6
CONTINUOUS
 62
     7
100
AcDbLine
 10
-43.00000960165259
 20
-40.46410888538983
 11
-37.00000360076582
 21
-44.00001048977398
  0
LINE
  5
403
100
AcDbEntity
  8
0
  6
CONTINUOUS
 62
     7
100
AcDbLine
 10
-43
 20
-33.53592681884766
 11
-43
 21
-40.46413421630859
  0
LINE
  5
404
100
AcDbEntity
  8
0
  6
CENTER
 62
     3
100
AcDbLine
 10
-47.24996948242188
 20
-37.00003051757813
 11
-26.74996948242188
 21
-37.00003051757813
  0
LINE
  5
405
100
AcDbEntity
  8
0
  6
CONTINUOUS
 62
     7
100
AcDbLine
 10
-30.99997450838487
 20
-33.53592382859499
 11
-36.99998050927164
 21
-30.00002222421084
  0
LINE
  5
406
100
AcDbEntity
  8
0
  6
CONTINUOUS
 62
     7
100
AcDbLine
 10
-36.99997688704386
 20
-30.00006194930375
 11
-42.99996974207309
 21
-33.53595580661919
  0
LINE
  5
407
100
AcDbEntity
  8
0
  6
CENTER
 62
     3
100
AcDbLine
 10
-37
 20
-26.75002288818359
 11
-37
 21
-47.25002288818359
  0
LINE
  5
408
100
AcDbEntity
  8
0
  6
CONTINUOUS
 62
     7
100
AcDbLine
 10
-31
 20
-33.53592681884766
 11
-31
 21
-40.46413421630859
  0
LINE
  5
409
100
AcDbEntity
  8
0
  6
CONTINUOUS
 62
     7
100
AcDbLine
 10
-36.99999703397752
 20
-44.00003695244095
 11
-30.99999103309076
 21
-40.4641353480568
  0
LINE
  5
40a
100
AcDbEntity
  8
0
  6
CONTINUOUS
 62
     7
100
AcDbLine
 10
-20
 20
50.30000686645508
 11
20
 21
50.30000686645508
  0
LINE
  5
40b
100
AcDbEntity
  8
0
  6
DASHED
 62
     1
100
AcDbLine
 10
-31.60576629638672
 20
0.9599986076354981
 11
-31.60576629638672
 21
-0.9599986076354981
  0
LINE
  5
40c
100
AcDbEntity
  8
0
  6
DASHED
 62
     1
100
AcDbLine
 10
-36.60575807092015
 20
1.999999584720661
 11
-31.60575587077011
 21
0.9599967393604718
  0
LINE
  5
40d
100
AcDbEntity
  8
0
  6
DASHED
 62
     1
100
AcDbLine
 10
-36.60575858655037
 20
-1.999999019824484
 11
-31.60575605515428
 21
-0.9599977669910143
  0
LINE
  5
40e
100
AcDbEntity
  8
0
  6
DASHED
 62
     1
100
AcDbLine
 10
-36.60576629638672
 20
3.500000476837158
 11
-36.60576629638672
 21
-3.499999523162842
  0
LINE
  5
40f
100
AcDbEntity
  8
0
  6
DASHED
 62
     1
100
AcDbLine
 10
-37.10576629638672
 20
-3.999999523162842
 11
-37.10576629638672
 21
4.000000476837158
  0
LINE
  5
410
100
AcDbEntity
  8
0
  6
DASHED
 62
     1
100
AcDbLine
 10
-36.60576488548013
 20
3.500002271549704
 11
-37.10576536161168
 21
4.000002874121936
  0
LINE
  5
411
100
AcDbEntity
  8
0
  6
DASHED
 62
     1
100
AcDbLine
 10
-40.60576629638672
 20
4.000000476837158
 11
-37.10576629638672
 21
4.000000476837158
  0
LINE
  5
412
100
AcDbEntity
  8
0
  6
DASHED
 62
     1
100
AcDbLine
 10
-42.10576629638672
 20
3.594000339508057
 11
-36.69976043701172
 21
3.594000339508057
  0
LINE
  5
413
100
AcDbEntity
  8
0
  6
DASHED
 62
     1
100
AcDbLine
 10
-40.60576629638672
 20
4.000000476837158
 11
-40.60576629638672
 21
-3.999999046325684
  0
LINE
  5
414
100
AcDbEntity
  8
0
  6
DASHED
 62
     1
100
AcDbLine
 10
-42.10576629638672
 20
4.900002002716065
 11
-42.10576629638672
 21
-4.899998664855957
  0
LINE
  5
415
100
AcDbEntity
  8
0
  6
DASHED
 62
     1
100
AcDbLine
 10
-42.80576324462891
 20
4.900000095367432
 11
-42.10576629638672
 21
4.900000095367432
  0
LINE
  5
416
100
AcDbEntity
  8
0
  6
DASHED
 62
     1
100
AcDbLine
 10
-42.80576324462891
 20
5.000001430511475
 11
-42.80576324462891
 21
-4.999998569488525
  0
LINE
  5
417
100
AcDbEntity
  8
0
  6
DASHED
 62
     1
100
AcDbLine
 10
-44.40576171875
 20
5.000000476837158
 11
-42.80576324462891
 21
5.000000476837158
  0
LINE
  5
418
100
AcDbEntity
  8
0
  6
DASHED
 62
     1
100
AcDbLine
 10
-44.40576171875
 20
5.000002384185791
 11
-44.40576171875
 21
-4.999998092651367
  0
LINE
  5
419
100
AcDbEntity
  8
0
  6
DASHED
 62
     1
100
AcDbLine
 10
-44.40576171875
 20
3.799999713897705
 11
-42.80576324462891
 21
3.799999713897705
  0
LINE
  5
41a
100
AcDbEntity
  8
0
  6
DASHED
 62
     1
100
AcDbLine
 10
-44.40576171875
 20
-3.799999952316284
 11
-42.80576324462891
 21
-3.799999952316284
  0
LINE
  5
41b
100
AcDbEntity
  8
0
  6
DASHED
 62
     1
100
AcDbLine
 10
-44.40576171875
 20
-5
 11
-42.80576324462891
 21
-5
  0
LINE
  5
41c
100
AcDbEntity
  8
0
  6
DASHED
 62
     1
100
AcDbLine
 10
-42.80576324462891
 20
-4.900000095367432
 11
-42.10576629638672
 21
-4.900000095367432
  0
LINE
  5
41d
100
AcDbEntity
  8
0
  6
DASHED
 62
     1
100
AcDbLine
 10
-45.10576629638672
 20
-4.900000095367432
 11
-44.40576171875
 21
-4.900000095367432
  0
LINE
  5
41e
100
AcDbEntity
  8
0
  6
DASHED
 62
     1
100
AcDbLine
 10
-42.10576629638672
 20
-3.594000101089478
 11
-36.69976043701172
 21
-3.594000101089478
  0
LINE
  5
41f
100
AcDbEntity
  8
0
  6
DASHED
 62
     1
100
AcDbLine
 10
-40.60576629638672
 20
-4
 11
-37.10576629638672
 21
-4
  0
LINE
  5
420
100
AcDbEntity
  8
0
  6
DASHED
 62
     1
100
AcDbLine
 10
-37.10577014527908
 20
-3.999998063707988
 11
-36.60576954270685
 21
-3.499997587576438
  0
LINE
  5
421
100
AcDbEntity
  8
0
  6
DASHED
 62
     1
100
AcDbLine
 10
-45.10576629638672
 20
4.900000095367432
 11
-44.40576171875
 21
4.900000095367432
  0
LINE
  5
422
100
AcDbEntity
  8
0
  6
DASHED
 62
     1
100
AcDbLine
 10
-45.10576629638672
 20
4.900002002716065
 11
-45.10576629638672
 21
-4.899998188018799
  0
LINE
  5
423
100
AcDbEntity
  8
0
  6
DASHED
 62
     7
100
AcDbLine
 10
-47.10575866699219
 20
-5.000007629394531
 11
-47.10575866699219
 21
5
  0
LINE
  5
424
100
AcDbEntity
  8
0
  6
DASHED
 62
     7
100
AcDbLine
 10
-47.60575866699219
 20
-5
 11
-47.60575866699219
 21
5
  0
LINE
  5
425
100
AcDbEntity
  8
0
  6
DASHED
 62
     7
100
AcDbLine
 10
-47.60575866699219
 20
5
 11
-47.10575866699219
 21
5
  0
LINE
  5
426
100
AcDbEntity
  8
0
  6
DASHED
 62
     7
100
AcDbLine
 10
-47.60575866699219
 20
-5
 11
-47.10575866699219
 21
-5
  0
ARC
  5
427
100
AcDbEntity
  8
0
  6
CONTINUOUS
 62
     7
100
AcDbCircle
 10
-42
 20
42.00000762939453
 40
8
100
AcDbArc
 50
90.00000933466734
 51
180.0000459900921
  0
CIRCLE
  5
428
100
AcDbEntity
  8
0
  6
CONTINUOUS
 62
     7
100
AcDbCircle
 10
-37
 20
36.99997711181641
 40
5.053000450134277
  0
CIRCLE
  5
429
100
AcDbEntity
  8
0
  6
CONTINUOUS
 62
     7
100
AcDbCircle
 10
-37
 20
36.99997711181641
 40
6
  0
CIRCLE
  5
42a
100
AcDbEntity
  8
0
  6
CONTINUOUS
 62
     7
100
AcDbCircle
 10
-37
 20
36.99997711181641
 40
7.25
  0
CIRCLE
  5
42b
100
AcDbEntity
  8
0
  6
CONTINUOUS
 62
     7
100
AcDbCircle
 10
-37
 20
36.99997711181641
 40
9
  0
CIRCLE
  5
42c
100
AcDbEntity
  8
0
  6
CONTINUOUS
 62
     7
100
AcDbCircle
 10
-37
 20
37.00000762939453
 40
10.25
  0
ARC
  5
42d
100
AcDbEntity
  8
0
  6
CONTINUOUS
 62
     7
100
AcDbCircle
 10
-21.5
 20
38.50000762939453
 40
2.5
100
AcDbArc
 50
84.52156924291343
 51
180.0000186693353
  0
ARC
  5
42e
100
AcDbEntity
  8
0
  6
CONTINUOUS
 62
     7
100
AcDbCircle
 10
-20.97488403320313
 20
43.97487640380859
 40
3
100
AcDbArc
 50
264.5210519697701
 51
5.478902837070161
  0
ARC
  5
42f
100
AcDbEntity
  8
0
  6
CONTINUOUS
 62
     7
100
AcDbCircle
 10
-15.5
 20
44.50000762939453
 40
2.5
100
AcDbArc
 50
90.00000933466733
 51
185.4787456290345
  0
ARC
  5
430
100
AcDbEntity
  8
0
  6
CONTINUOUS
 62
     7
100
AcDbCircle
 10
15.50006103515625
 20
44.50000762939453
 40
2.5
100
AcDbArc
 50
354.5211910780317
 51
90.000036655424
  0
ARC
  5
431
100
AcDbEntity
  8
0
  6
CONTINUOUS
 62
     7
100
AcDbCircle
 10
20.97492980957031
 20
43.97487640380859
 40
3
100
AcDbArc
 50
174.5211141247173
 51
275.4788779071067
  0
ARC
  5
432
100
AcDbEntity
  8
0
  6
CONTINUOUS
 62
     7
100
AcDbCircle
 10
21.50006103515625
 20
38.50000762939453
 40
2.5
100
AcDbArc
 50
5.46415133601103e-005
 51
95.47882508682554
  0
ARC
  5
433
100
AcDbEntity
  8
0
  6
CONTINUOUS
 62
     7
100
AcDbCircle
 10
21.00006103515625
 20
32.99997711181641
 40
3
100
AcDbArc
 50
5.46415133601103e-005
 51
90.00000250447815
  0
ARC
  5
434
100
AcDbEntity
  8
0
  6
CONTINUOUS
 62
     7
100
AcDbCircle
 10
-21
 20
32.99997711181641
 40
3
100
AcDbArc
 50
90.00000933466731
 51
180.0000186693353
  0
ARC
  5
435
100
AcDbEntity
  8
0
  6
CONTINUOUS
 62
     7
100
AcDbCircle
 10
-32
 20
32.00000762939453
 40
8
100
AcDbArc
 50
270.00001798609
 51
5.46415133601103e-005
  0
ARC
  5
436
100
AcDbEntity
  8
0
  6
CONTINUOUS
 62
     7
100
AcDbCircle
 10
-38.5
 20
21.49996948242188
 40
2.5
100
AcDbArc
 50
90.000036655424
 51
185.4787456290344
  0
ARC
  5
437
100
AcDbEntity
  8
0
  6
CONTINUOUS
 62
     7
100
AcDbCircle
 10
-43.97488403320313
 20
20.97484588623047
 40
3
100
AcDbArc
 50
264.5210792905268
 51
5.47875769555028
  0
ARC
  5
438
100
AcDbEntity
  8
0
  6
CONTINUOUS
 62
     7
100
AcDbCircle
 10
-44.5
 20
15.49996948242188
 40
2.5
100
AcDbArc
 50
84.52155558253509
 51
180.0000186693354
  0
ARC
  5
439
100
AcDbEntity
  8
0
  6
CONTINUOUS
 62
     7
100
AcDbCircle
 10
-44
 20
9.5
 40
3
100
AcDbArc
 50
180.0000359721794
 51
270.0000384766575
  0
ARC
  5
43a
100
AcDbEntity
  8
0
  6
CONTINUOUS
 62
     7
100
AcDbCircle
 10
-23.664306640625
 20
9.5
 40
3
100
AcDbArc
 50
269.9999633445768
 51
338.1271114849786
  0
CIRCLE
  5
43b
100
AcDbEntity
  8
0
  6
CONTINUOUS
 62
     7
100
AcDbCircle
 10
0
 20
0
 40
22.5
  0
CIRCLE
  5
43c
100
AcDbEntity
  8
0
  6
CONTINUOUS
 62
     7
100
AcDbCircle
 10
0
 20
0
 40
21.80000305175781
  0
ARC
  5
43d
100
AcDbEntity
  8
0
  6
CONTINUOUS
 62
     7
100
AcDbCircle
 10
-20.93017578125
 20
14.56622314453125
 40
3
100
AcDbArc
 50
325.1642730441298
 51
45.00001832771203
  0
ARC
  5
43e
100
AcDbEntity
  8
0
  6
CONTINUOUS
 62
     7
100
AcDbCircle
 10
-28.08441162109375
 20
21.720458984375
 40
3
100
AcDbArc
 50
45.00001832771203
 51
110.8522763423928
  0
ARC
  5
43f
100
AcDbEntity
  8
0
  6
CONTINUOUS
 62
     7
100
AcDbCircle
 10
-21.720458984375
 20
28.08444976806641
 40
3
100
AcDbArc
 50
159.1477516616092
 51
225.0000096762907
  0
ARC
  5
440
100
AcDbEntity
  8
0
  6
CONTINUOUS
 62
     7
100
AcDbCircle
 10
-14.56622314453125
 20
20.93020629882813
 40
3
100
AcDbArc
 50
225.0000406395131
 51
304.835785923096
  0
ARC
  5
441
100
AcDbEntity
  8
0
  6
CONTINUOUS
 62
     7
100
AcDbCircle
 10
-13
 20
21.93740844726563
 40
3
100
AcDbArc
 50
300.6507787544674
 51
359.9999863396224
  0
ARC
  5
442
100
AcDbEntity
  8
0
  6
CONTINUOUS
 62
     7
100
AcDbCircle
 10
14.5662841796875
 20
20.93020629882813
 40
3
100
AcDbArc
 50
235.1642773698408
 51
315.0000294836129
  0
ARC
  5
443
100
AcDbEntity
  8
0
  6
CONTINUOUS
 62
     7
100
AcDbCircle
 10
13.00006103515625
 20
21.93740844726563
 40
3
100
AcDbArc
 50
180.0000769533144
 51
239.3492845384694
  0
ARC
  5
444
100
AcDbEntity
  8
0
  6
CONTINUOUS
 62
     7
100
AcDbCircle
 10
-44
 20
-9.500030517578125
 40
3
100
AcDbArc
 50
90.00006397618074
 51
180.0000459900921
  0
ARC
  5
445
100
AcDbEntity
  8
0
  6
CONTINUOUS
 62
     7
100
AcDbCircle
 10
-23.664306640625
 20
-9.500030517578125
 40
3
100
AcDbArc
 50
21.87294315653548
 51
90.00009129693736
  0
ARC
  5
446
100
AcDbEntity
  8
0
  6
CONTINUOUS
 62
     7
100
AcDbCircle
 10
42.00006103515625
 20
42.00000762939453
 40
8
100
AcDbArc
 50
0
 51
89.99998884409983
  0
CIRCLE
  5
447
100
AcDbEntity
  8
0
  6
CONTINUOUS
 62
     7
100
AcDbCircle
 10
37.00006103515625
 20
36.99997711181641
 40
9
  0
CIRCLE
  5
448
100
AcDbEntity
  8
0
  6
CONTINUOUS
 62
     7
100
AcDbCircle
 10
37.00006103515625
 20
37.00000762939453
 40
10.25
  0
CIRCLE
  5
449
100
AcDbEntity
  8
0
  6
CONTINUOUS
 62
     7
100
AcDbCircle
 10
37.00006103515625
 20
36.99997711181641
 40
7.25
  0
CIRCLE
  5
44a
100
AcDbEntity
  8
0
  6
CONTINUOUS
 62
     7
100
AcDbCircle
 10
37.00006103515625
 20
36.99997711181641
 40
6
  0
CIRCLE
  5
44b
100
AcDbEntity
  8
0
  6
CONTINUOUS
 62
     7
100
AcDbCircle
 10
37.00006103515625
 20
36.99997711181641
 40
5.053000450134277
  0
ARC
  5
44c
100
AcDbEntity
  8
0
  6
CONTINUOUS
 62
     7
100
AcDbCircle
 10
32.00006103515625
 20
32.00000762939453
 40
8
100
AcDbArc
 50
180.0000359721794
 51
270.00001798609
  0
ARC
  5
44d
100
AcDbEntity
  8
0
  6
CONTINUOUS
 62
     7
100
AcDbCircle
 10
21.72052001953125
 20
28.08444976806641
 40
3
100
AcDbArc
 50
315.0000226534237
 51
20.85228066810378
  0
ARC
  5
44e
100
AcDbEntity
  8
0
  6
CONTINUOUS
 62
     7
100
AcDbCircle
 10
20.93023681640625
 20
14.56622314453125
 40
3
100
AcDbArc
 50
135.000014002001
 51
214.8357592855846
  0
ARC
  5
44f
100
AcDbEntity
  8
0
  6
CONTINUOUS
 62
     7
100
AcDbCircle
 10
28.08447265625
 20
21.720458984375
 40
3
100
AcDbArc
 50
69.14774232694188
 51
135.0000003416227
  0
ARC
  5
450
100
AcDbEntity
  8
0
  6
CONTINUOUS
 62
     7
100
AcDbCircle
 10
38.50006103515625
 20
21.49996948242188
 40
2.5
100
AcDbArc
 50
354.5212243752039
 51
90.000036655424
  0
ARC
  5
451
100
AcDbEntity
  8
0
  6
CONTINUOUS
 62
     7
100
AcDbCircle
 10
43.97492980957031
 20
20.97484588623047
 40
3
100
AcDbArc
 50
174.5212370681223
 51
275.4788779071067
  0
ARC
  5
452
100
AcDbEntity
  8
0
  6
CONTINUOUS
 62
     7
100
AcDbCircle
 10
44.50006103515625
 20
15.49996948242188
 40
2.5
100
AcDbArc
 50
5.46415133601103e-005
 51
95.47881142644724
  0
ARC
  5
453
100
AcDbEntity
  8
0
  6
CONTINUOUS
 62
     7
100
AcDbCircle
 10
44.00006103515625
 20
9.5
 40
3
100
AcDbArc
 50
270.0000521370359
 51
5.46415133601103e-005
  0
ARC
  5
454
100
AcDbEntity
  8
0
  6
CONTINUOUS
 62
     7
100
AcDbCircle
 10
23.66436767578125
 20
9.5
 40
3
100
AcDbArc
 50
201.8729654683365
 51
270.0001136087385
  0
ARC
  5
455
100
AcDbEntity
  8
0
  6
CONTINUOUS
 62
     7
100
AcDbCircle
 10
44.00006103515625
 20
-9.500030517578125
 40
3
100
AcDbArc
 50
0
 51
89.99998884409986
  0
ARC
  5
456
100
AcDbEntity
  8
0
  6
CONTINUOUS
 62
     7
100
AcDbCircle
 10
23.66436767578125
 20
-9.500030517578125
 40
3
100
AcDbArc
 50
89.99995469315395
 51
158.1271028335559
  0
ARC
  5
457
100
AcDbEntity
  8
0
  6
CONTINUOUS
 62
     7
100
AcDbCircle
 10
20.93023681640625
 20
-14.56625366210938
 40
3
100
AcDbArc
 50
145.1642643927071
 51
225.0000096762907
  0
ARC
  5
458
100
AcDbEntity
  8
0
  6
CONTINUOUS
 62
     7
100
AcDbCircle
 10
14.5662841796875
 20
-20.93023681640625
 40
3
100
AcDbArc
 50
45.00001832771203
 51
124.8357772716733
  0
ARC
  5
459
100
AcDbEntity
  8
0
  6
CONTINUOUS
 62
     7
100
AcDbCircle
 10
32.00006103515625
 20
-32.00003051757813
 40
8
100
AcDbArc
 50
90.00003665542401
 51
180.0000186693354
  0
ARC
  5
45a
100
AcDbEntity
  8
0
  6
CONTINUOUS
 62
     7
100
AcDbCircle
 10
28.08447265625
 20
-21.72048950195313
 40
3
100
AcDbArc
 50
225.0000406395131
 51
290.8522986541938
  0
ARC
  5
45b
100
AcDbEntity
  8
0
  6
CONTINUOUS
 62
     7
100
AcDbCircle
 10
21.72052001953125
 20
-28.08447265625
 40
3
100
AcDbArc
 50
339.1477603130319
 51
45.00001832771203
  0
ARC
  5
45c
100
AcDbEntity
  8
0
  6
CONTINUOUS
 62
     7
100
AcDbCircle
 10
38.50006103515625
 20
-21.5
 40
2.5
100
AcDbArc
 50
270.00001798609
 51
5.47877562479684
  0
ARC
  5
45d
100
AcDbEntity
  8
0
  6
CONTINUOUS
 62
     7
100
AcDbCircle
 10
43.97492980957031
 20
-20.97487640380859
 40
3
100
AcDbArc
 50
84.5210979598608
 51
185.4787456290344
  0
ARC
  5
45e
100
AcDbEntity
  8
0
  6
CONTINUOUS
 62
     7
100
AcDbCircle
 10
44.50006103515625
 20
-15.5
 40
2.5
100
AcDbArc
 50
264.5211885735535
 51
5.46415133601103e-005
  0
CIRCLE
  5
45f
100
AcDbEntity
  8
0
  6
CONTINUOUS
 62
     7
100
AcDbCircle
 10
37.00006103515625
 20
-37.00003051757813
 40
10.25
  0
CIRCLE
  5
460
100
AcDbEntity
  8
0
  6
CONTINUOUS
 62
     7
100
AcDbCircle
 10
37.00006103515625
 20
-37.00003051757813
 40
9
  0
CIRCLE
  5
461
100
AcDbEntity
  8
0
  6
CONTINUOUS
 62
     7
100
AcDbCircle
 10
37.00006103515625
 20
-37.00003051757813
 40
7.25
  0
CIRCLE
  5
462
100
AcDbEntity
  8
0
  6
CONTINUOUS
 62
     7
100
AcDbCircle
 10
37.00006103515625
 20
-37.00003051757813
 40
6
  0
CIRCLE
  5
463
100
AcDbEntity
  8
0
  6
CONTINUOUS
 62
     7
100
AcDbCircle
 10
37.00006103515625
 20
-37.00003051757813
 40
5.053000450134277
  0
ARC
  5
464
100
AcDbEntity
  8
0
  6
CONTINUOUS
 62
     7
100
AcDbCircle
 10
42.00006103515625
 20
-42.00003051757813
 40
8
100
AcDbArc
 50
270.0000521370359
 51
4.098113502008e-005
  0
ARC
  5
465
100
AcDbEntity
  8
0
  6
CONTINUOUS
 62
     7
100
AcDbCircle
 10
15.50006103515625
 20
-44.50002288818359
 40
2.5
100
AcDbArc
 50
270.00001798609
 51
5.478688539884907
  0
ARC
  5
466
100
AcDbEntity
  8
0
  6
CONTINUOUS
 62
     7
100
AcDbCircle
 10
20.97492980957031
 20
-43.97490310668945
 40
3
100
AcDbArc
 50
84.52109112967159
 51
185.4787456290343
  0
ARC
  5
467
100
AcDbEntity
  8
0
  6
CONTINUOUS
 62
     7
100
AcDbCircle
 10
21.50006103515625
 20
-38.50003051757813
 40
2.5
100
AcDbArc
 50
264.5211885735535
 51
5.46415133601103e-005
  0
ARC
  5
468
100
AcDbEntity
  8
0
  6
CONTINUOUS
 62
     7
100
AcDbCircle
 10
4.50006103515625
 20
-25.09979248046875
 40
3
100
AcDbArc
 50
100.1642597253734
 51
180.0000186693354
  0
ARC
  5
469
100
AcDbEntity
  8
0
  6
CONTINUOUS
 62
     7
100
AcDbCircle
 10
-4.5
 20
-25.09979248046875
 40
3
100
AcDbArc
 50
0
 51
79.83575894396124
  0
ARC
  5
46a
100
AcDbEntity
  8
0
  6
CONTINUOUS
 62
     7
100
AcDbCircle
 10
4.50006103515625
 20
-44
 40
3
100
AcDbArc
 50
180.0000359721795
 51
270.0000384766576
  0
ARC
  5
46b
100
AcDbEntity
  8
0
  6
CONTINUOUS
 62
     7
100
AcDbCircle
 10
-4.5
 20
-44
 40
3
100
AcDbArc
 50
270.0000384766576
 51
4.098113502008e-005
  0
ARC
  5
46c
100
AcDbEntity
  8
0
  6
CONTINUOUS
 62
     7
100
AcDbCircle
 10
-15.5
 20
-44.50002288818359
 40
2.5
100
AcDbArc
 50
174.5213326907707
 51
270.0000006832461
  0
ARC
  5
46d
100
AcDbEntity
  8
0
  6
CONTINUOUS
 62
     7
100
AcDbCircle
 10
-20.97488403320313
 20
-43.97490310668945
 40
3
100
AcDbArc
 50
354.5212423044504
 51
95.47892753966313
  0
ARC
  5
46e
100
AcDbEntity
  8
0
  6
CONTINUOUS
 62
     7
100
AcDbCircle
 10
-21.5
 20
-38.50003051757813
 40
2.5
100
AcDbArc
 50
180.0000359721794
 51
275.4784444174657
  0
ARC
  5
46f
100
AcDbEntity
  8
0
  6
CONTINUOUS
 62
     7
100
AcDbCircle
 10
-32
 20
-32.00003051757813
 40
8
100
AcDbArc
 50
5.46415133601103e-005
 51
90.00003665542401
  0
ARC
  5
470
100
AcDbEntity
  8
0
  6
CONTINUOUS
 62
     7
100
AcDbCircle
 10
-20.93017578125
 20
-14.56625366210938
 40
3
100
AcDbArc
 50
315.0000226534237
 51
34.8357679370059
  0
ARC
  5
471
100
AcDbEntity
  8
0
  6
CONTINUOUS
 62
     7
100
AcDbCircle
 10
-14.56622314453125
 20
-20.93023681640625
 40
3
100
AcDbArc
 50
55.1642687184181
 51
135.000014002001
  0
ARC
  5
472
100
AcDbEntity
  8
0
  6
CONTINUOUS
 62
     7
100
AcDbCircle
 10
-21.720458984375
 20
-28.08447265625
 40
3
100
AcDbArc
 50
135.000014002001
 51
200.8522720166825
  0
ARC
  5
473
100
AcDbEntity
  8
0
  6
CONTINUOUS
 62
     7
100
AcDbCircle
 10
-28.08441162109375
 20
-21.72048950195313
 40
3
100
AcDbArc
 50
249.1477782991213
 51
315.0000363138021
  0
ARC
  5
474
100
AcDbEntity
  8
0
  6
CONTINUOUS
 62
     7
100
AcDbCircle
 10
-42
 20
-42.00003051757813
 40
8
100
AcDbArc
 50
180.0000496325577
 51
270.0000316464684
  0
CIRCLE
  5
475
100
AcDbEntity
  8
0
  6
CONTINUOUS
 62
     7
100
AcDbCircle
 10
-37
 20
-37.00003051757813
 40
10.25
  0
CIRCLE
  5
476
100
AcDbEntity
  8
0
  6
CONTINUOUS
 62
     7
100
AcDbCircle
 10
-37
 20
-37.00003051757813
 40
9
  0
CIRCLE
  5
477
100
AcDbEntity
  8
0
  6
CONTINUOUS
 62
     7
100
AcDbCircle
 10
-37
 20
-37.00003051757813
 40
7.25
  0
CIRCLE
  5
478
100
AcDbEntity
  8
0
  6
CONTINUOUS
 62
     7
100
AcDbCircle
 10
-37
 20
-37.00003051757813
 40
6
  0
CIRCLE
  5
479
100
AcDbEntity
  8
0
  6
CONTINUOUS
 62
     7
100
AcDbCircle
 10
-37
 20
-37.00003051757813
 40
5.053000450134277
  0
ARC
  5
47a
100
AcDbEntity
  8
0
  6
CONTINUOUS
 62
     7
100
AcDbCircle
 10
-38.5
 20
-21.5
 40
2.5
100
AcDbArc
 50
174.5212370681223
 51
270.000000683246
  0
ARC
  5
47b
100
AcDbEntity
  8
0
  6
CONTINUOUS
 62
     7
100
AcDbCircle
 10
-43.97488403320313
 20
-20.97487640380859
 40
3
100
AcDbArc
 50
354.5212423044504
 51
95.47892070947391
  0
ARC
  5
47c
100
AcDbEntity
  8
0
  6
CONTINUOUS
 62
     7
100
AcDbCircle
 10
-44.5
 20
-15.5
 40
2.5
100
AcDbArc
 50
180.0000359721794
 51
275.4784444174657
  0
MTEXT
  5
47d
100
AcDbEntity
  8
0
  6
CONTINUOUS
 62
     7
100
AcDbMText
 10
8.554845467209816
 20
-34.61911010742188
 40
0.5
 41
32
 71
     7
 72
     1
  1
{\W0.842888;ＢＮ－６１０５－Ｓ－８０－Ｂ－＊}
  0
INSERT
  5
47e
100
AcDbEntity
  8
0
  6
CONTINUOUS
 62
     3
100
AcDbBlockReference
  2
KOZU0009
 10
0
 20
0
  0
ENDBLK
  8
0
  5
47f
100
AcDbEntity
100
AcDbBlockEnd
  0
BLOCK
  8
0
  5
480
100
AcDbEntity
100
AcDbBlockBegin
  2
KOZU0004
 70
    64
 10
0
 20
0
  0
POINT
  5
481
100
AcDbEntity
  8
0
  6
CONTINUOUS
 62
     7
100
AcDbPoint
 10
0
 20
0
  0
LINE
  5
482
100
AcDbEntity
  8
0
  6
CENTER
 62
     3
100
AcDbLine
 10
0
 20
54.99997711181641
 11
0
 21
-55.00002288818359
  0
LINE
  5
483
100
AcDbEntity
  8
0
  6
CENTER
 62
     3
100
AcDbLine
 10
-54.52261352539063
 20
0
 11
54.41082763671875
 21
0
  0
LINE
  5
484
100
AcDbEntity
  8
0
  6
CONTINUOUS
 62
     7
100
AcDbLine
 10
0.0001232603042904401
 20
18.50004298472815
 11
16.06422020136721
 21
9.175750852282365
  0
LINE
  5
485
100
AcDbEntity
  8
0
  6
CONTINUOUS
 62
     7
100
AcDbLine
 10
-15.9360614212638
 20
9.249855222218946
 11
3.984731533002162e-005
 21
18.49985316643203
  0
LINE
  5
486
100
AcDbEntity
  8
0
  6
CONTINUOUS
 62
     7
100
AcDbLine
 10
-16
 20
9.287071228027344
 11
-16
 21
-9.287101745605469
  0
LINE
  5
487
100
AcDbEntity
  8
0
  6
CONTINUOUS
 62
     7
100
AcDbLine
 10
-15.93605752888654
 20
-9.249909307760177
 11
4.373969258963939e-005
 21
-18.49990725197326
  0
LINE
  5
488
100
AcDbEntity
  8
0
  6
CONTINUOUS
 62
     7
100
AcDbLine
 10
4.045775020244946e-005
 20
-18.50011310060692
 11
16.00004058664138
 21
-9.213025512160133
  0
LINE
  5
489
100
AcDbEntity
  8
0
  6
CONTINUOUS
 62
     7
100
AcDbLine
 10
16
 20
9.287071228027344
 11
16
 21
-9.287101745605469
  0
LINE
  5
48a
100
AcDbEntity
  8
0
  6
CONTINUOUS
 62
     7
100
AcDbLine
 10
42
 20
50.00000762939453
 11
-41.99996948242188
 21
50.00000762939453
  0
LINE
  5
48b
100
AcDbEntity
  8
0
  6
CONTINUOUS
 62
     7
100
AcDbLine
 10
20
 20
50.30001068115234
 11
-20
 21
50.30001068115234
  0
LINE
  5
48c
100
AcDbEntity
  8
0
  6
CONTINUOUS
 62
     7
100
AcDbLine
 10
-20
 20
50.30001068115234
 11
-20
 21
49.99999237060547
  0
LINE
  5
48d
100
AcDbEntity
  8
0
  6
CONTINUOUS
 62
     7
100
AcDbLine
 10
20
 20
50.30001068115234
 11
20
 21
49.99999237060547
  0
LINE
  5
48e
100
AcDbEntity
  8
0
  6
DASHED
 62
    64
100
AcDbLine
 10
13.70001220703125
 20
50.29998016357422
 11
13.70001220703125
 21
48.79999542236328
  0
LINE
  5
48f
100
AcDbEntity
  8
0
  6
DASHED
 62
     7
100
AcDbLine
 10
13.70001220703125
 20
48.80001068115234
 11
-13.69998168945313
 21
48.80001068115234
  0
LINE
  5
490
100
AcDbEntity
  8
0
  6
DASHED
 62
     7
100
AcDbLine
 10
10.84996908504291
 20
48.79999491642124
 11
9.493889850932646
 21
47.44391568231098
  0
LINE
  5
491
100
AcDbEntity
  8
0
  6
DASHED
 62
     7
100
AcDbLine
 10
10.23265396401768
 20
35.30001710462507
 11
10.69880047448439
 21
48.6487072696257
  0
LINE
  5
492
100
AcDbEntity
  8
0
  6
DASHED
 62
     7
100
AcDbLine
 10
9.069861313605486
 20
35.30002486560873
 11
9.49393523026612
 21
47.44391352175974
  0
LINE
  5
493
100
AcDbEntity
  8
0
  6
CONTINUOUS
 62
     7
100
AcDbLine
 10
15.5
 20
47.00000762939453
 11
-15.5
 21
47.00000762939453
  0
LINE
  5
494
100
AcDbEntity
  8
0
  6
DASHED
 62
    64
100
AcDbLine
 10
-13.70001220703125
 20
50.29998016357422
 11
-13.70001220703125
 21
48.79999542236328
  0
LINE
  5
495
100
AcDbEntity
  8
0
  6
DASHED
 62
     7
100
AcDbLine
 10
-10.85017543601322
 20
48.79995040934921
 11
-9.494096201902959
 21
47.44387117523895
  0
LINE
  5
496
100
AcDbEntity
  8
0
  6
DASHED
 62
     7
100
AcDbLine
 10
-9.069609374718064
 20
35.30001076137318
 11
-9.493684356426765
 21
47.44392991651183
  0
LINE
  5
497
100
AcDbEntity
  8
0
  6
DASHED
 62
     7
100
AcDbLine
 10
-10.23224894169066
 20
35.29997781000083
 11
-10.70368048692977
 21
48.80001157643145
  0
LINE
  5
498
100
AcDbEntity
  8
0
  6
CONTINUOUS
 62
     7
100
AcDbLine
 10
-24
 20
38.49999237060547
 11
-24
 21
31.99999237060547
  0
LINE
  5
499
100
AcDbEntity
  8
0
  6
CONTINUOUS
 62
     7
100
AcDbLine
 10
-31.99996948242188
 20
23.99996948242188
 11
-38.5
 21
23.99996948242188
  0
LINE
  5
49a
100
AcDbEntity
  8
0
  6
CONTINUOUS
 62
     7
100
AcDbLine
 10
-47
 20
15.49997711181641
 11
-47
 21
-15.50000762939453
  0
LINE
  5
49b
100
AcDbEntity
  8
0
  6
CONTINUOUS
 62
     7
100
AcDbLine
 10
-50
 20
41.99999237060547
 11
-50
 21
-42.00002288818359
  0
LINE
  5
49c
100
AcDbEntity
  8
0
  6
CENTER
 62
     3
100
AcDbLine
 10
-37
 20
47.24999237060547
 11
-37
 21
26.74999237060547
  0
LINE
  5
49d
100
AcDbEntity
  8
0
  6
CONTINUOUS
 62
     7
100
AcDbLine
 10
-37.00000657245523
 20
43.99996065871248
 11
-31.00000057156846
 21
40.46405905432833
  0
LINE
  5
49e
100
AcDbEntity
  8
0
  6
CONTINUOUS
 62
     7
100
AcDbLine
 10
-31
 20
40.46407318115234
 11
-31
 21
33.53588104248047
  0
LINE
  5
49f
100
AcDbEntity
  8
0
  6
CENTER
 62
     3
100
AcDbLine
 10
-26.75
 20
36.99997711181641
 11
-47.24996948242188
 21
36.99997711181641
  0
LINE
  5
4a0
100
AcDbEntity
  8
0
  6
CONTINUOUS
 62
     7
100
AcDbLine
 10
-30.99998143242816
 20
33.53587546981376
 11
-36.99998743331493
 21
29.99997386542961
  0
LINE
  5
4a1
100
AcDbEntity
  8
0
  6
CONTINUOUS
 62
     7
100
AcDbLine
 10
-37.00002087581803
 20
29.99995725153578
 11
-43.00002687670479
 21
33.53585885591993
  0
LINE
  5
4a2
100
AcDbEntity
  8
0
  6
CONTINUOUS
 62
     7
100
AcDbLine
 10
-43
 20
40.46407318115234
 11
-43
 21
33.53588104248047
  0
LINE
  5
4a3
100
AcDbEntity
  8
0
  6
CONTINUOUS
 62
     7
100
AcDbLine
 10
-43.00002427276458
 20
40.46407367246613
 11
-37.00001827187782
 21
43.99997527685028
  0
LINE
  5
4a4
100
AcDbEntity
  8
0
  6
CONTINUOUS
 62
     7
100
AcDbLine
 10
21
 20
36.00000762939453
 11
-20.99996948242188
 21
36.00000762939453
  0
LINE
  5
4a5
100
AcDbEntity
  8
0
  6
CONTINUOUS
 62
     7
100
AcDbLine
 10
-15
 20
35.99999237060547
 11
-15
 21
32.99997711181641
  0
LINE
  5
4a6
100
AcDbEntity
  8
0
  6
CONTINUOUS
 62
     7
100
AcDbLine
 10
15
 20
32.99997711181641
 11
-14.99996948242188
 21
32.99997711181641
  0
LINE
  5
4a7
100
AcDbEntity
  8
0
  6
CONTINUOUS
 62
     7
100
AcDbLine
 10
-15.00037088843392
 20
32.99976720609376
 11
-10.00037088971158
 21
27.99976720737142
  0
LINE
  5
4a8
100
AcDbEntity
  8
0
  6
CONTINUOUS
 62
     7
100
AcDbLine
 10
-25.96333466281017
 20
23.84172974372939
 11
-18.80913303519393
 21
16.68752811611314
  0
LINE
  5
4a9
100
AcDbEntity
  8
0
  6
CONTINUOUS
 62
     7
100
AcDbLine
 10
-23.8419132511078
 20
25.96307562827922
 11
-16.68770083389834
 21
18.80886321106976
  0
LINE
  5
4aa
100
AcDbEntity
  8
0
  6
CONTINUOUS
 62
     7
100
AcDbLine
 10
-10
 20
27.99997711181641
 11
-10
 21
21.93738555908203
  0
LINE
  5
4ab
100
AcDbEntity
  8
0
  6
CONTINUOUS
 62
     7
100
AcDbLine
 10
10
 20
27.99997711181641
 11
-9.999969482421875
 21
27.99997711181641
  0
LINE
  5
4ac
100
AcDbEntity
  8
0
  6
CONTINUOUS
 62
     7
100
AcDbLine
 10
9.999847594440467
 20
28.00010707955781
 11
14.99987456714586
 21
33.00013405226319
  0
LINE
  5
4ad
100
AcDbEntity
  8
0
  6
CONTINUOUS
 62
     7
100
AcDbLine
 10
15
 20
35.99999237060547
 11
15
 21
32.99997711181641
  0
LINE
  5
4ae
100
AcDbEntity
  8
0
  6
CONTINUOUS
 62
     7
100
AcDbLine
 10
24
 20
38.49999237060547
 11
24
 21
31.99999237060547
  0
LINE
  5
4af
100
AcDbEntity
  8
0
  6
CONTINUOUS
 62
     7
100
AcDbLine
 10
23.84169307597118
 20
25.96319869707688
 11
16.68748065876172
 21
18.80898627986742
  0
LINE
  5
4b0
100
AcDbEntity
  8
0
  6
CONTINUOUS
 62
     7
100
AcDbLine
 10
10
 20
27.99997711181641
 11
10
 21
21.93738555908203
  0
LINE
  5
4b1
100
AcDbEntity
  8
0
  6
CONTINUOUS
 62
     7
100
AcDbLine
 10
-23.664306640625
 20
6.499969482421875
 11
-43.99996948242188
 21
6.499969482421875
  0
LINE
  5
4b2
100
AcDbEntity
  8
0
  6
CONTINUOUS
 62
     7
100
AcDbLine
 10
50
 20
41.99999237060547
 11
50
 21
-42.00002288818359
  0
LINE
  5
4b3
100
AcDbEntity
  8
0
  6
CENTER
 62
     3
100
AcDbLine
 10
37
 20
47.24999237060547
 11
37
 21
26.74999237060547
  0
LINE
  5
4b4
100
AcDbEntity
  8
0
  6
CONTINUOUS
 62
     7
100
AcDbLine
 10
43
 20
40.46407318115234
 11
43
 21
33.53588104248047
  0
LINE
  5
4b5
100
AcDbEntity
  8
0
  6
CENTER
 62
     3
100
AcDbLine
 10
47.25
 20
36.99997711181641
 11
26.75
 21
36.99997711181641
  0
LINE
  5
4b6
100
AcDbEntity
  8
0
  6
CONTINUOUS
 62
     7
100
AcDbLine
 10
36.999965276935
 20
43.99997551280572
 11
42.99997127782176
 21
40.46407390842157
  0
LINE
  5
4b7
100
AcDbEntity
  8
0
  6
CONTINUOUS
 62
     7
100
AcDbLine
 10
42.99999041696207
 20
33.53586061572052
 11
36.99998441607531
 21
29.99995901133637
  0
LINE
  5
4b8
100
AcDbEntity
  8
0
  6
CONTINUOUS
 62
     7
100
AcDbLine
 10
36.99999476887093
 20
29.99995625896776
 11
30.99998876798416
 21
33.53585786335191
  0
LINE
  5
4b9
100
AcDbEntity
  8
0
  6
CONTINUOUS
 62
     7
100
AcDbLine
 10
31
 20
40.46407318115234
 11
31
 21
33.53588104248047
  0
LINE
  5
4ba
100
AcDbEntity
  8
0
  6
CONTINUOUS
 62
     7
100
AcDbLine
 10
30.99996999480635
 20
40.46408088543906
 11
36.99997599569311
 21
43.99998248982321
  0
LINE
  5
4bb
100
AcDbEntity
  8
0
  6
CONTINUOUS
 62
     7
100
AcDbLine
 10
25.96304486107981
 20
23.84189007034112
 11
18.80883244387035
 21
16.68767765313166
  0
LINE
  5
4bc
100
AcDbEntity
  8
0
  6
CONTINUOUS
 62
     7
100
AcDbLine
 10
38.5
 20
23.99996948242188
 11
32
 21
23.99996948242188
  0
LINE
  5
4bd
100
AcDbEntity
  8
0
  6
CONTINUOUS
 62
     7
100
AcDbLine
 10
47
 20
15.49997711181641
 11
47
 21
-15.50000762939453
  0
LINE
  5
4be
100
AcDbEntity
  8
0
  6
CONTINUOUS
 62
     7
100
AcDbLine
 10
23.66433715820313
 20
6.499969482421875
 11
44
 21
6.499969482421875
  0
LINE
  5
4bf
100
AcDbEntity
  8
0
  6
DASHED
 62
    64
100
AcDbLine
 10
50
 20
-8.250030517578125
 11
48.5
 21
-8.250030517578125
  0
LINE
  5
4c0
100
AcDbEntity
  8
0
  6
DASHED
 62
     7
100
AcDbLine
 10
48.5
 20
8.249992370605469
 11
48.5
 21
-8.250022888183594
  0
LINE
  5
4c1
100
AcDbEntity
  8
0
  6
DASHED
 62
    64
100
AcDbLine
 10
48.5
 20
-5
 11
40
 21
-5
  0
LINE
  5
4c2
100
AcDbEntity
  8
0
  6
DASHED
 62
    64
100
AcDbLine
 10
50
 20
8.25
 11
48.5
 21
8.25
  0
LINE
  5
4c3
100
AcDbEntity
  8
0
  6
DASHED
 62
    64
100
AcDbLine
 10
48.5
 20
5
 11
40
 21
5
  0
LINE
  5
4c4
100
AcDbEntity
  8
0
  6
DASHED
 62
     7
100
AcDbLine
 10
40
 20
3.999969482421875
 11
34
 21
3.999969482421875
  0
LINE
  5
4c5
100
AcDbEntity
  8
0
  6
DASHED
 62
     7
100
AcDbLine
 10
40
 20
4.999977111816406
 11
40
 21
3.599983215332031
  0
LINE
  5
4c6
100
AcDbEntity
  8
0
  6
DASHED
 62
     7
100
AcDbLine
 10
40
 20
3.600006103515625
 11
33
 21
3.600006103515625
  0
LINE
  5
4c7
100
AcDbEntity
  8
0
  6
DASHED
 62
     7
100
AcDbLine
 10
34
 20
3.999977111816406
 11
34
 21
1.457984924316406
  0
LINE
  5
4c8
100
AcDbEntity
  8
0
  6
DASHED
 62
     7
100
AcDbLine
 10
33.3072406510319
 20
3.600084135073031
 11
34.0000503993516
 21
4.000078036941794
  0
LINE
  5
4c9
100
AcDbEntity
  8
0
  6
DASHED
 62
     7
100
AcDbLine
 10
33
 20
3.599983215332031
 11
33
 21
1.249977111816406
  0
LINE
  5
4ca
100
AcDbEntity
  8
0
  6
DASHED
 62
    64
100
AcDbLine
 10
33
 20
1.25
 11
30
 21
1.25
  0
LINE
  5
4cb
100
AcDbEntity
  8
0
  6
CONTINUOUS
 62
     7
100
AcDbLine
 10
22.449951171875
 20
1.499969482421875
 11
47
 21
1.499969482421875
  0
LINE
  5
4cc
100
AcDbEntity
  8
0
  6
DASHED
 62
    64
100
AcDbLine
 10
33
 20
-1.25
 11
30
 21
-1.25
  0
LINE
  5
4cd
100
AcDbEntity
  8
0
  6
CONTINUOUS
 62
     7
100
AcDbLine
 10
22.449951171875
 20
-1.5
 11
47
 21
-1.5
  0
LINE
  5
4ce
100
AcDbEntity
  8
0
  6
DASHED
 62
     7
100
AcDbLine
 10
33
 20
-1.250022888183594
 11
33
 21
-3.600028991699219
  0
LINE
  5
4cf
100
AcDbEntity
  8
0
  6
DASHED
 62
     7
100
AcDbLine
 10
40
 20
-3.600006103515625
 11
33
 21
-3.600006103515625
  0
LINE
  5
4d0
100
AcDbEntity
  8
0
  6
DASHED
 62
     7
100
AcDbLine
 10
40
 20
-4
 11
34
 21
-4
  0
LINE
  5
4d1
100
AcDbEntity
  8
0
  6
DASHED
 62
     7
100
AcDbLine
 10
34
 20
-1.458015441894531
 11
34
 21
-4.000007629394531
  0
LINE
  5
4d2
100
AcDbEntity
  8
0
  6
DASHED
 62
     7
100
AcDbLine
 10
33.30713888176209
 20
-3.600199369460396
 11
33.99994863008179
 21
-4.00019327132916
  0
LINE
  5
4d3
100
AcDbEntity
  8
0
  6
DASHED
 62
     7
100
AcDbLine
 10
40
 20
-3.600028991699219
 11
40
 21
-5.000022888183594
  0
LINE
  5
4d4
100
AcDbEntity
  8
0
  6
CONTINUOUS
 62
     7
100
AcDbLine
 10
23.66433715820313
 20
-6.5
 11
44
 21
-6.5
  0
LINE
  5
4d5
100
AcDbEntity
  8
0
  6
CONTINUOUS
 62
     7
100
AcDbLine
 10
42
 20
-50.00002288818359
 11
-41.99996948242188
 21
-50.00002288818359
  0
LINE
  5
4d6
100
AcDbEntity
  8
0
  6
CONTINUOUS
 62
     7
100
AcDbLine
 10
43
 20
-33.53592681884766
 11
43
 21
-40.46413421630859
  0
LINE
  5
4d7
100
AcDbEntity
  8
0
  6
CONTINUOUS
 62
     7
100
AcDbLine
 10
42.99998718347189
 20
-40.464130952456
 11
36.99998118258512
 21
-44.00003255684015
  0
LINE
  5
4d8
100
AcDbEntity
  8
0
  6
CENTER
 62
     3
100
AcDbLine
 10
47.25
 20
-37.00003051757813
 11
26.75
 21
-37.00003051757813
  0
LINE
  5
4d9
100
AcDbEntity
  8
0
  6
CENTER
 62
     3
100
AcDbLine
 10
37
 20
-26.75002288818359
 11
37
 21
-47.25002288818359
  0
LINE
  5
4da
100
AcDbEntity
  8
0
  6
CONTINUOUS
 62
     7
100
AcDbLine
 10
36.99998100267411
 20
-30.00005496556694
 11
42.99997385770335
 21
-33.53594882288238
  0
LINE
  5
4db
100
AcDbEntity
  8
0
  6
CONTINUOUS
 62
     7
100
AcDbLine
 10
30.99997838191923
 20
-33.53593040152376
 11
36.99998438280599
 21
-30.00002879713961
  0
LINE
  5
4dc
100
AcDbEntity
  8
0
  6
CONTINUOUS
 62
     7
100
AcDbLine
 10
31
 20
-33.53592681884766
 11
31
 21
-40.46413421630859
  0
LINE
  5
4dd
100
AcDbEntity
  8
0
  6
CONTINUOUS
 62
     7
100
AcDbLine
 10
36.99999412882675
 20
-44.00004188213752
 11
30.99998812793999
 21
-40.46414027775337
  0
LINE
  5
4de
100
AcDbEntity
  8
0
  6
CONTINUOUS
 62
     7
100
AcDbLine
 10
38.5
 20
-24
 11
32
 21
-24
  0
LINE
  5
4df
100
AcDbEntity
  8
0
  6
CONTINUOUS
 62
     7
100
AcDbLine
 10
25.96299470633008
 20
-23.84183232915866
 11
18.80878228912062
 21
-16.6876199119492
  0
LINE
  5
4e0
100
AcDbEntity
  8
0
  6
CONTINUOUS
 62
     7
100
AcDbLine
 10
23.84155711023788
 20
-25.96316202931867
 11
16.68734469302842
 21
-18.80894961210921
  0
LINE
  5
4e1
100
AcDbEntity
  8
0
  6
CONTINUOUS
 62
     7
100
AcDbLine
 10
24
 20
-32.00002288818359
 11
24
 21
-38.50002288818359
  0
LINE
  5
4e2
100
AcDbEntity
  8
0
  6
CONTINUOUS
 62
     7
100
AcDbLine
 10
15.5
 20
-47.00002288818359
 11
-15.5
 21
-47.00002288818359
  0
LINE
  5
4e3
100
AcDbEntity
  8
0
  6
CONTINUOUS
 62
     7
100
AcDbLine
 10
1.5
 20
-25.09981536865234
 11
1.5
 21
-44.00000762939453
  0
LINE
  5
4e4
100
AcDbEntity
  8
0
  6
CONTINUOUS
 62
     7
100
AcDbLine
 10
-1.5
 20
-25.09981536865234
 11
-1.5
 21
-44.00000762939453
  0
LINE
  5
4e5
100
AcDbEntity
  8
0
  6
CONTINUOUS
 62
     7
100
AcDbLine
 10
-24
 20
-32.00002288818359
 11
-24
 21
-38.50002288818359
  0
LINE
  5
4e6
100
AcDbEntity
  8
0
  6
CONTINUOUS
 62
     7
100
AcDbLine
 10
-25.96322027626331
 20
-23.84171465515762
 11
-18.80898627986742
 21
-16.68748065876172
  0
LINE
  5
4e7
100
AcDbEntity
  8
0
  6
CONTINUOUS
 62
     7
100
AcDbLine
 10
-23.84191164952756
 20
-25.96306644026625
 11
-16.68767765313166
 21
-18.80883244387035
  0
LINE
  5
4e8
100
AcDbEntity
  8
0
  6
CONTINUOUS
 62
     7
100
AcDbLine
 10
-23.664306640625
 20
-6.5
 11
-43.99996948242188
 21
-6.5
  0
LINE
  5
4e9
100
AcDbEntity
  8
0
  6
CONTINUOUS
 62
     7
100
AcDbLine
 10
-31.99996948242188
 20
-24
 11
-38.5
 21
-24
  0
LINE
  5
4ea
100
AcDbEntity
  8
0
  6
CENTER
 62
     3
100
AcDbLine
 10
-37
 20
-26.75002288818359
 11
-37
 21
-47.25002288818359
  0
LINE
  5
4eb
100
AcDbEntity
  8
0
  6
CENTER
 62
     3
100
AcDbLine
 10
-26.75
 20
-37.00003051757813
 11
-47.24996948242188
 21
-37.00003051757813
  0
LINE
  5
4ec
100
AcDbEntity
  8
0
  6
CONTINUOUS
 62
     7
100
AcDbLine
 10
-31
 20
-33.53592681884766
 11
-31
 21
-40.46413421630859
  0
LINE
  5
4ed
100
AcDbEntity
  8
0
  6
CONTINUOUS
 62
     7
100
AcDbLine
 10
-36.9999998769434
 20
-30.00005508885466
 11
-30.99999387605664
 21
-33.53595669323881
  0
LINE
  5
4ee
100
AcDbEntity
  8
0
  6
CONTINUOUS
 62
     7
100
AcDbLine
 10
-42.99999104651204
 20
-33.535919655511
 11
-36.99998504562527
 21
-30.00001805112684
  0
LINE
  5
4ef
100
AcDbEntity
  8
0
  6
CONTINUOUS
 62
     7
100
AcDbLine
 10
-43
 20
-33.53592681884766
 11
-43
 21
-40.46413421630859
  0
LINE
  5
4f0
100
AcDbEntity
  8
0
  6
CONTINUOUS
 62
     7
100
AcDbLine
 10
-37.00000013874418
 20
-44.00003466916459
 11
-43.00000613963094
 21
-40.46413306478044
  0
LINE
  5
4f1
100
AcDbEntity
  8
0
  6
CONTINUOUS
 62
     7
100
AcDbLine
 10
-31.0000187047021
 20
-40.46411844664264
 11
-37.00002470558887
 21
-44.00002005102679
  0
LINE
  5
4f2
100
AcDbEntity
  8
0
  6
CONTINUOUS
 62
     7
100
AcDbLine
 10
-22.44992065429688
 20
1.499969482421875
 11
-46.99996948242188
 21
1.499969482421875
  0
LINE
  5
4f3
100
AcDbEntity
  8
0
  6
CONTINUOUS
 62
     7
100
AcDbLine
 10
-22.44992065429688
 20
-1.5
 11
-46.99996948242188
 21
-1.5
  0
LINE
  5
4f4
100
AcDbEntity
  8
0
  6
DASHED
 62
     1
100
AcDbLine
 10
31.60576629638673
 20
-0.959998397112061
 11
31.60576629638673
 21
0.9599988181589351
  0
LINE
  5
4f5
100
AcDbEntity
  8
0
  6
DASHED
 62
     1
100
AcDbLine
 10
36.60575776892858
 20
-2.000000129174974
 11
31.60575572581466
 21
-0.9599965288354513
  0
LINE
  5
4f6
100
AcDbEntity
  8
0
  6
DASHED
 62
     1
100
AcDbLine
 10
36.6057588885418
 20
1.999998475370051
 11
31.60575620010994
 21
0.9599979775159877
  0
LINE
  5
4f7
100
AcDbEntity
  8
0
  6
DASHED
 62
     1
100
AcDbLine
 10
36.60576629638668
 20
-3.500001021292734
 11
36.60576629638668
 21
3.499998978707266
  0
LINE
  5
4f8
100
AcDbEntity
  8
0
  6
DASHED
 62
     1
100
AcDbLine
 10
37.10576629638668
 20
3.999998903209365
 11
37.10576629638668
 21
-4.000001096790635
  0
LINE
  5
4f9
100
AcDbEntity
  8
0
  6
DASHED
 62
     1
100
AcDbLine
 10
36.60576435699444
 20
-3.500002816005029
 11
37.105764757628
 21
-4.000003494075227
  0
LINE
  5
4fa
100
AcDbEntity
  8
0
  6
DASHED
 62
     1
100
AcDbLine
 10
40.60576569240344
 20
-4.000000476837113
 11
37.10576569240344
 21
-4.000000476837113
  0
LINE
  5
4fb
100
AcDbEntity
  8
0
  6
DASHED
 62
     1
100
AcDbLine
 10
42.10576575370775
 20
-3.594000339508016
 11
36.69975989433275
 21
-3.594000339508016
  0
LINE
  5
4fc
100
AcDbEntity
  8
0
  6
DASHED
 62
     1
100
AcDbLine
 10
40.60576629638663
 20
-4.000001625275944
 11
40.60576629638663
 21
3.999997897886898
  0
LINE
  5
4fd
100
AcDbEntity
  8
0
  6
DASHED
 62
     1
100
AcDbLine
 10
42.10576629638662
 20
-4.900003377648554
 11
42.10576629638662
 21
4.899997289923467
  0
LINE
  5
4fe
100
AcDbEntity
  8
0
  6
DASHED
 62
     1
100
AcDbLine
 10
42.80576250474946
 20
-4.900000095367377
 11
42.10576555650727
 21
-4.900000095367377
  0
LINE
  5
4ff
100
AcDbEntity
  8
0
  6
DASHED
 62
     1
100
AcDbLine
 10
42.80576324462879
 20
-5.000002911140565
 11
42.80576324462879
 21
4.999997088859435
  0
LINE
  5
500
100
AcDbEntity
  8
0
  6
DASHED
 62
     1
100
AcDbLine
 10
44.40576096377092
 20
-5.000000476837101
 11
42.80576248964982
 21
-5.000000476837101
  0
LINE
  5
501
100
AcDbEntity
  8
0
  6
DASHED
 62
     1
100
AcDbLine
 10
44.40576171874987
 20
-5.000004106407936
 11
44.40576171874987
 21
4.999996370429223
  0
LINE
  5
502
100
AcDbEntity
  8
0
  6
DASHED
 62
     1
100
AcDbLine
 10
44.40576114496599
 20
-3.799999713897662
 11
42.8057626708449
 21
-3.799999713897662
  0
LINE
  5
503
100
AcDbEntity
  8
0
  6
DASHED
 62
     1
100
AcDbLine
 10
44.40576229253404
 20
3.799999952316241
 11
42.80576381841295
 21
3.799999952316241
  0
LINE
  5
504
100
AcDbEntity
  8
0
  6
DASHED
 62
     1
100
AcDbLine
 10
44.40576247372901
 20
4.999999999999943
 11
42.80576399960792
 21
4.999999999999943
  0
LINE
  5
505
100
AcDbEntity
  8
0
  6
DASHED
 62
     1
100
AcDbLine
 10
42.80576398450835
 20
4.900000095367377
 11
42.10576703626617
 21
4.900000095367377
  0
LINE
  5
506
100
AcDbEntity
  8
0
  6
DASHED
 62
     1
100
AcDbLine
 10
45.10576703626617
 20
4.900000095367377
 11
44.40576245862945
 21
4.900000095367377
  0
LINE
  5
507
100
AcDbEntity
  8
0
  6
DASHED
 62
     1
100
AcDbLine
 10
42.10576683906565
 20
3.594000101089437
 11
36.69976097969065
 21
3.594000101089437
  0
LINE
  5
508
100
AcDbEntity
  8
0
  6
DASHED
 62
     1
100
AcDbLine
 10
40.60576690036993
 20
3.999999999999955
 11
37.10576690036993
 21
3.999999999999955
  0
LINE
  5
509
100
AcDbEntity
  8
0
  6
DASHED
 62
     1
100
AcDbLine
 10
37.10577074926196
 20
3.999997443753887
 11
36.60577007119176
 21
3.499997043120334
  0
LINE
  5
50a
100
AcDbEntity
  8
0
  6
DASHED
 62
     1
100
AcDbLine
 10
45.10576555650727
 20
-4.900000095367377
 11
44.40576097887055
 21
-4.900000095367377
  0
LINE
  5
50b
100
AcDbEntity
  8
0
  6
DASHED
 62
     1
100
AcDbLine
 10
45.10576629638658
 20
-4.900003830635962
 11
45.10576629638658
 21
4.899996360098902
  0
LINE
  5
50c
100
AcDbEntity
  8
0
  6
DASHED
 62
     7
100
AcDbLine
 10
47.10575866699203
 20
5.000005499484181
 11
47.10575866699203
 21
-5.00000212991035
  0
LINE
  5
50d
100
AcDbEntity
  8
0
  6
DASHED
 62
     7
100
AcDbLine
 10
47.60575866699202
 20
4.999997794591748
 11
47.60575866699202
 21
-5.000002205408252
  0
LINE
  5
50e
100
AcDbEntity
  8
0
  6
DASHED
 62
     7
100
AcDbLine
 10
47.60575791201318
 20
-4.999999999999943
 11
47.10575791201318
 21
-4.999999999999943
  0
LINE
  5
50f
100
AcDbEntity
  8
0
  6
DASHED
 62
     7
100
AcDbLine
 10
47.6057594219712
 20
4.999999999999943
 11
47.1057594219712
 21
4.999999999999943
  0
CIRCLE
  5
510
100
AcDbEntity
  8
0
  6
CONTINUOUS
 62
     7
100
AcDbCircle
 10
0
 20
0
 40
10.1879997253418
  0
CIRCLE
  5
511
100
AcDbEntity
  8
0
  6
CONTINUOUS
 62
     7
100
AcDbCircle
 10
0
 20
0
 40
11
  0
CIRCLE
  5
512
100
AcDbEntity
  8
0
  6
CONTINUOUS
 62
     7
100
AcDbCircle
 10
0
 20
0
 40
16
  0
ARC
  5
513
100
AcDbEntity
  8
0
  6
CONTINUOUS
 62
     7
100
AcDbCircle
 10
15.5
 20
44.50000762939453
 40
2.5
100
AcDbArc
 50
354.5212243752039
 51
90.00000250447816
  0
ARC
  5
514
100
AcDbEntity
  8
0
  6
CONTINUOUS
 62
     7
100
AcDbCircle
 10
20.97488403320313
 20
43.97487640380859
 40
3
100
AcDbArc
 50
174.5211141247173
 51
275.4789052278635
  0
ARC
  5
515
100
AcDbEntity
  8
0
  6
CONTINUOUS
 62
     7
100
AcDbCircle
 10
21.5
 20
38.50000762939453
 40
2.5
100
AcDbArc
 50
0
 51
95.47844942642125
  0
ARC
  5
516
100
AcDbEntity
  8
0
  6
CONTINUOUS
 62
     7
100
AcDbCircle
 10
-15.5
 20
44.50000762939453
 40
2.5
100
AcDbArc
 50
89.99998201391064
 51
185.4787456290345
  0
ARC
  5
517
100
AcDbEntity
  8
0
  6
CONTINUOUS
 62
     7
100
AcDbCircle
 10
-20.97488403320313
 20
43.97487640380859
 40
3
100
AcDbArc
 50
264.5210519697701
 51
5.478902837070161
  0
ARC
  5
518
100
AcDbEntity
  8
0
  6
CONTINUOUS
 62
     7
100
AcDbCircle
 10
-21.5
 20
38.50000762939453
 40
2.5
100
AcDbArc
 50
84.52156924291343
 51
179.9999640278213
  0
ARC
  5
519
100
AcDbEntity
  8
0
  6
CONTINUOUS
 62
     7
100
AcDbCircle
 10
-21
 20
32.99997711181641
 40
3
100
AcDbArc
 50
90.00001616485648
 51
179.9999640278213
  0
ARC
  5
51a
100
AcDbEntity
  8
0
  6
CONTINUOUS
 62
     7
100
AcDbCircle
 10
-32
 20
32.00000762939453
 40
8
100
AcDbArc
 50
270.00001798609
 51
360
  0
ARC
  5
51b
100
AcDbEntity
  8
0
  6
CONTINUOUS
 62
     7
100
AcDbCircle
 10
-38.5
 20
21.49996948242188
 40
2.5
100
AcDbArc
 50
89.99998201391064
 51
185.4787456290344
  0
ARC
  5
51c
100
AcDbEntity
  8
0
  6
CONTINUOUS
 62
     7
100
AcDbCircle
 10
-43.97486877441406
 20
20.97484588623047
 40
3
100
AcDbArc
 50
264.5210792905268
 51
5.47878544319377
  0
ARC
  5
51d
100
AcDbEntity
  8
0
  6
CONTINUOUS
 62
     7
100
AcDbCircle
 10
-44.5
 20
15.49996948242188
 40
2.5
100
AcDbArc
 50
84.52120724288746
 51
179.9999640278213
  0
ARC
  5
51e
100
AcDbEntity
  8
0
  6
CONTINUOUS
 62
     7
100
AcDbCircle
 10
-42
 20
42.00000762939453
 40
8
100
AcDbArc
 50
90.0000161648565
 51
180.000005008957
  0
CIRCLE
  5
51f
100
AcDbEntity
  8
0
  6
CONTINUOUS
 62
     7
100
AcDbCircle
 10
-37
 20
37.00000762939453
 40
10.25
  0
CIRCLE
  5
520
100
AcDbEntity
  8
0
  6
CONTINUOUS
 62
     7
100
AcDbCircle
 10
-37
 20
36.99997711181641
 40
9
  0
CIRCLE
  5
521
100
AcDbEntity
  8
0
  6
CONTINUOUS
 62
     7
100
AcDbCircle
 10
-37
 20
36.99997711181641
 40
7.25
  0
CIRCLE
  5
522
100
AcDbEntity
  8
0
  6
CONTINUOUS
 62
     7
100
AcDbCircle
 10
-37
 20
36.99997711181641
 40
6
  0
CIRCLE
  5
523
100
AcDbEntity
  8
0
  6
CONTINUOUS
 62
     7
100
AcDbCircle
 10
-37
 20
36.99997711181641
 40
5.053000450134277
  0
ARC
  5
524
100
AcDbEntity
  8
0
  6
CONTINUOUS
 62
     7
100
AcDbCircle
 10
-21.72048950195313
 20
28.08444976806641
 40
3
100
AcDbArc
 50
159.1477380012309
 51
224.9999960159124
  0
ARC
  5
525
100
AcDbEntity
  8
0
  6
CONTINUOUS
 62
     7
100
AcDbCircle
 10
-28.08444213867188
 20
21.720458984375
 40
3
100
AcDbArc
 50
45.00000125223911
 51
110.8522626820144
  0
ARC
  5
526
100
AcDbEntity
  8
0
  6
CONTINUOUS
 62
     7
100
AcDbCircle
 10
-14.56625366210938
 20
20.93020629882813
 40
3
100
AcDbArc
 50
224.999999658378
 51
304.8357517721501
  0
CIRCLE
  5
527
100
AcDbEntity
  8
0
  6
CONTINUOUS
 62
     7
100
AcDbCircle
 10
0
 20
0
 40
22.5
  0
ARC
  5
528
100
AcDbEntity
  8
0
  6
CONTINUOUS
 62
     7
100
AcDbCircle
 10
-13
 20
21.93740844726563
 40
3
100
AcDbArc
 50
300.6507582638999
 51
359.9999640278226
  0
ARC
  5
529
100
AcDbEntity
  8
0
  6
CONTINUOUS
 62
     7
100
AcDbCircle
 10
21
 20
32.99997711181641
 40
3
100
AcDbArc
 50
0
 51
90.00001616485648
  0
ARC
  5
52a
100
AcDbEntity
  8
0
  6
CONTINUOUS
 62
     7
100
AcDbCircle
 10
32
 20
32.00000762939453
 40
8
100
AcDbArc
 50
179.9999813306653
 51
270.00001798609
  0
ARC
  5
52b
100
AcDbEntity
  8
0
  6
CONTINUOUS
 62
     7
100
AcDbCircle
 10
21.72048950195313
 20
28.08444976806641
 40
3
100
AcDbArc
 50
314.9999987477617
 51
20.85226017753626
  0
ARC
  5
52c
100
AcDbEntity
  8
0
  6
CONTINUOUS
 62
     7
100
AcDbCircle
 10
13
 20
21.93740844726563
 40
3
100
AcDbArc
 50
180.0000496325577
 51
239.3492572177127
  0
CIRCLE
  5
52d
100
AcDbEntity
  8
0
  6
CONTINUOUS
 62
     7
100
AcDbCircle
 10
0
 20
0
 40
21.80000305175781
  0
ARC
  5
52e
100
AcDbEntity
  8
0
  6
CONTINUOUS
 62
     7
100
AcDbCircle
 10
14.56625366210938
 20
20.93020629882813
 40
3
100
AcDbArc
 50
235.1642500490841
 51
314.9999987477617
  0
ARC
  5
52f
100
AcDbEntity
  8
0
  6
CONTINUOUS
 62
     7
100
AcDbCircle
 10
-20.93023681640625
 20
14.56622314453125
 40
3
100
AcDbArc
 50
325.1642491384678
 51
45.00000125223911
  0
ARC
  5
530
100
AcDbEntity
  8
0
  6
CONTINUOUS
 62
     7
100
AcDbCircle
 10
-23.664306640625
 20
9.5
 40
3
100
AcDbArc
 50
269.9999291936309
 51
338.1270756264855
  0
ARC
  5
531
100
AcDbEntity
  8
0
  6
CONTINUOUS
 62
     7
100
AcDbCircle
 10
-44
 20
9.5
 40
3
100
AcDbArc
 50
179.9999813306653
 51
269.9999838351442
  0
ARC
  5
532
100
AcDbEntity
  8
0
  6
CONTINUOUS
 62
     7
100
AcDbCircle
 10
42
 20
42.00000762939453
 40
8
100
AcDbArc
 50
359.9999813306654
 51
90.0000161648565
  0
CIRCLE
  5
533
100
AcDbEntity
  8
0
  6
CONTINUOUS
 62
     7
100
AcDbCircle
 10
37
 20
37.00000762939453
 40
10.25
  0
CIRCLE
  5
534
100
AcDbEntity
  8
0
  6
CONTINUOUS
 62
     7
100
AcDbCircle
 10
37
 20
36.99997711181641
 40
9
  0
CIRCLE
  5
535
100
AcDbEntity
  8
0
  6
CONTINUOUS
 62
     7
100
AcDbCircle
 10
37
 20
36.99997711181641
 40
7.25
  0
CIRCLE
  5
536
100
AcDbEntity
  8
0
  6
CONTINUOUS
 62
     7
100
AcDbCircle
 10
37
 20
36.99997711181641
 40
6
  0
CIRCLE
  5
537
100
AcDbEntity
  8
0
  6
CONTINUOUS
 62
     7
100
AcDbCircle
 10
37
 20
36.99997711181641
 40
5.053000450134277
  0
ARC
  5
538
100
AcDbEntity
  8
0
  6
CONTINUOUS
 62
     7
100
AcDbCircle
 10
20.93020629882813
 20
14.56622314453125
 40
3
100
AcDbArc
 50
135.0000003416227
 51
214.8357456252063
  0
ARC
  5
539
100
AcDbEntity
  8
0
  6
CONTINUOUS
 62
     7
100
AcDbCircle
 10
28.08444213867188
 20
21.720458984375
 40
3
100
AcDbArc
 50
69.14774232694188
 51
135.0000003416227
  0
ARC
  5
53a
100
AcDbEntity
  8
0
  6
CONTINUOUS
 62
     7
100
AcDbCircle
 10
38.5
 20
21.49996948242188
 40
2.5
100
AcDbArc
 50
354.5212243752039
 51
89.99998201391064
  0
ARC
  5
53b
100
AcDbEntity
  8
0
  6
CONTINUOUS
 62
     7
100
AcDbCircle
 10
43.97488403320313
 20
20.97484588623047
 40
3
100
AcDbArc
 50
174.521264388879
 51
275.4788779071067
  0
ARC
  5
53c
100
AcDbEntity
  8
0
  6
CONTINUOUS
 62
     7
100
AcDbCircle
 10
44.5
 20
15.49996948242188
 40
2.5
100
AcDbArc
 50
0
 51
95.47846308679952
  0
ARC
  5
53d
100
AcDbEntity
  8
0
  6
CONTINUOUS
 62
     7
100
AcDbCircle
 10
44
 20
9.5
 40
3
100
AcDbArc
 50
269.9999906653333
 51
359.9999931698116
  0
ARC
  5
53e
100
AcDbEntity
  8
0
  6
CONTINUOUS
 62
     7
100
AcDbCircle
 10
23.66433715820313
 20
9.5
 40
3
100
AcDbArc
 50
201.8729244872015
 51
270.0000726276035
  0
ARC
  5
53f
100
AcDbEntity
  8
0
  6
CONTINUOUS
 62
     7
100
AcDbCircle
 10
44
 20
-9.500030517578125
 40
3
100
AcDbArc
 50
359.9999590188657
 51
89.99994786296485
  0
ARC
  5
540
100
AcDbEntity
  8
0
  6
CONTINUOUS
 62
     7
100
AcDbCircle
 10
23.66433715820313
 20
-9.500030517578125
 40
3
100
AcDbArc
 50
89.99992737239727
 51
158.1270755127992
  0
ARC
  5
541
100
AcDbEntity
  8
0
  6
CONTINUOUS
 62
     7
100
AcDbCircle
 10
20.93020629882813
 20
-14.56625366210938
 40
3
100
AcDbArc
 50
145.1642507323288
 51
224.9999960159124
  0
ARC
  5
542
100
AcDbEntity
  8
0
  6
CONTINUOUS
 62
     7
100
AcDbCircle
 10
42
 20
-42.00003051757813
 40
8
100
AcDbArc
 50
269.9999974955226
 51
359.9999813306654
  0
CIRCLE
  5
543
100
AcDbEntity
  8
0
  6
CONTINUOUS
 62
     7
100
AcDbCircle
 10
37
 20
-37.00003051757813
 40
10.25
  0
CIRCLE
  5
544
100
AcDbEntity
  8
0
  6
CONTINUOUS
 62
     7
100
AcDbCircle
 10
37
 20
-37.00003051757813
 40
9
  0
CIRCLE
  5
545
100
AcDbEntity
  8
0
  6
CONTINUOUS
 62
     7
100
AcDbCircle
 10
37
 20
-37.00003051757813
 40
7.25
  0
CIRCLE
  5
546
100
AcDbEntity
  8
0
  6
CONTINUOUS
 62
     7
100
AcDbCircle
 10
37
 20
-37.00003051757813
 40
6
  0
CIRCLE
  5
547
100
AcDbEntity
  8
0
  6
CONTINUOUS
 62
     7
100
AcDbCircle
 10
37
 20
-37.00003051757813
 40
5.053000450134277
  0
ARC
  5
548
100
AcDbEntity
  8
0
  6
CONTINUOUS
 62
     7
100
AcDbCircle
 10
44.5
 20
-15.5
 40
2.5
100
AcDbArc
 50
264.5215369132012
 51
360
  0
ARC
  5
549
100
AcDbEntity
  8
0
  6
CONTINUOUS
 62
     7
100
AcDbCircle
 10
43.97488403320313
 20
-20.97487640380859
 40
3
100
AcDbArc
 50
84.5210979598608
 51
185.4787183082777
  0
ARC
  5
54a
100
AcDbEntity
  8
0
  6
CONTINUOUS
 62
     7
100
AcDbCircle
 10
38.5
 20
-21.5
 40
2.5
100
AcDbArc
 50
270.00001798609
 51
5.47877562479684
  0
ARC
  5
54b
100
AcDbEntity
  8
0
  6
CONTINUOUS
 62
     7
100
AcDbCircle
 10
32
 20
-32.00003051757813
 40
8
100
AcDbArc
 50
89.99998201391065
 51
179.9999640278213
  0
ARC
  5
54c
100
AcDbEntity
  8
0
  6
CONTINUOUS
 62
     7
100
AcDbCircle
 10
28.08444213867188
 20
-21.72048950195313
 40
3
100
AcDbArc
 50
224.999999658378
 51
290.8522576730588
  0
ARC
  5
54d
100
AcDbEntity
  8
0
  6
CONTINUOUS
 62
     7
100
AcDbCircle
 10
21.72048950195313
 20
-28.08447265625
 40
3
100
AcDbArc
 50
339.1477398224644
 51
45.00000125223911
  0
ARC
  5
54e
100
AcDbEntity
  8
0
  6
CONTINUOUS
 62
     7
100
AcDbCircle
 10
21.5
 20
-38.50003051757813
 40
2.5
100
AcDbArc
 50
264.5215369132012
 51
360
  0
ARC
  5
54f
100
AcDbEntity
  8
0
  6
CONTINUOUS
 62
     7
100
AcDbCircle
 10
20.97488403320313
 20
-43.97490310668945
 40
3
100
AcDbArc
 50
84.52109112967159
 51
185.4787183082777
  0
ARC
  5
550
100
AcDbEntity
  8
0
  6
CONTINUOUS
 62
     7
100
AcDbCircle
 10
15.5
 20
-44.50002288818359
 40
2.5
100
AcDbArc
 50
270.00001798609
 51
5.478688539884907
  0
ARC
  5
551
100
AcDbEntity
  8
0
  6
CONTINUOUS
 62
     7
100
AcDbCircle
 10
14.56625366210938
 20
-20.93023681640625
 40
3
100
AcDbArc
 50
45.00000125223911
 51
124.8357499509166
  0
ARC
  5
552
100
AcDbEntity
  8
0
  6
CONTINUOUS
 62
     7
100
AcDbCircle
 10
4.5
 20
-25.09979248046875
 40
3
100
AcDbArc
 50
100.1642460649951
 51
180.000005008957
  0
ARC
  5
553
100
AcDbEntity
  8
0
  6
CONTINUOUS
 62
     7
100
AcDbCircle
 10
4.5
 20
-44
 40
3
100
AcDbArc
 50
179.9999949910437
 51
269.9999974955226
  0
ARC
  5
554
100
AcDbEntity
  8
0
  6
CONTINUOUS
 62
     7
100
AcDbCircle
 10
-4.5
 20
-44
 40
3
100
AcDbArc
 50
269.9999974955226
 51
1.3570366640911e-013
  0
ARC
  5
555
100
AcDbEntity
  8
0
  6
CONTINUOUS
 62
     7
100
AcDbCircle
 10
-4.5
 20
-25.09979248046875
 40
3
100
AcDbArc
 50
6.785183320455502e-014
 51
79.83575211377207
  0
ARC
  5
556
100
AcDbEntity
  8
0
  6
CONTINUOUS
 62
     7
100
AcDbCircle
 10
-15.5
 20
-44.50002288818359
 40
2.5
100
AcDbArc
 50
174.5213326907707
 51
270.0000006832461
  0
ARC
  5
557
100
AcDbEntity
  8
0
  6
CONTINUOUS
 62
     7
100
AcDbCircle
 10
-20.97488403320313
 20
-43.97490310668945
 40
3
100
AcDbArc
 50
354.5212423044504
 51
95.47892753966313
  0
ARC
  5
558
100
AcDbEntity
  8
0
  6
CONTINUOUS
 62
     7
100
AcDbCircle
 10
-21.5
 20
-38.50003051757813
 40
2.5
100
AcDbArc
 50
179.9999813306654
 51
275.4784444174657
  0
ARC
  5
559
100
AcDbEntity
  8
0
  6
CONTINUOUS
 62
     7
100
AcDbCircle
 10
-32
 20
-32.00003051757813
 40
8
100
AcDbArc
 50
0
 51
89.99998201391065
  0
ARC
  5
55a
100
AcDbEntity
  8
0
  6
CONTINUOUS
 62
     7
100
AcDbCircle
 10
-21.72048950195313
 20
-28.08447265625
 40
3
100
AcDbArc
 50
135.0000003416227
 51
200.8522583563041
  0
ARC
  5
55b
100
AcDbEntity
  8
0
  6
CONTINUOUS
 62
     7
100
AcDbCircle
 10
-28.08444213867188
 20
-21.72048950195313
 40
3
100
AcDbArc
 50
249.1477373179863
 51
314.9999987477617
  0
ARC
  5
55c
100
AcDbEntity
  8
0
  6
CONTINUOUS
 62
     7
100
AcDbCircle
 10
-20.93023681640625
 20
-14.56625366210938
 40
3
100
AcDbArc
 50
314.9999987477617
 51
34.83575086153297
  0
ARC
  5
55d
100
AcDbEntity
  8
0
  6
CONTINUOUS
 62
     7
100
AcDbCircle
 10
-14.56625366210938
 20
-20.93023681640625
 40
3
100
AcDbArc
 50
55.16424822785057
 51
135.0000003416227
  0
ARC
  5
55e
100
AcDbEntity
  8
0
  6
CONTINUOUS
 62
     7
100
AcDbCircle
 10
-23.664306640625
 20
-9.500030517578125
 40
3
100
AcDbArc
 50
21.87292437351526
 51
90.00007080636985
  0
ARC
  5
55f
100
AcDbEntity
  8
0
  6
CONTINUOUS
 62
     7
100
AcDbCircle
 10
-44
 20
-9.500030517578125
 40
3
100
AcDbArc
 50
90.00001616485655
 51
180.000005008957
  0
ARC
  5
560
100
AcDbEntity
  8
0
  6
CONTINUOUS
 62
     7
100
AcDbCircle
 10
-44.5
 20
-15.5
 40
2.5
100
AcDbArc
 50
179.9999813306653
 51
275.4787927571132
  0
ARC
  5
561
100
AcDbEntity
  8
0
  6
CONTINUOUS
 62
     7
100
AcDbCircle
 10
-43.97486877441406
 20
-20.97487640380859
 40
3
100
AcDbArc
 50
354.5212145568069
 51
95.47892070947391
  0
ARC
  5
562
100
AcDbEntity
  8
0
  6
CONTINUOUS
 62
     7
100
AcDbCircle
 10
-38.5
 20
-21.5
 40
2.5
100
AcDbArc
 50
174.5212370681223
 51
270.000000683246
  0
CIRCLE
  5
563
100
AcDbEntity
  8
0
  6
CONTINUOUS
 62
     7
100
AcDbCircle
 10
-37
 20
-37.00003051757813
 40
10.25
  0
CIRCLE
  5
564
100
AcDbEntity
  8
0
  6
CONTINUOUS
 62
     7
100
AcDbCircle
 10
-37
 20
-37.00003051757813
 40
9
  0
CIRCLE
  5
565
100
AcDbEntity
  8
0
  6
CONTINUOUS
 62
     7
100
AcDbCircle
 10
-37
 20
-37.00003051757813
 40
7.25
  0
CIRCLE
  5
566
100
AcDbEntity
  8
0
  6
CONTINUOUS
 62
     7
100
AcDbCircle
 10
-37
 20
-37.00003051757813
 40
6
  0
CIRCLE
  5
567
100
AcDbEntity
  8
0
  6
CONTINUOUS
 62
     7
100
AcDbCircle
 10
-37
 20
-37.00003051757813
 40
5.053000450134277
  0
ARC
  5
568
100
AcDbEntity
  8
0
  6
CONTINUOUS
 62
     7
100
AcDbCircle
 10
-42
 20
-42.00003051757813
 40
8
100
AcDbArc
 50
179.9999949910437
 51
269.9999838351442
  0
MTEXT
  5
569
100
AcDbEntity
  8
0
  6
CONTINUOUS
 62
     7
100
AcDbMText
 10
8.619446411728859
 20
-33.76947021484375
 40
0.5
 41
32
 71
     7
 72
     1
  1
{\W0.842888;ＢＮ－６１０５－Ｓ－８０－Ｂ－＊}
  0
INSERT
  5
56a
100
AcDbEntity
  8
0
  6
CONTINUOUS
 62
     3
100
AcDbBlockReference
  2
KOZU0010
 10
0
 20
0
  0
ENDBLK
  8
0
  5
56b
100
AcDbEntity
100
AcDbBlockEnd
  0
BLOCK
  8
0
  5
56c
100
AcDbEntity
100
AcDbBlockBegin
  2
KOZU0005
 70
    64
 10
0
 20
0
  0
POINT
  5
56d
100
AcDbEntity
  8
0
  6
CONTINUOUS
 62
     7
100
AcDbPoint
 10
0
 20
0
  0
POINT
  5
56e
100
AcDbEntity
  8
0
  6
CONTINUOUS
 62
     7
100
AcDbPoint
 10
199
 20
0
  0
POINT
  5
56f
100
AcDbEntity
  8
0
  6
CONTINUOUS
 62
     7
100
AcDbPoint
 10
17
 20
0
  0
POINT
  5
570
100
AcDbEntity
  8
0
  6
CONTINUOUS
 62
     7
100
AcDbPoint
 10
199
 20
0
  0
POINT
  5
571
100
AcDbEntity
  8
0
  6
CONTINUOUS
 62
     7
100
AcDbPoint
 10
17
 20
0
  0
LINE
  5
572
100
AcDbEntity
  8
0
  6
CONTINUOUS
 62
     7
100
AcDbLine
 10
-14.29998779296875
 20
22.50003051757813
 11
0
 21
22.50003051757813
  0
LINE
  5
573
100
AcDbEntity
  8
0
  6
CONTINUOUS
 62
     7
100
AcDbLine
 10
0
 20
-49.49998474121094
 11
0
 21
49.50002288818359
  0
LINE
  5
574
100
AcDbEntity
  8
0
  6
CONTINUOUS
 62
     7
100
AcDbLine
 10
-14.29998966952476
 20
22.49999264805531
 11
-14.99999686887024
 21
21.79998538970363
  0
LINE
  5
575
100
AcDbEntity
  8
0
  6
CONTINUOUS
 62
     7
100
AcDbLine
 10
-14.29998779296875
 20
22.50001525878906
 11
-14.29998779296875
 21
-22.49998474121094
  0
LINE
  5
576
100
AcDbEntity
  8
0
  6
CONTINUOUS
 62
     7
100
AcDbLine
 10
-15
 20
-21.79998016357422
 11
-15
 21
21.80001068115234
  0
LINE
  5
577
100
AcDbEntity
  8
0
  6
CONTINUOUS
 62
     7
100
AcDbLine
 10
-15
 20
12.50003051757813
 11
-28.40191650390625
 21
12.50003051757813
  0
LINE
  5
578
100
AcDbEntity
  8
0
  6
CONTINUOUS
 62
     7
100
AcDbLine
 10
-28.40193622234166
 20
12.49999266580253
 11
-31.00001242203726
 21
10.99999264561077
  0
LINE
  5
579
100
AcDbEntity
  8
0
  6
CONTINUOUS
 62
     7
100
AcDbLine
 10
-31
 20
-10.99997711181641
 11
-31
 21
11.00001525878906
  0
LINE
  5
57a
100
AcDbEntity
  8
0
  6
CONTINUOUS
 62
     7
100
AcDbLine
 10
-28.40191650390625
 20
5.937187194824219
 11
-28.40191650390625
 21
12.50002288818359
  0
LINE
  5
57b
100
AcDbEntity
  8
0
  6
CONTINUOUS
 62
     7
100
AcDbLine
 10
-20
 20
5.93719482421875
 11
-31
 21
5.93719482421875
  0
LINE
  5
57c
100
AcDbEntity
  8
0
  6
CONTINUOUS
 62
     7
100
AcDbLine
 10
-20
 20
-5.937164306640625
 11
-20
 21
5.937187194824219
  0
LINE
  5
57d
100
AcDbEntity
  8
0
  6
CONTINUOUS
 62
     7
100
AcDbLine
 10
-20.00000373099901
 20
5.937210919176901
 11
-30.99999534522105
 21
-5.937121639191764
  0
LINE
  5
57e
100
AcDbEntity
  8
0
  6
CONTINUOUS
 62
     7
100
AcDbLine
 10
-19.99996035488129
 20
-5.937170736966341
 11
-30.99994159950061
 21
5.937150627565494
  0
LINE
  5
57f
100
AcDbEntity
  8
0
  6
CONTINUOUS
 62
     7
100
AcDbLine
 10
-20
 20
-5.937164306640625
 11
-31
 21
-5.937164306640625
  0
LINE
  5
580
100
AcDbEntity
  8
0
  6
CONTINUOUS
 62
     7
100
AcDbLine
 10
-28.40198621931427
 20
-12.49995719278691
 11
-31.00003599001207
 21
-10.99997243138442
  0
LINE
  5
581
100
AcDbEntity
  8
0
  6
CONTINUOUS
 62
     7
100
AcDbLine
 10
-28.40191650390625
 20
-5.937156677246094
 11
-28.40191650390625
 21
-12.49998474121094
  0
LINE
  5
582
100
AcDbEntity
  8
0
  6
CONTINUOUS
 62
     7
100
AcDbLine
 10
-15
 20
-12.49998474121094
 11
-28.40191650390625
 21
-12.49998474121094
  0
LINE
  5
583
100
AcDbEntity
  8
0
  6
CONTINUOUS
 62
     7
100
AcDbLine
 10
-15.00000582086163
 20
-21.79999744370239
 11
-14.29999856250995
 21
-22.50000464304787
  0
LINE
  5
584
100
AcDbEntity
  8
0
  6
CONTINUOUS
 62
     7
100
AcDbLine
 10
-14.29998779296875
 20
-22.49998474121094
 11
0
 21
-22.49998474121094
  0
LINE
  5
585
100
AcDbEntity
  8
0
  6
CONTINUOUS
 62
     7
100
AcDbLine
 10
-31
 20
-10.99998474121094
 11
-46
 21
-10.99998474121094
  0
LINE
  5
586
100
AcDbEntity
  8
0
  6
CONTINUOUS
 62
     7
100
AcDbLine
 10
-34
 20
-10.18798828125
 11
-46
 21
-10.18798828125
  0
LINE
  5
587
100
AcDbEntity
  8
0
  6
CONTINUOUS
 62
     7
100
AcDbLine
 10
-34
 20
11.00002288818359
 11
-34
 21
-10.99998474121094
  0
LINE
  5
588
100
AcDbEntity
  8
0
  6
CONTINUOUS
 62
     7
100
AcDbLine
 10
-32.59357628952812
 20
-10.99999438088849
 11
-34.00002183643364
 21
-10.18798265120786
  0
LINE
  5
589
100
AcDbEntity
  8
0
  6
CONTINUOUS
 62
     7
100
AcDbLine
 10
-34
 20
10.18801879882813
 11
-46
 21
10.18801879882813
  0
LINE
  5
58a
100
AcDbEntity
  8
0
  6
CONTINUOUS
 62
     7
100
AcDbLine
 10
-31
 20
11.00003051757813
 11
-46
 21
11.00003051757813
  0
LINE
  5
58b
100
AcDbEntity
  8
0
  6
CONTINUOUS
 62
     7
100
AcDbLine
 10
-32.59361893098951
 20
11.00000720290938
 11
-34.00003804889724
 21
10.18801073201802
  0
LINE
  5
58c
100
AcDbEntity
  8
0
  6
CONTINUOUS
 62
     7
100
AcDbLine
 10
-46
 20
13.89357757568359
 11
-46
 21
-13.89353179931641
  0
LINE
  5
58d
100
AcDbEntity
  8
0
  6
CONTINUOUS
 62
     7
100
AcDbLine
 10
-46.99998401418743
 20
18.50004653245404
 11
-45.99998135649471
 21
13.89357830307194
  0
LINE
  5
58e
100
AcDbEntity
  8
0
  6
CONTINUOUS
 62
     7
100
AcDbLine
 10
-47
 20
18.50003051757813
 11
-58
 21
18.50003051757813
  0
LINE
  5
58f
100
AcDbEntity
  8
0
  6
CONTINUOUS
 62
     7
100
AcDbLine
 10
-57.99998186986706
 20
18.50001055473799
 11
-58.99998088584383
 21
13.89355910076016
  0
LINE
  5
590
100
AcDbEntity
  8
0
  6
CONTINUOUS
 62
     7
100
AcDbLine
 10
-59
 20
13.89356231689453
 11
-59
 21
-13.89352416992188
  0
LINE
  5
591
100
AcDbEntity
  8
0
  6
CONTINUOUS
 62
     7
100
AcDbLine
 10
-59
 20
11.00003051757813
 11
-69.5
 21
11.00003051757813
  0
LINE
  5
592
100
AcDbEntity
  8
0
  6
CONTINUOUS
 62
     7
100
AcDbLine
 10
-59
 20
10.18801879882813
 11
-70.718017578125
 21
10.18801879882813
  0
LINE
  5
593
100
AcDbEntity
  8
0
  6
CONTINUOUS
 62
     7
100
AcDbLine
 10
-69.50002993739257
 20
11.00014507051987
 11
-71.00004640557553
 21
10.00013412754957
  0
LINE
  5
594
100
AcDbEntity
  8
0
  6
CONTINUOUS
 62
     7
100
AcDbLine
 10
-71
 20
10.18801116943359
 11
-71
 21
-9.999984741210938
  0
LINE
  5
595
100
AcDbEntity
  8
0
  6
CONTINUOUS
 62
     7
100
AcDbLine
 10
-69.5
 20
-10.99998474121094
 11
-69.5
 21
11.00002288818359
  0
LINE
  5
596
100
AcDbEntity
  8
0
  6
CONTINUOUS
 62
     7
100
AcDbLine
 10
-47
 20
9.287109375
 11
-58
 21
9.287109375
  0
LINE
  5
597
100
AcDbEntity
  8
0
  6
CONTINUOUS
 62
     7
100
AcDbLine
 10
-47
 20
-9.287078857421875
 11
-58
 21
-9.287078857421875
  0
LINE
  5
598
100
AcDbEntity
  8
0
  6
CONTINUOUS
 62
     7
100
AcDbLine
 10
-57.99996317439156
 20
-18.49995282239659
 11
-58.99996234210649
 21
-13.89350066944359
  0
LINE
  5
599
100
AcDbEntity
  8
0
  6
CONTINUOUS
 62
     7
100
AcDbLine
 10
-69.50002782138202
 20
-10.99997684746076
 11
-71.00001889740484
 21
-9.999982832596604
  0
LINE
  5
59a
100
AcDbEntity
  8
0
  6
CONTINUOUS
 62
     7
100
AcDbLine
 10
-59
 20
-10.18798828125
 11
-70.718017578125
 21
-10.18798828125
  0
LINE
  5
59b
100
AcDbEntity
  8
0
  6
CONTINUOUS
 62
     7
100
AcDbLine
 10
-59
 20
-10.99998474121094
 11
-69.5
 21
-10.99998474121094
  0
LINE
  5
59c
100
AcDbEntity
  8
0
  6
CONTINUOUS
 62
     7
100
AcDbLine
 10
-47
 20
-18.49998474121094
 11
-58
 21
-18.49998474121094
  0
LINE
  5
59d
100
AcDbEntity
  8
0
  6
CONTINUOUS
 62
     7
100
AcDbLine
 10
-46.9999968424539
 20
-18.49996177307243
 11
-45.99999458939627
 21
-13.89349540762414
  0
LINE
  5
59e
100
AcDbEntity
  8
0
  6
CENTER
 62
     3
100
AcDbLine
 10
226.9271240234375
 20
0
 11
-77.52392578125
 21
0
  0
LINE
  5
59f
100
AcDbEntity
  8
0
  6
CONTINUOUS
 62
     7
100
AcDbLine
 10
0.5
 20
50.00003814697266
 11
33.5
 21
50.00003814697266
  0
LINE
  5
5a0
100
AcDbEntity
  8
0
  6
CONTINUOUS
 62
     7
100
AcDbLine
 10
2
 20
50.30004119873047
 11
2
 21
50.00003814697266
  0
LINE
  5
5a1
100
AcDbEntity
  8
0
  6
CONTINUOUS
 62
     7
100
AcDbLine
 10
2
 20
50.30004119873047
 11
32
 21
50.30004119873047
  0
LINE
  5
5a2
100
AcDbEntity
  8
0
  6
DASHED
 62
     7
100
AcDbLine
 10
3.29998779296875
 20
50.30002593994141
 11
3.29998779296875
 21
48.80002593994141
  0
LINE
  5
5a3
100
AcDbEntity
  8
0
  6
DASHED
 62
     7
100
AcDbLine
 10
3.29998779296875
 20
48.80004119873047
 11
30.70001220703125
 21
48.80004119873047
  0
LINE
  5
5a4
100
AcDbEntity
  8
0
  6
DASHED
 62
     7
100
AcDbLine
 10
6.767511262306326
 20
35.29999915171982
 11
6.30136421931558
 21
48.64870456621427
  0
LINE
  5
5a5
100
AcDbEntity
  8
0
  6
DASHED
 62
     7
100
AcDbLine
 10
6.150000699752038
 20
48.80001110081106
 11
7.506079933862299
 21
47.44393186670081
  0
LINE
  5
5a6
100
AcDbEntity
  8
0
  6
DASHED
 62
     7
100
AcDbLine
 10
7.930242059979827
 20
35.30004292298327
 11
7.506167344533145
 21
47.44395445337501
  0
LINE
  5
5a7
100
AcDbEntity
  8
0
  6
DASHED
 62
     7
100
AcDbLine
 10
7.51458740234375
 20
47.20003509521484
 11
26.48541259765625
 21
47.20003509521484
  0
LINE
  5
5a8
100
AcDbEntity
  8
0
  6
CENTER
 62
     3
100
AcDbLine
 10
17
 20
52.68653106689453
 11
17
 21
34.44865417480469
  0
LINE
  5
5a9
100
AcDbEntity
  8
0
  6
CONTINUOUS
 62
     7
100
AcDbLine
 10
32
 20
50.30004119873047
 11
32
 21
50.00003814697266
  0
LINE
  5
5aa
100
AcDbEntity
  8
0
  6
CONTINUOUS
 62
     7
100
AcDbLine
 10
34
 20
-49.49998474121094
 11
34
 21
49.50000762939453
  0
LINE
  5
5ab
100
AcDbEntity
  8
0
  6
DASHED
 62
     7
100
AcDbLine
 10
30.70001220703125
 20
50.30002593994141
 11
30.70001220703125
 21
48.80002593994141
  0
LINE
  5
5ac
100
AcDbEntity
  8
0
  6
DASHED
 62
     7
100
AcDbLine
 10
27.85003260442894
 20
48.80001447255894
 11
26.49395337031868
 21
47.44393523844869
  0
LINE
  5
5ad
100
AcDbEntity
  8
0
  6
DASHED
 62
     7
100
AcDbLine
 10
27.23253553311123
 20
35.30001442687868
 11
27.69868204357795
 21
48.6487045918793
  0
LINE
  5
5ae
100
AcDbEntity
  8
0
  6
DASHED
 62
     7
100
AcDbLine
 10
26.06989617642331
 20
35.30003973686274
 11
26.49397222318007
 21
47.44398939098902
  0
LINE
  5
5af
100
AcDbEntity
  8
0
  6
CONTINUOUS
 62
     7
100
AcDbLine
 10
34
 20
44.50003814697266
 11
34.5
 21
44.50003814697266
  0
LINE
  5
5b0
100
AcDbEntity
  8
0
  6
CONTINUOUS
 62
     7
100
AcDbLine
 10
34.5
 20
44.50000762939453
 11
34.5
 21
42.43001556396484
  0
LINE
  5
5b1
100
AcDbEntity
  8
0
  6
CONTINUOUS
 62
     7
100
AcDbLine
 10
181.2000122070313
 20
43.20001983642578
 11
34.79998779296875
 21
43.20001983642578
  0
LINE
  5
5b2
100
AcDbEntity
  8
0
  6
CONTINUOUS
 62
     7
100
AcDbLine
 10
34.79997900534617
 20
43.20006162113967
 11
34.49998516813476
 21
42.90006775864067
  0
LINE
  5
5b3
100
AcDbEntity
  8
0
  6
CONTINUOUS
 62
     7
100
AcDbLine
 10
182
 20
42.43503570556641
 11
34.00003051757813
 21
42.43503570556641
  0
LINE
  5
5b4
100
AcDbEntity
  8
0
  6
CENTER
 62
     3
100
AcDbLine
 10
182
 20
37.00000762939453
 11
34
 21
37.00000762939453
  0
LINE
  5
5b5
100
AcDbEntity
  8
0
  6
CONTINUOUS
 62
     7
100
AcDbLine
 10
182
 20
31.56501007080078
 11
34.00003051757813
 21
31.56501007080078
  0
LINE
  5
5b6
100
AcDbEntity
  8
0
  6
CONTINUOUS
 62
     7
100
AcDbLine
 10
34.5
 20
-31.56998443603516
 11
34.5
 21
31.56501007080078
  0
LINE
  5
5b7
100
AcDbEntity
  8
0
  6
CONTINUOUS
 62
     7
100
AcDbLine
 10
33.5
 20
-49.99998474121094
 11
0.5
 21
-49.99998474121094
  0
LINE
  5
5b8
100
AcDbEntity
  8
0
  6
CONTINUOUS
 62
     7
100
AcDbLine
 10
34
 20
-44.49998474121094
 11
34.5
 21
-44.49998474121094
  0
LINE
  5
5b9
100
AcDbEntity
  8
0
  6
CONTINUOUS
 62
     7
100
AcDbLine
 10
34.5
 20
-44.49998474121094
 11
34.5
 21
-42.42998504638672
  0
LINE
  5
5ba
100
AcDbEntity
  8
0
  6
CONTINUOUS
 62
     7
100
AcDbLine
 10
181.2000122070313
 20
-43.19998168945313
 11
34.79998779296875
 21
-43.19998168945313
  0
LINE
  5
5bb
100
AcDbEntity
  8
0
  6
CONTINUOUS
 62
     7
100
AcDbLine
 10
182
 20
-42.43498229980469
 11
34.00003051757813
 21
-42.43498229980469
  0
LINE
  5
5bc
100
AcDbEntity
  8
0
  6
CONTINUOUS
 62
     7
100
AcDbLine
 10
34.80005318380449
 20
-43.19994428431654
 11
34.50003776740755
 21
-42.89992884263019
  0
LINE
  5
5bd
100
AcDbEntity
  8
0
  6
CENTER
 62
     3
100
AcDbLine
 10
182
 20
-36.99996948242188
 11
34
 21
-36.99996948242188
  0
LINE
  5
5be
100
AcDbEntity
  8
0
  6
CONTINUOUS
 62
     7
100
AcDbLine
 10
182
 20
-31.56497192382813
 11
34.00003051757813
 21
-31.56497192382813
  0
LINE
  5
5bf
100
AcDbEntity
  8
0
  6
CONTINUOUS
 62
     7
100
AcDbLine
 10
181.5
 20
-44.49998474121094
 11
181.5
 21
-42.42998504638672
  0
LINE
  5
5c0
100
AcDbEntity
  8
0
  6
CONTINUOUS
 62
     7
100
AcDbLine
 10
181.5000429223314
 20
-42.90004529437269
 11
181.2000706390197
 21
-43.20001755239858
  0
LINE
  5
5c1
100
AcDbEntity
  8
0
  6
CONTINUOUS
 62
     7
100
AcDbLine
 10
182
 20
-44.49998474121094
 11
181.5
 21
-44.49998474121094
  0
LINE
  5
5c2
100
AcDbEntity
  8
0
  6
CONTINUOUS
 62
     7
100
AcDbLine
 10
182
 20
-49.49998474121094
 11
182
 21
49.50000762939453
  0
LINE
  5
5c3
100
AcDbEntity
  8
0
  6
CONTINUOUS
 62
     7
100
AcDbLine
 10
215.5
 20
-49.99998474121094
 11
182.5
 21
-49.99998474121094
  0
LINE
  5
5c4
100
AcDbEntity
  8
0
  6
CONTINUOUS
 62
     7
100
AcDbLine
 10
181.5
 20
-31.56998443603516
 11
181.5
 21
31.56501007080078
  0
LINE
  5
5c5
100
AcDbEntity
  8
0
  6
CONTINUOUS
 62
     7
100
AcDbLine
 10
216
 20
-49.49998474121094
 11
216
 21
49.50002288818359
  0
LINE
  5
5c6
100
AcDbEntity
  8
0
  6
CONTINUOUS
 62
     7
100
AcDbLine
 10
219
 20
-22.5
 11
216
 21
-22.5
  0
LINE
  5
5c7
100
AcDbEntity
  8
0
  6
CONTINUOUS
 62
     7
100
AcDbLine
 10
219
 20
22.5
 11
219
 21
-22.5
  0
LINE
  5
5c8
100
AcDbEntity
  8
0
  6
CONTINUOUS
 62
     7
100
AcDbLine
 10
220
 20
21.50002288818359
 11
220
 21
-21.5
  0
LINE
  5
5c9
100
AcDbEntity
  8
0
  6
CONTINUOUS
 62
     7
100
AcDbLine
 10
219.9999675750034
 20
-21.50002319213148
 11
218.999988075486
 21
-22.50000269164883
  0
LINE
  5
5ca
100
AcDbEntity
  8
0
  6
CONTINUOUS
 62
     7
100
AcDbLine
 10
219.0000439974388
 20
22.50001167083497
 11
220.0000349184524
 21
21.50004359294435
  0
LINE
  5
5cb
100
AcDbEntity
  8
0
  6
CONTINUOUS
 62
     7
100
AcDbLine
 10
219
 20
22.5
 11
216
 21
22.5
  0
LINE
  5
5cc
100
AcDbEntity
  8
0
  6
CONTINUOUS
 62
     7
100
AcDbLine
 10
215.5
 20
50.00003814697266
 11
182.5
 21
50.00003814697266
  0
LINE
  5
5cd
100
AcDbEntity
  8
0
  6
CONTINUOUS
 62
     7
100
AcDbLine
 10
214
 20
50.30004119873047
 11
214
 21
50.00003814697266
  0
LINE
  5
5ce
100
AcDbEntity
  8
0
  6
CONTINUOUS
 62
     7
100
AcDbLine
 10
214
 20
50.30004119873047
 11
184
 21
50.30004119873047
  0
LINE
  5
5cf
100
AcDbEntity
  8
0
  6
CONTINUOUS
 62
     7
100
AcDbLine
 10
184
 20
50.30004119873047
 11
184
 21
50.00003814697266
  0
LINE
  5
5d0
100
AcDbEntity
  8
0
  6
DASHED
 62
     7
100
AcDbLine
 10
185.2999877929688
 20
50.30002593994141
 11
185.2999877929688
 21
48.80002593994141
  0
LINE
  5
5d1
100
AcDbEntity
  8
0
  6
DASHED
 62
     7
100
AcDbLine
 10
212.7000122070313
 20
48.80004119873047
 11
185.300048828125
 21
48.80004119873047
  0
LINE
  5
5d2
100
AcDbEntity
  8
0
  6
DASHED
 62
     7
100
AcDbLine
 10
188.7677135703563
 20
35.30001449555678
 11
188.3015665273656
 21
48.64871991005123
  0
LINE
  5
5d3
100
AcDbEntity
  8
0
  6
DASHED
 62
     7
100
AcDbLine
 10
188.1499839293758
 20
48.80001379820938
 11
189.74997270779
 21
47.20002501979518
  0
LINE
  5
5d4
100
AcDbEntity
  8
0
  6
DASHED
 62
     7
100
AcDbLine
 10
208.25
 20
47.20003509521484
 11
189.75
 21
47.20003509521484
  0
LINE
  5
5d5
100
AcDbEntity
  8
0
  6
DASHED
 62
     7
100
AcDbLine
 10
189.9302706947529
 20
35.30004456797106
 11
189.5061959793062
 21
47.4439560983628
  0
LINE
  5
5d6
100
AcDbEntity
  8
0
  6
DASHED
 62
     7
100
AcDbLine
 10
212.7000122070313
 20
50.30002593994141
 11
212.7000122070313
 21
48.80002593994141
  0
LINE
  5
5d7
100
AcDbEntity
  8
0
  6
DASHED
 62
     7
100
AcDbLine
 10
209.8499220994616
 20
48.79993287626024
 11
208.2499549002338
 21
47.19996567703248
  0
LINE
  5
5d8
100
AcDbEntity
  8
0
  6
DASHED
 62
     7
100
AcDbLine
 10
209.2325961524894
 20
35.30002693305389
 11
209.6987431954801
 21
48.64873234754834
  0
LINE
  5
5d9
100
AcDbEntity
  8
0
  6
DASHED
 62
     7
100
AcDbLine
 10
208.0698544365948
 20
35.30001764727511
 11
208.4939294183035
 21
47.44393680241377
  0
LINE
  5
5da
100
AcDbEntity
  8
0
  6
CENTER
 62
     3
100
AcDbLine
 10
199
 20
53.41889190673828
 11
199
 21
34.67377853393555
  0
LINE
  5
5db
100
AcDbEntity
  8
0
  6
CONTINUOUS
 62
     7
100
AcDbLine
 10
182
 20
44.50003814697266
 11
181.5
 21
44.50003814697266
  0
LINE
  5
5dc
100
AcDbEntity
  8
0
  6
CONTINUOUS
 62
     7
100
AcDbLine
 10
181.5
 20
44.50000762939453
 11
181.5
 21
42.43500518798828
  0
LINE
  5
5dd
100
AcDbEntity
  8
0
  6
CONTINUOUS
 62
     7
100
AcDbLine
 10
181.5000645015114
 20
42.90019634867866
 11
181.2000706390124
 21
43.20019018589007
  0
LINE
  5
5de
100
AcDbEntity
  8
0
  6
CENTER
 62
     3
100
AcDbLine
 10
17
 20
8.050000190734863
 11
17
 21
-7.699999809265137
  0
LINE
  5
5df
100
AcDbEntity
  8
0
  6
CENTER
 62
     3
100
AcDbLine
 10
199
 20
8.75
 11
199
 21
-8.399999618530273
  0
LINE
  5
5e0
100
AcDbEntity
  8
0
  6
CONTINUOUS
 62
     7
100
AcDbLine
 10
200.1499938964844
 20
1.991859436035156
 11
197.8500061035156
 21
1.991859436035156
  0
LINE
  5
5e1
100
AcDbEntity
  8
0
  6
CONTINUOUS
 62
     7
100
AcDbLine
 10
197.8500066112936
 20
1.991872642766708
 11
196.7000100694043
 21
8.693663303915855e-006
  0
LINE
  5
5e2
100
AcDbEntity
  8
0
  6
CONTINUOUS
 62
     7
100
AcDbLine
 10
195.6845190698791
 20
3.742706219823802
 11
196.1975195375883
 21
2.854163573237798
  0
LINE
  5
5e3
100
AcDbEntity
  8
0
  6
CONTINUOUS
 62
     7
100
AcDbLine
 10
194.1010131835938
 20
1
 11
195.1270141601563
 21
1
  0
LINE
  5
5e4
100
AcDbEntity
  8
0
  6
CONTINUOUS
 62
     7
100
AcDbLine
 10
194.1010131835938
 20
-1
 11
195.1270141601563
 21
-1
  0
LINE
  5
5e5
100
AcDbEntity
  8
0
  6
CONTINUOUS
 62
     7
100
AcDbLine
 10
195.684485202235
 20
-3.742675837663214
 11
196.1974856480082
 21
-2.854132903110468
  0
LINE
  5
5e6
100
AcDbEntity
  8
0
  6
CONTINUOUS
 62
     7
100
AcDbLine
 10
197.4165285212498
 20
-4.742671403663067
 11
197.929528967023
 21
-3.854128469110322
  0
LINE
  5
5e7
100
AcDbEntity
  8
0
  6
CONTINUOUS
 62
     7
100
AcDbLine
 10
200.5835516494403
 20
-4.742623098091158
 11
200.0705509433125
 21
-3.854080038552098
  0
LINE
  5
5e8
100
AcDbEntity
  8
0
  6
CONTINUOUS
 62
     7
100
AcDbLine
 10
197.8500061035156
 20
-1.991859436035156
 11
200.1499938964844
 21
-1.991859436035156
  0
LINE
  5
5e9
100
AcDbEntity
  8
0
  6
CONTINUOUS
 62
     7
100
AcDbLine
 10
200.14996348378
 20
-1.991847668802635
 11
201.2999523963079
 21
3.06578270681257e-006
  0
LINE
  5
5ea
100
AcDbEntity
  8
0
  6
CONTINUOUS
 62
     7
100
AcDbLine
 10
196.7000101067597
 20
-1.376517705864444e-005
 11
197.8500028339684
 21
-1.991871107021424
  0
LINE
  5
5eb
100
AcDbEntity
  8
0
  6
CONTINUOUS
 62
     7
100
AcDbLine
 10
200.1499758937757
 20
1.991850015896503
 11
201.2999724356651
 21
-1.393320688691802e-005
  0
LINE
  5
5ec
100
AcDbEntity
  8
0
  6
CONTINUOUS
 62
     7
100
AcDbLine
 10
197.4165600415695
 20
4.742665558775869
 11
197.9295606284879
 21
3.854122705713337
  0
LINE
  5
5ed
100
AcDbEntity
  8
0
  6
CONTINUOUS
 62
     7
100
AcDbLine
 10
200.5834904643545
 20
4.742678061652001
 11
200.0704900185812
 21
3.854135127099255
  0
LINE
  5
5ee
100
AcDbEntity
  8
0
  6
CONTINUOUS
 62
     7
100
AcDbLine
 10
202.3154941087292
 20
3.742670163150848
 11
201.8024936629559
 21
2.854127228598088
  0
LINE
  5
5ef
100
AcDbEntity
  8
0
  6
CONTINUOUS
 62
     7
100
AcDbLine
 10
203.8990173339844
 20
1.000015258789063
 11
202.8730163574219
 21
1.000015258789063
  0
LINE
  5
5f0
100
AcDbEntity
  8
0
  6
CONTINUOUS
 62
     7
100
AcDbLine
 10
203.8990173339844
 20
-0.9999542236328125
 11
202.8730163574219
 21
-0.9999542236328125
  0
LINE
  5
5f1
100
AcDbEntity
  8
0
  6
CONTINUOUS
 62
     7
100
AcDbLine
 10
202.3155774139578
 20
-3.742637300340533
 11
201.8025769462486
 21
-2.85409465375453
  0
LINE
  5
5f2
100
AcDbEntity
  8
0
  6
CONTINUOUS
 62
     7
100
AcDbLine
 10
18.14999389648438
 20
1.991859436035156
 11
15.85000610351563
 21
1.991859436035156
  0
LINE
  5
5f3
100
AcDbEntity
  8
0
  6
CONTINUOUS
 62
     7
100
AcDbLine
 10
15.85000661129366
 20
1.991872642766707
 11
14.7000100694043
 21
8.693663316350353e-006
  0
LINE
  5
5f4
100
AcDbEntity
  8
0
  6
CONTINUOUS
 62
     7
100
AcDbLine
 10
13.68451906987913
 20
3.742706219823814
 11
14.19751953758828
 21
2.85416357323781
  0
LINE
  5
5f5
100
AcDbEntity
  8
0
  6
CONTINUOUS
 62
     7
100
AcDbLine
 10
12.10101318359375
 20
1
 11
13.12701416015625
 21
1
  0
LINE
  5
5f6
100
AcDbEntity
  8
0
  6
CONTINUOUS
 62
     7
100
AcDbLine
 10
12.10101318359375
 20
-1
 11
13.12701416015625
 21
-1
  0
LINE
  5
5f7
100
AcDbEntity
  8
0
  6
CONTINUOUS
 62
     7
100
AcDbLine
 10
13.68448520223496
 20
-3.742675837663219
 11
14.19748564800825
 21
-2.85413290311047
  0
LINE
  5
5f8
100
AcDbEntity
  8
0
  6
CONTINUOUS
 62
     7
100
AcDbLine
 10
15.41652852124977
 20
-4.742671403663063
 11
15.92952896702306
 21
-3.854128469110314
  0
LINE
  5
5f9
100
AcDbEntity
  8
0
  6
CONTINUOUS
 62
     7
100
AcDbLine
 10
18.58355164944029
 20
-4.742623098091169
 11
18.07055094331251
 21
-3.854080038552098
  0
LINE
  5
5fa
100
AcDbEntity
  8
0
  6
CONTINUOUS
 62
     7
100
AcDbLine
 10
15.85000610351563
 20
-1.991859436035156
 11
18.14999389648438
 21
-1.991859436035156
  0
LINE
  5
5fb
100
AcDbEntity
  8
0
  6
CONTINUOUS
 62
     7
100
AcDbLine
 10
18.14996348378001
 20
-1.991847668802622
 11
19.2999523963079
 21
3.065782721023425e-006
  0
LINE
  5
5fc
100
AcDbEntity
  8
0
  6
CONTINUOUS
 62
     7
100
AcDbLine
 10
14.70001010675973
 20
-1.376517705420355e-005
 11
15.85000283396836
 21
-1.991871107021421
  0
LINE
  5
5fd
100
AcDbEntity
  8
0
  6
CONTINUOUS
 62
     7
100
AcDbLine
 10
18.14997589377576
 20
1.991850015896489
 11
19.29997243566513
 21
-1.393320690290523e-005
  0
LINE
  5
5fe
100
AcDbEntity
  8
0
  6
CONTINUOUS
 62
     7
100
AcDbLine
 10
15.41656004156941
 20
4.742665558775874
 11
15.92956062848788
 21
3.854122705713337
  0
LINE
  5
5ff
100
AcDbEntity
  8
0
  6
CONTINUOUS
 62
     7
100
AcDbLine
 10
18.58349046435449
 20
4.742678061652007
 11
18.0704900185812
 21
3.854135127099258
  0
LINE
  5
600
100
AcDbEntity
  8
0
  6
CONTINUOUS
 62
     7
100
AcDbLine
 10
20.31549410872923
 20
3.742670163150834
 11
19.80249366295594
 21
2.854127228598085
  0
LINE
  5
601
100
AcDbEntity
  8
0
  6
CONTINUOUS
 62
     7
100
AcDbLine
 10
21.89901733398438
 20
1.000015258789063
 11
20.87301635742188
 21
1.000015258789063
  0
LINE
  5
602
100
AcDbEntity
  8
0
  6
CONTINUOUS
 62
     7
100
AcDbLine
 10
21.89901733398438
 20
-0.9999542236328125
 11
20.87301635742188
 21
-0.9999542236328125
  0
LINE
  5
603
100
AcDbEntity
  8
0
  6
CONTINUOUS
 62
     7
100
AcDbLine
 10
20.31557741395771
 20
-3.742637300340556
 11
19.80257694624856
 21
-2.854094653754553
  0
ARC
  5
604
100
AcDbEntity
  8
0
  6
CONTINUOUS
 62
     7
100
AcDbCircle
 10
-27.8125
 20
0
 40
9.8125
100
AcDbArc
 50
322.7666580794019
 51
37.23327361870711
  0
ARC
  5
605
100
AcDbEntity
  8
0
  6
CONTINUOUS
 62
     7
100
AcDbCircle
 10
-57.1097412109375
 20
13.8935546875
 40
11.10971927642822
100
AcDbArc
 50
335.5038270700734
 51
4.098113502008e-005
  0
ARC
  5
606
100
AcDbEntity
  8
0
  6
CONTINUOUS
 62
     7
100
AcDbCircle
 10
-47.89028930664063
 20
13.8935546875
 40
11.10971927642822
100
AcDbArc
 50
180.0000359721794
 51
204.4962362228633
  0
ARC
  5
607
100
AcDbEntity
  8
0
  6
CONTINUOUS
 62
     7
100
AcDbCircle
 10
-15.375
 20
0
 40
43.625
100
AcDbArc
 50
167.7085195220064
 51
192.2914085336369
  0
ARC
  5
608
100
AcDbEntity
  8
0
  6
CONTINUOUS
 62
     7
100
AcDbCircle
 10
-89.625
 20
0
 40
43.625
100
AcDbArc
 50
347.7085281734292
 51
12.2913898643015
  0
ARC
  5
609
100
AcDbEntity
  8
0
  6
CONTINUOUS
 62
     7
100
AcDbCircle
 10
-57.1097412109375
 20
-13.89352416992188
 40
11.10971927642822
100
AcDbArc
 50
359.9999590188657
 51
24.49617292992725
  0
ARC
  5
60a
100
AcDbEntity
  8
0
  6
CONTINUOUS
 62
     7
100
AcDbCircle
 10
-47.89028930664063
 20
-13.89352416992188
 40
11.10971927642822
100
AcDbArc
 50
155.5037637771374
 51
179.9999640278213
  0
ARC
  5
60b
100
AcDbEntity
  8
0
  6
CONTINUOUS
 62
     7
100
AcDbCircle
 10
0.5
 20
49.50003814697266
 40
0.5
100
AcDbArc
 50
89.99996152334315
 51
179.9999640278211
  0
ARC
  5
60c
100
AcDbEntity
  8
0
  6
CONTINUOUS
 62
     7
100
AcDbCircle
 10
33.5
 20
49.50003814697266
 40
0.5
100
AcDbArc
 50
0
 51
89.99998201391097
  0
ARC
  5
60d
100
AcDbEntity
  8
0
  6
CONTINUOUS
 62
     7
100
AcDbCircle
 10
0.5
 20
-49.49998474121094
 40
0.5
100
AcDbArc
 50
179.9999640278211
 51
269.9999733624894
  0
ARC
  5
60e
100
AcDbEntity
  8
0
  6
CONTINUOUS
 62
     7
100
AcDbCircle
 10
33.5
 20
-49.49998474121094
 40
0.5
100
AcDbArc
 50
269.9999633445764
 51
360
  0
ARC
  5
60f
100
AcDbEntity
  8
0
  6
CONTINUOUS
 62
     7
100
AcDbCircle
 10
182.5
 20
-49.49998474121094
 40
0.5
100
AcDbArc
 50
179.9999640278211
 51
269.9999460417336
  0
ARC
  5
610
100
AcDbEntity
  8
0
  6
CONTINUOUS
 62
     7
100
AcDbCircle
 10
215.5
 20
-49.49998474121094
 40
0.5
100
AcDbArc
 50
269.9999906653331
 51
359.9999931698116
  0
ARC
  5
611
100
AcDbEntity
  8
0
  6
CONTINUOUS
 62
     7
100
AcDbCircle
 10
215.5
 20
49.50003814697266
 40
0.5
100
AcDbArc
 50
359.9999590188657
 51
89.99996152334346
  0
ARC
  5
612
100
AcDbEntity
  8
0
  6
CONTINUOUS
 62
     7
100
AcDbCircle
 10
182.5
 20
49.50003814697266
 40
0.5
100
AcDbArc
 50
89.99998201391097
 51
179.9999640278211
  0
CIRCLE
  5
613
100
AcDbEntity
  8
0
  6
CONTINUOUS
 62
     7
100
AcDbCircle
 10
199
 20
1.1444091796875e-005
 40
1.991851329803467
  0
CIRCLE
  5
614
100
AcDbEntity
  8
0
  6
CONTINUOUS
 62
     7
100
AcDbCircle
 10
199
 20
0
 40
2.299999952316284
  0
CIRCLE
  5
615
100
AcDbEntity
  8
0
  6
CONTINUOUS
 62
     7
100
AcDbCircle
 10
199
 20
0
 40
5.5
  0
CIRCLE
  5
616
100
AcDbEntity
  8
0
  6
CONTINUOUS
 62
     7
100
AcDbCircle
 10
199
 20
0
 40
5
  0
ARC
  5
617
100
AcDbEntity
  8
0
  6
CONTINUOUS
 62
     7
100
AcDbCircle
 10
199
 20
0
 40
4
100
AcDbArc
 50
134.4775591720083
 51
165.5225174781439
  0
ARC
  5
618
100
AcDbEntity
  8
0
  6
CONTINUOUS
 62
     7
100
AcDbCircle
 10
199
 20
0
 40
4
100
AcDbArc
 50
194.4774825218568
 51
225.5225227902623
  0
ARC
  5
619
100
AcDbEntity
  8
0
  6
CONTINUOUS
 62
     7
100
AcDbCircle
 10
199
 20
0
 40
4
100
AcDbArc
 50
254.4775115122658
 51
285.5229342712648
  0
CIRCLE
  5
61a
100
AcDbEntity
  8
0
  6
CONTINUOUS
 62
     7
100
AcDbCircle
 10
199
 20
0
 40
2.5
  0
ARC
  5
61b
100
AcDbEntity
  8
0
  6
CONTINUOUS
 62
     7
100
AcDbCircle
 10
199
 20
0
 40
4
100
AcDbArc
 50
74.47796731370656
 51
105.5229392802201
  0
ARC
  5
61c
100
AcDbEntity
  8
0
  6
CONTINUOUS
 62
     7
100
AcDbCircle
 10
199
 20
0
 40
4
100
AcDbArc
 50
14.47771463460234
 51
45.52311861058107
  0
ARC
  5
61d
100
AcDbEntity
  8
0
  6
CONTINUOUS
 62
     7
100
AcDbCircle
 10
199
 20
0
 40
4
100
AcDbArc
 50
314.4775780687148
 51
345.5231323088554
  0
CIRCLE
  5
61e
100
AcDbEntity
  8
0
  6
CONTINUOUS
 62
     7
100
AcDbCircle
 10
17
 20
1.1444091796875e-005
 40
1.991851329803467
  0
CIRCLE
  5
61f
100
AcDbEntity
  8
0
  6
CONTINUOUS
 62
     7
100
AcDbCircle
 10
17
 20
0
 40
2.299999952316284
  0
CIRCLE
  5
620
100
AcDbEntity
  8
0
  6
CONTINUOUS
 62
     7
100
AcDbCircle
 10
17
 20
0
 40
5.5
  0
CIRCLE
  5
621
100
AcDbEntity
  8
0
  6
CONTINUOUS
 62
     7
100
AcDbCircle
 10
17
 20
0
 40
5
  0
ARC
  5
622
100
AcDbEntity
  8
0
  6
CONTINUOUS
 62
     7
100
AcDbCircle
 10
17
 20
0
 40
4
100
AcDbArc
 50
134.4775591720084
 51
165.5225174781439
  0
ARC
  5
623
100
AcDbEntity
  8
0
  6
CONTINUOUS
 62
     7
100
AcDbCircle
 10
17
 20
0
 40
4
100
AcDbArc
 50
194.4774825218568
 51
225.5225227902624
  0
ARC
  5
624
100
AcDbEntity
  8
0
  6
CONTINUOUS
 62
     7
100
AcDbCircle
 10
17
 20
0
 40
4
100
AcDbArc
 50
254.4775115122656
 51
285.5229342712647
  0
CIRCLE
  5
625
100
AcDbEntity
  8
0
  6
CONTINUOUS
 62
     7
100
AcDbCircle
 10
17
 20
0
 40
2.5
  0
ARC
  5
626
100
AcDbEntity
  8
0
  6
CONTINUOUS
 62
     7
100
AcDbCircle
 10
17
 20
0
 40
4
100
AcDbArc
 50
74.47796731370647
 51
105.5229392802203
  0
ARC
  5
627
100
AcDbEntity
  8
0
  6
CONTINUOUS
 62
     7
100
AcDbCircle
 10
17
 20
0
 40
4
100
AcDbArc
 50
14.47771463460237
 51
45.52311861058121
  0
ARC
  5
628
100
AcDbEntity
  8
0
  6
CONTINUOUS
 62
     7
100
AcDbCircle
 10
17
 20
0
 40
4
100
AcDbArc
 50
314.4775780687149
 51
345.5231323088554
  0
MTEXT
  5
629
100
AcDbEntity
  8
0
  6
CONTINUOUS
 62
     7
100
AcDbMText
 10
45.14643825590611
 20
-16
 40
0.5
 41
32
 71
     7
 72
     1
  1
{\W0.842888;ＢＮ－６１０５－Ｓ－８０－Ｂ－＊}
  0
ENDBLK
  8
0
  5
62a
100
AcDbEntity
100
AcDbBlockEnd
  0
BLOCK
  8
0
  5
62b
100
AcDbEntity
100
AcDbBlockBegin
  2
KOZU0006
 70
    64
 10
0
 20
0
  0
POINT
  5
62c
100
AcDbEntity
  8
0
  6
CONTINUOUS
 62
     7
100
AcDbPoint
 10
0
 20
0
  0
LINE
  5
62d
100
AcDbEntity
  8
0
  6
CONTINUOUS
 62
     7
100
AcDbLine
 10
46.45722961425781
 20
0
 11
58.54266357421875
 21
0
  0
LINE
  5
62e
100
AcDbEntity
  8
0
  6
CONTINUOUS
 62
     7
100
AcDbLine
 10
58.54265527165909
 20
16.00001161734426
 11
58.99994959054261
 21
13.89350546437645
  0
LINE
  5
62f
100
AcDbEntity
  8
0
  6
CONTINUOUS
 62
     7
100
AcDbLine
 10
46.45722961425781
 20
16
 11
58.54266357421875
 21
16
  0
LINE
  5
630
100
AcDbEntity
  8
0
  6
CONTINUOUS
 62
     7
100
AcDbLine
 10
46.4572135416573
 20
16.00001401812857
 11
45.99992245985462
 21
13.89352277663123
  0
LINE
  5
631
100
AcDbEntity
  8
0
  6
CONTINUOUS
 62
     7
100
AcDbLine
 10
46.00001525878906
 20
-13.8935546875
 11
46.00001525878906
 21
13.89353942871094
  0
LINE
  5
632
100
AcDbEntity
  8
0
  6
CONTINUOUS
 62
     7
100
AcDbLine
 10
59
 20
-13.8935546875
 11
59
 21
13.89352416992188
  0
LINE
  5
633
100
AcDbEntity
  8
0
  6
CONTINUOUS
 62
     7
100
AcDbLine
 10
58.54268622235367
 20
-15.99999491503005
 11
58.99996597437337
 21
-13.89355586367931
  0
LINE
  5
634
100
AcDbEntity
  8
0
  6
CONTINUOUS
 62
     7
100
AcDbLine
 10
59
 20
-11
 11
69.50001525878906
 21
-11
  0
LINE
  5
635
100
AcDbEntity
  8
0
  6
CONTINUOUS
 62
     7
100
AcDbLine
 10
59
 20
-10.18798828125
 11
70.718017578125
 21
-10.18798828125
  0
LINE
  5
636
100
AcDbEntity
  8
0
  6
CONTINUOUS
 62
     7
100
AcDbLine
 10
69.50001525878906
 20
11
 11
69.50001525878906
 21
-11
  0
LINE
  5
637
100
AcDbEntity
  8
0
  6
CONTINUOUS
 62
     7
100
AcDbLine
 10
69.5000817797187
 20
-11.00016094062065
 11
71.00008555182157
 21
-10.00015846170341
  0
LINE
  5
638
100
AcDbEntity
  8
0
  6
CONTINUOUS
 62
     7
100
AcDbLine
 10
71.00001525878906
 20
-10.00015258789063
 11
71.00001525878906
 21
10
  0
LINE
  5
639
100
AcDbEntity
  8
0
  6
CONTINUOUS
 62
     7
100
AcDbLine
 10
69.50002147334109
 20
11.00003609583366
 11
71.00003794152404
 21
10.00002515286335
  0
LINE
  5
63a
100
AcDbEntity
  8
0
  6
CONTINUOUS
 62
     7
100
AcDbLine
 10
59
 20
11
 11
69.50001525878906
 21
11
  0
LINE
  5
63b
100
AcDbEntity
  8
0
  6
CONTINUOUS
 62
     7
100
AcDbLine
 10
59
 20
10.18798828125
 11
70.718017578125
 21
10.18798828125
  0
LINE
  5
63c
100
AcDbEntity
  8
0
  6
CENTER
 62
     3
100
AcDbLine
 10
-226.9271240234375
 20
0
 11
77.52392578125
 21
0
  0
LINE
  5
63d
100
AcDbEntity
  8
0
  6
CONTINUOUS
 62
     7
100
AcDbLine
 10
20
 20
11
 11
46.00001525878906
 21
11
  0
LINE
  5
63e
100
AcDbEntity
  8
0
  6
CONTINUOUS
 62
     7
100
AcDbLine
 10
34
 20
10.18798828125
 11
46.00001525878906
 21
10.18798828125
  0
LINE
  5
63f
100
AcDbEntity
  8
0
  6
CONTINUOUS
 62
     7
100
AcDbLine
 10
46.45723348105234
 20
-15.99999797890446
 11
45.99994725487095
 21
-13.8935291046128
  0
LINE
  5
640
100
AcDbEntity
  8
0
  6
CONTINUOUS
 62
     7
100
AcDbLine
 10
46.45724487304688
 20
-16
 11
58.54269409179688
 21
-16
  0
LINE
  5
641
100
AcDbEntity
  8
0
  6
CONTINUOUS
 62
     7
100
AcDbLine
 10
20.00000762939453
 20
-11
 11
46.00001525878906
 21
-11
  0
LINE
  5
642
100
AcDbEntity
  8
0
  6
CONTINUOUS
 62
     7
100
AcDbLine
 10
34
 20
-10.18798828125
 11
46.00001525878906
 21
-10.18798828125
  0
LINE
  5
643
100
AcDbEntity
  8
0
  6
CONTINUOUS
 62
     7
100
AcDbLine
 10
34
 20
-11
 11
34
 21
11
  0
LINE
  5
644
100
AcDbEntity
  8
0
  6
CONTINUOUS
 62
     7
100
AcDbLine
 10
32.59357063595299
 20
10.99999984739817
 11
34.00000296835962
 21
10.18799574711217
  0
LINE
  5
645
100
AcDbEntity
  8
0
  6
CONTINUOUS
 62
     7
100
AcDbLine
 10
31.00001525878906
 20
-11
 11
31.00001525878906
 21
11
  0
LINE
  5
646
100
AcDbEntity
  8
0
  6
CONTINUOUS
 62
     7
100
AcDbLine
 10
28.40193176269531
 20
-11
 11
28.40193176269531
 21
11
  0
LINE
  5
647
100
AcDbEntity
  8
0
  6
CONTINUOUS
 62
     7
100
AcDbLine
 10
32.59360660169408
 20
-11.00000110673252
 11
34.00001911235236
 21
-10.18800845053848
  0
LINE
  5
648
100
AcDbEntity
  8
0
  6
CONTINUOUS
 62
     7
100
AcDbLine
 10
18.00003104806011
 20
-12.50005433559381
 11
20.0000340819365
 21
-11.00005202293356
  0
LINE
  5
649
100
AcDbEntity
  8
0
  6
CONTINUOUS
 62
     7
100
AcDbLine
 10
15
 20
-12.5
 11
18.00000762939453
 21
-12.5
  0
LINE
  5
64a
100
AcDbEntity
  8
0
  6
CONTINUOUS
 62
     7
100
AcDbLine
 10
18.00000358223902
 20
12.4999891042709
 11
20.00000356435762
 21
10.99998908042904
  0
LINE
  5
64b
100
AcDbEntity
  8
0
  6
CONTINUOUS
 62
     7
100
AcDbLine
 10
15
 20
12.5
 11
18.00000762939453
 21
12.5
  0
LINE
  5
64c
100
AcDbEntity
  8
0
  6
CONTINUOUS
 62
     7
100
AcDbLine
 10
15.00002065655259
 20
21.79999070020725
 11
14.30002418779458
 21
22.49998710995997
  0
LINE
  5
64d
100
AcDbEntity
  8
0
  6
CONTINUOUS
 62
     7
100
AcDbLine
 10
14.29998779296875
 20
22.5
 11
0
 21
22.5
  0
LINE
  5
64e
100
AcDbEntity
  8
0
  6
CONTINUOUS
 62
     7
100
AcDbLine
 10
14.30000305175781
 20
-22.5
 11
14.30000305175781
 21
22.5
  0
LINE
  5
64f
100
AcDbEntity
  8
0
  6
CONTINUOUS
 62
     7
100
AcDbLine
 10
15
 20
21.79998779296875
 11
15
 21
-21.79998779296875
  0
LINE
  5
650
100
AcDbEntity
  8
0
  6
CONTINUOUS
 62
     7
100
AcDbLine
 10
14.30008239259394
 20
-22.50005097928974
 11
15.00009094063852
 21
-21.80004237223885
  0
LINE
  5
651
100
AcDbEntity
  8
0
  6
CONTINUOUS
 62
     7
100
AcDbLine
 10
14.29998779296875
 20
-22.5
 11
0
 21
-22.5
  0
LINE
  5
652
100
AcDbEntity
  8
0
  6
CONTINUOUS
 62
     7
100
AcDbLine
 10
-33.5
 20
50
 11
-0.5
 21
50
  0
LINE
  5
653
100
AcDbEntity
  8
0
  6
CONTINUOUS
 62
     7
100
AcDbLine
 10
0
 20
49.5
 11
0
 21
-49.5
  0
LINE
  5
654
100
AcDbEntity
  8
0
  6
CONTINUOUS
 62
     7
100
AcDbLine
 10
-34
 20
49.5
 11
-34
 21
-49.5
  0
LINE
  5
655
100
AcDbEntity
  8
0
  6
CONTINUOUS
 62
     7
100
AcDbLine
 10
-181.2000122070313
 20
43.19998168945313
 11
-34.80000305175781
 21
43.19998168945313
  0
LINE
  5
656
100
AcDbEntity
  8
0
  6
CONTINUOUS
 62
     7
100
AcDbLine
 10
-34.5
 20
44.5
 11
-34.5
 21
42.42999267578125
  0
LINE
  5
657
100
AcDbEntity
  8
0
  6
CONTINUOUS
 62
     7
100
AcDbLine
 10
-34
 20
44.5
 11
-34.5
 21
44.5
  0
LINE
  5
658
100
AcDbEntity
  8
0
  6
CONTINUOUS
 62
     7
100
AcDbLine
 10
-34.79996349530662
 20
43.20004476239961
 11
-34.49995886850245
 21
42.90004011030693
  0
LINE
  5
659
100
AcDbEntity
  8
0
  6
CONTINUOUS
 62
     7
100
AcDbLine
 10
-182
 20
42.43499755859375
 11
-34.00003051757813
 21
42.43499755859375
  0
LINE
  5
65a
100
AcDbEntity
  8
0
  6
CENTER
 62
     3
100
AcDbLine
 10
-182
 20
36.99998474121094
 11
-34
 21
36.99998474121094
  0
LINE
  5
65b
100
AcDbEntity
  8
0
  6
CONTINUOUS
 62
     7
100
AcDbLine
 10
-182
 20
31.56498718261719
 11
-34.00003051757813
 21
31.56498718261719
  0
LINE
  5
65c
100
AcDbEntity
  8
0
  6
CONTINUOUS
 62
     7
100
AcDbLine
 10
-34.5
 20
31.56999206542969
 11
-34.5
 21
-31.56500244140625
  0
LINE
  5
65d
100
AcDbEntity
  8
0
  6
CONTINUOUS
 62
     7
100
AcDbLine
 10
-0.5
 20
-50
 11
-33.5
 21
-50
  0
LINE
  5
65e
100
AcDbEntity
  8
0
  6
CONTINUOUS
 62
     7
100
AcDbLine
 10
-34
 20
-44.5
 11
-34.5
 21
-44.5
  0
LINE
  5
65f
100
AcDbEntity
  8
0
  6
CONTINUOUS
 62
     7
100
AcDbLine
 10
-181.2000122070313
 20
-43.20001220703125
 11
-34.80000305175781
 21
-43.20001220703125
  0
LINE
  5
660
100
AcDbEntity
  8
0
  6
CONTINUOUS
 62
     7
100
AcDbLine
 10
-182
 20
-42.43499755859375
 11
-34.00003051757813
 21
-42.43499755859375
  0
LINE
  5
661
100
AcDbEntity
  8
0
  6
CONTINUOUS
 62
     7
100
AcDbLine
 10
-34.5
 20
-44.5
 11
-34.5
 21
-42.42999267578125
  0
LINE
  5
662
100
AcDbEntity
  8
0
  6
CONTINUOUS
 62
     7
100
AcDbLine
 10
-34.79993618414673
 20
-43.20009365274273
 11
-34.4999450443335
 21
-42.90010248764214
  0
LINE
  5
663
100
AcDbEntity
  8
0
  6
CENTER
 62
     3
100
AcDbLine
 10
-182
 20
-37
 11
-34
 21
-37
  0
LINE
  5
664
100
AcDbEntity
  8
0
  6
CONTINUOUS
 62
     7
100
AcDbLine
 10
-182
 20
-31.56500244140625
 11
-34.00003051757813
 21
-31.56500244140625
  0
LINE
  5
665
100
AcDbEntity
  8
0
  6
CONTINUOUS
 62
     7
100
AcDbLine
 10
-181.5
 20
-44.5
 11
-181.5
 21
-42.43499755859375
  0
LINE
  5
666
100
AcDbEntity
  8
0
  6
CONTINUOUS
 62
     7
100
AcDbLine
 10
-181.5000159483454
 20
-42.90011542672747
 11
-181.2000220858463
 21
-43.20010926393888
  0
LINE
  5
667
100
AcDbEntity
  8
0
  6
CONTINUOUS
 62
     7
100
AcDbLine
 10
-215.5
 20
-50
 11
-182.5
 21
-50
  0
LINE
  5
668
100
AcDbEntity
  8
0
  6
CONTINUOUS
 62
     7
100
AcDbLine
 10
-182
 20
49.5
 11
-182
 21
-49.5
  0
LINE
  5
669
100
AcDbEntity
  8
0
  6
CONTINUOUS
 62
     7
100
AcDbLine
 10
-182
 20
-44.5
 11
-181.5
 21
-44.5
  0
LINE
  5
66a
100
AcDbEntity
  8
0
  6
CONTINUOUS
 62
     7
100
AcDbLine
 10
-181.5
 20
31.56999206542969
 11
-181.5
 21
-31.56500244140625
  0
LINE
  5
66b
100
AcDbEntity
  8
0
  6
CONTINUOUS
 62
     7
100
AcDbLine
 10
-216
 20
49.5
 11
-216
 21
-49.5
  0
LINE
  5
66c
100
AcDbEntity
  8
0
  6
CONTINUOUS
 62
     7
100
AcDbLine
 10
-219.9999951827653
 20
-21.49999790418107
 11
-218.9999978972893
 21
-22.50000277609819
  0
LINE
  5
66d
100
AcDbEntity
  8
0
  6
CONTINUOUS
 62
     7
100
AcDbLine
 10
-220
 20
-21.5
 11
-220
 21
21.5
  0
LINE
  5
66e
100
AcDbEntity
  8
0
  6
CONTINUOUS
 62
     7
100
AcDbLine
 10
-219
 20
-22.5
 11
-219
 21
22.5
  0
LINE
  5
66f
100
AcDbEntity
  8
0
  6
CONTINUOUS
 62
     7
100
AcDbLine
 10
-219
 20
-22.5
 11
-216
 21
-22.5
  0
LINE
  5
670
100
AcDbEntity
  8
0
  6
CONTINUOUS
 62
     7
100
AcDbLine
 10
-219.999999943783
 20
21.49999082335182
 11
-218.9999988650793
 21
22.49999190205561
  0
LINE
  5
671
100
AcDbEntity
  8
0
  6
CONTINUOUS
 62
     7
100
AcDbLine
 10
-219
 20
22.5
 11
-216
 21
22.5
  0
LINE
  5
672
100
AcDbEntity
  8
0
  6
CONTINUOUS
 62
     7
100
AcDbLine
 10
-215.5
 20
50
 11
-182.5
 21
50
  0
LINE
  5
673
100
AcDbEntity
  8
0
  6
CONTINUOUS
 62
     7
100
AcDbLine
 10
-182
 20
44.5
 11
-181.5
 21
44.5
  0
LINE
  5
674
100
AcDbEntity
  8
0
  6
CONTINUOUS
 62
     7
100
AcDbLine
 10
-181.5
 20
44.5
 11
-181.5
 21
42.42999267578125
  0
LINE
  5
675
100
AcDbEntity
  8
0
  6
CONTINUOUS
 62
     7
100
AcDbLine
 10
-181.5000267379427
 20
42.90001832038897
 11
-181.2000328754436
 21
43.20001215760037
  0
ARC
  5
676
100
AcDbEntity
  8
0
  6
CONTINUOUS
 62
     7
100
AcDbCircle
 10
116.2165222167969
 20
8.00006103515625
 40
70.21649932861328
100
AcDbArc
 50
173.4579132181347
 51
186.542069479022
  0
ARC
  5
677
100
AcDbEntity
  8
0
  6
CONTINUOUS
 62
     7
100
AcDbCircle
 10
-11.19903564453125
 20
8
 40
70.19903564453125
100
AcDbArc
 50
353.4562053576416
 51
6.543685359332342
  0
ARC
  5
678
100
AcDbEntity
  8
0
  6
CONTINUOUS
 62
     7
100
AcDbCircle
 10
-11.20135498046875
 20
-8.0001220703125
 40
70.20137023925781
100
AcDbArc
 50
353.4565242420985
 51
6.543567111682336
  0
ARC
  5
679
100
AcDbEntity
  8
0
  6
CONTINUOUS
 62
     7
100
AcDbCircle
 10
116.2153472900391
 20
-8
 40
70.21533203125
100
AcDbArc
 50
173.4577492935947
 51
186.5421241205353
  0
ARC
  5
67a
100
AcDbEntity
  8
0
  6
CONTINUOUS
 62
     7
100
AcDbCircle
 10
-0.5
 20
49.5
 40
0.5
100
AcDbArc
 50
359.9999453584874
 51
89.9999478629648
  0
ARC
  5
67b
100
AcDbEntity
  8
0
  6
CONTINUOUS
 62
     7
100
AcDbCircle
 10
-33.5
 20
49.5
 40
0.5
100
AcDbArc
 50
89.99992737239761
 51
179.9999640278211
  0
ARC
  5
67c
100
AcDbEntity
  8
0
  6
CONTINUOUS
 62
     7
100
AcDbCircle
 10
-0.5
 20
-49.5
 40
0.5
100
AcDbArc
 50
269.9999428540092
 51
359.9999453584874
  0
ARC
  5
67d
100
AcDbEntity
  8
0
  6
CONTINUOUS
 62
     7
100
AcDbCircle
 10
-33.5
 20
-49.5
 40
0.5
100
AcDbArc
 50
179.9999813306655
 51
269.9999633445764
  0
ARC
  5
67e
100
AcDbEntity
  8
0
  6
CONTINUOUS
 62
     7
100
AcDbCircle
 10
-182.5
 20
-49.5
 40
0.5
100
AcDbArc
 50
269.9999633445764
 51
359.9999453584874
  0
ARC
  5
67f
100
AcDbEntity
  8
0
  6
CONTINUOUS
 62
     7
100
AcDbCircle
 10
-215.5
 20
-49.5
 40
0.5
100
AcDbArc
 50
179.9999230466861
 51
269.9999187209769
  0
ARC
  5
680
100
AcDbEntity
  8
0
  6
CONTINUOUS
 62
     7
100
AcDbCircle
 10
-215.5
 20
49.5
 40
0.5
100
AcDbArc
 50
89.99995469315428
 51
179.9999640278211
  0
ARC
  5
681
100
AcDbEntity
  8
0
  6
CONTINUOUS
 62
     7
100
AcDbCircle
 10
-182.5
 20
49.5
 40
0.5
100
AcDbArc
 50
359.9999453584874
 51
89.99992737239761
  0
MTEXT
  5
682
100
AcDbEntity
  8
0
  6
CONTINUOUS
 62
     7
100
AcDbMText
 10
-55.65356098115444
 20
-16.35000038146973
 40
0.5
 41
32
 71
     7
 72
     1
  1
{\W0.842888;ＢＮ－６１０５－Ｓ－８０－Ｂ－＊}
  0
ENDBLK
  8
0
  5
683
100
AcDbEntity
100
AcDbBlockEnd
  0
BLOCK
  8
0
  5
684
100
AcDbEntity
100
AcDbBlockBegin
  2
KOZU0007
 70
    64
 10
0
 20
0
  0
POINT
  5
685
100
AcDbEntity
  8
0
  6
CONTINUOUS
 62
     7
100
AcDbPoint
 10
0
 20
0
  0
LINE
  5
686
100
AcDbEntity
  8
0
  6
CENTER
 62
     3
100
AcDbLine
 10
-115.5509643554688
 20
0
 11
24
 21
0
  0
LINE
  5
687
100
AcDbEntity
  8
0
  6
CENTER
 62
     3
100
AcDbLine
 10
0
 20
24
 11
0
 21
-24
  0
LINE
  5
688
100
AcDbEntity
  8
0
  6
CONTINUOUS
 62
     7
100
AcDbLine
 10
-48.99998474121094
 20
19
 11
1.52587890625e-005
 21
19
  0
LINE
  5
689
100
AcDbEntity
  8
0
  6
CONTINUOUS
 62
     7
100
AcDbLine
 10
-50.9999914725019
 20
18.00000261000837
 11
-48.9999908033933
 21
19.00000294456266
  0
LINE
  5
68a
100
AcDbEntity
  8
0
  6
CONTINUOUS
 62
     7
100
AcDbLine
 10
-69.49998474121094
 20
17.99998474121094
 11
-50.99998474121094
 21
17.99998474121094
  0
LINE
  5
68b
100
AcDbEntity
  8
0
  6
CONTINUOUS
 62
     7
100
AcDbLine
 10
-48.99998474121094
 20
19
 11
-48.99998474121094
 21
-19
  0
LINE
  5
68c
100
AcDbEntity
  8
0
  6
CONTINUOUS
 62
     7
100
AcDbLine
 10
-48.99993738205576
 20
8.999904846718223
 11
-33.99993140122709
 21
18.99990847575787
  0
LINE
  5
68d
100
AcDbEntity
  8
0
  6
CONTINUOUS
 62
     7
100
AcDbLine
 10
-49.00006540085958
 20
-9.000034981539628
 11
-34.00005307199087
 21
-19.00004284260582
  0
LINE
  5
68e
100
AcDbEntity
  8
0
  6
CONTINUOUS
 62
     7
100
AcDbLine
 10
-48.99998474121094
 20
-19
 11
1.52587890625e-005
 21
-19
  0
LINE
  5
68f
100
AcDbEntity
  8
0
  6
CONTINUOUS
 62
     7
100
AcDbLine
 10
-51.00002729817598
 20
-17.99997190228773
 11
-49.00004027694322
 21
-18.9999654129041
  0
LINE
  5
690
100
AcDbEntity
  8
0
  6
CONTINUOUS
 62
     7
100
AcDbLine
 10
-50.99998474121094
 20
17.99998474121094
 11
-50.99998474121094
 21
-18
  0
LINE
  5
691
100
AcDbEntity
  8
0
  6
CONTINUOUS
 62
     7
100
AcDbLine
 10
-69.49998474121094
 20
-18
 11
-50.99998474121094
 21
-18
  0
LINE
  5
692
100
AcDbEntity
  8
0
  6
CONTINUOUS
 62
     7
100
AcDbLine
 10
-71.00001385238282
 20
-16.50005585721727
 11
-69.50002296070048
 21
-18.00004662245985
  0
LINE
  5
693
100
AcDbEntity
  8
0
  6
CONTINUOUS
 62
     7
100
AcDbLine
 10
-69.49998474121094
 20
17.99998474121094
 11
-69.49998474121094
 21
-18
  0
LINE
  5
694
100
AcDbEntity
  8
0
  6
CONTINUOUS
 62
     7
100
AcDbLine
 10
-72.00000859087749
 20
-18.49997624899042
 11
-71.00000917026561
 21
-13.89352293107878
  0
LINE
  5
695
100
AcDbEntity
  8
0
  6
CONTINUOUS
 62
     7
100
AcDbLine
 10
-82.99996948242188
 20
-18.5
 11
-71.99996948242188
 21
-18.5
  0
LINE
  5
696
100
AcDbEntity
  8
0
  6
CONTINUOUS
 62
     7
100
AcDbLine
 10
-83.00000529900268
 20
-18.50001419824735
 11
-84.00000430865703
 21
-13.89356277339348
  0
LINE
  5
697
100
AcDbEntity
  8
0
  6
CONTINUOUS
 62
     7
100
AcDbLine
 10
-83.99998474121094
 20
13.8935546875
 11
-83.99998474121094
 21
-13.8935546875
  0
LINE
  5
698
100
AcDbEntity
  8
0
  6
CONTINUOUS
 62
     7
100
AcDbLine
 10
-82.99996948242188
 20
-9.287078857421875
 11
-71.99996948242188
 21
-9.287078857421875
  0
LINE
  5
699
100
AcDbEntity
  8
0
  6
CONTINUOUS
 62
     7
100
AcDbLine
 10
-70.99998474121094
 20
16.5
 11
-70.99998474121094
 21
-16.5
  0
LINE
  5
69a
100
AcDbEntity
  8
0
  6
CONTINUOUS
 62
     7
100
AcDbLine
 10
-70.99988167987169
 20
16.49991828989816
 11
-69.49989078818933
 21
17.99990905514074
  0
LINE
  5
69b
100
AcDbEntity
  8
0
  6
CONTINUOUS
 62
     7
100
AcDbLine
 10
-82.99996948242188
 20
18.5
 11
-71.99996948242188
 21
18.5
  0
LINE
  5
69c
100
AcDbEntity
  8
0
  6
CONTINUOUS
 62
     7
100
AcDbLine
 10
-71.99999466098056
 20
18.49994804458993
 11
-70.99999888208464
 21
13.89351150208255
  0
LINE
  5
69d
100
AcDbEntity
  8
0
  6
CONTINUOUS
 62
     7
100
AcDbLine
 10
-82.99996948242188
 20
9.287094116210938
 11
-71.99996948242188
 21
9.287094116210938
  0
LINE
  5
69e
100
AcDbEntity
  8
0
  6
CONTINUOUS
 62
     7
100
AcDbLine
 10
-83.00000853608353
 20
18.49999928677689
 11
-84.00000754573789
 21
13.89354786192302
  0
LINE
  5
69f
100
AcDbEntity
  8
0
  6
CONTINUOUS
 62
     7
100
AcDbLine
 10
-89
 20
-11
 11
-83.99997711181641
 21
-11
  0
LINE
  5
6a0
100
AcDbEntity
  8
0
  6
CONTINUOUS
 62
     7
100
AcDbLine
 10
-87.40644405928927
 20
-10.99996301357131
 11
-86.00001172688265
 21
-10.18795891328531
  0
LINE
  5
6a1
100
AcDbEntity
  8
0
  6
CONTINUOUS
 62
     7
100
AcDbLine
 10
-85.99998474121094
 20
11
 11
-85.99998474121094
 21
-11
  0
LINE
  5
6a2
100
AcDbEntity
  8
0
  6
CONTINUOUS
 62
     7
100
AcDbLine
 10
-85.99999237060547
 20
-10.18801879882813
 11
-83.99997711181641
 21
-10.18801879882813
  0
LINE
  5
6a3
100
AcDbEntity
  8
0
  6
CONTINUOUS
 62
     7
100
AcDbLine
 10
-89
 20
11
 11
-89
 21
-11
  0
LINE
  5
6a4
100
AcDbEntity
  8
0
  6
CONTINUOUS
 62
     7
100
AcDbLine
 10
-91.59806823730469
 20
-5.937179565429688
 11
-91.59806823730469
 21
-12.5
  0
LINE
  5
6a5
100
AcDbEntity
  8
0
  6
CONTINUOUS
 62
     7
100
AcDbLine
 10
-91.59809734097462
 20
-12.49996892787999
 11
-89.00002114127904
 21
-10.99996890768823
  0
LINE
  5
6a6
100
AcDbEntity
  8
0
  6
CONTINUOUS
 62
     7
100
AcDbLine
 10
-112.9742126464844
 20
-12.5
 11
-91.59806823730469
 21
-12.5
  0
LINE
  5
6a7
100
AcDbEntity
  8
0
  6
CONTINUOUS
 62
     7
100
AcDbLine
 10
-99.99999237060547
 20
-5.937179565429688
 11
-89
 21
-5.937179565429688
  0
LINE
  5
6a8
100
AcDbEntity
  8
0
  6
CONTINUOUS
 62
     7
100
AcDbLine
 10
-100
 20
5.937179565429688
 11
-100
 21
-5.937179565429688
  0
LINE
  5
6a9
100
AcDbEntity
  8
0
  6
CONTINUOUS
 62
     7
100
AcDbLine
 10
-99.99999237060547
 20
5.937179565429688
 11
-89
 21
5.937179565429688
  0
LINE
  5
6aa
100
AcDbEntity
  8
0
  6
CONTINUOUS
 62
     7
100
AcDbLine
 10
-100.0000255704759
 20
5.937151549073924
 11
-89.00002358665111
 21
-5.937192203131573
  0
LINE
  5
6ab
100
AcDbEntity
  8
0
  6
CONTINUOUS
 62
     7
100
AcDbLine
 10
-99.99997354974192
 20
-5.937241339165297
 11
-88.99997415831784
 21
5.937099614580994
  0
LINE
  5
6ac
100
AcDbEntity
  8
0
  6
CONTINUOUS
 62
     7
100
AcDbLine
 10
-87.40642117110536
 20
11.00000265706801
 11
-86.00000205319765
 21
10.18800618617664
  0
LINE
  5
6ad
100
AcDbEntity
  8
0
  6
CONTINUOUS
 62
     7
100
AcDbLine
 10
-89
 20
11
 11
-83.99997711181641
 21
11
  0
LINE
  5
6ae
100
AcDbEntity
  8
0
  6
CONTINUOUS
 62
     7
100
AcDbLine
 10
-85.99999237060547
 20
10.18800354003906
 11
-83.99997711181641
 21
10.18800354003906
  0
LINE
  5
6af
100
AcDbEntity
  8
0
  6
CONTINUOUS
 62
     7
100
AcDbLine
 10
-91.59804979419987
 20
12.5000207637304
 11
-88.99997359450427
 21
11.00002074353865
  0
LINE
  5
6b0
100
AcDbEntity
  8
0
  6
CONTINUOUS
 62
     7
100
AcDbLine
 10
-91.59806823730469
 20
5.937164306640625
 11
-91.59806823730469
 21
12.5
  0
LINE
  5
6b1
100
AcDbEntity
  8
0
  6
CONTINUOUS
 62
     7
100
AcDbLine
 10
-118.1277236938477
 20
12.5
 11
-91.59806823730469
 21
12.5
  0
LWPOLYLINE
  5
6b2
100
AcDbEntity
  8
0
  6
CONTINUOUS
 62
     7
100
AcDbPolyline
 90
    10
 70
     0
 10
-118.7675817689616
 20
15.60398003729664
 10
-117.4220934306178
 20
9.076932524575001
 10
-119.7494739233024
 20
7.984549788410165
 10
-114.6101639957965
 20
7.81873824164978
 10
-116.9375444884812
 20
6.726355505484943
 10
-114.2465678117934
 20
-6.327739519958335
 10
-116.5739483044781
 20
-7.420122256123172
 10
-111.4346383769722
 20
-7.585933802883556
 10
-113.7620188696568
 20
-8.678316539048392
 10
-112.4165305313129
 20
-15.20536405177003
  0
LINE
  5
6b3
100
AcDbEntity
  8
0
  6
CONTINUOUS
 62
     7
100
AcDbLine
 10
7.800030517895202
 20
-72.64928308209147
 11
9.000048923957898
 21
-73.84930179161617
  0
LINE
  5
6b4
100
AcDbEntity
  8
0
  6
CONTINUOUS
 62
     7
100
AcDbLine
 10
-7.79998779296875
 20
-72.6492919921875
 11
7.79998779296875
 21
-72.6492919921875
  0
LINE
  5
6b5
100
AcDbEntity
  8
0
  6
CONTINUOUS
 62
     7
100
AcDbLine
 10
9
 20
-73.84927368164063
 11
-9
 21
-73.84927368164063
  0
LINE
  5
6b6
100
AcDbEntity
  8
0
  6
CENTER
 62
     3
100
AcDbLine
 10
0
 20
-69.76559448242188
 11
0
 21
-153.5330200195313
  0
LINE
  5
6b7
100
AcDbEntity
  8
0
  6
CONTINUOUS
 62
     7
100
AcDbLine
 10
-83.54271697998047
 20
-111.6493225097656
 11
-71.457275390625
 21
-111.6493225097656
  0
LINE
  5
6b8
100
AcDbEntity
  8
0
  6
CONTINUOUS
 62
     7
100
AcDbLine
 10
-8.999870688988942
 20
-73.84942629341688
 11
-7.799895137842583
 21
-72.64945104572161
  0
LINE
  5
6b9
100
AcDbEntity
  8
0
  6
CONTINUOUS
 62
     7
100
AcDbLine
 10
-9.000015258789063
 20
-84.14932250976563
 11
-9.000015258789063
 21
-73.84927368164063
  0
LINE
  5
6ba
100
AcDbEntity
  8
0
  6
CENTER
 62
     3
100
AcDbLine
 10
-11.09649658203125
 20
-79.6492919921875
 11
11.27973937988281
 21
-79.6492919921875
  0
LINE
  5
6bb
100
AcDbEntity
  8
0
  6
CONTINUOUS
 62
     7
100
AcDbLine
 10
-16.5
 20
-84.14932250976563
 11
16.5
 21
-84.14932250976563
  0
LINE
  5
6bc
100
AcDbEntity
  8
0
  6
CONTINUOUS
 62
     7
100
AcDbLine
 10
-19.00008253553302
 20
-86.64920818355981
 11
-16.50007983877354
 21
-84.14920548680034
  0
LINE
  5
6bd
100
AcDbEntity
  8
0
  6
CONTINUOUS
 62
     7
100
AcDbLine
 10
-47.99998474121094
 20
-86.64932250976563
 11
19
 21
-86.64932250976563
  0
LINE
  5
6be
100
AcDbEntity
  8
0
  6
CONTINUOUS
 62
     7
100
AcDbLine
 10
8.999984741210938
 20
-84.14932250976563
 11
8.999984741210938
 21
-73.84927368164063
  0
LINE
  5
6bf
100
AcDbEntity
  8
0
  6
CONTINUOUS
 62
     7
100
AcDbLine
 10
16.50006095698542
 20
-84.14932147492743
 11
19.00005286415167
 21
-86.6493133820937
  0
LINE
  5
6c0
100
AcDbEntity
  8
0
  6
CONTINUOUS
 62
     7
100
AcDbLine
 10
19
 20
-86.64932250976563
 11
19
 21
-97.64932250976563
  0
LINE
  5
6c1
100
AcDbEntity
  8
0
  6
CONTINUOUS
 62
     7
100
AcDbLine
 10
-32
 20
-97.64932250976563
 11
19
 21
-97.64932250976563
  0
LINE
  5
6c2
100
AcDbEntity
  8
0
  6
CONTINUOUS
 62
     7
100
AcDbLine
 10
8.999984741210938
 20
-125.6492919921875
 11
8.999984741210938
 21
-97.64932250976563
  0
LINE
  5
6c3
100
AcDbEntity
  8
0
  6
CONTINUOUS
 62
     7
100
AcDbLine
 10
-9.000015258789063
 20
-125.6492919921875
 11
-9.000015258789063
 21
-97.64932250976563
  0
LINE
  5
6c4
100
AcDbEntity
  8
0
  6
CONTINUOUS
 62
     7
100
AcDbLine
 10
-32
 20
-97.64932250976563
 11
-32
 21
-101.6493225097656
  0
LINE
  5
6c5
100
AcDbEntity
  8
0
  6
CONTINUOUS
 62
     7
100
AcDbLine
 10
-34
 20
-103.6493225097656
 11
-34
 21
-119.6493225097656
  0
LINE
  5
6c6
100
AcDbEntity
  8
0
  6
CONTINUOUS
 62
     7
100
AcDbLine
 10
-32
 20
-121.6493225097656
 11
-32
 21
-125.6493225097656
  0
LINE
  5
6c7
100
AcDbEntity
  8
0
  6
CONTINUOUS
 62
     7
100
AcDbLine
 10
-32
 20
-125.6493225097656
 11
19
 21
-125.6493225097656
  0
LINE
  5
6c8
100
AcDbEntity
  8
0
  6
CONTINUOUS
 62
     7
100
AcDbLine
 10
19
 20
-125.6493225097656
 11
19
 21
-136.6493225097656
  0
LINE
  5
6c9
100
AcDbEntity
  8
0
  6
CONTINUOUS
 62
     7
100
AcDbLine
 10
18.99983707228729
 20
-136.6491623150121
 11
16.49983437552782
 21
-139.1491650117715
  0
LINE
  5
6ca
100
AcDbEntity
  8
0
  6
CONTINUOUS
 62
     7
100
AcDbLine
 10
-47.99998474121094
 20
-136.6493225097656
 11
19
 21
-136.6493225097656
  0
LINE
  5
6cb
100
AcDbEntity
  8
0
  6
CONTINUOUS
 62
     7
100
AcDbLine
 10
-16.5
 20
-139.1493225097656
 11
16.50001525878906
 21
-139.1493225097656
  0
LINE
  5
6cc
100
AcDbEntity
  8
0
  6
CONTINUOUS
 62
     7
100
AcDbLine
 10
8.999984741210938
 20
-149.4492797851563
 11
8.999984741210938
 21
-139.1492919921875
  0
LINE
  5
6cd
100
AcDbEntity
  8
0
  6
CENTER
 62
     3
100
AcDbLine
 10
-11.38337707519531
 20
-143.6492919921875
 11
11.85348510742188
 21
-143.6492919921875
  0
LINE
  5
6ce
100
AcDbEntity
  8
0
  6
CONTINUOUS
 62
     7
100
AcDbLine
 10
-7.79998779296875
 20
-150.6492919921875
 11
7.79998779296875
 21
-150.6492919921875
  0
LINE
  5
6cf
100
AcDbEntity
  8
0
  6
CONTINUOUS
 62
     7
100
AcDbLine
 10
-9
 20
-149.4492797851563
 11
9
 21
-149.4492797851563
  0
LINE
  5
6d0
100
AcDbEntity
  8
0
  6
CONTINUOUS
 62
     7
100
AcDbLine
 10
7.800200593000966
 20
-150.6495553813818
 11
9.000197622184317
 21
-149.4495584533506
  0
LINE
  5
6d1
100
AcDbEntity
  8
0
  6
CONTINUOUS
 62
     7
100
AcDbLine
 10
-9.000037586338721
 20
-149.4493311132399
 11
-7.800019079122023
 21
-150.6493497216105
  0
LINE
  5
6d2
100
AcDbEntity
  8
0
  6
CONTINUOUS
 62
     7
100
AcDbLine
 10
-9.000015258789063
 20
-149.4492797851563
 11
-9.000015258789063
 21
-139.1492919921875
  0
LINE
  5
6d3
100
AcDbEntity
  8
0
  6
CONTINUOUS
 62
     7
100
AcDbLine
 10
-16.50001779861253
 20
-139.149337645263
 11
-19.00000970577879
 21
-136.6493457380968
  0
LINE
  5
6d4
100
AcDbEntity
  8
0
  6
CONTINUOUS
 62
     7
100
AcDbLine
 10
-49.00010366020916
 20
-126.6494160605798
 11
-34.00011672350059
 21
-136.6494069935399
  0
LINE
  5
6d5
100
AcDbEntity
  8
0
  6
CONTINUOUS
 62
     7
100
AcDbLine
 10
-48.99989101258744
 20
-135.6493015010201
 11
-47.99988993388365
 21
-136.6493025797239
  0
LINE
  5
6d6
100
AcDbEntity
  8
0
  6
CONTINUOUS
 62
     7
100
AcDbLine
 10
-48.99998474121094
 20
-87.64932250976563
 11
-48.99998474121094
 21
-135.6493225097656
  0
LINE
  5
6d7
100
AcDbEntity
  8
0
  6
CONTINUOUS
 62
     7
100
AcDbLine
 10
-48.99993720984533
 20
-87.64938413042826
 11
-47.99992150614703
 21
-86.64937609754725
  0
LINE
  5
6d8
100
AcDbEntity
  8
0
  6
CONTINUOUS
 62
     7
100
AcDbLine
 10
-48.99991479443003
 20
-96.64948639200293
 11
-33.99991516164138
 21
-86.64948699498982
  0
LINE
  5
6d9
100
AcDbEntity
  8
0
  6
CONTINUOUS
 62
     7
100
AcDbLine
 10
-51.0000000024243
 20
-93.6492776270666
 11
-48.99999933331571
 21
-92.64927729251231
  0
LINE
  5
6da
100
AcDbEntity
  8
0
  6
CONTINUOUS
 62
     7
100
AcDbLine
 10
-50.99998474121094
 20
-93.64932250976563
 11
-50.99998474121094
 21
-129.6493225097656
  0
LINE
  5
6db
100
AcDbEntity
  8
0
  6
CONTINUOUS
 62
     7
100
AcDbLine
 10
-69.49998474121094
 20
-93.64932250976563
 11
-50.99998474121094
 21
-93.64932250976563
  0
LINE
  5
6dc
100
AcDbEntity
  8
0
  6
CONTINUOUS
 62
     7
100
AcDbLine
 10
-70.99989312903512
 20
-95.14942071109076
 11
-69.4998914477591
 21
-93.64941915625541
  0
LINE
  5
6dd
100
AcDbEntity
  8
0
  6
CONTINUOUS
 62
     7
100
AcDbLine
 10
-69.49998474121094
 20
-93.64932250976563
 11
-69.49998474121094
 21
-129.6493225097656
  0
LINE
  5
6de
100
AcDbEntity
  8
0
  6
CONTINUOUS
 62
     7
100
AcDbLine
 10
-51.00003753408286
 20
-129.6492384914869
 11
-49.00002321709842
 21
-130.6492456499791
  0
LINE
  5
6df
100
AcDbEntity
  8
0
  6
CONTINUOUS
 62
     7
100
AcDbLine
 10
-69.49998474121094
 20
-129.6493225097656
 11
-50.99998474121094
 21
-129.6493225097656
  0
LINE
  5
6e0
100
AcDbEntity
  8
0
  6
CONTINUOUS
 62
     7
100
AcDbLine
 10
-71.00004960768841
 20
-128.1494258782887
 11
-69.50008029519341
 21
-129.6493950643457
  0
LINE
  5
6e1
100
AcDbEntity
  8
0
  6
CONTINUOUS
 62
     7
100
AcDbLine
 10
-70.99998474121094
 20
-95.14932250976563
 11
-70.99998474121094
 21
-128.1493225097656
  0
LINE
  5
6e2
100
AcDbEntity
  8
0
  6
CONTINUOUS
 62
     7
100
AcDbLine
 10
-71.45729025381377
 20
-95.64935505235117
 11
-71.00000726471322
 21
-97.75580901517236
  0
LINE
  5
6e3
100
AcDbEntity
  8
0
  6
CONTINUOUS
 62
     7
100
AcDbLine
 10
-83.54271697998047
 20
-95.64932250976563
 11
-71.45729064941406
 21
-95.64932250976563
  0
LINE
  5
6e4
100
AcDbEntity
  8
0
  6
CONTINUOUS
 62
     7
100
AcDbLine
 10
-83.54274001357473
 20
-95.64926667466742
 11
-84.00001652851358
 21
-97.75569081454769
  0
LINE
  5
6e5
100
AcDbEntity
  8
0
  6
CONTINUOUS
 62
     7
100
AcDbLine
 10
-83.99998474121094
 20
-97.75576782226563
 11
-83.99998474121094
 21
-125.5428771972656
  0
LINE
  5
6e6
100
AcDbEntity
  8
0
  6
CONTINUOUS
 62
     7
100
AcDbLine
 10
-83.54271697998047
 20
-127.6493225097656
 11
-71.457275390625
 21
-127.6493225097656
  0
LINE
  5
6e7
100
AcDbEntity
  8
0
  6
CONTINUOUS
 62
     7
100
AcDbLine
 10
-71.457350792203
 20
-127.6493004289656
 11
-71.00006780310244
 21
-125.5428464661444
  0
LINE
  5
6e8
100
AcDbEntity
  8
0
  6
CONTINUOUS
 62
     7
100
AcDbLine
 10
-83.54272970218504
 20
-127.6493372534696
 11
-84.0000062171239
 21
-125.5429131135893
  0
LINE
  5
6e9
100
AcDbEntity
  8
0
  6
CONTINUOUS
 62
     7
100
AcDbLine
 10
-100
 20
-122.6493225097656
 11
-83.99997711181641
 21
-122.6493225097656
  0
LINE
  5
6ea
100
AcDbEntity
  8
0
  6
CONTINUOUS
 62
     7
100
AcDbLine
 10
-87.40647699559534
 20
-122.6492269730515
 11
-86.00005787768761
 21
-121.8372305021602
  0
LINE
  5
6eb
100
AcDbEntity
  8
0
  6
CONTINUOUS
 62
     7
100
AcDbLine
 10
-85.99998474121094
 20
-100.6493225097656
 11
-85.99998474121094
 21
-122.6493225097656
  0
LINE
  5
6ec
100
AcDbEntity
  8
0
  6
CONTINUOUS
 62
     7
100
AcDbLine
 10
-85.99999237060547
 20
-121.8373107910156
 11
-83.99997711181641
 21
-121.8373107910156
  0
LINE
  5
6ed
100
AcDbEntity
  8
0
  6
CONTINUOUS
 62
     7
100
AcDbLine
 10
-85.99999237060547
 20
-101.4613342285156
 11
-83.99997711181641
 21
-101.4613342285156
  0
LINE
  5
6ee
100
AcDbEntity
  8
0
  6
CONTINUOUS
 62
     7
100
AcDbLine
 10
-100
 20
-100.6493225097656
 11
-83.99997711181641
 21
-100.6493225097656
  0
LINE
  5
6ef
100
AcDbEntity
  8
0
  6
CONTINUOUS
 62
     7
100
AcDbLine
 10
-87.4063746278224
 20
-100.6492339197401
 11
-85.99995550991469
 21
-101.4612303906315
  0
LINE
  5
6f0
100
AcDbEntity
  8
0
  6
CONTINUOUS
 62
     7
100
AcDbLine
 10
-89
 20
-100.6493225097656
 11
-89
 21
-122.6493225097656
  0
LINE
  5
6f1
100
AcDbEntity
  8
0
  6
CONTINUOUS
 62
     7
100
AcDbLine
 10
-91.59806823730469
 20
-100.6493225097656
 11
-91.59806823730469
 21
-122.6493225097656
  0
LINE
  5
6f2
100
AcDbEntity
  8
0
  6
CONTINUOUS
 62
     7
100
AcDbLine
 10
-100.0000393468077
 20
-100.6494605541225
 11
-102.0000393289263
 21
-99.14946053028064
  0
LINE
  5
6f3
100
AcDbEntity
  8
0
  6
CONTINUOUS
 62
     7
100
AcDbLine
 10
-118.1277160644531
 20
-99.14932250976563
 11
-102
 21
-99.14932250976563
  0
LWPOLYLINE
  5
6f4
100
AcDbEntity
  8
0
  6
CONTINUOUS
 62
     7
100
AcDbPolyline
 90
    10
 70
     0
 10
-118.7675542639219
 20
-96.04531098238246
 10
-117.4220666957479
 20
-102.5723547589626
 10
-119.7494471884325
 20
-103.6647374951274
 10
-114.6101372609266
 20
-103.8305490418878
 10
-116.9375177536113
 20
-104.9229317780526
 10
-114.2465426172631
 20
-117.9770193312128
 10
-116.5739231099478
 20
-119.0694020673776
 10
-111.4346131824419
 20
-119.235213614138
 10
-113.7619936751265
 20
-120.3275963503028
 10
-112.4165061069524
 20
-126.8546401268829
  0
LINE
  5
6f5
100
AcDbEntity
  8
0
  6
CENTER
 62
     3
100
AcDbLine
 10
-115.5509567260742
 20
-111.6493225097656
 11
24
 21
-111.6493225097656
  0
LINE
  5
6f6
100
AcDbEntity
  8
0
  6
CONTINUOUS
 62
     7
100
AcDbLine
 10
-112.9741973876953
 20
-124.1493225097656
 11
-102.0000228881836
 21
-124.1493225097656
  0
LINE
  5
6f7
100
AcDbEntity
  8
0
  6
CONTINUOUS
 62
     7
100
AcDbLine
 10
-99.99985815704505
 20
-122.6494701862318
 11
-101.9998581391637
 21
-124.1494702100736
  0
LINE
  5
6f8
100
AcDbEntity
  8
0
  6
CONTINUOUS
 62
     7
100
AcDbLine
 10
56.24998474121094
 20
7.800003051757813
 11
56.24998474121094
 21
-7.79998779296875
  0
LINE
  5
6f9
100
AcDbEntity
  8
0
  6
CONTINUOUS
 62
     7
100
AcDbLine
 10
57.45007615816571
 20
8.999912325936442
 11
56.25007923013454
 21
7.799915296753092
  0
LINE
  5
6fa
100
AcDbEntity
  8
0
  6
CONTINUOUS
 62
     7
100
AcDbLine
 10
57.44999694824219
 20
9
 11
57.44999694824219
 21
-9
  0
LINE
  5
6fb
100
AcDbEntity
  8
0
  6
CONTINUOUS
 62
     7
100
AcDbLine
 10
57.44999694824219
 20
9
 11
67.74998474121094
 21
9
  0
LINE
  5
6fc
100
AcDbEntity
  8
0
  6
CONTINUOUS
 62
     7
100
AcDbLine
 10
56.24999896567275
 20
-7.800002266771813
 11
57.4499959948561
 21
-8.999999194802989
  0
LINE
  5
6fd
100
AcDbEntity
  8
0
  6
CONTINUOUS
 62
     7
100
AcDbLine
 10
57.44999694824219
 20
-9
 11
67.74998474121094
 21
-9
  0
LINE
  5
6fe
100
AcDbEntity
  8
0
  6
CONTINUOUS
 62
     7
100
AcDbLine
 10
67.74999291044655
 20
-17.79999908212971
 11
68.95001151881725
 21
-19.00001758934641
  0
LINE
  5
6ff
100
AcDbEntity
  8
0
  6
CONTINUOUS
 62
    64
100
AcDbLine
 10
67.74998474121094
 20
17.80000305175781
 11
67.74998474121094
 21
-17.79998779296875
  0
LINE
  5
700
100
AcDbEntity
  8
0
  6
CONTINUOUS
 62
     7
100
AcDbLine
 10
68.95005798339844
 20
19
 11
68.95005798339844
 21
-19
  0
LINE
  5
701
100
AcDbEntity
  8
0
  6
CONTINUOUS
 62
     7
100
AcDbLine
 10
68.94999694824219
 20
-19
 11
121.5500030517578
 21
-19
  0
LINE
  5
702
100
AcDbEntity
  8
0
  6
CONTINUOUS
 62
     7
100
AcDbLine
 10
81.24998474121094
 20
19
 11
81.24998474121094
 21
-19
  0
LINE
  5
703
100
AcDbEntity
  8
0
  6
CONTINUOUS
 62
     7
100
AcDbLine
 10
109.2499847412109
 20
19
 11
109.2499847412109
 21
-19
  0
LINE
  5
704
100
AcDbEntity
  8
0
  6
CONTINUOUS
 62
     7
100
AcDbLine
 10
122.7501370554691
 20
-17.80009342785539
 11
121.5501400262858
 21
-19.00009035588656
  0
LINE
  5
705
100
AcDbEntity
  8
0
  6
CONTINUOUS
 62
    64
100
AcDbLine
 10
122.7499847412109
 20
17.80000305175781
 11
122.7499847412109
 21
-17.79998779296875
  0
LINE
  5
706
100
AcDbEntity
  8
0
  6
CONTINUOUS
 62
     7
100
AcDbLine
 10
121.5500030517578
 20
19
 11
121.5500030517578
 21
-19
  0
LINE
  5
707
100
AcDbEntity
  8
0
  6
CONTINUOUS
 62
     7
100
AcDbLine
 10
122.7499847412109
 20
-9
 11
133.0500030517578
 21
-9
  0
LINE
  5
708
100
AcDbEntity
  8
0
  6
CONTINUOUS
 62
     7
100
AcDbLine
 10
134.250225409181
 20
-7.800158652662482
 11
133.0502229852008
 21
-9.000160975490033
  0
LINE
  5
709
100
AcDbEntity
  8
0
  6
CONTINUOUS
 62
     7
100
AcDbLine
 10
133.0500030517578
 20
-9
 11
133.0500030517578
 21
9.000015258789063
  0
LINE
  5
70a
100
AcDbEntity
  8
0
  6
CONTINUOUS
 62
     7
100
AcDbLine
 10
134.2499847412109
 20
7.800003051757813
 11
134.2499847412109
 21
-7.79998779296875
  0
LINE
  5
70b
100
AcDbEntity
  8
0
  6
CONTINUOUS
 62
     7
100
AcDbLine
 10
133.0500565051557
 20
8.999993311100461
 11
134.2500318540013
 21
7.800017861104458
  0
LINE
  5
70c
100
AcDbEntity
  8
0
  6
CONTINUOUS
 62
     7
100
AcDbLine
 10
122.7499847412109
 20
9
 11
133.0500030517578
 21
9
  0
LINE
  5
70d
100
AcDbEntity
  8
0
  6
CONTINUOUS
 62
     7
100
AcDbLine
 10
67.7500792271898
 20
17.79993973936337
 11
68.95007895377157
 21
18.99993936479273
  0
LINE
  5
70e
100
AcDbEntity
  8
0
  6
CONTINUOUS
 62
     7
100
AcDbLine
 10
68.94999694824219
 20
19
 11
121.5500030517578
 21
19
  0
LINE
  5
70f
100
AcDbEntity
  8
0
  6
CONTINUOUS
 62
     7
100
AcDbLine
 10
121.5500607059184
 20
18.99994524006424
 11
122.7500576339495
 21
17.79994821088089
  0
LINE
  5
710
100
AcDbEntity
  8
0
  6
CONTINUOUS
 62
     7
100
AcDbLine
 10
81.24998474121094
 20
9
 11
109.2499847412109
 21
9
  0
LINE
  5
711
100
AcDbEntity
  8
0
  6
CENTER
 62
     3
100
AcDbLine
 10
95.24998474121094
 20
24
 11
95.24998474121094
 21
-24
  0
LINE
  5
712
100
AcDbEntity
  8
0
  6
CENTER
 62
     3
100
AcDbLine
 10
51.25
 20
0
 11
139.2499847412109
 21
0
  0
LINE
  5
713
100
AcDbEntity
  8
0
  6
CONTINUOUS
 62
     7
100
AcDbLine
 10
81.24998474121094
 20
-9
 11
109.2499847412109
 21
-9
  0
LINE
  5
714
100
AcDbEntity
  8
0
  6
CENTER
 62
     3
100
AcDbLine
 10
127.2499847412109
 20
3.5
 11
127.2499847412109
 21
-3.5
  0
LINE
  5
715
100
AcDbEntity
  8
0
  6
CENTER
 62
     3
100
AcDbLine
 10
63.24998474121094
 20
3.5
 11
63.24998474121094
 21
-3.5
  0
CIRCLE
  5
716
100
AcDbEntity
  8
0
  6
CONTINUOUS
 62
     7
100
AcDbCircle
 10
1.52587890625e-005
 20
0
 40
9
  0
CIRCLE
  5
717
100
AcDbEntity
  8
0
  6
CONTINUOUS
 62
     7
100
AcDbCircle
 10
1.52587890625e-005
 20
0
 40
16.5
  0
CIRCLE
  5
718
100
AcDbEntity
  8
0
  6
CONTINUOUS
 62
     7
100
AcDbCircle
 10
1.52587890625e-005
 20
0
 40
19
  0
ARC
  5
719
100
AcDbEntity
  8
0
  6
CONTINUOUS
 62
     7
100
AcDbCircle
 10
-72.89024353027344
 20
-13.8935546875
 40
11.10971927642822
100
AcDbArc
 50
155.5037910978941
 51
180.000005008957
  0
ARC
  5
71a
100
AcDbEntity
  8
0
  6
CONTINUOUS
 62
     7
100
AcDbCircle
 10
-82.10969543457031
 20
-13.8935546875
 40
11.10971927642822
100
AcDbArc
 50
6.252776074688882e-013
 51
24.49620708087311
  0
ARC
  5
71b
100
AcDbEntity
  8
0
  6
CONTINUOUS
 62
     7
100
AcDbCircle
 10
-82.10969543457031
 20
13.89353942871094
 40
11.10971927642822
100
AcDbArc
 50
335.5037382776143
 51
359.9999453584874
  0
ARC
  5
71c
100
AcDbEntity
  8
0
  6
CONTINUOUS
 62
     7
100
AcDbCircle
 10
-114.6249847412109
 20
0
 40
43.625
100
AcDbArc
 50
347.7085529328649
 51
12.29144621336216
  0
ARC
  5
71d
100
AcDbEntity
  8
0
  6
CONTINUOUS
 62
     7
100
AcDbCircle
 10
-72.89024353027344
 20
13.89353942871094
 40
11.10971927642822
100
AcDbArc
 50
179.9999230466863
 51
204.4961369577493
  0
ARC
  5
71e
100
AcDbEntity
  8
0
  6
CONTINUOUS
 62
     7
100
AcDbCircle
 10
-40.37498474121094
 20
0
 40
43.625
100
AcDbArc
 50
167.7085741635198
 51
192.2914358543935
  0
ARC
  5
71f
100
AcDbEntity
  8
0
  6
CONTINUOUS
 62
     7
100
AcDbCircle
 10
-92.1875
 20
0
 40
9.8125
100
AcDbArc
 50
142.7666904091142
 51
217.2333059484209
  0
ARC
  5
720
100
AcDbEntity
  8
0
  6
CONTINUOUS
 62
     7
100
AcDbCircle
 10
-32
 20
-103.6493225097656
 40
2
100
AcDbArc
 50
89.99998201391065
 51
179.9999640278211
  0
ARC
  5
721
100
AcDbEntity
  8
0
  6
CONTINUOUS
 62
     7
100
AcDbCircle
 10
-32
 20
-119.6493225097656
 40
2
100
AcDbArc
 50
179.9999813306655
 51
270.00001798609
  0
ARC
  5
722
100
AcDbEntity
  8
0
  6
CONTINUOUS
 62
     7
100
AcDbCircle
 10
-141.2060089111328
 20
-103.6493225097656
 40
70.20602416992188
100
AcDbArc
 50
353.4569144166549
 51
6.543085583345854
  0
ARC
  5
723
100
AcDbEntity
  8
0
  6
CONTINUOUS
 62
     7
100
AcDbCircle
 10
-13.78929138183594
 20
-103.6493225097656
 40
70.21067810058594
100
AcDbArc
 50
173.4573668030011
 51
186.5426158941556
  0
ARC
  5
724
100
AcDbEntity
  8
0
  6
CONTINUOUS
 62
     7
100
AcDbCircle
 10
-13.78929138183594
 20
-119.6493225097656
 40
70.21067810058594
100
AcDbArc
 50
173.4573668030011
 51
186.5426158941556
  0
ARC
  5
725
100
AcDbEntity
  8
0
  6
CONTINUOUS
 62
     7
100
AcDbCircle
 10
-141.2060089111328
 20
-119.6493225097656
 40
70.20602416992188
100
AcDbArc
 50
353.4569144166549
 51
6.543085583345854
  0
CIRCLE
  5
726
100
AcDbEntity
  8
0
  6
CONTINUOUS
 62
     7
100
AcDbCircle
 10
127.2499847412109
 20
0
 40
2
  0
CIRCLE
  5
727
100
AcDbEntity
  8
0
  6
CONTINUOUS
 62
     7
100
AcDbCircle
 10
63.24998474121094
 20
0
 40
2
  0
MTEXT
  5
728
100
AcDbEntity
  8
0
  6
CONTINUOUS
 62
     7
100
AcDbMText
 10
-62.82856403291225
 20
-123.8000030517578
 40
0.5
 41
24
 71
     7
 72
     1
  1
{\W0.843764;ＢＮ－６１０５－８０－Ｙ}
  0
MTEXT
  5
729
100
AcDbEntity
  8
0
  6
CONTINUOUS
 62
     7
100
AcDbMText
 10
72.27143444120884
 20
-13.55000305175781
 40
0.5
 41
24
 71
     7
 72
     1
  1
{\W0.843764;ＢＮ－６１０５－８０－Ｙ}
  0
MTEXT
  5
72a
100
AcDbEntity
  8
0
  6
CONTINUOUS
 62
     7
100
AcDbMText
 10
-37.67401751504932
 20
-10.967568359375
 40
0.5
 41
24
 71
     7
 72
     1
  1
{\W0.843764;ＢＮ－６１０５－８０－Ｙ}
  0
ENDBLK
  8
0
  5
72b
100
AcDbEntity
100
AcDbBlockEnd
  0
BLOCK
  8
0
  5
72c
100
AcDbEntity
100
AcDbBlockBegin
  2
KOZU0008
 70
    64
 10
0
 20
0
  0
POINT
  5
72d
100
AcDbEntity
  8
0
  6
CONTINUOUS
 62
     7
100
AcDbPoint
 10
0
 20
0
  0
LINE
  5
72e
100
AcDbEntity
  8
0
  6
CONTINUOUS
 62
     7
100
AcDbLine
 10
5.852111598451633
 20
6.837596778905429
 11
15.1863119330759
 21
11.31365890419282
  0
LINE
  5
72f
100
AcDbEntity
  8
0
  6
CONTINUOUS
 62
     7
100
AcDbLine
 10
8.499991888775551
 20
17.99997155892141
 11
18.99999253093924
 21
7.499971801841531
  0
LINE
  5
730
100
AcDbEntity
  8
0
  6
CONTINUOUS
 62
     7
100
AcDbLine
 10
-31.99998474121094
 20
11.31370544433594
 11
15.18630981445313
 21
11.31370544433594
  0
LINE
  5
731
100
AcDbEntity
  8
0
  6
CONTINUOUS
 62
     7
100
AcDbLine
 10
19
 20
7.5
 11
19
 21
-7.5
  0
LINE
  5
732
100
AcDbEntity
  8
0
  6
CONTINUOUS
 62
     7
100
AcDbLine
 10
-83.54269409179688
 20
-111.6493225097656
 11
-71.45726013183594
 21
-111.6493225097656
  0
LINE
  5
733
100
AcDbEntity
  8
0
  6
CONTINUOUS
 62
     7
100
AcDbLine
 10
8.500027292125019
 20
-18.00004944629895
 11
19.00002827146351
 21
-7.500049352044297
  0
LINE
  5
734
100
AcDbEntity
  8
0
  6
CONTINUOUS
 62
     7
100
AcDbLine
 10
5.852081762832352
 20
-6.837636940984746
 11
15.18629413627791
 21
-11.31370483929072
  0
LINE
  5
735
100
AcDbEntity
  8
0
  6
CONTINUOUS
 62
     7
100
AcDbLine
 10
-31.99998474121094
 20
-11.31369018554688
 11
15.18630981445313
 21
-11.31369018554688
  0
LINE
  5
736
100
AcDbEntity
  8
0
  6
CONTINUOUS
 62
     7
100
AcDbLine
 10
-69.49996948242188
 20
-18
 11
8.500015258789063
 21
-18
  0
LINE
  5
737
100
AcDbEntity
  8
0
  6
CENTER
 62
     3
100
AcDbLine
 10
-115.5509490966797
 20
0
 11
24.00001525878906
 21
0
  0
LINE
  5
738
100
AcDbEntity
  8
0
  6
CONTINUOUS
 62
     7
100
AcDbLine
 10
-32
 20
11.31370544433594
 11
-32
 21
-11.31369018554688
  0
LINE
  5
739
100
AcDbEntity
  8
0
  6
CONTINUOUS
 62
     7
100
AcDbLine
 10
-32.00000348455831
 20
11.31370747686731
 11
-8.995559914399838
 21
0.2823052263988695
  0
LINE
  5
73a
100
AcDbEntity
  8
0
  6
CONTINUOUS
 62
     7
100
AcDbLine
 10
-31.99997880843387
 20
-11.31375011309745
 11
-8.995538677938619
 21
-0.2823495120628894
  0
LINE
  5
73b
100
AcDbEntity
  8
0
  6
CONTINUOUS
 62
     7
100
AcDbLine
 10
-69.49996948242188
 20
18
 11
8.500015258789063
 21
18
  0
LINE
  5
73c
100
AcDbEntity
  8
0
  6
CONTINUOUS
 62
     7
100
AcDbLine
 10
-69.49996948242188
 20
18
 11
-69.49996948242188
 21
-18
  0
LINE
  5
73d
100
AcDbEntity
  8
0
  6
CONTINUOUS
 62
     7
100
AcDbLine
 10
-70.99990934927421
 20
-16.49996924544305
 11
-69.49990773121853
 21
-17.99997086349874
  0
LINE
  5
73e
100
AcDbEntity
  8
0
  6
CONTINUOUS
 62
     7
100
AcDbLine
 10
-71.99994570791482
 20
-18.49997428584336
 11
-70.99994709657315
 21
-13.89352469579933
  0
LINE
  5
73f
100
AcDbEntity
  8
0
  6
CONTINUOUS
 62
     7
100
AcDbLine
 10
-82.99995422363281
 20
-18.5
 11
-71.99995422363281
 21
-18.5
  0
LINE
  5
740
100
AcDbEntity
  8
0
  6
CONTINUOUS
 62
     7
100
AcDbLine
 10
-82.99996695656151
 20
-18.49997504267544
 11
-83.99996594724858
 21
-13.89352370519347
  0
LINE
  5
741
100
AcDbEntity
  8
0
  6
CONTINUOUS
 62
     7
100
AcDbLine
 10
-83.99996948242188
 20
13.8935546875
 11
-83.99996948242188
 21
-13.8935546875
  0
LINE
  5
742
100
AcDbEntity
  8
0
  6
CONTINUOUS
 62
     7
100
AcDbLine
 10
-82.99995422363281
 20
-9.287078857421875
 11
-71.99995422363281
 21
-9.287078857421875
  0
LINE
  5
743
100
AcDbEntity
  8
0
  6
CONTINUOUS
 62
     7
100
AcDbLine
 10
-70.99996948242188
 20
16.5
 11
-70.99996948242188
 21
-16.5
  0
LINE
  5
744
100
AcDbEntity
  8
0
  6
CONTINUOUS
 62
     7
100
AcDbLine
 10
-70.99996599463862
 20
16.50000431162102
 11
-69.49997516617614
 21
17.99999514008348
  0
LINE
  5
745
100
AcDbEntity
  8
0
  6
CONTINUOUS
 62
     7
100
AcDbLine
 10
-82.99995422363281
 20
18.5
 11
-71.99995422363281
 21
18.5
  0
LINE
  5
746
100
AcDbEntity
  8
0
  6
CONTINUOUS
 62
     7
100
AcDbLine
 10
-71.99992334070913
 20
18.49997914146463
 11
-70.99992432473236
 21
13.8935276874868
  0
LINE
  5
747
100
AcDbEntity
  8
0
  6
CONTINUOUS
 62
     7
100
AcDbLine
 10
-82.99995422363281
 20
9.287094116210938
 11
-71.99995422363281
 21
9.287094116210938
  0
LINE
  5
748
100
AcDbEntity
  8
0
  6
CONTINUOUS
 62
     7
100
AcDbLine
 10
-82.99994660308227
 20
18.50003283702512
 11
-83.99994564434873
 21
13.89358126655143
  0
LINE
  5
749
100
AcDbEntity
  8
0
  6
CONTINUOUS
 62
     7
100
AcDbLine
 10
-88.99998474121094
 20
11
 11
-83.99996948242188
 21
11
  0
LINE
  5
74a
100
AcDbEntity
  8
0
  6
CONTINUOUS
 62
     7
100
AcDbLine
 10
-87.4063830241322
 20
11.00006872956251
 11
-85.99996390622448
 21
10.18807225867115
  0
LINE
  5
74b
100
AcDbEntity
  8
0
  6
CONTINUOUS
 62
     7
100
AcDbLine
 10
-85.99996948242188
 20
10.18800354003906
 11
-83.99996948242188
 21
10.18800354003906
  0
LINE
  5
74c
100
AcDbEntity
  8
0
  6
CONTINUOUS
 62
     7
100
AcDbLine
 10
-85.99996948242188
 20
-11
 11
-85.99996948242188
 21
11
  0
LINE
  5
74d
100
AcDbEntity
  8
0
  6
CONTINUOUS
 62
     7
100
AcDbLine
 10
-85.99996948242188
 20
-10.18801879882813
 11
-83.99996948242188
 21
-10.18801879882813
  0
LINE
  5
74e
100
AcDbEntity
  8
0
  6
CONTINUOUS
 62
     7
100
AcDbLine
 10
-88.99998474121094
 20
-11
 11
-83.99996948242188
 21
-11
  0
LINE
  5
74f
100
AcDbEntity
  8
0
  6
CONTINUOUS
 62
     7
100
AcDbLine
 10
-87.40643629295293
 20
-11.00000698283792
 11
-86.0000171750452
 21
-10.18801051194656
  0
LINE
  5
750
100
AcDbEntity
  8
0
  6
CONTINUOUS
 62
     7
100
AcDbLine
 10
-89
 20
-11
 11
-89
 21
11
  0
LINE
  5
751
100
AcDbEntity
  8
0
  6
CONTINUOUS
 62
     7
100
AcDbLine
 10
-91.59807636013939
 20
-12.50000526775197
 11
-89.00000016044379
 21
-11.0000052475602
  0
LINE
  5
752
100
AcDbEntity
  8
0
  6
CONTINUOUS
 62
     7
100
AcDbLine
 10
-112.9741973876953
 20
-12.5
 11
-91.59805297851563
 21
-12.5
  0
LINE
  5
753
100
AcDbEntity
  8
0
  6
CONTINUOUS
 62
     7
100
AcDbLine
 10
-91.59805297851563
 20
-5.937179565429688
 11
-91.59805297851563
 21
-12.5
  0
LINE
  5
754
100
AcDbEntity
  8
0
  6
CONTINUOUS
 62
     7
100
AcDbLine
 10
-99.99996948242188
 20
-5.937179565429688
 11
-88.99998474121094
 21
-5.937179565429688
  0
LINE
  5
755
100
AcDbEntity
  8
0
  6
CONTINUOUS
 62
     7
100
AcDbLine
 10
-100
 20
5.937179565429688
 11
-100
 21
-5.937179565429688
  0
LINE
  5
756
100
AcDbEntity
  8
0
  6
CONTINUOUS
 62
     7
100
AcDbLine
 10
-99.99998639204696
 20
-5.937187842683457
 11
-88.99999477782492
 21
5.937144715685207
  0
LINE
  5
757
100
AcDbEntity
  8
0
  6
CONTINUOUS
 62
     7
100
AcDbLine
 10
-100.0000384127809
 20
5.937098052592084
 11
-89.00003383655546
 21
-5.93724849807262
  0
LINE
  5
758
100
AcDbEntity
  8
0
  6
CONTINUOUS
 62
     7
100
AcDbLine
 10
-99.99996948242188
 20
5.937179565429688
 11
-88.99998474121094
 21
5.937179565429688
  0
LINE
  5
759
100
AcDbEntity
  8
0
  6
CONTINUOUS
 62
     7
100
AcDbLine
 10
-91.59805297851563
 20
5.937164306640625
 11
-91.59805297851563
 21
12.5
  0
LINE
  5
75a
100
AcDbEntity
  8
0
  6
CONTINUOUS
 62
     7
100
AcDbLine
 10
-91.59806212349528
 20
12.50001466755355
 11
-88.9999859237997
 21
11.00001464736179
  0
LINE
  5
75b
100
AcDbEntity
  8
0
  6
CONTINUOUS
 62
     7
100
AcDbLine
 10
-118.1277160644531
 20
12.5
 11
-91.59805297851563
 21
12.5
  0
LWPOLYLINE
  5
75c
100
AcDbEntity
  8
0
  6
CONTINUOUS
 62
     7
100
AcDbPolyline
 90
    10
 70
     0
 10
-118.767667044755
 20
15.60397803812721
 10
-117.4221779362414
 20
9.076926789264018
 10
-119.749558428926
 20
7.984544053099181
 10
-114.6102485014201
 20
7.818732506338795
 10
-116.9376289941047
 20
6.726349770173959
 10
-114.2466507770774
 20
-6.327752727552412
 10
-116.5740312697621
 20
-7.420135463717248
 10
-111.4347213422561
 20
-7.585947010477632
 10
-113.7621018349408
 20
-8.678329746642469
 10
-112.4166127264271
 20
-15.20538099550566
  0
LINE
  5
75d
100
AcDbEntity
  8
0
  6
CENTER
 62
     3
100
AcDbLine
 10
83.06356811523438
 20
0
 11
128.3169555664063
 21
0
  0
LINE
  5
75e
100
AcDbEntity
  8
0
  6
DASHED
 62
     7
100
AcDbLine
 10
91.25
 20
9
 11
119.25
 21
9
  0
LINE
  5
75f
100
AcDbEntity
  8
0
  6
CONTINUOUS
 62
     7
100
AcDbLine
 10
89.22863006591797
 20
8.204421997070313
 11
89.22863006591797
 21
9.25
  0
LINE
  5
760
100
AcDbEntity
  8
0
  6
CONTINUOUS
 62
     7
100
AcDbLine
 10
89.22856255947158
 20
9.25000138740219
 11
90.1340398188502
 21
9.772778998552386
  0
LINE
  5
761
100
AcDbEntity
  8
0
  6
CONTINUOUS
 62
     7
100
AcDbLine
 10
91.25
 20
11.31370544433594
 11
91.25
 21
-11.31369018554688
  0
LINE
  5
762
100
AcDbEntity
  8
0
  6
CONTINUOUS
 62
     7
100
AcDbLine
 10
104.3445216844925
 20
17.97720565429396
 11
105.2500187656189
 21
18.49999470953714
  0
LINE
  5
763
100
AcDbEntity
  8
0
  6
CENTER
 62
     3
100
AcDbLine
 10
105.25
 20
24
 11
105.25
 21
-24
  0
LINE
  5
764
100
AcDbEntity
  8
0
  6
CONTINUOUS
 62
     7
100
AcDbLine
 10
105.2499803288439
 20
18.49999594505407
 11
106.1554774099703
 21
17.9772068898109
  0
LINE
  5
765
100
AcDbEntity
  8
0
  6
CONTINUOUS
 62
     7
100
AcDbLine
 10
119.25
 20
11.31370544433594
 11
119.25
 21
-11.31369018554688
  0
LINE
  5
766
100
AcDbEntity
  8
0
  6
CONTINUOUS
 62
     7
100
AcDbLine
 10
120.3659658828618
 20
9.77277641937166
 11
121.2714629639882
 21
9.249987364128486
  0
LINE
  5
767
100
AcDbEntity
  8
0
  6
CONTINUOUS
 62
     7
100
AcDbLine
 10
121.2715530395508
 20
8.204421997070313
 11
121.2715530395508
 21
9.25
  0
LINE
  5
768
100
AcDbEntity
  8
0
  6
CONTINUOUS
 62
     7
100
AcDbLine
 10
121.2715530395508
 20
-9.250030517578125
 11
121.2715530395508
 21
-8.204437255859375
  0
LINE
  5
769
100
AcDbEntity
  8
0
  6
CONTINUOUS
 62
     7
100
AcDbLine
 10
121.2715025774316
 20
-9.250078108812168
 11
120.3659918489073
 21
-9.772874043646411
  0
LINE
  5
76a
100
AcDbEntity
  8
0
  6
DASHED
 62
     7
100
AcDbLine
 10
91.25
 20
-9
 11
119.25
 21
-9
  0
LINE
  5
76b
100
AcDbEntity
  8
0
  6
CONTINUOUS
 62
     7
100
AcDbLine
 10
106.1555230113854
 20
-17.97727748837767
 11
105.2500122828612
 21
-18.50007342321191
  0
LINE
  5
76c
100
AcDbEntity
  8
0
  6
CONTINUOUS
 62
     7
100
AcDbLine
 10
105.2500162567058
 20
-18.49996434242246
 11
104.3445195814872
 21
-17.97717458412726
  0
LINE
  5
76d
100
AcDbEntity
  8
0
  6
CONTINUOUS
 62
     7
100
AcDbLine
 10
90.13405069323193
 20
-9.77274070969235
 11
89.22855401801324
 21
-9.249950951397153
  0
LINE
  5
76e
100
AcDbEntity
  8
0
  6
CONTINUOUS
 62
     7
100
AcDbLine
 10
89.22863006591797
 20
-9.249969482421875
 11
89.22863006591797
 21
-8.20440673828125
  0
LINE
  5
76f
100
AcDbEntity
  8
0
  6
CONTINUOUS
 62
     7
100
AcDbLine
 10
19
 20
-97.64932250976563
 11
19
 21
-125.6493225097656
  0
LINE
  5
770
100
AcDbEntity
  8
0
  6
CONTINUOUS
 62
     7
100
AcDbLine
 10
-31.99998474121094
 20
-97.64932250976563
 11
19.00001525878906
 21
-97.64932250976563
  0
LINE
  5
771
100
AcDbEntity
  8
0
  6
DASHED
 62
     7
100
AcDbLine
 10
9
 20
-97.64932250976563
 11
9
 21
-125.6493225097656
  0
LINE
  5
772
100
AcDbEntity
  8
0
  6
CONTINUOUS
 62
     7
100
AcDbLine
 10
-31.99998474121094
 20
-125.6493225097656
 11
19.00001525878906
 21
-125.6493225097656
  0
LINE
  5
773
100
AcDbEntity
  8
0
  6
CENTER
 62
     3
100
AcDbLine
 10
0
 20
-93.64932250976563
 11
0
 21
-129.6493225097656
  0
LINE
  5
774
100
AcDbEntity
  8
0
  6
CENTER
 62
     3
100
AcDbLine
 10
-115.5509338378906
 20
-111.6493225097656
 11
24.00001525878906
 21
-111.6493225097656
  0
LINE
  5
775
100
AcDbEntity
  8
0
  6
DASHED
 62
     7
100
AcDbLine
 10
-9
 20
-97.64932250976563
 11
-9
 21
-125.6493225097656
  0
LINE
  5
776
100
AcDbEntity
  8
0
  6
CONTINUOUS
 62
     7
100
AcDbLine
 10
-32
 20
-125.6493225097656
 11
-32
 21
-129.6493225097656
  0
LINE
  5
777
100
AcDbEntity
  8
0
  6
CONTINUOUS
 62
     7
100
AcDbLine
 10
-69.49998474121094
 20
-129.6493225097656
 11
-31.99998474121094
 21
-129.6493225097656
  0
LINE
  5
778
100
AcDbEntity
  8
0
  6
CONTINUOUS
 62
     7
100
AcDbLine
 10
-32
 20
-93.64932250976563
 11
-32
 21
-97.64932250976563
  0
LINE
  5
779
100
AcDbEntity
  8
0
  6
CONTINUOUS
 62
     7
100
AcDbLine
 10
-69.49996948242188
 20
-93.64932250976563
 11
-31.99998474121094
 21
-93.64932250976563
  0
LWPOLYLINE
  5
77a
100
AcDbEntity
  8
0
  6
CONTINUOUS
 62
     7
100
AcDbPolyline
 90
    10
 70
     0
 10
-118.7678232661137
 20
-96.04536643460821
 10
-117.4223372382793
 20
-102.5724027389052
 10
-119.7497177309639
 20
-103.66478547507
 10
-114.610407803458
 20
-103.8305970218304
 10
-116.9377882961426
 20
-104.9229797579953
 10
-114.2468162404737
 20
-117.9770523665892
 10
-116.5741967331584
 20
-119.069435102754
 10
-111.4348868056525
 20
-119.2352466495144
 10
-113.7622672983371
 20
-120.3276293856793
 10
-112.4167812705027
 20
-126.8546656899762
  0
LINE
  5
77b
100
AcDbEntity
  8
0
  6
CONTINUOUS
 62
     7
100
AcDbLine
 10
-118.1277008056641
 20
-99.14932250976563
 11
-101.9999847412109
 21
-99.14932250976563
  0
LINE
  5
77c
100
AcDbEntity
  8
0
  6
CONTINUOUS
 62
     7
100
AcDbLine
 10
-100.0001232701493
 20
-100.6496074199662
 11
-102.0001232522679
 21
-99.14960739612435
  0
LINE
  5
77d
100
AcDbEntity
  8
0
  6
CONTINUOUS
 62
     7
100
AcDbLine
 10
-99.99998474121094
 20
-100.6493225097656
 11
-83.99996948242188
 21
-100.6493225097656
  0
LINE
  5
77e
100
AcDbEntity
  8
0
  6
CONTINUOUS
 62
     7
100
AcDbLine
 10
-71.00002879802808
 20
-128.1494815979489
 11
-69.50004561919117
 21
-129.6494800759979
  0
LINE
  5
77f
100
AcDbEntity
  8
0
  6
CONTINUOUS
 62
     7
100
AcDbLine
 10
-69.49996948242188
 20
-93.64932250976563
 11
-69.49996948242188
 21
-129.6493225097656
  0
LINE
  5
780
100
AcDbEntity
  8
0
  6
CONTINUOUS
 62
     7
100
AcDbLine
 10
-71.00005500878267
 20
-95.14940886782166
 11
-69.50004260113376
 21
-93.64939646017275
  0
LINE
  5
781
100
AcDbEntity
  8
0
  6
CONTINUOUS
 62
     7
100
AcDbLine
 10
-70.99996948242188
 20
-95.14932250976563
 11
-70.99996948242188
 21
-128.1493225097656
  0
LINE
  5
782
100
AcDbEntity
  8
0
  6
CONTINUOUS
 62
     7
100
AcDbLine
 10
-83.54269409179688
 20
-95.64932250976563
 11
-71.457275390625
 21
-95.64932250976563
  0
LINE
  5
783
100
AcDbEntity
  8
0
  6
CONTINUOUS
 62
     7
100
AcDbLine
 10
-71.45717419913096
 20
-95.64931424423392
 11
-70.9998912100304
 21
-97.75576820705511
  0
LINE
  5
784
100
AcDbEntity
  8
0
  6
CONTINUOUS
 62
     7
100
AcDbLine
 10
-71.45720265907195
 20
-127.6493013582927
 11
-70.99991966997139
 21
-125.5428473954715
  0
LINE
  5
785
100
AcDbEntity
  8
0
  6
CONTINUOUS
 62
     7
100
AcDbLine
 10
-83.54269409179688
 20
-127.6493225097656
 11
-71.45726013183594
 21
-127.6493225097656
  0
LINE
  5
786
100
AcDbEntity
  8
0
  6
CONTINUOUS
 62
     7
100
AcDbLine
 10
-83.54262757739917
 20
-127.6492682409518
 11
-83.99991056649972
 21
-125.5428142781307
  0
LINE
  5
787
100
AcDbEntity
  8
0
  6
CONTINUOUS
 62
     7
100
AcDbLine
 10
-83.99996948242188
 20
-97.75576782226563
 11
-83.99996948242188
 21
-125.5428771972656
  0
LINE
  5
788
100
AcDbEntity
  8
0
  6
CONTINUOUS
 62
     7
100
AcDbLine
 10
-83.54263936114914
 20
-95.64928852496314
 11
-83.999915876088
 21
-97.75571266484342
  0
LINE
  5
789
100
AcDbEntity
  8
0
  6
CONTINUOUS
 62
     7
100
AcDbLine
 10
-85.99996948242188
 20
-101.4613342285156
 11
-83.99996948242188
 21
-101.4613342285156
  0
LINE
  5
78a
100
AcDbEntity
  8
0
  6
CONTINUOUS
 62
     7
100
AcDbLine
 10
-87.40630840003907
 20
-100.6491840597092
 11
-85.99988928213134
 21
-101.4611805306005
  0
LINE
  5
78b
100
AcDbEntity
  8
0
  6
CONTINUOUS
 62
     7
100
AcDbLine
 10
-85.99996948242188
 20
-100.6493225097656
 11
-85.99996948242188
 21
-122.6493225097656
  0
LINE
  5
78c
100
AcDbEntity
  8
0
  6
CONTINUOUS
 62
     7
100
AcDbLine
 10
-85.99996948242188
 20
-121.8373107910156
 11
-83.99996948242188
 21
-121.8373107910156
  0
LINE
  5
78d
100
AcDbEntity
  8
0
  6
CONTINUOUS
 62
     7
100
AcDbLine
 10
-99.99998474121094
 20
-122.6493225097656
 11
-83.99996948242188
 21
-122.6493225097656
  0
LINE
  5
78e
100
AcDbEntity
  8
0
  6
CONTINUOUS
 62
     7
100
AcDbLine
 10
-87.40644838536545
 20
-122.6492765274224
 11
-86.00002926745773
 21
-121.8372800565311
  0
LINE
  5
78f
100
AcDbEntity
  8
0
  6
CONTINUOUS
 62
     7
100
AcDbLine
 10
-89
 20
-100.6493225097656
 11
-89
 21
-122.6493225097656
  0
LINE
  5
790
100
AcDbEntity
  8
0
  6
CONTINUOUS
 62
     7
100
AcDbLine
 10
-91.59805297851563
 20
-100.6493225097656
 11
-91.59805297851563
 21
-122.6493225097656
  0
LINE
  5
791
100
AcDbEntity
  8
0
  6
CONTINUOUS
 62
     7
100
AcDbLine
 10
-99.99991537750495
 20
-122.6493938922872
 11
-101.9999153596235
 21
-124.149393916129
  0
LINE
  5
792
100
AcDbEntity
  8
0
  6
CONTINUOUS
 62
     7
100
AcDbLine
 10
-112.9741821289063
 20
-124.1493225097656
 11
-102
 21
-124.1493225097656
  0
LINE
  5
793
100
AcDbEntity
  8
0
  6
CENTER
 62
     3
100
AcDbLine
 10
0
 20
22.13751220703125
 11
0
 21
-21.681640625
  0
CIRCLE
  5
794
100
AcDbEntity
  8
0
  6
CONTINUOUS
 62
     7
100
AcDbCircle
 10
3.0517578125e-005
 20
0
 40
9
  0
ARC
  5
795
100
AcDbEntity
  8
0
  6
CONTINUOUS
 62
     7
100
AcDbCircle
 10
-72.89022827148438
 20
-13.8935546875
 40
11.10971927642822
100
AcDbArc
 50
155.5037910978941
 51
180.000005008957
  0
ARC
  5
796
100
AcDbEntity
  8
0
  6
CONTINUOUS
 62
     7
100
AcDbCircle
 10
-40.37496948242188
 20
0
 40
43.625
100
AcDbArc
 50
167.7085741635198
 51
192.2914358543935
  0
ARC
  5
797
100
AcDbEntity
  8
0
  6
CONTINUOUS
 62
     7
100
AcDbCircle
 10
-114.6249694824219
 20
0
 40
43.625
100
AcDbArc
 50
347.7085529328649
 51
12.29144621336216
  0
ARC
  5
798
100
AcDbEntity
  8
0
  6
CONTINUOUS
 62
     7
100
AcDbCircle
 10
-82.10968017578125
 20
-13.8935546875
 40
11.10971927642822
100
AcDbArc
 50
6.252776074688882e-013
 51
24.49620708087311
  0
ARC
  5
799
100
AcDbEntity
  8
0
  6
CONTINUOUS
 62
     7
100
AcDbCircle
 10
-82.10968017578125
 20
13.89353942871094
 40
11.10971927642822
100
AcDbArc
 50
335.5037382776143
 51
359.9999453584874
  0
ARC
  5
79a
100
AcDbEntity
  8
0
  6
CONTINUOUS
 62
     7
100
AcDbCircle
 10
-72.89022827148438
 20
13.89353942871094
 40
11.10971927642822
100
AcDbArc
 50
179.9999230466863
 51
204.4961369577493
  0
ARC
  5
79b
100
AcDbEntity
  8
0
  6
CONTINUOUS
 62
     7
100
AcDbCircle
 10
-92.1875
 20
0
 40
9.8125
100
AcDbArc
 50
142.7666904091142
 51
217.2333059484209
  0
CIRCLE
  5
79c
100
AcDbEntity
  8
0
  6
CONTINUOUS
 62
     7
100
AcDbCircle
 10
105.25
 20
0
 40
18
  0
ARC
  5
79d
100
AcDbEntity
  8
0
  6
CONTINUOUS
 62
     7
100
AcDbCircle
 10
-141.2059936523438
 20
-103.6493225097656
 40
70.20602416992188
100
AcDbArc
 50
353.4569144166549
 51
6.543085583345854
  0
ARC
  5
79e
100
AcDbEntity
  8
0
  6
CONTINUOUS
 62
     7
100
AcDbCircle
 10
-141.2059936523438
 20
-119.6493225097656
 40
70.20602416992188
100
AcDbArc
 50
353.4569144166549
 51
6.543085583345854
  0
ARC
  5
79f
100
AcDbEntity
  8
0
  6
CONTINUOUS
 62
     7
100
AcDbCircle
 10
-13.78927612304688
 20
-119.6493225097656
 40
70.21067810058594
100
AcDbArc
 50
173.4573668030011
 51
186.5426158941556
  0
ARC
  5
7a0
100
AcDbEntity
  8
0
  6
CONTINUOUS
 62
     7
100
AcDbCircle
 10
-13.78927612304688
 20
-103.6493225097656
 40
70.21067810058594
100
AcDbArc
 50
173.4573668030011
 51
186.5426158941556
  0
MTEXT
  5
7a1
100
AcDbEntity
  8
0
  6
CONTINUOUS
 62
     7
100
AcDbMText
 10
-55.12855945527554
 20
-12.5
 40
0.5
 41
24
 71
     7
 72
     1
  1
{\W0.843764;ＢＮ－６１０５－８０－Ｔ}
  0
MTEXT
  5
7a2
100
AcDbEntity
  8
0
  6
CONTINUOUS
 62
     7
100
AcDbMText
 10
97.12143291532993
 20
-12.5
 40
0.5
 41
24
 71
     7
 72
     1
  1
{\W0.843764;ＢＮ－６１０５－８０－Ｔ}
  0
MTEXT
  5
7a3
100
AcDbEntity
  8
0
  6
CONTINUOUS
 62
     7
100
AcDbMText
 10
-54.07856403291225
 20
-124.8499984741211
 40
0.5
 41
24
 71
     7
 72
     1
  1
{\W0.843764;ＢＮ－６１０５－８０－Ｔ}
  0
ENDBLK
  8
0
  5
7a4
100
AcDbEntity
100
AcDbBlockEnd
  0
BLOCK
  8
0
  5
7a5
100
AcDbEntity
100
AcDbBlockBegin
  2
KOZU0009
 70
    64
 10
0
 20
0
  0
LINE
  5
7a6
100
AcDbEntity
  8
0
  6
CONTINUOUS
 62
     3
100
AcDbLine
 10
-43.6161924422278
 20
-4.999998327961574
 11
-42.80576324462891
 21
-4.189567509502663
  0
LINE
  5
7a7
100
AcDbEntity
  8
0
  6
CONTINUOUS
 62
     3
100
AcDbLine
 10
-44.40576171875
 20
-4.891542673595399
 11
-43.3142196742797
 21
-3.799998446038828
  0
LINE
  5
7a8
100
AcDbEntity
  8
0
  6
CONTINUOUS
 62
     3
100
AcDbLine
 10
-44.40576171875
 20
-3.993516163566891
 11
-44.21224425444104
 21
-3.799998312222616
  0
LINE
  5
7a9
100
AcDbEntity
  8
0
  6
CONTINUOUS
 62
     3
100
AcDbLine
 10
-42.89843251879772
 20
3.800001621246341
 11
-42.80576324462891
 21
3.892671080753889
  0
LINE
  5
7aa
100
AcDbEntity
  8
0
  6
CONTINUOUS
 62
     3
100
AcDbLine
 10
-43.796457232775
 20
3.800001621246341
 11
-42.80576324462891
 21
4.790697590782393
  0
LINE
  5
7ab
100
AcDbEntity
  8
0
  6
CONTINUOUS
 62
     3
100
AcDbLine
 10
-44.40576171875
 20
4.088722426689653
 11
-43.49448412697516
 21
5.000001841021501
  0
LINE
  5
7ac
100
AcDbEntity
  8
0
  6
CONTINUOUS
 62
     3
100
AcDbLine
 10
-44.40576171875
 20
4.986748936718154
 11
-44.39250830568887
 21
5.000002376286133
  0
ENDBLK
  8
0
  5
7ad
100
AcDbEntity
100
AcDbBlockEnd
  0
BLOCK
  8
0
  5
7ae
100
AcDbEntity
100
AcDbBlockBegin
  2
KOZU0010
 70
    64
 10
0
 20
0
  0
LINE
  5
7af
100
AcDbEntity
  8
0
  6
CONTINUOUS
 62
     3
100
AcDbLine
 10
44.39023226968874
 20
-4.99999558581327
 11
44.40576171874987
 21
-4.984466105693205
  0
LINE
  5
7b0
100
AcDbEntity
  8
0
  6
CONTINUOUS
 62
     3
100
AcDbLine
 10
43.49220755571146
 20
-4.99999558581327
 11
44.40576171874987
 21
-4.0864395956647
  0
LINE
  5
7b1
100
AcDbEntity
  8
0
  6
CONTINUOUS
 62
     3
100
AcDbLine
 10
42.80576324462879
 20
-4.78841475975743
 11
43.79417440631563
 21
-3.800001621246295
  0
LINE
  5
7b2
100
AcDbEntity
  8
0
  6
CONTINUOUS
 62
     3
100
AcDbLine
 10
42.80576324462879
 20
-3.890388249728929
 11
42.89614969233835
 21
-3.800001621246299
  0
LINE
  5
7b3
100
AcDbEntity
  8
0
  6
CONTINUOUS
 62
     3
100
AcDbLine
 10
44.20996309873424
 20
3.799999982978576
 11
44.40576171874987
 21
3.995798994591848
  0
LINE
  5
7b4
100
AcDbEntity
  8
0
  6
CONTINUOUS
 62
     3
100
AcDbLine
 10
43.31193838475696
 20
3.799999982978576
 11
44.40576171874987
 21
4.893825504620356
  0
LINE
  5
7b5
100
AcDbEntity
  8
0
  6
CONTINUOUS
 62
     3
100
AcDbLine
 10
42.80576324462879
 20
4.19185034052763
 11
43.61391277963624
 21
5.000001491835764
  0
ENDBLK
  8
0
  5
7b6
100
AcDbEntity
100
AcDbBlockEnd
  0
ENDSEC
  0
SECTION
  2
ENTITIES
  0
LINE
  5
7b7
100
AcDbEntity
  8
0
  6
PHANTOM
 62
     7
100
AcDbLine
 10
-249.6679077148438
 20
-172.7722473144531
 11
-249.6679077148438
 21
-434.4713439941406
  0
LINE
  5
7b8
100
AcDbEntity
  8
0
  6
PHANTOM
 62
     7
100
AcDbLine
 10
372.6766967773438
 20
-172.7722473144531
 11
372.6766967773438
 21
-434.4713439941406
  0
LINE
  5
7b9
100
AcDbEntity
  8
0
  6
PHANTOM
 62
     7
100
AcDbLine
 10
-249.6679077148438
 20
-434.4713439941406
 11
372.6766967773438
 21
-434.4713439941406
  0
LINE
  5
7ba
100
AcDbEntity
  8
0
  6
PHANTOM
 62
     7
100
AcDbLine
 10
-249.6679077148438
 20
-172.7722473144531
 11
372.6766967773438
 21
-172.7722473144531
  0
LINE
  5
7bb
100
AcDbEntity
  8
0
  6
PHANTOM
 62
     7
100
AcDbLine
 10
61.50439453125
 20
-172.7722473144531
 11
61.50439453125
 21
-434.4713439941406
  0
LINE
  5
7bc
100
AcDbEntity
  8
0
  6
CONTINUOUS
 62
     7
100
AcDbLine
 10
436.4156494140625
 20
-322.4168426513672
 11
604.9799743652344
 21
-322.4168426513672
  0
LINE
  5
7bd
100
AcDbEntity
  8
0
  6
CONTINUOUS
 62
     7
100
AcDbLine
 10
436.4156494140625
 20
-322.4168426513672
 11
436.4156494140625
 21
-359.98291015625
  0
LINE
  5
7be
100
AcDbEntity
  8
0
  6
CONTINUOUS
 62
     7
100
AcDbLine
 10
436.4156494140625
 20
-359.98291015625
 11
604.9799743652344
 21
-359.98291015625
  0
LINE
  5
7bf
100
AcDbEntity
  8
0
  6
CONTINUOUS
 62
     7
100
AcDbLine
 10
438.6156829833985
 20
-286.7053466796875
 11
564.5956604003907
 21
-286.7053466796875
  0
LINE
  5
7c0
100
AcDbEntity
  8
0
  6
CONTINUOUS
 62
     7
100
AcDbLine
 10
438.6156829833985
 20
-296.9298614501953
 11
564.5956604003907
 21
-296.9298614501953
  0
LINE
  5
7c1
100
AcDbEntity
  8
0
  6
CONTINUOUS
 62
     7
100
AcDbLine
 10
564.5956604003907
 20
-307.1543426513672
 11
438.6156829833985
 21
-307.1543426513672
  0
LINE
  5
7c2
100
AcDbEntity
  8
0
  6
CONTINUOUS
 62
     7
100
AcDbLine
 10
604.9799743652344
 20
-322.4168426513672
 11
604.9799743652344
 21
-359.98291015625
  0
ARC
  5
7c3
100
AcDbEntity
  8
0
  6
PHANTOM
 62
     7
100
AcDbCircle
 10
-99.31536865234375
 20
-248.9563903808594
 40
21
100
AcDbArc
 50
270.0000000000007
 51
90.00000000000004
  0
MTEXT
  5
7c4
100
AcDbEntity
  8
0
  6
CONTINUOUS
 62
     7
100
AcDbMText
 10
-122.7880606651306
 20
-193.6036987304688
 40
8
 41
160
 71
     7
 72
     1
  1
{\W0.848904;Ｔコネクタ}
  0
MTEXT
  5
7c5
100
AcDbEntity
  8
0
  6
CONTINUOUS
 62
     7
100
AcDbMText
 10
193.0073800086975
 20
-193.6036987304688
 40
8
 41
160
 71
     7
 72
     1
  1
{\W0.848904;Ｙコネクタ}
  0
MTEXT
  5
7c6
100
AcDbEntity
  8
0
  6
CONTINUOUS
 62
     7
100
AcDbMText
 10
-234.2005069255829
 20
-198.7158660888672
 40
10
 41
80
 71
     7
 72
     1
  1
{\W0.864328;＊８}
  0
MTEXT
  5
7c7
100
AcDbEntity
  8
0
  6
CONTINUOUS
 62
     7
100
AcDbMText
 10
77.52015805244446
 20
-197.3576049804688
 40
10
 41
80
 71
     7
 72
     1
  1
{\W0.864328;＊７}
  0
MTEXT
  5
7c8
100
AcDbEntity
  8
0
  6
CONTINUOUS
 62
     7
100
AcDbMText
 10
125.7458579540253
 20
163.2911682128906
 40
10
 41
80
 71
     7
 72
     1
  1
{\W0.864328;＊１}
  0
MTEXT
  5
7c9
100
AcDbEntity
  8
0
  6
CONTINUOUS
 62
     7
100
AcDbMText
 10
124.5307242870331
 20
217.97216796875
 40
10
 41
80
 71
     7
 72
     1
  1
{\W0.864328;＊２}
  0
MTEXT
  5
7ca
100
AcDbEntity
  8
0
  6
CONTINUOUS
 62
     7
100
AcDbMText
 10
-195.049369096756
 20
159.6457672119141
 40
10
 41
80
 71
     7
 72
     1
  1
{\W0.864328;＊３}
  0
MTEXT
  5
7cb
100
AcDbEntity
  8
0
  6
CONTINUOUS
 62
     7
100
AcDbMText
 10
362.6968772411346
 20
162.0760345458984
 40
10
 41
80
 71
     7
 72
     1
  1
{\W0.864328;＊４}
  0
MTEXT
  5
7cc
100
AcDbEntity
  8
0
  6
CONTINUOUS
 62
     7
100
AcDbMText
 10
442.647896528244
 20
161.9028930664063
 40
10
 41
80
 71
     7
 72
     1
  1
{\W0.864328;＊５}
  0
MTEXT
  5
7cd
100
AcDbEntity
  8
0
  6
CONTINUOUS
 62
     7
100
AcDbMText
 10
124.5307242870331
 20
-48.14204406738281
 40
10
 41
80
 71
     7
 72
     1
  1
{\W0.864328;＊６}
  0
MTEXT
  5
7ce
100
AcDbEntity
  8
0
  6
CONTINUOUS
 62
     7
100
AcDbMText
 10
443.0541054725647
 20
-345.1718627929687
 40
8
 41
96
 71
     7
 72
     1
  1
{\W0.855331;品　名}
  0
MTEXT
  5
7cf
100
AcDbEntity
  8
0
  6
CONTINUOUS
 62
     7
100
AcDbMText
 10
443.0541054725647
 20
-356.0068695068359
 40
8
 41
96
 71
     7
 72
     1
  1
{\W0.855331;型　番}
  0
MTEXT
  5
7d0
100
AcDbEntity
  8
0
  6
CONTINUOUS
 62
     7
100
AcDbMText
 10
478.0340920448304
 20
-356.0068695068359
 40
8
 41
512
 71
     7
 72
     1
  1
{\W0.842888;ＢＮ－６１０５－Ｓ－８０－Ｂ－＊}
  0
MTEXT
  5
7d1
100
AcDbEntity
  8
0
  6
CONTINUOUS
 62
     7
100
AcDbMText
 10
478.0340920448304
 20
-345.1718627929687
 40
8
 41
224
 71
     7
 72
     1
  1
{\W0.846334;空気圧シリンダ}
  0
MTEXT
  5
7d2
100
AcDbEntity
  8
0
  6
CONTINUOUS
 62
     7
100
AcDbMText
 10
488.1651833534241
 20
-333.8899139404297
 40
8
 41
256
 71
     7
 72
     1
  1
{\W0.845552;日本精器株式会社}
  0
MTEXT
  5
7d3
100
AcDbEntity
  8
0
  6
CONTINUOUS
 62
     7
100
AcDbMText
 10
439.8242984771729
 20
-306.0421020507812
 40
8
 41
384
 71
     7
 72
     1
  1
{\W0.843764;周囲温度　　　：　常　温}
  0
MTEXT
  5
7d4
100
AcDbEntity
  8
0
  6
CONTINUOUS
 62
     7
100
AcDbMText
 10
439.8242984771729
 20
-295.8175537109375
 40
8
 41
480
 71
     7
 72
     1
  1
{\W0.843063;耐圧力　　　　：　１．５ＭＰａ}
  0
MTEXT
  5
7d5
100
AcDbEntity
  8
0
  6
CONTINUOUS
 62
     7
100
AcDbMText
 10
439.8242984771729
 20
-285.5931060791016
 40
8
 41
480
 71
     7
 72
     1
  1
{\W0.843063;最高使用圧力　：　１．０ＭＰａ}
  0
INSERT
  5
7d6
100
AcDbEntity
  8
0
  6
CONTINUOUS
 62
     7
100
AcDbBlockReference
  2
KOZU0001
 10
92.18463134765625
 20
100.2800216674805
  0
INSERT
  5
7d7
100
AcDbEntity
  8
0
  6
CONTINUOUS
 62
     7
100
AcDbBlockReference
  2
KOZU0002
 10
92.18463134765625
 20
262.9199829101563
  0
INSERT
  5
7d8
100
AcDbEntity
  8
0
  6
CONTINUOUS
 62
     7
100
AcDbBlockReference
  2
KOZU0003
 10
-249.0482788085938
 20
100.2800521850586
  0
INSERT
  5
7d9
100
AcDbEntity
  8
0
  6
CONTINUOUS
 62
     7
100
AcDbBlockReference
  2
KOZU0004
 10
297.4175109863281
 20
100.2800521850586
  0
INSERT
  5
7da
100
AcDbEntity
  8
0
  6
CONTINUOUS
 62
     7
100
AcDbBlockReference
  2
KOZU0005
 10
472.650390625
 20
100.2800216674805
  0
INSERT
  5
7db
100
AcDbEntity
  8
0
  6
CONTINUOUS
 62
     7
100
AcDbBlockReference
  2
KOZU0006
 10
92.18463134765625
 20
-92.35992431640625
  0
INSERT
  5
7dc
100
AcDbEntity
  8
0
  6
CONTINUOUS
 62
     7
100
AcDbBlockReference
  2
KOZU0007
 10
202.9297637939453
 20
-248.9563903808594
  0
INSERT
  5
7dd
100
AcDbEntity
  8
0
  6
CONTINUOUS
 62
     7
100
AcDbBlockReference
  2
KOZU0008
 10
-99.31536865234375
 20
-248.9563903808594
  0
LINE
  5
7de
100
AcDbEntity
  8
0
  6
CONTINUOUS
 62
     7
100
AcDbLine
 10
156.8628328954236
 20
111.2800397494554
 11
169.4163765267344
 21
126.0015822102972
  0
LINE
  5
7df
100
AcDbEntity
  8
0
  6
CONTINUOUS
 62
     7
100
AcDbLine
 10
156.8628328954236
 20
111.2800397494554
 11
158.0484852740639
 21
114.2116311494726
  0
LINE
  5
7e0
100
AcDbEntity
  8
0
  6
CONTINUOUS
 62
     7
100
AcDbLine
 10
156.8628328954236
 20
111.2800397494554
 11
159.5703096383462
 21
112.913921442285
  0
MTEXT
  5
7e1
100
AcDbEntity
  8
0
  6
CONTINUOUS
 62
     7
100
AcDbMText
 10
173.8866192102432
 20
127.5015869140625
 40
6
 41
168
 71
     7
 72
     1
  1
{\W0.846334;Ｍ２２ｘ１．５}
  0
LINE
  5
7e2
100
AcDbEntity
  8
0
  6
CONTINUOUS
 62
     7
100
AcDbLine
 10
156.8628328954236
 20
111.2800397494554
 11
169.4163765267344
 21
126.0015822102972
  0
LINE
  5
7e3
100
AcDbEntity
  8
0
  6
CONTINUOUS
 62
     7
100
AcDbLine
 10
169.4163818359375
 20
126.0015869140625
 11
215.8866271972656
 21
126.0015869140625
  0
DIMENSION
  5
7e4
100
AcDbEntity
  8
0
  6
CONTINUOUS
 62
     7
100
AcDbDimension
  2
*D1
 70
     0
 10
-106.8153686523438
 20
165.9640502929688
 11
-115.3153686523438
 21
165.9640502929688
  3
DIMSTYLE
100
AcDbAlignedDimension
 13
-123.8153686523438
 23
149.7800445556641
 14
-106.8153686523438
 24
153.6989135742188
 50
0
100
AcDbRotatedDimension
1001
ACAD
1000
DSTYLE
1002
{
1070
     6
1000
_OPEN30
1070
     7
1000
_OPEN30
1070
    77
1070
     1
1070
   172
1070
     1
1070
    42
1040
0
1002
}
  0
DIMENSION
  5
7e5
100
AcDbEntity
  8
0
  6
CONTINUOUS
 62
     7
100
AcDbDimension
  2
*D2
 70
     0
 10
75.18463134765625
 20
165.9640502929688
 11
83.68463134765625
 21
165.9640502929688
  3
DIMSTYLE
100
AcDbAlignedDimension
 13
92.18463134765625
 23
149.7800445556641
 14
75.18463134765625
 24
152.966552734375
 50
0
100
AcDbRotatedDimension
1001
ACAD
1000
DSTYLE
1002
{
1070
     6
1000
_OPEN30
1070
     7
1000
_OPEN30
1070
    77
1070
     1
1070
   172
1070
     1
1070
    42
1040
0
1002
}
  0
LINE
  5
7e6
100
AcDbEntity
  8
0
  6
CONTINUOUS
 62
     7
100
AcDbLine
 10
-96.52432929687029
 20
142.9853802905876
 11
-77.82475929329493
 21
166.9360333748166
  0
LINE
  5
7e7
100
AcDbEntity
  8
0
  6
CONTINUOUS
 62
     7
100
AcDbLine
 10
-96.52432929687029
 20
142.9853802905876
 11
-95.04233038849168
 21
145.7967690812362
  0
LINE
  5
7e8
100
AcDbEntity
  8
0
  6
CONTINUOUS
 62
     7
100
AcDbLine
 10
-96.52432929687029
 20
142.9853802905876
 11
-94.15637789279364
 21
145.105058059625
  0
MTEXT
  5
7e9
100
AcDbEntity
  8
0
  6
CONTINUOUS
 62
     7
100
AcDbMText
 10
-71.49237823486328
 20
166.93603515625
 40
6
 41
168
 71
     4
 72
     1
  1
{\W0.846334;２－Ｒｃ１／２}
  0
LINE
  5
7ea
100
AcDbEntity
  8
0
  6
CONTINUOUS
 62
     7
100
AcDbLine
 10
-96.52432929687029
 20
142.9853802905876
 11
-77.82475929329493
 21
166.9360333748166
  0
LINE
  5
7eb
100
AcDbEntity
  8
0
  6
CONTINUOUS
 62
     7
100
AcDbLine
 10
-77.82476043701172
 20
166.93603515625
 11
-73.20687866210938
 21
166.93603515625
  0
DIMENSION
  5
7ec
100
AcDbEntity
  8
0
  6
CONTINUOUS
 62
     7
100
AcDbDimension
  2
*D3
 70
     0
 10
-148.9484558105469
 20
122.7800216674805
 11
-148.9484558105469
 21
100.2800216674805
  3
DIMSTYLE
100
AcDbAlignedDimension
 13
-126.8153686523438
 23
77.78002166748047
 14
-126.8153686523438
 24
122.7800216674805
 50
90
100
AcDbRotatedDimension
1001
ACAD
1000
DSTYLE
1002
{
1070
     6
1000
_OPEN30
1070
     7
1000
_OPEN30
1070
    77
1070
     1
1070
   172
1070
     1
1070
    42
1040
0
1002
}
  0
DIMENSION
  5
7ed
100
AcDbEntity
  8
0
  6
CONTINUOUS
 62
     7
100
AcDbDimension
  2
*D4
 70
     0
 10
-123.8153686523438
 20
9.173545837402344
 11
-15.81536865234375
 21
9.173545837402344
  3
DIMSTYLE
100
AcDbAlignedDimension
 13
92.18463134765625
 23
50.78003692626953
 14
-123.8153686523438
 24
50.78003692626953
 50
0
100
AcDbRotatedDimension
1001
ACAD
1000
DSTYLE
1002
{
1070
     6
1000
_OPEN30
1070
     7
1000
_OPEN30
1070
    77
1070
     1
1070
   172
1070
     1
1070
    75
1070
     1
1002
}
  0
DIMENSION
  5
7ee
100
AcDbEntity
  8
0
  6
CONTINUOUS
 62
     7
100
AcDbDimension
  2
*D5
 70
     0
 10
151.1846313476563
 20
60.42560577392578
 11
144.6846313476563
 21
60.42560577392578
  3
DIMSTYLE
100
AcDbAlignedDimension
 13
138.1846466064453
 23
86.38648986816406
 14
151.1846313476563
 24
86.38649749755859
 50
0
100
AcDbRotatedDimension
1001
ACAD
1000
DSTYLE
1002
{
1070
     6
1000
_OPEN30
1070
     7
1000
_OPEN30
1070
    77
1070
     1
1070
   172
1070
     1
1070
    42
1040
0
1002
}
  0
DIMENSION
  5
7ef
100
AcDbEntity
  8
0
  6
CONTINUOUS
 62
     7
100
AcDbDimension
  2
*D6
 70
     0
 10
163.1846466064453
 20
-6.253509521484375
 11
17.68463134765625
 21
-6.253509521484375
  3
DIMSTYLE
100
AcDbAlignedDimension
 13
-127.8153686523438
 23
78.780029296875
 14
163.1846466064453
 24
90.28003692626953
 50
0
100
AcDbRotatedDimension
1001
ACAD
1000
DSTYLE
1002
{
1070
     6
1000
_OPEN30
1070
     7
1000
_OPEN30
1070
    77
1070
     1
1070
   172
1070
     1
1070
    42
1040
0
1002
}
  0
DIMENSION
  5
7f0
100
AcDbEntity
  8
0
  6
CONTINUOUS
 62
     7
100
AcDbDimension
  2
*D7
 70
     0
 10
115.5861358642578
 20
112.7800521850586
 11
115.5861358642578
 21
135.0534362792969
  3
DIMSTYLE
100
AcDbAlignedDimension
 13
120.5865631103516
 23
87.78003692626953
 14
120.5865631103516
 24
112.7800521850586
 50
90
100
AcDbRotatedDimension
1001
ACAD
1000
DSTYLE
1002
{
1070
     6
1000
_OPEN30
1070
     7
1000
_OPEN30
1070
    77
1070
     1
1070
   172
1070
     1
1070
    42
1040
0
1002
}
  0
LINE
  5
7f1
100
AcDbEntity
  8
0
  6
CONTINUOUS
 62
     7
100
AcDbLine
 10
118.3848256125425
 20
102.6475543790173
 11
135.3242641171927
 21
145.6589825168924
  0
LINE
  5
7f2
100
AcDbEntity
  8
0
  6
CONTINUOUS
 62
     7
100
AcDbLine
 10
118.3848256125425
 20
102.6475543790173
 11
119.0081451994351
 21
105.7639144976839
  0
LINE
  5
7f3
100
AcDbEntity
  8
0
  6
CONTINUOUS
 62
     7
100
AcDbLine
 10
118.3848256125425
 20
102.6475543790173
 11
120.0539611730875
 21
105.3520347685087
  0
MTEXT
  5
7f4
100
AcDbEntity
  8
0
  6
CONTINUOUS
 62
     7
100
AcDbMText
 10
140.7743377685547
 20
145.6589813232422
 40
6
 41
120
 71
     4
 72
     1
  1
{\W0.848905;二面巾２２}
  0
LINE
  5
7f5
100
AcDbEntity
  8
0
  6
CONTINUOUS
 62
     7
100
AcDbLine
 10
118.3848256125425
 20
102.6475543790173
 11
135.3242641171927
 21
145.6589825168924
  0
LINE
  5
7f6
100
AcDbEntity
  8
0
  6
CONTINUOUS
 62
     7
100
AcDbLine
 10
135.3242645263672
 20
145.6589813232422
 11
139.0598449707031
 21
145.6589813232422
  0
DIMENSION
  5
7f7
100
AcDbEntity
  8
0
  6
CONTINUOUS
 62
     7
100
AcDbDimension
  2
*D8
 70
     0
 10
123.1846466064453
 20
9.173545837402344
 11
107.6846313476563
 21
9.173545837402344
  3
DIMSTYLE
100
AcDbAlignedDimension
 13
92.18463134765625
 23
50.78003692626953
 14
123.1846466064453
 24
89.28005218505859
 50
0
100
AcDbRotatedDimension
1001
ACAD
1000
DSTYLE
1002
{
1070
     6
1000
_OPEN30
1070
     7
1000
_OPEN30
1070
    77
1070
     1
1070
   172
1070
     1
1070
    42
1040
0
1002
}
  0
DIMENSION
  5
7f8
100
AcDbEntity
  8
0
  6
CONTINUOUS
 62
     7
100
AcDbDimension
  2
*D9
 70
     0
 10
163.1846466064453
 20
9.173545837402344
 11
143.1846466064453
 21
9.173545837402344
  3
DIMSTYLE
100
AcDbAlignedDimension
 13
123.1846466064453
 23
89.28005218505859
 14
163.1846466064453
 24
90.28003692626953
 50
0
100
AcDbRotatedDimension
1001
ACAD
1000
DSTYLE
1002
{
1070
     6
1000
_OPEN30
1070
     7
1000
_OPEN30
1070
    77
1070
     1
1070
   172
1070
     1
1070
    75
1070
     1
1002
}
  0
DIMENSION
  5
7f9
100
AcDbEntity
  8
0
  6
CONTINUOUS
 62
     7
100
AcDbDimension
  2
*D10
 70
     0
 10
126.1846313476563
 20
23.42415618896484
 11
144.6846313476563
 21
23.42415618896484
  3
DIMSTYLE
100
AcDbAlignedDimension
 13
163.1846466064453
 23
90.28003692626953
 14
126.1846313476563
 24
89.28003692626953
 50
0
100
AcDbRotatedDimension
1001
ACAD
1000
DSTYLE
1002
{
1070
     6
1000
_OPEN30
1070
     7
1000
_OPEN30
1070
    77
1070
     1
1070
   172
1070
     1
1070
    42
1040
0
1002
}
  0
DIMENSION
  5
7fa
100
AcDbEntity
  8
0
  6
CONTINUOUS
 62
     7
100
AcDbDimension
  2
*D11
 70
     0
 10
-89.81536865234375
 20
23.42415618896484
 11
-106.8153686523438
 21
23.42415618896484
  3
DIMSTYLE
100
AcDbAlignedDimension
 13
-123.8153686523438
 23
50.78003692626953
 14
-89.81536865234375
 24
50.78003692626953
 50
0
100
AcDbRotatedDimension
1001
ACAD
1000
DSTYLE
1002
{
1070
     6
1000
_OPEN30
1070
     7
1000
_OPEN30
1070
    77
1070
     1
1070
   172
1070
     1
1070
    42
1040
0
1002
}
  0
DIMENSION
  5
7fb
100
AcDbEntity
  8
0
  6
CONTINUOUS
 62
     7
100
AcDbDimension
  2
*D12
 70
     0
 10
92.18463134765625
 20
23.42415618896484
 11
75.18463134765625
 21
23.42415618896484
  3
DIMSTYLE
100
AcDbAlignedDimension
 13
58.18463134765625
 23
50.78003692626953
 14
92.18463134765625
 24
50.78003692626953
 50
0
100
AcDbRotatedDimension
1001
ACAD
1000
DSTYLE
1002
{
1070
     6
1000
_OPEN30
1070
     7
1000
_OPEN30
1070
    77
1070
     1
1070
   172
1070
     1
1070
    42
1040
0
1002
}
  0
DIMENSION
  5
7fc
100
AcDbEntity
  8
0
  6
CONTINUOUS
 62
     7
100
AcDbDimension
  2
*D13
 70
     0
 10
107.1846313476563
 20
23.42415618896484
 11
99.68463134765625
 21
23.42415618896484
  3
DIMSTYLE
100
AcDbAlignedDimension
 13
92.18463134765625
 23
50.78003692626953
 14
107.1846313476563
 24
78.48004150390625
 50
0
100
AcDbRotatedDimension
1001
ACAD
1000
DSTYLE
1002
{
1070
     6
1000
_OPEN30
1070
     7
1000
_OPEN30
1070
    77
1070
     1
1070
   172
1070
     1
1070
    75
1070
     1
1002
}
  0
DIMENSION
  5
7fd
100
AcDbEntity
  8
0
  6
CONTINUOUS
 62
     7
100
AcDbDimension
  2
*D14
 70
     0
 10
-212.0482177734375
 20
23.42415618896484
 11
-249.0482788085938
 21
23.42415618896484
  3
DIMSTYLE
100
AcDbAlignedDimension
 13
-286.0482788085938
 23
53.030029296875
 14
-212.0482177734375
 24
53.030029296875
 50
0
100
AcDbRotatedDimension
1001
ACAD
1000
DSTYLE
1002
{
1070
     6
1000
_OPEN30
1070
     7
1000
_OPEN30
1070
    77
1070
     1
1070
   172
1070
     1
1070
    42
1040
0
1002
}
  0
DIMENSION
  5
7fe
100
AcDbEntity
  8
0
  6
CONTINUOUS
 62
     7
100
AcDbDimension
  2
*D15
 70
     0
 10
334.4175109863281
 20
23.42415618896484
 11
297.4175109863281
 21
23.42415618896484
  3
DIMSTYLE
100
AcDbAlignedDimension
 13
260.4175109863281
 23
53.030029296875
 14
334.4175109863281
 24
53.030029296875
 50
0
100
AcDbRotatedDimension
1001
ACAD
1000
DSTYLE
1002
{
1070
     6
1000
_OPEN30
1070
     7
1000
_OPEN30
1070
    77
1070
     1
1070
   172
1070
     1
1070
    42
1040
0
1002
}
  0
DIMENSION
  5
7ff
100
AcDbEntity
  8
0
  6
CONTINUOUS
 62
     7
100
AcDbDimension
  2
*D16
 70
     0
 10
347.4175109863281
 20
9.173545837402344
 11
297.4175109863281
 21
9.173545837402344
  3
DIMSTYLE
100
AcDbAlignedDimension
 13
247.4175109863281
 23
58.280029296875
 14
347.4175109863281
 24
58.280029296875
 50
0
100
AcDbRotatedDimension
1001
ACAD
1000
DSTYLE
1002
{
1070
     6
1000
_OPEN30
1070
     7
1000
_OPEN30
1070
    77
1070
     1
1070
   172
1070
     1
1070
    42
1040
0
1002
}
  0
LINE
  5
800
100
AcDbEntity
  8
0
  6
CONTINUOUS
 62
     7
100
AcDbLine
 10
259.7955237234046
 20
143.2400486410893
 11
268.1315209588396
 21
167.2061015450045
  0
LINE
  5
801
100
AcDbEntity
  8
0
  6
CONTINUOUS
 62
     7
100
AcDbLine
 10
259.7955237234046
 20
143.2400486410893
 11
260.2923265579475
 21
146.3790635566655
  0
LINE
  5
802
100
AcDbEntity
  8
0
  6
CONTINUOUS
 62
     7
100
AcDbLine
 10
259.7955237234046
 20
143.2400486410893
 11
261.3539412324192
 21
146.009807216167
  0
MTEXT
  5
803
100
AcDbEntity
  8
0
  6
CONTINUOUS
 62
     7
100
AcDbMText
 10
275.7987726742515
 20
167.2061149119751
 40
6
 41
240
 71
     4
 72
     1
  1
{\W0.844473;４－Ｍ１２ｘ１．７５}
  0
LINE
  5
804
100
AcDbEntity
  8
0
  6
CONTINUOUS
 62
     7
100
AcDbLine
 10
259.7955237234046
 20
143.2400486410893
 11
268.1315209588396
 21
167.2061015450045
  0
LINE
  5
805
100
AcDbEntity
  8
0
  6
CONTINUOUS
 62
     7
100
AcDbLine
 10
268.1315209588396
 20
167.2061015450045
 11
274.0842646176109
 21
167.2061015450045
  0
LINE
  5
806
100
AcDbEntity
  8
0
  6
CONTINUOUS
 62
     7
100
AcDbLine
 10
-212.0482206856282
 20
142.7942230023965
 11
-223.9291349057788
 21
166.1290800795089
  0
LINE
  5
807
100
AcDbEntity
  8
0
  6
CONTINUOUS
 62
     7
100
AcDbLine
 10
-212.0482206856282
 20
142.7942230023965
 11
-213.968291288477
 21
145.3267230668971
  0
LINE
  5
808
100
AcDbEntity
  8
0
  6
CONTINUOUS
 62
     7
100
AcDbLine
 10
-212.0482206856282
 20
142.7942230023965
 11
-212.9666474022451
 21
145.836708838489
  0
MTEXT
  5
809
100
AcDbEntity
  8
0
  6
CONTINUOUS
 62
     7
100
AcDbMText
 10
-229.2072906494141
 20
166.1290893554688
 40
6
 41
240
 71
     6
 72
     1
  1
{\W0.844473;４－Ｍ１２ｘ１．７５}
  0
LINE
  5
80a
100
AcDbEntity
  8
0
  6
CONTINUOUS
 62
     7
100
AcDbLine
 10
-212.0482206856282
 20
142.7942230023965
 11
-223.9291349057788
 21
166.1290800795089
  0
LINE
  5
80b
100
AcDbEntity
  8
0
  6
CONTINUOUS
 62
     7
100
AcDbLine
 10
-223.9291381835938
 20
166.1290893554688
 11
-227.4927978515625
 21
166.1290893554688
  0
DIMENSION
  5
80c
100
AcDbEntity
  8
0
  6
CONTINUOUS
 62
     7
100
AcDbDimension
  2
*D17
 70
     0
 10
-53.58401489257813
 20
-230.9563903808594
 11
-53.58401489257813
 21
-248.9563903808594
  3
DIMSTYLE
100
AcDbAlignedDimension
 13
-90.81535339355469
 23
-266.9563903808594
 14
-90.81535339355469
 24
-230.9563903808594
 50
90
100
AcDbRotatedDimension
1001
ACAD
1000
DSTYLE
1002
{
1070
     6
1000
_OPEN30
1070
     7
1000
_OPEN30
1070
    77
1070
     1
1070
   172
1070
     1
1070
    42
1040
0
1002
}
  0
DIMENSION
  5
80d
100
AcDbEntity
  8
0
  6
CONTINUOUS
 62
     7
100
AcDbDimension
  2
*D18
 70
     0
 10
-188.3153686523438
 20
-291.5811947541414
 11
-143.8153686523438
 21
-291.5811947541414
  3
DIMSTYLE
100
AcDbAlignedDimension
 13
-99.31536865234375
 23
-270.6380310058594
 14
-188.3153686523438
 24
-259.9563903808594
 50
0
100
AcDbRotatedDimension
1001
ACAD
1000
DSTYLE
1002
{
1070
     6
1000
_OPEN30
1070
     7
1000
_OPEN30
1070
    77
1070
     1
1070
   172
1070
     1
1070
    42
1040
0
1002
}
  0
DIMENSION
  5
80e
100
AcDbEntity
  8
0
  6
CONTINUOUS
 62
     7
100
AcDbDimension
  2
*D19
 70
     0
 10
-170.3153381347656
 20
-420.3521728515625
 11
-125.3153533935547
 21
-420.3521728515625
  3
DIMSTYLE
100
AcDbAlignedDimension
 13
-80.31536865234375
 23
-374.605712890625
 14
-170.3153381347656
 24
-377.105712890625
 50
0
100
AcDbRotatedDimension
1001
ACAD
1000
DSTYLE
1002
{
1070
     6
1000
_OPEN30
1070
     7
1000
_OPEN30
1070
    77
1070
     1
1070
   172
1070
     1
1070
    42
1040
0
1002
}
  0
DIMENSION
  5
80f
100
AcDbEntity
  8
0
  6
CONTINUOUS
 62
     7
100
AcDbDimension
  2
*D20
 70
     0
 10
-53.58401489257813
 20
-346.605712890625
 11
-53.58401489257813
 21
-360.605712890625
  3
DIMSTYLE
100
AcDbAlignedDimension
 13
-80.31535339355469
 23
-374.605712890625
 14
-80.31535339355469
 24
-346.605712890625
 50
90
100
AcDbRotatedDimension
1001
ACAD
1000
DSTYLE
1002
{
1070
     6
1000
_OPEN30
1070
     7
1000
_OPEN30
1070
    77
1070
     1
1070
   172
1070
     1
1070
    42
1040
0
1002
}
  0
LINE
  5
810
100
AcDbEntity
  8
0
  6
CONTINUOUS
 62
     7
100
AcDbLine
 10
206.5323883403539
 20
-240.7083483449258
 11
220.9587849367923
 21
-217.0932324680933
  0
LINE
  5
811
100
AcDbEntity
  8
0
  6
CONTINUOUS
 62
     7
100
AcDbLine
 10
206.5323883403539
 20
-240.7083483449258
 11
207.6834771073501
 21
-237.7460481664978
  0
LINE
  5
812
100
AcDbEntity
  8
0
  6
CONTINUOUS
 62
     7
100
AcDbLine
 10
206.5323883403539
 20
-240.7083483449258
 11
208.6426573646555
 21
-238.3320082300238
  0
MTEXT
  5
813
100
AcDbEntity
  8
0
  6
CONTINUOUS
 62
     7
100
AcDbMText
 10
230.1311159041144
 20
-217.0932309369769
 40
6
 41
252
 71
     4
 72
     1
  1
{\W0.845552;\U+2205１８Ｈ１０ｄ９}
  0
LINE
  5
814
100
AcDbEntity
  8
0
  6
CONTINUOUS
 62
     7
100
AcDbLine
 10
206.5323883403539
 20
-240.7083483449258
 11
220.9587849367923
 21
-217.0932324680933
  0
LINE
  5
815
100
AcDbEntity
  8
0
  6
CONTINUOUS
 62
     7
100
AcDbLine
 10
220.9587849367923
 20
-217.0932324680933
 11
228.4166231062629
 21
-217.0932324680933
  0
LINE
  5
816
100
AcDbEntity
  8
0
  6
CONTINUOUS
 62
     7
100
AcDbLine
 10
-96.01150514891958
 20
-257.3422572388037
 11
-84.31120258659819
 21
-285.8353618359689
  0
LINE
  5
817
100
AcDbEntity
  8
0
  6
CONTINUOUS
 62
     7
100
AcDbLine
 10
-96.01150514891958
 20
-257.3422572388037
 11
-94.3034367404004
 21
-260.022318806835
  0
LINE
  5
818
100
AcDbEntity
  8
0
  6
CONTINUOUS
 62
     7
100
AcDbLine
 10
-96.01150514891958
 20
-257.3422572388037
 11
-95.34318750069591
 21
-260.4492781942677
  0
MTEXT
  5
819
100
AcDbEntity
  8
0
  6
CONTINUOUS
 62
     7
100
AcDbMText
 10
-75.13889818886908
 20
-285.8353633005596
 40
6
 41
204
 71
     4
 72
     1
  1
{\W0.847392;\U+2205１８Ｈ１０}
  0
LINE
  5
81a
100
AcDbEntity
  8
0
  6
CONTINUOUS
 62
     7
100
AcDbLine
 10
-96.01150514891958
 20
-257.3422572388037
 11
-84.31120258659819
 21
-285.8353618359689
  0
LINE
  5
81b
100
AcDbEntity
  8
0
  6
CONTINUOUS
 62
     7
100
AcDbLine
 10
-84.31120258659819
 20
-285.8353618359689
 11
-76.85339861611517
 21
-285.8353618359689
  0
DIMENSION
  5
81c
100
AcDbEntity
  8
0
  6
CONTINUOUS
 62
     7
100
AcDbDimension
  2
*D21
 70
     0
 10
131.9297790527344
 20
-290.4751586914063
 11
167.4297790527344
 21
-290.4751586914063
  3
DIMSTYLE
100
AcDbAlignedDimension
 13
202.9297637939453
 23
-272.9563903808594
 14
131.9297790527344
 24
-265.4563903808594
 50
0
100
AcDbRotatedDimension
1001
ACAD
1000
DSTYLE
1002
{
1070
     6
1000
_OPEN30
1070
     7
1000
_OPEN30
1070
    77
1070
     1
1070
   172
1070
     1
1070
    42
1040
0
1002
}
  0
DIMENSION
  5
81d
100
AcDbEntity
  8
0
  6
CONTINUOUS
 62
     7
100
AcDbDimension
  2
*D22
 70
     0
 10
118.9297790527344
 20
-290.4751586914063
 11
125.4297790527344
 21
-290.4751586914063
  3
DIMSTYLE
100
AcDbAlignedDimension
 13
131.9297790527344
 23
-265.4563903808594
 14
118.9297790527344
 24
-262.8499450683594
 50
0
100
AcDbRotatedDimension
1001
ACAD
1000
DSTYLE
1002
{
1070
     6
1000
_OPEN30
1070
     7
1000
_OPEN30
1070
    77
1070
     1
1070
   172
1070
     1
1070
    75
1070
     1
1002
}
  0
DIMENSION
  5
81e
100
AcDbEntity
  8
0
  6
CONTINUOUS
 62
     7
100
AcDbDimension
  2
*D23
 70
     0
 10
113.9297637939453
 20
-305.0262756347656
 11
158.4297637939453
 21
-305.0262756347656
  3
DIMSTYLE
100
AcDbAlignedDimension
 13
202.9297637939453
 23
-272.9563903808594
 14
113.9297637939453
 24
-259.9563903808594
 50
0
100
AcDbRotatedDimension
1001
ACAD
1000
DSTYLE
1002
{
1070
     6
1000
_OPEN30
1070
     7
1000
_OPEN30
1070
    77
1070
     1
1070
   172
1070
     1
1070
    42
1040
0
1002
}
  0
DIMENSION
  5
81f
100
AcDbEntity
  8
0
  6
CONTINUOUS
 62
     7
100
AcDbDimension
  2
*D24
 70
     0
 10
170.9297637939453
 20
-419.7481689453125
 11
186.9297637939453
 21
-419.7481689453125
  3
DIMSTYLE
100
AcDbAlignedDimension
 13
202.9297637939453
 23
-402.4894104003906
 14
170.9297637939453
 24
-374.605712890625
 50
0
100
AcDbRotatedDimension
1001
ACAD
1000
DSTYLE
1002
{
1070
     6
1000
_OPEN30
1070
     7
1000
_OPEN30
1070
    77
1070
     1
1070
   172
1070
     1
1070
    42
1040
0
1002
}
  0
DIMENSION
  5
820
100
AcDbEntity
  8
0
  6
CONTINUOUS
 62
     7
100
AcDbDimension
  2
*D25
 70
     0
 10
248.9530944824219
 20
-346.605712890625
 11
248.9530944824219
 21
-360.605712890625
  3
DIMSTYLE
100
AcDbAlignedDimension
 13
221.9297637939453
 23
-374.605712890625
 14
221.9297637939453
 24
-346.605712890625
 50
90
100
AcDbRotatedDimension
1001
ACAD
1000
DSTYLE
1002
{
1070
     6
1000
_OPEN30
1070
     7
1000
_OPEN30
1070
    77
1070
     1
1070
   172
1070
     1
1070
    42
1040
0
1002
}
  0
DIMENSION
  5
821
100
AcDbEntity
  8
0
  6
CONTINUOUS
 62
     7
100
AcDbDimension
  2
*D26
 70
     4
 11
228.3136596679688
 21
-276.7564392089844
 10
202.9297843010926
 20
-248.9563969486705
  3
DIMSTYLE
100
AcDbRadialDimension
 15
215.7412360480443
 25
-262.9873165242196
1001
ACAD
1000
DSTYLE
1002
{
1070
     6
1000
_OPEN30
1070
     7
1000
_OPEN30
1070
    77
1070
     1
1070
   172
1070
     1
1002
}
  0
DIMENSION
  5
822
100
AcDbEntity
  8
0
  6
CONTINUOUS
 62
     7
100
AcDbDimension
  2
*D27
 70
     0
 10
465.0358276367188
 20
127.1763610839844
 11
465.0358276367188
 21
138.72900390625
 52
60.00003486589267
  3
DIMSTYLE
100
AcDbAlignedDimension
 13
472.6503921039467
 23
77.78003927674888
 14
472.6503993728595
 24
122.7800922205635
 50
90
100
AcDbRotatedDimension
1001
ACAD
1000
DSTYLE
1002
{
1070
     6
1000
_OPEN30
1070
     7
1000
_OPEN30
1070
    77
1070
     1
1070
   172
1070
     1
1070
    42
1040
0
1002
}
  0
DIMENSION
  5
823
100
AcDbEntity
  8
0
  6
CONTINUOUS
 62
     7
100
AcDbDimension
  2
*D28
 70
     0
 10
-127.8153686523438
 20
9.173545837402344
 11
-135.7885589599609
 21
9.173545837402344
  3
DIMSTYLE
100
AcDbAlignedDimension
 13
-123.8153686523438
 23
50.78003692626953
 14
-127.8153686523438
 24
78.780029296875
 50
0
100
AcDbRotatedDimension
1001
ACAD
1000
DSTYLE
1002
{
1070
     6
1000
_OPEN30
1070
     7
1000
_OPEN30
1070
    77
1070
     1
1070
   172
1070
     1
1070
    75
1070
     1
1002
}
  0
LINE
  5
824
100
AcDbEntity
  8
0
  6
CONTINUOUS
 62
     7
100
AcDbLine
 10
146.0212771732764
 20
96.56869675030444
 11
175.6899681939618
 21
65.84040962173741
  0
LINE
  5
825
100
AcDbEntity
  8
0
  6
CONTINUOUS
 62
     7
100
AcDbLine
 10
146.0212771732764
 20
96.56869675030444
 11
148.8244621328929
 21
95.10508690413303
  0
LINE
  5
826
100
AcDbEntity
  8
0
  6
CONTINUOUS
 62
     7
100
AcDbLine
 10
146.0212771732764
 20
96.56869675030444
 11
147.3856592332668
 21
93.7158978975974
  0
MTEXT
  5
827
100
AcDbEntity
  8
0
  6
CONTINUOUS
 62
     7
100
AcDbMText
 10
181.6943461386243
 20
65.84040962173738
 40
6
 41
120
 71
     4
 72
     1
  1
{\W0.848905;二面幅３２}
  0
LINE
  5
828
100
AcDbEntity
  8
0
  6
CONTINUOUS
 62
     7
100
AcDbLine
 10
146.0212771732764
 20
96.56869675030444
 11
175.6899681939618
 21
65.84040962173741
  0
LINE
  5
829
100
AcDbEntity
  8
0
  6
CONTINUOUS
 62
     7
100
AcDbLine
 10
175.6899681939618
 20
65.84040962173739
 11
180.5513461319486
 21
65.84040962173738
  0
DIMENSION
  5
82a
100
AcDbEntity
  8
0
  6
CONTINUOUS
 62
     7
100
AcDbDimension
  2
*D29
 70
     4
 11
-74.17943179987539
 21
-219.777699286031
 10
-99.31536865234372
 20
-248.9563903808593
  3
DIMSTYLE
100
AcDbRadialDimension
 15
-85.60930155912506
 25
-233.0458993502158
1001
ACAD
1000
DSTYLE
1002
{
1070
    77
1070
     1
1070
   172
1070
     1
1002
}
  0
DIMENSION
  5
82b
100
AcDbEntity
  8
0
  6
CONTINUOUS
 62
     7
100
AcDbDimension
  2
*D30
 70
     0
 10
-99.31536865234375
 20
-395.9613347578529
 11
-115.3153686523438
 21
-395.9613347578529
  3
DIMSTYLE
100
AcDbAlignedDimension
 13
-131.3153686523438
 23
-378.605712890625
 14
-99.31536865234375
 24
-374.605712890625
 50
0
100
AcDbRotatedDimension
1001
ACAD
1000
DSTYLE
1002
{
1070
    77
1070
     1
1070
   172
1070
     1
1070
    42
1040
0
1002
}
  0
DIMENSION
  5
82c
100
AcDbEntity
  8
0
  6
CONTINUOUS
 62
     7
100
AcDbDimension
  2
*D31
 70
     0
 10
-99.31536865234375
 20
-408.680936863581
 11
-134.8153533935547
 21
-408.680936863581
  3
DIMSTYLE
100
AcDbAlignedDimension
 13
-170.3153381347656
 23
-376.605712890625
 14
-99.31536865234375
 24
-374.605712890625
 50
0
100
AcDbRotatedDimension
1001
ACAD
1000
DSTYLE
1002
{
1070
    77
1070
     1
1070
   172
1070
     1
1070
    42
1040
0
1002
}
  0
DIMENSION
  5
82d
100
AcDbEntity
  8
0
  6
CONTINUOUS
 62
     7
100
AcDbDimension
  2
*D32
 70
     0
 10
-80.31536865234375
 20
-408.680936863581
 11
-89.81536865234375
 21
-408.680936863581
  3
DIMSTYLE
100
AcDbAlignedDimension
 13
-99.31536865234375
 23
-374.605712890625
 14
-80.31536865234375
 24
-374.605712890625
 50
0
100
AcDbRotatedDimension
1001
ACAD
1000
DSTYLE
1002
{
1070
    77
1070
     1
1070
   172
1070
     1
1070
    75
1070
     1
1002
}
  0
DIMENSION
  5
82e
100
AcDbEntity
  8
0
  6
CONTINUOUS
 62
     7
100
AcDbDimension
  2
*D33
 70
     0
 10
-183.3153381347656
 20
-408.680936863581
 11
-176.8153381347656
 21
-408.680936863581
  3
DIMSTYLE
100
AcDbAlignedDimension
 13
-170.3153381347656
 23
-376.605712890625
 14
-183.3153381347656
 24
-376.605712890625
 50
0
100
AcDbRotatedDimension
1001
ACAD
1000
DSTYLE
1002
{
1070
    77
1070
     1
1070
   172
1070
     1
1070
    75
1070
     1
1002
}
  0
DIMENSION
  5
82f
100
AcDbEntity
  8
0
  6
CONTINUOUS
 62
     7
100
AcDbDimension
  2
*D34
 70
     0
 10
145.2374663537475
 20
-230.9564056396484
 11
145.2374663537475
 21
-218.3506852976481
  3
DIMSTYLE
100
AcDbAlignedDimension
 13
133.4297790527344
 23
-266.9563903808594
 14
133.4297790527344
 24
-230.9564056396484
 50
90
100
AcDbRotatedDimension
1001
ACAD
1000
DSTYLE
1002
{
1070
    77
1070
     1
1070
   172
1070
     1
1070
    42
1040
0
1002
}
  0
DIMENSION
  5
830
100
AcDbEntity
  8
0
  6
CONTINUOUS
 62
     7
100
AcDbDimension
  2
*D35
 70
     0
 10
261.8736771939284
 20
-333.105712890625
 11
261.8736771939284
 21
-360.605712890625
  3
DIMSTYLE
100
AcDbAlignedDimension
 13
219.4297790527344
 23
-388.105712890625
 14
219.4297637939453
 24
-333.105712890625
 50
90
100
AcDbRotatedDimension
1001
ACAD
1000
DSTYLE
1002
{
1070
    77
1070
     1
1070
   172
1070
     1
1070
    42
1040
0
1002
}
  0
DIMENSION
  5
831
100
AcDbEntity
  8
0
  6
CONTINUOUS
 62
     7
100
AcDbDimension
  2
*D36
 70
     0
 10
276.3241811918269
 20
-321.6056823730469
 11
276.3241811918269
 21
-360.6056823730469
  3
DIMSTYLE
100
AcDbAlignedDimension
 13
210.7297515869141
 23
-399.6056823730469
 14
210.7297515869141
 24
-321.6056823730469
 50
90
100
AcDbRotatedDimension
1001
ACAD
1000
DSTYLE
1002
{
1070
    77
1070
     1
1070
   172
1070
     1
1070
    42
1040
0
1002
}
  0
ENDSEC
  0
SECTION
  2
OBJECTS
  0
DICTIONARY
  5
832
100
AcDbDictionary
  3
ACAD_GROUP
350
833
  3
ACAD_MLINESTYLE
350
834
  0
DICTIONARY
  5
833
102
{ACAD_REACTORS
330
832
102
}
100
AcDbDictionary
  0
DICTIONARY
  5
834
102
{ACAD_REACTORS
330
832
102
}
100
AcDbDictionary
  3
STANDARD
350
835
  0
MLINESTYLE
  5
835
102
{ACAD_REACTORS
330
834
102
}
100
AcDbMlineStyle
  2
STANDARD
 70
     0
  3

 62
     0
 51
90
 52
90
 71
     2
 49
0.5
 62
   256
  6
BYLAYER
 49
-0.5
 62
   256
  6
BYLAYER
  0
ENDSEC
  0
EOF
