  0
SECTION
  2
HEADER
  9
$ACADVER
  1
AC1015
  9
$EXTMAX
 10
700.3443603515625
 20
271.415283203125
 30
0
  9
$EXTMIN
 10
-373.980712890625
 20
-515.0347290039063
 30
0
  9
$LIMMAX
 10
700.3443603515625
 20
271.415283203125
  9
$LIMMIN
 10
-373.980712890625
 20
-515.0347290039063
  9
$PLIMMAX
 10
700.3443603515625
 20
271.415283203125
  9
$PLIMMIN
 10
-373.980712890625
 20
-515.0347290039063
  9
$TEXTSIZE
 40
3.2
  9
$DIMSHO
 70
     0
  9
$DIMASZ
 40
1.0
  9
$DIMTAD
 70
     1
  9
$DIMTIH
 70
     0
  9
$DIMTOH
 70
     0
  9
$DIMEXE
 40
2.54
  9
$DIMEXO
 40
2.54
  9
$DIMTVP
 40
1.0
  9
$DIMSAH
 70
     1
  9
$DIMDLE
 40
0.0
  9
$DIMTXT
 40
4
  9
$DIMGAP
 40
2
  9
$DIMAUNIT
 70
     1
  9
$DIMDEC
 70
     1
  9
$HANDSEED
  5
     823
  9
$MEASUREMENT
 70
     1
  0
ENDSEC
  0
SECTION
  2
TABLES
  0
TABLE
  2
LTYPE
  5
25
100
AcDbSymbolTable
 70
    48
  0
LTYPE
  5
26
100
AcDbSymbolTableRecord
100
AcDbLinetypeTableRecord
  2
BYBLOCK
 70
    64
  3

 72
    65
 73
     0
 40
0.0
  0
LTYPE
  5
27
100
AcDbSymbolTableRecord
100
AcDbLinetypeTableRecord
  2
BYLAYER
 70
    64
  3

 72
    65
 73
     0
 40
0.0
  0
LTYPE
  5
28
100
AcDbSymbolTableRecord
100
AcDbLinetypeTableRecord
  2
CONTINUOUS
 70
    64
  3
Solid line
 72
    65
 73
     0
 40
0.0
  0
LTYPE
  5
29
100
AcDbSymbolTableRecord
100
AcDbLinetypeTableRecord
  2
DASHED
 70
    64
  3
Dashed __ __ __ __ __ __ __ __ __ __ __ __ __ _
 72
    65
 73
     2
 40
4.5
 49
3.0
 74
     0
 49
-1.5
 74
     0
  0
LTYPE
  5
2a
100
AcDbSymbolTableRecord
100
AcDbLinetypeTableRecord
  2
CENTER
 70
    64
  3
Center ____ _ ____ _ ____ _ ____ _ ____ _ ____
 72
    65
 73
     4
 74
     0
 40
12.0
 49
7.5
 74
     0
 49
-1.5
 74
     0
 49
1.5
 74
     0
 49
-1.5
 74
     0
  0
LTYPE
  5
2b
100
AcDbSymbolTableRecord
100
AcDbLinetypeTableRecord
  2
PHANTOM
 70
    64
  3
Phantom ______  __  __  ______  __  __  ______
 72
    65
 73
     6
 74
     0
 40
15.0
 49
7.5
 74
     0
 49
-1.5
 74
     0
 49
1.5
 74
     0
 49
-1.5
 74
     0
 49
1.5
 74
     0
 49
-1.5
 74
     0
  0
LTYPE
  5
2c
100
AcDbSymbolTableRecord
100
AcDbLinetypeTableRecord
  2
DOT
 70
    64
  3
Dot . . . . . . . . . . . . . . . . . . . . . .
 72
    65
 73
     2
 74
     0
 40
1.5
 49
0.0
 74
     0
 49
-1.5
 74
     0
  0
LTYPE
  5
2d
100
AcDbSymbolTableRecord
100
AcDbLinetypeTableRecord
  2
HIDDEN
 70
    64
  3
Hidden __ __ __ __ __ __ __ __ __ __ __ __ __ _
 72
    65
 73
     2
 74
     0
 40
4.5
 49
3.0
 74
     0
 49
-1.5
 74
     0
  0
LTYPE
  5
2e
100
AcDbSymbolTableRecord
100
AcDbLinetypeTableRecord
  2
BORDER
 70
    64
  3
Border __ __ . __ __ . __ __ . __ __ . __ __ .
 72
    65
 73
     6
 40
3.5
 49
1.0
 74
     0
 49
-0.5
 74
     0
 49
1.0
 74
     0
 49
-0.5
 74
     0
 49
0.0
 74
     0
 49
-0.5
 74
     0
  0
LTYPE
  5
2f
100
AcDbSymbolTableRecord
100
AcDbLinetypeTableRecord
  2
BORDER2
 70
    64
  3
Border (.5x) __.__.__.__.__.__.__.__.__.__.__.
 72
    65
 73
     6
 40
1.75
 49
0.5
 74
     0
 49
-0.25
 74
     0
 49
0.5
 74
     0
 49
-0.25
 74
     0
 49
0.0
 74
     0
 49
-0.25
 74
     0
  0
LTYPE
  5
30
100
AcDbSymbolTableRecord
100
AcDbLinetypeTableRecord
  2
BORDERX2
 70
    64
  3
Border (2x) ____  ____  .  ____  ____  .  ___
 72
    65
 73
     6
 40
7.0
 49
2.0
 74
     0
 49
-1.0
 74
     0
 49
2.0
 74
     0
 49
-1.0
 74
     0
 49
0.0
 74
     0
 49
-1.0
 74
     0
  0
LTYPE
  5
31
100
AcDbSymbolTableRecord
100
AcDbLinetypeTableRecord
  2
CENTER2
 70
    64
  3
Center (.5x) ___ _ ___ _ ___ _ ___ _ ___ _ ___
 72
    65
 73
     4
 40
6.0
 49
3.75
 74
     0
 49
-0.75
 74
     0
 49
0.75
 74
     0
 49
-0.75
 74
     0
  0
LTYPE
  5
32
100
AcDbSymbolTableRecord
100
AcDbLinetypeTableRecord
  2
CENTERX2
 70
    64
  3
Center (2x) ________  __  ________  __  _____
 72
    65
 73
     4
 40
24.0
 49
15.0
 74
     0
 49
-3.0
 74
     0
 49
3.0
 74
     0
 49
-3.0
 74
     0
  0
LTYPE
  5
33
100
AcDbSymbolTableRecord
100
AcDbLinetypeTableRecord
  2
DASHDOT
 70
    64
  3
Dash dot __ . __ . __ . __ . __ . __ . __ . __
 72
    65
 73
     4
 40
6.0
 49
3.0
 74
     0
 49
-1.5
 74
     0
 49
0.0
 74
     0
 49
-1.5
 74
     0
  0
LTYPE
  5
34
100
AcDbSymbolTableRecord
100
AcDbLinetypeTableRecord
  2
DASHDOT2
 70
    64
  3
Dash dot (.5x) _._._._._._._._._._._._._._._.
 72
    65
 73
     4
 40
3.0
 49
1.5
 74
     0
 49
-0.75
 74
     0
 49
0.0
 74
     0
 49
-0.75
 74
     0
  0
LTYPE
  5
35
100
AcDbSymbolTableRecord
100
AcDbLinetypeTableRecord
  2
DASHDOTX2
 70
    64
  3
Dash dot (2x) ____  .  ____  .  ____  .  ___
 72
    65
 73
     4
 40
12.0
 49
6.0
 74
     0
 49
-3.0
 74
     0
 49
0.0
 74
     0
 49
-3.0
 74
     0
  0
LTYPE
  5
36
100
AcDbSymbolTableRecord
100
AcDbLinetypeTableRecord
  2
DASHED2
 70
    64
  3
Dashed (.5x) _ _ _ _ _ _ _ _ _ _ _ _ _ _ _ _ _
 72
    65
 73
     2
 40
2.25
 49
1.5
 74
     0
 49
-0.75
 74
     0
  0
LTYPE
  5
37
100
AcDbSymbolTableRecord
100
AcDbLinetypeTableRecord
  2
DASHEDX2
 70
    64
  3
Dashed (2x) ____  ____  ____  ____  ____  ___
 72
    65
 73
     2
 40
9.0
 49
6.0
 74
     0
 49
-3.0
 74
     0
  0
LTYPE
  5
38
100
AcDbSymbolTableRecord
100
AcDbLinetypeTableRecord
  2
DIVIDE
 70
    64
  3
Divide ____ . . ____ . . ____ . . ____ . . ____
 72
    65
 73
     6
 40
7.5
 49
3.0
 74
     0
 49
-1.5
 74
     0
 49
0.0
 74
     0
 49
-1.5
 74
     0
 49
0.0
 74
     0
 49
-1.5
 74
     0
  0
LTYPE
  5
39
100
AcDbSymbolTableRecord
100
AcDbLinetypeTableRecord
  2
DIVIDE2
 70
    64
  3
Divide (.5x) __..__..__..__..__..__..__..__.._
 72
    65
 73
     6
 40
3.75
 49
1.5
 74
     0
 49
-0.75
 74
     0
 49
0.0
 74
     0
 49
-0.75
 74
     0
 49
0.0
 74
     0
 49
-0.75
 74
     0
  0
LTYPE
  5
3a
100
AcDbSymbolTableRecord
100
AcDbLinetypeTableRecord
  2
DIVIDEX2
 70
    64
  3
Divide (2x) ________  .  .  ________  .  .  _
 72
    65
 73
     6
 40
15.0
 49
6.0
 74
     0
 49
-3.0
 74
     0
 49
0.0
 74
     0
 49
-3.0
 74
     0
 49
0.0
 74
     0
 49
-3.0
 74
     0
  0
LTYPE
  5
3b
100
AcDbSymbolTableRecord
100
AcDbLinetypeTableRecord
  2
DOT2
 70
    64
  3
Dot (.5x) .....................................
 72
    65
 73
     2
 40
0.75
 49
0.0
 74
     0
 49
-0.75
 74
     0
  0
LTYPE
  5
3c
100
AcDbSymbolTableRecord
100
AcDbLinetypeTableRecord
  2
DOTX2
 70
    64
  3
Dot (2x) .  .  .  .  .  .  .  .  .  .  .  .  . 
 72
    65
 73
     2
 40
3.0
 49
0.0
 74
     0
 49
-3.0
 74
     0
  0
LTYPE
  5
3d
100
AcDbSymbolTableRecord
100
AcDbLinetypeTableRecord
  2
HIDDEN2
 70
    64
  3
Hidden (.5x) _ _ _ _ _ _ _ _ _ _ _ _ _ _ _ _ _
 72
    65
 73
     2
 40
2.25
 49
1.5
 74
     0
 49
-0.75
 74
     0
  0
LTYPE
  5
3e
100
AcDbSymbolTableRecord
100
AcDbLinetypeTableRecord
  2
HIDDENX2
 70
    64
  3
Hidden (2x) ____ ____ ____ ____ ____ ____ ____
 72
    65
 73
     2
 40
9.0
 49
6.0
 74
     0
 49
-3.0
 74
     0
  0
LTYPE
  5
3f
100
AcDbSymbolTableRecord
100
AcDbLinetypeTableRecord
  2
PHANTOM2
 70
    64
  3
Phantom (.5x) ___ _ _ ___ _ _ ___ _ _ ___ _ _
 72
    65
 73
     6
 40
7.5
 49
3.75
 74
     0
 49
-0.75
 74
     0
 49
0.75
 74
     0
 49
-0.75
 74
     0
 49
0.75
 74
     0
 49
-0.75
 74
     0
  0
LTYPE
  5
40
100
AcDbSymbolTableRecord
100
AcDbLinetypeTableRecord
  2
PHANTOMX2
 70
    64
  3
Phantom (2x) ____________    ____    ____   _
 72
    65
 73
     6
 40
30.0
 49
15.0
 74
     0
 49
-3.0
 74
     0
 49
3.0
 74
     0
 49
-3.0
 74
     0
 49
3.0
 74
     0
 49
-3.0
 74
     0
  0
LTYPE
  5
41
100
AcDbSymbolTableRecord
100
AcDbLinetypeTableRecord
  2
ACAD_ISO02W100
 70
     0
  3
ISO dash __ __ __ __ __ __ __ __ __ __ __ __ __
 72
    65
 73
     2
 40
15.0
 49
12.0
 74
     0
 49
-3.0
 74
     0
  0
LTYPE
  5
42
100
AcDbSymbolTableRecord
100
AcDbLinetypeTableRecord
  2
ACAD_ISO03W100
 70
     0
  3
ISO dash space __    __    __    __    __    __
 72
    65
 73
     2
 40
30.0
 49
12.0
 74
     0
 49
-18.0
 74
     0
  0
LTYPE
  5
43
100
AcDbSymbolTableRecord
100
AcDbLinetypeTableRecord
  2
ACAD_ISO04W100
 70
     0
  3
ISO long-dash dot ____ . ____ . ____ . ____ . _
 72
    65
 73
     4
 40
30.0
 49
24.0
 74
     0
 49
-3.0
 74
     0
 49
0.0
 74
     0
 49
-3.0
 74
     0
  0
LTYPE
  5
44
100
AcDbSymbolTableRecord
100
AcDbLinetypeTableRecord
  2
ACAD_ISO05W100
 70
     0
  3
ISO long-dash double-dot ____ .. ____ .. ____ .
 72
    65
 73
     6
 40
33.0
 49
24.0
 74
     0
 49
-3.0
 74
     0
 49
0.0
 74
     0
 49
-3.0
 74
     0
 49
0.0
 74
     0
 49
-3.0
 74
     0
  0
LTYPE
  5
45
100
AcDbSymbolTableRecord
100
AcDbLinetypeTableRecord
  2
ACAD_ISO06W100
 70
     0
  3
ISO long-dash triple-dot ____ ... ____ ... ____
 72
    65
 73
     8
 40
36.0
 49
24.0
 74
     0
 49
-3.0
 74
     0
 49
0.0
 74
     0
 49
-3.0
 74
     0
 49
0.0
 74
     0
 49
-3.0
 74
     0
 49
0.0
 74
     0
 49
-3.0
 74
     0
  0
LTYPE
  5
46
100
AcDbSymbolTableRecord
100
AcDbLinetypeTableRecord
  2
ACAD_ISO07W100
 70
     0
  3
ISO dot . . . . . . . . . . . . . . . . . . . .
 72
    65
 73
     2
 40
3.0
 49
0.0
 74
     0
 49
-3.0
 74
     0
  0
LTYPE
  5
47
100
AcDbSymbolTableRecord
100
AcDbLinetypeTableRecord
  2
ACAD_ISO08W100
 70
     0
  3
ISO long-dash short-dash ____ __ ____ __ ____ _
 72
    65
 73
     4
 40
36.0
 49
24.0
 74
     0
 49
-3.0
 74
     0
 49
6.0
 74
     0
 49
-3.0
 74
     0
  0
LTYPE
  5
48
100
AcDbSymbolTableRecord
100
AcDbLinetypeTableRecord
  2
ACAD_ISO09W100
 70
     0
  3
ISO long-dash double-short-dash ____ __ __ ____
 72
    65
 73
     6
 40
45.0
 49
24.0
 74
     0
 49
-3.0
 74
     0
 49
6.0
 74
     0
 49
-3.0
 74
     0
 49
6.0
 74
     0
 49
-3.0
 74
     0
  0
LTYPE
  5
49
100
AcDbSymbolTableRecord
100
AcDbLinetypeTableRecord
  2
ACAD_ISO10W100
 70
     0
  3
ISO dash dot __ . __ . __ . __ . __ . __ . __ .
 72
    65
 73
     4
 40
18.0
 49
12.0
 74
     0
 49
-3.0
 74
     0
 49
0.0
 74
     0
 49
-3.0
 74
     0
  0
LTYPE
  5
4a
100
AcDbSymbolTableRecord
100
AcDbLinetypeTableRecord
  2
ACAD_ISO11W100
 70
     0
  3
ISO double-dash dot __ __ . __ __ . __ __ . __ 
 72
    65
 73
     6
 40
33.0
 49
12.0
 74
     0
 49
-3.0
 74
     0
 49
12.0
 74
     0
 49
-3.0
 74
     0
 49
0.0
 74
     0
 49
-3.0
 74
     0
  0
LTYPE
  5
4b
100
AcDbSymbolTableRecord
100
AcDbLinetypeTableRecord
  2
ACAD_ISO12W100
 70
     0
  3
ISO dash double-dot __ . . __ . . __ . . __ . .
 72
    65
 73
     6
 40
21.0
 49
12.0
 74
     0
 49
-3.0
 74
     0
 49
0.0
 74
     0
 49
-3.0
 74
     0
 49
0.0
 74
     0
 49
-3.0
 74
     0
  0
LTYPE
  5
4c
100
AcDbSymbolTableRecord
100
AcDbLinetypeTableRecord
  2
ACAD_ISO13W100
 70
     0
  3
ISO double-dash double-dot __ __ . . __ __ . . 
 72
    65
 73
     8
 40
36.0
 49
12.0
 74
     0
 49
-3.0
 74
     0
 49
12.0
 74
     0
 49
-3.0
 74
     0
 49
0.0
 74
     0
 49
-3.0
 74
     0
 49
0.0
 74
     0
 49
-3.0
 74
     0
  0
LTYPE
  5
4d
100
AcDbSymbolTableRecord
100
AcDbLinetypeTableRecord
  2
ACAD_ISO14W100
 70
     0
  3
ISO dash triple-dot __ . . . __ . . . __ . . . 
 72
    65
 73
     8
 40
24.0
 49
12.0
 74
     0
 49
-3.0
 74
     0
 49
0.0
 74
     0
 49
-3.0
 74
     0
 49
0.0
 74
     0
 49
-3.0
 74
     0
 49
0.0
 74
     0
 49
-3.0
 74
     0
  0
LTYPE
  5
4e
100
AcDbSymbolTableRecord
100
AcDbLinetypeTableRecord
  2
ACAD_ISO15W100
 70
     0
  3
ISO double-dash triple-dot __ __ . . . __ __ . 
 72
    65
 73
    10
 40
39.0
 49
12.0
 74
     0
 49
-3.0
 74
     0
 49
12.0
 74
     0
 49
-3.0
 74
     0
 49
0.0
 74
     0
 49
-3.0
 74
     0
 49
0.0
 74
     0
 49
-3.0
 74
     0
 49
0.0
 74
     0
 49
-3.0
 74
     0
  0
LTYPE
  5
4f
100
AcDbSymbolTableRecord
100
AcDbLinetypeTableRecord
  2
FENCELINE1
 70
     0
  3
Fenceline circle ----0-----0----0-----0----0---
 72
    65
 73
     4
 40
1.45
 49
0.25
 74
     0
 49
-0.1
 74
     4
 75
   133
340
24
 46
0.1
 50
0.0
 44
-0.1
 45
0.0
 49
-0.1
 74
     0
 49
1.0
 74
     0
  0
LTYPE
  5
50
100
AcDbSymbolTableRecord
100
AcDbLinetypeTableRecord
  2
FENCELINE2
 70
     0
  3
Fenceline square ----[]-----[]----[]-----[]----
 72
    65
 73
     4
 40
1.45
 49
0.25
 74
     0
 49
-0.1
 74
     4
 75
   132
340
24
 46
0.1
 50
0.0
 44
-0.1
 45
0.0
 49
-0.1
 74
     0
 49
1.0
 74
     0
  0
LTYPE
  5
51
100
AcDbSymbolTableRecord
100
AcDbLinetypeTableRecord
  2
TRACKS
 70
     0
  3
Tracks -|-|-|-|-|-|-|-|-|-|-|-|-|-|-|-|-|-|-|-|
 72
    65
 73
     2
 40
0.3
 49
0.15
 74
     4
 75
   130
340
24
 46
0.25
 50
0.0
 44
0.0
 45
0.0
 49
0.15
 74
     0
  0
LTYPE
  5
52
100
AcDbSymbolTableRecord
100
AcDbLinetypeTableRecord
  2
BATTING
 70
     0
  3
Batting SSSSSSSSSSSSSSSSSSSSSSSSSSSSSSSSSSSSSSS
 72
    65
 73
     4
 40
0.4001000000000002
 49
0.0001
 74
     0
 49
-0.1
 74
     4
 75
   134
340
24
 46
0.1
 50
0.0
 44
-0.1
 45
0.0
 49
-0.2
 74
     4
 75
   134
340
24
 46
0.1
 50
180.0
 44
0.1
 45
0.0
 49
-0.1
 74
     0
  0
LTYPE
  5
53
100
AcDbSymbolTableRecord
100
AcDbLinetypeTableRecord
  2
HOT_WATER_SUPPLY
 70
     0
  3
Hot water supply ---- HW ---- HW ---- HW ----
 72
    65
 73
     3
 40
0.9
 49
0.5
 74
     0
 49
-0.2
 74
     2
 75
     1
340
23
 46
0.1
 50
0.0
 44
-0.1
 45
-0.05
  9
HW
 49
-0.2
 74
     0
  0
LTYPE
  5
54
100
AcDbSymbolTableRecord
100
AcDbLinetypeTableRecord
  2
GAS_LINE
 70
     0
  3
Gas line ----GAS----GAS----GAS----GAS----GAS---
 72
    65
 73
     3
 40
0.95
 49
0.5
 74
     0
 49
-0.2
 74
     2
 75
     1
340
23
 46
0.1
 50
0.0
 44
-0.1
 45
-0.05
  9
GAS
 49
-0.25
 74
     0
  0
LTYPE
  5
55
100
AcDbSymbolTableRecord
100
AcDbLinetypeTableRecord
  2
ZIGZAG
 70
     0
  3
Zig zag /\/\/\/\/\/\/\/\/\/\/\/\/\/\/\/\/\/\/\/
 72
    65
 73
     4
 40
0.8001000000000001
 49
0.0001
 74
     0
 49
-0.2
 74
     4
 75
   131
340
24
 46
0.2
 50
0.0
 44
-0.2
 45
0.0
 49
-0.4
 74
     4
 75
   131
340
24
 46
0.2
 50
180.0
 44
0.2
 45
0.0
 49
-0.2
 74
     0
  0
ENDTAB
  0
TABLE
  2
LAYER
  5
c8
100
AcDbSymbolTable
 70
     2
  0
LAYER
  5
c9
100
AcDbSymbolTableRecord
100
AcDbLayerTableRecord
  2
0
 70
     0
 62
     7
  6
CONTINUOUS
390
F
  0
LAYER
  5
ca
100
AcDbSymbolTableRecord
100
AcDbLayerTableRecord
  2
DEFPOINTS
 70
     0
 62
     7
  6
CONTINUOUS
290
0
390
F
  0
ENDTAB
  0
TABLE
  2
STYLE
  5
cb
100
AcDbSymbolTable
 70
     2
  0
STYLE
  5
      23
100
AcDbSymbolTableRecord
100
AcDbTextStyleTableRecord
  2
STANDARD
 70
     0
 40
0.0
 41
1.0
 50
0.0
 71
     0
 42
0.2
  3
txt
  4
BIGFONT
  0
STYLE
  5
24
100
AcDbSymbolTableRecord
100
AcDbTextStyleTableRecord
  2

 70
     1
 40
0.0
 41
1.0
 50
0.0
 71
     0
 42
0.2
  3
ltypeshp.shx
  4

  0
ENDTAB
  0
TABLE
  2
DIMSTYLE
  5
cc
100
AcDbSymbolTable
100
AcDbDimStyleTable
 70
     1
  0
DIMSTYLE
105
cd
100
AcDbSymbolTableRecord
100
AcDbDimStyleTableRecord
  2
DIMSTYLE
 70
     0
  3

  4

  5
_OPEN
  6
_OPEN
  7
_OPEN
 40
1
 41
1
 42
0.009999999776482582
 43
0.38
 44
2.54
 45
0
 46
0
 47
0
 48
0
140
4
141
0.09
142
0
143
25.4
144
1
145
0
146
1
147
2
 71
     0
 72
     0
 73
     0
 74
     0
 75
     0
 76
     0
 78
     0
170
     0
171
     2
 77
     0
172
     0
173
     1
174
     0
175
     0
176
     0
177
     0
178
     0
271
     1
275
     1
340
23
  0
ENDTAB
  0
TABLE
  2
APPID
  5
ce
100
AcDbSymbolTable
 70
     1
  0
APPID
  5
cf
100
AcDbSymbolTableRecord
100
AcDbRegAppTableRecord
  2
ACAD
 70
     0
  0
ENDTAB
  0
TABLE
  2
VIEW
  5
d0
100
AcDbSymbolTable
 70
     0
  0
ENDTAB
  0
TABLE
  2
UCS
  5
d1
100
AcDbSymbolTable
 70
     0
  0
ENDTAB
  0
TABLE
  2
BLOCK_RECORD
  5
d2
100
AcDbSymbolTable
 70
    55
  0
BLOCK_RECORD
  5
d3
100
AcDbSymbolTableRecord
100
AcDbBlockTableRecord
  2
*MODEL_SPACE
  0
BLOCK_RECORD
  5
d4
100
AcDbSymbolTableRecord
100
AcDbBlockTableRecord
  2
*PAPER_SPACE
  0
BLOCK_RECORD
  5
d5
100
AcDbSymbolTableRecord
100
AcDbBlockTableRecord
  2
_OPEN
  0
BLOCK_RECORD
  5
d6
100
AcDbSymbolTableRecord
100
AcDbBlockTableRecord
  2
_NONE
  0
BLOCK_RECORD
  5
d7
100
AcDbSymbolTableRecord
100
AcDbBlockTableRecord
  2
_OPEN30
  0
BLOCK_RECORD
  5
d8
100
AcDbSymbolTableRecord
100
AcDbBlockTableRecord
  2
KOZU0001
  0
BLOCK_RECORD
  5
d9
100
AcDbSymbolTableRecord
100
AcDbBlockTableRecord
  2
KOZU0002
  0
BLOCK_RECORD
  5
da
100
AcDbSymbolTableRecord
100
AcDbBlockTableRecord
  2
KOZU0003
  0
BLOCK_RECORD
  5
db
100
AcDbSymbolTableRecord
100
AcDbBlockTableRecord
  2
KOZU0004
  0
BLOCK_RECORD
  5
dc
100
AcDbSymbolTableRecord
100
AcDbBlockTableRecord
  2
KOZU0005
  0
BLOCK_RECORD
  5
dd
100
AcDbSymbolTableRecord
100
AcDbBlockTableRecord
  2
KOZU0006
  0
BLOCK_RECORD
  5
de
100
AcDbSymbolTableRecord
100
AcDbBlockTableRecord
  2
KOZU0007
  0
BLOCK_RECORD
  5
df
100
AcDbSymbolTableRecord
100
AcDbBlockTableRecord
  2
KOZU0008
  0
BLOCK_RECORD
  5
e0
100
AcDbSymbolTableRecord
100
AcDbBlockTableRecord
  2
KOZU0009
  0
BLOCK_RECORD
  5
e1
100
AcDbSymbolTableRecord
100
AcDbBlockTableRecord
  2
KOZU0010
  0
BLOCK_RECORD
  5
e2
100
AcDbSymbolTableRecord
100
AcDbBlockTableRecord
  2
*D1
  0
BLOCK_RECORD
  5
e3
100
AcDbSymbolTableRecord
100
AcDbBlockTableRecord
  2
*D2
  0
BLOCK_RECORD
  5
e4
100
AcDbSymbolTableRecord
100
AcDbBlockTableRecord
  2
*D3
  0
BLOCK_RECORD
  5
e5
100
AcDbSymbolTableRecord
100
AcDbBlockTableRecord
  2
*D4
  0
BLOCK_RECORD
  5
e6
100
AcDbSymbolTableRecord
100
AcDbBlockTableRecord
  2
*D5
  0
BLOCK_RECORD
  5
e7
100
AcDbSymbolTableRecord
100
AcDbBlockTableRecord
  2
*D6
  0
BLOCK_RECORD
  5
e8
100
AcDbSymbolTableRecord
100
AcDbBlockTableRecord
  2
*D7
  0
BLOCK_RECORD
  5
e9
100
AcDbSymbolTableRecord
100
AcDbBlockTableRecord
  2
*D8
  0
BLOCK_RECORD
  5
ea
100
AcDbSymbolTableRecord
100
AcDbBlockTableRecord
  2
*D9
  0
BLOCK_RECORD
  5
eb
100
AcDbSymbolTableRecord
100
AcDbBlockTableRecord
  2
*D10
  0
BLOCK_RECORD
  5
ec
100
AcDbSymbolTableRecord
100
AcDbBlockTableRecord
  2
*D11
  0
BLOCK_RECORD
  5
ed
100
AcDbSymbolTableRecord
100
AcDbBlockTableRecord
  2
*D12
  0
BLOCK_RECORD
  5
ee
100
AcDbSymbolTableRecord
100
AcDbBlockTableRecord
  2
*D13
  0
BLOCK_RECORD
  5
ef
100
AcDbSymbolTableRecord
100
AcDbBlockTableRecord
  2
*D14
  0
BLOCK_RECORD
  5
f0
100
AcDbSymbolTableRecord
100
AcDbBlockTableRecord
  2
*D15
  0
BLOCK_RECORD
  5
f1
100
AcDbSymbolTableRecord
100
AcDbBlockTableRecord
  2
*D16
  0
BLOCK_RECORD
  5
f2
100
AcDbSymbolTableRecord
100
AcDbBlockTableRecord
  2
*D17
  0
BLOCK_RECORD
  5
f3
100
AcDbSymbolTableRecord
100
AcDbBlockTableRecord
  2
*D18
  0
BLOCK_RECORD
  5
f4
100
AcDbSymbolTableRecord
100
AcDbBlockTableRecord
  2
*D19
  0
BLOCK_RECORD
  5
f5
100
AcDbSymbolTableRecord
100
AcDbBlockTableRecord
  2
*D20
  0
BLOCK_RECORD
  5
f6
100
AcDbSymbolTableRecord
100
AcDbBlockTableRecord
  2
*D21
  0
BLOCK_RECORD
  5
f7
100
AcDbSymbolTableRecord
100
AcDbBlockTableRecord
  2
*D22
  0
BLOCK_RECORD
  5
f8
100
AcDbSymbolTableRecord
100
AcDbBlockTableRecord
  2
*D23
  0
BLOCK_RECORD
  5
f9
100
AcDbSymbolTableRecord
100
AcDbBlockTableRecord
  2
*D24
  0
BLOCK_RECORD
  5
fa
100
AcDbSymbolTableRecord
100
AcDbBlockTableRecord
  2
*D25
  0
BLOCK_RECORD
  5
fb
100
AcDbSymbolTableRecord
100
AcDbBlockTableRecord
  2
*D26
  0
BLOCK_RECORD
  5
fc
100
AcDbSymbolTableRecord
100
AcDbBlockTableRecord
  2
*D27
  0
BLOCK_RECORD
  5
fd
100
AcDbSymbolTableRecord
100
AcDbBlockTableRecord
  2
*D28
  0
BLOCK_RECORD
  5
fe
100
AcDbSymbolTableRecord
100
AcDbBlockTableRecord
  2
*D29
  0
BLOCK_RECORD
  5
ff
100
AcDbSymbolTableRecord
100
AcDbBlockTableRecord
  2
*D30
  0
BLOCK_RECORD
  5
100
100
AcDbSymbolTableRecord
100
AcDbBlockTableRecord
  2
*D31
  0
BLOCK_RECORD
  5
101
100
AcDbSymbolTableRecord
100
AcDbBlockTableRecord
  2
*D32
  0
BLOCK_RECORD
  5
102
100
AcDbSymbolTableRecord
100
AcDbBlockTableRecord
  2
*D33
  0
BLOCK_RECORD
  5
103
100
AcDbSymbolTableRecord
100
AcDbBlockTableRecord
  2
*D34
  0
BLOCK_RECORD
  5
104
100
AcDbSymbolTableRecord
100
AcDbBlockTableRecord
  2
*D35
  0
BLOCK_RECORD
  5
105
100
AcDbSymbolTableRecord
100
AcDbBlockTableRecord
  2
*D36
  0
BLOCK_RECORD
  5
106
100
AcDbSymbolTableRecord
100
AcDbBlockTableRecord
  2
*D37
  0
BLOCK_RECORD
  5
107
100
AcDbSymbolTableRecord
100
AcDbBlockTableRecord
  2
*D38
  0
BLOCK_RECORD
  5
108
100
AcDbSymbolTableRecord
100
AcDbBlockTableRecord
  2
*D39
  0
BLOCK_RECORD
  5
109
100
AcDbSymbolTableRecord
100
AcDbBlockTableRecord
  2
*D40
  0
ENDTAB
  0
TABLE
  2
VPORT
  5
10a
100
AcDbSymbolTable
 70
     0
  0
ENDTAB
  0
ENDSEC
  0
SECTION
  2
BLOCKS
  0
BLOCK
  8
0
  5
10b
100
AcDbEntity
100
AcDbBlockBegin
  2
*MODEL_SPACE
 70
     0
 10
0
 20
0
  3
*MODEL_SPACE
  0
ENDBLK
  8
0
  5
10c
100
AcDbEntity
100
AcDbBlockEnd
  0
BLOCK
  8
0
  5
10d
 67
     1
100
AcDbEntity
100
AcDbBlockBegin
  2
*PAPER_SPACE
 70
     0
 10
0
 20
0
  3
*PAPER_SPACE
  0
ENDBLK
  8
0
  5
10e
 67
     1
100
AcDbEntity
100
AcDbBlockEnd
  0
BLOCK
  8
0
  5
10f
100
AcDbEntity
100
AcDbBlockBegin
  2
_OPEN
 70
    64
 10
0
 20
0
  3
_OPEN
  0
LINE
  5
110
100
AcDbEntity
  8
0
  6
BYBLOCK
 62
     0
100
AcDbLine
 10
0
 20
0
 11
-3.12799995302215
 21
-0.5619999915596265
  0
LINE
  5
111
100
AcDbEntity
  8
0
  6
BYBLOCK
 62
     0
100
AcDbLine
 10
0
 20
0
 11
-3.127999953022157
 21
0.5619999915595884
  0
LINE
  5
112
100
AcDbEntity
  8
0
  6
BYBLOCK
 62
     0
100
AcDbLine
 10
0
 20
0
 11
-2.99999995494452
 21
0
  0
ENDBLK
  8
0
  5
113
100
AcDbEntity
100
AcDbBlockEnd
  0
BLOCK
  8
0
  5
114
100
AcDbEntity
100
AcDbBlockBegin
  2
_NONE
 70
    64
 10
0
 20
0
  3
_NONE
  0
CIRCLE
  5
115
100
AcDbEntity
  8
0
  6
BYBLOCK
 62
     0
100
AcDbCircle
 10
0
 20
0
 40
0.001
  0
ENDBLK
  8
0
  5
116
100
AcDbEntity
100
AcDbBlockEnd
  0
BLOCK
  8
0
  5
117
100
AcDbEntity
100
AcDbBlockBegin
  2
_OPEN30
 70
    64
 10
0
 20
0
  3
_OPEN30
  0
LINE
  5
118
100
AcDbEntity
  8
0
  6
BYBLOCK
 62
     0
100
AcDbLine
 10
0
 20
0
 11
-2.999999954944514
 21
-0.9999999849815249
  0
LINE
  5
119
100
AcDbEntity
  8
0
  6
BYBLOCK
 62
     0
100
AcDbLine
 10
0
 20
0
 11
-2.999999954944526
 21
0.9999999849814883
  0
LINE
  5
11a
100
AcDbEntity
  8
0
  6
BYBLOCK
 62
     0
100
AcDbLine
 10
0
 20
0
 11
-2.99999995494452
 21
0
  0
ENDBLK
  8
0
  5
11b
100
AcDbEntity
100
AcDbBlockEnd
  0
BLOCK
  8
0
  5
11c
100
AcDbEntity
100
AcDbBlockBegin
  2
*D1
 70
    65
 10
0
 20
0
  0
LINE
  5
11d
100
AcDbEntity
  8
0
  6
CONTINUOUS
 62
     7
100
AcDbLine
 10
-149.268798828125
 20
-9.682479903453917
 11
-149.268798828125
 21
24.31752018665704
  0
INSERT
  5
11e
100
AcDbEntity
  8
0
  6
CONTINUOUS
 62
     7
100
AcDbBlockReference
  2
_OPEN30
 10
-149.268798828125
 20
-12.68247985839844
 41
1
 42
1
 43
1
 50
270.0000000000005
  0
INSERT
  5
11f
100
AcDbEntity
  8
0
  6
CONTINUOUS
 62
     7
100
AcDbBlockReference
  2
_OPEN30
 10
-149.268798828125
 20
27.31752014160156
 41
1
 42
1
 43
1
 50
90.00000000000019
  0
LINE
  5
120
100
AcDbEntity
  8
0
  6
CONTINUOUS
 62
     7
100
AcDbLine
 10
-132.6469116210938
 20
-12.68247985839844
 11
-152.1257934570313
 21
-12.68247985839844
  0
LINE
  5
121
100
AcDbEntity
  8
0
  6
CONTINUOUS
 62
     7
100
AcDbLine
 10
-132.6469116210938
 20
27.31752014160156
 11
-152.1257934570313
 21
27.31752014160156
  0
MTEXT
  5
122
100
AcDbEntity
  8
0
  6
CONTINUOUS
 62
     7
100
AcDbMText
 10
-149.268798828125
 20
7.317520141601563
 40
5
 41
110
 71
     8
 72
     1
  1
{\W0.855331;\U+2205４０}
 11
0
 21
1
  0
POINT
  5
123
100
AcDbEntity
  8
DEFPOINTS
  6
CONTINUOUS
 62
     7
100
AcDbPoint
 10
-132.6469116210938
 20
-12.68247985839844
  0
POINT
  5
124
100
AcDbEntity
  8
DEFPOINTS
  6
CONTINUOUS
 62
     7
100
AcDbPoint
 10
-132.6469116210938
 20
27.31752014160156
  0
POINT
  5
125
100
AcDbEntity
  8
DEFPOINTS
  6
CONTINUOUS
 62
     7
100
AcDbPoint
 10
-149.268798828125
 20
27.31752014160156
  0
ENDBLK
  8
0
  5
126
100
AcDbEntity
100
AcDbBlockEnd
  0
BLOCK
  8
0
  5
127
100
AcDbEntity
100
AcDbBlockBegin
  2
*D2
 70
    65
 10
0
 20
0
  0
LINE
  5
128
100
AcDbEntity
  8
0
  6
CONTINUOUS
 62
     7
100
AcDbLine
 10
-127.6469116661492
 20
65.13789367675781
 11
-118.6469115760383
 21
65.1378936767578
  0
INSERT
  5
129
100
AcDbEntity
  8
0
  6
CONTINUOUS
 62
     7
100
AcDbBlockReference
  2
_OPEN30
 10
-130.6469116210938
 20
65.13789367675781
 41
1
 42
1
 43
1
 50
180.0000000000004
  0
INSERT
  5
12a
100
AcDbEntity
  8
0
  6
CONTINUOUS
 62
     7
100
AcDbBlockReference
  2
_OPEN30
 10
-115.6469116210938
 20
65.13789367675781
 41
1
 42
1
 43
1
  0
LINE
  5
12b
100
AcDbEntity
  8
0
  6
CONTINUOUS
 62
     7
100
AcDbLine
 10
-130.6469116210938
 20
46.81752014160156
 11
-130.6469116210938
 21
67.99489593505859
  0
LINE
  5
12c
100
AcDbEntity
  8
0
  6
CONTINUOUS
 62
     7
100
AcDbLine
 10
-115.6469116210938
 20
50.6633186340332
 11
-115.6469116210938
 21
67.99489593505859
  0
MTEXT
  5
12d
100
AcDbEntity
  8
0
  6
CONTINUOUS
 62
     7
100
AcDbMText
 10
-123.1469116210938
 20
65.13789367675781
 40
5
 41
40
 71
     8
 72
     1
  1
{\W0.864328;１５}
  0
POINT
  5
12e
100
AcDbEntity
  8
DEFPOINTS
  6
CONTINUOUS
 62
     7
100
AcDbPoint
 10
-130.6469116210938
 20
46.81752014160156
  0
POINT
  5
12f
100
AcDbEntity
  8
DEFPOINTS
  6
CONTINUOUS
 62
     7
100
AcDbPoint
 10
-115.6469116210938
 20
50.6633186340332
  0
POINT
  5
130
100
AcDbEntity
  8
DEFPOINTS
  6
CONTINUOUS
 62
     7
100
AcDbPoint
 10
-115.6469116210938
 20
65.13789367675781
  0
ENDBLK
  8
0
  5
131
100
AcDbEntity
100
AcDbBlockEnd
  0
BLOCK
  8
0
  5
132
100
AcDbEntity
100
AcDbBlockBegin
  2
*D3
 70
    65
 10
0
 20
0
  0
LINE
  5
133
100
AcDbEntity
  8
0
  6
CONTINUOUS
 62
     7
100
AcDbLine
 10
64.3531036827508
 20
65.1378936767578
 11
55.35310359263983
 21
65.13789367675781
  0
INSERT
  5
134
100
AcDbEntity
  8
0
  6
CONTINUOUS
 62
     7
100
AcDbBlockReference
  2
_OPEN30
 10
67.35310363769531
 20
65.13789367675781
 41
1
 42
1
 43
1
  0
INSERT
  5
135
100
AcDbEntity
  8
0
  6
CONTINUOUS
 62
     7
100
AcDbBlockReference
  2
_OPEN30
 10
52.35310363769531
 20
65.13789367675781
 41
1
 42
1
 43
1
 50
180.0000000000004
  0
LINE
  5
136
100
AcDbEntity
  8
0
  6
CONTINUOUS
 62
     7
100
AcDbLine
 10
67.35308837890625
 20
46.81752014160156
 11
67.35308837890625
 21
67.99489593505859
  0
LINE
  5
137
100
AcDbEntity
  8
0
  6
CONTINUOUS
 62
     7
100
AcDbLine
 10
52.35308837890625
 20
50.26014709472656
 11
52.35308837890625
 21
67.99489593505859
  0
MTEXT
  5
138
100
AcDbEntity
  8
0
  6
CONTINUOUS
 62
     7
100
AcDbMText
 10
59.85310363769531
 20
65.13789367675781
 40
5
 41
40
 71
     8
 72
     1
  1
{\W0.864328;１５}
  0
POINT
  5
139
100
AcDbEntity
  8
DEFPOINTS
  6
CONTINUOUS
 62
     7
100
AcDbPoint
 10
67.35308837890625
 20
46.81752014160156
  0
POINT
  5
13a
100
AcDbEntity
  8
DEFPOINTS
  6
CONTINUOUS
 62
     7
100
AcDbPoint
 10
52.35308837890625
 20
50.26014709472656
  0
POINT
  5
13b
100
AcDbEntity
  8
DEFPOINTS
  6
CONTINUOUS
 62
     7
100
AcDbPoint
 10
52.35310363769531
 20
65.13789367675781
  0
ENDBLK
  8
0
  5
13c
100
AcDbEntity
100
AcDbBlockEnd
  0
BLOCK
  8
0
  5
13d
100
AcDbEntity
100
AcDbBlockBegin
  2
*D4
 70
    65
 10
0
 20
0
  0
LINE
  5
13e
100
AcDbEntity
  8
0
  6
CONTINUOUS
 62
     7
100
AcDbLine
 10
-127.6469116661492
 20
-69.00620468954243
 11
-103.6468810584601
 21
-69.00620468954244
  0
INSERT
  5
13f
100
AcDbEntity
  8
0
  6
CONTINUOUS
 62
     7
100
AcDbBlockReference
  2
_OPEN30
 10
-130.6469116210938
 20
-69.00620468954243
 41
1
 42
1
 43
1
 50
180.0000000000004
  0
INSERT
  5
140
100
AcDbEntity
  8
0
  6
CONTINUOUS
 62
     7
100
AcDbBlockReference
  2
_OPEN30
 10
-100.6468811035156
 20
-69.00620468954243
 41
1
 42
1
 43
1
  0
LINE
  5
141
100
AcDbEntity
  8
0
  6
CONTINUOUS
 62
     7
100
AcDbLine
 10
-130.6469116210938
 20
-32.18247985839844
 11
-130.6469116210938
 21
-71.29220468954243
  0
LINE
  5
142
100
AcDbEntity
  8
0
  6
CONTINUOUS
 62
     7
100
AcDbLine
 10
-100.6468811035156
 20
-32.18247985839844
 11
-100.6468811035156
 21
-71.29220468954243
  0
MTEXT
  5
143
100
AcDbEntity
  8
0
  6
CONTINUOUS
 62
     7
100
AcDbMText
 10
-115.6468963623047
 20
-69.00620468954243
 40
5
 41
40
 71
     8
 72
     1
  1
{\W0.864328;３０}
  0
POINT
  5
144
100
AcDbEntity
  8
DEFPOINTS
  6
CONTINUOUS
 62
     7
100
AcDbPoint
 10
-130.6469116210938
 20
-32.18247985839844
  0
POINT
  5
145
100
AcDbEntity
  8
DEFPOINTS
  6
CONTINUOUS
 62
     7
100
AcDbPoint
 10
-100.6468811035156
 20
-32.18247985839844
  0
POINT
  5
146
100
AcDbEntity
  8
DEFPOINTS
  6
CONTINUOUS
 62
     7
100
AcDbPoint
 10
-100.6468811035156
 20
-69.00620468954243
  0
ENDBLK
  8
0
  5
147
100
AcDbEntity
100
AcDbBlockEnd
  0
BLOCK
  8
0
  5
148
100
AcDbEntity
100
AcDbBlockBegin
  2
*D5
 70
    65
 10
0
 20
0
  0
LINE
  5
149
100
AcDbEntity
  8
0
  6
CONTINUOUS
 62
     7
100
AcDbLine
 10
40.35308833385077
 20
-69.00620468954243
 11
64.35308842396174
 21
-69.00620468954244
  0
INSERT
  5
14a
100
AcDbEntity
  8
0
  6
CONTINUOUS
 62
     7
100
AcDbBlockReference
  2
_OPEN30
 10
37.35308837890625
 20
-69.00620468954243
 41
1
 42
1
 43
1
 50
180.0000000000004
  0
INSERT
  5
14b
100
AcDbEntity
  8
0
  6
CONTINUOUS
 62
     7
100
AcDbBlockReference
  2
_OPEN30
 10
67.35308837890625
 20
-69.00620468954243
 41
1
 42
1
 43
1
  0
LINE
  5
14c
100
AcDbEntity
  8
0
  6
CONTINUOUS
 62
     7
100
AcDbLine
 10
37.35308837890625
 20
-32.18247985839844
 11
37.35308837890625
 21
-71.29220468954243
  0
LINE
  5
14d
100
AcDbEntity
  8
0
  6
CONTINUOUS
 62
     7
100
AcDbLine
 10
67.35308837890625
 20
-32.18247985839844
 11
67.35308837890625
 21
-71.29220468954243
  0
MTEXT
  5
14e
100
AcDbEntity
  8
0
  6
CONTINUOUS
 62
     7
100
AcDbMText
 10
52.35308837890625
 20
-69.00620468954243
 40
5
 41
40
 71
     8
 72
     1
  1
{\W0.864328;３０}
  0
POINT
  5
14f
100
AcDbEntity
  8
DEFPOINTS
  6
CONTINUOUS
 62
     7
100
AcDbPoint
 10
37.35308837890625
 20
-32.18247985839844
  0
POINT
  5
150
100
AcDbEntity
  8
DEFPOINTS
  6
CONTINUOUS
 62
     7
100
AcDbPoint
 10
67.35308837890625
 20
-32.18247985839844
  0
POINT
  5
151
100
AcDbEntity
  8
DEFPOINTS
  6
CONTINUOUS
 62
     7
100
AcDbPoint
 10
67.35308837890625
 20
-69.00620468954243
  0
ENDBLK
  8
0
  5
152
100
AcDbEntity
100
AcDbBlockEnd
  0
BLOCK
  8
0
  5
153
100
AcDbEntity
100
AcDbBlockBegin
  2
*D6
 70
    65
 10
0
 20
0
  0
LINE
  5
154
100
AcDbEntity
  8
0
  6
CONTINUOUS
 62
     7
100
AcDbLine
 10
122.3530884239617
 20
-54.41250223062807
 11
96.35308833385076
 21
-54.41250223062805
  0
INSERT
  5
155
100
AcDbEntity
  8
0
  6
CONTINUOUS
 62
     7
100
AcDbBlockReference
  2
_OPEN30
 10
125.3530883789063
 20
-54.41250223062805
 41
1
 42
1
 43
1
  0
INSERT
  5
156
100
AcDbEntity
  8
0
  6
CONTINUOUS
 62
     7
100
AcDbBlockReference
  2
_OPEN30
 10
93.35308837890625
 20
-54.41250223062805
 41
1
 42
1
 43
1
 50
180.0000000000004
  0
LINE
  5
157
100
AcDbEntity
  8
0
  6
CONTINUOUS
 62
     7
100
AcDbLine
 10
125.3530883789063
 20
-0.4825840592384338
 11
125.3530883789063
 21
-56.69850223062805
  0
LINE
  5
158
100
AcDbEntity
  8
0
  6
CONTINUOUS
 62
     7
100
AcDbLine
 10
93.35308837890625
 20
-1.682479858398438
 11
93.35308837890625
 21
-56.69850223062805
  0
MTEXT
  5
159
100
AcDbEntity
  8
0
  6
CONTINUOUS
 62
     7
100
AcDbMText
 10
109.3530883789063
 20
-54.41250223062805
 40
5
 41
40
 71
     8
 72
     1
  1
{\W0.864328;３２}
  0
POINT
  5
15a
100
AcDbEntity
  8
DEFPOINTS
  6
CONTINUOUS
 62
     7
100
AcDbPoint
 10
125.3530883789063
 20
-0.4825840592384338
  0
POINT
  5
15b
100
AcDbEntity
  8
DEFPOINTS
  6
CONTINUOUS
 62
     7
100
AcDbPoint
 10
93.35308837890625
 20
-1.682479858398438
  0
POINT
  5
15c
100
AcDbEntity
  8
DEFPOINTS
  6
CONTINUOUS
 62
     7
100
AcDbPoint
 10
93.35308837890625
 20
-54.41250223062805
  0
ENDBLK
  8
0
  5
15d
100
AcDbEntity
100
AcDbBlockEnd
  0
BLOCK
  8
0
  5
15e
100
AcDbEntity
100
AcDbBlockBegin
  2
*D7
 70
    65
 10
0
 20
0
  0
LINE
  5
15f
100
AcDbEntity
  8
0
  6
CONTINUOUS
 62
     7
100
AcDbLine
 10
64.35308842396174
 20
-83.75977192362591
 11
-127.6469116661492
 21
-83.75977192362589
  0
INSERT
  5
160
100
AcDbEntity
  8
0
  6
CONTINUOUS
 62
     7
100
AcDbBlockReference
  2
_OPEN30
 10
67.35308837890625
 20
-83.75977192362589
 41
1
 42
1
 43
1
  0
INSERT
  5
161
100
AcDbEntity
  8
0
  6
CONTINUOUS
 62
     7
100
AcDbBlockReference
  2
_OPEN30
 10
-130.6469116210938
 20
-83.75977192362589
 41
1
 42
1
 43
1
 50
180.0000000000004
  0
LINE
  5
162
100
AcDbEntity
  8
0
  6
CONTINUOUS
 62
     7
100
AcDbLine
 10
-130.6469116210938
 20
-32.18247985839844
 11
-130.6469116210938
 21
-86.04577192362589
  0
MTEXT
  5
163
100
AcDbEntity
  8
0
  6
CONTINUOUS
 62
     7
100
AcDbMText
 10
-24.079930193995
 20
-83.75977192362589
 40
5
 41
160
 71
     8
 72
     1
  1
{\W0.845552;９８＋ストロ－ク}
  0
POINT
  5
164
100
AcDbEntity
  8
DEFPOINTS
  6
CONTINUOUS
 62
     7
100
AcDbPoint
 10
67.35308837890625
 20
-32.18247985839844
  0
POINT
  5
165
100
AcDbEntity
  8
DEFPOINTS
  6
CONTINUOUS
 62
     7
100
AcDbPoint
 10
-130.6469116210938
 20
-32.18247985839844
  0
POINT
  5
166
100
AcDbEntity
  8
DEFPOINTS
  6
CONTINUOUS
 62
     7
100
AcDbPoint
 10
-130.6469116210938
 20
-83.75977192362589
  0
ENDBLK
  8
0
  5
167
100
AcDbEntity
100
AcDbBlockEnd
  0
BLOCK
  8
0
  5
168
100
AcDbEntity
100
AcDbBlockBegin
  2
*D8
 70
    65
 10
0
 20
0
  0
LINE
  5
169
100
AcDbEntity
  8
0
  6
CONTINUOUS
 62
     7
100
AcDbLine
 10
122.3530884239617
 20
-98.32358939535426
 11
-130.6469116661492
 21
-98.32358939535425
  0
INSERT
  5
16a
100
AcDbEntity
  8
0
  6
CONTINUOUS
 62
     7
100
AcDbBlockReference
  2
_OPEN30
 10
125.3530883789063
 20
-98.32358939535425
 41
1
 42
1
 43
1
  0
INSERT
  5
16b
100
AcDbEntity
  8
0
  6
CONTINUOUS
 62
     7
100
AcDbBlockReference
  2
_OPEN30
 10
-133.6469116210938
 20
-98.32358939535425
 41
1
 42
1
 43
1
 50
180.0000000000004
  0
LINE
  5
16c
100
AcDbEntity
  8
0
  6
CONTINUOUS
 62
     7
100
AcDbLine
 10
125.3530883789063
 20
-0.4825840592384338
 11
125.3530883789063
 21
-100.6095893953543
  0
LINE
  5
16d
100
AcDbEntity
  8
0
  6
CONTINUOUS
 62
     7
100
AcDbLine
 10
-133.6469116210938
 20
-11.68247985839844
 11
-133.6469116210938
 21
-100.6095893953543
  0
MTEXT
  5
16e
100
AcDbEntity
  8
0
  6
CONTINUOUS
 62
     7
100
AcDbMText
 10
-4.14691162109375
 20
-98.32358939535425
 40
5
 41
180
 71
     8
 72
     1
  1
{\W0.84495;１５９＋ストロ－ク}
  0
POINT
  5
16f
100
AcDbEntity
  8
DEFPOINTS
  6
CONTINUOUS
 62
     7
100
AcDbPoint
 10
125.3530883789063
 20
-0.4825840592384338
  0
POINT
  5
170
100
AcDbEntity
  8
DEFPOINTS
  6
CONTINUOUS
 62
     7
100
AcDbPoint
 10
-133.6469116210938
 20
-11.68247985839844
  0
POINT
  5
171
100
AcDbEntity
  8
DEFPOINTS
  6
CONTINUOUS
 62
     7
100
AcDbPoint
 10
-133.6469116210938
 20
-98.32358939535425
  0
ENDBLK
  8
0
  5
172
100
AcDbEntity
100
AcDbBlockEnd
  0
BLOCK
  8
0
  5
173
100
AcDbEntity
100
AcDbBlockBegin
  2
*D9
 70
    65
 10
0
 20
0
  0
LINE
  5
174
100
AcDbEntity
  8
0
  6
CONTINUOUS
 62
     7
100
AcDbLine
 10
102.8802184608039
 20
-29.20765510176041
 11
107.8802185509149
 21
-29.20765510176043
  0
INSERT
  5
175
100
AcDbEntity
  8
0
  6
CONTINUOUS
 62
     7
100
AcDbBlockReference
  2
_OPEN30
 10
99.88021850585938
 20
-29.20765510176041
 41
1
 42
1
 43
1
 50
180.0000000000004
  0
INSERT
  5
176
100
AcDbEntity
  8
0
  6
CONTINUOUS
 62
     7
100
AcDbBlockReference
  2
_OPEN30
 10
110.8802185058594
 20
-29.20765510176041
 41
1
 42
1
 43
1
  0
LINE
  5
177
100
AcDbEntity
  8
0
  6
CONTINUOUS
 62
     7
100
AcDbLine
 10
99.88021850585938
 20
-4.391124725341797
 11
99.88021850585938
 21
-31.49365510176041
  0
LINE
  5
178
100
AcDbEntity
  8
0
  6
CONTINUOUS
 62
     7
100
AcDbLine
 10
110.8802185058594
 20
-4.391124725341797
 11
110.8802185058594
 21
-31.49365510176041
  0
MTEXT
  5
179
100
AcDbEntity
  8
0
  6
CONTINUOUS
 62
     7
100
AcDbMText
 10
105.3802185058594
 20
-29.20765510176041
 40
5
 41
40
 71
     8
 72
     1
  1
{\W0.864328;１１}
  0
POINT
  5
17a
100
AcDbEntity
  8
DEFPOINTS
  6
CONTINUOUS
 62
     7
100
AcDbPoint
 10
99.88021850585938
 20
-4.391124725341797
  0
POINT
  5
17b
100
AcDbEntity
  8
DEFPOINTS
  6
CONTINUOUS
 62
     7
100
AcDbPoint
 10
110.8802185058594
 20
-4.391124725341797
  0
POINT
  5
17c
100
AcDbEntity
  8
DEFPOINTS
  6
CONTINUOUS
 62
     7
100
AcDbPoint
 10
110.8802185058594
 20
-29.20765510176041
  0
ENDBLK
  8
0
  5
17d
100
AcDbEntity
100
AcDbBlockEnd
  0
BLOCK
  8
0
  5
17e
100
AcDbEntity
100
AcDbBlockBegin
  2
*D10
 70
    65
 10
0
 20
0
  0
LINE
  5
17f
100
AcDbEntity
  8
0
  6
CONTINUOUS
 62
     7
100
AcDbLine
 10
96.10340333372517
 20
17.31752014160156
 11
96.10340333372517
 21
35.66690688040489
  0
LINE
  5
180
100
AcDbEntity
  8
0
  6
CONTINUOUS
 62
     7
100
AcDbLine
 10
96.10340333372515
 20
0.3175200965460827
 11
96.1034033337252
 21
14.31752018665704
  0
INSERT
  5
181
100
AcDbEntity
  8
0
  6
CONTINUOUS
 62
     7
100
AcDbBlockReference
  2
_OPEN30
 10
96.10340333372517
 20
-2.682479858398438
 41
1
 42
1
 43
1
 50
270.0000000000005
  0
INSERT
  5
182
100
AcDbEntity
  8
0
  6
CONTINUOUS
 62
     7
100
AcDbBlockReference
  2
_OPEN30
 10
96.10340333372517
 20
17.31752014160156
 41
1
 42
1
 43
1
 50
90.00000000000019
  0
LINE
  5
183
100
AcDbEntity
  8
0
  6
CONTINUOUS
 62
     7
100
AcDbLine
 10
88.62103271484375
 20
-2.682479858398438
 11
98.38940333372517
 21
-2.682479858398438
  0
LINE
  5
184
100
AcDbEntity
  8
0
  6
CONTINUOUS
 62
     7
100
AcDbLine
 10
88.62103271484375
 20
17.31752014160156
 11
98.38940333372517
 21
17.31752014160156
  0
MTEXT
  5
185
100
AcDbEntity
  8
0
  6
CONTINUOUS
 62
     7
100
AcDbMText
 10
96.10340333372517
 20
28.88128178026908
 40
5
 41
110
 71
     8
 72
     1
  1
{\W0.855331;\U+2205２０}
 11
0
 21
1
  0
POINT
  5
186
100
AcDbEntity
  8
DEFPOINTS
  6
CONTINUOUS
 62
     7
100
AcDbPoint
 10
88.62103271484375
 20
-2.682479858398438
  0
POINT
  5
187
100
AcDbEntity
  8
DEFPOINTS
  6
CONTINUOUS
 62
     7
100
AcDbPoint
 10
88.62103271484375
 20
17.31752014160156
  0
POINT
  5
188
100
AcDbEntity
  8
DEFPOINTS
  6
CONTINUOUS
 62
     7
100
AcDbPoint
 10
96.10340333372517
 20
17.31752014160156
  0
ENDBLK
  8
0
  5
189
100
AcDbEntity
100
AcDbBlockEnd
  0
BLOCK
  8
0
  5
18a
100
AcDbEntity
100
AcDbBlockBegin
  2
*D11
 70
    65
 10
0
 20
0
  0
LINE
  5
18b
100
AcDbEntity
  8
0
  6
CONTINUOUS
 62
     7
100
AcDbLine
 10
70.35308833385076
 20
-68.89413192246896
 11
87.35308842396174
 21
-68.89413192246897
  0
INSERT
  5
18c
100
AcDbEntity
  8
0
  6
CONTINUOUS
 62
     7
100
AcDbBlockReference
  2
_OPEN30
 10
67.35308837890625
 20
-68.89413192246896
 41
1
 42
1
 43
1
 50
180.0000000000004
  0
INSERT
  5
18d
100
AcDbEntity
  8
0
  6
CONTINUOUS
 62
     7
100
AcDbBlockReference
  2
_OPEN30
 10
90.35308837890625
 20
-68.89413192246896
 41
1
 42
1
 43
1
  0
LINE
  5
18e
100
AcDbEntity
  8
0
  6
CONTINUOUS
 62
     7
100
AcDbLine
 10
67.35308837890625
 20
-32.18247985839844
 11
67.35308837890625
 21
-71.18013192246896
  0
LINE
  5
18f
100
AcDbEntity
  8
0
  6
CONTINUOUS
 62
     7
100
AcDbLine
 10
90.35308837890625
 20
-1.682479858398438
 11
90.35308837890625
 21
-71.18013192246896
  0
MTEXT
  5
190
100
AcDbEntity
  8
0
  6
CONTINUOUS
 62
     7
100
AcDbMText
 10
78.85308837890625
 20
-68.89413192246896
 40
5
 41
40
 71
     8
 72
     1
  1
{\W0.864328;２３}
  0
POINT
  5
191
100
AcDbEntity
  8
DEFPOINTS
  6
CONTINUOUS
 62
     7
100
AcDbPoint
 10
67.35308837890625
 20
-32.18247985839844
  0
POINT
  5
192
100
AcDbEntity
  8
DEFPOINTS
  6
CONTINUOUS
 62
     7
100
AcDbPoint
 10
90.35308837890625
 20
-1.682479858398438
  0
POINT
  5
193
100
AcDbEntity
  8
DEFPOINTS
  6
CONTINUOUS
 62
     7
100
AcDbPoint
 10
90.35308837890625
 20
-68.89413192246896
  0
ENDBLK
  8
0
  5
194
100
AcDbEntity
100
AcDbBlockEnd
  0
BLOCK
  8
0
  5
195
100
AcDbEntity
100
AcDbBlockBegin
  2
*D12
 70
    65
 10
0
 20
0
  0
LINE
  5
196
100
AcDbEntity
  8
0
  6
CONTINUOUS
 62
     7
100
AcDbLine
 10
93.35308833385076
 20
-68.92336273193359
 11
122.3530884239617
 21
-68.92336273193361
  0
INSERT
  5
197
100
AcDbEntity
  8
0
  6
CONTINUOUS
 62
     7
100
AcDbBlockReference
  2
_OPEN30
 10
90.35308837890625
 20
-68.92336273193359
 41
1
 42
1
 43
1
 50
180.0000000000004
  0
INSERT
  5
198
100
AcDbEntity
  8
0
  6
CONTINUOUS
 62
     7
100
AcDbBlockReference
  2
_OPEN30
 10
125.3530883789063
 20
-68.92336273193359
 41
1
 42
1
 43
1
  0
LINE
  5
199
100
AcDbEntity
  8
0
  6
CONTINUOUS
 62
     7
100
AcDbLine
 10
125.3530883789063
 20
-0.4825840592384338
 11
125.3530883789063
 21
-71.78036499023438
  0
MTEXT
  5
19a
100
AcDbEntity
  8
0
  6
CONTINUOUS
 62
     7
100
AcDbMText
 10
107.8530883789063
 20
-68.92336273193359
 40
5
 41
40
 71
     8
 72
     1
  1
{\W0.864328;３５}
  0
POINT
  5
19b
100
AcDbEntity
  8
DEFPOINTS
  6
CONTINUOUS
 62
     7
100
AcDbPoint
 10
90.35308837890625
 20
-1.682479858398438
  0
POINT
  5
19c
100
AcDbEntity
  8
DEFPOINTS
  6
CONTINUOUS
 62
     7
100
AcDbPoint
 10
125.3530883789063
 20
-0.4825840592384338
  0
POINT
  5
19d
100
AcDbEntity
  8
DEFPOINTS
  6
CONTINUOUS
 62
     7
100
AcDbPoint
 10
125.3530883789063
 20
-68.92336273193359
  0
ENDBLK
  8
0
  5
19e
100
AcDbEntity
100
AcDbBlockEnd
  0
BLOCK
  8
0
  5
19f
100
AcDbEntity
100
AcDbBlockBegin
  2
*D13
 70
    65
 10
0
 20
0
  0
LINE
  5
1a0
100
AcDbEntity
  8
0
  6
CONTINUOUS
 62
     7
100
AcDbLine
 10
-100.4668732140008
 20
-466.0693969726563
 11
-31.46687312388983
 21
-466.0693969726563
  0
INSERT
  5
1a1
100
AcDbEntity
  8
0
  6
CONTINUOUS
 62
     7
100
AcDbBlockReference
  2
_OPEN30
 10
-103.4668731689453
 20
-466.0693969726563
 41
1
 42
1
 43
1
 50
180.0000000000004
  0
INSERT
  5
1a2
100
AcDbEntity
  8
0
  6
CONTINUOUS
 62
     7
100
AcDbBlockReference
  2
_OPEN30
 10
-28.46687316894531
 20
-466.0693969726563
 41
1
 42
1
 43
1
  0
LINE
  5
1a3
100
AcDbEntity
  8
0
  6
CONTINUOUS
 62
     7
100
AcDbLine
 10
-103.4668579101563
 20
-431.2261962890625
 11
-103.4668579101563
 21
-468.9263916015625
  0
LINE
  5
1a4
100
AcDbEntity
  8
0
  6
CONTINUOUS
 62
     7
100
AcDbLine
 10
-28.46685791015625
 20
-423.7257995605469
 11
-28.46685791015625
 21
-468.9263916015625
  0
MTEXT
  5
1a5
100
AcDbEntity
  8
0
  6
CONTINUOUS
 62
     7
100
AcDbMText
 10
-65.96685791015625
 20
-466.0693969726563
 40
5
 41
40
 71
     8
 72
     1
  1
{\W0.864328;７５}
  0
POINT
  5
1a6
100
AcDbEntity
  8
DEFPOINTS
  6
CONTINUOUS
 62
     7
100
AcDbPoint
 10
-103.4668579101563
 20
-431.2261962890625
  0
POINT
  5
1a7
100
AcDbEntity
  8
DEFPOINTS
  6
CONTINUOUS
 62
     7
100
AcDbPoint
 10
-28.46685791015625
 20
-423.7257995605469
  0
POINT
  5
1a8
100
AcDbEntity
  8
DEFPOINTS
  6
CONTINUOUS
 62
     7
100
AcDbPoint
 10
-28.46687316894531
 20
-466.0693969726563
  0
ENDBLK
  8
0
  5
1a9
100
AcDbEntity
100
AcDbBlockEnd
  0
BLOCK
  8
0
  5
1aa
100
AcDbEntity
100
AcDbBlockBegin
  2
*D14
 70
    65
 10
0
 20
0
  0
LINE
  5
1ab
100
AcDbEntity
  8
0
  6
CONTINUOUS
 62
     7
100
AcDbLine
 10
-8.422454833984384
 20
-349.8576660606805
 11
-8.422454833984348
 21
-327.8576659705695
  0
INSERT
  5
1ac
100
AcDbEntity
  8
0
  6
CONTINUOUS
 62
     7
100
AcDbBlockReference
  2
_OPEN30
 10
-8.422454833984375
 20
-352.857666015625
 41
1
 42
1
 43
1
 50
270.0000000000005
  0
INSERT
  5
1ad
100
AcDbEntity
  8
0
  6
CONTINUOUS
 62
     7
100
AcDbBlockReference
  2
_OPEN30
 10
-8.422454833984375
 20
-324.857666015625
 41
1
 42
1
 43
1
 50
90.00000000000019
  0
LINE
  5
1ae
100
AcDbEntity
  8
0
  6
CONTINUOUS
 62
     7
100
AcDbLine
 10
-36.46674728393555
 20
-352.857666015625
 11
-5.565454483032227
 21
-352.857666015625
  0
LINE
  5
1af
100
AcDbEntity
  8
0
  6
CONTINUOUS
 62
     7
100
AcDbLine
 10
-36.46703338623047
 20
-324.857666015625
 11
-5.565454483032227
 21
-324.857666015625
  0
MTEXT
  5
1b0
100
AcDbEntity
  8
0
  6
CONTINUOUS
 62
     7
100
AcDbMText
 10
-8.422454833984375
 20
-338.857666015625
 40
5
 41
110
 71
     8
 72
     1
  1
{\W0.855331;\U+2205２８}
 11
0
 21
1
  0
POINT
  5
1b1
100
AcDbEntity
  8
DEFPOINTS
  6
CONTINUOUS
 62
     7
100
AcDbPoint
 10
-36.46674728393555
 20
-352.857666015625
  0
POINT
  5
1b2
100
AcDbEntity
  8
DEFPOINTS
  6
CONTINUOUS
 62
     7
100
AcDbPoint
 10
-36.46703338623047
 20
-324.857666015625
  0
POINT
  5
1b3
100
AcDbEntity
  8
DEFPOINTS
  6
CONTINUOUS
 62
     7
100
AcDbPoint
 10
-8.422454833984375
 20
-324.857666015625
  0
ENDBLK
  8
0
  5
1b4
100
AcDbEntity
100
AcDbBlockEnd
  0
BLOCK
  8
0
  5
1b5
100
AcDbEntity
100
AcDbBlockBegin
  2
*D15
 70
    65
 10
0
 20
0
  0
LINE
  5
1b6
100
AcDbEntity
  8
0
  6
CONTINUOUS
 62
     7
100
AcDbLine
 10
-8.225222502347101
 20
-410.2259521484375
 11
-8.225222502347101
 21
-387.8307796114369
  0
LINE
  5
1b7
100
AcDbEntity
  8
0
  6
CONTINUOUS
 62
     7
100
AcDbLine
 10
-8.22522250234711
 20
-423.225952193493
 11
-8.225222502347075
 21
-413.225952103382
  0
INSERT
  5
1b8
100
AcDbEntity
  8
0
  6
CONTINUOUS
 62
     7
100
AcDbBlockReference
  2
_OPEN30
 10
-8.225222502347101
 20
-426.2259521484375
 41
1
 42
1
 43
1
 50
270.0000000000005
  0
INSERT
  5
1b9
100
AcDbEntity
  8
0
  6
CONTINUOUS
 62
     7
100
AcDbBlockReference
  2
_OPEN30
 10
-8.225222502347101
 20
-410.2259521484375
 41
1
 42
1
 43
1
 50
90.00000000000019
  0
LINE
  5
1ba
100
AcDbEntity
  8
0
  6
CONTINUOUS
 62
     7
100
AcDbLine
 10
-30.96701049804688
 20
-426.2259521484375
 11
-5.939222502347102
 21
-426.2259521484375
  0
LINE
  5
1bb
100
AcDbEntity
  8
0
  6
CONTINUOUS
 62
     7
100
AcDbLine
 10
-30.96678161621094
 20
-410.2259521484375
 11
-5.939222502347102
 21
-410.2259521484375
  0
MTEXT
  5
1bc
100
AcDbEntity
  8
0
  6
CONTINUOUS
 62
     7
100
AcDbMText
 10
-9.475222502347098
 20
-406.4020298117085
 40
5
 41
40
 71
     7
 72
     1
  1
{\W0.864328;１６}
 11
0
 21
1
  0
MTEXT
  5
1bd
100
AcDbEntity
  8
0
  6
CONTINUOUS
 62
     7
100
AcDbMText
 10
-13.2252225023471
 20
-396.4020298117085
 40
2.5
 41
40
 71
     7
 72
     1
  1
{\W0.851241;－０．１}
 11
0
 21
1
  0
MTEXT
  5
1be
100
AcDbEntity
  8
0
  6
CONTINUOUS
 62
     7
100
AcDbMText
 10
-9.475222502347101
 20
-396.4020298117085
 40
2.5
 41
40
 71
     7
 72
     1
  1
{\W0.851241;－０．３}
 11
0
 21
1
  0
POINT
  5
1bf
100
AcDbEntity
  8
DEFPOINTS
  6
CONTINUOUS
 62
     7
100
AcDbPoint
 10
-30.96701049804688
 20
-426.2259521484375
  0
POINT
  5
1c0
100
AcDbEntity
  8
DEFPOINTS
  6
CONTINUOUS
 62
     7
100
AcDbPoint
 10
-30.96678161621094
 20
-410.2259521484375
  0
POINT
  5
1c1
100
AcDbEntity
  8
DEFPOINTS
  6
CONTINUOUS
 62
     7
100
AcDbPoint
 10
-8.225222502347101
 20
-410.2259521484375
  0
ENDBLK
  8
0
  5
1c2
100
AcDbEntity
100
AcDbBlockEnd
  0
BLOCK
  8
0
  5
1c3
100
AcDbEntity
100
AcDbBlockBegin
  2
*D16
 70
    65
 10
0
 20
0
  0
LINE
  5
1c4
100
AcDbEntity
  8
0
  6
CONTINUOUS
 62
     7
100
AcDbLine
 10
217.6230235069764
 20
-348.1431440394209
 11
235.2109063220214
 21
-362.0057991567754
  0
LINE
  5
1c5
100
AcDbEntity
  8
0
  6
CONTINUOUS
 62
     7
100
AcDbLine
 10
205.8424654004942
 20
-338.8577292131737
 11
215.2669209600196
 21
-346.2860290514855
  0
INSERT
  5
1c6
100
AcDbEntity
  8
0
  6
CONTINUOUS
 62
     7
100
AcDbBlockReference
  2
_OPEN30
 10
217.6230348056693
 20
-348.1431039762003
 41
1
 42
1
 43
1
 50
321.7550314372535
  0
MTEXT
  5
1c7
100
AcDbEntity
  8
0
  6
CONTINUOUS
 62
     7
100
AcDbMText
 10
229.8817138671875
 20
-357.8052978515625
 40
5
 41
60
 71
     8
 72
     1
  1
{\W0.855331;Ｒ１５}
 11
0.7858568931754029
 21
-0.618408395357553
  0
POINT
  5
1c8
100
AcDbEntity
  8
DEFPOINTS
  6
CONTINUOUS
 62
     7
100
AcDbPoint
 10
205.8424654004942
 20
-338.8577292131737
  0
POINT
  5
1c9
100
AcDbEntity
  8
DEFPOINTS
  6
CONTINUOUS
 62
     7
100
AcDbPoint
 10
217.6230348056693
 20
-348.1431039762003
  0
ENDBLK
  8
0
  5
1ca
100
AcDbEntity
100
AcDbBlockEnd
  0
BLOCK
  8
0
  5
1cb
100
AcDbEntity
100
AcDbBlockBegin
  2
*D17
 70
    65
 10
0
 20
0
  0
LINE
  5
1cc
100
AcDbEntity
  8
0
  6
CONTINUOUS
 62
     7
100
AcDbLine
 10
-117.4668579552117
 20
-375.5580410629605
 11
-46.46685786510077
 21
-375.5580410629605
  0
INSERT
  5
1cd
100
AcDbEntity
  8
0
  6
CONTINUOUS
 62
     7
100
AcDbBlockReference
  2
_OPEN30
 10
-120.4668579101563
 20
-375.5580410629605
 41
1
 42
1
 43
1
 50
180.0000000000004
  0
INSERT
  5
1ce
100
AcDbEntity
  8
0
  6
CONTINUOUS
 62
     7
100
AcDbBlockReference
  2
_OPEN30
 10
-43.46685791015625
 20
-375.5580410629605
 41
1
 42
1
 43
1
  0
LINE
  5
1cf
100
AcDbEntity
  8
0
  6
CONTINUOUS
 62
     7
100
AcDbLine
 10
-120.4668579101563
 20
-347.857666015625
 11
-120.4668579101563
 21
-377.8440410629605
  0
LINE
  5
1d0
100
AcDbEntity
  8
0
  6
CONTINUOUS
 62
     7
100
AcDbLine
 10
-43.46685791015625
 20
-344.857666015625
 11
-43.46685791015625
 21
-377.8440410629605
  0
MTEXT
  5
1d1
100
AcDbEntity
  8
0
  6
CONTINUOUS
 62
     7
100
AcDbMText
 10
-81.96685791015625
 20
-375.5580410629605
 40
5
 41
40
 71
     8
 72
     1
  1
{\W0.864328;７７}
  0
POINT
  5
1d2
100
AcDbEntity
  8
DEFPOINTS
  6
CONTINUOUS
 62
     7
100
AcDbPoint
 10
-120.4668579101563
 20
-347.857666015625
  0
POINT
  5
1d3
100
AcDbEntity
  8
DEFPOINTS
  6
CONTINUOUS
 62
     7
100
AcDbPoint
 10
-43.46685791015625
 20
-344.857666015625
  0
POINT
  5
1d4
100
AcDbEntity
  8
DEFPOINTS
  6
CONTINUOUS
 62
     7
100
AcDbPoint
 10
-43.46685791015625
 20
-375.5580410629605
  0
ENDBLK
  8
0
  5
1d5
100
AcDbEntity
100
AcDbBlockEnd
  0
BLOCK
  8
0
  5
1d6
100
AcDbEntity
100
AcDbBlockBegin
  2
*D18
 70
    65
 10
0
 20
0
  0
LINE
  5
1d7
100
AcDbEntity
  8
0
  6
CONTINUOUS
 62
     7
100
AcDbLine
 10
137.8424376990851
 20
-373.8814086914063
 11
142.8424377891961
 21
-373.8814086914063
  0
INSERT
  5
1d8
100
AcDbEntity
  8
0
  6
CONTINUOUS
 62
     7
100
AcDbBlockReference
  2
_OPEN30
 10
134.8424377441406
 20
-373.8814086914063
 41
1
 42
1
 43
1
 50
180.0000000000004
  0
INSERT
  5
1d9
100
AcDbEntity
  8
0
  6
CONTINUOUS
 62
     7
100
AcDbBlockReference
  2
_OPEN30
 10
145.8424377441406
 20
-373.8814086914063
 41
1
 42
1
 43
1
  0
LINE
  5
1da
100
AcDbEntity
  8
0
  6
CONTINUOUS
 62
     7
100
AcDbLine
 10
134.8424377441406
 20
-350.1160583496094
 11
134.8424377441406
 21
-376.7384033203125
  0
LINE
  5
1db
100
AcDbEntity
  8
0
  6
CONTINUOUS
 62
     7
100
AcDbLine
 10
145.8424377441406
 20
-351.8576965332031
 11
145.8424377441406
 21
-376.7384033203125
  0
MTEXT
  5
1dc
100
AcDbEntity
  8
0
  6
CONTINUOUS
 62
     7
100
AcDbMText
 10
140.3424377441406
 20
-373.8814086914063
 40
5
 41
40
 71
     8
 72
     1
  1
{\W0.864328;１１}
  0
POINT
  5
1dd
100
AcDbEntity
  8
DEFPOINTS
  6
CONTINUOUS
 62
     7
100
AcDbPoint
 10
134.8424377441406
 20
-350.1160583496094
  0
POINT
  5
1de
100
AcDbEntity
  8
DEFPOINTS
  6
CONTINUOUS
 62
     7
100
AcDbPoint
 10
145.8424377441406
 20
-351.8576965332031
  0
POINT
  5
1df
100
AcDbEntity
  8
DEFPOINTS
  6
CONTINUOUS
 62
     7
100
AcDbPoint
 10
145.8424377441406
 20
-373.8814086914063
  0
ENDBLK
  8
0
  5
1e0
100
AcDbEntity
100
AcDbBlockEnd
  0
BLOCK
  8
0
  5
1e1
100
AcDbEntity
100
AcDbBlockBegin
  2
*D19
 70
    65
 10
0
 20
0
  0
LINE
  5
1e2
100
AcDbEntity
  8
0
  6
CONTINUOUS
 62
     7
100
AcDbLine
 10
148.8424376990851
 20
-373.8814086914063
 11
202.8424377891961
 21
-373.8814086914063
  0
INSERT
  5
1e3
100
AcDbEntity
  8
0
  6
CONTINUOUS
 62
     7
100
AcDbBlockReference
  2
_OPEN30
 10
145.8424377441406
 20
-373.8814086914063
 41
1
 42
1
 43
1
 50
180.0000000000004
  0
INSERT
  5
1e4
100
AcDbEntity
  8
0
  6
CONTINUOUS
 62
     7
100
AcDbBlockReference
  2
_OPEN30
 10
205.8424377441406
 20
-373.8814086914063
 41
1
 42
1
 43
1
  0
LINE
  5
1e5
100
AcDbEntity
  8
0
  6
CONTINUOUS
 62
     7
100
AcDbLine
 10
205.8424377441406
 20
-353.857666015625
 11
205.8424377441406
 21
-376.7384033203125
  0
MTEXT
  5
1e6
100
AcDbEntity
  8
0
  6
CONTINUOUS
 62
     7
100
AcDbMText
 10
175.8424377441406
 20
-373.8814086914063
 40
5
 41
40
 71
     8
 72
     1
  1
{\W0.864328;６０}
  0
POINT
  5
1e7
100
AcDbEntity
  8
DEFPOINTS
  6
CONTINUOUS
 62
     7
100
AcDbPoint
 10
145.8424377441406
 20
-351.8576965332031
  0
POINT
  5
1e8
100
AcDbEntity
  8
DEFPOINTS
  6
CONTINUOUS
 62
     7
100
AcDbPoint
 10
205.8424377441406
 20
-353.857666015625
  0
POINT
  5
1e9
100
AcDbEntity
  8
DEFPOINTS
  6
CONTINUOUS
 62
     7
100
AcDbPoint
 10
205.8424377441406
 20
-373.8814086914063
  0
ENDBLK
  8
0
  5
1ea
100
AcDbEntity
100
AcDbBlockEnd
  0
BLOCK
  8
0
  5
1eb
100
AcDbEntity
100
AcDbBlockBegin
  2
*D20
 70
    65
 10
0
 20
0
  0
LINE
  5
1ec
100
AcDbEntity
  8
0
  6
CONTINUOUS
 62
     7
100
AcDbLine
 10
131.8424376990851
 20
-385.7128295898438
 11
202.8424377891961
 21
-385.7128295898438
  0
INSERT
  5
1ed
100
AcDbEntity
  8
0
  6
CONTINUOUS
 62
     7
100
AcDbBlockReference
  2
_OPEN30
 10
128.8424377441406
 20
-385.7128295898438
 41
1
 42
1
 43
1
 50
180.0000000000004
  0
INSERT
  5
1ee
100
AcDbEntity
  8
0
  6
CONTINUOUS
 62
     7
100
AcDbBlockReference
  2
_OPEN30
 10
205.8424377441406
 20
-385.7128295898438
 41
1
 42
1
 43
1
  0
LINE
  5
1ef
100
AcDbEntity
  8
0
  6
CONTINUOUS
 62
     7
100
AcDbLine
 10
128.8424377441406
 20
-347.857666015625
 11
128.8424377441406
 21
-388.56982421875
  0
LINE
  5
1f0
100
AcDbEntity
  8
0
  6
CONTINUOUS
 62
     7
100
AcDbLine
 10
205.8424377441406
 20
-353.857666015625
 11
205.8424377441406
 21
-388.56982421875
  0
MTEXT
  5
1f1
100
AcDbEntity
  8
0
  6
CONTINUOUS
 62
     7
100
AcDbMText
 10
167.3424377441406
 20
-385.7128295898438
 40
5
 41
40
 71
     8
 72
     1
  1
{\W0.864328;７７}
  0
POINT
  5
1f2
100
AcDbEntity
  8
DEFPOINTS
  6
CONTINUOUS
 62
     7
100
AcDbPoint
 10
128.8424377441406
 20
-347.857666015625
  0
POINT
  5
1f3
100
AcDbEntity
  8
DEFPOINTS
  6
CONTINUOUS
 62
     7
100
AcDbPoint
 10
205.8424377441406
 20
-353.857666015625
  0
POINT
  5
1f4
100
AcDbEntity
  8
DEFPOINTS
  6
CONTINUOUS
 62
     7
100
AcDbPoint
 10
205.8424377441406
 20
-385.7128295898438
  0
ENDBLK
  8
0
  5
1f5
100
AcDbEntity
100
AcDbBlockEnd
  0
BLOCK
  8
0
  5
1f6
100
AcDbEntity
100
AcDbBlockBegin
  2
*D21
 70
    65
 10
0
 20
0
  0
LINE
  5
1f7
100
AcDbEntity
  8
0
  6
CONTINUOUS
 62
     7
100
AcDbLine
 10
242.0327881957631
 20
-425.2259521484375
 11
242.0327881957631
 21
-383.8407264001987
  0
LINE
  5
1f8
100
AcDbEntity
  8
0
  6
CONTINUOUS
 62
     7
100
AcDbLine
 10
242.0327881957631
 20
-438.2259216759148
 11
242.0327881957631
 21
-428.225952103382
  0
INSERT
  5
1f9
100
AcDbEntity
  8
0
  6
CONTINUOUS
 62
     7
100
AcDbBlockReference
  2
_OPEN30
 10
242.0327881957631
 20
-441.2259216308594
 41
1
 42
1
 43
1
 50
270.0000000000005
  0
INSERT
  5
1fa
100
AcDbEntity
  8
0
  6
CONTINUOUS
 62
     7
100
AcDbBlockReference
  2
_OPEN30
 10
242.0327881957631
 20
-425.2259521484375
 41
1
 42
1
 43
1
 50
90.00000000000019
  0
LINE
  5
1fb
100
AcDbEntity
  8
0
  6
CONTINUOUS
 62
     7
100
AcDbLine
 10
220.8424377441406
 20
-441.2259216308594
 11
244.3187881957631
 21
-441.2259216308594
  0
LINE
  5
1fc
100
AcDbEntity
  8
0
  6
CONTINUOUS
 62
     7
100
AcDbLine
 10
220.8424377441406
 20
-425.2259521484375
 11
244.3187881957631
 21
-425.2259521484375
  0
MTEXT
  5
1fd
100
AcDbEntity
  8
0
  6
CONTINUOUS
 62
     7
100
AcDbMText
 10
240.7827881957631
 20
-402.4119766004703
 40
5
 41
40
 71
     7
 72
     1
  1
{\W0.864328;１６}
 11
0
 21
1
  0
MTEXT
  5
1fe
100
AcDbEntity
  8
0
  6
CONTINUOUS
 62
     7
100
AcDbMText
 10
237.0327881957631
 20
-392.4119766004703
 40
2.5
 41
40
 71
     7
 72
     1
  1
{\W0.851241;＋０．３}
 11
0
 21
1
  0
MTEXT
  5
1ff
100
AcDbEntity
  8
0
  6
CONTINUOUS
 62
     7
100
AcDbMText
 10
240.7827881957631
 20
-392.4119766004703
 40
2.5
 41
40
 71
     7
 72
     1
  1
{\W0.851241;＋０．１}
 11
0
 21
1
  0
POINT
  5
200
100
AcDbEntity
  8
DEFPOINTS
  6
CONTINUOUS
 62
     7
100
AcDbPoint
 10
220.8424377441406
 20
-441.2259216308594
  0
POINT
  5
201
100
AcDbEntity
  8
DEFPOINTS
  6
CONTINUOUS
 62
     7
100
AcDbPoint
 10
220.8424377441406
 20
-425.2259521484375
  0
POINT
  5
202
100
AcDbEntity
  8
DEFPOINTS
  6
CONTINUOUS
 62
     7
100
AcDbPoint
 10
242.0327881957631
 20
-425.2259521484375
  0
ENDBLK
  8
0
  5
203
100
AcDbEntity
100
AcDbBlockEnd
  0
BLOCK
  8
0
  5
204
100
AcDbEntity
100
AcDbBlockBegin
  2
*D22
 70
    65
 10
0
 20
0
  0
LINE
  5
205
100
AcDbEntity
  8
0
  6
CONTINUOUS
 62
     7
100
AcDbLine
 10
-285.2869263145867
 20
-56.33375549316406
 11
-232.2869262244758
 21
-56.33375549316408
  0
INSERT
  5
206
100
AcDbEntity
  8
0
  6
CONTINUOUS
 62
     7
100
AcDbBlockReference
  2
_OPEN30
 10
-288.2869262695313
 20
-56.33375549316406
 41
1
 42
1
 43
1
 50
180.0000000000004
  0
INSERT
  5
207
100
AcDbEntity
  8
0
  6
CONTINUOUS
 62
     7
100
AcDbBlockReference
  2
_OPEN30
 10
-229.2869262695313
 20
-56.33375549316406
 41
1
 42
1
 43
1
  0
LINE
  5
208
100
AcDbEntity
  8
0
  6
CONTINUOUS
 62
     7
100
AcDbLine
 10
-288.2869262695313
 20
-29.68247985839844
 11
-288.2869262695313
 21
-59.19075775146484
  0
LINE
  5
209
100
AcDbEntity
  8
0
  6
CONTINUOUS
 62
     7
100
AcDbLine
 10
-229.2869262695313
 20
-29.68247985839844
 11
-229.2869262695313
 21
-59.19075775146484
  0
MTEXT
  5
20a
100
AcDbEntity
  8
0
  6
CONTINUOUS
 62
     7
100
AcDbMText
 10
-258.7869262695313
 20
-56.33375549316406
 40
5
 41
60
 71
     8
 72
     1
  1
{\W0.855331;□５９}
  0
POINT
  5
20b
100
AcDbEntity
  8
DEFPOINTS
  6
CONTINUOUS
 62
     7
100
AcDbPoint
 10
-288.2869262695313
 20
-29.68247985839844
  0
POINT
  5
20c
100
AcDbEntity
  8
DEFPOINTS
  6
CONTINUOUS
 62
     7
100
AcDbPoint
 10
-229.2869262695313
 20
-29.68247985839844
  0
POINT
  5
20d
100
AcDbEntity
  8
DEFPOINTS
  6
CONTINUOUS
 62
     7
100
AcDbPoint
 10
-229.2869262695313
 20
-56.33375549316406
  0
ENDBLK
  8
0
  5
20e
100
AcDbEntity
100
AcDbBlockEnd
  0
BLOCK
  8
0
  5
20f
100
AcDbEntity
100
AcDbBlockBegin
  2
*D23
 70
    65
 10
0
 20
0
  0
LINE
  5
210
100
AcDbEntity
  8
0
  6
CONTINUOUS
 62
     7
100
AcDbLine
 10
70.35308833385076
 20
65.13789367675781
 11
79.35308842396174
 21
65.1378936767578
  0
INSERT
  5
211
100
AcDbEntity
  8
0
  6
CONTINUOUS
 62
     7
100
AcDbBlockReference
  2
_OPEN30
 10
67.35308837890625
 20
65.13789367675781
 41
1
 42
1
 43
1
 50
180.0000000000004
  0
INSERT
  5
212
100
AcDbEntity
  8
0
  6
CONTINUOUS
 62
     7
100
AcDbBlockReference
  2
_OPEN30
 10
82.35308837890625
 20
65.13789367675781
 41
1
 42
1
 43
1
  0
LINE
  5
213
100
AcDbEntity
  8
0
  6
CONTINUOUS
 62
     7
100
AcDbLine
 10
67.35308837890625
 20
47.31752014160156
 11
67.35308837890625
 21
67.99489593505859
  0
LINE
  5
214
100
AcDbEntity
  8
0
  6
CONTINUOUS
 62
     7
100
AcDbLine
 10
82.35308837890625
 20
47.31752014160156
 11
82.35308837890625
 21
67.99489593505859
  0
MTEXT
  5
215
100
AcDbEntity
  8
0
  6
CONTINUOUS
 62
     7
100
AcDbMText
 10
74.85308837890625
 20
65.13789367675781
 40
5
 41
40
 71
     8
 72
     1
  1
{\W0.864328;１５}
  0
POINT
  5
216
100
AcDbEntity
  8
DEFPOINTS
  6
CONTINUOUS
 62
     7
100
AcDbPoint
 10
67.35308837890625
 20
47.31752014160156
  0
POINT
  5
217
100
AcDbEntity
  8
DEFPOINTS
  6
CONTINUOUS
 62
     7
100
AcDbPoint
 10
82.35308837890625
 20
47.31752014160156
  0
POINT
  5
218
100
AcDbEntity
  8
DEFPOINTS
  6
CONTINUOUS
 62
     7
100
AcDbPoint
 10
82.35308837890625
 20
65.13789367675781
  0
ENDBLK
  8
0
  5
219
100
AcDbEntity
100
AcDbBlockEnd
  0
BLOCK
  8
0
  5
21a
100
AcDbEntity
100
AcDbBlockBegin
  2
*D24
 70
    65
 10
0
 20
0
  0
LINE
  5
21b
100
AcDbEntity
  8
0
  6
CONTINUOUS
 62
     7
100
AcDbLine
 10
85.35308833385076
 20
65.13789367675781
 11
122.3530731651727
 21
65.1378936767578
  0
INSERT
  5
21c
100
AcDbEntity
  8
0
  6
CONTINUOUS
 62
     7
100
AcDbBlockReference
  2
_OPEN30
 10
82.35308837890625
 20
65.13789367675781
 41
1
 42
1
 43
1
 50
180.0000000000004
  0
INSERT
  5
21d
100
AcDbEntity
  8
0
  6
CONTINUOUS
 62
     7
100
AcDbBlockReference
  2
_OPEN30
 10
125.3530731201172
 20
65.13789367675781
 41
1
 42
1
 43
1
  0
LINE
  5
21e
100
AcDbEntity
  8
0
  6
CONTINUOUS
 62
     7
100
AcDbLine
 10
125.3530731201172
 20
15.11767196655273
 11
125.3530731201172
 21
67.99489593505859
  0
MTEXT
  5
21f
100
AcDbEntity
  8
0
  6
CONTINUOUS
 62
     7
100
AcDbMText
 10
103.8530807495117
 20
65.13789367675781
 40
5
 41
40
 71
     8
 72
     1
  1
{\W0.864328;４３}
  0
POINT
  5
220
100
AcDbEntity
  8
DEFPOINTS
  6
CONTINUOUS
 62
     7
100
AcDbPoint
 10
82.35308837890625
 20
47.31752014160156
  0
POINT
  5
221
100
AcDbEntity
  8
DEFPOINTS
  6
CONTINUOUS
 62
     7
100
AcDbPoint
 10
125.3530731201172
 20
15.11767196655273
  0
POINT
  5
222
100
AcDbEntity
  8
DEFPOINTS
  6
CONTINUOUS
 62
     7
100
AcDbPoint
 10
125.3530731201172
 20
65.13789367675781
  0
ENDBLK
  8
0
  5
223
100
AcDbEntity
100
AcDbBlockEnd
  0
BLOCK
  8
0
  5
224
100
AcDbEntity
100
AcDbBlockBegin
  2
*D25
 70
    65
 10
0
 20
0
  0
LINE
  5
225
100
AcDbEntity
  8
0
  6
CONTINUOUS
 62
     7
100
AcDbLine
 10
215.9930724647101
 20
-56.31156921386719
 11
314.9930725548211
 21
-56.31156921386721
  0
INSERT
  5
226
100
AcDbEntity
  8
0
  6
CONTINUOUS
 62
     7
100
AcDbBlockReference
  2
_OPEN30
 10
212.9930725097656
 20
-56.31156921386719
 41
1
 42
1
 43
1
 50
180.0000000000004
  0
INSERT
  5
227
100
AcDbEntity
  8
0
  6
CONTINUOUS
 62
     7
100
AcDbBlockReference
  2
_OPEN30
 10
317.9930725097656
 20
-56.31156921386719
 41
1
 42
1
 43
1
  0
LINE
  5
228
100
AcDbEntity
  8
0
  6
CONTINUOUS
 62
     7
100
AcDbLine
 10
212.9930725097656
 20
-27.93247985839844
 11
212.9930725097656
 21
-59.1685676574707
  0
LINE
  5
229
100
AcDbEntity
  8
0
  6
CONTINUOUS
 62
     7
100
AcDbLine
 10
317.9930725097656
 20
-27.93247985839844
 11
317.9930725097656
 21
-59.1685676574707
  0
MTEXT
  5
22a
100
AcDbEntity
  8
0
  6
CONTINUOUS
 62
     7
100
AcDbMText
 10
265.4930725097656
 20
-56.31156921386719
 40
5
 41
60
 71
     8
 72
     1
  1
{\W0.855331;１０５}
  0
POINT
  5
22b
100
AcDbEntity
  8
DEFPOINTS
  6
CONTINUOUS
 62
     7
100
AcDbPoint
 10
212.9930725097656
 20
-27.93247985839844
  0
POINT
  5
22c
100
AcDbEntity
  8
DEFPOINTS
  6
CONTINUOUS
 62
     7
100
AcDbPoint
 10
317.9930725097656
 20
-27.93247985839844
  0
POINT
  5
22d
100
AcDbEntity
  8
DEFPOINTS
  6
CONTINUOUS
 62
     7
100
AcDbPoint
 10
317.9930725097656
 20
-56.31156921386719
  0
ENDBLK
  8
0
  5
22e
100
AcDbEntity
100
AcDbBlockEnd
  0
BLOCK
  8
0
  5
22f
100
AcDbEntity
100
AcDbBlockBegin
  2
*D26
 70
    65
 10
0
 20
0
  0
LINE
  5
230
100
AcDbEntity
  8
0
  6
CONTINUOUS
 62
     7
100
AcDbLine
 10
203.4930724647101
 20
-68.70767211914063
 11
327.4930725548211
 21
-68.70767211914064
  0
INSERT
  5
231
100
AcDbEntity
  8
0
  6
CONTINUOUS
 62
     7
100
AcDbBlockReference
  2
_OPEN30
 10
200.4930725097656
 20
-68.70767211914063
 41
1
 42
1
 43
1
 50
180.0000000000004
  0
INSERT
  5
232
100
AcDbEntity
  8
0
  6
CONTINUOUS
 62
     7
100
AcDbBlockReference
  2
_OPEN30
 10
330.4930725097656
 20
-68.70767211914063
 41
1
 42
1
 43
1
  0
LINE
  5
233
100
AcDbEntity
  8
0
  6
CONTINUOUS
 62
     7
100
AcDbLine
 10
200.4930725097656
 20
-29.68247985839844
 11
200.4930725097656
 21
-71.56467437744141
  0
LINE
  5
234
100
AcDbEntity
  8
0
  6
CONTINUOUS
 62
     7
100
AcDbLine
 10
330.4930725097656
 20
-29.68247985839844
 11
330.4930725097656
 21
-71.56467437744141
  0
MTEXT
  5
235
100
AcDbEntity
  8
0
  6
CONTINUOUS
 62
     7
100
AcDbMText
 10
265.4930725097656
 20
-68.70767211914063
 40
5
 41
60
 71
     8
 72
     1
  1
{\W0.855331;１３０}
  0
POINT
  5
236
100
AcDbEntity
  8
DEFPOINTS
  6
CONTINUOUS
 62
     7
100
AcDbPoint
 10
200.4930725097656
 20
-29.68247985839844
  0
POINT
  5
237
100
AcDbEntity
  8
DEFPOINTS
  6
CONTINUOUS
 62
     7
100
AcDbPoint
 10
330.4930725097656
 20
-29.68247985839844
  0
POINT
  5
238
100
AcDbEntity
  8
DEFPOINTS
  6
CONTINUOUS
 62
     7
100
AcDbPoint
 10
330.4930725097656
 20
-68.70767211914063
  0
ENDBLK
  8
0
  5
239
100
AcDbEntity
100
AcDbBlockEnd
  0
BLOCK
  8
0
  5
23a
100
AcDbEntity
100
AcDbBlockBegin
  2
*D27
 70
    65
 10
0
 20
0
  0
LINE
  5
23b
100
AcDbEntity
  8
0
  6
CONTINUOUS
 62
     7
100
AcDbLine
 10
350.9859619140625
 20
-19.18247990345392
 11
350.9859619140625
 21
33.81752018665704
  0
INSERT
  5
23c
100
AcDbEntity
  8
0
  6
CONTINUOUS
 62
     7
100
AcDbBlockReference
  2
_OPEN30
 10
350.9859619140625
 20
-22.18247985839844
 41
1
 42
1
 43
1
 50
270.0000000000005
  0
INSERT
  5
23d
100
AcDbEntity
  8
0
  6
CONTINUOUS
 62
     7
100
AcDbBlockReference
  2
_OPEN30
 10
350.9859619140625
 20
36.81752014160156
 41
1
 42
1
 43
1
 50
90.00000000000019
  0
LINE
  5
23e
100
AcDbEntity
  8
0
  6
CONTINUOUS
 62
     7
100
AcDbLine
 10
323.7430725097656
 20
-22.18247985839844
 11
353.8429565429688
 21
-22.18247985839844
  0
LINE
  5
23f
100
AcDbEntity
  8
0
  6
CONTINUOUS
 62
     7
100
AcDbLine
 10
323.7430725097656
 20
36.81752014160156
 11
353.8429565429688
 21
36.81752014160156
  0
MTEXT
  5
240
100
AcDbEntity
  8
0
  6
CONTINUOUS
 62
     7
100
AcDbMText
 10
350.9859619140625
 20
7.317520141601563
 40
5
 41
40
 71
     8
 72
     1
  1
{\W0.864328;５９}
 11
0
 21
1
  0
POINT
  5
241
100
AcDbEntity
  8
DEFPOINTS
  6
CONTINUOUS
 62
     7
100
AcDbPoint
 10
323.7430725097656
 20
-22.18247985839844
  0
POINT
  5
242
100
AcDbEntity
  8
DEFPOINTS
  6
CONTINUOUS
 62
     7
100
AcDbPoint
 10
323.7430725097656
 20
36.81752014160156
  0
POINT
  5
243
100
AcDbEntity
  8
DEFPOINTS
  6
CONTINUOUS
 62
     7
100
AcDbPoint
 10
350.9859619140625
 20
36.81752014160156
  0
ENDBLK
  8
0
  5
244
100
AcDbEntity
100
AcDbBlockEnd
  0
BLOCK
  8
0
  5
245
100
AcDbEntity
100
AcDbBlockBegin
  2
*D28
 70
    65
 10
0
 20
0
  0
LINE
  5
246
100
AcDbEntity
  8
0
  6
CONTINUOUS
 62
     7
100
AcDbLine
 10
-295.7869263145867
 20
-68.92336273193359
 11
-221.7868957068976
 21
-68.92336273193361
  0
INSERT
  5
247
100
AcDbEntity
  8
0
  6
CONTINUOUS
 62
     7
100
AcDbBlockReference
  2
_OPEN30
 10
-298.7869262695313
 20
-68.92336273193359
 41
1
 42
1
 43
1
 50
180.0000000000004
  0
INSERT
  5
248
100
AcDbEntity
  8
0
  6
CONTINUOUS
 62
     7
100
AcDbBlockReference
  2
_OPEN30
 10
-218.7868957519531
 20
-68.92336273193359
 41
1
 42
1
 43
1
  0
LINE
  5
249
100
AcDbEntity
  8
0
  6
CONTINUOUS
 62
     7
100
AcDbLine
 10
-298.7869262695313
 20
-26.68247985839844
 11
-298.7869262695313
 21
-71.78036499023438
  0
LINE
  5
24a
100
AcDbEntity
  8
0
  6
CONTINUOUS
 62
     7
100
AcDbLine
 10
-218.7868957519531
 20
-26.68247985839844
 11
-218.7868957519531
 21
-71.78036499023438
  0
MTEXT
  5
24b
100
AcDbEntity
  8
0
  6
CONTINUOUS
 62
     7
100
AcDbMText
 10
-258.7869262695313
 20
-68.92336273193359
 40
5
 41
60
 71
     8
 72
     1
  1
{\W0.855331;□８０}
  0
POINT
  5
24c
100
AcDbEntity
  8
DEFPOINTS
  6
CONTINUOUS
 62
     7
100
AcDbPoint
 10
-298.7869262695313
 20
-26.68247985839844
  0
POINT
  5
24d
100
AcDbEntity
  8
DEFPOINTS
  6
CONTINUOUS
 62
     7
100
AcDbPoint
 10
-218.7868957519531
 20
-26.68247985839844
  0
POINT
  5
24e
100
AcDbEntity
  8
DEFPOINTS
  6
CONTINUOUS
 62
     7
100
AcDbPoint
 10
-218.7868957519531
 20
-68.92336273193359
  0
ENDBLK
  8
0
  5
24f
100
AcDbEntity
100
AcDbBlockEnd
  0
BLOCK
  8
0
  5
250
100
AcDbEntity
100
AcDbBlockBegin
  2
*D29
 70
    65
 10
0
 20
0
  0
LINE
  5
251
100
AcDbEntity
  8
0
  6
CONTINUOUS
 62
     7
100
AcDbLine
 10
-30.27397475060216
 20
-324.4980757644655
 11
-24.23760710801273
 21
-317.9278844799189
  0
INSERT
  5
252
100
AcDbEntity
  8
0
  6
CONTINUOUS
 62
     7
100
AcDbBlockReference
  2
_OPEN
 10
-32.3036490570482
 20
-326.7072434673391
 41
1
 42
1
 43
1
 50
227.4247362373172
  0
LINE
  5
253
100
AcDbEntity
  8
0
  6
CONTINUOUS
 62
     7
100
AcDbLine
 10
-24.23760710801271
 20
-317.9278844799189
 11
4.048018468960581
 21
-317.9278844799189
  0
MTEXT
  5
254
100
AcDbEntity
  8
0
  6
CONTINUOUS
 62
     7
100
AcDbMText
 10
-7.73760710801238
 20
-317.9278844799189
 40
5
 41
100
 71
     8
 72
     1
  1
{\W0.848905;Ｒ１６．５}
  0
POINT
  5
255
100
AcDbEntity
  8
DEFPOINTS
  6
CONTINUOUS
 62
     7
100
AcDbPoint
 10
-32.3036490570482
 20
-326.7072434673391
  0
POINT
  5
256
100
AcDbEntity
  8
DEFPOINTS
  6
CONTINUOUS
 62
     7
100
AcDbPoint
 10
-24.23760710801273
 20
-317.9278844799189
  0
ENDBLK
  8
0
  5
257
100
AcDbEntity
100
AcDbBlockEnd
  0
BLOCK
  8
0
  5
258
100
AcDbEntity
100
AcDbBlockBegin
  2
*D30
 70
    65
 10
0
 20
0
  0
LINE
  5
259
100
AcDbEntity
  8
0
  6
CONTINUOUS
 62
     7
100
AcDbLine
 10
-67.46685795521174
 20
-446.3180955907987
 11
-46.46685786510077
 21
-446.3180955907987
  0
INSERT
  5
25a
100
AcDbEntity
  8
0
  6
CONTINUOUS
 62
     7
100
AcDbBlockReference
  2
_OPEN
 10
-70.46685791015625
 20
-446.3180955907987
 41
1
 42
1
 43
1
 50
180.0000000000004
  0
INSERT
  5
25b
100
AcDbEntity
  8
0
  6
CONTINUOUS
 62
     7
100
AcDbBlockReference
  2
_OPEN
 10
-43.46685791015625
 20
-446.3180955907987
 41
1
 42
1
 43
1
  0
LINE
  5
25c
100
AcDbEntity
  8
0
  6
CONTINUOUS
 62
     7
100
AcDbLine
 10
-70.46685791015625
 20
-432.2259216308594
 11
-70.46685791015625
 21
-448.6040955907987
  0
LINE
  5
25d
100
AcDbEntity
  8
0
  6
CONTINUOUS
 62
     7
100
AcDbLine
 10
-43.46685791015625
 20
-426.2259368896484
 11
-43.46685791015625
 21
-448.6040955907987
  0
MTEXT
  5
25e
100
AcDbEntity
  8
0
  6
CONTINUOUS
 62
     7
100
AcDbMText
 10
-56.96685791015625
 20
-446.3180955907987
 40
5
 41
40
 71
     8
 72
     1
  1
{\W0.864328;２７}
  0
POINT
  5
25f
100
AcDbEntity
  8
DEFPOINTS
  6
CONTINUOUS
 62
     7
100
AcDbPoint
 10
-70.46685791015625
 20
-432.2259216308594
  0
POINT
  5
260
100
AcDbEntity
  8
DEFPOINTS
  6
CONTINUOUS
 62
     7
100
AcDbPoint
 10
-43.46685791015625
 20
-426.2259368896484
  0
POINT
  5
261
100
AcDbEntity
  8
DEFPOINTS
  6
CONTINUOUS
 62
     7
100
AcDbPoint
 10
-43.46685791015625
 20
-446.3180955907987
  0
ENDBLK
  8
0
  5
262
100
AcDbEntity
100
AcDbBlockEnd
  0
BLOCK
  8
0
  5
263
100
AcDbEntity
100
AcDbBlockBegin
  2
*D31
 70
    65
 10
0
 20
0
  0
LINE
  5
264
100
AcDbEntity
  8
0
  6
CONTINUOUS
 62
     7
100
AcDbLine
 10
-100.4668579552117
 20
-456.507794885313
 11
-46.46685786510077
 21
-456.507794885313
  0
INSERT
  5
265
100
AcDbEntity
  8
0
  6
CONTINUOUS
 62
     7
100
AcDbBlockReference
  2
_OPEN
 10
-103.4668579101563
 20
-456.507794885313
 41
1
 42
1
 43
1
 50
180.0000000000004
  0
INSERT
  5
266
100
AcDbEntity
  8
0
  6
CONTINUOUS
 62
     7
100
AcDbBlockReference
  2
_OPEN
 10
-43.46685791015625
 20
-456.507794885313
 41
1
 42
1
 43
1
  0
LINE
  5
267
100
AcDbEntity
  8
0
  6
CONTINUOUS
 62
     7
100
AcDbLine
 10
-103.4668579101563
 20
-431.7259216308594
 11
-103.4668579101563
 21
-458.793794885313
  0
LINE
  5
268
100
AcDbEntity
  8
0
  6
CONTINUOUS
 62
     7
100
AcDbLine
 10
-43.46685791015625
 20
-426.2259368896484
 11
-43.46685791015625
 21
-458.793794885313
  0
MTEXT
  5
269
100
AcDbEntity
  8
0
  6
CONTINUOUS
 62
     7
100
AcDbMText
 10
-73.46685791015625
 20
-456.507794885313
 40
5
 41
40
 71
     8
 72
     1
  1
{\W0.864328;６０}
  0
POINT
  5
26a
100
AcDbEntity
  8
DEFPOINTS
  6
CONTINUOUS
 62
     7
100
AcDbPoint
 10
-103.4668579101563
 20
-431.7259216308594
  0
POINT
  5
26b
100
AcDbEntity
  8
DEFPOINTS
  6
CONTINUOUS
 62
     7
100
AcDbPoint
 10
-43.46685791015625
 20
-426.2259368896484
  0
POINT
  5
26c
100
AcDbEntity
  8
DEFPOINTS
  6
CONTINUOUS
 62
     7
100
AcDbPoint
 10
-43.46685791015625
 20
-456.507794885313
  0
ENDBLK
  8
0
  5
26d
100
AcDbEntity
100
AcDbBlockEnd
  0
BLOCK
  8
0
  5
26e
100
AcDbEntity
100
AcDbBlockBegin
  2
*D32
 70
    65
 10
0
 20
0
  0
LINE
  5
26f
100
AcDbEntity
  8
0
  6
CONTINUOUS
 62
     7
100
AcDbLine
 10
-40.46685795521173
 20
-456.507794885313
 11
-31.46685786510077
 21
-456.507794885313
  0
INSERT
  5
270
100
AcDbEntity
  8
0
  6
CONTINUOUS
 62
     7
100
AcDbBlockReference
  2
_OPEN
 10
-43.46685791015625
 20
-456.507794885313
 41
1
 42
1
 43
1
 50
180.0000000000004
  0
INSERT
  5
271
100
AcDbEntity
  8
0
  6
CONTINUOUS
 62
     7
100
AcDbBlockReference
  2
_OPEN
 10
-28.46685791015625
 20
-456.507794885313
 41
1
 42
1
 43
1
  0
LINE
  5
272
100
AcDbEntity
  8
0
  6
CONTINUOUS
 62
     7
100
AcDbLine
 10
-28.46685791015625
 20
-423.7257955817518
 11
-28.46685791015625
 21
-458.793794885313
  0
MTEXT
  5
273
100
AcDbEntity
  8
0
  6
CONTINUOUS
 62
     7
100
AcDbMText
 10
-35.96685791015625
 20
-456.507794885313
 40
5
 41
40
 71
     8
 72
     1
  1
{\W0.864328;１５}
  0
POINT
  5
274
100
AcDbEntity
  8
DEFPOINTS
  6
CONTINUOUS
 62
     7
100
AcDbPoint
 10
-43.46685791015625
 20
-426.2259368896484
  0
POINT
  5
275
100
AcDbEntity
  8
DEFPOINTS
  6
CONTINUOUS
 62
     7
100
AcDbPoint
 10
-28.46685791015625
 20
-423.7257955817518
  0
POINT
  5
276
100
AcDbEntity
  8
DEFPOINTS
  6
CONTINUOUS
 62
     7
100
AcDbPoint
 10
-28.46685791015625
 20
-456.507794885313
  0
ENDBLK
  8
0
  5
277
100
AcDbEntity
100
AcDbBlockEnd
  0
BLOCK
  8
0
  5
278
100
AcDbEntity
100
AcDbBlockBegin
  2
*D33
 70
    65
 10
0
 20
0
  0
LINE
  5
279
100
AcDbEntity
  8
0
  6
CONTINUOUS
 62
     7
100
AcDbLine
 10
-106.4668578651008
 20
-456.507794885313
 11
-111.4668579552117
 21
-456.507794885313
  0
INSERT
  5
27a
100
AcDbEntity
  8
0
  6
CONTINUOUS
 62
     7
100
AcDbBlockReference
  2
_OPEN
 10
-103.4668579101563
 20
-456.507794885313
 41
1
 42
1
 43
1
  0
INSERT
  5
27b
100
AcDbEntity
  8
0
  6
CONTINUOUS
 62
     7
100
AcDbBlockReference
  2
_OPEN
 10
-114.4668579101563
 20
-456.507794885313
 41
1
 42
1
 43
1
 50
180.0000000000004
  0
LINE
  5
27c
100
AcDbEntity
  8
0
  6
CONTINUOUS
 62
     7
100
AcDbLine
 10
-114.4668579101563
 20
-431.7259216308594
 11
-114.4668579101563
 21
-458.793794885313
  0
MTEXT
  5
27d
100
AcDbEntity
  8
0
  6
CONTINUOUS
 62
     7
100
AcDbMText
 10
-108.9668579101563
 20
-456.507794885313
 40
5
 41
40
 71
     8
 72
     1
  1
{\W0.864328;１１}
  0
POINT
  5
27e
100
AcDbEntity
  8
DEFPOINTS
  6
CONTINUOUS
 62
     7
100
AcDbPoint
 10
-103.4668579101563
 20
-431.7259216308594
  0
POINT
  5
27f
100
AcDbEntity
  8
DEFPOINTS
  6
CONTINUOUS
 62
     7
100
AcDbPoint
 10
-114.4668579101563
 20
-431.7259216308594
  0
POINT
  5
280
100
AcDbEntity
  8
DEFPOINTS
  6
CONTINUOUS
 62
     7
100
AcDbPoint
 10
-114.4668579101563
 20
-456.507794885313
  0
ENDBLK
  8
0
  5
281
100
AcDbEntity
100
AcDbBlockEnd
  0
BLOCK
  8
0
  5
282
100
AcDbEntity
100
AcDbBlockBegin
  2
*D34
 70
    65
 10
0
 20
0
  0
LINE
  5
283
100
AcDbEntity
  8
0
  6
CONTINUOUS
 62
     7
100
AcDbLine
 10
156.9280056451868
 20
-324.857666015625
 11
156.9280056451868
 21
-303.5485735718173
  0
LINE
  5
284
100
AcDbEntity
  8
0
  6
CONTINUOUS
 62
     7
100
AcDbLine
 10
156.9280056451868
 20
-349.8576660606805
 11
156.9280056451868
 21
-327.8576659705695
  0
INSERT
  5
285
100
AcDbEntity
  8
0
  6
CONTINUOUS
 62
     7
100
AcDbBlockReference
  2
_OPEN
 10
156.9280056451868
 20
-352.857666015625
 41
1
 42
1
 43
1
 50
270.0000000000005
  0
INSERT
  5
286
100
AcDbEntity
  8
0
  6
CONTINUOUS
 62
     7
100
AcDbBlockReference
  2
_OPEN
 10
156.9280056451868
 20
-324.857666015625
 41
1
 42
1
 43
1
 50
90.00000000000019
  0
LINE
  5
287
100
AcDbEntity
  8
0
  6
CONTINUOUS
 62
     7
100
AcDbLine
 10
146.8424377441406
 20
-352.857666015625
 11
159.2140056451868
 21
-352.857666015625
  0
LINE
  5
288
100
AcDbEntity
  8
0
  6
CONTINUOUS
 62
     7
100
AcDbLine
 10
146.8424377441406
 20
-324.857666015625
 11
159.2140056451868
 21
-324.857666015625
  0
MTEXT
  5
289
100
AcDbEntity
  8
0
  6
CONTINUOUS
 62
     7
100
AcDbMText
 10
156.9280056451868
 20
-310.3341989103717
 40
5
 41
110
 71
     8
 72
     1
  1
{\W0.855331;\U+2205２８}
 11
0
 21
1
  0
POINT
  5
28a
100
AcDbEntity
  8
DEFPOINTS
  6
CONTINUOUS
 62
     7
100
AcDbPoint
 10
146.8424377441406
 20
-352.857666015625
  0
POINT
  5
28b
100
AcDbEntity
  8
DEFPOINTS
  6
CONTINUOUS
 62
     7
100
AcDbPoint
 10
146.8424377441406
 20
-324.857666015625
  0
POINT
  5
28c
100
AcDbEntity
  8
DEFPOINTS
  6
CONTINUOUS
 62
     7
100
AcDbPoint
 10
156.9280056451868
 20
-324.857666015625
  0
ENDBLK
  8
0
  5
28d
100
AcDbEntity
100
AcDbBlockEnd
  0
BLOCK
  8
0
  5
28e
100
AcDbEntity
100
AcDbBlockBegin
  2
*D35
 70
    65
 10
0
 20
0
  0
LINE
  5
28f
100
AcDbEntity
  8
0
  6
CONTINUOUS
 62
     7
100
AcDbLine
 10
255.4460419673213
 20
-449.2259216759148
 11
255.4460419673214
 21
-417.225936844593
  0
INSERT
  5
290
100
AcDbEntity
  8
0
  6
CONTINUOUS
 62
     7
100
AcDbBlockReference
  2
_OPEN
 10
255.4460419673213
 20
-452.2259216308594
 41
1
 42
1
 43
1
 50
270.0000000000005
  0
INSERT
  5
291
100
AcDbEntity
  8
0
  6
CONTINUOUS
 62
     7
100
AcDbBlockReference
  2
_OPEN
 10
255.4460419673213
 20
-414.2259368896484
 41
1
 42
1
 43
1
 50
90.00000000000019
  0
LINE
  5
292
100
AcDbEntity
  8
0
  6
CONTINUOUS
 62
     7
100
AcDbLine
 10
218.8424072265625
 20
-452.2259216308594
 11
257.7320419673213
 21
-452.2259216308594
  0
LINE
  5
293
100
AcDbEntity
  8
0
  6
CONTINUOUS
 62
     7
100
AcDbLine
 10
218.8424377441406
 20
-414.2259368896484
 11
257.7320419673213
 21
-414.2259368896484
  0
MTEXT
  5
294
100
AcDbEntity
  8
0
  6
CONTINUOUS
 62
     7
100
AcDbMText
 10
255.4460419673213
 20
-433.2259292602539
 40
5
 41
40
 71
     8
 72
     1
  1
{\W0.864328;３８}
 11
0
 21
1
  0
POINT
  5
295
100
AcDbEntity
  8
DEFPOINTS
  6
CONTINUOUS
 62
     7
100
AcDbPoint
 10
218.8424072265625
 20
-452.2259216308594
  0
POINT
  5
296
100
AcDbEntity
  8
DEFPOINTS
  6
CONTINUOUS
 62
     7
100
AcDbPoint
 10
218.8424377441406
 20
-414.2259368896484
  0
POINT
  5
297
100
AcDbEntity
  8
DEFPOINTS
  6
CONTINUOUS
 62
     7
100
AcDbPoint
 10
255.4460419673213
 20
-414.2259368896484
  0
ENDBLK
  8
0
  5
298
100
AcDbEntity
100
AcDbBlockEnd
  0
BLOCK
  8
0
  5
299
100
AcDbEntity
100
AcDbBlockBegin
  2
*D36
 70
    65
 10
0
 20
0
  0
LINE
  5
29a
100
AcDbEntity
  8
0
  6
CONTINUOUS
 62
     7
100
AcDbLine
 10
267.4717177625115
 20
-458.7259216759148
 11
267.4717177625115
 21
-407.725936844593
  0
INSERT
  5
29b
100
AcDbEntity
  8
0
  6
CONTINUOUS
 62
     7
100
AcDbBlockReference
  2
_OPEN
 10
267.4717177625115
 20
-461.7259216308594
 41
1
 42
1
 43
1
 50
270.0000000000005
  0
INSERT
  5
29c
100
AcDbEntity
  8
0
  6
CONTINUOUS
 62
     7
100
AcDbBlockReference
  2
_OPEN
 10
267.4717177625115
 20
-404.7259368896484
 41
1
 42
1
 43
1
 50
90.00000000000019
  0
LINE
  5
29d
100
AcDbEntity
  8
0
  6
CONTINUOUS
 62
     7
100
AcDbLine
 10
210.8424377441406
 20
-461.7259216308594
 11
269.7577177625115
 21
-461.7259216308594
  0
LINE
  5
29e
100
AcDbEntity
  8
0
  6
CONTINUOUS
 62
     7
100
AcDbLine
 10
210.8424377441406
 20
-404.7259368896484
 11
269.7577177625115
 21
-404.7259368896484
  0
MTEXT
  5
29f
100
AcDbEntity
  8
0
  6
CONTINUOUS
 62
     7
100
AcDbMText
 10
267.4717177625115
 20
-433.2259292602539
 40
5
 41
40
 71
     8
 72
     1
  1
{\W0.864328;５７}
 11
0
 21
1
  0
POINT
  5
2a0
100
AcDbEntity
  8
DEFPOINTS
  6
CONTINUOUS
 62
     7
100
AcDbPoint
 10
210.8424377441406
 20
-461.7259216308594
  0
POINT
  5
2a1
100
AcDbEntity
  8
DEFPOINTS
  6
CONTINUOUS
 62
     7
100
AcDbPoint
 10
210.8424377441406
 20
-404.7259368896484
  0
POINT
  5
2a2
100
AcDbEntity
  8
DEFPOINTS
  6
CONTINUOUS
 62
     7
100
AcDbPoint
 10
267.4717177625115
 20
-404.7259368896484
  0
ENDBLK
  8
0
  5
2a3
100
AcDbEntity
100
AcDbBlockEnd
  0
BLOCK
  8
0
  5
2a4
100
AcDbEntity
100
AcDbBlockBegin
  2
*D37
 70
    65
 10
0
 20
0
  0
LINE
  5
2a5
100
AcDbEntity
  8
0
  6
CONTINUOUS
 62
     7
100
AcDbLine
 10
-133.6469268798828
 20
-83.75977192362589
 11
-143.8261333648054
 21
-83.75977192362589
  0
LINE
  5
2a6
100
AcDbEntity
  8
0
  6
CONTINUOUS
 62
     7
100
AcDbLine
 10
-133.6469268798828
 20
-83.75977192362589
 11
-130.6469268798828
 21
-83.75977192362589
  0
INSERT
  5
2a7
100
AcDbEntity
  8
0
  6
CONTINUOUS
 62
     7
100
AcDbBlockReference
  2
_OPEN
 10
-133.6469268798828
 20
-83.75977192362589
 41
1
 42
1
 43
1
 50
3.562221243239139e-013
  0
LINE
  5
2a8
100
AcDbEntity
  8
0
  6
CONTINUOUS
 62
     7
100
AcDbLine
 10
-136.6469268348273
 20
-83.75977192362591
 11
-139.9969267845154
 21
-83.75977192362593
  0
INSERT
  5
2a9
100
AcDbEntity
  8
0
  6
CONTINUOUS
 62
     7
100
AcDbBlockReference
  2
_OPEN
 10
-130.6469268798828
 20
-83.75977192362589
 41
1
 42
1
 43
1
 50
180
  0
LINE
  5
2aa
100
AcDbEntity
  8
0
  6
CONTINUOUS
 62
     7
100
AcDbLine
 10
-127.6469269249383
 20
-83.75977192362589
 11
-124.2969269752502
 21
-83.75977192362589
  0
LINE
  5
2ab
100
AcDbEntity
  8
0
  6
CONTINUOUS
 62
     7
100
AcDbLine
 10
-133.6469268798828
 20
-11.68247985839844
 11
-133.6469268798828
 21
-86.04577192362589
  0
LINE
  5
2ac
100
AcDbEntity
  8
0
  6
CONTINUOUS
 62
     7
100
AcDbLine
 10
-130.6469268798828
 20
-32.68247985839844
 11
-130.6469268798828
 21
-86.04577192362589
  0
MTEXT
  5
2ad
100
AcDbEntity
  8
0
  6
CONTINUOUS
 62
     7
100
AcDbMText
 10
-142.0405082646696
 20
-83.75977192362589
 40
5
 41
20
 71
     8
 72
     1
  1
{\W0.900315;３}
  0
POINT
  5
2ae
100
AcDbEntity
  8
DEFPOINTS
  6
CONTINUOUS
 62
     7
100
AcDbPoint
 10
-133.6469268798828
 20
-11.68247985839844
  0
POINT
  5
2af
100
AcDbEntity
  8
DEFPOINTS
  6
CONTINUOUS
 62
     7
100
AcDbPoint
 10
-130.6469268798828
 20
-32.68247985839844
  0
POINT
  5
2b0
100
AcDbEntity
  8
DEFPOINTS
  6
CONTINUOUS
 62
     7
100
AcDbPoint
 10
-130.6469268798828
 20
-83.75977192362589
  0
ENDBLK
  8
0
  5
2b1
100
AcDbEntity
100
AcDbBlockEnd
  0
BLOCK
  8
0
  5
2b2
100
AcDbEntity
100
AcDbBlockBegin
  2
*D38
 70
    65
 10
0
 20
0
  0
LINE
  5
2b3
100
AcDbEntity
  8
0
  6
CONTINUOUS
 62
     7
100
AcDbLine
 10
70.35308833385076
 20
-83.75977192362589
 11
122.3530731651727
 21
-83.75977192362591
  0
INSERT
  5
2b4
100
AcDbEntity
  8
0
  6
CONTINUOUS
 62
     7
100
AcDbBlockReference
  2
_OPEN
 10
67.35308837890625
 20
-83.75977192362589
 41
1
 42
1
 43
1
 50
180.0000000000004
  0
INSERT
  5
2b5
100
AcDbEntity
  8
0
  6
CONTINUOUS
 62
     7
100
AcDbBlockReference
  2
_OPEN
 10
125.3530731201172
 20
-83.75977192362589
 41
1
 42
1
 43
1
  0
LINE
  5
2b6
100
AcDbEntity
  8
0
  6
CONTINUOUS
 62
     7
100
AcDbLine
 10
67.35308837890625
 20
-34.68247985839844
 11
67.35308837890625
 21
-86.04577192362589
  0
LINE
  5
2b7
100
AcDbEntity
  8
0
  6
CONTINUOUS
 62
     7
100
AcDbLine
 10
125.3530731201172
 20
-0.4825887118905881
 11
125.3530731201172
 21
-86.04577192362589
  0
MTEXT
  5
2b8
100
AcDbEntity
  8
0
  6
CONTINUOUS
 62
     7
100
AcDbMText
 10
96.35308074951172
 20
-83.75977192362589
 40
5
 41
40
 71
     8
 72
     1
  1
{\W0.864328;５８}
  0
POINT
  5
2b9
100
AcDbEntity
  8
DEFPOINTS
  6
CONTINUOUS
 62
     7
100
AcDbPoint
 10
67.35308837890625
 20
-34.68247985839844
  0
POINT
  5
2ba
100
AcDbEntity
  8
DEFPOINTS
  6
CONTINUOUS
 62
     7
100
AcDbPoint
 10
125.3530731201172
 20
-0.4825887118905881
  0
POINT
  5
2bb
100
AcDbEntity
  8
DEFPOINTS
  6
CONTINUOUS
 62
     7
100
AcDbPoint
 10
125.3530731201172
 20
-83.75977192362589
  0
ENDBLK
  8
0
  5
2bc
100
AcDbEntity
100
AcDbBlockEnd
  0
BLOCK
  8
0
  5
2bd
100
AcDbEntity
100
AcDbBlockBegin
  2
*D39
 70
    65
 10
0
 20
0
  0
LINE
  5
2be
100
AcDbEntity
  8
0
  6
CONTINUOUS
 62
     7
100
AcDbLine
 10
365.0801746469703
 20
-31.68247990345392
 11
365.0801746469703
 21
46.31752018665704
  0
INSERT
  5
2bf
100
AcDbEntity
  8
0
  6
CONTINUOUS
 62
     7
100
AcDbBlockReference
  2
_OPEN
 10
365.0801746469703
 20
-34.68247985839844
 41
1
 42
1
 43
1
 50
270.0000000000005
  0
INSERT
  5
2c0
100
AcDbEntity
  8
0
  6
CONTINUOUS
 62
     7
100
AcDbBlockReference
  2
_OPEN
 10
365.0801746469703
 20
49.31752014160156
 41
1
 42
1
 43
1
 50
90.00000000000019
  0
LINE
  5
2c1
100
AcDbEntity
  8
0
  6
CONTINUOUS
 62
     7
100
AcDbLine
 10
330.4930725097656
 20
-34.68247985839844
 11
367.3661746469703
 21
-34.68247985839844
  0
LINE
  5
2c2
100
AcDbEntity
  8
0
  6
CONTINUOUS
 62
     7
100
AcDbLine
 10
330.4930725097656
 20
49.31752014160156
 11
367.3661746469703
 21
49.31752014160156
  0
MTEXT
  5
2c3
100
AcDbEntity
  8
0
  6
CONTINUOUS
 62
     7
100
AcDbMText
 10
365.0801746469703
 20
7.317520141601563
 40
5
 41
40
 71
     8
 72
     1
  1
{\W0.864328;８４}
 11
0
 21
1
  0
POINT
  5
2c4
100
AcDbEntity
  8
DEFPOINTS
  6
CONTINUOUS
 62
     7
100
AcDbPoint
 10
330.4930725097656
 20
-34.68247985839844
  0
POINT
  5
2c5
100
AcDbEntity
  8
DEFPOINTS
  6
CONTINUOUS
 62
     7
100
AcDbPoint
 10
330.4930725097656
 20
49.31752014160156
  0
POINT
  5
2c6
100
AcDbEntity
  8
DEFPOINTS
  6
CONTINUOUS
 62
     7
100
AcDbPoint
 10
365.0801746469703
 20
49.31752014160156
  0
ENDBLK
  8
0
  5
2c7
100
AcDbEntity
100
AcDbBlockEnd
  0
BLOCK
  8
0
  5
2c8
100
AcDbEntity
100
AcDbBlockBegin
  2
*D40
 70
    65
 10
0
 20
0
  0
LINE
  5
2c9
100
AcDbEntity
  8
0
  6
CONTINUOUS
 62
     7
100
AcDbLine
 10
202.8424377891961
 20
-476.6054077148438
 11
181.8424376990851
 21
-476.6054077148438
  0
INSERT
  5
2ca
100
AcDbEntity
  8
0
  6
CONTINUOUS
 62
     7
100
AcDbBlockReference
  2
_OPEN
 10
205.8424377441406
 20
-476.6054077148438
 41
1
 42
1
 43
1
  0
INSERT
  5
2cb
100
AcDbEntity
  8
0
  6
CONTINUOUS
 62
     7
100
AcDbBlockReference
  2
_OPEN
 10
178.8424377441406
 20
-476.6054077148438
 41
1
 42
1
 43
1
 50
180.0000000000004
  0
LINE
  5
2cc
100
AcDbEntity
  8
0
  6
CONTINUOUS
 62
     7
100
AcDbLine
 10
205.8424377441406
 20
-464.2348327636719
 11
205.8424377441406
 21
-478.8914077148438
  0
LINE
  5
2cd
100
AcDbEntity
  8
0
  6
CONTINUOUS
 62
     7
100
AcDbLine
 10
178.8424377441406
 20
-441.2259216308594
 11
178.8424377441406
 21
-478.8914077148438
  0
MTEXT
  5
2ce
100
AcDbEntity
  8
0
  6
CONTINUOUS
 62
     7
100
AcDbMText
 10
192.3424377441406
 20
-476.6054077148438
 40
5
 41
40
 71
     8
 72
     1
  1
{\W0.864328;２７}
  0
POINT
  5
2cf
100
AcDbEntity
  8
DEFPOINTS
  6
CONTINUOUS
 62
     7
100
AcDbPoint
 10
205.8424377441406
 20
-464.2348327636719
  0
POINT
  5
2d0
100
AcDbEntity
  8
DEFPOINTS
  6
CONTINUOUS
 62
     7
100
AcDbPoint
 10
178.8424377441406
 20
-441.2259216308594
  0
POINT
  5
2d1
100
AcDbEntity
  8
DEFPOINTS
  6
CONTINUOUS
 62
     7
100
AcDbPoint
 10
178.8424377441406
 20
-476.6054077148438
  0
ENDBLK
  8
0
  5
2d2
100
AcDbEntity
100
AcDbBlockEnd
  0
BLOCK
  8
0
  5
2d3
100
AcDbEntity
100
AcDbBlockBegin
  2
KOZU0001
 70
    64
 10
0
 20
0
  0
POINT
  5
2d4
100
AcDbEntity
  8
0
  6
CONTINUOUS
 62
     7
100
AcDbPoint
 10
0
 20
0
  0
LINE
  5
2d5
100
AcDbEntity
  8
0
  6
CONTINUOUS
 62
     7
100
AcDbLine
 10
-29.5
 20
40
 11
-0.5
 21
40
  0
LINE
  5
2d6
100
AcDbEntity
  8
0
  6
CONTINUOUS
 62
     7
100
AcDbLine
 10
-1
 20
40
 11
-1
 21
40.25
  0
LINE
  5
2d7
100
AcDbEntity
  8
0
  6
CONTINUOUS
 62
     7
100
AcDbLine
 10
-30
 20
40.25
 11
-1
 21
40.25
  0
LINE
  5
2d8
100
AcDbEntity
  8
0
  6
DASHED
 62
     7
100
AcDbLine
 10
-3.899993896484375
 20
40.25
 11
-3.899993896484375
 21
39.25
  0
LINE
  5
2d9
100
AcDbEntity
  8
0
  6
DASHED
 62
     7
100
AcDbLine
 10
-26.10000610351563
 20
39.25
 11
-3.899993896484375
 21
39.25
  0
LINE
  5
2da
100
AcDbEntity
  8
0
  6
DASHED
 62
     7
100
AcDbLine
 10
-7.730169941434223
 20
27.24998676998329
 11
-7.345897802968988
 21
38.25410157131238
  0
LINE
  5
2db
100
AcDbEntity
  8
0
  6
DASHED
 62
     7
100
AcDbLine
 10
-22.44999694824219
 20
38.04998779296875
 11
-7.550003051757813
 21
38.04998779296875
  0
LINE
  5
2dc
100
AcDbEntity
  8
0
  6
DASHED
 62
     7
100
AcDbLine
 10
-6.873635206348049
 20
27.24999870167626
 11
-6.370728027264599
 21
39.22927316771993
  0
LINE
  5
2dd
100
AcDbEntity
  8
0
  6
CONTINUOUS
 62
     7
100
AcDbLine
 10
-30
 20
-39.5
 11
-30
 21
40.25
  0
LINE
  5
2de
100
AcDbEntity
  8
0
  6
DASHED
 62
     7
100
AcDbLine
 10
-26.10000610351563
 20
40.25
 11
-26.10000610351563
 21
39.25
  0
LINE
  5
2df
100
AcDbEntity
  8
0
  6
DASHED
 62
     7
100
AcDbLine
 10
-23.12636961634912
 20
27.24999501030976
 11
-23.62927663542702
 21
39.22926566501333
  0
LINE
  5
2e0
100
AcDbEntity
  8
0
  6
DASHED
 62
     7
100
AcDbLine
 10
-22.26977397960643
 20
27.2499952283635
 11
-22.65404591837515
 21
38.2541043111324
  0
LINE
  5
2e1
100
AcDbEntity
  8
0
  6
DASHED
 62
     7
100
AcDbLine
 10
-23.64994472426541
 20
39.24992028185048
 11
-22.44994774565815
 21
38.04992330324322
  0
LINE
  5
2e2
100
AcDbEntity
  8
0
  6
CENTER
 62
     3
100
AcDbLine
 10
-15
 20
42.942626953125
 11
-15
 21
27
  0
LINE
  5
2e3
100
AcDbEntity
  8
0
  6
DASHED
 62
     7
100
AcDbLine
 10
-7.549974696474639
 20
38.05002917612667
 11
-6.349977717867379
 21
39.25002615473393
  0
LINE
  5
2e4
100
AcDbEntity
  8
0
  6
CONTINUOUS
 62
     7
100
AcDbLine
 10
21.26792907714844
 20
10
 11
15
 21
10
  0
LINE
  5
2e5
100
AcDbEntity
  8
0
  6
CONTINUOUS
 62
     7
100
AcDbLine
 10
21.26792907714844
 20
5.25
 11
21.26792907714844
 21
10
  0
LINE
  5
2e6
100
AcDbEntity
  8
0
  6
CONTINUOUS
 62
     7
100
AcDbLine
 10
21.26795601216303
 20
9.999983736206609
 11
23.0000068119601
 21
8.999983722745435
  0
LINE
  5
2e7
100
AcDbEntity
  8
0
  6
CONTINUOUS
 62
     7
100
AcDbLine
 10
22.99998474121094
 20
5.25
 11
14.99998474121094
 21
5.25
  0
LINE
  5
2e8
100
AcDbEntity
  8
0
  6
CONTINUOUS
 62
     7
100
AcDbLine
 10
25.99997579180414
 20
-2.500002406640252
 11
14.99998118202836
 21
5.249994142035741
  0
LINE
  5
2e9
100
AcDbEntity
  8
0
  6
CONTINUOUS
 62
     7
100
AcDbLine
 10
25.99995874665077
 20
2.500006729942806
 11
14.99997037377089
 21
-5.249985424556325
  0
LINE
  5
2ea
100
AcDbEntity
  8
0
  6
CONTINUOUS
 62
     7
100
AcDbLine
 10
22.99998474121094
 20
-5.25
 11
14.99998474121094
 21
-5.25
  0
LINE
  5
2eb
100
AcDbEntity
  8
0
  6
CONTINUOUS
 62
     7
100
AcDbLine
 10
-168
 20
25.91000366210938
 11
-30
 21
25.91000366210938
  0
LINE
  5
2ec
100
AcDbEntity
  8
0
  6
CENTER
 62
     3
100
AcDbLine
 10
-168
 20
29.5
 11
-30
 21
29.5
  0
LINE
  5
2ed
100
AcDbEntity
  8
0
  6
CONTINUOUS
 62
     7
100
AcDbLine
 10
-168
 20
33.08999633789063
 11
-30
 21
33.08999633789063
  0
LINE
  5
2ee
100
AcDbEntity
  8
0
  6
CONTINUOUS
 62
     7
100
AcDbLine
 10
-30.29998549711165
 20
34.00003947026431
 11
-29.99998087030747
 21
33.70003481817164
  0
LINE
  5
2ef
100
AcDbEntity
  8
0
  6
CONTINUOUS
 62
     7
100
AcDbLine
 10
-167.7000122070313
 20
34
 11
-30.30000305175781
 21
34
  0
LINE
  5
2f0
100
AcDbEntity
  8
0
  6
CENTER
 62
     3
100
AcDbLine
 10
-206.8410186767578
 20
0
 11
63.18399047851563
 21
0
  0
LINE
  5
2f1
100
AcDbEntity
  8
0
  6
CONTINUOUS
 62
     7
100
AcDbLine
 10
21.26792907714844
 20
-10
 11
15
 21
-10
  0
LINE
  5
2f2
100
AcDbEntity
  8
0
  6
CONTINUOUS
 62
     7
100
AcDbLine
 10
21.26792907714844
 20
-5.25
 11
21.26792907714844
 21
-10
  0
LINE
  5
2f3
100
AcDbEntity
  8
0
  6
CONTINUOUS
 62
     7
100
AcDbLine
 10
21.26792893515093
 20
-9.99995972563006
 11
22.9999665204491
 21
-8.999967341563519
  0
LINE
  5
2f4
100
AcDbEntity
  8
0
  6
CONTINUOUS
 62
     7
100
AcDbLine
 10
22.99998474121094
 20
-9
 11
22.99998474121094
 21
-2.5
  0
LINE
  5
2f5
100
AcDbEntity
  8
0
  6
CONTINUOUS
 62
     7
100
AcDbLine
 10
32.52711486816406
 20
-9
 11
22.99998474121094
 21
-9
  0
LINE
  5
2f6
100
AcDbEntity
  8
0
  6
CONTINUOUS
 62
     7
100
AcDbLine
 10
26.00000596812379
 20
-8.187537410178763
 11
23.56250539372098
 21
-9.000037576122153
  0
LINE
  5
2f7
100
AcDbEntity
  8
0
  6
CONTINUOUS
 62
     7
100
AcDbLine
 10
25.99998474121094
 20
9
 11
25.99998474121094
 21
-9
  0
LINE
  5
2f8
100
AcDbEntity
  8
0
  6
CONTINUOUS
 62
     7
100
AcDbLine
 10
32.52711486816406
 20
-8.1875
 11
25.99998474121094
 21
-8.1875
  0
LINE
  5
2f9
100
AcDbEntity
  8
0
  6
CONTINUOUS
 62
     7
100
AcDbLine
 10
25.99998474121094
 20
-2.5
 11
22.99998474121094
 21
-2.5
  0
LINE
  5
2fa
100
AcDbEntity
  8
0
  6
CONTINUOUS
 62
     7
100
AcDbLine
 10
25.99998474121094
 20
2.5
 11
22.99998474121094
 21
2.5
  0
LINE
  5
2fb
100
AcDbEntity
  8
0
  6
CONTINUOUS
 62
     7
100
AcDbLine
 10
22.99998474121094
 20
9
 11
22.99998474121094
 21
2.5
  0
LINE
  5
2fc
100
AcDbEntity
  8
0
  6
CONTINUOUS
 62
     7
100
AcDbLine
 10
32.52711486816406
 20
9
 11
22.99998474121094
 21
9
  0
LINE
  5
2fd
100
AcDbEntity
  8
0
  6
CONTINUOUS
 62
     7
100
AcDbLine
 10
26.00000898390714
 20
8.187498204999976
 11
23.56250840950434
 21
8.999998370943366
  0
LINE
  5
2fe
100
AcDbEntity
  8
0
  6
CONTINUOUS
 62
     7
100
AcDbLine
 10
32.52711486816406
 20
8.1875
 11
25.99998474121094
 21
8.1875
  0
LINE
  5
2ff
100
AcDbEntity
  8
0
  6
CONTINUOUS
 62
     7
100
AcDbLine
 10
33.52714494388139
 20
15.59997537065297
 11
32.52714492204468
 21
11.70861950322062
  0
LINE
  5
300
100
AcDbEntity
  8
0
  6
CONTINUOUS
 62
     7
100
AcDbLine
 10
33.52711486816406
 20
15.60000610351563
 11
42.52711486816406
 21
15.60000610351563
  0
LINE
  5
301
100
AcDbEntity
  8
0
  6
CONTINUOUS
 62
     7
100
AcDbLine
 10
42.52716121504759
 20
15.60000672179157
 11
43.5271612368843
 21
11.70865085435922
  0
LINE
  5
302
100
AcDbEntity
  8
0
  6
CONTINUOUS
 62
     7
100
AcDbLine
 10
43.52711486816406
 20
11.70872497558594
 11
43.52711486816406
 21
-11.70864486694336
  0
LINE
  5
303
100
AcDbEntity
  8
0
  6
CONTINUOUS
 62
     7
100
AcDbLine
 10
33.52711486816406
 20
7.817291259765625
 11
42.52711486816406
 21
7.817291259765625
  0
LINE
  5
304
100
AcDbEntity
  8
0
  6
CONTINUOUS
 62
     7
100
AcDbLine
 10
32.52711486816406
 20
11.70869827270508
 11
32.52711486816406
 21
-11.70864486694336
  0
LINE
  5
305
100
AcDbEntity
  8
0
  6
CONTINUOUS
 62
     7
100
AcDbLine
 10
33.52711486816406
 20
-7.817291259765625
 11
42.52711486816406
 21
-7.817291259765625
  0
LINE
  5
306
100
AcDbEntity
  8
0
  6
CONTINUOUS
 62
     7
100
AcDbLine
 10
32.52715558285296
 20
-11.70862267157137
 11
33.52715750359214
 21
-15.59998592830885
  0
LINE
  5
307
100
AcDbEntity
  8
0
  6
CONTINUOUS
 62
     7
100
AcDbLine
 10
33.52711486816406
 20
-15.60000610351563
 11
42.52711486816406
 21
-15.60000610351563
  0
LINE
  5
308
100
AcDbEntity
  8
0
  6
CONTINUOUS
 62
     7
100
AcDbLine
 10
42.52712521797317
 20
-15.59999353262662
 11
43.52712523980988
 21
-11.70863766519427
  0
LINE
  5
309
100
AcDbEntity
  8
0
  6
CONTINUOUS
 62
     7
100
AcDbLine
 10
56.80000305175781
 20
-9
 11
43.52711486816406
 21
-9
  0
LINE
  5
30a
100
AcDbEntity
  8
0
  6
CONTINUOUS
 62
     7
100
AcDbLine
 10
57.61250305175781
 20
-8.1875
 11
43.52711486816406
 21
-8.1875
  0
LINE
  5
30b
100
AcDbEntity
  8
0
  6
CONTINUOUS
 62
     7
100
AcDbLine
 10
57.61250305175781
 20
8.1875
 11
43.52711486816406
 21
8.1875
  0
LINE
  5
30c
100
AcDbEntity
  8
0
  6
CONTINUOUS
 62
     7
100
AcDbLine
 10
56.80000305175781
 20
9
 11
43.52711486816406
 21
9
  0
LINE
  5
30d
100
AcDbEntity
  8
0
  6
CONTINUOUS
 62
     7
100
AcDbLine
 10
56.80005247854633
 20
9.000085538941804
 11
58.0000494065775
 21
7.800088509758457
  0
LINE
  5
30e
100
AcDbEntity
  8
0
  6
CONTINUOUS
 62
     7
100
AcDbLine
 10
56.80000305175781
 20
9
 11
56.80000305175781
 21
-9
  0
LINE
  5
30f
100
AcDbEntity
  8
0
  6
CONTINUOUS
 62
     7
100
AcDbLine
 10
57.99998474121094
 20
7.799999237060547
 11
57.99998474121094
 21
-7.800104141235352
  0
LINE
  5
310
100
AcDbEntity
  8
0
  6
CONTINUOUS
 62
     7
100
AcDbLine
 10
58.00004335428422
 20
-7.800050240423797
 11
56.80004632510087
 21
-9.000047168454969
  0
LINE
  5
311
100
AcDbEntity
  8
0
  6
CONTINUOUS
 62
     7
100
AcDbLine
 10
-29.5
 20
-40
 11
-0.5
 21
-40
  0
LINE
  5
312
100
AcDbEntity
  8
0
  6
CONTINUOUS
 62
     7
100
AcDbLine
 10
-30.3000291612465
 20
-34.00004435930057
 11
-30.00002453444233
 21
-33.70003970720791
  0
LINE
  5
313
100
AcDbEntity
  8
0
  6
CONTINUOUS
 62
     7
100
AcDbLine
 10
-167.7000122070313
 20
-34
 11
-30.30000305175781
 21
-34
  0
LINE
  5
314
100
AcDbEntity
  8
0
  6
CONTINUOUS
 62
     7
100
AcDbLine
 10
-168
 20
-33.08999633789063
 11
-30
 21
-33.08999633789063
  0
LINE
  5
315
100
AcDbEntity
  8
0
  6
CENTER
 62
     3
100
AcDbLine
 10
-168
 20
-29.5
 11
-30
 21
-29.5
  0
LINE
  5
316
100
AcDbEntity
  8
0
  6
CONTINUOUS
 62
     7
100
AcDbLine
 10
-168
 20
-25.91000366210938
 11
-30
 21
-25.91000366210938
  0
LINE
  5
317
100
AcDbEntity
  8
0
  6
CONTINUOUS
 62
     7
100
AcDbLine
 10
-167.9999847412109
 20
-39.5
 11
-167.9999847412109
 21
40.25
  0
LINE
  5
318
100
AcDbEntity
  8
0
  6
CONTINUOUS
 62
     7
100
AcDbLine
 10
-167.9999909840059
 20
-33.70002293276063
 11
-167.69999172671
 21
-34.00002216476842
  0
LINE
  5
319
100
AcDbEntity
  8
0
  6
CONTINUOUS
 62
     7
100
AcDbLine
 10
-168.5
 20
-40
 11
-197.5
 21
-40
  0
LINE
  5
31a
100
AcDbEntity
  8
0
  6
CONTINUOUS
 62
     7
100
AcDbLine
 10
-198.0000152587891
 20
39.5
 11
-198.0000152587891
 21
-39.5
  0
LINE
  5
31b
100
AcDbEntity
  8
0
  6
CONTINUOUS
 62
     7
100
AcDbLine
 10
-200.0000152587891
 20
-20
 11
-198.0000152587891
 21
-20
  0
LINE
  5
31c
100
AcDbEntity
  8
0
  6
CONTINUOUS
 62
     7
100
AcDbLine
 10
-201.0000118171907
 20
-18.99998812659236
 11
-200.0000107384869
 21
-19.99998920529615
  0
LINE
  5
31d
100
AcDbEntity
  8
0
  6
CONTINUOUS
 62
     7
100
AcDbLine
 10
-201.0000152587891
 20
19
 11
-201.0000152587891
 21
-19
  0
LINE
  5
31e
100
AcDbEntity
  8
0
  6
CONTINUOUS
 62
     7
100
AcDbLine
 10
-200.0000152587891
 20
20
 11
-200.0000152587891
 21
-20
  0
LINE
  5
31f
100
AcDbEntity
  8
0
  6
CONTINUOUS
 62
     7
100
AcDbLine
 10
-201.0000468426048
 20
19.0000253425597
 11
-200.0000419285411
 21
20.00002258588887
  0
LINE
  5
320
100
AcDbEntity
  8
0
  6
CONTINUOUS
 62
     7
100
AcDbLine
 10
-200
 20
20
 11
-198.0000152587891
 21
20
  0
LINE
  5
321
100
AcDbEntity
  8
0
  6
CONTINUOUS
 62
     7
100
AcDbLine
 10
-196.9999847412109
 20
40
 11
-196.9999847412109
 21
40.25
  0
LINE
  5
322
100
AcDbEntity
  8
0
  6
CONTINUOUS
 62
     7
100
AcDbLine
 10
-196.9999847412109
 20
40.25
 11
-167.9999847412109
 21
40.25
  0
LINE
  5
323
100
AcDbEntity
  8
0
  6
CONTINUOUS
 62
     7
100
AcDbLine
 10
-168.5
 20
40
 11
-197.5
 21
40
  0
LINE
  5
324
100
AcDbEntity
  8
0
  6
DASHED
 62
     7
100
AcDbLine
 10
-171.7383117675781
 20
39.25
 11
-193.9383239746094
 21
39.25
  0
LINE
  5
325
100
AcDbEntity
  8
0
  6
DASHED
 62
     7
100
AcDbLine
 10
-193.9383087158203
 20
40.25
 11
-193.9383087158203
 21
39.25
  0
LINE
  5
326
100
AcDbEntity
  8
0
  6
DASHED
 62
     7
100
AcDbLine
 10
-191.6499823100425
 20
39.24998839115766
 11
-190.4499853314352
 21
38.0499914125504
  0
LINE
  5
327
100
AcDbEntity
  8
0
  6
DASHED
 62
     7
100
AcDbLine
 10
-191.1264302994307
 20
27.24998664173388
 11
-191.541695336657
 21
39.14162198346556
  0
LINE
  5
328
100
AcDbEntity
  8
0
  6
DASHED
 62
     7
100
AcDbLine
 10
-190.2698754982391
 20
27.24999563889907
 11
-190.6541475035734
 21
38.2541066278547
  0
LINE
  5
329
100
AcDbEntity
  8
0
  6
DASHED
 62
     7
100
AcDbLine
 10
-174.4964904785156
 20
38.04998779296875
 11
-190.4500122070313
 21
38.04998779296875
  0
LINE
  5
32a
100
AcDbEntity
  8
0
  6
CENTER
 62
     3
100
AcDbLine
 10
-183.0000152587891
 20
43.34579849243164
 11
-183.0000152587891
 21
27
  0
LINE
  5
32b
100
AcDbEntity
  8
0
  6
DASHED
 62
     7
100
AcDbLine
 10
-174.3499755170194
 20
39.24996141717463
 11
-175.5499724956267
 21
38.04996443856737
  0
LINE
  5
32c
100
AcDbEntity
  8
0
  6
DASHED
 62
     7
100
AcDbLine
 10
-175.7302119688854
 20
27.24999573303745
 11
-175.3459396307237
 21
38.25411625292672
  0
LINE
  5
32d
100
AcDbEntity
  8
0
  6
DASHED
 62
     7
100
AcDbLine
 10
-174.8736716849671
 20
27.25000823645031
 11
-174.4584069140028
 21
39.14163595343508
  0
LINE
  5
32e
100
AcDbEntity
  8
0
  6
CONTINUOUS
 62
     7
100
AcDbLine
 10
-168.0000071683945
 20
33.70004990674437
 11
-167.7000133058955
 21
34.00004374395577
  0
LINE
  5
32f
100
AcDbEntity
  8
0
  6
DASHED
 62
     7
100
AcDbLine
 10
-171.7383270263672
 20
40.25
 11
-171.7383270263672
 21
39.25
  0
LINE
  5
330
100
AcDbEntity
  8
0
  6
CONTINUOUS
 62
     7
100
AcDbLine
 10
0
 20
-42
 11
0
 21
42
  0
LINE
  5
331
100
AcDbEntity
  8
0
  6
CONTINUOUS
 62
     7
100
AcDbLine
 10
15
 20
-42
 11
15
 21
42
  0
LINE
  5
332
100
AcDbEntity
  8
0
  6
CENTER
 62
     3
100
AcDbLine
 10
-3.059402465820313
 20
29.5
 11
18.06216812133789
 21
29.5
  0
LINE
  5
333
100
AcDbEntity
  8
0
  6
CENTER
 62
     3
100
AcDbLine
 10
-2.926732540130615
 20
-29.5
 11
18.19741821289063
 21
-29.5
  0
LINE
  5
334
100
AcDbEntity
  8
0
  6
DASHED
 62
     7
100
AcDbLine
 10
0
 20
35.25
 11
15
 21
35.25
  0
LINE
  5
335
100
AcDbEntity
  8
0
  6
DASHED
 62
     7
100
AcDbLine
 10
0
 20
23.75
 11
15
 21
23.75
  0
LINE
  5
336
100
AcDbEntity
  8
0
  6
DASHED
 62
     7
100
AcDbLine
 10
0
 20
-35.25
 11
15
 21
-35.25
  0
LINE
  5
337
100
AcDbEntity
  8
0
  6
DASHED
 62
     7
100
AcDbLine
 10
0
 20
-23.75
 11
15
 21
-23.75
  0
LINE
  5
338
100
AcDbEntity
  8
0
  6
CONTINUOUS
 62
     7
100
AcDbLine
 10
0
 20
-42
 11
15
 21
-42
  0
LINE
  5
339
100
AcDbEntity
  8
0
  6
CONTINUOUS
 62
     7
100
AcDbLine
 10
0
 20
42
 11
15
 21
42
  0
ARC
  5
33a
100
AcDbEntity
  8
0
  6
CONTINUOUS
 62
     7
100
AcDbCircle
 10
-0.5
 20
39.5
 40
0.5
100
AcDbArc
 50
0
 51
90.00000250447816
  0
ARC
  5
33b
100
AcDbEntity
  8
0
  6
CONTINUOUS
 62
     7
100
AcDbCircle
 10
-29.5
 20
39.5
 40
0.5
100
AcDbArc
 50
90.00000250447806
 51
180.0000050089568
  0
ARC
  5
33c
100
AcDbEntity
  8
0
  6
CONTINUOUS
 62
     7
100
AcDbCircle
 10
35.45579528808594
 20
11.70864868164063
 40
8.071324348449707
100
AcDbArc
 50
331.1759220987245
 51
359.9999453584874
  0
ARC
  5
33d
100
AcDbEntity
  8
0
  6
CONTINUOUS
 62
     7
100
AcDbCircle
 10
40.59843444824219
 20
11.70864868164063
 40
8.071324348449707
100
AcDbArc
 50
179.9999230466863
 51
208.8239497215445
  0
ARC
  5
33e
100
AcDbEntity
  8
0
  6
CONTINUOUS
 62
     7
100
AcDbCircle
 10
63.58210754394531
 20
0
 40
31.05500030517578
100
AcDbArc
 50
165.4204607915656
 51
194.5795355659695
  0
ARC
  5
33f
100
AcDbEntity
  8
0
  6
CONTINUOUS
 62
     7
100
AcDbCircle
 10
12.47212219238281
 20
0
 40
31.05500030517578
100
AcDbArc
 50
345.4204472448735
 51
14.57955446267455
  0
ARC
  5
340
100
AcDbEntity
  8
0
  6
CONTINUOUS
 62
     7
100
AcDbCircle
 10
40.59843444824219
 20
-11.70864868164063
 40
8.071324348449707
100
AcDbArc
 50
151.1759783340989
 51
180.000005008957
  0
ARC
  5
341
100
AcDbEntity
  8
0
  6
CONTINUOUS
 62
     7
100
AcDbCircle
 10
35.45579528808594
 20
-11.70864868164063
 40
8.071324348449707
100
AcDbArc
 50
0
 51
28.82402325976286
  0
ARC
  5
342
100
AcDbEntity
  8
0
  6
CONTINUOUS
 62
     7
100
AcDbCircle
 10
-0.5
 20
-39.5
 40
0.5
100
AcDbArc
 50
269.9999974955226
 51
360
  0
ARC
  5
343
100
AcDbEntity
  8
0
  6
CONTINUOUS
 62
     7
100
AcDbCircle
 10
-29.5
 20
-39.5
 40
0.5
100
AcDbArc
 50
179.9999949910439
 51
269.9999974955226
  0
ARC
  5
344
100
AcDbEntity
  8
0
  6
CONTINUOUS
 62
     7
100
AcDbCircle
 10
-168.4999847412109
 20
-39.5
 40
0.5
100
AcDbArc
 50
269.9999974955222
 51
360
  0
ARC
  5
345
100
AcDbEntity
  8
0
  6
CONTINUOUS
 62
     7
100
AcDbCircle
 10
-197.5000152587891
 20
-39.5
 40
0.5
100
AcDbArc
 50
180.0000050089568
 51
270.000000683247
  0
ARC
  5
346
100
AcDbEntity
  8
0
  6
CONTINUOUS
 62
     7
100
AcDbCircle
 10
-197.5000152587891
 20
39.5
 40
0.5
100
AcDbArc
 50
90.00000250447847
 51
180.0000050089568
  0
ARC
  5
347
100
AcDbEntity
  8
0
  6
CONTINUOUS
 62
     7
100
AcDbCircle
 10
-168.4999847412109
 20
39.5
 40
0.5
100
AcDbArc
 50
0
 51
90.00000250447847
  0
MTEXT
  5
348
100
AcDbEntity
  8
0
  6
CONTINUOUS
 62
     7
100
AcDbMText
 10
-47.95356021821499
 20
-14.59999942779541
 40
0.5
 41
36
 71
     7
 72
     1
  1
{\W0.842599;ＢＮ－６１０５－ＦＡＣ－６３－Ｂ－＊}
  0
ENDBLK
  8
0
  5
349
100
AcDbEntity
100
AcDbBlockEnd
  0
BLOCK
  8
0
  5
34a
100
AcDbEntity
100
AcDbBlockBegin
  2
KOZU0002
 70
    64
 10
0
 20
0
  0
POINT
  5
34b
100
AcDbEntity
  8
0
  6
CONTINUOUS
 62
     7
100
AcDbPoint
 10
0
 20
0
  0
LINE
  5
34c
100
AcDbEntity
  8
0
  6
CONTINUOUS
 62
     7
100
AcDbLine
 10
15
 20
8.5
 11
25.99998474121094
 21
8.5
  0
LINE
  5
34d
100
AcDbEntity
  8
0
  6
CONTINUOUS
 62
     7
100
AcDbLine
 10
32.52711486816406
 20
8.1875
 11
25.99998474121094
 21
8.1875
  0
LINE
  5
34e
100
AcDbEntity
  8
0
  6
CONTINUOUS
 62
     7
100
AcDbLine
 10
15
 20
-8.5
 11
25.99998474121094
 21
-8.5
  0
LINE
  5
34f
100
AcDbEntity
  8
0
  6
CONTINUOUS
 62
     7
100
AcDbLine
 10
21.26792907714844
 20
8.5
 11
21.26792907714844
 21
-8.5
  0
LINE
  5
350
100
AcDbEntity
  8
0
  6
CONTINUOUS
 62
     7
100
AcDbLine
 10
22.99998474121094
 20
-8.5
 11
22.99998474121094
 21
8.5
  0
LINE
  5
351
100
AcDbEntity
  8
0
  6
CONTINUOUS
 62
     7
100
AcDbLine
 10
25.99998474121094
 20
9.000015258789063
 11
25.99998474121094
 21
-9
  0
LINE
  5
352
100
AcDbEntity
  8
0
  6
CONTINUOUS
 62
     7
100
AcDbLine
 10
32.52711486816406
 20
-8.1875
 11
25.99998474121094
 21
-8.1875
  0
LINE
  5
353
100
AcDbEntity
  8
0
  6
CONTINUOUS
 62
     7
100
AcDbLine
 10
26.000039443315
 20
-8.187529267565017
 11
25.06254952244969
 21
-8.500025898036558
  0
LINE
  5
354
100
AcDbEntity
  8
0
  6
CONTINUOUS
 62
     7
100
AcDbLine
 10
32.52711486816406
 20
-9
 11
25.99998474121094
 21
-9
  0
LINE
  5
355
100
AcDbEntity
  8
0
  6
CONTINUOUS
 62
     7
100
AcDbLine
 10
32.52711486816406
 20
-11.70867919921875
 11
32.52711486816406
 21
11.70866394042969
  0
LINE
  5
356
100
AcDbEntity
  8
0
  6
CONTINUOUS
 62
     7
100
AcDbLine
 10
33.52711486816406
 20
-7.8172607421875
 11
42.52711486816406
 21
-7.8172607421875
  0
LINE
  5
357
100
AcDbEntity
  8
0
  6
CONTINUOUS
 62
     7
100
AcDbLine
 10
33.52714441757958
 20
-15.59996565929593
 11
32.52714439574287
 21
-11.70860979186359
  0
LINE
  5
358
100
AcDbEntity
  8
0
  6
CONTINUOUS
 62
     7
100
AcDbLine
 10
33.52711486816406
 20
-15.5999755859375
 11
42.52711486816406
 21
-15.5999755859375
  0
LINE
  5
359
100
AcDbEntity
  8
0
  6
CONTINUOUS
 62
     7
100
AcDbLine
 10
42.527197212122
 20
-15.60001991095651
 11
43.52720103176365
 21
-11.70864926491391
  0
LINE
  5
35a
100
AcDbEntity
  8
0
  6
CONTINUOUS
 62
     7
100
AcDbLine
 10
43.52711486816406
 20
-11.70870971679688
 11
43.52711486816406
 21
11.70866394042969
  0
LINE
  5
35b
100
AcDbEntity
  8
0
  6
CONTINUOUS
 62
     7
100
AcDbLine
 10
56.80000305175781
 20
-9
 11
43.52711486816406
 21
-9
  0
LINE
  5
35c
100
AcDbEntity
  8
0
  6
CONTINUOUS
 62
     7
100
AcDbLine
 10
57.61250305175781
 20
-8.1875
 11
43.52711486816406
 21
-8.1875
  0
LINE
  5
35d
100
AcDbEntity
  8
0
  6
CONTINUOUS
 62
     7
100
AcDbLine
 10
56.80000305175781
 20
-8.999984741210938
 11
56.80000305175781
 21
9.000015258789063
  0
LINE
  5
35e
100
AcDbEntity
  8
0
  6
CONTINUOUS
 62
     7
100
AcDbLine
 10
57.99998474121094
 20
-7.79998779296875
 11
57.99998474121094
 21
7.80010986328125
  0
LINE
  5
35f
100
AcDbEntity
  8
0
  6
CONTINUOUS
 62
     7
100
AcDbLine
 10
56.80007945252983
 20
-9.000096328533893
 11
58.00007907795919
 21
-7.800096601952124
  0
LINE
  5
360
100
AcDbEntity
  8
0
  6
CONTINUOUS
 62
     7
100
AcDbLine
 10
58.00003526208828
 20
7.800074517008202
 11
56.80003823290493
 21
9.000071445039374
  0
LINE
  5
361
100
AcDbEntity
  8
0
  6
CONTINUOUS
 62
     7
100
AcDbLine
 10
56.80000305175781
 20
9
 11
43.52711486816406
 21
9
  0
LINE
  5
362
100
AcDbEntity
  8
0
  6
CONTINUOUS
 62
     7
100
AcDbLine
 10
57.61250305175781
 20
8.1875
 11
43.52711486816406
 21
8.1875
  0
LINE
  5
363
100
AcDbEntity
  8
0
  6
CENTER
 62
     3
100
AcDbLine
 10
-204.8993682861328
 20
0
 11
63.18399047851563
 21
0
  0
LINE
  5
364
100
AcDbEntity
  8
0
  6
CONTINUOUS
 62
     7
100
AcDbLine
 10
33.52711486816406
 20
7.817291259765625
 11
42.52711486816406
 21
7.817291259765625
  0
LINE
  5
365
100
AcDbEntity
  8
0
  6
CONTINUOUS
 62
     7
100
AcDbLine
 10
42.52714528068132
 20
15.60003807476218
 11
43.52714150471307
 21
11.70869698594009
  0
LINE
  5
366
100
AcDbEntity
  8
0
  6
CONTINUOUS
 62
     7
100
AcDbLine
 10
33.52711486816406
 20
15.60000610351563
 11
42.52711486816406
 21
15.60000610351563
  0
LINE
  5
367
100
AcDbEntity
  8
0
  6
CONTINUOUS
 62
     7
100
AcDbLine
 10
32.52723152953531
 20
11.70863466394399
 11
33.52723534917696
 21
15.6000053099866
  0
LINE
  5
368
100
AcDbEntity
  8
0
  6
CONTINUOUS
 62
     7
100
AcDbLine
 10
32.52711486816406
 20
9
 11
25.99998474121094
 21
9
  0
LINE
  5
369
100
AcDbEntity
  8
0
  6
CONTINUOUS
 62
     7
100
AcDbLine
 10
25.99997219135462
 20
8.187508458661782
 11
25.06257998185836
 21
8.499972518677996
  0
LINE
  5
36a
100
AcDbEntity
  8
0
  6
CONTINUOUS
 62
     7
100
AcDbLine
 10
0
 20
65
 11
0
 21
-65
  0
LINE
  5
36b
100
AcDbEntity
  8
0
  6
CENTER
 62
     3
100
AcDbLine
 10
-15
 20
-13.64726257324219
 11
-15
 21
13.55699157714844
  0
LINE
  5
36c
100
AcDbEntity
  8
0
  6
CONTINUOUS
 62
     7
100
AcDbLine
 10
-29.5
 20
40.00000762939453
 11
-0.5
 21
40.00000762939453
  0
LINE
  5
36d
100
AcDbEntity
  8
0
  6
CONTINUOUS
 62
     7
100
AcDbLine
 10
-30
 20
39.50001525878906
 11
-30
 21
-39.49998474121094
  0
LINE
  5
36e
100
AcDbEntity
  8
0
  6
CONTINUOUS
 62
     7
100
AcDbLine
 10
-30.30003573615469
 20
34.0000485739857
 11
-30.00003110935051
 21
33.70004392189303
  0
LINE
  5
36f
100
AcDbEntity
  8
0
  6
CONTINUOUS
 62
     7
100
AcDbLine
 10
-167.7000122070313
 20
34.00000762939453
 11
-30.30000305175781
 21
34.00000762939453
  0
LINE
  5
370
100
AcDbEntity
  8
0
  6
CONTINUOUS
 62
     7
100
AcDbLine
 10
-168
 20
33.09001922607422
 11
-30
 21
33.09001922607422
  0
LINE
  5
371
100
AcDbEntity
  8
0
  6
CENTER
 62
     3
100
AcDbLine
 10
-168
 20
29.50000762939453
 11
-30
 21
29.50000762939453
  0
LINE
  5
372
100
AcDbEntity
  8
0
  6
CONTINUOUS
 62
     7
100
AcDbLine
 10
-168
 20
25.91000366210938
 11
-30
 21
25.91000366210938
  0
LINE
  5
373
100
AcDbEntity
  8
0
  6
CONTINUOUS
 62
     7
100
AcDbLine
 10
-29.5
 20
-40
 11
-0.5
 21
-40
  0
LINE
  5
374
100
AcDbEntity
  8
0
  6
CONTINUOUS
 62
     7
100
AcDbLine
 10
-167.7000122070313
 20
-34
 11
-30.30000305175781
 21
-34
  0
LINE
  5
375
100
AcDbEntity
  8
0
  6
CONTINUOUS
 62
     7
100
AcDbLine
 10
-168
 20
-33.08999633789063
 11
-30
 21
-33.08999633789063
  0
LINE
  5
376
100
AcDbEntity
  8
0
  6
CENTER
 62
     3
100
AcDbLine
 10
-168
 20
-29.5
 11
-30
 21
-29.5
  0
LINE
  5
377
100
AcDbEntity
  8
0
  6
CONTINUOUS
 62
     7
100
AcDbLine
 10
-168
 20
-25.90997314453125
 11
-30
 21
-25.90997314453125
  0
LINE
  5
378
100
AcDbEntity
  8
0
  6
CONTINUOUS
 62
     7
100
AcDbLine
 10
-30.29997925937758
 20
-34.00005110279423
 11
-29.99996923777702
 21
-33.70004105590473
  0
LINE
  5
379
100
AcDbEntity
  8
0
  6
CONTINUOUS
 62
     7
100
AcDbLine
 10
-168.0001096695281
 20
-33.70009845991817
 11
-167.7001050174354
 21
-34.00010308672235
  0
LINE
  5
37a
100
AcDbEntity
  8
0
  6
CONTINUOUS
 62
     7
100
AcDbLine
 10
-167.9999694824219
 20
39.50001525878906
 11
-167.9999694824219
 21
-39.49998474121094
  0
LINE
  5
37b
100
AcDbEntity
  8
0
  6
CONTINUOUS
 62
     7
100
AcDbLine
 10
-168.5
 20
-40
 11
-197.5
 21
-40
  0
LINE
  5
37c
100
AcDbEntity
  8
0
  6
CENTER
 62
     3
100
AcDbLine
 10
-183.0000305175781
 20
-13.64726257324219
 11
-183.0000305175781
 21
13.55699157714844
  0
LINE
  5
37d
100
AcDbEntity
  8
0
  6
CONTINUOUS
 62
     7
100
AcDbLine
 10
-168.0000179579909
 20
33.69997437959229
 11
-167.7000133058983
 21
33.99997900639646
  0
LINE
  5
37e
100
AcDbEntity
  8
0
  6
CONTINUOUS
 62
     7
100
AcDbLine
 10
-168.5
 20
40.00000762939453
 11
-197.5
 21
40.00000762939453
  0
LINE
  5
37f
100
AcDbEntity
  8
0
  6
CONTINUOUS
 62
     7
100
AcDbLine
 10
-198.0000305175781
 20
-39.49998474121094
 11
-198.0000305175781
 21
39.50001525878906
  0
LINE
  5
380
100
AcDbEntity
  8
0
  6
CONTINUOUS
 62
     7
100
AcDbLine
 10
-200.0000152587891
 20
20
 11
-198.0000152587891
 21
20
  0
LINE
  5
381
100
AcDbEntity
  8
0
  6
CONTINUOUS
 62
     7
100
AcDbLine
 10
-200.0000305175781
 20
-20
 11
-200.0000305175781
 21
20
  0
LINE
  5
382
100
AcDbEntity
  8
0
  6
CONTINUOUS
 62
     7
100
AcDbLine
 10
-201.0000333963771
 20
18.99998812659236
 11
-200.0000323176733
 21
19.99998920529615
  0
LINE
  5
383
100
AcDbEntity
  8
0
  6
CONTINUOUS
 62
     7
100
AcDbLine
 10
-201.0000305175781
 20
-19
 11
-201.0000305175781
 21
19
  0
LINE
  5
384
100
AcDbEntity
  8
0
  6
CONTINUOUS
 62
     7
100
AcDbLine
 10
-201.0000191521174
 20
-18.99998096167913
 11
-200.0000326561936
 21
-19.9999750439621
  0
LINE
  5
385
100
AcDbEntity
  8
0
  6
CONTINUOUS
 62
     7
100
AcDbLine
 10
-200.0000305175781
 20
-20
 11
-198.0000152587891
 21
-20
  0
LINE
  5
386
100
AcDbEntity
  8
0
  6
CONTINUOUS
 62
     7
100
AcDbLine
 10
-194.9999694824219
 20
27.5
 11
-167.9999694824219
 21
27.5
  0
LINE
  5
387
100
AcDbEntity
  8
0
  6
CONTINUOUS
 62
     7
100
AcDbLine
 10
-194.9999694824219
 20
-27.5
 11
-167.9999694824219
 21
-27.5
  0
LINE
  5
388
100
AcDbEntity
  8
0
  6
CONTINUOUS
 62
     7
100
AcDbLine
 10
-196.9999694824219
 20
25.5
 11
-196.9999694824219
 21
-25.5
  0
LINE
  5
389
100
AcDbEntity
  8
0
  6
CONTINUOUS
 62
     7
100
AcDbLine
 10
-1
 20
25.5
 11
-1
 21
-25.5
  0
LINE
  5
38a
100
AcDbEntity
  8
0
  6
CONTINUOUS
 62
     7
100
AcDbLine
 10
-30
 20
27.5
 11
-3
 21
27.5
  0
LINE
  5
38b
100
AcDbEntity
  8
0
  6
CONTINUOUS
 62
     7
100
AcDbLine
 10
-30
 20
-27.5
 11
-3
 21
-27.5
  0
LINE
  5
38c
100
AcDbEntity
  8
0
  6
CENTER
 62
     3
100
AcDbLine
 10
-192.7500305175781
 20
-11
 11
-189.2500305175781
 21
-11
  0
LINE
  5
38d
100
AcDbEntity
  8
0
  6
CENTER
 62
     3
100
AcDbLine
 10
-176.7500305175781
 20
11
 11
-173.2500305175781
 21
11
  0
LINE
  5
38e
100
AcDbEntity
  8
0
  6
CENTER
 62
     3
100
AcDbLine
 10
-191.0000305175781
 20
-12.75
 11
-191.0000305175781
 21
-9.25
  0
LINE
  5
38f
100
AcDbEntity
  8
0
  6
CENTER
 62
     3
100
AcDbLine
 10
-175.0000305175781
 20
9.25
 11
-175.0000305175781
 21
12.75
  0
LINE
  5
390
100
AcDbEntity
  8
0
  6
CENTER
 62
     3
100
AcDbLine
 10
-7
 20
9.25
 11
-7
 21
12.75
  0
LINE
  5
391
100
AcDbEntity
  8
0
  6
CENTER
 62
     3
100
AcDbLine
 10
-23
 20
-12.75
 11
-23
 21
-9.25
  0
LINE
  5
392
100
AcDbEntity
  8
0
  6
CENTER
 62
     3
100
AcDbLine
 10
-8.75
 20
11
 11
-5.25
 21
11
  0
LINE
  5
393
100
AcDbEntity
  8
0
  6
CENTER
 62
     3
100
AcDbLine
 10
-24.75
 20
-11
 11
-21.25
 21
-11
  0
LINE
  5
394
100
AcDbEntity
  8
0
  6
CONTINUOUS
 62
     7
100
AcDbLine
 10
0
 20
-65
 11
15
 21
-65
  0
LINE
  5
395
100
AcDbEntity
  8
0
  6
CENTER
 62
     3
100
AcDbLine
 10
-4.818552017211914
 20
-52.5
 11
19.63212776184082
 21
-52.5
  0
LINE
  5
396
100
AcDbEntity
  8
0
  6
DASHED
 62
     7
100
AcDbLine
 10
0
 20
-58.25
 11
15
 21
-58.25
  0
LINE
  5
397
100
AcDbEntity
  8
0
  6
DASHED
 62
     7
100
AcDbLine
 10
0
 20
-46.75
 11
15
 21
-46.75
  0
LINE
  5
398
100
AcDbEntity
  8
0
  6
CONTINUOUS
 62
     7
100
AcDbLine
 10
15
 20
65
 11
15
 21
-65
  0
LINE
  5
399
100
AcDbEntity
  8
0
  6
CONTINUOUS
 62
     7
100
AcDbLine
 10
0
 20
65
 11
15
 21
65
  0
LINE
  5
39a
100
AcDbEntity
  8
0
  6
CENTER
 62
     3
100
AcDbLine
 10
-4.617740631103516
 20
52.5
 11
19.63212776184082
 21
52.5
  0
LINE
  5
39b
100
AcDbEntity
  8
0
  6
DASHED
 62
     7
100
AcDbLine
 10
0
 20
58.25
 11
15
 21
58.25
  0
LINE
  5
39c
100
AcDbEntity
  8
0
  6
DASHED
 62
     7
100
AcDbLine
 10
0
 20
46.75
 11
15
 21
46.75
  0
ARC
  5
39d
100
AcDbEntity
  8
0
  6
CONTINUOUS
 62
     7
100
AcDbCircle
 10
63.58210754394531
 20
0
 40
31.05500030517578
100
AcDbArc
 50
165.4203924896738
 51
194.5794672640778
  0
ARC
  5
39e
100
AcDbEntity
  8
0
  6
CONTINUOUS
 62
     7
100
AcDbCircle
 10
40.59843444824219
 20
-11.7086181640625
 40
8.071324348449707
100
AcDbArc
 50
151.1759783340989
 51
180.000005008957
  0
ARC
  5
39f
100
AcDbEntity
  8
0
  6
CONTINUOUS
 62
     7
100
AcDbCircle
 10
35.45579528808594
 20
-11.7086181640625
 40
8.071324348449707
100
AcDbArc
 50
0
 51
28.82402325976286
  0
ARC
  5
3a0
100
AcDbEntity
  8
0
  6
CONTINUOUS
 62
     7
100
AcDbCircle
 10
12.47212219238281
 20
0
 40
31.05500030517578
100
AcDbArc
 50
345.4203908958128
 51
14.57949982116119
  0
ARC
  5
3a1
100
AcDbEntity
  8
0
  6
CONTINUOUS
 62
     7
100
AcDbCircle
 10
35.45579528808594
 20
11.70864868164063
 40
8.071324348449707
100
AcDbArc
 50
331.1759220987245
 51
359.9999453584874
  0
ARC
  5
3a2
100
AcDbEntity
  8
0
  6
CONTINUOUS
 62
     7
100
AcDbCircle
 10
40.59843444824219
 20
11.70864868164063
 40
8.071324348449707
100
AcDbArc
 50
179.9999230466863
 51
208.8239497215445
  0
CIRCLE
  5
3a3
100
AcDbEntity
  8
0
  6
CONTINUOUS
 62
     7
100
AcDbCircle
 10
-15
 20
0
 40
11.10000038146973
  0
CIRCLE
  5
3a4
100
AcDbEntity
  8
0
  6
CONTINUOUS
 62
     7
100
AcDbCircle
 10
-15
 20
0
 40
8.5
  0
CIRCLE
  5
3a5
100
AcDbEntity
  8
0
  6
CONTINUOUS
 62
     7
100
AcDbCircle
 10
-15
 20
0
 40
7.599999904632568
  0
ARC
  5
3a6
100
AcDbEntity
  8
0
  6
CONTINUOUS
 62
     7
100
AcDbCircle
 10
-0.5
 20
39.50000762939453
 40
0.5
100
AcDbArc
 50
359.9999453584874
 51
89.9999478629648
  0
ARC
  5
3a7
100
AcDbEntity
  8
0
  6
CONTINUOUS
 62
     7
100
AcDbCircle
 10
-29.5
 20
39.50000762939453
 40
0.5
100
AcDbArc
 50
89.99995469315388
 51
179.9999640278211
  0
ARC
  5
3a8
100
AcDbEntity
  8
0
  6
CONTINUOUS
 62
     7
100
AcDbCircle
 10
-0.5
 20
-39.5
 40
0.5
100
AcDbArc
 50
269.9999428540092
 51
359.9999453584874
  0
ARC
  5
3a9
100
AcDbEntity
  8
0
  6
CONTINUOUS
 62
     7
100
AcDbCircle
 10
-29.5
 20
-39.5
 40
0.5
100
AcDbArc
 50
179.9999230466861
 51
269.9999187209761
  0
ARC
  5
3aa
100
AcDbEntity
  8
0
  6
CONTINUOUS
 62
     7
100
AcDbCircle
 10
-168.4999694824219
 20
-39.5
 40
0.5
100
AcDbArc
 50
269.9999428540089
 51
359.9999453584874
  0
CIRCLE
  5
3ab
100
AcDbEntity
  8
0
  6
CONTINUOUS
 62
     7
100
AcDbCircle
 10
-183.0000305175781
 20
0
 40
11.10000038146973
  0
CIRCLE
  5
3ac
100
AcDbEntity
  8
0
  6
CONTINUOUS
 62
     7
100
AcDbCircle
 10
-183.0000305175781
 20
0
 40
8.5
  0
CIRCLE
  5
3ad
100
AcDbEntity
  8
0
  6
CONTINUOUS
 62
     7
100
AcDbCircle
 10
-183.0000305175781
 20
0
 40
7.599999904632568
  0
ARC
  5
3ae
100
AcDbEntity
  8
0
  6
CONTINUOUS
 62
     7
100
AcDbCircle
 10
-168.4999694824219
 20
39.50000762939453
 40
0.5
100
AcDbArc
 50
359.9999453584874
 51
89.99994786296512
  0
ARC
  5
3af
100
AcDbEntity
  8
0
  6
CONTINUOUS
 62
     7
100
AcDbCircle
 10
-197.5000305175781
 20
39.50000762939453
 40
0.5
100
AcDbArc
 50
89.99992737239761
 51
179.9999230466861
  0
ARC
  5
3b0
100
AcDbEntity
  8
0
  6
CONTINUOUS
 62
     7
100
AcDbCircle
 10
-197.5000305175781
 20
-39.5
 40
0.5
100
AcDbArc
 50
179.9999230466861
 51
269.9999187209769
  0
ARC
  5
3b1
100
AcDbEntity
  8
0
  6
CONTINUOUS
 62
     7
100
AcDbCircle
 10
-194.9999694824219
 20
-25.5
 40
2
100
AcDbArc
 50
179.9999813306653
 51
270.0000179860897
  0
ARC
  5
3b2
100
AcDbEntity
  8
0
  6
CONTINUOUS
 62
     7
100
AcDbCircle
 10
-194.9999694824219
 20
25.5
 40
2
100
AcDbArc
 50
89.99998201391097
 51
179.9999640278213
  0
ARC
  5
3b3
100
AcDbEntity
  8
0
  6
CONTINUOUS
 62
     7
100
AcDbCircle
 10
-3
 20
25.5
 40
2
100
AcDbArc
 50
0
 51
89.99998201391065
  0
ARC
  5
3b4
100
AcDbEntity
  8
0
  6
CONTINUOUS
 62
     7
100
AcDbCircle
 10
-3
 20
-25.5
 40
2
100
AcDbArc
 50
270.00001798609
 51
360
  0
CIRCLE
  5
3b5
100
AcDbEntity
  8
0
  6
CONTINUOUS
 62
     7
100
AcDbCircle
 10
-175.0000305175781
 20
11
 40
1.75
  0
CIRCLE
  5
3b6
100
AcDbEntity
  8
0
  6
CONTINUOUS
 62
     7
100
AcDbCircle
 10
-191.0000305175781
 20
-11
 40
1.75
  0
CIRCLE
  5
3b7
100
AcDbEntity
  8
0
  6
CONTINUOUS
 62
     7
100
AcDbCircle
 10
-23
 20
-11
 40
1.75
  0
CIRCLE
  5
3b8
100
AcDbEntity
  8
0
  6
CONTINUOUS
 62
     7
100
AcDbCircle
 10
-7
 20
11
 40
1.75
  0
MTEXT
  5
3b9
100
AcDbEntity
  8
0
  6
CONTINUOUS
 62
     7
100
AcDbMText
 10
-50.05356250703335
 20
-14.59999942779541
 40
0.5
 41
36
 71
     7
 72
     1
  1
{\W0.842599;ＢＮ－６１０５－ＦＡＣ－６３－Ｂ－＊}
  0
ENDBLK
  8
0
  5
3ba
100
AcDbEntity
100
AcDbBlockEnd
  0
BLOCK
  8
0
  5
3bb
100
AcDbEntity
100
AcDbBlockBegin
  2
KOZU0003
 70
    64
 10
0
 20
0
  0
POINT
  5
3bc
100
AcDbEntity
  8
0
  6
CONTINUOUS
 62
     7
100
AcDbPoint
 10
0
 20
0
  0
LINE
  5
3bd
100
AcDbEntity
  8
0
  6
CENTER
 62
     3
100
AcDbLine
 10
68.42499542236328
 20
0
 11
-69.125
 21
0
  0
LINE
  5
3be
100
AcDbEntity
  8
0
  6
CENTER
 62
     3
100
AcDbLine
 10
0
 20
-44.61988067626953
 11
0
 21
44.88032150268555
  0
LINE
  5
3bf
100
AcDbEntity
  8
0
  6
CONTINUOUS
 62
     7
100
AcDbLine
 10
-27.5
 20
40
 11
-27.5
 21
40.25
  0
LINE
  5
3c0
100
AcDbEntity
  8
0
  6
CONTINUOUS
 62
     7
100
AcDbLine
 10
27.5
 20
40.25
 11
-27.5
 21
40.25
  0
LINE
  5
3c1
100
AcDbEntity
  8
0
  6
DASHED
 62
    64
100
AcDbLine
 10
-11.0999755859375
 20
39.25
 11
-11.0999755859375
 21
40.25
  0
LINE
  5
3c2
100
AcDbEntity
  8
0
  6
DASHED
 62
     7
100
AcDbLine
 10
11.10002136230469
 20
39.25
 11
-11.10000610351563
 21
39.25
  0
LINE
  5
3c3
100
AcDbEntity
  8
0
  6
DASHED
 62
     7
100
AcDbLine
 10
-7.654074040548666
 20
38.25415614153379
 11
-8.649964284236097
 21
39.25004638522122
  0
LINE
  5
3c4
100
AcDbEntity
  8
0
  6
DASHED
 62
     3
100
AcDbLine
 10
-8.178807801946538
 20
28.75001417416111
 11
-8.541691245729437
 21
39.14163686852911
  0
LINE
  5
3c5
100
AcDbEntity
  8
0
  6
DASHED
 62
     7
100
AcDbLine
 10
7.654078006744385
 20
38.25411987304688
 11
-7.654083251953125
 21
38.25411987304688
  0
LINE
  5
3c6
100
AcDbEntity
  8
0
  6
DASHED
 62
     7
100
AcDbLine
 10
-7.322279974807471
 20
28.75000314425921
 11
-7.654171052353375
 21
38.25412054771843
  0
LINE
  5
3c7
100
AcDbEntity
  8
0
  6
DASHED
 62
     7
100
AcDbLine
 10
7.654194074773224
 20
38.25412242405498
 11
8.650062739274217
 21
39.24999108855597
  0
LINE
  5
3c8
100
AcDbEntity
  8
0
  6
DASHED
 62
    64
100
AcDbLine
 10
11.10003662109375
 20
39.25
 11
11.10003662109375
 21
40.25
  0
LINE
  5
3c9
100
AcDbEntity
  8
0
  6
CONTINUOUS
 62
     7
100
AcDbLine
 10
27.5
 20
40
 11
27.5
 21
40.25
  0
LINE
  5
3ca
100
AcDbEntity
  8
0
  6
CONTINUOUS
 62
     7
100
AcDbLine
 10
40.00003051757813
 20
34
 11
40.00003051757813
 21
-34
  0
LINE
  5
3cb
100
AcDbEntity
  8
0
  6
DASHED
 62
     7
100
AcDbLine
 10
7.32218724790101
 20
28.75001210788772
 11
7.65407825888141
 21
38.25412760516022
  0
LINE
  5
3cc
100
AcDbEntity
  8
0
  6
DASHED
 62
     3
100
AcDbLine
 10
8.17869942615323
 20
28.75001223319329
 11
8.54158306963264
 21
39.14164064612147
  0
LINE
  5
3cd
100
AcDbEntity
  8
0
  6
CONTINUOUS
 62
     7
100
AcDbLine
 10
-40
 20
34
 11
-40
 21
-34
  0
LINE
  5
3ce
100
AcDbEntity
  8
0
  6
CONTINUOUS
 62
     7
100
AcDbLine
 10
-28
 20
19
 11
-31.5
 21
19
  0
LINE
  5
3cf
100
AcDbEntity
  8
0
  6
CONTINUOUS
 62
     7
100
AcDbLine
 10
-31.5
 20
19
 11
-31.5
 21
16
  0
LINE
  5
3d0
100
AcDbEntity
  8
0
  6
CONTINUOUS
 62
     7
100
AcDbLine
 10
-37.5
 20
13
 11
-34.5
 21
13
  0
LINE
  5
3d1
100
AcDbEntity
  8
0
  6
CONTINUOUS
 62
     7
100
AcDbLine
 10
-37.5
 20
13
 11
-37.5
 21
-13
  0
LINE
  5
3d2
100
AcDbEntity
  8
0
  6
CONTINUOUS
 62
     7
100
AcDbLine
 10
-20.02027893066406
 20
6.5
 11
-35.5
 21
6.5
  0
LINE
  5
3d3
100
AcDbEntity
  8
0
  6
CONTINUOUS
 62
     7
100
AcDbLine
 10
-19.00001525878906
 20
29.5
 11
-19.00001525878906
 21
28
  0
LINE
  5
3d4
100
AcDbEntity
  8
0
  6
CONTINUOUS
 62
     7
100
AcDbLine
 10
-15.99995422363281
 20
31.5
 11
-16.99995422363281
 21
31.5
  0
LINE
  5
3d5
100
AcDbEntity
  8
0
  6
CONTINUOUS
 62
     7
100
AcDbLine
 10
-13
 20
35.5
 11
-13
 21
34.5
  0
LINE
  5
3d6
100
AcDbEntity
  8
0
  6
CONTINUOUS
 62
     7
100
AcDbLine
 10
11.00001525878906
 20
37.5
 11
-10.99996948242188
 21
37.5
  0
LINE
  5
3d7
100
AcDbEntity
  8
0
  6
CONTINUOUS
 62
     7
100
AcDbLine
 10
13
 20
35.5
 11
13
 21
34.5
  0
LINE
  5
3d8
100
AcDbEntity
  8
0
  6
CONTINUOUS
 62
     7
100
AcDbLine
 10
17.00001525878906
 20
31.5
 11
16.00001525878906
 21
31.5
  0
LINE
  5
3d9
100
AcDbEntity
  8
0
  6
CONTINUOUS
 62
     7
100
AcDbLine
 10
19
 20
29.5
 11
19
 21
28
  0
LINE
  5
3da
100
AcDbEntity
  8
0
  6
CONTINUOUS
 62
     7
100
AcDbLine
 10
18.00001525878906
 20
30
 11
7.500015258789063
 21
30
  0
LINE
  5
3db
100
AcDbEntity
  8
0
  6
CONTINUOUS
 62
     7
100
AcDbLine
 10
12.50001525878906
 20
27
 11
-12.49996948242188
 21
27
  0
LINE
  5
3dc
100
AcDbEntity
  8
0
  6
CONTINUOUS
 62
     7
100
AcDbLine
 10
-7.499969482421875
 20
30
 11
-17.99995422363281
 21
30
  0
LINE
  5
3dd
100
AcDbEntity
  8
0
  6
CONTINUOUS
 62
     7
100
AcDbLine
 10
-12.5
 20
30
 11
-12.5
 21
27
  0
LINE
  5
3de
100
AcDbEntity
  8
0
  6
CONTINUOUS
 62
     7
100
AcDbLine
 10
-12.50001914753715
 20
26.99999601827891
 11
-9.000025401964066
 21
23.0000030756804
  0
LINE
  5
3df
100
AcDbEntity
  8
0
  6
CONTINUOUS
 62
     7
100
AcDbLine
 10
9.000015258789063
 20
23
 11
-8.999969482421875
 21
23
  0
LINE
  5
3e0
100
AcDbEntity
  8
0
  6
CONTINUOUS
 62
     7
100
AcDbLine
 10
12.5000098172671
 20
27.00001431996196
 11
9.000026119676797
 21
23.0000328607726
  0
LINE
  5
3e1
100
AcDbEntity
  8
0
  6
CONTINUOUS
 62
     7
100
AcDbLine
 10
12.5
 20
30
 11
12.5
 21
27
  0
LINE
  5
3e2
100
AcDbEntity
  8
0
  6
CONTINUOUS
 62
     7
100
AcDbLine
 10
28.00001525878906
 20
19
 11
31.50001525878906
 21
19
  0
LINE
  5
3e3
100
AcDbEntity
  8
0
  6
CONTINUOUS
 62
     7
100
AcDbLine
 10
31.5
 20
19
 11
31.5
 21
16
  0
LINE
  5
3e4
100
AcDbEntity
  8
0
  6
CONTINUOUS
 62
     7
100
AcDbLine
 10
37.50003051757813
 20
13
 11
34.50001525878906
 21
13
  0
LINE
  5
3e5
100
AcDbEntity
  8
0
  6
CONTINUOUS
 62
     7
100
AcDbLine
 10
37.50003051757813
 20
13
 11
37.50003051757813
 21
-13
  0
LINE
  5
3e6
100
AcDbEntity
  8
0
  6
CONTINUOUS
 62
     7
100
AcDbLine
 10
20.02030944824219
 20
6.5
 11
35.50001525878906
 21
6.5
  0
LINE
  5
3e7
100
AcDbEntity
  8
0
  6
CONTINUOUS
 62
     7
100
AcDbLine
 10
21.4530136088268
 20
19.68519135919519
 11
16.09085012412259
 21
14.32302787449098
  0
LINE
  5
3e8
100
AcDbEntity
  8
0
  6
CONTINUOUS
 62
     7
100
AcDbLine
 10
19.68524067100794
 20
21.45291034904795
 11
14.32309337069357
 21
16.09076304873357
  0
LINE
  5
3e9
100
AcDbEntity
  8
0
  6
CONTINUOUS
 62
     7
100
AcDbLine
 10
9
 20
23
 11
9
 21
17.86057090759277
  0
LINE
  5
3ea
100
AcDbEntity
  8
0
  6
CONTINUOUS
 62
     7
100
AcDbLine
 10
-9
 20
23
 11
-9
 21
17.86057090759277
  0
LINE
  5
3eb
100
AcDbEntity
  8
0
  6
CONTINUOUS
 62
     7
100
AcDbLine
 10
-16.09074905597986
 20
14.3230642050744
 11
-21.45289635629424
 21
19.68521150538878
  0
LINE
  5
3ec
100
AcDbEntity
  8
0
  6
CONTINUOUS
 62
     7
100
AcDbLine
 10
-14.32290657586096
 20
16.09082036844755
 11
-19.68507545536178
 21
21.45298924794836
  0
LINE
  5
3ed
100
AcDbEntity
  8
0
  6
DASHED
 62
     7
100
AcDbLine
 10
-39.5
 20
8
 11
-40
 21
8
  0
LINE
  5
3ee
100
AcDbEntity
  8
0
  6
DASHED
 62
     7
100
AcDbLine
 10
-39.5
 20
7.974554061889648
 11
-39.5
 21
-8
  0
LINE
  5
3ef
100
AcDbEntity
  8
0
  6
DASHED
 62
     7
100
AcDbLine
 10
-39.00002837172305
 20
4.999977365865853
 11
-39.50001810040873
 21
5.499967136697521
  0
LINE
  5
3f0
100
AcDbEntity
  8
0
  6
DASHED
 62
     7
100
AcDbLine
 10
-29
 20
5
 11
-39
 21
5
  0
LINE
  5
3f1
100
AcDbEntity
  8
0
  6
DASHED
 62
     7
100
AcDbLine
 10
-29
 20
5
 11
-29
 21
3.600000381469727
  0
LINE
  5
3f2
100
AcDbEntity
  8
0
  6
DASHED
 62
     3
100
AcDbLine
 10
-22.99995422363281
 20
4
 11
-29
 21
4
  0
LINE
  5
3f3
100
AcDbEntity
  8
0
  6
DASHED
 62
     7
100
AcDbLine
 10
-21.99995422363281
 20
3.600006103515625
 11
-29
 21
3.600006103515625
  0
LINE
  5
3f4
100
AcDbEntity
  8
0
  6
DASHED
 62
     7
100
AcDbLine
 10
-23.00001525878906
 20
4
 11
-23.00001525878906
 21
1.458000183105469
  0
LINE
  5
3f5
100
AcDbEntity
  8
0
  6
DASHED
 62
     7
100
AcDbLine
 10
-22.00001525878906
 20
3.600000381469727
 11
-22.00001525878906
 21
1.25
  0
LINE
  5
3f6
100
AcDbEntity
  8
0
  6
DASHED
 62
     3
100
AcDbLine
 10
-22.30707297611905
 20
3.600015873839825
 11
-22.99988272443875
 21
4.000009775708588
  0
LINE
  5
3f7
100
AcDbEntity
  8
0
  6
CONTINUOUS
 62
     7
100
AcDbLine
 10
-21.50581359863281
 20
1.25
 11
-35.5
 21
1.25
  0
LINE
  5
3f8
100
AcDbEntity
  8
0
  6
CONTINUOUS
 62
     7
100
AcDbLine
 10
-21.50581359863281
 20
-1.25
 11
-35.5
 21
-1.25
  0
LINE
  5
3f9
100
AcDbEntity
  8
0
  6
DASHED
 62
     7
100
AcDbLine
 10
-22.00001525878906
 20
-1.25
 11
-22.00001525878906
 21
-3.600000381469727
  0
LINE
  5
3fa
100
AcDbEntity
  8
0
  6
DASHED
 62
     7
100
AcDbLine
 10
-23.00001525878906
 20
-4
 11
-23.00001525878906
 21
-1.458000183105469
  0
LINE
  5
3fb
100
AcDbEntity
  8
0
  6
DASHED
 62
     7
100
AcDbLine
 10
-21.99995422363281
 20
-3.600006103515625
 11
-29
 21
-3.600006103515625
  0
LINE
  5
3fc
100
AcDbEntity
  8
0
  6
DASHED
 62
     3
100
AcDbLine
 10
-22.99995422363281
 20
-4
 11
-29
 21
-4
  0
LINE
  5
3fd
100
AcDbEntity
  8
0
  6
DASHED
 62
     7
100
AcDbLine
 10
-38.99998251595449
 20
-4.999915325702911
 11
-39.49998303423293
 21
-5.499915886128253
  0
LINE
  5
3fe
100
AcDbEntity
  8
0
  6
DASHED
 62
     7
100
AcDbLine
 10
-29
 20
-5
 11
-39
 21
-5
  0
LINE
  5
3ff
100
AcDbEntity
  8
0
  6
DASHED
 62
     7
100
AcDbLine
 10
-29
 20
-3.600000381469727
 11
-29
 21
-5
  0
LINE
  5
400
100
AcDbEntity
  8
0
  6
DASHED
 62
     3
100
AcDbLine
 10
-22.30713979933412
 20
-3.599991685371397
 11
-22.99994954765383
 21
-3.999985587240158
  0
LINE
  5
401
100
AcDbEntity
  8
0
  6
CONTINUOUS
 62
     7
100
AcDbLine
 10
-20.02027893066406
 20
-6.5
 11
-35.5
 21
-6.5
  0
LINE
  5
402
100
AcDbEntity
  8
0
  6
CONTINUOUS
 62
     7
100
AcDbLine
 10
-37.5
 20
-13
 11
-34.5
 21
-13
  0
LINE
  5
403
100
AcDbEntity
  8
0
  6
CONTINUOUS
 62
     7
100
AcDbLine
 10
-31.5
 20
-17
 11
-31.5
 21
-16
  0
LINE
  5
404
100
AcDbEntity
  8
0
  6
CONTINUOUS
 62
     7
100
AcDbLine
 10
-16.09070910076748
 20
-14.32303942272747
 11
-21.45288876986151
 21
-19.68521909182151
  0
LINE
  5
405
100
AcDbEntity
  8
0
  6
CONTINUOUS
 62
     7
100
AcDbLine
 10
-14.32294155774523
 20
-16.09076380737684
 11
-19.68512122683926
 21
-21.45294347647088
  0
LINE
  5
406
100
AcDbEntity
  8
0
  6
CONTINUOUS
 62
     7
100
AcDbLine
 10
-28
 20
-19
 11
-29.5
 21
-19
  0
LINE
  5
407
100
AcDbEntity
  8
0
  6
CONTINUOUS
 62
     7
100
AcDbLine
 10
-19.00001525878906
 20
-29.5
 11
-19.00001525878906
 21
-28
  0
LINE
  5
408
100
AcDbEntity
  8
0
  6
CONTINUOUS
 62
     7
100
AcDbLine
 10
-15.99995422363281
 20
-31.5
 11
-16.99995422363281
 21
-31.5
  0
LINE
  5
409
100
AcDbEntity
  8
0
  6
CONTINUOUS
 62
     7
100
AcDbLine
 10
-13
 20
-35.5
 11
-13
 21
-34.5
  0
LINE
  5
40a
100
AcDbEntity
  8
0
  6
CONTINUOUS
 62
     7
100
AcDbLine
 10
11.00001525878906
 20
-37.5
 11
-10.99996948242188
 21
-37.5
  0
LINE
  5
40b
100
AcDbEntity
  8
0
  6
CONTINUOUS
 62
     7
100
AcDbLine
 10
-1.25
 20
-21.50581359863281
 11
-1.25
 21
-35.5
  0
LINE
  5
40c
100
AcDbEntity
  8
0
  6
CONTINUOUS
 62
     7
100
AcDbLine
 10
1.25
 20
-21.50581359863281
 11
1.25
 21
-35.5
  0
LINE
  5
40d
100
AcDbEntity
  8
0
  6
CONTINUOUS
 62
     7
100
AcDbLine
 10
13
 20
-35.5
 11
13
 21
-34.5
  0
LINE
  5
40e
100
AcDbEntity
  8
0
  6
CONTINUOUS
 62
     7
100
AcDbLine
 10
17.00001525878906
 20
-31.5
 11
16.00001525878906
 21
-31.5
  0
LINE
  5
40f
100
AcDbEntity
  8
0
  6
CONTINUOUS
 62
     7
100
AcDbLine
 10
19
 20
-29.5
 11
19
 21
-28
  0
LINE
  5
410
100
AcDbEntity
  8
0
  6
CONTINUOUS
 62
     7
100
AcDbLine
 10
28.00001525878906
 20
-19
 11
31.50001525878906
 21
-19
  0
LINE
  5
411
100
AcDbEntity
  8
0
  6
CONTINUOUS
 62
     7
100
AcDbLine
 10
31.5
 20
-19
 11
31.5
 21
-16
  0
LINE
  5
412
100
AcDbEntity
  8
0
  6
CONTINUOUS
 62
     7
100
AcDbLine
 10
21.45304319591446
 20
-19.68512940332787
 11
16.09089589560008
 21
-14.3229821030135
  0
LINE
  5
413
100
AcDbEntity
  8
0
  6
CONTINUOUS
 62
     7
100
AcDbLine
 10
19.68522229498199
 20
-21.45290714588746
 11
14.32305341548118
 21
-16.09073826638664
  0
LINE
  5
414
100
AcDbEntity
  8
0
  6
CONTINUOUS
 62
     7
100
AcDbLine
 10
20.02030944824219
 20
-6.5
 11
35.50001525878906
 21
-6.5
  0
LINE
  5
415
100
AcDbEntity
  8
0
  6
CONTINUOUS
 62
     7
100
AcDbLine
 10
21.50584411621094
 20
-1.25
 11
35.50001525878906
 21
-1.25
  0
LINE
  5
416
100
AcDbEntity
  8
0
  6
CONTINUOUS
 62
     7
100
AcDbLine
 10
37.50003051757813
 20
-13
 11
34.50001525878906
 21
-13
  0
LINE
  5
417
100
AcDbEntity
  8
0
  6
CONTINUOUS
 62
     7
100
AcDbLine
 10
21.50584411621094
 20
1.25
 11
35.50001525878906
 21
1.25
  0
LINE
  5
418
100
AcDbEntity
  8
0
  6
DASHED
 62
     7
100
AcDbLine
 10
-39.5
 20
-8
 11
-40
 21
-8
  0
LINE
  5
419
100
AcDbEntity
  8
0
  6
CENTER
 62
     3
100
AcDbLine
 10
29.5
 20
-22
 11
29.5
 21
-37
  0
LINE
  5
41a
100
AcDbEntity
  8
0
  6
CENTER
 62
     3
100
AcDbLine
 10
22
 20
-29.5
 11
37
 21
-29.5
  0
LINE
  5
41b
100
AcDbEntity
  8
0
  6
CONTINUOUS
 62
     7
100
AcDbLine
 10
25.5
 20
-26.5840950012207
 11
25.5
 21
-32.4159049987793
  0
LINE
  5
41c
100
AcDbEntity
  8
0
  6
CONTINUOUS
 62
     7
100
AcDbLine
 10
25.50000207206898
 20
-26.58407897797164
 11
29.49999992206383
 21
-24.79998546497484
  0
LINE
  5
41d
100
AcDbEntity
  8
0
  6
CONTINUOUS
 62
     7
100
AcDbLine
 10
29.50000693695288
 20
-24.80000674114065
 11
33.50000082273078
 21
-26.58409977720405
  0
LINE
  5
41e
100
AcDbEntity
  8
0
  6
CONTINUOUS
 62
     7
100
AcDbLine
 10
33.5
 20
-26.5840950012207
 11
33.5
 21
-32.4159049987793
  0
LINE
  5
41f
100
AcDbEntity
  8
0
  6
CONTINUOUS
 62
     7
100
AcDbLine
 10
33.50000814848279
 20
-32.41590681596075
 11
29.50000990786849
 21
-34.20000179438546
  0
LINE
  5
420
100
AcDbEntity
  8
0
  6
CONTINUOUS
 62
     7
100
AcDbLine
 10
29.50000636339055
 20
-34.20001182961857
 11
25.50000502952616
 21
-32.41591676273366
  0
LINE
  5
421
100
AcDbEntity
  8
0
  6
CENTER
 62
     3
100
AcDbLine
 10
29.5
 20
37
 11
29.5
 21
22
  0
LINE
  5
422
100
AcDbEntity
  8
0
  6
CENTER
 62
     3
100
AcDbLine
 10
22
 20
29.5
 11
37
 21
29.5
  0
LINE
  5
423
100
AcDbEntity
  8
0
  6
CONTINUOUS
 62
     7
100
AcDbLine
 10
25.5
 20
32.4159049987793
 11
25.5
 21
26.5840950012207
  0
LINE
  5
424
100
AcDbEntity
  8
0
  6
CONTINUOUS
 62
     7
100
AcDbLine
 10
25.50000347563807
 20
32.41592024660321
 11
29.50000132563292
 21
34.20001375960001
  0
LINE
  5
425
100
AcDbEntity
  8
0
  6
CONTINUOUS
 62
     7
100
AcDbLine
 10
29.50000680009042
 20
34.1999948266472
 11
33.50000155683559
 21
32.41590140211154
  0
LINE
  5
426
100
AcDbEntity
  8
0
  6
CONTINUOUS
 62
     7
100
AcDbLine
 10
33.5
 20
32.4159049987793
 11
33.5
 21
26.5840950012207
  0
LINE
  5
427
100
AcDbEntity
  8
0
  6
CONTINUOUS
 62
     7
100
AcDbLine
 10
33.50000702590572
 20
26.58409523432212
 11
29.5000096562587
 21
24.80000064436968
  0
LINE
  5
428
100
AcDbEntity
  8
0
  6
CONTINUOUS
 62
     7
100
AcDbLine
 10
29.5000047717748
 20
24.79999165576988
 11
25.50000517984518
 21
26.58408594571073
  0
LINE
  5
429
100
AcDbEntity
  8
0
  6
CENTER
 62
     3
100
AcDbLine
 10
-29.5
 20
37
 11
-29.5
 21
22
  0
LINE
  5
42a
100
AcDbEntity
  8
0
  6
CENTER
 62
     3
100
AcDbLine
 10
-36.75
 20
29.5
 11
-22
 21
29.5
  0
LINE
  5
42b
100
AcDbEntity
  8
0
  6
CONTINUOUS
 62
     7
100
AcDbLine
 10
-33.5
 20
32.4159049987793
 11
-33.5
 21
26.5840950012207
  0
LINE
  5
42c
100
AcDbEntity
  8
0
  6
CONTINUOUS
 62
     7
100
AcDbLine
 10
-33.49999749087155
 20
32.41592087322824
 11
-29.49999876990933
 21
34.20001477469707
  0
LINE
  5
42d
100
AcDbEntity
  8
0
  6
CONTINUOUS
 62
     7
100
AcDbLine
 10
-29.49999176632333
 20
34.19999439533524
 11
-25.49999788054543
 21
32.41590135927184
  0
LINE
  5
42e
100
AcDbEntity
  8
0
  6
CONTINUOUS
 62
     7
100
AcDbLine
 10
-25.5
 20
32.4159049987793
 11
-25.5
 21
26.5840950012207
  0
LINE
  5
42f
100
AcDbEntity
  8
0
  6
CONTINUOUS
 62
     7
100
AcDbLine
 10
-25.49999454188213
 20
26.58409537118458
 11
-29.49999191152915
 21
24.80000078123214
  0
LINE
  5
430
100
AcDbEntity
  8
0
  6
CONTINUOUS
 62
     7
100
AcDbLine
 10
-29.49999271086528
 20
24.79998947525674
 11
-33.49999404472967
 21
26.58408454214165
  0
LINE
  5
431
100
AcDbEntity
  8
0
  6
CENTER
 62
     3
100
AcDbLine
 10
-29.5
 20
-22
 11
-29.5
 21
-37
  0
LINE
  5
432
100
AcDbEntity
  8
0
  6
CENTER
 62
     3
100
AcDbLine
 10
-37
 20
-29.5
 11
-22
 21
-29.5
  0
LINE
  5
433
100
AcDbEntity
  8
0
  6
CONTINUOUS
 62
     7
100
AcDbLine
 10
-33.5
 20
-26.5840950012207
 11
-33.5
 21
-32.4159049987793
  0
LINE
  5
434
100
AcDbEntity
  8
0
  6
CONTINUOUS
 62
     7
100
AcDbLine
 10
-33.49999598708979
 20
-26.58408018730472
 11
-29.49999813709495
 21
-24.79998667430791
  0
LINE
  5
435
100
AcDbEntity
  8
0
  6
CONTINUOUS
 62
     7
100
AcDbLine
 10
-29.49999676124179
 20
-24.80000697202587
 11
-25.50000026256205
 21
-26.58410117350606
  0
LINE
  5
436
100
AcDbEntity
  8
0
  6
CONTINUOUS
 62
     7
100
AcDbLine
 10
-25.5
 20
-26.5840950012207
 11
-25.5
 21
-32.4159049987793
  0
LINE
  5
437
100
AcDbEntity
  8
0
  6
CONTINUOUS
 62
     7
100
AcDbLine
 10
-25.49999128889824
 20
-32.41590677312105
 11
-29.49998865854526
 21
-34.2000013630735
  0
LINE
  5
438
100
AcDbEntity
  8
0
  6
CONTINUOUS
 62
     7
100
AcDbLine
 10
-29.49999547408645
 20
-34.20001206777158
 11
-33.49999593698345
 21
-32.4159173893587
  0
LINE
  5
439
100
AcDbEntity
  8
0
  6
CONTINUOUS
 62
     7
100
AcDbLine
 10
-65
 20
41.5
 11
-65
 21
-41.50000000000001
  0
LINE
  5
43a
100
AcDbEntity
  8
0
  6
CONTINUOUS
 62
     7
100
AcDbLine
 10
-34
 20
-40
 11
34
 21
-40
  0
LINE
  5
43b
100
AcDbEntity
  8
0
  6
CENTER
 62
     3
100
AcDbLine
 10
-52.5
 20
-22
 11
-52.5
 21
-37
  0
LINE
  5
43c
100
AcDbEntity
  8
0
  6
CENTER
 62
     3
100
AcDbLine
 10
-60.00000381469727
 20
-29.5
 11
-45
 21
-29.5
  0
LINE
  5
43d
100
AcDbEntity
  8
0
  6
CENTER
 62
     3
100
AcDbLine
 10
52.5
 20
-22
 11
52.5
 21
-37
  0
LINE
  5
43e
100
AcDbEntity
  8
0
  6
CENTER
 62
     3
100
AcDbLine
 10
60
 20
-29.5
 11
45
 21
-29.5
  0
LINE
  5
43f
100
AcDbEntity
  8
0
  6
CONTINUOUS
 62
     7
100
AcDbLine
 10
65
 20
41.50000000000001
 11
65
 21
-41.5
  0
LINE
  5
440
100
AcDbEntity
  8
0
  6
CONTINUOUS
 62
     7
100
AcDbLine
 10
-34
 20
40.00000762939453
 11
34
 21
40.00000762939453
  0
LINE
  5
441
100
AcDbEntity
  8
0
  6
CENTER
 62
     3
100
AcDbLine
 10
-52.5
 20
37.00000762939453
 11
-52.5
 21
22
  0
LINE
  5
442
100
AcDbEntity
  8
0
  6
CENTER
 62
     3
100
AcDbLine
 10
-60.00000381469727
 20
29.5
 11
-45
 21
29.5
  0
LINE
  5
443
100
AcDbEntity
  8
0
  6
CENTER
 62
     3
100
AcDbLine
 10
52.5
 20
37.00000762939453
 11
52.5
 21
22
  0
LINE
  5
444
100
AcDbEntity
  8
0
  6
CENTER
 62
     3
100
AcDbLine
 10
60
 20
29.5
 11
45
 21
29.5
  0
LINE
  5
445
100
AcDbEntity
  8
0
  6
DASHED
 62
     1
100
AcDbLine
 10
-20.60578155517578
 20
0.9599986076354981
 11
-20.60578155517578
 21
-0.9599986076354981
  0
LINE
  5
446
100
AcDbEntity
  8
0
  6
DASHED
 62
     1
100
AcDbLine
 10
-25.60577332970922
 20
1.999999584720663
 11
-20.60577112955918
 21
0.9599967393604736
  0
LINE
  5
447
100
AcDbEntity
  8
0
  6
DASHED
 62
     1
100
AcDbLine
 10
-25.60577384533943
 20
-1.999999019824485
 11
-20.60577131394334
 21
-0.9599977669910147
  0
LINE
  5
448
100
AcDbEntity
  8
0
  6
DASHED
 62
     1
100
AcDbLine
 10
-25.60578155517578
 20
3.500000476837158
 11
-25.60578155517578
 21
-3.499999523162842
  0
LINE
  5
449
100
AcDbEntity
  8
0
  6
DASHED
 62
     1
100
AcDbLine
 10
-26.10578155517578
 20
-3.999999523162842
 11
-26.10578155517578
 21
4.000000476837158
  0
LINE
  5
44a
100
AcDbEntity
  8
0
  6
DASHED
 62
     1
100
AcDbLine
 10
-25.60578014426919
 20
3.500002271549706
 11
-26.10578062040074
 21
4.000002874121936
  0
LINE
  5
44b
100
AcDbEntity
  8
0
  6
DASHED
 62
     1
100
AcDbLine
 10
-29.60578155517578
 20
4.000000476837158
 11
-26.10578155517578
 21
4.000000476837158
  0
LINE
  5
44c
100
AcDbEntity
  8
0
  6
DASHED
 62
     1
100
AcDbLine
 10
-31.10578155517578
 20
3.594000339508057
 11
-25.69977569580078
 21
3.594000339508057
  0
LINE
  5
44d
100
AcDbEntity
  8
0
  6
DASHED
 62
     1
100
AcDbLine
 10
-29.60578155517578
 20
4.000000476837158
 11
-29.60578155517578
 21
-3.999999046325684
  0
LINE
  5
44e
100
AcDbEntity
  8
0
  6
DASHED
 62
     1
100
AcDbLine
 10
-31.10578155517578
 20
4.900002002716065
 11
-31.10578155517578
 21
-4.899998664855957
  0
LINE
  5
44f
100
AcDbEntity
  8
0
  6
DASHED
 62
     1
100
AcDbLine
 10
-31.80577850341797
 20
4.900000095367432
 11
-31.10578155517578
 21
4.900000095367432
  0
LINE
  5
450
100
AcDbEntity
  8
0
  6
DASHED
 62
     1
100
AcDbLine
 10
-31.80577850341797
 20
5.000001430511475
 11
-31.80577850341797
 21
-4.999998569488525
  0
LINE
  5
451
100
AcDbEntity
  8
0
  6
DASHED
 62
     1
100
AcDbLine
 10
-33.40577697753906
 20
5.000000476837158
 11
-31.80577850341797
 21
5.000000476837158
  0
LINE
  5
452
100
AcDbEntity
  8
0
  6
DASHED
 62
     1
100
AcDbLine
 10
-33.40577697753906
 20
5.000002384185791
 11
-33.40577697753906
 21
-4.999998092651367
  0
LINE
  5
453
100
AcDbEntity
  8
0
  6
DASHED
 62
     1
100
AcDbLine
 10
-33.40577697753906
 20
3.799999713897705
 11
-31.80577850341797
 21
3.799999713897705
  0
LINE
  5
454
100
AcDbEntity
  8
0
  6
DASHED
 62
     1
100
AcDbLine
 10
-33.40577697753906
 20
-3.799999952316284
 11
-31.80577850341797
 21
-3.799999952316284
  0
LINE
  5
455
100
AcDbEntity
  8
0
  6
DASHED
 62
     1
100
AcDbLine
 10
-33.40577697753906
 20
-5
 11
-31.80577850341797
 21
-5
  0
LINE
  5
456
100
AcDbEntity
  8
0
  6
DASHED
 62
     1
100
AcDbLine
 10
-31.80577850341797
 20
-4.900000095367432
 11
-31.10578155517578
 21
-4.900000095367432
  0
LINE
  5
457
100
AcDbEntity
  8
0
  6
DASHED
 62
     1
100
AcDbLine
 10
-34.10578155517578
 20
-4.900000095367432
 11
-33.40577697753906
 21
-4.900000095367432
  0
LINE
  5
458
100
AcDbEntity
  8
0
  6
DASHED
 62
     1
100
AcDbLine
 10
-31.10578155517578
 20
-3.594000101089478
 11
-25.69977569580078
 21
-3.594000101089478
  0
LINE
  5
459
100
AcDbEntity
  8
0
  6
DASHED
 62
     1
100
AcDbLine
 10
-29.60578155517578
 20
-4
 11
-26.10578155517578
 21
-4
  0
LINE
  5
45a
100
AcDbEntity
  8
0
  6
DASHED
 62
     1
100
AcDbLine
 10
-26.10578539879979
 20
-3.999998068976348
 11
-25.60578479622756
 21
-3.499997592844798
  0
LINE
  5
45b
100
AcDbEntity
  8
0
  6
DASHED
 62
     1
100
AcDbLine
 10
-34.10578155517578
 20
4.900000095367432
 11
-33.40577697753906
 21
4.900000095367432
  0
LINE
  5
45c
100
AcDbEntity
  8
0
  6
DASHED
 62
     1
100
AcDbLine
 10
-34.10578155517578
 20
4.900002002716065
 11
-34.10578155517578
 21
-4.899998188018799
  0
LINE
  5
45d
100
AcDbEntity
  8
0
  6
DASHED
 62
     7
100
AcDbLine
 10
-36.10577392578125
 20
-5.000007629394531
 11
-36.10577392578125
 21
5
  0
LINE
  5
45e
100
AcDbEntity
  8
0
  6
DASHED
 62
     7
100
AcDbLine
 10
-36.60577392578125
 20
-5
 11
-36.60577392578125
 21
5
  0
LINE
  5
45f
100
AcDbEntity
  8
0
  6
DASHED
 62
     7
100
AcDbLine
 10
-36.60577392578125
 20
5
 11
-36.10577392578125
 21
5
  0
LINE
  5
460
100
AcDbEntity
  8
0
  6
DASHED
 62
     7
100
AcDbLine
 10
-36.60577392578125
 20
-5
 11
-36.10577392578125
 21
-5
  0
LINE
  5
461
100
AcDbEntity
  8
0
  6
CONTINUOUS
 62
     7
100
AcDbLine
 10
64.5
 20
-42
 11
-64.5
 21
-42
  0
LINE
  5
462
100
AcDbEntity
  8
0
  6
CONTINUOUS
 62
     7
100
AcDbLine
 10
64.5
 20
42
 11
-64.5
 21
42
  0
LINE
  5
463
100
AcDbEntity
  8
0
  6
CONTINUOUS
 62
     7
100
AcDbLine
 10
-64.99999999999999
 20
41.5
 11
-64.5
 21
41.99999999999999
  0
LINE
  5
464
100
AcDbEntity
  8
0
  6
CONTINUOUS
 62
     7
100
AcDbLine
 10
64.5
 20
42
 11
65
 21
41.50000000000001
  0
LINE
  5
465
100
AcDbEntity
  8
0
  6
CONTINUOUS
 62
     7
100
AcDbLine
 10
64.99999999999999
 20
-41.5
 11
64.5
 21
-41.99999999999999
  0
LINE
  5
466
100
AcDbEntity
  8
0
  6
CONTINUOUS
 62
     7
100
AcDbLine
 10
-64.5
 20
-42
 11
-65
 21
-41.50000000000001
  0
ARC
  5
467
100
AcDbEntity
  8
0
  6
CONTINUOUS
 62
     7
100
AcDbCircle
 10
-34
 20
34
 40
6
100
AcDbArc
 50
89.99995469315395
 51
179.9999640278213
  0
ARC
  5
468
100
AcDbEntity
  8
0
  6
CONTINUOUS
 62
     7
100
AcDbCircle
 10
34
 20
34
 40
6
100
AcDbArc
 50
359.9999453584874
 51
89.99995469315395
  0
CIRCLE
  5
469
100
AcDbEntity
  8
0
  6
CONTINUOUS
 62
     7
100
AcDbCircle
 10
29.5
 20
29.5
 40
7.5
  0
CIRCLE
  5
46a
100
AcDbEntity
  8
0
  6
CONTINUOUS
 62
     7
100
AcDbCircle
 10
-29.5
 20
29.5
 40
7.5
  0
ARC
  5
46b
100
AcDbEntity
  8
0
  6
CONTINUOUS
 62
     7
100
AcDbCircle
 10
-34.5
 20
16
 40
3
100
AcDbArc
 50
269.9999633445767
 51
359.9999590188657
  0
ARC
  5
46c
100
AcDbEntity
  8
0
  6
CONTINUOUS
 62
     7
100
AcDbCircle
 10
-35.5
 20
8.5
 40
2
100
AcDbArc
 50
180.0000359721794
 51
270.0000384766577
  0
ARC
  5
46d
100
AcDbEntity
  8
0
  6
CONTINUOUS
 62
     7
100
AcDbCircle
 10
-28
 20
28
 40
9
100
AcDbArc
 50
269.9999974955226
 51
360
  0
ARC
  5
46e
100
AcDbEntity
  8
0
  6
CONTINUOUS
 62
     7
100
AcDbCircle
 10
-17.00001525878906
 20
29.5
 40
2
100
AcDbArc
 50
89.99995469315398
 51
179.9999640278213
  0
ARC
  5
46f
100
AcDbEntity
  8
0
  6
CONTINUOUS
 62
     7
100
AcDbCircle
 10
-16.00001525878906
 20
34.5
 40
3
100
AcDbArc
 50
269.9999974955226
 51
360
  0
ARC
  5
470
100
AcDbEntity
  8
0
  6
CONTINUOUS
 62
     7
100
AcDbCircle
 10
-11
 20
35.5
 40
2
100
AcDbArc
 50
89.99995469315398
 51
179.9999640278213
  0
ARC
  5
471
100
AcDbEntity
  8
0
  6
CONTINUOUS
 62
     7
100
AcDbCircle
 10
11
 20
35.5
 40
2
100
AcDbArc
 50
359.9999453584874
 51
89.99995469315398
  0
ARC
  5
472
100
AcDbEntity
  8
0
  6
CONTINUOUS
 62
     7
100
AcDbCircle
 10
16
 20
34.5
 40
3
100
AcDbArc
 50
179.9999813306654
 51
269.9999906653334
  0
ARC
  5
473
100
AcDbEntity
  8
0
  6
CONTINUOUS
 62
     7
100
AcDbCircle
 10
17
 20
29.5
 40
2
100
AcDbArc
 50
359.9999453584874
 51
89.99995469315398
  0
ARC
  5
474
100
AcDbEntity
  8
0
  6
CONTINUOUS
 62
     7
100
AcDbCircle
 10
18
 20
29
 40
1
100
AcDbArc
 50
359.9999453584874
 51
89.99995469315388
  0
ARC
  5
475
100
AcDbEntity
  8
0
  6
CONTINUOUS
 62
     7
100
AcDbCircle
 10
7.5
 20
29
 40
1
100
AcDbArc
 50
89.99995469315398
 51
179.9999640278213
  0
ARC
  5
476
100
AcDbEntity
  8
0
  6
CONTINUOUS
 62
     7
100
AcDbCircle
 10
-7.5
 20
29
 40
1
100
AcDbArc
 50
359.9999453584874
 51
89.99995469315398
  0
ARC
  5
477
100
AcDbEntity
  8
0
  6
CONTINUOUS
 62
     7
100
AcDbCircle
 10
-18.00001525878906
 20
29
 40
1
100
AcDbArc
 50
89.99995469315388
 51
179.9999640278213
  0
ARC
  5
478
100
AcDbEntity
  8
0
  6
CONTINUOUS
 62
     7
100
AcDbCircle
 10
28
 20
28
 40
9
100
AcDbArc
 50
179.9999813306653
 51
269.9999906653334
  0
ARC
  5
479
100
AcDbEntity
  8
0
  6
CONTINUOUS
 62
     7
100
AcDbCircle
 10
34.5
 20
16
 40
3
100
AcDbArc
 50
179.9999813306653
 51
269.9999906653333
  0
ARC
  5
47a
100
AcDbEntity
  8
0
  6
CONTINUOUS
 62
     7
100
AcDbCircle
 10
35.5
 20
8.5
 40
2
100
AcDbArc
 50
269.9999974955226
 51
360
  0
ARC
  5
47b
100
AcDbEntity
  8
0
  6
CONTINUOUS
 62
     7
100
AcDbCircle
 10
0
 20
0
 40
25
100
AcDbArc
 50
17.10590824797345
 51
39.75316262995659
  0
ARC
  5
47c
100
AcDbEntity
  8
0
  6
CONTINUOUS
 62
     7
100
AcDbCircle
 10
20.02032470703125
 20
8.5
 40
2
100
AcDbArc
 50
230.6561885930923
 51
269.999977004955
  0
ARC
  5
47d
100
AcDbEntity
  8
0
  6
CONTINUOUS
 62
     7
100
AcDbCircle
 10
17.5050048828125
 20
12.9088134765625
 40
2
100
AcDbArc
 50
134.9999593604877
 51
188.7536983926505
  0
ARC
  5
47e
100
AcDbEntity
  8
0
  6
CONTINUOUS
 62
     7
100
AcDbCircle
 10
22.8671875
 20
18.27096557617188
 40
2
100
AcDbArc
 50
62.18474695870746
 51
134.9999457001094
  0
ARC
  5
47f
100
AcDbEntity
  8
0
  6
CONTINUOUS
 62
     7
100
AcDbCircle
 10
18.27099609375
 20
22.86715698242188
 40
2
100
AcDbArc
 50
314.9999680119104
 51
27.81516675331153
  0
ARC
  5
480
100
AcDbEntity
  8
0
  6
CONTINUOUS
 62
     7
100
AcDbCircle
 10
12.9088134765625
 20
17.5050048828125
 40
2
100
AcDbArc
 50
261.2462426401266
 51
314.9999816722886
  0
ARC
  5
481
100
AcDbEntity
  8
0
  6
CONTINUOUS
 62
     7
100
AcDbCircle
 10
0
 20
0
 40
25
100
AcDbArc
 50
50.27721372576062
 51
64.62790562482097
  0
ARC
  5
482
100
AcDbEntity
  8
0
  6
CONTINUOUS
 62
     7
100
AcDbCircle
 10
0
 20
0
 40
25
100
AcDbArc
 50
115.3720310822437
 51
129.722722981304
  0
ARC
  5
483
100
AcDbEntity
  8
0
  6
CONTINUOUS
 62
     7
100
AcDbCircle
 10
-18.27095031738281
 20
22.86715698242188
 40
2
100
AcDbArc
 50
152.1847562933748
 51
224.9999550347774
  0
ARC
  5
484
100
AcDbEntity
  8
0
  6
CONTINUOUS
 62
     7
100
AcDbCircle
 10
-22.86714172363281
 20
18.27096557617188
 40
2
100
AcDbArc
 50
44.99996368619869
 51
117.8151624276005
  0
ARC
  5
485
100
AcDbEntity
  8
0
  6
CONTINUOUS
 62
     7
100
AcDbCircle
 10
0
 20
0
 40
25
100
AcDbArc
 50
140.2467604167297
 51
158.0181203351592
  0
ARC
  5
486
100
AcDbEntity
  8
0
  6
CONTINUOUS
 62
     7
100
AcDbCircle
 10
-17.50502014160156
 20
12.9088134765625
 40
2
100
AcDbArc
 50
351.2456287200322
 51
44.99996368619866
  0
ARC
  5
487
100
AcDbEntity
  8
0
  6
CONTINUOUS
 62
     7
100
AcDbCircle
 10
-12.9088134765625
 20
17.5050048828125
 40
2
100
AcDbArc
 50
224.9999859979997
 51
278.7537386905402
  0
ARC
  5
488
100
AcDbEntity
  8
0
  6
CONTINUOUS
 62
     7
100
AcDbCircle
 10
-20.02033996582031
 20
8.5
 40
2
100
AcDbArc
 50
270.0000589672251
 51
309.3445679640452
  0
ARC
  5
489
100
AcDbEntity
  8
0
  6
CONTINUOUS
 62
     7
100
AcDbCircle
 10
-21.50587463378906
 20
3.25
 40
2
100
AcDbArc
 50
270.0000521370359
 51
323.7570013581079
  0
ARC
  5
48a
100
AcDbEntity
  8
0
  6
CONTINUOUS
 62
     7
100
AcDbCircle
 10
-21.50587463378906
 20
-3.25
 40
2
100
AcDbArc
 50
36.24299864189278
 51
90.0000639761807
  0
ARC
  5
48b
100
AcDbEntity
  8
0
  6
CONTINUOUS
 62
     7
100
AcDbCircle
 10
-35.5
 20
-3.25
 40
2
100
AcDbArc
 50
90.0000639761806
 51
180.0000733108487
  0
ARC
  5
48c
100
AcDbEntity
  8
0
  6
CONTINUOUS
 62
     7
100
AcDbCircle
 10
-35.5
 20
3.25
 40
2
100
AcDbArc
 50
180.0000359721794
 51
270.0000384766577
  0
ARC
  5
48d
100
AcDbEntity
  8
0
  6
CONTINUOUS
 62
     7
100
AcDbCircle
 10
-35.5
 20
-8.5
 40
2
100
AcDbArc
 50
90.0000639761806
 51
180.0000733108487
  0
ARC
  5
48e
100
AcDbEntity
  8
0
  6
CONTINUOUS
 62
     7
100
AcDbCircle
 10
-34.5
 20
-16
 40
3
100
AcDbArc
 50
0
 51
89.9999820139107
  0
ARC
  5
48f
100
AcDbEntity
  8
0
  6
CONTINUOUS
 62
     7
100
AcDbCircle
 10
-29.5
 20
-17
 40
2
100
AcDbArc
 50
180.9444462287171
 51
269.999977004955
  0
ARC
  5
490
100
AcDbEntity
  8
0
  6
CONTINUOUS
 62
     7
100
AcDbCircle
 10
0
 20
0
 40
25
100
AcDbArc
 50
201.9818250233282
 51
219.7388825256356
  0
ARC
  5
491
100
AcDbEntity
  8
0
  6
CONTINUOUS
 62
     7
100
AcDbCircle
 10
-20.02033996582031
 20
-8.5
 40
2
100
AcDbArc
 50
50.65543203595549
 51
90.0000639761807
  0
ARC
  5
492
100
AcDbEntity
  8
0
  6
CONTINUOUS
 62
     7
100
AcDbCircle
 10
-17.50502014160156
 20
-12.9088134765625
 40
2
100
AcDbArc
 50
314.9999680119104
 51
8.754371279968543
  0
ARC
  5
493
100
AcDbEntity
  8
0
  6
CONTINUOUS
 62
     7
100
AcDbCircle
 10
-12.9088134765625
 20
-17.5050048828125
 40
2
100
AcDbArc
 50
81.24626130946061
 51
134.9999457001093
  0
ARC
  5
494
100
AcDbEntity
  8
0
  6
CONTINUOUS
 62
     7
100
AcDbCircle
 10
-28
 20
-28
 40
9
100
AcDbArc
 50
359.9999453584874
 51
89.99995469315397
  0
ARC
  5
495
100
AcDbEntity
  8
0
  6
CONTINUOUS
 62
     7
100
AcDbCircle
 10
-22.86714172363281
 20
-18.27096557617188
 40
2
100
AcDbArc
 50
242.1847829308868
 51
314.9999885024779
  0
CIRCLE
  5
496
100
AcDbEntity
  8
0
  6
CONTINUOUS
 62
     7
100
AcDbCircle
 10
-29.5
 20
-29.5
 40
7.5
  0
ARC
  5
497
100
AcDbEntity
  8
0
  6
CONTINUOUS
 62
     7
100
AcDbCircle
 10
-34
 20
-34
 40
6
100
AcDbArc
 50
179.9999813306653
 51
269.9999906653334
  0
ARC
  5
498
100
AcDbEntity
  8
0
  6
CONTINUOUS
 62
     7
100
AcDbCircle
 10
-18.27095031738281
 20
-22.86715698242188
 40
2
100
AcDbArc
 50
134.9999593604877
 51
207.8151717622686
  0
ARC
  5
499
100
AcDbEntity
  8
0
  6
CONTINUOUS
 62
     7
100
AcDbCircle
 10
0
 20
0
 40
25
100
AcDbArc
 50
229.4281479010807
 51
265.8413480269011
  0
ARC
  5
49a
100
AcDbEntity
  8
0
  6
CONTINUOUS
 62
     7
100
AcDbCircle
 10
-17.00001525878906
 20
-29.5
 40
2
100
AcDbArc
 50
179.9999813306653
 51
269.9999906653334
  0
ARC
  5
49b
100
AcDbEntity
  8
0
  6
CONTINUOUS
 62
     7
100
AcDbCircle
 10
-16.00001525878906
 20
-34.5
 40
3
100
AcDbArc
 50
359.9999453584874
 51
89.99995469315395
  0
ARC
  5
49c
100
AcDbEntity
  8
0
  6
CONTINUOUS
 62
     7
100
AcDbCircle
 10
-11
 20
-35.5
 40
2
100
AcDbArc
 50
179.9999813306653
 51
269.9999906653334
  0
ARC
  5
49d
100
AcDbEntity
  8
0
  6
CONTINUOUS
 62
     7
100
AcDbCircle
 10
-3.25
 20
-35.5
 40
2
100
AcDbArc
 50
269.9999974955226
 51
360
  0
ARC
  5
49e
100
AcDbEntity
  8
0
  6
CONTINUOUS
 62
     7
100
AcDbCircle
 10
-3.25
 20
-21.50581359863281
 40
2
100
AcDbArc
 50
359.999972679244
 51
53.75354095667615
  0
ARC
  5
49f
100
AcDbEntity
  8
0
  6
CONTINUOUS
 62
     7
100
AcDbCircle
 10
3.25
 20
-21.50581359863281
 40
2
100
AcDbArc
 50
126.2464708824693
 51
179.9999640278213
  0
ARC
  5
4a0
100
AcDbEntity
  8
0
  6
CONTINUOUS
 62
     7
100
AcDbCircle
 10
3.25
 20
-35.5
 40
2
100
AcDbArc
 50
179.9999813306653
 51
269.9999906653334
  0
ARC
  5
4a1
100
AcDbEntity
  8
0
  6
CONTINUOUS
 62
     7
100
AcDbCircle
 10
0
 20
0
 40
25
100
AcDbArc
 50
275.3277362934293
 51
310.571833429586
  0
ARC
  5
4a2
100
AcDbEntity
  8
0
  6
CONTINUOUS
 62
     7
100
AcDbCircle
 10
34
 20
-34
 40
6
100
AcDbArc
 50
269.9999974955226
 51
360
  0
CIRCLE
  5
4a3
100
AcDbEntity
  8
0
  6
CONTINUOUS
 62
     7
100
AcDbCircle
 10
29.5
 20
-29.5
 40
7.5
  0
ARC
  5
4a4
100
AcDbEntity
  8
0
  6
CONTINUOUS
 62
     7
100
AcDbCircle
 10
11
 20
-35.5
 40
2
100
AcDbArc
 50
269.9999974955226
 51
360
  0
ARC
  5
4a5
100
AcDbEntity
  8
0
  6
CONTINUOUS
 62
     7
100
AcDbCircle
 10
16
 20
-34.5
 40
3
100
AcDbArc
 50
89.99995469315395
 51
179.9999640278213
  0
ARC
  5
4a6
100
AcDbEntity
  8
0
  6
CONTINUOUS
 62
     7
100
AcDbCircle
 10
17
 20
-29.5
 40
2
100
AcDbArc
 50
269.9999974955226
 51
360
  0
ARC
  5
4a7
100
AcDbEntity
  8
0
  6
CONTINUOUS
 62
     7
100
AcDbCircle
 10
28
 20
-28
 40
9
100
AcDbArc
 50
89.99995469315397
 51
179.9999640278213
  0
ARC
  5
4a8
100
AcDbEntity
  8
0
  6
CONTINUOUS
 62
     7
100
AcDbCircle
 10
18.27099609375
 20
-22.86715698242188
 40
2
100
AcDbArc
 50
332.1847649447975
 51
44.99996368619869
  0
ARC
  5
4a9
100
AcDbEntity
  8
0
  6
CONTINUOUS
 62
     7
100
AcDbCircle
 10
22.8671875
 20
-18.27096557617188
 40
2
100
AcDbArc
 50
224.9999859979997
 51
297.8151847394016
  0
ARC
  5
4aa
100
AcDbEntity
  8
0
  6
CONTINUOUS
 62
     7
100
AcDbCircle
 10
12.9088134765625
 20
-17.5050048828125
 40
2
100
AcDbArc
 50
44.99996368619869
 51
98.75375735987409
  0
ARC
  5
4ab
100
AcDbEntity
  8
0
  6
CONTINUOUS
 62
     7
100
AcDbCircle
 10
17.5050048828125
 20
-12.9088134765625
 40
2
100
AcDbArc
 50
171.2462843045063
 51
224.9999550347774
  0
ARC
  5
4ac
100
AcDbEntity
  8
0
  6
CONTINUOUS
 62
     7
100
AcDbCircle
 10
0
 20
0
 40
25
100
AcDbArc
 50
320.2610851446528
 51
343.29442279966
  0
ARC
  5
4ad
100
AcDbEntity
  8
0
  6
CONTINUOUS
 62
     7
100
AcDbCircle
 10
20.02032470703125
 20
-8.5
 40
2
100
AcDbArc
 50
89.99995469315398
 51
129.3438114069084
  0
ARC
  5
4ae
100
AcDbEntity
  8
0
  6
CONTINUOUS
 62
     7
100
AcDbCircle
 10
21.505859375
 20
-3.25
 40
2
100
AcDbArc
 50
89.99995469315398
 51
143.7561662537956
  0
ARC
  5
4af
100
AcDbEntity
  8
0
  6
CONTINUOUS
 62
     7
100
AcDbCircle
 10
35.5
 20
-3.25
 40
2
100
AcDbArc
 50
359.9999453584874
 51
89.99995469315388
  0
ARC
  5
4b0
100
AcDbEntity
  8
0
  6
CONTINUOUS
 62
     7
100
AcDbCircle
 10
35.5
 20
-8.5
 40
2
100
AcDbArc
 50
359.9999453584874
 51
89.99995469315388
  0
ARC
  5
4b1
100
AcDbEntity
  8
0
  6
CONTINUOUS
 62
     7
100
AcDbCircle
 10
34.5
 20
-16
 40
3
100
AcDbArc
 50
89.99995469315401
 51
179.9999640278213
  0
ARC
  5
4b2
100
AcDbEntity
  8
0
  6
CONTINUOUS
 62
     7
100
AcDbCircle
 10
21.505859375
 20
3.25
 40
2
100
AcDbArc
 50
216.2438337462051
 51
269.9999838351442
  0
ARC
  5
4b3
100
AcDbEntity
  8
0
  6
CONTINUOUS
 62
     7
100
AcDbCircle
 10
35.5
 20
3.25
 40
2
100
AcDbArc
 50
269.9999974955226
 51
360
  0
CIRCLE
  5
4b4
100
AcDbEntity
  8
0
  6
CONTINUOUS
 62
     7
100
AcDbCircle
 10
0
 20
0
 40
20
  0
CIRCLE
  5
4b5
100
AcDbEntity
  8
0
  6
CONTINUOUS
 62
     7
100
AcDbCircle
 10
0
 20
0
 40
19
  0
CIRCLE
  5
4b6
100
AcDbEntity
  8
0
  6
CONTINUOUS
 62
     7
100
AcDbCircle
 10
29.5
 20
-29.5
 40
3.299999952316284
  0
CIRCLE
  5
4b7
100
AcDbEntity
  8
0
  6
CONTINUOUS
 62
     7
100
AcDbCircle
 10
29.5
 20
-29.5
 40
4
  0
CIRCLE
  5
4b8
100
AcDbEntity
  8
0
  6
CONTINUOUS
 62
     7
100
AcDbCircle
 10
29.5
 20
-29.5
 40
4.949999809265137
  0
CIRCLE
  5
4b9
100
AcDbEntity
  8
0
  6
CONTINUOUS
 62
     7
100
AcDbCircle
 10
29.5
 20
-29.5
 40
6.25
  0
CIRCLE
  5
4ba
100
AcDbEntity
  8
0
  6
CONTINUOUS
 62
     7
100
AcDbCircle
 10
29.5
 20
-29.5
 40
6.75
  0
CIRCLE
  5
4bb
100
AcDbEntity
  8
0
  6
CONTINUOUS
 62
     7
100
AcDbCircle
 10
29.5
 20
29.5
 40
3.299999952316284
  0
CIRCLE
  5
4bc
100
AcDbEntity
  8
0
  6
CONTINUOUS
 62
     7
100
AcDbCircle
 10
29.5
 20
29.5
 40
4
  0
CIRCLE
  5
4bd
100
AcDbEntity
  8
0
  6
CONTINUOUS
 62
     7
100
AcDbCircle
 10
29.5
 20
29.5
 40
4.949999809265137
  0
CIRCLE
  5
4be
100
AcDbEntity
  8
0
  6
CONTINUOUS
 62
     7
100
AcDbCircle
 10
29.5
 20
29.5
 40
6.25
  0
CIRCLE
  5
4bf
100
AcDbEntity
  8
0
  6
CONTINUOUS
 62
     7
100
AcDbCircle
 10
29.5
 20
29.5
 40
6.75
  0
CIRCLE
  5
4c0
100
AcDbEntity
  8
0
  6
CONTINUOUS
 62
     7
100
AcDbCircle
 10
-29.5
 20
29.5
 40
3.299999952316284
  0
CIRCLE
  5
4c1
100
AcDbEntity
  8
0
  6
CONTINUOUS
 62
     7
100
AcDbCircle
 10
-29.5
 20
29.5
 40
4
  0
CIRCLE
  5
4c2
100
AcDbEntity
  8
0
  6
CONTINUOUS
 62
     7
100
AcDbCircle
 10
-29.5
 20
29.5
 40
4.949999809265137
  0
CIRCLE
  5
4c3
100
AcDbEntity
  8
0
  6
CONTINUOUS
 62
     7
100
AcDbCircle
 10
-29.5
 20
29.5
 40
6.25
  0
CIRCLE
  5
4c4
100
AcDbEntity
  8
0
  6
CONTINUOUS
 62
     7
100
AcDbCircle
 10
-29.5
 20
29.5
 40
6.75
  0
CIRCLE
  5
4c5
100
AcDbEntity
  8
0
  6
CONTINUOUS
 62
     7
100
AcDbCircle
 10
-29.5
 20
-29.5
 40
3.299999952316284
  0
CIRCLE
  5
4c6
100
AcDbEntity
  8
0
  6
CONTINUOUS
 62
     7
100
AcDbCircle
 10
-29.5
 20
-29.5
 40
4
  0
CIRCLE
  5
4c7
100
AcDbEntity
  8
0
  6
CONTINUOUS
 62
     7
100
AcDbCircle
 10
-29.5
 20
-29.5
 40
4.949999809265137
  0
CIRCLE
  5
4c8
100
AcDbEntity
  8
0
  6
CONTINUOUS
 62
     7
100
AcDbCircle
 10
-29.5
 20
-29.5
 40
6.25
  0
CIRCLE
  5
4c9
100
AcDbEntity
  8
0
  6
CONTINUOUS
 62
     7
100
AcDbCircle
 10
-29.5
 20
-29.5
 40
6.75
  0
CIRCLE
  5
4ca
100
AcDbEntity
  8
0
  6
CONTINUOUS
 62
     7
100
AcDbCircle
 10
-52.5
 20
-29.5
 40
5.75
  0
CIRCLE
  5
4cb
100
AcDbEntity
  8
0
  6
CONTINUOUS
 62
     7
100
AcDbCircle
 10
52.5
 20
-29.5
 40
5.75
  0
CIRCLE
  5
4cc
100
AcDbEntity
  8
0
  6
CONTINUOUS
 62
     7
100
AcDbCircle
 10
-52.5
 20
29.5
 40
5.75
  0
CIRCLE
  5
4cd
100
AcDbEntity
  8
0
  6
CONTINUOUS
 62
     7
100
AcDbCircle
 10
52.5
 20
29.5
 40
5.75
  0
MTEXT
  5
4ce
100
AcDbEntity
  8
0
  6
CONTINUOUS
 62
     7
100
AcDbMText
 10
5.125640526413918
 20
-30.00102996826172
 40
0.5
 41
36
 71
     7
 72
     1
  1
{\W0.842599;ＢＮ－６１０５－ＦＡＣ－６３－Ｂ－＊}
  0
INSERT
  5
4cf
100
AcDbEntity
  8
0
  6
CONTINUOUS
 62
     3
100
AcDbBlockReference
  2
KOZU0009
 10
0
 20
0
  0
ENDBLK
  8
0
  5
4d0
100
AcDbEntity
100
AcDbBlockEnd
  0
BLOCK
  8
0
  5
4d1
100
AcDbEntity
100
AcDbBlockBegin
  2
KOZU0004
 70
    64
 10
0
 20
0
  0
POINT
  5
4d2
100
AcDbEntity
  8
0
  6
CONTINUOUS
 62
     7
100
AcDbPoint
 10
0
 20
0
  0
LINE
  5
4d3
100
AcDbEntity
  8
0
  6
CONTINUOUS
 62
     7
100
AcDbLine
 10
3.382835189569278e-005
 20
15.60002882784198
 11
13.50003446917397
 21
7.817316950725802
  0
LINE
  5
4d4
100
AcDbEntity
  8
0
  6
CONTINUOUS
 62
     7
100
AcDbLine
 10
-13.49994813281013
 20
7.817258844829475
 11
5.250801194289778e-005
 21
15.59997072194565
  0
LINE
  5
4d5
100
AcDbEntity
  8
0
  6
CENTER
 62
     3
100
AcDbLine
 10
0
 20
-43.59977722167969
 11
0
 21
44.07057189941406
  0
LINE
  5
4d6
100
AcDbEntity
  8
0
  6
CENTER
 62
     3
100
AcDbLine
 10
-68.34600830078125
 20
0
 11
68.03783416748047
 21
0
  0
LINE
  5
4d7
100
AcDbEntity
  8
0
  6
CONTINUOUS
 62
     7
100
AcDbLine
 10
-13.5
 20
7.817288398742676
 11
-13.5
 21
-7.817287445068359
  0
LINE
  5
4d8
100
AcDbEntity
  8
0
  6
CONTINUOUS
 62
     7
100
AcDbLine
 10
3.416649573662056e-005
 20
-15.59994143448542
 11
-13.49996647432633
 21
-7.817229557369246
  0
LINE
  5
4d9
100
AcDbEntity
  8
0
  6
CONTINUOUS
 62
     7
100
AcDbLine
 10
13.50001041195675
 20
-7.817336323651293
 11
9.771134682701188e-006
 21
-15.60004820076747
  0
LINE
  5
4da
100
AcDbEntity
  8
0
  6
CONTINUOUS
 62
     7
100
AcDbLine
 10
13.5
 20
7.817288398742676
 11
13.5
 21
-7.817287445068359
  0
LINE
  5
4db
100
AcDbEntity
  8
0
  6
DASHED
 62
     7
100
AcDbLine
 10
-27.5
 20
40.25
 11
27.5
 21
40.25
  0
LINE
  5
4dc
100
AcDbEntity
  8
0
  6
DASHED
 62
     7
100
AcDbLine
 10
27.5
 20
40
 11
27.5
 21
40.25
  0
LINE
  5
4dd
100
AcDbEntity
  8
0
  6
DASHED
 62
     7
100
AcDbLine
 10
-27.5
 20
40
 11
-27.5
 21
40.25
  0
LINE
  5
4de
100
AcDbEntity
  8
0
  6
DASHED
 62
     7
100
AcDbLine
 10
-40.00003051757813
 20
34
 11
-40.00003051757813
 21
-34
  0
LINE
  5
4df
100
AcDbEntity
  8
0
  6
DASHED
 62
     7
100
AcDbLine
 10
40
 20
34
 11
40
 21
-34
  0
LINE
  5
4e0
100
AcDbEntity
  8
0
  6
DASHED
 62
    64
100
AcDbLine
 10
-11.10003662109375
 20
39.25
 11
-11.10003662109375
 21
40.25
  0
LINE
  5
4e1
100
AcDbEntity
  8
0
  6
DASHED
 62
     7
100
AcDbLine
 10
-11.10002136230469
 20
39.25
 11
11.10000610351563
 21
39.25
  0
LINE
  5
4e2
100
AcDbEntity
  8
0
  6
DASHED
 62
     7
100
AcDbLine
 10
-7.654167100790177
 20
38.25412781885159
 11
-8.650046554884389
 21
39.2500072729458
  0
LINE
  5
4e3
100
AcDbEntity
  8
0
  6
DASHED
 62
     3
100
AcDbLine
 10
-8.178688332448537
 20
28.75000880357148
 11
-8.541571975927949
 21
39.14163721649967
  0
LINE
  5
4e4
100
AcDbEntity
  8
0
  6
DASHED
 62
     7
100
AcDbLine
 10
8.510679244995117
 20
38.25411987304688
 11
-7.654129028320313
 21
38.25411987304688
  0
LINE
  5
4e5
100
AcDbEntity
  8
0
  6
DASHED
 62
     3
100
AcDbLine
 10
8.178788196967075
 20
28.7500129502708
 11
8.541671707315478
 21
39.14163755082553
  0
LINE
  5
4e6
100
AcDbEntity
  8
0
  6
DASHED
 62
    64
100
AcDbLine
 10
11.0999755859375
 20
39.25
 11
11.0999755859375
 21
40.25
  0
LINE
  5
4e7
100
AcDbEntity
  8
0
  6
DASHED
 62
     7
100
AcDbLine
 10
7.654086178841038
 20
38.25414400324142
 11
8.649987212121687
 21
39.25004503652207
  0
LINE
  5
4e8
100
AcDbEntity
  8
0
  6
DASHED
 62
     7
100
AcDbLine
 10
7.32227561932183
 20
28.75000138784487
 11
7.654166630302229
 21
38.25411688511736
  0
LINE
  5
4e9
100
AcDbEntity
  8
0
  6
DASHED
 62
     7
100
AcDbLine
 10
-7.322206719749464
 20
28.75000951940458
 11
-7.654097797295368
 21
38.2541269228638
  0
LINE
  5
4ea
100
AcDbEntity
  8
0
  6
DASHED
 62
     7
100
AcDbLine
 10
39.5
 20
8
 11
40
 21
8
  0
LINE
  5
4eb
100
AcDbEntity
  8
0
  6
DASHED
 62
     7
100
AcDbLine
 10
39.5
 20
7.974554061889648
 11
39.5
 21
-8
  0
LINE
  5
4ec
100
AcDbEntity
  8
0
  6
DASHED
 62
     7
100
AcDbLine
 10
39.5
 20
-8
 11
40
 21
-8
  0
LINE
  5
4ed
100
AcDbEntity
  8
0
  6
DASHED
 62
     7
100
AcDbLine
 10
29
 20
5
 11
39
 21
5
  0
LINE
  5
4ee
100
AcDbEntity
  8
0
  6
DASHED
 62
     7
100
AcDbLine
 10
29
 20
5
 11
29
 21
3.600000381469727
  0
LINE
  5
4ef
100
AcDbEntity
  8
0
  6
DASHED
 62
     3
100
AcDbLine
 10
22.99996948242188
 20
4
 11
29
 21
4
  0
LINE
  5
4f0
100
AcDbEntity
  8
0
  6
DASHED
 62
     7
100
AcDbLine
 10
21.99996948242188
 20
3.600006103515625
 11
29
 21
3.600006103515625
  0
LINE
  5
4f1
100
AcDbEntity
  8
0
  6
DASHED
 62
     7
100
AcDbLine
 10
23
 20
4
 11
23
 21
1.458000183105469
  0
LINE
  5
4f2
100
AcDbEntity
  8
0
  6
DASHED
 62
     7
100
AcDbLine
 10
22
 20
3.600000381469727
 11
22
 21
1.25
  0
LINE
  5
4f3
100
AcDbEntity
  8
0
  6
DASHED
 62
     7
100
AcDbLine
 10
22
 20
-1.25
 11
22
 21
-3.600000381469727
  0
LINE
  5
4f4
100
AcDbEntity
  8
0
  6
DASHED
 62
     7
100
AcDbLine
 10
23
 20
-4
 11
23
 21
-1.458000183105469
  0
LINE
  5
4f5
100
AcDbEntity
  8
0
  6
DASHED
 62
     7
100
AcDbLine
 10
21.99996948242188
 20
-3.600006103515625
 11
29
 21
-3.600006103515625
  0
LINE
  5
4f6
100
AcDbEntity
  8
0
  6
DASHED
 62
     3
100
AcDbLine
 10
22.99996948242188
 20
-4
 11
29
 21
-4
  0
LINE
  5
4f7
100
AcDbEntity
  8
0
  6
DASHED
 62
     7
100
AcDbLine
 10
29
 20
-3.600000381469727
 11
29
 21
-5
  0
LINE
  5
4f8
100
AcDbEntity
  8
0
  6
DASHED
 62
     7
100
AcDbLine
 10
29
 20
-5
 11
39
 21
-5
  0
LINE
  5
4f9
100
AcDbEntity
  8
0
  6
DASHED
 62
     3
100
AcDbLine
 10
22.3071520601587
 20
-3.600000966578394
 11
22.9999618084784
 21
-3.999994868447155
  0
LINE
  5
4fa
100
AcDbEntity
  8
0
  6
DASHED
 62
     3
100
AcDbLine
 10
22.30710178930267
 20
3.600027003098187
 11
22.99991153762237
 21
4.00002090496695
  0
LINE
  5
4fb
100
AcDbEntity
  8
0
  6
DASHED
 62
     7
100
AcDbLine
 10
39.0000378126166
 20
4.99998950415862
 11
39.50002754130229
 21
5.499979274990288
  0
LINE
  5
4fc
100
AcDbEntity
  8
0
  6
DASHED
 62
     7
100
AcDbLine
 10
38.99998116725527
 20
-4.999916674402005
 11
39.49998168553372
 21
-5.499917234827347
  0
LINE
  5
4fd
100
AcDbEntity
  8
0
  6
CONTINUOUS
 62
     7
100
AcDbLine
 10
-65
 20
41.50000000000001
 11
-65
 21
-41.5
  0
LINE
  5
4fe
100
AcDbEntity
  8
0
  6
DASHED
 62
     7
100
AcDbLine
 10
-34
 20
-40
 11
34
 21
-40
  0
LINE
  5
4ff
100
AcDbEntity
  8
0
  6
CENTER
 62
     3
100
AcDbLine
 10
-52.5
 20
-22
 11
-52.5
 21
-37
  0
LINE
  5
500
100
AcDbEntity
  8
0
  6
CENTER
 62
     3
100
AcDbLine
 10
-60.00000381469727
 20
-29.5
 11
-45
 21
-29.5
  0
LINE
  5
501
100
AcDbEntity
  8
0
  6
CENTER
 62
     3
100
AcDbLine
 10
52.5
 20
-22
 11
52.5
 21
-37
  0
LINE
  5
502
100
AcDbEntity
  8
0
  6
CENTER
 62
     3
100
AcDbLine
 10
60
 20
-29.5
 11
45
 21
-29.5
  0
LINE
  5
503
100
AcDbEntity
  8
0
  6
CONTINUOUS
 62
     7
100
AcDbLine
 10
65
 20
41.50000000000001
 11
65
 21
-41.50000000000001
  0
LINE
  5
504
100
AcDbEntity
  8
0
  6
DASHED
 62
     7
100
AcDbLine
 10
-34
 20
40.00000762939453
 11
34
 21
40.00000762939453
  0
LINE
  5
505
100
AcDbEntity
  8
0
  6
CENTER
 62
     3
100
AcDbLine
 10
29.5
 20
36.5
 11
29.5
 21
22.5
  0
LINE
  5
506
100
AcDbEntity
  8
0
  6
CENTER
 62
     3
100
AcDbLine
 10
22.49999809265137
 20
29.5
 11
36.5
 21
29.5
  0
LINE
  5
507
100
AcDbEntity
  8
0
  6
CENTER
 62
     3
100
AcDbLine
 10
52.5
 20
37.00000762939453
 11
52.5
 21
22
  0
LINE
  5
508
100
AcDbEntity
  8
0
  6
CENTER
 62
     3
100
AcDbLine
 10
60
 20
29.5
 11
45
 21
29.5
  0
LINE
  5
509
100
AcDbEntity
  8
0
  6
CENTER
 62
     3
100
AcDbLine
 10
-60.00000381469727
 20
29.5
 11
-45
 21
29.5
  0
LINE
  5
50a
100
AcDbEntity
  8
0
  6
CENTER
 62
     3
100
AcDbLine
 10
-52.5
 20
37.00000762939453
 11
-52.5
 21
22
  0
LINE
  5
50b
100
AcDbEntity
  8
0
  6
CONTINUOUS
 62
     7
100
AcDbLine
 10
26.00000054754903
 20
29.49999950376773
 11
27.74999878950969
 21
32.53108943201707
  0
LINE
  5
50c
100
AcDbEntity
  8
0
  6
CONTINUOUS
 62
     7
100
AcDbLine
 10
27.75
 20
32.53108978271484
 11
31.25
 21
32.53108978271484
  0
LINE
  5
50d
100
AcDbEntity
  8
0
  6
CONTINUOUS
 62
     7
100
AcDbLine
 10
31.24999716027579
 20
32.53108854133782
 11
32.99999977665138
 21
29.49999232899178
  0
LINE
  5
50e
100
AcDbEntity
  8
0
  6
CONTINUOUS
 62
     7
100
AcDbLine
 10
33.0000054031478
 20
29.49999365513563
 11
31.25000497633289
 21
26.46890498831183
  0
LINE
  5
50f
100
AcDbEntity
  8
0
  6
CONTINUOUS
 62
     7
100
AcDbLine
 10
31.25
 20
26.46891021728516
 11
27.75
 21
26.46891021728516
  0
LINE
  5
510
100
AcDbEntity
  8
0
  6
CONTINUOUS
 62
     7
100
AcDbLine
 10
27.74999763434727
 20
26.46891461936919
 11
25.99999939238661
 21
29.50000454761854
  0
LINE
  5
511
100
AcDbEntity
  8
0
  6
CENTER
 62
     3
100
AcDbLine
 10
-29.49999809265137
 20
36.5
 11
-29.49999809265137
 21
22.5
  0
LINE
  5
512
100
AcDbEntity
  8
0
  6
CENTER
 62
     3
100
AcDbLine
 10
-36.5
 20
29.5
 11
-22.49999809265137
 21
29.5
  0
LINE
  5
513
100
AcDbEntity
  8
0
  6
CONTINUOUS
 62
     7
100
AcDbLine
 10
-32.99999711788843
 20
29.50000027562945
 11
-31.24999887592777
 21
32.5310902038788
  0
LINE
  5
514
100
AcDbEntity
  8
0
  6
CONTINUOUS
 62
     7
100
AcDbLine
 10
-31.24999809265137
 20
32.53108978271484
 11
-27.74999809265137
 21
32.53108978271484
  0
LINE
  5
515
100
AcDbEntity
  8
0
  6
CONTINUOUS
 62
     7
100
AcDbLine
 10
-27.74999968383517
 20
32.53109166444728
 11
-25.99999897480691
 21
29.49999875572673
  0
LINE
  5
516
100
AcDbEntity
  8
0
  6
CONTINUOUS
 62
     7
100
AcDbLine
 10
-25.99999716759233
 20
29.49999794124437
 11
-27.74999711756997
 21
26.4689101003267
  0
LINE
  5
517
100
AcDbEntity
  8
0
  6
CONTINUOUS
 62
     7
100
AcDbLine
 10
-27.74999809265137
 20
26.46891021728516
 11
-31.24999809265137
 21
26.46891021728516
  0
LINE
  5
518
100
AcDbEntity
  8
0
  6
CONTINUOUS
 62
     7
100
AcDbLine
 10
-31.24999860058015
 20
26.46891136978809
 11
-32.99999684254081
 21
29.50000129803743
  0
LINE
  5
519
100
AcDbEntity
  8
0
  6
CENTER
 62
     3
100
AcDbLine
 10
-29.49999809265137
 20
-22.5
 11
-29.49999809265137
 21
-36.5
  0
LINE
  5
51a
100
AcDbEntity
  8
0
  6
CENTER
 62
     3
100
AcDbLine
 10
-36.5
 20
-29.5
 11
-22.49999809265137
 21
-29.5
  0
LINE
  5
51b
100
AcDbEntity
  8
0
  6
CONTINUOUS
 62
     7
100
AcDbLine
 10
-32.99999601663435
 20
-29.5000017748741
 11
-31.24999777467368
 21
-26.46891184662477
  0
LINE
  5
51c
100
AcDbEntity
  8
0
  6
CONTINUOUS
 62
     7
100
AcDbLine
 10
-31.24999809265137
 20
-26.46891021728516
 11
-27.74999809265137
 21
-26.46891021728516
  0
LINE
  5
51d
100
AcDbEntity
  8
0
  6
CONTINUOUS
 62
     7
100
AcDbLine
 10
-27.75000177227116
 20
-26.46891174014718
 11
-26.0000010632429
 21
-29.50000464886772
  0
LINE
  5
51e
100
AcDbEntity
  8
0
  6
CONTINUOUS
 62
     7
100
AcDbLine
 10
-25.99999506775254
 20
-29.50000501280105
 11
-27.74999549456745
 21
-32.53109367962484
  0
LINE
  5
51f
100
AcDbEntity
  8
0
  6
CONTINUOUS
 62
     7
100
AcDbLine
 10
-27.74999809265137
 20
-32.53108978271484
 11
-31.24999809265137
 21
-32.53108978271484
  0
LINE
  5
520
100
AcDbEntity
  8
0
  6
CONTINUOUS
 62
     7
100
AcDbLine
 10
-31.25000126011117
 20
-32.53108607434649
 11
-32.99999950207183
 21
-29.49999614609715
  0
LINE
  5
521
100
AcDbEntity
  8
0
  6
CENTER
 62
     3
100
AcDbLine
 10
29.50000190734863
 20
-22.5
 11
29.50000190734863
 21
-36.5
  0
LINE
  5
522
100
AcDbEntity
  8
0
  6
CENTER
 62
     3
100
AcDbLine
 10
22.5
 20
-29.5
 11
36.5
 21
-29.5
  0
LINE
  5
523
100
AcDbEntity
  8
0
  6
CONTINUOUS
 62
     7
100
AcDbLine
 10
26.00000460335917
 20
-29.50000315133941
 11
27.75000284531983
 21
-26.46891322309006
  0
LINE
  5
524
100
AcDbEntity
  8
0
  6
CONTINUOUS
 62
     7
100
AcDbLine
 10
27.75000190734863
 20
-26.46891021728516
 11
31.25000190734863
 21
-26.46891021728516
  0
LINE
  5
525
100
AcDbEntity
  8
0
  6
CONTINUOUS
 62
     7
100
AcDbLine
 10
31.24999878841848
 20
-26.4689127174909
 11
33.00000140479406
 21
-29.50000892983694
  0
LINE
  5
526
100
AcDbEntity
  8
0
  6
CONTINUOUS
 62
     7
100
AcDbLine
 10
33.00000810759329
 20
-29.50000634435416
 11
31.25000768077838
 21
-32.53109501117795
  0
LINE
  5
527
100
AcDbEntity
  8
0
  6
CONTINUOUS
 62
     7
100
AcDbLine
 10
31.25000190734863
 20
-32.53108978271484
 11
27.75000190734863
 21
-32.53108978271484
  0
LINE
  5
528
100
AcDbEntity
  8
0
  6
CONTINUOUS
 62
     7
100
AcDbLine
 10
27.74999935988236
 20
-32.53108469788118
 11
26.0000011179217
 21
-29.49999476963185
  0
LINE
  5
529
100
AcDbEntity
  8
0
  6
DASHED
 62
     1
100
AcDbLine
 10
20.60576629638673
 20
-0.959998397112061
 11
20.60576629638673
 21
0.9599988181589351
  0
LINE
  5
52a
100
AcDbEntity
  8
0
  6
DASHED
 62
     1
100
AcDbLine
 10
25.60575776892858
 20
-2.000000129174974
 11
20.60575572581466
 21
-0.9599965288354517
  0
LINE
  5
52b
100
AcDbEntity
  8
0
  6
DASHED
 62
     1
100
AcDbLine
 10
25.60575888854179
 20
1.999998475370052
 11
20.60575620010993
 21
0.9599979775159877
  0
LINE
  5
52c
100
AcDbEntity
  8
0
  6
DASHED
 62
     1
100
AcDbLine
 10
25.60576629638668
 20
-3.500001021292734
 11
25.60576629638668
 21
3.499998978707266
  0
LINE
  5
52d
100
AcDbEntity
  8
0
  6
DASHED
 62
     1
100
AcDbLine
 10
26.10576629638667
 20
3.999998903209365
 11
26.10576629638667
 21
-4.000001096790635
  0
LINE
  5
52e
100
AcDbEntity
  8
0
  6
DASHED
 62
     1
100
AcDbLine
 10
25.60576435699444
 20
-3.500002816005027
 11
26.105764757628
 21
-4.000003494075227
  0
LINE
  5
52f
100
AcDbEntity
  8
0
  6
DASHED
 62
     1
100
AcDbLine
 10
29.60576569240344
 20
-4.000000476837113
 11
26.10576569240344
 21
-4.000000476837113
  0
LINE
  5
530
100
AcDbEntity
  8
0
  6
DASHED
 62
     1
100
AcDbLine
 10
31.10576575370775
 20
-3.594000339508016
 11
25.69975989433275
 21
-3.594000339508016
  0
LINE
  5
531
100
AcDbEntity
  8
0
  6
DASHED
 62
     1
100
AcDbLine
 10
29.60576629638663
 20
-4.000001625275944
 11
29.60576629638663
 21
3.999997897886898
  0
LINE
  5
532
100
AcDbEntity
  8
0
  6
DASHED
 62
     1
100
AcDbLine
 10
31.10576629638662
 20
-4.900003377648554
 11
31.10576629638662
 21
4.899997289923467
  0
LINE
  5
533
100
AcDbEntity
  8
0
  6
DASHED
 62
     1
100
AcDbLine
 10
31.80576250474946
 20
-4.900000095367377
 11
31.10576555650727
 21
-4.900000095367377
  0
LINE
  5
534
100
AcDbEntity
  8
0
  6
DASHED
 62
     1
100
AcDbLine
 10
31.80576324462879
 20
-5.000002911140565
 11
31.80576324462879
 21
4.999997088859435
  0
LINE
  5
535
100
AcDbEntity
  8
0
  6
DASHED
 62
     1
100
AcDbLine
 10
33.40576096377092
 20
-5.000000476837101
 11
31.80576248964982
 21
-5.000000476837101
  0
LINE
  5
536
100
AcDbEntity
  8
0
  6
DASHED
 62
     1
100
AcDbLine
 10
33.40576171874987
 20
-5.000004106407936
 11
33.40576171874987
 21
4.999996370429223
  0
LINE
  5
537
100
AcDbEntity
  8
0
  6
DASHED
 62
     1
100
AcDbLine
 10
33.40576114496599
 20
-3.799999713897662
 11
31.8057626708449
 21
-3.799999713897662
  0
LINE
  5
538
100
AcDbEntity
  8
0
  6
DASHED
 62
     1
100
AcDbLine
 10
33.40576229253404
 20
3.799999952316241
 11
31.80576381841295
 21
3.799999952316241
  0
LINE
  5
539
100
AcDbEntity
  8
0
  6
DASHED
 62
     1
100
AcDbLine
 10
33.40576247372901
 20
4.999999999999943
 11
31.80576399960792
 21
4.999999999999943
  0
LINE
  5
53a
100
AcDbEntity
  8
0
  6
DASHED
 62
     1
100
AcDbLine
 10
31.80576398450835
 20
4.900000095367377
 11
31.10576703626617
 21
4.900000095367377
  0
LINE
  5
53b
100
AcDbEntity
  8
0
  6
DASHED
 62
     1
100
AcDbLine
 10
34.10576703626617
 20
4.900000095367377
 11
33.40576245862945
 21
4.900000095367377
  0
LINE
  5
53c
100
AcDbEntity
  8
0
  6
DASHED
 62
     1
100
AcDbLine
 10
31.10576683906565
 20
3.594000101089437
 11
25.69976097969065
 21
3.594000101089437
  0
LINE
  5
53d
100
AcDbEntity
  8
0
  6
DASHED
 62
     1
100
AcDbLine
 10
29.60576690036993
 20
3.999999999999955
 11
26.10576690036993
 21
3.999999999999955
  0
LINE
  5
53e
100
AcDbEntity
  8
0
  6
DASHED
 62
     1
100
AcDbLine
 10
26.1057707439936
 20
3.999997449022244
 11
25.6057700659234
 21
3.499997048388691
  0
LINE
  5
53f
100
AcDbEntity
  8
0
  6
DASHED
 62
     1
100
AcDbLine
 10
34.10576555650727
 20
-4.900000095367377
 11
33.40576097887055
 21
-4.900000095367377
  0
LINE
  5
540
100
AcDbEntity
  8
0
  6
DASHED
 62
     1
100
AcDbLine
 10
34.10576629638658
 20
-4.900003830635962
 11
34.10576629638658
 21
4.899996360098902
  0
LINE
  5
541
100
AcDbEntity
  8
0
  6
DASHED
 62
     7
100
AcDbLine
 10
36.10575866699203
 20
5.000005499484181
 11
36.10575866699203
 21
-5.00000212991035
  0
LINE
  5
542
100
AcDbEntity
  8
0
  6
DASHED
 62
     7
100
AcDbLine
 10
36.60575866699202
 20
4.999997794591748
 11
36.60575866699202
 21
-5.000002205408252
  0
LINE
  5
543
100
AcDbEntity
  8
0
  6
DASHED
 62
     7
100
AcDbLine
 10
36.60575791201318
 20
-4.999999999999943
 11
36.10575791201318
 21
-4.999999999999943
  0
LINE
  5
544
100
AcDbEntity
  8
0
  6
DASHED
 62
     7
100
AcDbLine
 10
36.6057594219712
 20
4.999999999999943
 11
36.1057594219712
 21
4.999999999999943
  0
LINE
  5
545
100
AcDbEntity
  8
0
  6
CONTINUOUS
 62
     7
100
AcDbLine
 10
-64.5
 20
-42
 11
64.5
 21
-42
  0
LINE
  5
546
100
AcDbEntity
  8
0
  6
CONTINUOUS
 62
     7
100
AcDbLine
 10
-64.5
 20
42
 11
64.5
 21
42
  0
LINE
  5
547
100
AcDbEntity
  8
0
  6
CONTINUOUS
 62
     7
100
AcDbLine
 10
-64.99999999999999
 20
-41.5
 11
-64.5
 21
-41.99999999999999
  0
LINE
  5
548
100
AcDbEntity
  8
0
  6
CONTINUOUS
 62
     7
100
AcDbLine
 10
64.5
 20
-42
 11
65
 21
-41.50000000000001
  0
LINE
  5
549
100
AcDbEntity
  8
0
  6
CONTINUOUS
 62
     7
100
AcDbLine
 10
64.5
 20
42
 11
65
 21
41.50000000000001
  0
LINE
  5
54a
100
AcDbEntity
  8
0
  6
CONTINUOUS
 62
     7
100
AcDbLine
 10
-64.5
 20
42
 11
-65
 21
41.50000000000001
  0
CIRCLE
  5
54b
100
AcDbEntity
  8
0
  6
CONTINUOUS
 62
     7
100
AcDbCircle
 10
0
 20
0
 40
8.187999725341797
  0
CIRCLE
  5
54c
100
AcDbEntity
  8
0
  6
CONTINUOUS
 62
     7
100
AcDbCircle
 10
0
 20
0
 40
9
  0
CIRCLE
  5
54d
100
AcDbEntity
  8
0
  6
CONTINUOUS
 62
     7
100
AcDbCircle
 10
0
 20
0
 40
13.5
  0
CIRCLE
  5
54e
100
AcDbEntity
  8
0
  6
CONTINUOUS
 62
     7
100
AcDbCircle
 10
0
 20
0
 40
19.75
  0
ARC
  5
54f
100
AcDbEntity
  8
0
  6
DASHED
 62
     7
100
AcDbCircle
 10
-34
 20
34
 40
6
100
AcDbArc
 50
90.00006397618067
 51
180.0000733108487
  0
ARC
  5
550
100
AcDbEntity
  8
0
  6
DASHED
 62
     7
100
AcDbCircle
 10
-34
 20
-34
 40
6
100
AcDbArc
 50
180.0000359721794
 51
270.0000384766576
  0
ARC
  5
551
100
AcDbEntity
  8
0
  6
DASHED
 62
     7
100
AcDbCircle
 10
34
 20
-34
 40
6
100
AcDbArc
 50
270.0000453068468
 51
5.46415133601103e-005
  0
ARC
  5
552
100
AcDbEntity
  8
0
  6
DASHED
 62
     7
100
AcDbCircle
 10
34
 20
34
 40
6
100
AcDbArc
 50
5.46415133601103e-005
 51
90.00005714599151
  0
CIRCLE
  5
553
100
AcDbEntity
  8
0
  6
CONTINUOUS
 62
     7
100
AcDbCircle
 10
0
 20
0
 40
20
  0
CIRCLE
  5
554
100
AcDbEntity
  8
0
  6
CONTINUOUS
 62
     7
100
AcDbCircle
 10
-52.5
 20
-29.5
 40
5.75
  0
CIRCLE
  5
555
100
AcDbEntity
  8
0
  6
CONTINUOUS
 62
     7
100
AcDbCircle
 10
52.5
 20
-29.5
 40
5.75
  0
CIRCLE
  5
556
100
AcDbEntity
  8
0
  6
CONTINUOUS
 62
     7
100
AcDbCircle
 10
-52.5
 20
29.5
 40
5.75
  0
CIRCLE
  5
557
100
AcDbEntity
  8
0
  6
CONTINUOUS
 62
     7
100
AcDbCircle
 10
52.5
 20
29.5
 40
5.75
  0
CIRCLE
  5
558
100
AcDbEntity
  8
0
  6
CONTINUOUS
 62
     7
100
AcDbCircle
 10
29.5
 20
29.5
 40
7
  0
CIRCLE
  5
559
100
AcDbEntity
  8
0
  6
CONTINUOUS
 62
     7
100
AcDbCircle
 10
29.5
 20
29.5
 40
6.5
  0
CIRCLE
  5
55a
100
AcDbEntity
  8
0
  6
CONTINUOUS
 62
     7
100
AcDbCircle
 10
29.5
 20
29.5
 40
6
  0
CIRCLE
  5
55b
100
AcDbEntity
  8
0
  6
CONTINUOUS
 62
     7
100
AcDbCircle
 10
-29.49999809265137
 20
29.5
 40
7
  0
CIRCLE
  5
55c
100
AcDbEntity
  8
0
  6
CONTINUOUS
 62
     7
100
AcDbCircle
 10
-29.49999809265137
 20
29.5
 40
6.5
  0
CIRCLE
  5
55d
100
AcDbEntity
  8
0
  6
CONTINUOUS
 62
     7
100
AcDbCircle
 10
-29.49999809265137
 20
29.5
 40
6
  0
CIRCLE
  5
55e
100
AcDbEntity
  8
0
  6
CONTINUOUS
 62
     7
100
AcDbCircle
 10
-29.49999809265137
 20
-29.5
 40
7
  0
CIRCLE
  5
55f
100
AcDbEntity
  8
0
  6
CONTINUOUS
 62
     7
100
AcDbCircle
 10
-29.49999809265137
 20
-29.5
 40
6.5
  0
CIRCLE
  5
560
100
AcDbEntity
  8
0
  6
CONTINUOUS
 62
     7
100
AcDbCircle
 10
-29.49999809265137
 20
-29.5
 40
6
  0
CIRCLE
  5
561
100
AcDbEntity
  8
0
  6
CONTINUOUS
 62
     7
100
AcDbCircle
 10
29.50000190734863
 20
-29.5
 40
7
  0
CIRCLE
  5
562
100
AcDbEntity
  8
0
  6
CONTINUOUS
 62
     7
100
AcDbCircle
 10
29.50000190734863
 20
-29.5
 40
6.5
  0
CIRCLE
  5
563
100
AcDbEntity
  8
0
  6
CONTINUOUS
 62
     7
100
AcDbCircle
 10
29.50000190734863
 20
-29.5
 40
6
  0
MTEXT
  5
564
100
AcDbEntity
  8
0
  6
CONTINUOUS
 62
     7
100
AcDbMText
 10
4.896437302231789
 20
-30.34999847412109
 40
0.5
 41
36
 71
     7
 72
     1
  1
{\W0.842599;ＢＮ－６１０５－ＦＡＣ－６３－Ｂ－＊}
  0
INSERT
  5
565
100
AcDbEntity
  8
0
  6
CONTINUOUS
 62
     3
100
AcDbBlockReference
  2
KOZU0010
 10
0
 20
0
  0
ENDBLK
  8
0
  5
566
100
AcDbEntity
100
AcDbBlockEnd
  0
BLOCK
  8
0
  5
567
100
AcDbEntity
100
AcDbBlockBegin
  2
KOZU0005
 70
    64
 10
0
 20
0
  0
POINT
  5
568
100
AcDbEntity
  8
0
  6
CONTINUOUS
 62
     7
100
AcDbPoint
 10
0
 20
0
  0
LINE
  5
569
100
AcDbEntity
  8
0
  6
CONTINUOUS
 62
     7
100
AcDbLine
 10
0
 20
-42
 11
0
 21
42
  0
LINE
  5
56a
100
AcDbEntity
  8
0
  6
CONTINUOUS
 62
     7
100
AcDbLine
 10
29.5
 20
-40
 11
0.5
 21
-40
  0
LINE
  5
56b
100
AcDbEntity
  8
0
  6
CONTINUOUS
 62
     7
100
AcDbLine
 10
30
 20
-39.5
 11
30
 21
40.25
  0
LINE
  5
56c
100
AcDbEntity
  8
0
  6
CONTINUOUS
 62
     7
100
AcDbLine
 10
-58
 20
7.799999237060547
 11
-58
 21
-8.1875
  0
LINE
  5
56d
100
AcDbEntity
  8
0
  6
CENTER
 62
     3
100
AcDbLine
 10
206.8410034179688
 20
0
 11
-63.18402099609375
 21
0
  0
LINE
  5
56e
100
AcDbEntity
  8
0
  6
CONTINUOUS
 62
     7
100
AcDbLine
 10
-56.8000551759427
 20
9.000039683170513
 11
-58.00005210397387
 21
7.800042653987163
  0
LINE
  5
56f
100
AcDbEntity
  8
0
  6
CONTINUOUS
 62
     7
100
AcDbLine
 10
-57.61251831054688
 20
8.1875
 11
-43.52713012695313
 21
8.1875
  0
LINE
  5
570
100
AcDbEntity
  8
0
  6
CONTINUOUS
 62
     7
100
AcDbLine
 10
-56.80001831054688
 20
9
 11
-43.52713012695313
 21
9
  0
LINE
  5
571
100
AcDbEntity
  8
0
  6
CONTINUOUS
 62
     7
100
AcDbLine
 10
-56.80001831054688
 20
9
 11
-56.80001831054688
 21
-9
  0
LINE
  5
572
100
AcDbEntity
  8
0
  6
CONTINUOUS
 62
     7
100
AcDbLine
 10
-57.61251831054688
 20
-8.1875
 11
-43.52713012695313
 21
-8.1875
  0
LINE
  5
573
100
AcDbEntity
  8
0
  6
CONTINUOUS
 62
     7
100
AcDbLine
 10
-56.80001831054688
 20
-9
 11
-43.52713012695313
 21
-9
  0
LINE
  5
574
100
AcDbEntity
  8
0
  6
CONTINUOUS
 62
     7
100
AcDbLine
 10
-56.80004168895061
 20
-9.000026196179562
 11
-58.00001703779626
 21
-7.800050746183558
  0
LINE
  5
575
100
AcDbEntity
  8
0
  6
CONTINUOUS
 62
     7
100
AcDbLine
 10
-42.52708278104487
 20
-15.59997474990664
 11
-43.52708280288157
 21
-11.70861888247429
  0
LINE
  5
576
100
AcDbEntity
  8
0
  6
CONTINUOUS
 62
     7
100
AcDbLine
 10
-33.52713012695313
 20
-15.60000610351563
 11
-42.52713012695313
 21
-15.60000610351563
  0
LINE
  5
577
100
AcDbEntity
  8
0
  6
CONTINUOUS
 62
     7
100
AcDbLine
 10
-32.52710021464068
 20
-11.70864477737069
 11
-33.52710213537986
 21
-15.60000803410817
  0
LINE
  5
578
100
AcDbEntity
  8
0
  6
CONTINUOUS
 62
     7
100
AcDbLine
 10
-33.52713012695313
 20
-7.817291259765625
 11
-42.52713012695313
 21
-7.817291259765625
  0
LINE
  5
579
100
AcDbEntity
  8
0
  6
CONTINUOUS
 62
     7
100
AcDbLine
 10
-43.52713012695313
 20
11.70872497558594
 11
-43.52713012695313
 21
-11.70864486694336
  0
LINE
  5
57a
100
AcDbEntity
  8
0
  6
CONTINUOUS
 62
     7
100
AcDbLine
 10
-42.52713250412592
 20
15.6000111595906
 11
-43.52713252596262
 21
11.70865529215825
  0
LINE
  5
57b
100
AcDbEntity
  8
0
  6
CONTINUOUS
 62
     7
100
AcDbLine
 10
-33.52713012695313
 20
15.60000610351563
 11
-42.52713012695313
 21
15.60000610351563
  0
LINE
  5
57c
100
AcDbEntity
  8
0
  6
CONTINUOUS
 62
     7
100
AcDbLine
 10
-33.52710572688003
 20
15.59999135659543
 11
-32.52710570504333
 21
11.70863548916308
  0
LINE
  5
57d
100
AcDbEntity
  8
0
  6
CONTINUOUS
 62
     7
100
AcDbLine
 10
-32.52713012695313
 20
11.70869827270508
 11
-32.52713012695313
 21
-11.70864486694336
  0
LINE
  5
57e
100
AcDbEntity
  8
0
  6
CONTINUOUS
 62
     7
100
AcDbLine
 10
-33.52713012695313
 20
7.817291259765625
 11
-42.52713012695313
 21
7.817291259765625
  0
LINE
  5
57f
100
AcDbEntity
  8
0
  6
CONTINUOUS
 62
     7
100
AcDbLine
 10
-32.52713012695313
 20
9
 11
-23
 21
9
  0
LINE
  5
580
100
AcDbEntity
  8
0
  6
CONTINUOUS
 62
     7
100
AcDbLine
 10
-32.52713012695313
 20
8.1875
 11
-26
 21
8.1875
  0
LINE
  5
581
100
AcDbEntity
  8
0
  6
CONTINUOUS
 62
     7
100
AcDbLine
 10
-26
 20
-9
 11
-26
 21
9
  0
LINE
  5
582
100
AcDbEntity
  8
0
  6
CONTINUOUS
 62
     7
100
AcDbLine
 10
-26.00006779167552
 20
8.187481618194108
 11
-23.56255274151434
 21
8.999986609390138
  0
LINE
  5
583
100
AcDbEntity
  8
0
  6
CONTINUOUS
 62
     7
100
AcDbLine
 10
-23
 20
9
 11
-23
 21
2.5
  0
LINE
  5
584
100
AcDbEntity
  8
0
  6
CONTINUOUS
 62
     7
100
AcDbLine
 10
-21.26794140138807
 20
9.999996576574624
 11
-22.99999220118514
 21
8.99999656311345
  0
LINE
  5
585
100
AcDbEntity
  8
0
  6
CONTINUOUS
 62
     7
100
AcDbLine
 10
-21.2679443359375
 20
5.25
 11
-21.2679443359375
 21
10
  0
LINE
  5
586
100
AcDbEntity
  8
0
  6
CONTINUOUS
 62
     7
100
AcDbLine
 10
-21.2679443359375
 20
10
 11
-15
 21
10
  0
LINE
  5
587
100
AcDbEntity
  8
0
  6
CONTINUOUS
 62
     7
100
AcDbLine
 10
-23
 20
5.25
 11
-15
 21
5.25
  0
LINE
  5
588
100
AcDbEntity
  8
0
  6
CONTINUOUS
 62
     7
100
AcDbLine
 10
-26.00003830251188
 20
-2.499999784310294
 11
-15.00002498204836
 21
5.250009946896285
  0
LINE
  5
589
100
AcDbEntity
  8
0
  6
CONTINUOUS
 62
     7
100
AcDbLine
 10
-26
 20
2.5
 11
-23
 21
2.5
  0
LINE
  5
58a
100
AcDbEntity
  8
0
  6
CONTINUOUS
 62
     7
100
AcDbLine
 10
-25.99994313669295
 20
2.499975899831545
 11
-14.99995476381308
 21
-5.250016254667585
  0
LINE
  5
58b
100
AcDbEntity
  8
0
  6
CONTINUOUS
 62
     7
100
AcDbLine
 10
-26
 20
-2.5
 11
-23
 21
-2.5
  0
LINE
  5
58c
100
AcDbEntity
  8
0
  6
CONTINUOUS
 62
     7
100
AcDbLine
 10
-23
 20
-9
 11
-23
 21
-2.5
  0
LINE
  5
58d
100
AcDbEntity
  8
0
  6
CONTINUOUS
 62
     7
100
AcDbLine
 10
-26.00007683902422
 20
-8.187508760241066
 11
-23.5625907403798
 21
-9.000004100931816
  0
LINE
  5
58e
100
AcDbEntity
  8
0
  6
CONTINUOUS
 62
     7
100
AcDbLine
 10
-32.52713012695313
 20
-8.1875
 11
-26
 21
-8.1875
  0
LINE
  5
58f
100
AcDbEntity
  8
0
  6
CONTINUOUS
 62
     7
100
AcDbLine
 10
-32.52713012695313
 20
-9
 11
-23
 21
-9
  0
LINE
  5
590
100
AcDbEntity
  8
0
  6
CONTINUOUS
 62
     7
100
AcDbLine
 10
-21.26793854036508
 20
-9.999991621137536
 11
-22.99998934016215
 21
-8.999991607676362
  0
LINE
  5
591
100
AcDbEntity
  8
0
  6
CONTINUOUS
 62
     7
100
AcDbLine
 10
-21.2679443359375
 20
-5.25
 11
-21.2679443359375
 21
-10
  0
LINE
  5
592
100
AcDbEntity
  8
0
  6
CONTINUOUS
 62
     7
100
AcDbLine
 10
-23
 20
-5.25
 11
-15
 21
-5.25
  0
LINE
  5
593
100
AcDbEntity
  8
0
  6
CONTINUOUS
 62
     7
100
AcDbLine
 10
-21.2679443359375
 20
-10
 11
-15
 21
-10
  0
LINE
  5
594
100
AcDbEntity
  8
0
  6
CONTINUOUS
 62
     7
100
AcDbLine
 10
29.5
 20
40
 11
0.5
 21
40
  0
LINE
  5
595
100
AcDbEntity
  8
0
  6
CONTINUOUS
 62
     7
100
AcDbLine
 10
1
 20
40
 11
1
 21
40.25
  0
LINE
  5
596
100
AcDbEntity
  8
0
  6
CONTINUOUS
 62
     7
100
AcDbLine
 10
30
 20
40.25
 11
1
 21
40.25
  0
LINE
  5
597
100
AcDbEntity
  8
0
  6
DASHED
 62
     7
100
AcDbLine
 10
3.89996337890625
 20
40.25
 11
3.89996337890625
 21
39.25
  0
LINE
  5
598
100
AcDbEntity
  8
0
  6
DASHED
 62
     7
100
AcDbLine
 10
26.0999755859375
 20
39.25
 11
3.89996337890625
 21
39.25
  0
LINE
  5
599
100
AcDbEntity
  8
0
  6
DASHED
 62
     7
100
AcDbLine
 10
6.873570413566134
 20
27.24999598158204
 11
6.370663234482684
 21
39.22927044762572
  0
LINE
  5
59a
100
AcDbEntity
  8
0
  6
DASHED
 62
     7
100
AcDbLine
 10
7.549931538101763
 20
38.04999680734701
 11
6.349956138680938
 21
39.24997220676784
  0
LINE
  5
59b
100
AcDbEntity
  8
0
  6
DASHED
 62
     7
100
AcDbLine
 10
22.44998168945313
 20
38.04998779296875
 11
7.54998779296875
 21
38.04998779296875
  0
LINE
  5
59c
100
AcDbEntity
  8
0
  6
DASHED
 62
     7
100
AcDbLine
 10
7.730163336346181
 20
27.2499846308173
 11
7.345891131315442
 21
38.25410133833311
  0
LINE
  5
59d
100
AcDbEntity
  8
0
  6
CENTER
 62
     3
100
AcDbLine
 10
15
 20
42.942626953125
 11
15
 21
27.17854309082031
  0
LINE
  5
59e
100
AcDbEntity
  8
0
  6
DASHED
 62
     7
100
AcDbLine
 10
23.64990561198999
 20
39.24992702534624
 11
22.44990863338273
 21
38.04993004673898
  0
LINE
  5
59f
100
AcDbEntity
  8
0
  6
DASHED
 62
     7
100
AcDbLine
 10
26.0999755859375
 20
40.25
 11
26.0999755859375
 21
39.25
  0
LINE
  5
5a0
100
AcDbEntity
  8
0
  6
DASHED
 62
     7
100
AcDbLine
 10
23.12638113037222
 20
27.24999643596319
 11
23.62928870946953
 21
39.22928043035715
  0
LINE
  5
5a1
100
AcDbEntity
  8
0
  6
DASHED
 62
     7
100
AcDbLine
 10
22.26977575266215
 20
27.24999134942454
 11
22.65404782456188
 21
38.2541042445669
  0
LINE
  5
5a2
100
AcDbEntity
  8
0
  6
CONTINUOUS
 62
     7
100
AcDbLine
 10
30.30001752871992
 20
33.9999588854913
 11
30.00000211232297
 21
33.69994344380496
  0
LINE
  5
5a3
100
AcDbEntity
  8
0
  6
CONTINUOUS
 62
     7
100
AcDbLine
 10
167.699951171875
 20
34
 11
30.29998779296875
 21
34
  0
LINE
  5
5a4
100
AcDbEntity
  8
0
  6
CONTINUOUS
 62
     7
100
AcDbLine
 10
168
 20
33.08999633789063
 11
30
 21
33.08999633789063
  0
LINE
  5
5a5
100
AcDbEntity
  8
0
  6
CENTER
 62
     3
100
AcDbLine
 10
168
 20
29.5
 11
30
 21
29.5
  0
LINE
  5
5a6
100
AcDbEntity
  8
0
  6
CONTINUOUS
 62
     7
100
AcDbLine
 10
168
 20
25.91000366210938
 11
30
 21
25.91000366210938
  0
LINE
  5
5a7
100
AcDbEntity
  8
0
  6
CONTINUOUS
 62
     7
100
AcDbLine
 10
167.699951171875
 20
-34
 11
30.29998779296875
 21
-34
  0
LINE
  5
5a8
100
AcDbEntity
  8
0
  6
CONTINUOUS
 62
     7
100
AcDbLine
 10
168
 20
-33.08999633789063
 11
30
 21
-33.08999633789063
  0
LINE
  5
5a9
100
AcDbEntity
  8
0
  6
CONTINUOUS
 62
     7
100
AcDbLine
 10
168
 20
-25.91000366210938
 11
30
 21
-25.91000366210938
  0
LINE
  5
5aa
100
AcDbEntity
  8
0
  6
CENTER
 62
     3
100
AcDbLine
 10
168
 20
-29.5
 11
30
 21
-29.5
  0
LINE
  5
5ab
100
AcDbEntity
  8
0
  6
CONTINUOUS
 62
     7
100
AcDbLine
 10
168.0000395371728
 20
33.70008227552539
 11
167.7000240954865
 21
34.00009769192232
  0
LINE
  5
5ac
100
AcDbEntity
  8
0
  6
CONTINUOUS
 62
     7
100
AcDbLine
 10
168
 20
-39.5
 11
168
 21
40.25
  0
LINE
  5
5ad
100
AcDbEntity
  8
0
  6
CONTINUOUS
 62
     7
100
AcDbLine
 10
197
 20
40.25
 11
168
 21
40.25
  0
LINE
  5
5ae
100
AcDbEntity
  8
0
  6
CONTINUOUS
 62
     7
100
AcDbLine
 10
168.5
 20
40
 11
197.5
 21
40
  0
LINE
  5
5af
100
AcDbEntity
  8
0
  6
DASHED
 62
     7
100
AcDbLine
 10
171.73828125
 20
40.25
 11
171.73828125
 21
39.25
  0
LINE
  5
5b0
100
AcDbEntity
  8
0
  6
DASHED
 62
     7
100
AcDbLine
 10
171.73828125
 20
39.25
 11
193.9382934570313
 21
39.25
  0
LINE
  5
5b1
100
AcDbEntity
  8
0
  6
DASHED
 62
     7
100
AcDbLine
 10
174.3498999898669
 20
39.24986431083566
 11
175.5498753892877
 21
38.04988891141484
  0
LINE
  5
5b2
100
AcDbEntity
  8
0
  6
DASHED
 62
     7
100
AcDbLine
 10
174.8737479324362
 20
27.25001089907048
 11
174.4584830283409
 21
39.1416424284287
  0
LINE
  5
5b3
100
AcDbEntity
  8
0
  6
DASHED
 62
     7
100
AcDbLine
 10
174.4964599609375
 20
38.04998779296875
 11
190.449951171875
 21
38.04998779296875
  0
LINE
  5
5b4
100
AcDbEntity
  8
0
  6
DASHED
 62
     7
100
AcDbLine
 10
175.7301963865641
 20
27.25000473144706
 11
175.3459241149678
 21
38.2541233451496
  0
LINE
  5
5b5
100
AcDbEntity
  8
0
  6
CENTER
 62
     3
100
AcDbLine
 10
183
 20
43.34579849243164
 11
183
 21
27.17854309082031
  0
LINE
  5
5b6
100
AcDbEntity
  8
0
  6
DASHED
 62
     7
100
AcDbLine
 10
191.6499337568729
 20
39.25003694432715
 11
190.4499151990792
 21
38.05001838653345
  0
LINE
  5
5b7
100
AcDbEntity
  8
0
  6
DASHED
 62
     7
100
AcDbLine
 10
191.1264452826626
 20
27.24997848446294
 11
191.5417101867578
 21
39.14161001382117
  0
LINE
  5
5b8
100
AcDbEntity
  8
0
  6
DASHED
 62
     7
100
AcDbLine
 10
193.9382934570313
 20
40.25
 11
193.9382934570313
 21
39.25
  0
LINE
  5
5b9
100
AcDbEntity
  8
0
  6
CONTINUOUS
 62
     7
100
AcDbLine
 10
197
 20
40
 11
197
 21
40.25
  0
LINE
  5
5ba
100
AcDbEntity
  8
0
  6
CONTINUOUS
 62
     7
100
AcDbLine
 10
198
 20
39.5
 11
198
 21
-39.5
  0
LINE
  5
5bb
100
AcDbEntity
  8
0
  6
DASHED
 62
     7
100
AcDbLine
 10
190.2698143671329
 20
27.24999395662175
 11
190.6540865055981
 21
38.25410875795083
  0
LINE
  5
5bc
100
AcDbEntity
  8
0
  6
CONTINUOUS
 62
     7
100
AcDbLine
 10
200
 20
20
 11
198
 21
20
  0
LINE
  5
5bd
100
AcDbEntity
  8
0
  6
CONTINUOUS
 62
     7
100
AcDbLine
 10
201.0000900007293
 20
19.00009008028454
 11
200.0000850866657
 21
20.00008732361371
  0
LINE
  5
5be
100
AcDbEntity
  8
0
  6
CONTINUOUS
 62
     7
100
AcDbLine
 10
200
 20
20
 11
200
 21
-20
  0
LINE
  5
5bf
100
AcDbEntity
  8
0
  6
CONTINUOUS
 62
     7
100
AcDbLine
 10
201
 20
19
 11
201
 21
-19
  0
LINE
  5
5c0
100
AcDbEntity
  8
0
  6
CONTINUOUS
 62
     7
100
AcDbLine
 10
200.9999686588178
 20
-18.99998812659236
 11
199.999967580114
 21
-19.99998920529615
  0
LINE
  5
5c1
100
AcDbEntity
  8
0
  6
CONTINUOUS
 62
     7
100
AcDbLine
 10
200
 20
-20
 11
198
 21
-20
  0
LINE
  5
5c2
100
AcDbEntity
  8
0
  6
CONTINUOUS
 62
     7
100
AcDbLine
 10
168.5
 20
-40
 11
197.5
 21
-40
  0
LINE
  5
5c3
100
AcDbEntity
  8
0
  6
CONTINUOUS
 62
     7
100
AcDbLine
 10
30.30001736013251
 20
-33.99995905407869
 11
30.00000194373557
 21
-33.69994361239235
  0
LINE
  5
5c4
100
AcDbEntity
  8
0
  6
CONTINUOUS
 62
     7
100
AcDbLine
 10
168.0000557215624
 20
-33.70008767032267
 11
167.7000348850793
 21
-34.00010848151599
  0
LINE
  5
5c5
100
AcDbEntity
  8
0
  6
CENTER
 62
     3
100
AcDbLine
 10
15
 20
7.566227912902832
 11
15
 21
-7.431425094604492
  0
LINE
  5
5c6
100
AcDbEntity
  8
0
  6
CENTER
 62
     3
100
AcDbLine
 10
183
 20
7.566227912902832
 11
183
 21
-8.008256912231445
  0
LINE
  5
5c7
100
AcDbEntity
  8
0
  6
CONTINUOUS
 62
     7
100
AcDbLine
 10
-15
 20
-42
 11
-15
 21
42
  0
LINE
  5
5c8
100
AcDbEntity
  8
0
  6
CENTER
 62
     3
100
AcDbLine
 10
2.752765655517578
 20
-29.5
 11
-18.06217193603516
 21
-29.5
  0
LINE
  5
5c9
100
AcDbEntity
  8
0
  6
CENTER
 62
     3
100
AcDbLine
 10
3.022234439849854
 20
29.5
 11
-17.9963493347168
 21
29.5
  0
LINE
  5
5ca
100
AcDbEntity
  8
0
  6
DASHED
 62
     7
100
AcDbLine
 10
0
 20
-35.25
 11
-15
 21
-35.25
  0
LINE
  5
5cb
100
AcDbEntity
  8
0
  6
DASHED
 62
     7
100
AcDbLine
 10
0
 20
-23.75
 11
-15
 21
-23.75
  0
LINE
  5
5cc
100
AcDbEntity
  8
0
  6
DASHED
 62
     7
100
AcDbLine
 10
0
 20
23.75
 11
-15
 21
23.75
  0
LINE
  5
5cd
100
AcDbEntity
  8
0
  6
DASHED
 62
     7
100
AcDbLine
 10
0
 20
35.25
 11
-15
 21
35.25
  0
LINE
  5
5ce
100
AcDbEntity
  8
0
  6
CONTINUOUS
 62
     7
100
AcDbLine
 10
0
 20
42
 11
-15
 21
42
  0
LINE
  5
5cf
100
AcDbEntity
  8
0
  6
CONTINUOUS
 62
     7
100
AcDbLine
 10
0
 20
-42
 11
-15
 21
-42
  0
LINE
  5
5d0
100
AcDbEntity
  8
0
  6
CONTINUOUS
 62
     7
100
AcDbLine
 10
16.14999389648438
 20
1.991859436035156
 11
13.85000610351563
 21
1.991859436035156
  0
LINE
  5
5d1
100
AcDbEntity
  8
0
  6
CONTINUOUS
 62
     7
100
AcDbLine
 10
13.85000650805525
 20
1.991872702371094
 11
12.70000996616588
 21
8.753267701777645e-006
  0
LINE
  5
5d2
100
AcDbEntity
  8
0
  6
CONTINUOUS
 62
     7
100
AcDbLine
 10
11.68451917311739
 20
3.742706279428469
 11
12.19751964082655
 21
2.854163632842465
  0
LINE
  5
5d3
100
AcDbEntity
  8
0
  6
CONTINUOUS
 62
     7
100
AcDbLine
 10
10.10101318359375
 20
1
 11
11.12701416015625
 21
1
  0
LINE
  5
5d4
100
AcDbEntity
  8
0
  6
CONTINUOUS
 62
     7
100
AcDbLine
 10
10.10101318359375
 20
-1
 11
11.12701416015625
 21
-1
  0
LINE
  5
5d5
100
AcDbEntity
  8
0
  6
CONTINUOUS
 62
     7
100
AcDbLine
 10
11.6844852538541
 20
-3.742675867465538
 11
12.19748569962739
 21
-2.854132932912789
  0
LINE
  5
5d6
100
AcDbEntity
  8
0
  6
CONTINUOUS
 62
     7
100
AcDbLine
 10
13.41652852124977
 20
-4.742671403663064
 11
13.92952896702305
 21
-3.854128469110315
  0
LINE
  5
5d7
100
AcDbEntity
  8
0
  6
CONTINUOUS
 62
     7
100
AcDbLine
 10
16.58355175267856
 20
-4.742623038486511
 11
16.07055104655078
 21
-3.854079978947442
  0
LINE
  5
5d8
100
AcDbEntity
  8
0
  6
CONTINUOUS
 62
     7
100
AcDbLine
 10
13.85000610351563
 20
-1.991859436035156
 11
16.14999389648438
 21
-1.991859436035156
  0
LINE
  5
5d9
100
AcDbEntity
  8
0
  6
CONTINUOUS
 62
     7
100
AcDbLine
 10
16.14996348378001
 20
-1.991847668802621
 11
17.2999523963079
 21
3.065782721023425e-006
  0
LINE
  5
5da
100
AcDbEntity
  8
0
  6
CONTINUOUS
 62
     7
100
AcDbLine
 10
12.70001010675973
 20
-1.376517705420355e-005
 11
13.85000283396836
 21
-1.991871107021421
  0
LINE
  5
5db
100
AcDbEntity
  8
0
  6
CONTINUOUS
 62
     7
100
AcDbLine
 10
16.14997599701418
 20
1.991850075500875
 11
17.29997253890355
 21
-1.387360251658976e-005
  0
LINE
  5
5dc
100
AcDbEntity
  8
0
  6
CONTINUOUS
 62
     7
100
AcDbLine
 10
13.41655993833115
 20
4.742665499171217
 11
13.92956052524962
 21
3.85412264610868
  0
LINE
  5
5dd
100
AcDbEntity
  8
0
  6
CONTINUOUS
 62
     7
100
AcDbLine
 10
16.58349046435449
 20
4.742678061652008
 11
16.0704900185812
 21
3.854135127099257
  0
LINE
  5
5de
100
AcDbEntity
  8
0
  6
CONTINUOUS
 62
     7
100
AcDbLine
 10
18.31549405711009
 20
3.742670192953154
 11
17.8024936113368
 21
2.854127258400403
  0
LINE
  5
5df
100
AcDbEntity
  8
0
  6
CONTINUOUS
 62
     7
100
AcDbLine
 10
19.89901733398438
 20
1.000015258789063
 11
18.87301635742188
 21
1.000015258789063
  0
LINE
  5
5e0
100
AcDbEntity
  8
0
  6
CONTINUOUS
 62
     7
100
AcDbLine
 10
19.89901733398438
 20
-0.9999542236328125
 11
18.87301635742188
 21
-0.9999542236328125
  0
LINE
  5
5e1
100
AcDbEntity
  8
0
  6
CONTINUOUS
 62
     7
100
AcDbLine
 10
18.31557731071945
 20
-3.742637359945211
 11
17.8025768430103
 21
-2.854094713359207
  0
LINE
  5
5e2
100
AcDbEntity
  8
0
  6
CONTINUOUS
 62
     7
100
AcDbLine
 10
184.1499938964844
 20
1.991859436035156
 11
181.8500061035156
 21
1.991859436035156
  0
LINE
  5
5e3
100
AcDbEntity
  8
0
  6
CONTINUOUS
 62
     7
100
AcDbLine
 10
181.8500065080552
 20
1.991872702371083
 11
180.7000099661659
 21
8.753267692895861e-006
  0
LINE
  5
5e4
100
AcDbEntity
  8
0
  6
CONTINUOUS
 62
     7
100
AcDbLine
 10
179.6845191731174
 20
3.742706279428475
 11
180.1975196408266
 21
2.854163632842472
  0
LINE
  5
5e5
100
AcDbEntity
  8
0
  6
CONTINUOUS
 62
     7
100
AcDbLine
 10
178.1010131835938
 20
1
 11
179.1270141601563
 21
1
  0
LINE
  5
5e6
100
AcDbEntity
  8
0
  6
CONTINUOUS
 62
     7
100
AcDbLine
 10
178.1010131835938
 20
-1
 11
179.1270141601563
 21
-1
  0
LINE
  5
5e7
100
AcDbEntity
  8
0
  6
CONTINUOUS
 62
     7
100
AcDbLine
 10
179.6844852538541
 20
-3.742675867465536
 11
180.1974856996274
 21
-2.854132932912776
  0
LINE
  5
5e8
100
AcDbEntity
  8
0
  6
CONTINUOUS
 62
     7
100
AcDbLine
 10
181.4165285212498
 20
-4.742671403663081
 11
181.9295289670231
 21
-3.854128469110322
  0
LINE
  5
5e9
100
AcDbEntity
  8
0
  6
CONTINUOUS
 62
     7
100
AcDbLine
 10
184.5835517526786
 20
-4.742623038486499
 11
184.0705510465508
 21
-3.854079978947425
  0
LINE
  5
5ea
100
AcDbEntity
  8
0
  6
CONTINUOUS
 62
     7
100
AcDbLine
 10
181.8500061035156
 20
-1.991859436035156
 11
184.1499938964844
 21
-1.991859436035156
  0
LINE
  5
5eb
100
AcDbEntity
  8
0
  6
CONTINUOUS
 62
     7
100
AcDbLine
 10
184.14996348378
 20
-1.991847668802635
 11
185.2999523963079
 21
3.06578270681257e-006
  0
LINE
  5
5ec
100
AcDbEntity
  8
0
  6
CONTINUOUS
 62
     7
100
AcDbLine
 10
180.7000101067597
 20
-1.376517705864444e-005
 11
181.8500028339684
 21
-1.991871107021424
  0
LINE
  5
5ed
100
AcDbEntity
  8
0
  6
CONTINUOUS
 62
     7
100
AcDbLine
 10
184.1499759970142
 20
1.991850075500878
 11
185.2999725389036
 21
-1.387360251214886e-005
  0
LINE
  5
5ee
100
AcDbEntity
  8
0
  6
CONTINUOUS
 62
     7
100
AcDbLine
 10
181.4165599383312
 20
4.742665499171224
 11
181.9295605252496
 21
3.854122646108678
  0
LINE
  5
5ef
100
AcDbEntity
  8
0
  6
CONTINUOUS
 62
     7
100
AcDbLine
 10
184.5834904643545
 20
4.742678061652001
 11
184.0704900185812
 21
3.854135127099255
  0
LINE
  5
5f0
100
AcDbEntity
  8
0
  6
CONTINUOUS
 62
     7
100
AcDbLine
 10
186.3154940571101
 20
3.74267019295317
 11
185.8024936113368
 21
2.854127258400411
  0
LINE
  5
5f1
100
AcDbEntity
  8
0
  6
CONTINUOUS
 62
     7
100
AcDbLine
 10
187.8990173339844
 20
1.000015258789063
 11
186.8730163574219
 21
1.000015258789063
  0
LINE
  5
5f2
100
AcDbEntity
  8
0
  6
CONTINUOUS
 62
     7
100
AcDbLine
 10
187.8990173339844
 20
-0.9999542236328125
 11
186.8730163574219
 21
-0.9999542236328125
  0
LINE
  5
5f3
100
AcDbEntity
  8
0
  6
CONTINUOUS
 62
     7
100
AcDbLine
 10
186.3155773107195
 20
-3.742637359945221
 11
185.8025768430103
 21
-2.854094713359217
  0
ARC
  5
5f4
100
AcDbEntity
  8
0
  6
CONTINUOUS
 62
     7
100
AcDbCircle
 10
0.5
 20
-39.5
 40
0.5
100
AcDbArc
 50
180.0000359721796
 51
270.0000384766576
  0
ARC
  5
5f5
100
AcDbEntity
  8
0
  6
CONTINUOUS
 62
     7
100
AcDbCircle
 10
29.5
 20
-39.5
 40
0.5
100
AcDbArc
 50
270.0000384766577
 51
4.098113502008e-005
  0
ARC
  5
5f6
100
AcDbEntity
  8
0
  6
CONTINUOUS
 62
     7
100
AcDbCircle
 10
-40.59844970703125
 20
-11.70864868164063
 40
8.071324348449707
100
AcDbArc
 50
0
 51
28.82402667485746
  0
ARC
  5
5f7
100
AcDbEntity
  8
0
  6
CONTINUOUS
 62
     7
100
AcDbCircle
 10
-63.58212280273438
 20
0
 40
31.05500030517578
100
AcDbArc
 50
345.4204831033666
 51
14.57955787776914
  0
ARC
  5
5f8
100
AcDbEntity
  8
0
  6
CONTINUOUS
 62
     7
100
AcDbCircle
 10
-35.455810546875
 20
-11.70864868164063
 40
8.071324348449707
100
AcDbArc
 50
151.1759919944772
 51
180.0000186693354
  0
ARC
  5
5f9
100
AcDbEntity
  8
0
  6
CONTINUOUS
 62
     7
100
AcDbCircle
 10
-12.47213745117188
 20
0
 40
31.05500030517578
100
AcDbArc
 50
165.4204607915656
 51
194.5795765471045
  0
ARC
  5
5fa
100
AcDbEntity
  8
0
  6
CONTINUOUS
 62
     7
100
AcDbCircle
 10
-35.455810546875
 20
11.70864868164063
 40
8.071324348449707
100
AcDbArc
 50
180.0000906136928
 51
208.8241172885502
  0
ARC
  5
5fb
100
AcDbEntity
  8
0
  6
CONTINUOUS
 62
     7
100
AcDbCircle
 10
-40.59844970703125
 20
11.70864868164063
 40
8.071324348449707
100
AcDbArc
 50
331.1760689477916
 51
9.562264838022291e-005
  0
ARC
  5
5fc
100
AcDbEntity
  8
0
  6
CONTINUOUS
 62
     7
100
AcDbCircle
 10
0.5
 20
39.5
 40
0.5
100
AcDbArc
 50
90.00000933466734
 51
180.0000186693352
  0
ARC
  5
5fd
100
AcDbEntity
  8
0
  6
CONTINUOUS
 62
     7
100
AcDbCircle
 10
29.5
 20
39.5
 40
0.5
100
AcDbArc
 50
0
 51
90.00000250447806
  0
ARC
  5
5fe
100
AcDbEntity
  8
0
  6
CONTINUOUS
 62
     7
100
AcDbCircle
 10
168.5
 20
39.5
 40
0.5
100
AcDbArc
 50
90.00000933466764
 51
180.0000186693352
  0
ARC
  5
5ff
100
AcDbEntity
  8
0
  6
CONTINUOUS
 62
     7
100
AcDbCircle
 10
197.5
 20
39.5
 40
0.5
100
AcDbArc
 50
0
 51
90.00000250447847
  0
ARC
  5
600
100
AcDbEntity
  8
0
  6
CONTINUOUS
 62
     7
100
AcDbCircle
 10
197.5
 20
-39.5
 40
0.5
100
AcDbArc
 50
270.0000179860897
 51
1.366037834002524e-005
  0
ARC
  5
601
100
AcDbEntity
  8
0
  6
CONTINUOUS
 62
     7
100
AcDbCircle
 10
168.5
 20
-39.5
 40
0.5
100
AcDbArc
 50
179.9999813306655
 51
270.0000179860897
  0
CIRCLE
  5
602
100
AcDbEntity
  8
0
  6
CONTINUOUS
 62
     7
100
AcDbCircle
 10
15
 20
1.1444091796875e-005
 40
1.991851329803467
  0
CIRCLE
  5
603
100
AcDbEntity
  8
0
  6
CONTINUOUS
 62
     7
100
AcDbCircle
 10
15
 20
0
 40
2.299999952316284
  0
CIRCLE
  5
604
100
AcDbEntity
  8
0
  6
CONTINUOUS
 62
     7
100
AcDbCircle
 10
15
 20
0
 40
5.5
  0
CIRCLE
  5
605
100
AcDbEntity
  8
0
  6
CONTINUOUS
 62
     7
100
AcDbCircle
 10
15
 20
0
 40
5
  0
ARC
  5
606
100
AcDbEntity
  8
0
  6
CONTINUOUS
 62
     7
100
AcDbCircle
 10
15
 20
0
 40
4
100
AcDbArc
 50
134.4775591720084
 51
165.5225174781439
  0
ARC
  5
607
100
AcDbEntity
  8
0
  6
CONTINUOUS
 62
     7
100
AcDbCircle
 10
15
 20
0
 40
4
100
AcDbArc
 50
194.4774825218568
 51
225.5225227902624
  0
ARC
  5
608
100
AcDbEntity
  8
0
  6
CONTINUOUS
 62
     7
100
AcDbCircle
 10
15
 20
0
 40
4
100
AcDbArc
 50
254.4775115122656
 51
285.5229342712647
  0
CIRCLE
  5
609
100
AcDbEntity
  8
0
  6
CONTINUOUS
 62
     7
100
AcDbCircle
 10
15
 20
0
 40
2.5
  0
ARC
  5
60a
100
AcDbEntity
  8
0
  6
CONTINUOUS
 62
     7
100
AcDbCircle
 10
15
 20
0
 40
4
100
AcDbArc
 50
74.47796731370647
 51
105.5229392802203
  0
ARC
  5
60b
100
AcDbEntity
  8
0
  6
CONTINUOUS
 62
     7
100
AcDbCircle
 10
15
 20
0
 40
4
100
AcDbArc
 50
14.47771463460237
 51
45.52311861058121
  0
ARC
  5
60c
100
AcDbEntity
  8
0
  6
CONTINUOUS
 62
     7
100
AcDbCircle
 10
15
 20
0
 40
4
100
AcDbArc
 50
314.4775780687149
 51
345.5231323088554
  0
CIRCLE
  5
60d
100
AcDbEntity
  8
0
  6
CONTINUOUS
 62
     7
100
AcDbCircle
 10
183
 20
1.1444091796875e-005
 40
1.991851329803467
  0
CIRCLE
  5
60e
100
AcDbEntity
  8
0
  6
CONTINUOUS
 62
     7
100
AcDbCircle
 10
183
 20
0
 40
2.299999952316284
  0
CIRCLE
  5
60f
100
AcDbEntity
  8
0
  6
CONTINUOUS
 62
     7
100
AcDbCircle
 10
183
 20
0
 40
5.5
  0
CIRCLE
  5
610
100
AcDbEntity
  8
0
  6
CONTINUOUS
 62
     7
100
AcDbCircle
 10
183
 20
0
 40
5
  0
ARC
  5
611
100
AcDbEntity
  8
0
  6
CONTINUOUS
 62
     7
100
AcDbCircle
 10
183
 20
0
 40
4
100
AcDbArc
 50
134.4775591720083
 51
165.5225174781439
  0
ARC
  5
612
100
AcDbEntity
  8
0
  6
CONTINUOUS
 62
     7
100
AcDbCircle
 10
183
 20
0
 40
4
100
AcDbArc
 50
194.4774825218568
 51
225.5225227902623
  0
ARC
  5
613
100
AcDbEntity
  8
0
  6
CONTINUOUS
 62
     7
100
AcDbCircle
 10
183
 20
0
 40
4
100
AcDbArc
 50
254.4775115122658
 51
285.5229342712648
  0
CIRCLE
  5
614
100
AcDbEntity
  8
0
  6
CONTINUOUS
 62
     7
100
AcDbCircle
 10
183
 20
0
 40
2.5
  0
ARC
  5
615
100
AcDbEntity
  8
0
  6
CONTINUOUS
 62
     7
100
AcDbCircle
 10
183
 20
0
 40
4
100
AcDbArc
 50
74.47796731370656
 51
105.5229392802201
  0
ARC
  5
616
100
AcDbEntity
  8
0
  6
CONTINUOUS
 62
     7
100
AcDbCircle
 10
183
 20
0
 40
4
100
AcDbArc
 50
14.47771463460234
 51
45.52311861058107
  0
ARC
  5
617
100
AcDbEntity
  8
0
  6
CONTINUOUS
 62
     7
100
AcDbCircle
 10
183
 20
0
 40
4
100
AcDbArc
 50
314.4775780687148
 51
345.5231323088554
  0
MTEXT
  5
618
100
AcDbEntity
  8
0
  6
CONTINUOUS
 62
     7
100
AcDbMText
 10
39.54643596708775
 20
-13.19999980926514
 40
0.5
 41
36
 71
     7
 72
     1
  1
{\W0.842599;ＢＮ－６１０５－ＦＡＣ－６３－Ｂ－＊}
  0
ENDBLK
  8
0
  5
619
100
AcDbEntity
100
AcDbBlockEnd
  0
BLOCK
  8
0
  5
61a
100
AcDbEntity
100
AcDbBlockBegin
  2
KOZU0006
 70
    64
 10
0
 20
0
  0
POINT
  5
61b
100
AcDbEntity
  8
0
  6
CONTINUOUS
 62
     7
100
AcDbPoint
 10
0
 20
0
  0
LINE
  5
61c
100
AcDbEntity
  8
0
  6
CONTINUOUS
 62
     7
100
AcDbLine
 10
0
 20
65
 11
0
 21
-65
  0
LINE
  5
61d
100
AcDbEntity
  8
0
  6
CONTINUOUS
 62
     7
100
AcDbLine
 10
15
 20
8.5
 11
25.99998474121094
 21
8.5
  0
LINE
  5
61e
100
AcDbEntity
  8
0
  6
CONTINUOUS
 62
     7
100
AcDbLine
 10
21.26792907714844
 20
8.5
 11
21.26792907714844
 21
-8.5
  0
LINE
  5
61f
100
AcDbEntity
  8
0
  6
CONTINUOUS
 62
     7
100
AcDbLine
 10
22.99998474121094
 20
-8.5
 11
22.99998474121094
 21
8.5
  0
LINE
  5
620
100
AcDbEntity
  8
0
  6
CENTER
 62
     3
100
AcDbLine
 10
-204.8993682861328
 20
0
 11
63.18399047851563
 21
0
  0
LINE
  5
621
100
AcDbEntity
  8
0
  6
CONTINUOUS
 62
     7
100
AcDbLine
 10
25.99998474121094
 20
9.000015258789063
 11
25.99998474121094
 21
-9
  0
LINE
  5
622
100
AcDbEntity
  8
0
  6
CONTINUOUS
 62
     7
100
AcDbLine
 10
15
 20
-8.5
 11
25.99998474121094
 21
-8.5
  0
LINE
  5
623
100
AcDbEntity
  8
0
  6
CONTINUOUS
 62
     7
100
AcDbLine
 10
26.000039443315
 20
-8.187529267565017
 11
25.06254952244969
 21
-8.500025898036558
  0
LINE
  5
624
100
AcDbEntity
  8
0
  6
CONTINUOUS
 62
     7
100
AcDbLine
 10
32.52711486816406
 20
-8.1875
 11
25.99998474121094
 21
-8.1875
  0
LINE
  5
625
100
AcDbEntity
  8
0
  6
CONTINUOUS
 62
     7
100
AcDbLine
 10
32.52711486816406
 20
-9
 11
25.99998474121094
 21
-9
  0
LINE
  5
626
100
AcDbEntity
  8
0
  6
CONTINUOUS
 62
     7
100
AcDbLine
 10
32.52711486816406
 20
-11.70867919921875
 11
32.52711486816406
 21
11.70866394042969
  0
LINE
  5
627
100
AcDbEntity
  8
0
  6
CONTINUOUS
 62
     7
100
AcDbLine
 10
25.99997219135462
 20
8.187508458661782
 11
25.06257998185836
 21
8.499972518677996
  0
LINE
  5
628
100
AcDbEntity
  8
0
  6
CONTINUOUS
 62
     7
100
AcDbLine
 10
32.52711486816406
 20
8.1875
 11
25.99998474121094
 21
8.1875
  0
LINE
  5
629
100
AcDbEntity
  8
0
  6
CONTINUOUS
 62
     7
100
AcDbLine
 10
32.52711486816406
 20
9
 11
25.99998474121094
 21
9
  0
LINE
  5
62a
100
AcDbEntity
  8
0
  6
CONTINUOUS
 62
     7
100
AcDbLine
 10
32.52723152953531
 20
11.70863466394399
 11
33.52723534917696
 21
15.6000053099866
  0
LINE
  5
62b
100
AcDbEntity
  8
0
  6
CONTINUOUS
 62
     7
100
AcDbLine
 10
33.52711486816406
 20
15.60000610351563
 11
42.52711486816406
 21
15.60000610351563
  0
LINE
  5
62c
100
AcDbEntity
  8
0
  6
CONTINUOUS
 62
     7
100
AcDbLine
 10
42.52714528068132
 20
15.60003807476218
 11
43.52714150471307
 21
11.70869698594009
  0
LINE
  5
62d
100
AcDbEntity
  8
0
  6
CONTINUOUS
 62
     7
100
AcDbLine
 10
33.52711486816406
 20
7.817291259765625
 11
42.52711486816406
 21
7.817291259765625
  0
LINE
  5
62e
100
AcDbEntity
  8
0
  6
CONTINUOUS
 62
     7
100
AcDbLine
 10
43.52711486816406
 20
-11.70870971679688
 11
43.52711486816406
 21
11.70866394042969
  0
LINE
  5
62f
100
AcDbEntity
  8
0
  6
CONTINUOUS
 62
     7
100
AcDbLine
 10
56.80000305175781
 20
9
 11
43.52711486816406
 21
9
  0
LINE
  5
630
100
AcDbEntity
  8
0
  6
CONTINUOUS
 62
     7
100
AcDbLine
 10
57.61250305175781
 20
8.1875
 11
43.52711486816406
 21
8.1875
  0
LINE
  5
631
100
AcDbEntity
  8
0
  6
CONTINUOUS
 62
     7
100
AcDbLine
 10
58.00003526208828
 20
7.800074517008202
 11
56.80003823290493
 21
9.000071445039374
  0
LINE
  5
632
100
AcDbEntity
  8
0
  6
CONTINUOUS
 62
     7
100
AcDbLine
 10
56.80000305175781
 20
-8.999984741210938
 11
56.80000305175781
 21
9.000015258789063
  0
LINE
  5
633
100
AcDbEntity
  8
0
  6
CONTINUOUS
 62
     7
100
AcDbLine
 10
57.99998474121094
 20
-7.79998779296875
 11
57.99998474121094
 21
7.80010986328125
  0
LINE
  5
634
100
AcDbEntity
  8
0
  6
CONTINUOUS
 62
     7
100
AcDbLine
 10
56.80007945252983
 20
-9.000096328533893
 11
58.00007907795919
 21
-7.800096601952124
  0
LINE
  5
635
100
AcDbEntity
  8
0
  6
CONTINUOUS
 62
     7
100
AcDbLine
 10
57.61250305175781
 20
-8.1875
 11
43.52711486816406
 21
-8.1875
  0
LINE
  5
636
100
AcDbEntity
  8
0
  6
CONTINUOUS
 62
     7
100
AcDbLine
 10
56.80000305175781
 20
-9
 11
43.52711486816406
 21
-9
  0
LINE
  5
637
100
AcDbEntity
  8
0
  6
CONTINUOUS
 62
     7
100
AcDbLine
 10
33.52711486816406
 20
-7.8172607421875
 11
42.52711486816406
 21
-7.8172607421875
  0
LINE
  5
638
100
AcDbEntity
  8
0
  6
CONTINUOUS
 62
     7
100
AcDbLine
 10
42.527197212122
 20
-15.60001991095651
 11
43.52720103176365
 21
-11.70864926491391
  0
LINE
  5
639
100
AcDbEntity
  8
0
  6
CONTINUOUS
 62
     7
100
AcDbLine
 10
33.52711486816406
 20
-15.5999755859375
 11
42.52711486816406
 21
-15.5999755859375
  0
LINE
  5
63a
100
AcDbEntity
  8
0
  6
CONTINUOUS
 62
     7
100
AcDbLine
 10
33.52714441757958
 20
-15.59996565929593
 11
32.52714439574287
 21
-11.70860979186359
  0
LINE
  5
63b
100
AcDbEntity
  8
0
  6
CONTINUOUS
 62
     7
100
AcDbLine
 10
-29.5
 20
-40
 11
-0.5
 21
-40
  0
LINE
  5
63c
100
AcDbEntity
  8
0
  6
CONTINUOUS
 62
     7
100
AcDbLine
 10
-30
 20
39.50001525878906
 11
-30
 21
-39.49998474121094
  0
LINE
  5
63d
100
AcDbEntity
  8
0
  6
CONTINUOUS
 62
     7
100
AcDbLine
 10
-30.29997925937758
 20
-34.00005110279423
 11
-29.99996923777702
 21
-33.70004105590473
  0
LINE
  5
63e
100
AcDbEntity
  8
0
  6
CONTINUOUS
 62
     7
100
AcDbLine
 10
-167.7000122070313
 20
-34
 11
-30.30000305175781
 21
-34
  0
LINE
  5
63f
100
AcDbEntity
  8
0
  6
CONTINUOUS
 62
     7
100
AcDbLine
 10
-168
 20
-33.08999633789063
 11
-30
 21
-33.08999633789063
  0
LINE
  5
640
100
AcDbEntity
  8
0
  6
CENTER
 62
     3
100
AcDbLine
 10
-168
 20
-29.5
 11
-30
 21
-29.5
  0
LINE
  5
641
100
AcDbEntity
  8
0
  6
CONTINUOUS
 62
     7
100
AcDbLine
 10
-168
 20
-25.90997314453125
 11
-30
 21
-25.90997314453125
  0
LINE
  5
642
100
AcDbEntity
  8
0
  6
CONTINUOUS
 62
     7
100
AcDbLine
 10
-30.30003573615469
 20
34.0000485739857
 11
-30.00003110935051
 21
33.70004392189303
  0
LINE
  5
643
100
AcDbEntity
  8
0
  6
CONTINUOUS
 62
     7
100
AcDbLine
 10
-167.7000122070313
 20
34.00000762939453
 11
-30.30000305175781
 21
34.00000762939453
  0
LINE
  5
644
100
AcDbEntity
  8
0
  6
CONTINUOUS
 62
     7
100
AcDbLine
 10
-168
 20
33.09001922607422
 11
-30
 21
33.09001922607422
  0
LINE
  5
645
100
AcDbEntity
  8
0
  6
CENTER
 62
     3
100
AcDbLine
 10
-168
 20
29.50000762939453
 11
-30
 21
29.50000762939453
  0
LINE
  5
646
100
AcDbEntity
  8
0
  6
CONTINUOUS
 62
     7
100
AcDbLine
 10
-168
 20
25.91000366210938
 11
-30
 21
25.91000366210938
  0
LINE
  5
647
100
AcDbEntity
  8
0
  6
CONTINUOUS
 62
     7
100
AcDbLine
 10
-29.5
 20
40.00000762939453
 11
-0.5
 21
40.00000762939453
  0
LINE
  5
648
100
AcDbEntity
  8
0
  6
CONTINUOUS
 62
     7
100
AcDbLine
 10
-168.0000179579909
 20
33.69997437959229
 11
-167.7000133058983
 21
33.99997900639646
  0
LINE
  5
649
100
AcDbEntity
  8
0
  6
CONTINUOUS
 62
     7
100
AcDbLine
 10
-167.9999694824219
 20
39.50001525878906
 11
-167.9999694824219
 21
-39.49998474121094
  0
LINE
  5
64a
100
AcDbEntity
  8
0
  6
CONTINUOUS
 62
     7
100
AcDbLine
 10
-168.5
 20
40.00000762939453
 11
-197.5
 21
40.00000762939453
  0
LINE
  5
64b
100
AcDbEntity
  8
0
  6
CONTINUOUS
 62
     7
100
AcDbLine
 10
-198.0000305175781
 20
-39.49998474121094
 11
-198.0000305175781
 21
39.50001525878906
  0
LINE
  5
64c
100
AcDbEntity
  8
0
  6
CONTINUOUS
 62
     7
100
AcDbLine
 10
-200.0000152587891
 20
20
 11
-198.0000152587891
 21
20
  0
LINE
  5
64d
100
AcDbEntity
  8
0
  6
CONTINUOUS
 62
     7
100
AcDbLine
 10
-200.0000305175781
 20
-20
 11
-200.0000305175781
 21
20
  0
LINE
  5
64e
100
AcDbEntity
  8
0
  6
CONTINUOUS
 62
     7
100
AcDbLine
 10
-201.0000333963771
 20
18.99998812659236
 11
-200.0000323176733
 21
19.99998920529615
  0
LINE
  5
64f
100
AcDbEntity
  8
0
  6
CONTINUOUS
 62
     7
100
AcDbLine
 10
-201.0000305175781
 20
-19
 11
-201.0000305175781
 21
19
  0
LINE
  5
650
100
AcDbEntity
  8
0
  6
CONTINUOUS
 62
     7
100
AcDbLine
 10
-168.0001096695281
 20
-33.70009845991817
 11
-167.7001050174354
 21
-34.00010308672235
  0
LINE
  5
651
100
AcDbEntity
  8
0
  6
CONTINUOUS
 62
     7
100
AcDbLine
 10
-168.5
 20
-40
 11
-197.5
 21
-40
  0
LINE
  5
652
100
AcDbEntity
  8
0
  6
CONTINUOUS
 62
     7
100
AcDbLine
 10
-200.0000305175781
 20
-20
 11
-198.0000152587891
 21
-20
  0
LINE
  5
653
100
AcDbEntity
  8
0
  6
CONTINUOUS
 62
     7
100
AcDbLine
 10
-201.0000191521174
 20
-18.99998096167913
 11
-200.0000326561936
 21
-19.9999750439621
  0
LINE
  5
654
100
AcDbEntity
  8
0
  6
CONTINUOUS
 62
     7
100
AcDbLine
 10
0
 20
65
 11
15
 21
65
  0
LINE
  5
655
100
AcDbEntity
  8
0
  6
CONTINUOUS
 62
     7
100
AcDbLine
 10
15
 20
65
 11
15
 21
-65
  0
LINE
  5
656
100
AcDbEntity
  8
0
  6
DASHED
 62
     7
100
AcDbLine
 10
0
 20
-46.75
 11
15
 21
-46.75
  0
LINE
  5
657
100
AcDbEntity
  8
0
  6
CENTER
 62
     3
100
AcDbLine
 10
-4.497344970703125
 20
-52.5
 11
19.63212776184082
 21
-52.5
  0
LINE
  5
658
100
AcDbEntity
  8
0
  6
DASHED
 62
     7
100
AcDbLine
 10
0
 20
-58.25
 11
15
 21
-58.25
  0
LINE
  5
659
100
AcDbEntity
  8
0
  6
CONTINUOUS
 62
     7
100
AcDbLine
 10
0
 20
-65
 11
15
 21
-65
  0
LINE
  5
65a
100
AcDbEntity
  8
0
  6
DASHED
 62
     7
100
AcDbLine
 10
0
 20
58.25
 11
15
 21
58.25
  0
LINE
  5
65b
100
AcDbEntity
  8
0
  6
CENTER
 62
     3
100
AcDbLine
 10
-4.497344970703125
 20
52.5
 11
19.63212776184082
 21
52.5
  0
LINE
  5
65c
100
AcDbEntity
  8
0
  6
DASHED
 62
     7
100
AcDbLine
 10
0
 20
46.75
 11
15
 21
46.75
  0
ARC
  5
65d
100
AcDbEntity
  8
0
  6
CONTINUOUS
 62
     7
100
AcDbCircle
 10
35.45579528808594
 20
11.70864868164063
 40
8.071324348449707
100
AcDbArc
 50
331.1759220987245
 51
359.9999453584874
  0
ARC
  5
65e
100
AcDbEntity
  8
0
  6
CONTINUOUS
 62
     7
100
AcDbCircle
 10
40.59843444824219
 20
11.70864868164063
 40
8.071324348449707
100
AcDbArc
 50
179.9999230466863
 51
208.8239497215445
  0
ARC
  5
65f
100
AcDbEntity
  8
0
  6
CONTINUOUS
 62
     7
100
AcDbCircle
 10
63.58210754394531
 20
0
 40
31.05500030517578
100
AcDbArc
 50
165.4203924896738
 51
194.5794672640778
  0
ARC
  5
660
100
AcDbEntity
  8
0
  6
CONTINUOUS
 62
     7
100
AcDbCircle
 10
12.47212219238281
 20
0
 40
31.05500030517578
100
AcDbArc
 50
345.4203908958128
 51
14.57949982116119
  0
ARC
  5
661
100
AcDbEntity
  8
0
  6
CONTINUOUS
 62
     7
100
AcDbCircle
 10
35.45579528808594
 20
-11.7086181640625
 40
8.071324348449707
100
AcDbArc
 50
0
 51
28.82402325976286
  0
ARC
  5
662
100
AcDbEntity
  8
0
  6
CONTINUOUS
 62
     7
100
AcDbCircle
 10
40.59843444824219
 20
-11.7086181640625
 40
8.071324348449707
100
AcDbArc
 50
151.1759783340989
 51
180.000005008957
  0
ARC
  5
663
100
AcDbEntity
  8
0
  6
CONTINUOUS
 62
     7
100
AcDbCircle
 10
-0.5
 20
-39.5
 40
0.5
100
AcDbArc
 50
269.9999428540092
 51
359.9999453584874
  0
ARC
  5
664
100
AcDbEntity
  8
0
  6
CONTINUOUS
 62
     7
100
AcDbCircle
 10
-29.5
 20
-39.5
 40
0.5
100
AcDbArc
 50
179.9999230466861
 51
269.9999187209761
  0
ARC
  5
665
100
AcDbEntity
  8
0
  6
CONTINUOUS
 62
     7
100
AcDbCircle
 10
-29.5
 20
39.50000762939453
 40
0.5
100
AcDbArc
 50
89.99995469315388
 51
179.9999640278211
  0
ARC
  5
666
100
AcDbEntity
  8
0
  6
CONTINUOUS
 62
     7
100
AcDbCircle
 10
-0.5
 20
39.50000762939453
 40
0.5
100
AcDbArc
 50
359.9999453584874
 51
89.9999478629648
  0
ARC
  5
667
100
AcDbEntity
  8
0
  6
CONTINUOUS
 62
     7
100
AcDbCircle
 10
-168.4999694824219
 20
39.50000762939453
 40
0.5
100
AcDbArc
 50
359.9999453584874
 51
89.99994786296512
  0
ARC
  5
668
100
AcDbEntity
  8
0
  6
CONTINUOUS
 62
     7
100
AcDbCircle
 10
-197.5000305175781
 20
39.50000762939453
 40
0.5
100
AcDbArc
 50
89.99992737239761
 51
179.9999230466861
  0
ARC
  5
669
100
AcDbEntity
  8
0
  6
CONTINUOUS
 62
     7
100
AcDbCircle
 10
-168.4999694824219
 20
-39.5
 40
0.5
100
AcDbArc
 50
269.9999428540089
 51
359.9999453584874
  0
ARC
  5
66a
100
AcDbEntity
  8
0
  6
CONTINUOUS
 62
     7
100
AcDbCircle
 10
-197.5000305175781
 20
-39.5
 40
0.5
100
AcDbArc
 50
179.9999230466861
 51
269.9999187209769
  0
MTEXT
  5
66b
100
AcDbEntity
  8
0
  6
CONTINUOUS
 62
     7
100
AcDbMText
 10
-49.3535617440939
 20
-14.25
 40
0.5
 41
36
 71
     7
 72
     1
  1
{\W0.842599;ＢＮ－６１０５－ＦＡＣ－６３－Ｂ－＊}
  0
ENDBLK
  8
0
  5
66c
100
AcDbEntity
100
AcDbBlockEnd
  0
BLOCK
  8
0
  5
66d
100
AcDbEntity
100
AcDbBlockBegin
  2
KOZU0007
 70
    64
 10
0
 20
0
  0
POINT
  5
66e
100
AcDbEntity
  8
0
  6
CONTINUOUS
 62
     7
100
AcDbPoint
 10
0
 20
0
  0
POINT
  5
66f
100
AcDbEntity
  8
0
  6
CONTINUOUS
 62
     7
100
AcDbPoint
 10
0
 20
-62.79557800292969
  0
POINT
  5
670
100
AcDbEntity
  8
0
  6
CONTINUOUS
 62
     7
100
AcDbPoint
 10
0
 20
-125.3771667480469
  0
POINT
  5
671
100
AcDbEntity
  8
0
  6
CONTINUOUS
 62
     7
100
AcDbPoint
 10
-27
 20
-86.36827087402344
  0
POINT
  5
672
100
AcDbEntity
  8
0
  6
CONTINUOUS
 62
     7
100
AcDbPoint
 10
-27
 20
-102.3682556152344
  0
LINE
  5
673
100
AcDbEntity
  8
0
  6
CENTER
 62
     3
100
AcDbLine
 10
-96.88946533203125
 20
0
 11
18.47726440429688
 21
0
  0
LINE
  5
674
100
AcDbEntity
  8
0
  6
CENTER
 62
     3
100
AcDbLine
 10
0
 20
18.3616943359375
 11
0
 21
-18.28518676757813
  0
LINE
  5
675
100
AcDbEntity
  8
0
  6
CONTINUOUS
 62
     7
100
AcDbLine
 10
-40
 20
15
 11
0
 21
15
  0
LINE
  5
676
100
AcDbEntity
  8
0
  6
CONTINUOUS
 62
     7
100
AcDbLine
 10
-39.99999376335033
 20
15.0000340200506
 11
-41.99999443245891
 21
14.0000336854963
  0
LINE
  5
677
100
AcDbEntity
  8
0
  6
CONTINUOUS
 62
     7
100
AcDbLine
 10
-59
 20
14
 11
-42
 21
14
  0
LINE
  5
678
100
AcDbEntity
  8
0
  6
CONTINUOUS
 62
     7
100
AcDbLine
 10
-42
 20
-14
 11
-42
 21
14
  0
LINE
  5
679
100
AcDbEntity
  8
0
  6
CONTINUOUS
 62
     7
100
AcDbLine
 10
-40
 20
-15
 11
-40
 21
15
  0
LINE
  5
67a
100
AcDbEntity
  8
0
  6
CONTINUOUS
 62
     7
100
AcDbLine
 10
-39.9999550859419
 20
6.999949945824067
 11
-27.99995030127896
 21
14.99995284905579
  0
LINE
  5
67b
100
AcDbEntity
  8
0
  6
CONTINUOUS
 62
     7
100
AcDbLine
 10
-40.0000185663402
 20
-7.000031412338007
 11
-28.0000391738374
 21
-15.00001738746357
  0
LINE
  5
67c
100
AcDbEntity
  8
0
  6
CONTINUOUS
 62
     7
100
AcDbLine
 10
-39.99998474121094
 20
-15
 11
0
 21
-15
  0
LINE
  5
67d
100
AcDbEntity
  8
0
  6
CONTINUOUS
 62
     7
100
AcDbLine
 10
-39.99998779240464
 20
-14.99998795846964
 11
-41.99997481363739
 21
-13.99999444785326
  0
LINE
  5
67e
100
AcDbEntity
  8
0
  6
CONTINUOUS
 62
     7
100
AcDbLine
 10
-59
 20
-14
 11
-42
 21
-14
  0
LINE
  5
67f
100
AcDbEntity
  8
0
  6
CONTINUOUS
 62
     7
100
AcDbLine
 10
-59
 20
14
 11
-59
 21
-14
  0
LINE
  5
680
100
AcDbEntity
  8
0
  6
CONTINUOUS
 62
     7
100
AcDbLine
 10
-58.99999865350441
 20
-14.00004034789419
 11
-59.99999522249135
 21
-13.00003745688185
  0
LINE
  5
681
100
AcDbEntity
  8
0
  6
CONTINUOUS
 62
     7
100
AcDbLine
 10
-60
 20
12.99998474121094
 11
-60
 21
-13
  0
LINE
  5
682
100
AcDbEntity
  8
0
  6
CONTINUOUS
 62
     7
100
AcDbLine
 10
-59.99998047134031
 20
12.99988539096609
 11
-58.99998027773479
 21
13.99987926256324
  0
LINE
  5
683
100
AcDbEntity
  8
0
  6
CONTINUOUS
 62
     7
100
AcDbLine
 10
-60.00003102542743
 20
11.25832954019856
 11
-62.16669517812844
 21
15.01110186825924
  0
LINE
  5
684
100
AcDbEntity
  8
0
  6
CONTINUOUS
 62
     7
100
AcDbLine
 10
-68.83334350585938
 20
15.0111083984375
 11
-62.16667175292969
 21
15.0111083984375
  0
LINE
  5
685
100
AcDbEntity
  8
0
  6
CONTINUOUS
 62
     7
100
AcDbLine
 10
-71.0000486584778
 20
11.25836334933192
 11
-68.83338450577679
 21
15.01113567739259
  0
LINE
  5
686
100
AcDbEntity
  8
0
  6
CONTINUOUS
 62
     7
100
AcDbLine
 10
-71
 20
11.25833129882813
 11
-71
 21
-11.25833129882813
  0
LINE
  5
687
100
AcDbEntity
  8
0
  6
CONTINUOUS
 62
     7
100
AcDbLine
 10
-68.83334350585938
 20
7.50555419921875
 11
-62.16667175292969
 21
7.50555419921875
  0
LWPOLYLINE
  5
688
100
AcDbEntity
  8
0
  6
CONTINUOUS
 62
     7
100
AcDbPolyline
 90
    10
 70
     0
 10
-98.37164189456973
 20
12.11139927905022
 10
-97.76796357049153
 20
7.178484434185727
 10
-100.1765680653616
 20
6.279248988214229
 10
-95.06782772869011
 20
5.695492041818406
 10
-97.47643222356021
 20
4.796256595846907
 10
-96.2690755754038
 20
-5.069573093882067
 10
-98.67768007027391
 20
-5.968808539853566
 10
-93.56893973360238
 20
-6.552565486249389
 10
-95.97754422847248
 20
-7.451800932220888
 10
-95.37386590439428
 20
-12.38471577708538
  0
LINE
  5
689
100
AcDbEntity
  8
0
  6
CONTINUOUS
 62
     7
100
AcDbLine
 10
-98.11328125
 20
10
 11
-78.7320556640625
 21
10
  0
LINE
  5
68a
100
AcDbEntity
  8
0
  6
CONTINUOUS
 62
     7
100
AcDbLine
 10
-85
 20
5.267822265625
 11
-85
 21
-5.267837524414063
  0
LINE
  5
68b
100
AcDbEntity
  8
0
  6
CONTINUOUS
 62
     7
100
AcDbLine
 10
-85
 20
5.267822265625
 11
-77
 21
5.267822265625
  0
LINE
  5
68c
100
AcDbEntity
  8
0
  6
CONTINUOUS
 62
     7
100
AcDbLine
 10
-73.99996164955279
 20
-2.500020787284718
 11
-84.99995744280872
 21
5.267803486222718
  0
LINE
  5
68d
100
AcDbEntity
  8
0
  6
CONTINUOUS
 62
     7
100
AcDbLine
 10
-73.99997612214816
 20
2.499968537587506
 11
-84.99997503147253
 21
-5.267857936381873
  0
LINE
  5
68e
100
AcDbEntity
  8
0
  6
CONTINUOUS
 62
     7
100
AcDbLine
 10
-85
 20
-5.267837524414063
 11
-77
 21
-5.267837524414063
  0
LINE
  5
68f
100
AcDbEntity
  8
0
  6
CONTINUOUS
 62
     7
100
AcDbLine
 10
-95.66574096679688
 20
-10
 11
-78.7320556640625
 21
-10
  0
LINE
  5
690
100
AcDbEntity
  8
0
  6
CONTINUOUS
 62
     7
100
AcDbLine
 10
-78.73214110842866
 20
-9.999912845831432
 11
-77.0000903086316
 21
-8.999912832370256
  0
LINE
  5
691
100
AcDbEntity
  8
0
  6
CONTINUOUS
 62
     7
100
AcDbLine
 10
-78.7320556640625
 20
-5.267837524414063
 11
-78.7320556640625
 21
-10
  0
LINE
  5
692
100
AcDbEntity
  8
0
  6
CONTINUOUS
 62
     7
100
AcDbLine
 10
-77
 20
-2.5
 11
-74
 21
-2.5
  0
LINE
  5
693
100
AcDbEntity
  8
0
  6
CONTINUOUS
 62
     7
100
AcDbLine
 10
-77
 20
2.5
 11
-74
 21
2.5
  0
LINE
  5
694
100
AcDbEntity
  8
0
  6
CONTINUOUS
 62
     7
100
AcDbLine
 10
-77
 20
9
 11
-71
 21
9
  0
LINE
  5
695
100
AcDbEntity
  8
0
  6
CONTINUOUS
 62
     7
100
AcDbLine
 10
-74
 20
9
 11
-74
 21
-9
  0
LINE
  5
696
100
AcDbEntity
  8
0
  6
CONTINUOUS
 62
     7
100
AcDbLine
 10
-74
 20
8.18798828125
 11
-71
 21
8.18798828125
  0
LINE
  5
697
100
AcDbEntity
  8
0
  6
CONTINUOUS
 62
     7
100
AcDbLine
 10
-76.23096403706803
 20
8.99999286331807
 11
-73.99999703204965
 21
8.187987250784779
  0
LINE
  5
698
100
AcDbEntity
  8
0
  6
CONTINUOUS
 62
     7
100
AcDbLine
 10
-77
 20
-9
 11
-71
 21
-9
  0
LINE
  5
699
100
AcDbEntity
  8
0
  6
CONTINUOUS
 62
     7
100
AcDbLine
 10
-74
 20
-8.188003540039063
 11
-71
 21
-8.188003540039063
  0
LINE
  5
69a
100
AcDbEntity
  8
0
  6
CONTINUOUS
 62
     7
100
AcDbLine
 10
-76.23095230132061
 20
-9.000002800161369
 11
-74.00001397344508
 21
-8.188007625254855
  0
LINE
  5
69b
100
AcDbEntity
  8
0
  6
CONTINUOUS
 62
     7
100
AcDbLine
 10
-77
 20
-2.5
 11
-77
 21
-9
  0
LINE
  5
69c
100
AcDbEntity
  8
0
  6
CONTINUOUS
 62
     7
100
AcDbLine
 10
-77
 20
9
 11
-77
 21
2.5
  0
LINE
  5
69d
100
AcDbEntity
  8
0
  6
CONTINUOUS
 62
     7
100
AcDbLine
 10
-78.73205364427381
 20
10.00000330303336
 11
-77.00000284447674
 21
9.000003289572195
  0
LINE
  5
69e
100
AcDbEntity
  8
0
  6
CONTINUOUS
 62
     7
100
AcDbLine
 10
-78.7320556640625
 20
10
 11
-78.7320556640625
 21
5.267822265625
  0
LINE
  5
69f
100
AcDbEntity
  8
0
  6
CONTINUOUS
 62
     7
100
AcDbLine
 10
-68.83334350585938
 20
-7.50555419921875
 11
-62.16667175292969
 21
-7.50555419921875
  0
LINE
  5
6a0
100
AcDbEntity
  8
0
  6
CONTINUOUS
 62
     7
100
AcDbLine
 10
-60.00003139955831
 20
-11.25830730002897
 11
-62.16669555225931
 21
-15.01107962808964
  0
LINE
  5
6a1
100
AcDbEntity
  8
0
  6
CONTINUOUS
 62
     7
100
AcDbLine
 10
-68.83334350585938
 20
-15.0111083984375
 11
-62.16667175292969
 21
-15.0111083984375
  0
LINE
  5
6a2
100
AcDbEntity
  8
0
  6
CONTINUOUS
 62
     7
100
AcDbLine
 10
-71.00002413682864
 20
-11.25834478691792
 11
-68.83336761352229
 21
-15.0111039004797
  0
LINE
  5
6a3
100
AcDbEntity
  8
0
  6
CONTINUOUS
 62
     7
100
AcDbLine
 10
53.0025634765625
 20
5
 11
53.0025634765625
 21
-5
  0
LINE
  5
6a4
100
AcDbEntity
  8
0
  6
CONTINUOUS
 62
     7
100
AcDbLine
 10
54.0025634765625
 20
6
 11
54.0025634765625
 21
-6
  0
LINE
  5
6a5
100
AcDbEntity
  8
0
  6
CENTER
 62
     3
100
AcDbLine
 10
48.66000366210938
 20
0
 11
114.2131652832031
 21
0
  0
LINE
  5
6a6
100
AcDbEntity
  8
0
  6
CENTER
 62
     3
100
AcDbLine
 10
58.5025634765625
 20
4
 11
58.5025634765625
 21
-4
  0
LINE
  5
6a7
100
AcDbEntity
  8
0
  6
CONTINUOUS
 62
     7
100
AcDbLine
 10
54.00265019690056
 20
5.999854996560842
 11
53.00264916034367
 21
4.999853875710159
  0
LINE
  5
6a8
100
AcDbEntity
  8
0
  6
CONTINUOUS
 62
     7
100
AcDbLine
 10
54.0025634765625
 20
6
 11
62.5025634765625
 21
6
  0
LINE
  5
6a9
100
AcDbEntity
  8
0
  6
CONTINUOUS
 62
     7
100
AcDbLine
 10
62.5025634765625
 20
13
 11
62.5025634765625
 21
-13
  0
LINE
  5
6aa
100
AcDbEntity
  8
0
  6
CONTINUOUS
 62
     7
100
AcDbLine
 10
64.5025634765625
 20
15
 11
64.5025634765625
 21
-15
  0
LINE
  5
6ab
100
AcDbEntity
  8
0
  6
CONTINUOUS
 62
     7
100
AcDbLine
 10
62.50244112949502
 20
13.00012191908146
 11
64.5024432869026
 21
15.00012407648904
  0
LINE
  5
6ac
100
AcDbEntity
  8
0
  6
CONTINUOUS
 62
     7
100
AcDbLine
 10
53.00258484424577
 20
-4.999978883042353
 11
54.00256438590911
 21
-5.99995834041372
  0
LINE
  5
6ad
100
AcDbEntity
  8
0
  6
CONTINUOUS
 62
     7
100
AcDbLine
 10
54.0025634765625
 20
-6
 11
62.5025634765625
 21
-6
  0
LINE
  5
6ae
100
AcDbEntity
  8
0
  6
CONTINUOUS
 62
     7
100
AcDbLine
 10
62.50264073696957
 20
-13.0000841555052
 11
64.50264289437715
 21
-15.00008631291277
  0
LINE
  5
6af
100
AcDbEntity
  8
0
  6
CONTINUOUS
 62
     7
100
AcDbLine
 10
64.5025634765625
 20
-15
 11
98.5025634765625
 21
-15
  0
LINE
  5
6b0
100
AcDbEntity
  8
0
  6
CONTINUOUS
 62
     7
100
AcDbLine
 10
73.5025634765625
 20
15
 11
73.5025634765625
 21
-15
  0
LINE
  5
6b1
100
AcDbEntity
  8
0
  6
CENTER
 62
     3
100
AcDbLine
 10
81.5025634765625
 20
18.89999961853027
 11
81.5025634765625
 21
-18.89999961853027
  0
LINE
  5
6b2
100
AcDbEntity
  8
0
  6
CONTINUOUS
 62
     7
100
AcDbLine
 10
73.5025634765625
 20
-6
 11
89.5025634765625
 21
-6
  0
LINE
  5
6b3
100
AcDbEntity
  8
0
  6
CONTINUOUS
 62
     7
100
AcDbLine
 10
73.5025634765625
 20
6
 11
89.5025634765625
 21
6
  0
LINE
  5
6b4
100
AcDbEntity
  8
0
  6
CONTINUOUS
 62
     7
100
AcDbLine
 10
64.5025634765625
 20
15
 11
98.5025634765625
 21
15
  0
LINE
  5
6b5
100
AcDbEntity
  8
0
  6
CONTINUOUS
 62
     7
100
AcDbLine
 10
89.5025634765625
 20
15
 11
89.5025634765625
 21
-15
  0
LINE
  5
6b6
100
AcDbEntity
  8
0
  6
CONTINUOUS
 62
     7
100
AcDbLine
 10
100.5025684369848
 20
12.99987375843742
 11
98.50256627957721
 21
14.99987591584501
  0
LINE
  5
6b7
100
AcDbEntity
  8
0
  6
CONTINUOUS
 62
     7
100
AcDbLine
 10
98.5025634765625
 20
15
 11
98.5025634765625
 21
-15
  0
LINE
  5
6b8
100
AcDbEntity
  8
0
  6
CONTINUOUS
 62
     7
100
AcDbLine
 10
100.5025634765625
 20
13
 11
100.5025634765625
 21
-13
  0
LINE
  5
6b9
100
AcDbEntity
  8
0
  6
CONTINUOUS
 62
     7
100
AcDbLine
 10
100.5025634765625
 20
6
 11
109.0025634765625
 21
6
  0
LINE
  5
6ba
100
AcDbEntity
  8
0
  6
CONTINUOUS
 62
     7
100
AcDbLine
 10
110.0026701854775
 20
5.000037003767766
 11
109.0026690646268
 21
6.000038040324661
  0
LINE
  5
6bb
100
AcDbEntity
  8
0
  6
CONTINUOUS
 62
     7
100
AcDbLine
 10
109.0025634765625
 20
6
 11
109.0025634765625
 21
-6
  0
LINE
  5
6bc
100
AcDbEntity
  8
0
  6
CONTINUOUS
 62
     7
100
AcDbLine
 10
110.0025634765625
 20
5
 11
110.0025634765625
 21
-5
  0
LINE
  5
6bd
100
AcDbEntity
  8
0
  6
CONTINUOUS
 62
     7
100
AcDbLine
 10
110.0027295282363
 20
-5.000128715312627
 11
109.0027284073856
 21
-6.000129751869523
  0
LINE
  5
6be
100
AcDbEntity
  8
0
  6
CONTINUOUS
 62
     7
100
AcDbLine
 10
100.5025634765625
 20
-6
 11
109.0025634765625
 21
-6
  0
LINE
  5
6bf
100
AcDbEntity
  8
0
  6
CENTER
 62
     3
100
AcDbLine
 10
104.5025634765625
 20
4
 11
104.5025634765625
 21
-4
  0
LINE
  5
6c0
100
AcDbEntity
  8
0
  6
CONTINUOUS
 62
     7
100
AcDbLine
 10
98.50246917323824
 20
-14.99989749503144
 11
100.5024713306458
 21
-12.99989533762386
  0
LINE
  5
6c1
100
AcDbEntity
  8
0
  6
CONTINUOUS
 62
     7
100
AcDbLine
 10
-69.70579528808594
 20
-94.36827087402344
 11
-61.29423522949219
 21
-94.36827087402344
  0
LINE
  5
6c2
100
AcDbEntity
  8
0
  6
CENTER
 62
     3
100
AcDbLine
 10
-96.88945007324219
 20
-94.36827087402344
 11
18.56619262695313
 21
-94.36827087402344
  0
LINE
  5
6c3
100
AcDbEntity
  8
0
  6
CONTINUOUS
 62
     7
100
AcDbLine
 10
-59
 20
-80.36827087402344
 11
-42
 21
-80.36827087402344
  0
LINE
  5
6c4
100
AcDbEntity
  8
0
  6
CONTINUOUS
 62
     7
100
AcDbLine
 10
-59.99994833951629
 20
-81.36841222505355
 11
-58.99994409980054
 21
-80.36841430737172
  0
LINE
  5
6c5
100
AcDbEntity
  8
0
  6
CONTINUOUS
 62
     7
100
AcDbLine
 10
-60
 20
-81.3682861328125
 11
-60
 21
-107.3682556152344
  0
LINE
  5
6c6
100
AcDbEntity
  8
0
  6
CONTINUOUS
 62
     7
100
AcDbLine
 10
-59
 20
-80.36827087402344
 11
-59
 21
-108.3682556152344
  0
LINE
  5
6c7
100
AcDbEntity
  8
0
  6
CONTINUOUS
 62
     7
100
AcDbLine
 10
-60.00003790004901
 20
-83.10993578571799
 11
-61.29427314696312
 21
-80.86825462135052
  0
LINE
  5
6c8
100
AcDbEntity
  8
0
  6
CONTINUOUS
 62
     7
100
AcDbLine
 10
-69.70579528808594
 20
-80.86827087402344
 11
-61.29425048828125
 21
-80.86827087402344
  0
LINE
  5
6c9
100
AcDbEntity
  8
0
  6
CONTINUOUS
 62
     7
100
AcDbLine
 10
-70.9999712486501
 20
-83.10989424694255
 11
-69.70574363113062
 21
-80.86822629707396
  0
LINE
  5
6ca
100
AcDbEntity
  8
0
  6
CONTINUOUS
 62
     7
100
AcDbLine
 10
-71
 20
-83.10993957519531
 11
-71
 21
-105.6266174316406
  0
LINE
  5
6cb
100
AcDbEntity
  8
0
  6
CONTINUOUS
 62
     7
100
AcDbLine
 10
-74
 20
-85.36827087402344
 11
-71
 21
-85.36827087402344
  0
LINE
  5
6cc
100
AcDbEntity
  8
0
  6
CONTINUOUS
 62
     7
100
AcDbLine
 10
-74
 20
-86.18026733398438
 11
-71
 21
-86.18026733398438
  0
LINE
  5
6cd
100
AcDbEntity
  8
0
  6
CONTINUOUS
 62
     7
100
AcDbLine
 10
-74
 20
-85.36827087402344
 11
-74
 21
-103.3682556152344
  0
LWPOLYLINE
  5
6ce
100
AcDbEntity
  8
0
  6
CONTINUOUS
 62
     7
100
AcDbPolyline
 90
    10
 70
     0
 10
-98.37163543377106
 20
-82.25690585047073
 10
-97.76795711512305
 20
-87.18982065096277
 10
-100.1765616099932
 20
-88.08905609693427
 10
-95.06782127332163
 20
-88.67281304333008
 10
-97.47642576819173
 20
-89.57204848930158
 10
-96.26906913089572
 20
-99.43787809028564
 10
-98.67767362576582
 20
-100.3371135362571
 10
-93.56893328909429
 20
-100.920870482653
 10
-95.97753778396439
 20
-101.8201059286245
 10
-95.37385946531639
 20
-106.7530207291165
  0
LINE
  5
6cf
100
AcDbEntity
  8
0
  6
CONTINUOUS
 62
     7
100
AcDbLine
 10
-98.11328125
 20
-84.36827087402344
 11
-87
 21
-84.36827087402344
  0
LINE
  5
6d0
100
AcDbEntity
  8
0
  6
CONTINUOUS
 62
     7
100
AcDbLine
 10
-87.00000326871839
 20
-84.36827332988024
 11
-85.00000609398207
 21
-85.86827709689108
  0
LINE
  5
6d1
100
AcDbEntity
  8
0
  6
CONTINUOUS
 62
     7
100
AcDbLine
 10
-85
 20
-85.86827087402344
 11
-74
 21
-85.86827087402344
  0
LINE
  5
6d2
100
AcDbEntity
  8
0
  6
CONTINUOUS
 62
     7
100
AcDbLine
 10
-95.66574096679688
 20
-104.3682556152344
 11
-86.99998474121094
 21
-104.3682556152344
  0
LINE
  5
6d3
100
AcDbEntity
  8
0
  6
CONTINUOUS
 62
     7
100
AcDbLine
 10
-86.99990374810119
 20
-104.3684026956577
 11
-84.99990657336485
 21
-102.8683989286468
  0
LINE
  5
6d4
100
AcDbEntity
  8
0
  6
CONTINUOUS
 62
     7
100
AcDbLine
 10
-85
 20
-102.8682556152344
 11
-74
 21
-102.8682556152344
  0
LINE
  5
6d5
100
AcDbEntity
  8
0
  6
CONTINUOUS
 62
     7
100
AcDbLine
 10
-78.7320556640625
 20
-85.86827087402344
 11
-78.7320556640625
 21
-102.8682556152344
  0
LINE
  5
6d6
100
AcDbEntity
  8
0
  6
CONTINUOUS
 62
     7
100
AcDbLine
 10
-77
 20
-85.86827087402344
 11
-77
 21
-102.8682556152344
  0
LINE
  5
6d7
100
AcDbEntity
  8
0
  6
CONTINUOUS
 62
     7
100
AcDbLine
 10
-74.85723821470701
 20
-85.86826370773247
 11
-74.00004973783153
 21
-86.180254809643
  0
LINE
  5
6d8
100
AcDbEntity
  8
0
  6
CONTINUOUS
 62
     7
100
AcDbLine
 10
-74.85723022110395
 20
-102.8683208226192
 11
-74.00000589779992
 21
-102.5563166736752
  0
LINE
  5
6d9
100
AcDbEntity
  8
0
  6
CONTINUOUS
 62
     7
100
AcDbLine
 10
-74
 20
-102.5562744140625
 11
-71
 21
-102.5562744140625
  0
LINE
  5
6da
100
AcDbEntity
  8
0
  6
CONTINUOUS
 62
     7
100
AcDbLine
 10
-74
 20
-103.3682556152344
 11
-71
 21
-103.3682556152344
  0
LINE
  5
6db
100
AcDbEntity
  8
0
  6
CONTINUOUS
 62
     7
100
AcDbLine
 10
-71.00004208141128
 20
-105.6265680509166
 11
-69.70580683449717
 21
-107.868249215284
  0
LINE
  5
6dc
100
AcDbEntity
  8
0
  6
CONTINUOUS
 62
     7
100
AcDbLine
 10
-69.70579528808594
 20
-107.8682556152344
 11
-61.29423522949219
 21
-107.8682556152344
  0
LINE
  5
6dd
100
AcDbEntity
  8
0
  6
CONTINUOUS
 62
     7
100
AcDbLine
 10
-60.00010628197054
 20
-105.6265386379982
 11
-61.29432627009538
 21
-107.8681933733679
  0
LINE
  5
6de
100
AcDbEntity
  8
0
  6
CONTINUOUS
 62
     7
100
AcDbLine
 10
-58.99998270608728
 20
-108.3683433586593
 11
-59.99998062376911
 21
-107.3683391189435
  0
LINE
  5
6df
100
AcDbEntity
  8
0
  6
CONTINUOUS
 62
     7
100
AcDbLine
 10
-59
 20
-108.3682556152344
 11
-42
 21
-108.3682556152344
  0
LINE
  5
6e0
100
AcDbEntity
  8
0
  6
CONTINUOUS
 62
     7
100
AcDbLine
 10
-40.000021059102
 20
-109.3682557300646
 11
-42.00003537608643
 21
-108.3682485715724
  0
LINE
  5
6e1
100
AcDbEntity
  8
0
  6
CONTINUOUS
 62
     7
100
AcDbLine
 10
-42
 20
-108.3682556152344
 11
-42
 21
-80.36827087402344
  0
LINE
  5
6e2
100
AcDbEntity
  8
0
  6
CONTINUOUS
 62
     7
100
AcDbLine
 10
-40
 20
-77.36827087402344
 11
-40
 21
-111.3682556152344
  0
LINE
  5
6e3
100
AcDbEntity
  8
0
  6
CONTINUOUS
 62
     7
100
AcDbLine
 10
-40
 20
-111.3682556152344
 11
15
 21
-111.3682556152344
  0
LINE
  5
6e4
100
AcDbEntity
  8
0
  6
CONTINUOUS
 62
     7
100
AcDbLine
 10
-40.00004528747143
 20
-101.3683265181186
 11
-28.0000501405605
 21
-111.3683074218491
  0
LINE
  5
6e5
100
AcDbEntity
  8
0
  6
CONTINUOUS
 62
     7
100
AcDbLine
 10
-27
 20
-102.3682556152344
 11
15
 21
-102.3682556152344
  0
LINE
  5
6e6
100
AcDbEntity
  8
0
  6
CONTINUOUS
 62
     7
100
AcDbLine
 10
-27
 20
-86.36827087402344
 11
-27
 21
-102.3682556152344
  0
LINE
  5
6e7
100
AcDbEntity
  8
0
  6
CONTINUOUS
 62
     7
100
AcDbLine
 10
-39.99996732059088
 20
-79.36825635583874
 11
-41.99996798969948
 21
-80.36825669039304
  0
LINE
  5
6e8
100
AcDbEntity
  8
0
  6
CONTINUOUS
 62
     7
100
AcDbLine
 10
-40
 20
-77.36827087402344
 11
15
 21
-77.36827087402344
  0
LINE
  5
6e9
100
AcDbEntity
  8
0
  6
CONTINUOUS
 62
     7
100
AcDbLine
 10
-40.00010629434276
 20
-87.36816138239512
 11
-28.00010698057092
 21
-77.36816164390049
  0
LINE
  5
6ea
100
AcDbEntity
  8
0
  6
CONTINUOUS
 62
     7
100
AcDbLine
 10
-27
 20
-86.36827087402344
 11
15
 21
-86.36827087402344
  0
LINE
  5
6eb
100
AcDbEntity
  8
0
  6
CONTINUOUS
 62
     7
100
AcDbLine
 10
15
 20
-77.36827087402344
 11
15
 21
-86.36827087402344
  0
LINE
  5
6ec
100
AcDbEntity
  8
0
  6
CONTINUOUS
 62
     7
100
AcDbLine
 10
13.0000275101408
 20
-75.3683108375534
 11
15.00001078576025
 21
-77.36829411317285
  0
LINE
  5
6ed
100
AcDbEntity
  8
0
  6
CONTINUOUS
 62
     7
100
AcDbLine
 10
-13
 20
-75.36827087402344
 11
13
 21
-75.36827087402344
  0
LINE
  5
6ee
100
AcDbEntity
  8
0
  6
CONTINUOUS
 62
     7
100
AcDbLine
 10
6
 20
-75.36827087402344
 11
6
 21
-66.86827087402344
  0
LINE
  5
6ef
100
AcDbEntity
  8
0
  6
CENTER
 62
     3
100
AcDbLine
 10
0
 20
-62.79557800292969
 11
0
 21
-125.3771667480469
  0
LINE
  5
6f0
100
AcDbEntity
  8
0
  6
CONTINUOUS
 62
     7
100
AcDbLine
 10
-5
 20
-65.86827087402344
 11
5
 21
-65.86827087402344
  0
LINE
  5
6f1
100
AcDbEntity
  8
0
  6
CONTINUOUS
 62
     7
100
AcDbLine
 10
4.999983578107145
 20
-65.8682742480855
 11
5.999984530370252
 21
-66.86827545322996
  0
LINE
  5
6f2
100
AcDbEntity
  8
0
  6
CONTINUOUS
 62
     7
100
AcDbLine
 10
-6
 20
-66.86827087402344
 11
6
 21
-66.86827087402344
  0
LINE
  5
6f3
100
AcDbEntity
  8
0
  6
CENTER
 62
     3
100
AcDbLine
 10
-7.626129150390625
 20
-71.36827087402344
 11
7.380645751953125
 21
-71.36827087402344
  0
LINE
  5
6f4
100
AcDbEntity
  8
0
  6
CONTINUOUS
 62
     7
100
AcDbLine
 10
-4.999905668527202
 20
-65.86836241929819
 11
-5.999904091979463
 21
-66.8683607584569
  0
LINE
  5
6f5
100
AcDbEntity
  8
0
  6
CONTINUOUS
 62
     7
100
AcDbLine
 10
-6
 20
-75.36827087402344
 11
-6
 21
-66.86827087402344
  0
LINE
  5
6f6
100
AcDbEntity
  8
0
  6
CONTINUOUS
 62
     7
100
AcDbLine
 10
-15.00011058949752
 20
-77.36811878228303
 11
-13.00010843208993
 21
-75.36811662487546
  0
LINE
  5
6f7
100
AcDbEntity
  8
0
  6
CONTINUOUS
 62
     7
100
AcDbLine
 10
-6
 20
-102.3682556152344
 11
-6
 21
-86.36827087402344
  0
LINE
  5
6f8
100
AcDbEntity
  8
0
  6
CONTINUOUS
 62
     7
100
AcDbLine
 10
6
 20
-102.3682556152344
 11
6
 21
-86.36827087402344
  0
LINE
  5
6f9
100
AcDbEntity
  8
0
  6
CONTINUOUS
 62
     7
100
AcDbLine
 10
15
 20
-102.3682556152344
 11
15
 21
-111.3682556152344
  0
LINE
  5
6fa
100
AcDbEntity
  8
0
  6
CONTINUOUS
 62
     7
100
AcDbLine
 10
14.99980038869248
 20
-111.3681096024407
 11
12.9997982312849
 21
-113.3681117598483
  0
LINE
  5
6fb
100
AcDbEntity
  8
0
  6
CONTINUOUS
 62
     7
100
AcDbLine
 10
-13
 20
-113.3682556152344
 11
12.99996948242188
 21
-113.3682556152344
  0
LINE
  5
6fc
100
AcDbEntity
  8
0
  6
CONTINUOUS
 62
     7
100
AcDbLine
 10
6
 20
-121.8682556152344
 11
6
 21
-113.3682556152344
  0
LINE
  5
6fd
100
AcDbEntity
  8
0
  6
CENTER
 62
     3
100
AcDbLine
 10
-7.348220825195313
 20
-117.3682556152344
 11
7.93646240234375
 21
-117.3682556152344
  0
LINE
  5
6fe
100
AcDbEntity
  8
0
  6
CONTINUOUS
 62
     7
100
AcDbLine
 10
-12.99999783875944
 20
-113.36826820895
 11
-14.99999999616702
 21
-111.3682660515424
  0
LINE
  5
6ff
100
AcDbEntity
  8
0
  6
CONTINUOUS
 62
     7
100
AcDbLine
 10
-6
 20
-121.8682556152344
 11
-6
 21
-113.3682556152344
  0
LINE
  5
700
100
AcDbEntity
  8
0
  6
CONTINUOUS
 62
     7
100
AcDbLine
 10
-6.000011608585751
 20
-121.8682609406609
 11
-5.000010572028856
 21
-122.8682620615116
  0
LINE
  5
701
100
AcDbEntity
  8
0
  6
CONTINUOUS
 62
     7
100
AcDbLine
 10
-6
 20
-121.8682556152344
 11
6
 21
-121.8682556152344
  0
LINE
  5
702
100
AcDbEntity
  8
0
  6
CONTINUOUS
 62
     7
100
AcDbLine
 10
-5
 20
-122.8682556152344
 11
5
 21
-122.8682556152344
  0
LINE
  5
703
100
AcDbEntity
  8
0
  6
CONTINUOUS
 62
     7
100
AcDbLine
 10
5.000118900529891
 20
-122.8683703789177
 11
6.000114626583738
 21
-121.8683747371572
  0
CIRCLE
  5
704
100
AcDbEntity
  8
0
  6
CONTINUOUS
 62
     7
100
AcDbCircle
 10
0
 20
0
 40
6
  0
CIRCLE
  5
705
100
AcDbEntity
  8
0
  6
CONTINUOUS
 62
     7
100
AcDbCircle
 10
0
 20
0
 40
13
  0
CIRCLE
  5
706
100
AcDbEntity
  8
0
  6
CONTINUOUS
 62
     7
100
AcDbCircle
 10
0
 20
0
 40
15
  0
ARC
  5
707
100
AcDbEntity
  8
0
  6
CONTINUOUS
 62
     7
100
AcDbCircle
 10
-66.66668701171875
 20
11.25833129882813
 40
4.33333683013916
100
AcDbArc
 50
179.9999813306654
 51
239.9999146984265
  0
ARC
  5
708
100
AcDbEntity
  8
0
  6
CONTINUOUS
 62
     7
100
AcDbCircle
 10
-74.0833740234375
 20
0
 40
14.08334922790527
100
AcDbArc
 50
327.7958083275523
 51
32.20413703093502
  0
ARC
  5
709
100
AcDbEntity
  8
0
  6
CONTINUOUS
 62
     7
100
AcDbCircle
 10
-64.33334350585938
 20
11.25833129882813
 40
4.33333683013916
100
AcDbArc
 50
300.0000666322404
 51
360
  0
ARC
  5
70a
100
AcDbEntity
  8
0
  6
CONTINUOUS
 62
     7
100
AcDbCircle
 10
-79.0625
 20
0
 40
7.9375
100
AcDbArc
 50
138.4201219458581
 51
221.5798607512985
  0
ARC
  5
70b
100
AcDbEntity
  8
0
  6
CONTINUOUS
 62
     7
100
AcDbCircle
 10
-56.91665649414063
 20
0
 40
14.08334922790527
100
AcDbArc
 50
147.7958269968863
 51
212.2041557002704
  0
ARC
  5
70c
100
AcDbEntity
  8
0
  6
CONTINUOUS
 62
     7
100
AcDbCircle
 10
-66.66668701171875
 20
-11.25833129882813
 40
4.333333015441895
100
AcDbArc
 50
120.0000716411959
 51
179.9999640278213
  0
ARC
  5
70d
100
AcDbEntity
  8
0
  6
CONTINUOUS
 62
     7
100
AcDbCircle
 10
-64.33334350585938
 20
-11.25833129882813
 40
4.333333015441895
100
AcDbArc
 50
0
 51
59.99989238662542
  0
CIRCLE
  5
70e
100
AcDbEntity
  8
0
  6
CONTINUOUS
 62
     7
100
AcDbCircle
 10
58.5025634765625
 20
0
 40
1.5
  0
CIRCLE
  5
70f
100
AcDbEntity
  8
0
  6
CONTINUOUS
 62
     7
100
AcDbCircle
 10
104.5025634765625
 20
0
 40
1.5
  0
ARC
  5
710
100
AcDbEntity
  8
0
  6
CONTINUOUS
 62
     7
100
AcDbCircle
 10
-78.2490234375
 20
-87.61827087402344
 40
18.2490119934082
100
AcDbArc
 50
338.291590977929
 51
21.70840902207176
  0
ARC
  5
711
100
AcDbEntity
  8
0
  6
CONTINUOUS
 62
     7
100
AcDbCircle
 10
-52.7503662109375
 20
-87.61827087402344
 40
18.24961280822754
100
AcDbArc
 50
158.2923660907135
 51
201.7076166064432
  0
ARC
  5
712
100
AcDbEntity
  8
0
  6
CONTINUOUS
 62
     7
100
AcDbCircle
 10
-52.7503662109375
 20
-101.1182556152344
 40
18.24961280822754
100
AcDbArc
 50
158.2923660907135
 51
201.7076166064432
  0
ARC
  5
713
100
AcDbEntity
  8
0
  6
CONTINUOUS
 62
     7
100
AcDbCircle
 10
-78.24911499023438
 20
-101.1182861328125
 40
18.24911117553711
100
AcDbArc
 50
338.2917771005838
 51
21.70828437111938
  0
MTEXT
  5
714
100
AcDbEntity
  8
0
  6
CONTINUOUS
 62
     7
100
AcDbMText
 10
-29.44924814276766
 20
-8.281738103230786
 40
0.5
 41
24
 71
     7
 72
     1
  1
{\W0.843764;ＢＮ－６１０５－６３－Ｙ}
  0
MTEXT
  5
715
100
AcDbEntity
  8
0
  6
CONTINUOUS
 62
     7
100
AcDbMText
 10
-52.50355945527554
 20
-102.1999969482422
 40
0.5
 41
24
 71
     7
 72
     1
  1
{\W0.843764;ＢＮ－６１０５－６３－Ｙ}
  0
MTEXT
  5
716
100
AcDbEntity
  8
0
  6
CONTINUOUS
 62
     7
100
AcDbMText
 10
66.14643444120884
 20
-11.09999942779541
 40
0.5
 41
24
 71
     7
 72
     1
  1
{\W0.843764;ＢＮ－６１０５－６３－Ｙ}
  0
ENDBLK
  8
0
  5
717
100
AcDbEntity
100
AcDbBlockEnd
  0
BLOCK
  8
0
  5
718
100
AcDbEntity
100
AcDbBlockBegin
  2
KOZU0008
 70
    64
 10
0
 20
0
  0
POINT
  5
719
100
AcDbEntity
  8
0
  6
CONTINUOUS
 62
     7
100
AcDbPoint
 10
0
 20
0
  0
LINE
  5
71a
100
AcDbEntity
  8
0
  6
CENTER
 62
     3
100
AcDbLine
 10
-96.88957977294922
 20
0
 11
18.47724914550781
 21
0
  0
LINE
  5
71b
100
AcDbEntity
  8
0
  6
CENTER
 62
     3
100
AcDbLine
 10
0
 20
15.62563188816228
 11
0
 21
-16.25698318257773
  0
LINE
  5
71c
100
AcDbEntity
  8
0
  6
CONTINUOUS
 62
     7
100
AcDbLine
 10
7
 20
14
 11
7
 21
11.48910522460938
  0
LINE
  5
71d
100
AcDbEntity
  8
0
  6
CONTINUOUS
 62
     7
100
AcDbLine
 10
6.999895018843278
 20
13.99994661321981
 11
14.99989319605506
 21
5.999949110357407
  0
LINE
  5
71e
100
AcDbEntity
  8
0
  6
CONTINUOUS
 62
     7
100
AcDbLine
 10
15
 20
6
 11
15
 21
-6
  0
LINE
  5
71f
100
AcDbEntity
  8
0
  6
CONTINUOUS
 62
     7
100
AcDbLine
 10
7.000063606232489
 20
-14.00006125265487
 11
15.00007257303795
 21
-6.000052960199697
  0
LINE
  5
720
100
AcDbEntity
  8
0
  6
CONTINUOUS
 62
     7
100
AcDbLine
 10
7
 20
-11.4891357421875
 11
7
 21
-14
  0
LINE
  5
721
100
AcDbEntity
  8
0
  6
CONTINUOUS
 62
     7
100
AcDbLine
 10
-27
 20
-11.4891357421875
 11
7
 21
-11.4891357421875
  0
LINE
  5
722
100
AcDbEntity
  8
0
  6
CONTINUOUS
 62
     7
100
AcDbLine
 10
-1.349496989433888
 20
-5.846256216814598
 11
7.000007771485774
 21
-11.48910693216624
  0
LINE
  5
723
100
AcDbEntity
  8
0
  6
CONTINUOUS
 62
     7
100
AcDbLine
 10
-27.00001718917205
 20
-11.4891315256141
 11
-4.921287079706483
 21
3.432349635207573
  0
LINE
  5
724
100
AcDbEntity
  8
0
  6
CONTINUOUS
 62
     7
100
AcDbLine
 10
-1.349524497058145
 20
5.846256043034261
 11
6.99998658503937
 21
11.48911103043125
  0
LINE
  5
725
100
AcDbEntity
  8
0
  6
CONTINUOUS
 62
     7
100
AcDbLine
 10
-59
 20
14
 11
7
 21
14
  0
LINE
  5
726
100
AcDbEntity
  8
0
  6
CONTINUOUS
 62
     7
100
AcDbLine
 10
-27
 20
11.48910522460938
 11
7
 21
11.48910522460938
  0
LINE
  5
727
100
AcDbEntity
  8
0
  6
CONTINUOUS
 62
     7
100
AcDbLine
 10
-26.99998336036993
 20
11.48912707978841
 11
-4.921265893260079
 21
-3.432345536942562
  0
LINE
  5
728
100
AcDbEntity
  8
0
  6
CONTINUOUS
 62
     7
100
AcDbLine
 10
-27
 20
11.48910522460938
 11
-27
 21
-11.4891357421875
  0
LINE
  5
729
100
AcDbEntity
  8
0
  6
CONTINUOUS
 62
     7
100
AcDbLine
 10
-59
 20
-14
 11
7
 21
-14
  0
LINE
  5
72a
100
AcDbEntity
  8
0
  6
CONTINUOUS
 62
     7
100
AcDbLine
 10
-59
 20
14
 11
-59
 21
-14
  0
LINE
  5
72b
100
AcDbEntity
  8
0
  6
CONTINUOUS
 62
     7
100
AcDbLine
 10
-59.00007148331832
 20
-14.00005922945211
 11
-60.0000626575257
 21
-13.00006173325342
  0
LINE
  5
72c
100
AcDbEntity
  8
0
  6
CONTINUOUS
 62
     7
100
AcDbLine
 10
-60
 20
12.99998474121094
 11
-60
 21
-13
  0
LINE
  5
72d
100
AcDbEntity
  8
0
  6
CONTINUOUS
 62
     7
100
AcDbLine
 10
-60.00004251128815
 20
12.99995282611981
 11
-59.00003692286897
 21
13.99995209249653
  0
LINE
  5
72e
100
AcDbEntity
  8
0
  6
CONTINUOUS
 62
     7
100
AcDbLine
 10
-59.99996495293294
 20
11.25836768717173
 11
-62.1666214762393
 21
15.01112680073351
  0
LINE
  5
72f
100
AcDbEntity
  8
0
  6
CONTINUOUS
 62
     7
100
AcDbLine
 10
-68.83334350585938
 20
15.0111083984375
 11
-62.16667175292969
 21
15.0111083984375
  0
LINE
  5
730
100
AcDbEntity
  8
0
  6
CONTINUOUS
 62
     7
100
AcDbLine
 10
-71.00003483265883
 20
11.25828048483038
 11
-68.83336305056319
 21
15.01106602738995
  0
LINE
  5
731
100
AcDbEntity
  8
0
  6
CONTINUOUS
 62
     7
100
AcDbLine
 10
-68.83334350585938
 20
7.50555419921875
 11
-62.16667175292969
 21
7.50555419921875
  0
LINE
  5
732
100
AcDbEntity
  8
0
  6
CENTER
 62
     3
100
AcDbLine
 10
53.17113494873047
 20
0
 11
90.37574768066406
 21
0
  0
LINE
  5
733
100
AcDbEntity
  8
0
  6
CENTER
 62
     3
100
AcDbLine
 10
71.5025634765625
 20
17.85000038146973
 11
71.5025634765625
 21
-17.14999961853027
  0
LINE
  5
734
100
AcDbEntity
  8
0
  6
DASHED
 62
     7
100
AcDbLine
 10
63.5025634765625
 20
6
 11
79.5025634765625
 21
6
  0
LINE
  5
735
100
AcDbEntity
  8
0
  6
CONTINUOUS
 62
     7
100
AcDbLine
 10
63.5025634765625
 20
11.48910522460938
 11
63.5025634765625
 21
-11.4891357421875
  0
LINE
  5
736
100
AcDbEntity
  8
0
  6
CONTINUOUS
 62
     7
100
AcDbLine
 10
79.5025634765625
 20
11.48912048339844
 11
79.5025634765625
 21
-11.4891357421875
  0
LINE
  5
737
100
AcDbEntity
  8
0
  6
DASHED
 62
     7
100
AcDbLine
 10
63.5025634765625
 20
-6
 11
79.5025634765625
 21
-6
  0
LINE
  5
738
100
AcDbEntity
  8
0
  6
CONTINUOUS
 62
     7
100
AcDbLine
 10
-60.00002976609308
 20
-11.25836550593966
 11
-62.16668628939944
 21
-15.01112461950143
  0
LINE
  5
739
100
AcDbEntity
  8
0
  6
CONTINUOUS
 62
     7
100
AcDbLine
 10
-68.83334350585938
 20
-7.50555419921875
 11
-62.16667175292969
 21
-7.50555419921875
  0
LINE
  5
73a
100
AcDbEntity
  8
0
  6
CONTINUOUS
 62
     7
100
AcDbLine
 10
-71
 20
11.25833129882813
 11
-71
 21
-11.25833129882813
  0
LINE
  5
73b
100
AcDbEntity
  8
0
  6
CONTINUOUS
 62
     7
100
AcDbLine
 10
-70.99997890822769
 20
-11.25830105484049
 11
-68.83332238492132
 21
-15.01106016840227
  0
LINE
  5
73c
100
AcDbEntity
  8
0
  6
CONTINUOUS
 62
     7
100
AcDbLine
 10
-68.83334350585938
 20
-15.0111083984375
 11
-62.16667175292969
 21
-15.0111083984375
  0
LINE
  5
73d
100
AcDbEntity
  8
0
  6
CONTINUOUS
 62
     7
100
AcDbLine
 10
-77
 20
-9
 11
-71
 21
-9
  0
LINE
  5
73e
100
AcDbEntity
  8
0
  6
CONTINUOUS
 62
     7
100
AcDbLine
 10
-74
 20
9
 11
-74
 21
-9
  0
LINE
  5
73f
100
AcDbEntity
  8
0
  6
CONTINUOUS
 62
     7
100
AcDbLine
 10
-74
 20
-8.188003540039063
 11
-71
 21
-8.188003540039063
  0
LINE
  5
740
100
AcDbEntity
  8
0
  6
CONTINUOUS
 62
     7
100
AcDbLine
 10
-76.23095360602396
 20
-8.999999215518514
 11
-74.00001527814843
 21
-8.188004040612
  0
LINE
  5
741
100
AcDbEntity
  8
0
  6
CONTINUOUS
 62
     7
100
AcDbLine
 10
-78.73208409338147
 20
-9.999965822421622
 11
-77.00003329358441
 21
-8.999965808960447
  0
LINE
  5
742
100
AcDbEntity
  8
0
  6
CONTINUOUS
 62
     7
100
AcDbLine
 10
-77
 20
-2.5
 11
-77
 21
-9
  0
LINE
  5
743
100
AcDbEntity
  8
0
  6
CONTINUOUS
 62
     7
100
AcDbLine
 10
-78.7320556640625
 20
-5.267837524414063
 11
-78.7320556640625
 21
-10
  0
LINE
  5
744
100
AcDbEntity
  8
0
  6
CONTINUOUS
 62
     7
100
AcDbLine
 10
-85
 20
-5.267837524414063
 11
-77
 21
-5.267837524414063
  0
LINE
  5
745
100
AcDbEntity
  8
0
  6
CONTINUOUS
 62
     7
100
AcDbLine
 10
-95.66574096679688
 20
-10
 11
-78.7320556640625
 21
-10
  0
LWPOLYLINE
  5
746
100
AcDbEntity
  8
0
  6
CONTINUOUS
 62
     7
100
AcDbPolyline
 90
    10
 70
     0
 10
-98.37176475557693
 20
12.11146110673582
 10
-97.76808645140943
 20
7.178546424570323
 10
-100.1766909462795
 20
6.279310978598822
 10
-95.06795060960802
 20
5.695554032203005
 10
-97.47655510447812
 20
4.796318586231505
 10
-96.26919849614312
 20
-5.069510778099494
 10
-98.67780299101322
 20
-5.968746224070996
 10
-93.56906265434169
 20
-6.552503170466812
 10
-95.9776671492118
 20
-7.451738616438314
 10
-95.37398884504431
 20
-12.38465329860381
  0
LINE
  5
747
100
AcDbEntity
  8
0
  6
CONTINUOUS
 62
     7
100
AcDbLine
 10
-85
 20
5.267822265625
 11
-85
 21
-5.267837524414063
  0
LINE
  5
748
100
AcDbEntity
  8
0
  6
CONTINUOUS
 62
     7
100
AcDbLine
 10
-74.00007018062216
 20
-2.500042215483163
 11
-85.00006597387808
 21
5.267782058024274
  0
LINE
  5
749
100
AcDbEntity
  8
0
  6
CONTINUOUS
 62
     7
100
AcDbLine
 10
-85
 20
5.267822265625
 11
-77
 21
5.267822265625
  0
LINE
  5
74a
100
AcDbEntity
  8
0
  6
CONTINUOUS
 62
     7
100
AcDbLine
 10
-78.7320556640625
 20
10
 11
-78.7320556640625
 21
5.267822265625
  0
LINE
  5
74b
100
AcDbEntity
  8
0
  6
CONTINUOUS
 62
     7
100
AcDbLine
 10
-77
 20
9
 11
-77
 21
2.5
  0
LINE
  5
74c
100
AcDbEntity
  8
0
  6
CONTINUOUS
 62
     7
100
AcDbLine
 10
-77
 20
2.5
 11
-74
 21
2.5
  0
LINE
  5
74d
100
AcDbEntity
  8
0
  6
CONTINUOUS
 62
     7
100
AcDbLine
 10
-74.0000258021345
 20
2.499966144985258
 11
-85.00002159539044
 21
-5.267858128522178
  0
LINE
  5
74e
100
AcDbEntity
  8
0
  6
CONTINUOUS
 62
     7
100
AcDbLine
 10
-77
 20
-2.5
 11
-74
 21
-2.5
  0
LINE
  5
74f
100
AcDbEntity
  8
0
  6
CONTINUOUS
 62
     7
100
AcDbLine
 10
-76.23097641200175
 20
9.00002578403814
 11
-74.00003091484051
 21
8.188027999724934
  0
LINE
  5
750
100
AcDbEntity
  8
0
  6
CONTINUOUS
 62
     7
100
AcDbLine
 10
-77
 20
9
 11
-71
 21
9
  0
LINE
  5
751
100
AcDbEntity
  8
0
  6
CONTINUOUS
 62
     7
100
AcDbLine
 10
-74
 20
8.18798828125
 11
-71
 21
8.18798828125
  0
LINE
  5
752
100
AcDbEntity
  8
0
  6
CONTINUOUS
 62
     7
100
AcDbLine
 10
-78.732063860808
 20
10.00004664263279
 11
-77.00001306101093
 21
9.000046629171617
  0
LINE
  5
753
100
AcDbEntity
  8
0
  6
CONTINUOUS
 62
     7
100
AcDbLine
 10
-98.11328125
 20
10
 11
-78.7320556640625
 21
10
  0
LINE
  5
754
100
AcDbEntity
  8
0
  6
CONTINUOUS
 62
     7
100
AcDbLine
 10
-69.70579528808594
 20
-79.36827087402344
 11
-61.29423522949219
 21
-79.36827087402344
  0
LWPOLYLINE
  5
755
100
AcDbEntity
  8
0
  6
CONTINUOUS
 62
     7
100
AcDbPolyline
 90
    10
 70
     0
 10
-98.3718527581934
 20
-67.25685593016088
 10
-97.76817397616878
 20
-72.18977451710209
 10
-100.1767784710389
 20
-73.08900996307359
 10
-95.06803813436737
 20
-73.67276690946942
 10
-97.47664262923748
 20
-74.57200235544092
 10
-96.26928506518826
 20
-84.43783952932334
 10
-98.67788956005836
 20
-85.33707497529484
 10
-93.56914922338683
 20
-85.92083192169065
 10
-95.97775371825694
 20
-86.82006736766215
 10
-95.37407493623233
 20
-91.75298595460336
  0
LINE
  5
756
100
AcDbEntity
  8
0
  6
CONTINUOUS
 62
     7
100
AcDbLine
 10
-98.11328125
 20
-69.36827087402344
 11
-87
 21
-69.36827087402344
  0
LINE
  5
757
100
AcDbEntity
  8
0
  6
CONTINUOUS
 62
     7
100
AcDbLine
 10
-87.00005283613675
 20
-69.36837708952591
 11
-85.00005566140042
 21
-70.86838085653675
  0
LINE
  5
758
100
AcDbEntity
  8
0
  6
CONTINUOUS
 62
     7
100
AcDbLine
 10
-85
 20
-70.86827087402344
 11
-74
 21
-70.86827087402344
  0
LINE
  5
759
100
AcDbEntity
  8
0
  6
CONTINUOUS
 62
     7
100
AcDbLine
 10
-95.66574096679688
 20
-89.36827087402344
 11
-86.99998474121094
 21
-89.36827087402344
  0
LINE
  5
75a
100
AcDbEntity
  8
0
  6
CONTINUOUS
 62
     7
100
AcDbLine
 10
-86.99995641494603
 20
-89.36830656535921
 11
-84.99995924020971
 21
-87.86830279834834
  0
LINE
  5
75b
100
AcDbEntity
  8
0
  6
CONTINUOUS
 62
     7
100
AcDbLine
 10
-85
 20
-87.86827087402344
 11
-74
 21
-87.86827087402344
  0
LINE
  5
75c
100
AcDbEntity
  8
0
  6
CONTINUOUS
 62
     7
100
AcDbLine
 10
-78.7320556640625
 20
-70.86827087402344
 11
-78.7320556640625
 21
-87.86827087402344
  0
LINE
  5
75d
100
AcDbEntity
  8
0
  6
CONTINUOUS
 62
     7
100
AcDbLine
 10
-77
 20
-70.86827087402344
 11
-77
 21
-87.86827087402344
  0
LINE
  5
75e
100
AcDbEntity
  8
0
  6
CENTER
 62
     3
100
AcDbLine
 10
-96.88968658447266
 20
-79.36827087402344
 11
18.56620788574219
 21
-79.36827087402344
  0
LINE
  5
75f
100
AcDbEntity
  8
0
  6
CONTINUOUS
 62
     7
100
AcDbLine
 10
-74
 20
-70.36827087402344
 11
-74
 21
-88.36827087402344
  0
LINE
  5
760
100
AcDbEntity
  8
0
  6
CONTINUOUS
 62
     7
100
AcDbLine
 10
-74
 20
-70.36827087402344
 11
-71
 21
-70.36827087402344
  0
LINE
  5
761
100
AcDbEntity
  8
0
  6
CONTINUOUS
 62
     7
100
AcDbLine
 10
-74
 20
-71.18026733398438
 11
-71
 21
-71.18026733398438
  0
LINE
  5
762
100
AcDbEntity
  8
0
  6
CONTINUOUS
 62
     7
100
AcDbLine
 10
-74.8572226459717
 20
-70.86827635776022
 11
-74.00003416909622
 21
-71.18026745967076
  0
LINE
  5
763
100
AcDbEntity
  8
0
  6
CONTINUOUS
 62
     7
100
AcDbLine
 10
-71
 20
-68.10993957519531
 11
-71
 21
-90.62660217285156
  0
LINE
  5
764
100
AcDbEntity
  8
0
  6
CONTINUOUS
 62
     7
100
AcDbLine
 10
-71.00000097806893
 20
-68.10992305353983
 11
-69.70576573115481
 21
-65.86824188917234
  0
LINE
  5
765
100
AcDbEntity
  8
0
  6
CONTINUOUS
 62
     7
100
AcDbLine
 10
-69.70579528808594
 20
-65.86827087402344
 11
-61.29425048828125
 21
-65.86827087402344
  0
LINE
  5
766
100
AcDbEntity
  8
0
  6
CONTINUOUS
 62
     7
100
AcDbLine
 10
-59.99993320940668
 20
-68.10990369409993
 11
-61.29415319753153
 21
-65.86824895873025
  0
LINE
  5
767
100
AcDbEntity
  8
0
  6
CONTINUOUS
 62
     7
100
AcDbLine
 10
-74
 20
-87.5562744140625
 11
-71
 21
-87.5562744140625
  0
LINE
  5
768
100
AcDbEntity
  8
0
  6
CONTINUOUS
 62
     7
100
AcDbLine
 10
-74.85725265598859
 20
-87.86825884091601
 11
-74.00003550197025
 21
-87.55625730137869
  0
LINE
  5
769
100
AcDbEntity
  8
0
  6
CONTINUOUS
 62
     7
100
AcDbLine
 10
-74
 20
-88.36827087402344
 11
-71
 21
-88.36827087402344
  0
LINE
  5
76a
100
AcDbEntity
  8
0
  6
CONTINUOUS
 62
     7
100
AcDbLine
 10
-70.99997131221969
 20
-90.62656875835654
 11
-69.70574369470022
 21
-92.86823670822511
  0
LINE
  5
76b
100
AcDbEntity
  8
0
  6
CONTINUOUS
 62
     7
100
AcDbLine
 10
-69.70579528808594
 20
-92.86825561523438
 11
-61.29423522949219
 21
-92.86825561523438
  0
LINE
  5
76c
100
AcDbEntity
  8
0
  6
CONTINUOUS
 62
     7
100
AcDbLine
 10
-60.00006920043922
 20
-90.62654435025416
 11
-61.29430444735333
 21
-92.86822551462166
  0
LINE
  5
76d
100
AcDbEntity
  8
0
  6
CONTINUOUS
 62
     7
100
AcDbLine
 10
-59.00012950381764
 20
-93.36842428390241
 11
-60.00012742149946
 21
-92.36842004418665
  0
LINE
  5
76e
100
AcDbEntity
  8
0
  6
CONTINUOUS
 62
     7
100
AcDbLine
 10
-60
 20
-66.3682861328125
 11
-60
 21
-92.36825561523438
  0
LINE
  5
76f
100
AcDbEntity
  8
0
  6
CONTINUOUS
 62
     7
100
AcDbLine
 10
-59
 20
-65.36827087402344
 11
-59
 21
-93.36825561523438
  0
LINE
  5
770
100
AcDbEntity
  8
0
  6
CONTINUOUS
 62
     7
100
AcDbLine
 10
-59
 20
-93.36825561523438
 11
-27
 21
-93.36825561523438
  0
LINE
  5
771
100
AcDbEntity
  8
0
  6
CONTINUOUS
 62
     7
100
AcDbLine
 10
-59.99994340804845
 20
-66.36832119163438
 11
-58.99993916833269
 21
-65.36832327395256
  0
LINE
  5
772
100
AcDbEntity
  8
0
  6
CONTINUOUS
 62
     7
100
AcDbLine
 10
-59
 20
-65.36827087402344
 11
-27
 21
-65.36827087402344
  0
LINE
  5
773
100
AcDbEntity
  8
0
  6
CONTINUOUS
 62
     7
100
AcDbLine
 10
-27
 20
-87.36827087402344
 11
-27
 21
-93.36825561523438
  0
LINE
  5
774
100
AcDbEntity
  8
0
  6
CONTINUOUS
 62
     7
100
AcDbLine
 10
-27
 20
-87.36827087402344
 11
12.5
 21
-87.36827087402344
  0
LINE
  5
775
100
AcDbEntity
  8
0
  6
CONTINUOUS
 62
     7
100
AcDbLine
 10
-27
 20
-65.36827087402344
 11
-27
 21
-71.36827087402344
  0
LINE
  5
776
100
AcDbEntity
  8
0
  6
CONTINUOUS
 62
     7
100
AcDbLine
 10
-27
 20
-71.36827087402344
 11
12.5
 21
-71.36827087402344
  0
LINE
  5
777
100
AcDbEntity
  8
0
  6
DASHED
 62
     7
100
AcDbLine
 10
-6
 20
-71.36827087402344
 11
-6
 21
-87.36827087402344
  0
LINE
  5
778
100
AcDbEntity
  8
0
  6
CENTER
 62
     3
100
AcDbLine
 10
0
 20
-68.25
 11
0
 21
-89.94999694824219
  0
LINE
  5
779
100
AcDbEntity
  8
0
  6
DASHED
 62
     7
100
AcDbLine
 10
6
 20
-71.36827087402344
 11
6
 21
-87.36827087402344
  0
LINE
  5
77a
100
AcDbEntity
  8
0
  6
CONTINUOUS
 62
     7
100
AcDbLine
 10
14.99997841698059
 20
-84.8681511491462
 11
12.4999649306279
 21
-87.3681646354989
  0
LINE
  5
77b
100
AcDbEntity
  8
0
  6
CONTINUOUS
 62
     7
100
AcDbLine
 10
15
 20
-73.86827087402344
 11
15
 21
-84.86827087402344
  0
LINE
  5
77c
100
AcDbEntity
  8
0
  6
CONTINUOUS
 62
     7
100
AcDbLine
 10
12.50005394477195
 20
-71.36823099558571
 11
15.00006743112464
 21
-73.86824448193841
  0
ARC
  5
77d
100
AcDbEntity
  8
0
  6
CONTINUOUS
 62
     7
100
AcDbCircle
 10
-2.25
 20
0
 40
14.74998950958252
100
AcDbArc
 50
308.837836229522
 51
51.16216377047874
  0
CIRCLE
  5
77e
100
AcDbEntity
  8
0
  6
CONTINUOUS
 62
     7
100
AcDbCircle
 10
0
 20
0
 40
6
  0
ARC
  5
77f
100
AcDbEntity
  8
0
  6
CONTINUOUS
 62
     7
100
AcDbCircle
 10
-66.66668701171875
 20
11.25833129882813
 40
4.33333683013916
100
AcDbArc
 50
179.9999813306654
 51
239.9999146984265
  0
ARC
  5
780
100
AcDbEntity
  8
0
  6
CONTINUOUS
 62
     7
100
AcDbCircle
 10
-64.33334350585938
 20
11.25833129882813
 40
4.33333683013916
100
AcDbArc
 50
300.0000666322404
 51
360
  0
CIRCLE
  5
781
100
AcDbEntity
  8
0
  6
CONTINUOUS
 62
     7
100
AcDbCircle
 10
71.5025634765625
 20
0
 40
6
  0
CIRCLE
  5
782
100
AcDbEntity
  8
0
  6
CONTINUOUS
 62
     7
100
AcDbCircle
 10
71.5025634765625
 20
0
 40
14
  0
ARC
  5
783
100
AcDbEntity
  8
0
  6
CONTINUOUS
 62
     7
100
AcDbCircle
 10
-64.33334350585938
 20
-11.25833129882813
 40
4.333333015441895
100
AcDbArc
 50
0
 51
59.99989238662542
  0
ARC
  5
784
100
AcDbEntity
  8
0
  6
CONTINUOUS
 62
     7
100
AcDbCircle
 10
-74.0833740234375
 20
0
 40
14.08334922790527
100
AcDbArc
 50
327.7958083275523
 51
32.20413703093502
  0
ARC
  5
785
100
AcDbEntity
  8
0
  6
CONTINUOUS
 62
     7
100
AcDbCircle
 10
-56.91665649414063
 20
0
 40
14.08334922790527
100
AcDbArc
 50
147.7958269968863
 51
212.2041557002704
  0
ARC
  5
786
100
AcDbEntity
  8
0
  6
CONTINUOUS
 62
     7
100
AcDbCircle
 10
-66.66668701171875
 20
-11.25833129882813
 40
4.333333015441895
100
AcDbArc
 50
120.0000716411959
 51
179.9999640278213
  0
ARC
  5
787
100
AcDbEntity
  8
0
  6
CONTINUOUS
 62
     7
100
AcDbCircle
 10
-79.0625
 20
0
 40
7.9375
100
AcDbArc
 50
138.4201219458581
 51
221.5798607512985
  0
ARC
  5
788
100
AcDbEntity
  8
0
  6
CONTINUOUS
 62
     7
100
AcDbCircle
 10
-52.7503662109375
 20
-72.61827087402344
 40
18.24961280822754
100
AcDbArc
 50
158.2923660907135
 51
201.7076166064432
  0
ARC
  5
789
100
AcDbEntity
  8
0
  6
CONTINUOUS
 62
     7
100
AcDbCircle
 10
-78.2490234375
 20
-72.61827087402344
 40
18.2490119934082
100
AcDbArc
 50
338.291590977929
 51
21.70840902207176
  0
ARC
  5
78a
100
AcDbEntity
  8
0
  6
CONTINUOUS
 62
     7
100
AcDbCircle
 10
-52.7503662109375
 20
-86.11827087402344
 40
18.24961280822754
100
AcDbArc
 50
158.2923660907135
 51
201.7076166064432
  0
ARC
  5
78b
100
AcDbEntity
  8
0
  6
CONTINUOUS
 62
     7
100
AcDbCircle
 10
-78.24911499023438
 20
-86.1182861328125
 40
18.24911117553711
100
AcDbArc
 50
338.2917771005838
 51
21.70828437111938
  0
MTEXT
  5
78c
100
AcDbEntity
  8
0
  6
CONTINUOUS
 62
     7
100
AcDbMText
 10
-46.95002017915249
 20
-7.144687652587891
 40
0.5
 41
24
 71
     7
 72
     1
  1
{\W0.843764;ＢＮ－６１０５－６３－Ｔ}
  0
MTEXT
  5
78d
100
AcDbEntity
  8
0
  6
CONTINUOUS
 62
     7
100
AcDbMText
 10
-46.62789569795132
 20
-86.70928955078125
 40
0.5
 41
24
 71
     7
 72
     1
  1
{\W0.843764;ＢＮ－６１０５－６３－Ｔ}
  0
MTEXT
  5
78e
100
AcDbEntity
  8
0
  6
CONTINUOUS
 62
     7
100
AcDbMText
 10
64.5048481374979
 20
-9.238494873046875
 40
0.5
 41
24
 71
     7
 72
     1
  1
{\W0.843764;ＢＮ－６１０５－６３－Ｔ}
  0
ENDBLK
  8
0
  5
78f
100
AcDbEntity
100
AcDbBlockEnd
  0
BLOCK
  8
0
  5
790
100
AcDbEntity
100
AcDbBlockBegin
  2
KOZU0009
 70
    64
 10
0
 20
0
  0
LINE
  5
791
100
AcDbEntity
  8
0
  6
CONTINUOUS
 62
     3
100
AcDbLine
 10
-31.9418713614908
 20
-4.999998528929655
 11
-31.80577850341797
 21
-4.863905398670834
  0
LINE
  5
792
100
AcDbEntity
  8
0
  6
CONTINUOUS
 62
     3
100
AcDbLine
 10
-32.83989580783622
 20
-4.999998261297259
 11
-31.80577850341797
 21
-3.965878888642328
  0
LINE
  5
793
100
AcDbEntity
  8
0
  6
CONTINUOUS
 62
     3
100
AcDbLine
 10
-33.40577697753906
 20
-4.667854052735061
 11
-32.53792307322021
 21
-3.799998412706662
  0
LINE
  5
794
100
AcDbEntity
  8
0
  6
CONTINUOUS
 62
     3
100
AcDbLine
 10
-32.12213595107034
 20
3.800001621246336
 11
-31.80577850341797
 21
4.116359701614238
  0
LINE
  5
795
100
AcDbEntity
  8
0
  6
CONTINUOUS
 62
     3
100
AcDbLine
 10
-33.02016066504763
 20
3.800001621246334
 11
-31.82016324720573
 21
5.000001439085459
  0
LINE
  5
796
100
AcDbEntity
  8
0
  6
CONTINUOUS
 62
     3
100
AcDbLine
 10
-33.40577697753906
 20
4.312411047550011
 11
-32.71818742591945
 21
5.000001974350095
  0
ENDBLK
  8
0
  5
797
100
AcDbEntity
100
AcDbBlockEnd
  0
BLOCK
  8
0
  5
798
100
AcDbEntity
100
AcDbBlockBegin
  2
KOZU0010
 70
    64
 10
0
 20
0
  0
LINE
  5
799
100
AcDbEntity
  8
0
  6
CONTINUOUS
 62
     3
100
AcDbLine
 10
32.71591098798406
 20
-4.999995585813268
 11
33.40576171874987
 21
-4.310143475344612
  0
LINE
  5
79a
100
AcDbEntity
  8
0
  6
CONTINUOUS
 62
     3
100
AcDbLine
 10
31.81788627400677
 20
-4.99999558581327
 11
33.01787783858822
 21
-3.800001621246295
  0
LINE
  5
79b
100
AcDbEntity
  8
0
  6
CONTINUOUS
 62
     3
100
AcDbLine
 10
31.80576324462879
 20
-4.114092129408824
 11
32.11985312461093
 21
-3.800001621246297
  0
LINE
  5
79c
100
AcDbEntity
  8
0
  6
CONTINUOUS
 62
     3
100
AcDbLine
 10
32.53564181702954
 20
3.799999982978578
 11
33.40576171874987
 21
4.670121624940459
  0
LINE
  5
79d
100
AcDbEntity
  8
0
  6
CONTINUOUS
 62
     3
100
AcDbLine
 10
31.80576324462879
 20
3.96814646084774
 11
32.83761621190882
 21
5.000001491835763
  0
LINE
  5
79e
100
AcDbEntity
  8
0
  6
CONTINUOUS
 62
     3
100
AcDbLine
 10
31.80576324462879
 20
4.866172970876248
 11
31.93959149793153
 21
5.000001491835766
  0
ENDBLK
  8
0
  5
79f
100
AcDbEntity
100
AcDbBlockEnd
  0
ENDSEC
  0
SECTION
  2
ENTITIES
  0
LINE
  5
7a0
100
AcDbEntity
  8
0
  6
PHANTOM
 62
     7
100
AcDbLine
 10
70.84524536132813
 20
-268.093017578125
 11
70.84524536132813
 21
-490.6286010742188
  0
LINE
  5
7a1
100
AcDbEntity
  8
0
  6
PHANTOM
 62
     7
100
AcDbLine
 10
-190.4396057128906
 20
-268.093017578125
 11
332.1300964355469
 21
-268.093017578125
  0
LINE
  5
7a2
100
AcDbEntity
  8
0
  6
PHANTOM
 62
     7
100
AcDbLine
 10
-190.4396362304688
 20
-268.093017578125
 11
-190.4396362304688
 21
-490.6286010742188
  0
LINE
  5
7a3
100
AcDbEntity
  8
0
  6
PHANTOM
 62
     7
100
AcDbLine
 10
332.1300964355469
 20
-268.093017578125
 11
332.1300964355469
 21
-490.6286010742188
  0
LINE
  5
7a4
100
AcDbEntity
  8
0
  6
CONTINUOUS
 62
     7
100
AcDbLine
 10
372.6950073242188
 20
-381.8220520019531
 11
549.2593322753907
 21
-381.8220520019531
  0
LINE
  5
7a5
100
AcDbEntity
  8
0
  6
CONTINUOUS
 62
     7
100
AcDbLine
 10
372.6950073242188
 20
-381.8220520019531
 11
372.6950073242188
 21
-419.3881195068359
  0
LINE
  5
7a6
100
AcDbEntity
  8
0
  6
CONTINUOUS
 62
     7
100
AcDbLine
 10
372.6950073242188
 20
-419.388119506836
 11
549.2593322753907
 21
-419.388119506836
  0
LINE
  5
7a7
100
AcDbEntity
  8
0
  6
CONTINUOUS
 62
     7
100
AcDbLine
 10
481.2619795839726
 20
-365.8720520019531
 11
374.8950408935547
 21
-365.8720520019531
  0
LINE
  5
7a8
100
AcDbEntity
  8
0
  6
CONTINUOUS
 62
     7
100
AcDbLine
 10
374.8950408935547
 20
-356.5770721435547
 11
481.2619795839726
 21
-356.5770721435547
  0
LINE
  5
7a9
100
AcDbEntity
  8
0
  6
CONTINUOUS
 62
     7
100
AcDbLine
 10
374.8950408935547
 20
-347.2820587158203
 11
481.2619795839726
 21
-347.2820587158203
  0
LINE
  5
7aa
100
AcDbEntity
  8
0
  6
PHANTOM
 62
     7
100
AcDbLine
 10
-190.4396057128906
 20
-490.6286010742188
 11
332.1300964355469
 21
-490.6286010742188
  0
LINE
  5
7ab
100
AcDbEntity
  8
0
  6
CONTINUOUS
 62
     7
100
AcDbLine
 10
549.2593322753907
 20
-381.8220520019531
 11
549.2593322753907
 21
-419.3881195068359
  0
ARC
  5
7ac
100
AcDbEntity
  8
0
  6
PHANTOM
 62
     7
100
AcDbCircle
 10
-43.46685791015625
 20
-338.857666015625
 40
16.5
100
AcDbArc
 50
270.0000000000007
 51
90.00000000000003
  0
MTEXT
  5
7ad
100
AcDbEntity
  8
0
  6
CONTINUOUS
 62
     7
100
AcDbMText
 10
138.7382910251617
 20
73.71986389160156
 40
8
 41
64
 71
     7
 72
     1
  1
{\W0.864328;＊１}
  0
MTEXT
  5
7ae
100
AcDbEntity
  8
0
  6
CONTINUOUS
 62
     7
100
AcDbMText
 10
136.9088568775742
 20
129.7150970006872
 40
8
 41
64
 71
     7
 72
     1
  1
{\W0.864328;＊２}
  0
MTEXT
  5
7af
100
AcDbEntity
  8
0
  6
CONTINUOUS
 62
     7
100
AcDbMText
 10
-197.5704658469447
 20
66.90893596507885
 40
8
 41
64
 71
     7
 72
     1
  1
{\W0.864328;＊３}
  0
MTEXT
  5
7b0
100
AcDbEntity
  8
0
  6
CONTINUOUS
 62
     7
100
AcDbMText
 10
332.630381965284
 20
66.90893596507885
 40
8
 41
64
 71
     7
 72
     1
  1
{\W0.864328;＊４}
  0
MTEXT
  5
7b1
100
AcDbEntity
  8
0
  6
CONTINUOUS
 62
     7
100
AcDbMText
 10
439.2547948862005
 20
65.44832756890193
 40
8
 41
64
 71
     7
 72
     1
  1
{\W0.864328;＊５}
  0
MTEXT
  5
7b2
100
AcDbEntity
  8
0
  6
CONTINUOUS
 62
     7
100
AcDbMText
 10
138.3694652737512
 20
-153.6429318576389
 40
8
 41
64
 71
     7
 72
     1
  1
{\W0.864328;＊６}
  0
MTEXT
  5
7b3
100
AcDbEntity
  8
0
  6
CONTINUOUS
 62
     7
100
AcDbMText
 10
-167.1680963039398
 20
-298.2214965820313
 40
8
 41
64
 71
     7
 72
     1
  1
{\W0.864328;＊８}
  0
MTEXT
  5
7b4
100
AcDbEntity
  8
0
  6
CONTINUOUS
 62
     7
100
AcDbMText
 10
96.29412293434143
 20
-300.3988647460938
 40
8
 41
64
 71
     7
 72
     1
  1
{\W0.864328;＊７}
  0
MTEXT
  5
7b5
100
AcDbEntity
  8
0
  6
CONTINUOUS
 62
     7
100
AcDbMText
 10
-82.50365090370178
 20
-288.3316345214844
 40
6
 41
120
 71
     7
 72
     1
  1
{\W0.848905;Ｔコネクタ}
  0
MTEXT
  5
7b6
100
AcDbEntity
  8
0
  6
CONTINUOUS
 62
     7
100
AcDbMText
 10
188.8443715572357
 20
-287.7867431640625
 40
6
 41
120
 71
     7
 72
     1
  1
{\W0.848905;Ｙコネクタ}
  0
MTEXT
  5
7b7
100
AcDbEntity
  8
0
  6
CONTINUOUS
 62
     7
100
AcDbMText
 10
379.6905881881714
 20
-414.9120788574219
 40
7
 41
84
 71
     7
 72
     1
  1
{\W0.855331;型　番}
  0
MTEXT
  5
7b8
100
AcDbEntity
  8
0
  6
CONTINUOUS
 62
     7
100
AcDbMText
 10
379.6905881881714
 20
-404.0770721435547
 40
7
 41
84
 71
     7
 72
     1
  1
{\W0.855331;品　名}
  0
MTEXT
  5
7b9
100
AcDbEntity
  8
0
  6
CONTINUOUS
 62
     7
100
AcDbMText
 10
428.1414457321167
 20
-392.9267822265625
 40
7
 41
224
 71
     7
 72
     1
  1
{\W0.845552;日本精器株式会社}
  0
MTEXT
  5
7ba
100
AcDbEntity
  8
0
  6
CONTINUOUS
 62
     7
100
AcDbMText
 10
414.670574760437
 20
-404.0770721435547
 40
7
 41
196
 71
     7
 72
     1
  1
{\W0.846334;空気圧シリンダ}
  0
MTEXT
  5
7bb
100
AcDbEntity
  8
0
  6
CONTINUOUS
 62
     7
100
AcDbMText
 10
414.670574760437
 20
-414.9120788574219
 40
7
 41
504
 71
     7
 72
     1
  1
{\W0.842599;ＢＮ－６１０５－ＦＡＣ－６３－Ｂ－＊}
  0
MTEXT
  5
7bc
100
AcDbEntity
  8
0
  6
CONTINUOUS
 62
     7
100
AcDbMText
 10
376.0911830425263
 20
-346.8220520019531
 40
7
 41
420
 71
     7
 72
     1
  1
{\W0.843063;最高使用圧力　：　１．０ＭＰａ}
  0
MTEXT
  5
7bd
100
AcDbEntity
  8
0
  6
CONTINUOUS
 62
     7
100
AcDbMText
 10
376.0911830425263
 20
-356.1170318603516
 40
7
 41
420
 71
     7
 72
     1
  1
{\W0.843063;耐圧力　　　　：　１．５ＭＰａ}
  0
MTEXT
  5
7be
100
AcDbEntity
  8
0
  6
CONTINUOUS
 62
     7
100
AcDbMText
 10
376.0911830425263
 20
-365.412045288086
 40
7
 41
336
 71
     7
 72
     1
  1
{\W0.843764;周囲温度　　　：　常　温}
  0
INSERT
  5
7bf
100
AcDbEntity
  8
0
  6
CONTINUOUS
 62
     7
100
AcDbBlockReference
  2
KOZU0001
 10
67.35308837890625
 20
7.317520141601563
  0
INSERT
  5
7c0
100
AcDbEntity
  8
0
  6
CONTINUOUS
 62
     7
100
AcDbBlockReference
  2
KOZU0002
 10
67.35308837890625
 20
161.3973388671875
  0
INSERT
  5
7c1
100
AcDbEntity
  8
0
  6
CONTINUOUS
 62
     7
100
AcDbBlockReference
  2
KOZU0003
 10
-258.7869262695313
 20
7.317520141601563
  0
INSERT
  5
7c2
100
AcDbEntity
  8
0
  6
CONTINUOUS
 62
     7
100
AcDbBlockReference
  2
KOZU0004
 10
265.4930725097656
 20
7.317520141601563
  0
INSERT
  5
7c3
100
AcDbEntity
  8
0
  6
CONTINUOUS
 62
     7
100
AcDbBlockReference
  2
KOZU0005
 10
473.633056640625
 20
7.317520141601563
  0
INSERT
  5
7c4
100
AcDbEntity
  8
0
  6
CONTINUOUS
 62
     7
100
AcDbBlockReference
  2
KOZU0006
 10
67.35308837890625
 20
-176.7623291015625
  0
INSERT
  5
7c5
100
AcDbEntity
  8
0
  6
CONTINUOUS
 62
     7
100
AcDbBlockReference
  2
KOZU0007
 10
205.8424377441406
 20
-338.857666015625
  0
INSERT
  5
7c6
100
AcDbEntity
  8
0
  6
CONTINUOUS
 62
     7
100
AcDbBlockReference
  2
KOZU0008
 10
-43.46685791015625
 20
-338.857666015625
  0
DIMENSION
  5
7c7
100
AcDbEntity
  8
0
  6
CONTINUOUS
 62
     7
100
AcDbDimension
  2
*D1
 70
     0
 10
-149.268798828125
 20
27.31752014160156
 11
-149.268798828125
 21
7.317520141601563
  3
DIMSTYLE
100
AcDbAlignedDimension
 13
-132.6469116210938
 23
-12.68247985839844
 14
-132.6469116210938
 24
27.31752014160156
 50
90
100
AcDbRotatedDimension
1001
ACAD
1000
DSTYLE
1002
{
1070
     6
1000
_OPEN30
1070
     7
1000
_OPEN30
1070
    77
1070
     1
1070
   172
1070
     1
1070
    42
1040
0
1002
}
  0
DIMENSION
  5
7c8
100
AcDbEntity
  8
0
  6
CONTINUOUS
 62
     7
100
AcDbDimension
  2
*D2
 70
     0
 10
-115.6469116210938
 20
65.13789367675781
 11
-123.1469116210938
 21
65.13789367675781
  3
DIMSTYLE
100
AcDbAlignedDimension
 13
-130.6469116210938
 23
46.81752014160156
 14
-115.6469116210938
 24
50.6633186340332
 50
0
100
AcDbRotatedDimension
1001
ACAD
1000
DSTYLE
1002
{
1070
     6
1000
_OPEN30
1070
     7
1000
_OPEN30
1070
    77
1070
     1
1070
   172
1070
     1
1070
    42
1040
0
1002
}
  0
DIMENSION
  5
7c9
100
AcDbEntity
  8
0
  6
CONTINUOUS
 62
     7
100
AcDbDimension
  2
*D3
 70
     0
 10
52.35308837890625
 20
65.13789367675781
 11
59.85310363769531
 21
65.13789367675781
  3
DIMSTYLE
100
AcDbAlignedDimension
 13
67.35308837890625
 23
46.81752014160156
 14
52.35308837890625
 24
50.26014709472656
 50
0
100
AcDbRotatedDimension
1001
ACAD
1000
DSTYLE
1002
{
1070
     6
1000
_OPEN30
1070
     7
1000
_OPEN30
1070
    77
1070
     1
1070
   172
1070
     1
1070
    42
1040
0
1002
}
  0
LINE
  5
7ca
100
AcDbEntity
  8
0
  6
CONTINUOUS
 62
     7
100
AcDbLine
 10
-107.4485681116463
 20
40.84334995907995
 11
-87.5671668599898
 21
61.92296755036075
  0
LINE
  5
7cb
100
AcDbEntity
  8
0
  6
CONTINUOUS
 62
     7
100
AcDbLine
 10
-107.4485681116463
 20
40.84334995907995
 11
-105.7112019123165
 21
43.50451255953219
  0
LINE
  5
7cc
100
AcDbEntity
  8
0
  6
CONTINUOUS
 62
     7
100
AcDbLine
 10
-107.4485681116463
 20
40.84334995907995
 11
-104.893514064611
 21
42.73330406258294
  0
MTEXT
  5
7cd
100
AcDbEntity
  8
0
  6
CONTINUOUS
 62
     7
100
AcDbMText
 10
-82.3756103515625
 20
61.92296981811523
 40
5
 41
140
 71
     4
 72
     1
  1
{\W0.846334;２－Ｒｃ３／８}
  0
LINE
  5
7ce
100
AcDbEntity
  8
0
  6
CONTINUOUS
 62
     7
100
AcDbLine
 10
-107.4485681116463
 20
40.84334995907995
 11
-87.5671668599898
 21
61.92296755036075
  0
LINE
  5
7cf
100
AcDbEntity
  8
0
  6
CONTINUOUS
 62
     7
100
AcDbLine
 10
-87.56716918945313
 20
61.92296981811523
 11
-83.80435943603516
 21
61.92296981811523
  0
DIMENSION
  5
7d0
100
AcDbEntity
  8
0
  6
CONTINUOUS
 62
     7
100
AcDbDimension
  2
*D4
 70
     0
 10
-100.6468811035156
 20
-69.00620468954243
 11
-115.6468963623047
 21
-69.00620468954243
  3
DIMSTYLE
100
AcDbAlignedDimension
 13
-130.6469116210938
 23
-32.18247985839844
 14
-100.6468811035156
 24
-32.18247985839844
 50
0
100
AcDbRotatedDimension
1001
ACAD
1000
DSTYLE
1002
{
1070
     6
1000
_OPEN30
1070
     7
1000
_OPEN30
1070
    77
1070
     1
1070
   172
1070
     1
1070
    42
1040
0
1002
}
  0
DIMENSION
  5
7d1
100
AcDbEntity
  8
0
  6
CONTINUOUS
 62
     7
100
AcDbDimension
  2
*D5
 70
     0
 10
67.35308837890625
 20
-69.00620468954243
 11
52.35308837890625
 21
-69.00620468954243
  3
DIMSTYLE
100
AcDbAlignedDimension
 13
37.35308837890625
 23
-32.18247985839844
 14
67.35308837890625
 24
-32.18247985839844
 50
0
100
AcDbRotatedDimension
1001
ACAD
1000
DSTYLE
1002
{
1070
     6
1000
_OPEN30
1070
     7
1000
_OPEN30
1070
    77
1070
     1
1070
   172
1070
     1
1070
    42
1040
0
1002
}
  0
DIMENSION
  5
7d2
100
AcDbEntity
  8
0
  6
CONTINUOUS
 62
     7
100
AcDbDimension
  2
*D6
 70
     0
 10
93.35308837890625
 20
-54.41250223062805
 11
109.3530883789063
 21
-54.41250223062805
  3
DIMSTYLE
100
AcDbAlignedDimension
 13
125.3530883789063
 23
-0.4825840592384338
 14
93.35308837890625
 24
-1.682479858398438
 50
0
100
AcDbRotatedDimension
1001
ACAD
1000
DSTYLE
1002
{
1070
     6
1000
_OPEN30
1070
     7
1000
_OPEN30
1070
    77
1070
     1
1070
   172
1070
     1
1070
    42
1040
0
1002
}
  0
DIMENSION
  5
7d3
100
AcDbEntity
  8
0
  6
CONTINUOUS
 62
     7
100
AcDbDimension
  2
*D7
 70
     0
 10
-130.6469116210938
 20
-83.75977192362589
 11
-24.079930193995
 21
-83.75977192362589
  3
DIMSTYLE
100
AcDbAlignedDimension
 13
67.35308837890625
 23
-32.18247985839844
 14
-130.6469116210938
 24
-32.18247985839844
 50
0
100
AcDbRotatedDimension
1001
ACAD
1000
DSTYLE
1002
{
1070
     6
1000
_OPEN30
1070
     7
1000
_OPEN30
1070
    77
1070
     1
1070
   172
1070
     1
1070
    75
1070
     1
1002
}
  0
DIMENSION
  5
7d4
100
AcDbEntity
  8
0
  6
CONTINUOUS
 62
     7
100
AcDbDimension
  2
*D8
 70
     0
 10
-133.6469116210938
 20
-98.32358939535425
 11
-4.14691162109375
 21
-98.32358939535425
  3
DIMSTYLE
100
AcDbAlignedDimension
 13
125.3530883789063
 23
-0.4825840592384338
 14
-133.6469116210938
 24
-11.68247985839844
 50
0
100
AcDbRotatedDimension
1001
ACAD
1000
DSTYLE
1002
{
1070
     6
1000
_OPEN30
1070
     7
1000
_OPEN30
1070
    77
1070
     1
1070
   172
1070
     1
1070
    42
1040
0
1002
}
  0
DIMENSION
  5
7d5
100
AcDbEntity
  8
0
  6
CONTINUOUS
 62
     7
100
AcDbDimension
  2
*D9
 70
     0
 10
110.8802185058594
 20
-29.20765510176041
 11
105.3802185058594
 21
-29.20765510176041
  3
DIMSTYLE
100
AcDbAlignedDimension
 13
99.88021850585938
 23
-4.391124725341797
 14
110.8802185058594
 24
-4.391124725341797
 50
0
100
AcDbRotatedDimension
1001
ACAD
1000
DSTYLE
1002
{
1070
     6
1000
_OPEN30
1070
     7
1000
_OPEN30
1070
    77
1070
     1
1070
   172
1070
     1
1070
    42
1040
0
1002
}
  0
DIMENSION
  5
7d6
100
AcDbEntity
  8
0
  6
CONTINUOUS
 62
     7
100
AcDbDimension
  2
*D10
 70
     0
 10
96.10340333372517
 20
17.31752014160156
 11
96.10340333372517
 21
28.88128178026908
  3
DIMSTYLE
100
AcDbAlignedDimension
 13
88.62103271484375
 23
-2.682479858398438
 14
88.62103271484375
 24
17.31752014160156
 50
90
100
AcDbRotatedDimension
1001
ACAD
1000
DSTYLE
1002
{
1070
     6
1000
_OPEN30
1070
     7
1000
_OPEN30
1070
    77
1070
     1
1070
   172
1070
     1
1070
    42
1040
0
1002
}
  0
LINE
  5
7d7
100
AcDbEntity
  8
0
  6
CONTINUOUS
 62
     7
100
AcDbLine
 10
116.9612893504655
 20
16.59069517648987
 11
132.6176298749665
 21
34.32461045119821
  0
LINE
  5
7d8
100
AcDbEntity
  8
0
  6
CONTINUOUS
 62
     7
100
AcDbLine
 10
116.9612893504655
 20
16.59069517648987
 11
118.6101880935849
 21
19.30756113408859
  0
LINE
  5
7d9
100
AcDbEntity
  8
0
  6
CONTINUOUS
 62
     7
100
AcDbLine
 10
116.9612893504655
 20
16.59069517648987
 11
119.4527991117551
 21
18.56366420970308
  0
MTEXT
  5
7da
100
AcDbEntity
  8
0
  6
CONTINUOUS
 62
     7
100
AcDbMText
 10
141.1039428710938
 20
34.32461929321289
 40
5
 41
140
 71
     4
 72
     1
  1
{\W0.846334;Ｍ１８ｘ１．５}
  0
LINE
  5
7db
100
AcDbEntity
  8
0
  6
CONTINUOUS
 62
     7
100
AcDbLine
 10
116.9612893504655
 20
16.59069517648987
 11
132.6176298749665
 21
34.32461045119821
  0
LINE
  5
7dc
100
AcDbEntity
  8
0
  6
CONTINUOUS
 62
     7
100
AcDbLine
 10
132.6176234167786
 20
34.32461006830175
 11
139.6751795691183
 21
34.32461769769603
  0
LINE
  5
7dd
100
AcDbEntity
  8
0
  6
CONTINUOUS
 62
     7
100
AcDbLine
 10
-230.8186275469201
 20
40.60545241440595
 11
-242.0652074654547
 21
64.25630299078486
  0
LINE
  5
7de
100
AcDbEntity
  8
0
  6
CONTINUOUS
 62
     7
100
AcDbLine
 10
-230.8186275469201
 20
40.60545241440595
 11
-232.6694666189072
 21
43.18898147873355
  0
LINE
  5
7df
100
AcDbEntity
  8
0
  6
CONTINUOUS
 62
     7
100
AcDbLine
 10
-230.8186275469201
 20
40.60545241440595
 11
-231.6543895008302
 21
43.6716764200872
  0
MTEXT
  5
7e0
100
AcDbEntity
  8
0
  6
CONTINUOUS
 62
     7
100
AcDbMText
 10
-247.3576812744141
 20
64.25630187988281
 40
5
 41
180
 71
     6
 72
     1
  1
{\W0.84495;４－Ｍ８ｘ１．２５}
  0
LINE
  5
7e1
100
AcDbEntity
  8
0
  6
CONTINUOUS
 62
     7
100
AcDbLine
 10
-230.8186275469201
 20
40.60545241440595
 11
-242.0652074654547
 21
64.25630299078486
  0
LINE
  5
7e2
100
AcDbEntity
  8
0
  6
CONTINUOUS
 62
     7
100
AcDbLine
 10
-242.0652160644531
 20
64.25630187988281
 11
-245.9289245605469
 21
64.25630187988281
  0
DIMENSION
  5
7e3
100
AcDbEntity
  8
0
  6
CONTINUOUS
 62
     7
100
AcDbDimension
  2
*D11
 70
     0
 10
90.35308837890625
 20
-68.89413192246896
 11
78.85308837890625
 21
-68.89413192246896
  3
DIMSTYLE
100
AcDbAlignedDimension
 13
67.35308837890625
 23
-32.18247985839844
 14
90.35308837890625
 24
-1.682479858398438
 50
0
100
AcDbRotatedDimension
1001
ACAD
1000
DSTYLE
1002
{
1070
     6
1000
_OPEN30
1070
     7
1000
_OPEN30
1070
    77
1070
     1
1070
   172
1070
     1
1070
    42
1040
0
1002
}
  0
DIMENSION
  5
7e4
100
AcDbEntity
  8
0
  6
CONTINUOUS
 62
     7
100
AcDbDimension
  2
*D12
 70
     0
 10
125.3530883789063
 20
-68.92336273193359
 11
107.8530883789063
 21
-68.92336273193359
  3
DIMSTYLE
100
AcDbAlignedDimension
 13
90.35308837890625
 23
-1.682479858398438
 14
125.3530883789063
 24
-0.4825840592384338
 50
0
100
AcDbRotatedDimension
1001
ACAD
1000
DSTYLE
1002
{
1070
     6
1000
_OPEN30
1070
     7
1000
_OPEN30
1070
    77
1070
     1
1070
   172
1070
     1
1070
    75
1070
     1
1002
}
  0
DIMENSION
  5
7e5
100
AcDbEntity
  8
0
  6
CONTINUOUS
 62
     7
100
AcDbDimension
  2
*D13
 70
     0
 10
-28.46685791015625
 20
-466.0693969726563
 11
-65.96685791015625
 21
-466.0693969726563
  3
DIMSTYLE
100
AcDbAlignedDimension
 13
-103.4668579101563
 23
-431.2261962890625
 14
-28.46685791015625
 24
-423.7257995605469
 50
0
100
AcDbRotatedDimension
1001
ACAD
1000
DSTYLE
1002
{
1070
     6
1000
_OPEN30
1070
     7
1000
_OPEN30
1070
    77
1070
     1
1070
   172
1070
     1
1070
    42
1040
0
1002
}
  0
DIMENSION
  5
7e6
100
AcDbEntity
  8
0
  6
CONTINUOUS
 62
     7
100
AcDbDimension
  2
*D14
 70
     0
 10
-8.422454833984375
 20
-324.857666015625
 11
-8.422454833984375
 21
-338.857666015625
  3
DIMSTYLE
100
AcDbAlignedDimension
 13
-36.46674728393555
 23
-352.857666015625
 14
-36.46703338623047
 24
-324.857666015625
 50
90
100
AcDbRotatedDimension
1001
ACAD
1000
DSTYLE
1002
{
1070
     6
1000
_OPEN30
1070
     7
1000
_OPEN30
1070
    77
1070
     1
1070
   172
1070
     1
1070
    42
1040
0
1002
}
  0
DIMENSION
  5
7e7
100
AcDbEntity
  8
0
  6
CONTINUOUS
 62
     7
100
AcDbDimension
  2
*D15
 70
     0
 10
-8.225222502347101
 20
-410.2259521484375
 11
-8.225222502347101
 21
-397.1164047115727
  3
DIMSTYLE
100
AcDbAlignedDimension
 13
-30.96701049804688
 23
-426.2259521484375
 14
-30.96678161621094
 24
-410.2259521484375
 50
90
100
AcDbRotatedDimension
1001
ACAD
1000
DSTYLE
1002
{
1070
     6
1000
_OPEN30
1070
     7
1000
_OPEN30
1070
    77
1070
     1
1070
   172
1070
     1
1070
    42
1040
0
1002
}
  0
LINE
  5
7e8
100
AcDbEntity
  8
0
  6
CONTINUOUS
 62
     7
100
AcDbLine
 10
-39.97950118435918
 20
-343.7429578679486
 11
-19.12227795769724
 21
-368.8357588207215
  0
LINE
  5
7e9
100
AcDbEntity
  8
0
  6
CONTINUOUS
 62
     7
100
AcDbLine
 10
-39.97950118435918
 20
-343.7429578679486
 11
-37.54783693131144
 21
-345.789231714986
  0
LINE
  5
7ea
100
AcDbEntity
  8
0
  6
CONTINUOUS
 62
     7
100
AcDbLine
 10
-39.97950118435918
 20
-343.7429578679486
 11
-38.41222237407673
 21
-346.507711894523
  0
MTEXT
  5
7eb
100
AcDbEntity
  8
0
  6
CONTINUOUS
 62
     7
100
AcDbMText
 10
-10.35978597159549
 20
-368.8357412580141
 40
5
 41
170
 71
     4
 72
     1
  1
{\W0.847392;\U+2205１２Ｈ１０}
  0
LINE
  5
7ec
100
AcDbEntity
  8
0
  6
CONTINUOUS
 62
     7
100
AcDbLine
 10
-39.97950118435918
 20
-343.7429578679486
 11
-19.12227795769724
 21
-368.8357588207215
  0
LINE
  5
7ed
100
AcDbEntity
  8
0
  6
CONTINUOUS
 62
     7
100
AcDbLine
 10
-19.12227795769724
 20
-368.8357588207215
 11
-11.78853600974246
 21
-368.8357588207215
  0
DIMENSION
  5
7ee
100
AcDbEntity
  8
0
  6
CONTINUOUS
 62
     7
100
AcDbDimension
  2
*D16
 70
     4
 11
229.8817138671875
 21
-357.8052978515625
 10
205.8424654004942
 20
-338.8577292131737
  3
DIMSTYLE
100
AcDbRadialDimension
 15
217.6230348056693
 25
-348.1431039762003
1001
ACAD
1000
DSTYLE
1002
{
1070
     6
1000
_OPEN30
1070
     7
1000
_OPEN30
1070
    77
1070
     1
1070
   172
1070
     1
1002
}
  0
LINE
  5
7ef
100
AcDbEntity
  8
0
  6
CONTINUOUS
 62
     7
100
AcDbLine
 10
207.1492350212774
 20
-333.0586427672222
 11
215.4834815890307
 21
-312.2001003422502
  0
LINE
  5
7f0
100
AcDbEntity
  8
0
  6
CONTINUOUS
 62
     7
100
AcDbLine
 10
207.1492350212774
 20
-333.0586427672222
 11
207.7879610768902
 21
-329.9454038232121
  0
LINE
  5
7f1
100
AcDbEntity
  8
0
  6
CONTINUOUS
 62
     7
100
AcDbLine
 10
207.1492350212774
 20
-333.0586427672222
 11
208.8317270243458
 21
-330.3624513132949
  0
MTEXT
  5
7f2
100
AcDbEntity
  8
0
  6
CONTINUOUS
 62
     7
100
AcDbMText
 10
223.0647034302293
 20
-312.200109698439
 40
5
 41
210
 71
     4
 72
     1
  1
{\W0.845552;\U+2205１２Ｈ１０ｄ９}
  0
LINE
  5
7f3
100
AcDbEntity
  8
0
  6
CONTINUOUS
 62
     7
100
AcDbLine
 10
207.1492350212774
 20
-333.0586427672222
 11
215.4834815890307
 21
-312.2001003422502
  0
LINE
  5
7f4
100
AcDbEntity
  8
0
  6
CONTINUOUS
 62
     7
100
AcDbLine
 10
215.4834815890307
 20
-312.2001003422503
 11
221.6359467163621
 21
-312.2001003422503
  0
DIMENSION
  5
7f5
100
AcDbEntity
  8
0
  6
CONTINUOUS
 62
     7
100
AcDbDimension
  2
*D17
 70
     0
 10
-43.46685791015625
 20
-375.5580410629605
 11
-81.96685791015625
 21
-375.5580410629605
  3
DIMSTYLE
100
AcDbAlignedDimension
 13
-120.4668579101563
 23
-347.857666015625
 14
-43.46685791015625
 24
-344.857666015625
 50
0
100
AcDbRotatedDimension
1001
ACAD
1000
DSTYLE
1002
{
1070
     6
1000
_OPEN30
1070
     7
1000
_OPEN30
1070
    77
1070
     1
1070
   172
1070
     1
1070
    42
1040
0
1002
}
  0
DIMENSION
  5
7f6
100
AcDbEntity
  8
0
  6
CONTINUOUS
 62
     7
100
AcDbDimension
  2
*D18
 70
     0
 10
145.8424377441406
 20
-373.8814086914063
 11
140.3424377441406
 21
-373.8814086914063
  3
DIMSTYLE
100
AcDbAlignedDimension
 13
134.8424377441406
 23
-350.1160583496094
 14
145.8424377441406
 24
-351.8576965332031
 50
0
100
AcDbRotatedDimension
1001
ACAD
1000
DSTYLE
1002
{
1070
     6
1000
_OPEN30
1070
     7
1000
_OPEN30
1070
    77
1070
     1
1070
   172
1070
     1
1070
    42
1040
0
1002
}
  0
DIMENSION
  5
7f7
100
AcDbEntity
  8
0
  6
CONTINUOUS
 62
     7
100
AcDbDimension
  2
*D19
 70
     0
 10
205.8424377441406
 20
-373.8814086914063
 11
175.8424377441406
 21
-373.8814086914063
  3
DIMSTYLE
100
AcDbAlignedDimension
 13
145.8424377441406
 23
-351.8576965332031
 14
205.8424377441406
 24
-353.857666015625
 50
0
100
AcDbRotatedDimension
1001
ACAD
1000
DSTYLE
1002
{
1070
     6
1000
_OPEN30
1070
     7
1000
_OPEN30
1070
    77
1070
     1
1070
   172
1070
     1
1070
    75
1070
     1
1002
}
  0
DIMENSION
  5
7f8
100
AcDbEntity
  8
0
  6
CONTINUOUS
 62
     7
100
AcDbDimension
  2
*D20
 70
     0
 10
205.8424377441406
 20
-385.7128295898438
 11
167.3424377441406
 21
-385.7128295898438
  3
DIMSTYLE
100
AcDbAlignedDimension
 13
128.8424377441406
 23
-347.857666015625
 14
205.8424377441406
 24
-353.857666015625
 50
0
100
AcDbRotatedDimension
1001
ACAD
1000
DSTYLE
1002
{
1070
     6
1000
_OPEN30
1070
     7
1000
_OPEN30
1070
    77
1070
     1
1070
   172
1070
     1
1070
    42
1040
0
1002
}
  0
DIMENSION
  5
7f9
100
AcDbEntity
  8
0
  6
CONTINUOUS
 62
     7
100
AcDbDimension
  2
*D21
 70
     0
 10
242.0327881957631
 20
-425.2259521484375
 11
242.0327881957631
 21
-393.1263515003345
  3
DIMSTYLE
100
AcDbAlignedDimension
 13
220.8424377441406
 23
-441.2259216308594
 14
220.8424377441406
 24
-425.2259521484375
 50
90
100
AcDbRotatedDimension
1001
ACAD
1000
DSTYLE
1002
{
1070
     6
1000
_OPEN30
1070
     7
1000
_OPEN30
1070
    77
1070
     1
1070
   172
1070
     1
1070
    42
1040
0
1002
}
  0
DIMENSION
  5
7fa
100
AcDbEntity
  8
0
  6
CONTINUOUS
 62
     7
100
AcDbDimension
  2
*D22
 70
     0
 10
-229.2869262695313
 20
-56.33375549316406
 11
-258.7869262695313
 21
-56.33375549316406
  3
DIMSTYLE
100
AcDbAlignedDimension
 13
-288.2869262695313
 23
-29.68247985839844
 14
-229.2869262695313
 24
-29.68247985839844
 50
0
100
AcDbRotatedDimension
1001
ACAD
1000
DSTYLE
1002
{
1070
     6
1000
_OPEN30
1070
     7
1000
_OPEN30
1070
    77
1070
     1
1070
   172
1070
     1
1070
    42
1040
0
1002
}
  0
DIMENSION
  5
7fb
100
AcDbEntity
  8
0
  6
CONTINUOUS
 62
     7
100
AcDbDimension
  2
*D23
 70
     0
 10
82.35308837890625
 20
65.13789367675781
 11
74.85308837890625
 21
65.13789367675781
  3
DIMSTYLE
100
AcDbAlignedDimension
 13
67.35308837890625
 23
47.31752014160156
 14
82.35308837890625
 24
47.31752014160156
 50
0
100
AcDbRotatedDimension
1001
ACAD
1000
DSTYLE
1002
{
1070
     6
1000
_OPEN30
1070
     7
1000
_OPEN30
1070
    77
1070
     1
1070
   172
1070
     1
1070
    42
1040
0
1002
}
  0
DIMENSION
  5
7fc
100
AcDbEntity
  8
0
  6
CONTINUOUS
 62
     7
100
AcDbDimension
  2
*D24
 70
     0
 10
125.3530731201172
 20
65.13789367675781
 11
103.8530807495117
 21
65.13789367675781
  3
DIMSTYLE
100
AcDbAlignedDimension
 13
82.35308837890625
 23
47.31752014160156
 14
125.3530731201172
 24
15.11767196655273
 50
0
100
AcDbRotatedDimension
1001
ACAD
1000
DSTYLE
1002
{
1070
     6
1000
_OPEN30
1070
     7
1000
_OPEN30
1070
    77
1070
     1
1070
   172
1070
     1
1070
    75
1070
     1
1002
}
  0
DIMENSION
  5
7fd
100
AcDbEntity
  8
0
  6
CONTINUOUS
 62
     7
100
AcDbDimension
  2
*D25
 70
     0
 10
317.9930725097656
 20
-56.31156921386719
 11
265.4930725097656
 21
-56.31156921386719
  3
DIMSTYLE
100
AcDbAlignedDimension
 13
212.9930725097656
 23
-27.93247985839844
 14
317.9930725097656
 24
-27.93247985839844
 50
0
100
AcDbRotatedDimension
1001
ACAD
1000
DSTYLE
1002
{
1070
     6
1000
_OPEN30
1070
     7
1000
_OPEN30
1070
    77
1070
     1
1070
   172
1070
     1
1070
    42
1040
0
1002
}
  0
DIMENSION
  5
7fe
100
AcDbEntity
  8
0
  6
CONTINUOUS
 62
     7
100
AcDbDimension
  2
*D26
 70
     0
 10
330.4930725097656
 20
-68.70767211914063
 11
265.4930725097656
 21
-68.70767211914063
  3
DIMSTYLE
100
AcDbAlignedDimension
 13
200.4930725097656
 23
-29.68247985839844
 14
330.4930725097656
 24
-29.68247985839844
 50
0
100
AcDbRotatedDimension
1001
ACAD
1000
DSTYLE
1002
{
1070
     6
1000
_OPEN30
1070
     7
1000
_OPEN30
1070
    77
1070
     1
1070
   172
1070
     1
1070
    42
1040
0
1002
}
  0
DIMENSION
  5
7ff
100
AcDbEntity
  8
0
  6
CONTINUOUS
 62
     7
100
AcDbDimension
  2
*D27
 70
     0
 10
350.9859619140625
 20
36.81752014160156
 11
350.9859619140625
 21
7.317520141601563
  3
DIMSTYLE
100
AcDbAlignedDimension
 13
323.7430725097656
 23
-22.18247985839844
 14
323.7430725097656
 24
36.81752014160156
 50
90
100
AcDbRotatedDimension
1001
ACAD
1000
DSTYLE
1002
{
1070
     6
1000
_OPEN30
1070
     7
1000
_OPEN30
1070
    77
1070
     1
1070
   172
1070
     1
1070
    42
1040
0
1002
}
  0
LINE
  5
800
100
AcDbEntity
  8
0
  6
CONTINUOUS
 62
     7
100
AcDbLine
 10
315.3426269776679
 20
41.3379714010055
 11
302.9917669568723
 21
64.69015794721548
  0
LINE
  5
801
100
AcDbEntity
  8
0
  6
CONTINUOUS
 62
     7
100
AcDbLine
 10
315.3426269776679
 20
41.3379714010055
 11
313.3833950465683
 21
43.84029790583641
  0
LINE
  5
802
100
AcDbEntity
  8
0
  6
CONTINUOUS
 62
     7
100
AcDbLine
 10
315.3426269776679
 20
41.3379714010055
 11
314.3769847945706
 21
44.36580278185262
  0
MTEXT
  5
803
100
AcDbEntity
  8
0
  6
CONTINUOUS
 62
     7
100
AcDbMText
 10
296.2936401367188
 20
64.69015502929688
 40
5
 41
190
 71
     6
 72
     1
  1
{\W0.846334;４－\U+2205１１．５}
  0
LINE
  5
804
100
AcDbEntity
  8
0
  6
CONTINUOUS
 62
     7
100
AcDbLine
 10
315.3426269776679
 20
41.3379714010055
 11
302.9917669568723
 21
64.69015794721548
  0
LINE
  5
805
100
AcDbEntity
  8
0
  6
CONTINUOUS
 62
     7
100
AcDbLine
 10
302.9917602539063
 20
64.69015502929688
 11
297.7223815917969
 21
64.69015502929688
  0
DIMENSION
  5
806
100
AcDbEntity
  8
0
  6
CONTINUOUS
 62
     7
100
AcDbDimension
  2
*D28
 70
     0
 10
-218.7868957519531
 20
-68.92336273193359
 11
-258.7869262695313
 21
-68.92336273193359
  3
DIMSTYLE
100
AcDbAlignedDimension
 13
-298.7869262695313
 23
-26.68247985839844
 14
-218.7868957519531
 24
-26.68247985839844
 50
0
100
AcDbRotatedDimension
1001
ACAD
1000
DSTYLE
1002
{
1070
     6
1000
_OPEN30
1070
     7
1000
_OPEN30
1070
    77
1070
     1
1070
   172
1070
     1
1070
    42
1040
0
1002
}
  0
LINE
  5
807
100
AcDbEntity
  8
0
  6
CONTINUOUS
 62
     7
100
AcDbLine
 10
84.3366699653141
 20
9.518302819592583
 11
90.29450964552225
 21
46.01007086086754
  0
LINE
  5
808
100
AcDbEntity
  8
0
  6
CONTINUOUS
 62
     7
100
AcDbLine
 10
84.3366699653141
 20
9.518302819592583
 11
83.83313278880725
 21
12.64023331393509
  0
LINE
  5
809
100
AcDbEntity
  8
0
  6
CONTINUOUS
 62
     7
100
AcDbLine
 10
84.3366699653141
 20
9.518302819592583
 11
85.80699852071412
 21
12.3179695209707
  0
MTEXT
  5
80a
100
AcDbEntity
  8
0
  6
CONTINUOUS
 62
     7
100
AcDbMText
 10
94.31605142966272
 20
46.01007086086753
 40
5
 41
100
 71
     4
 72
     1
  1
{\W0.848905;二面幅１７}
  0
LINE
  5
80b
100
AcDbEntity
  8
0
  6
CONTINUOUS
 62
     7
100
AcDbLine
 10
84.3366699653141
 20
9.518302819592583
 11
90.29450964552225
 21
46.01007086086754
  0
LINE
  5
80c
100
AcDbEntity
  8
0
  6
CONTINUOUS
 62
     7
100
AcDbLine
 10
90.29450964552224
 20
46.01007086086753
 11
93.173051422987
 21
46.01007086086753
  0
LINE
  5
80d
100
AcDbEntity
  8
0
  6
CONTINUOUS
 62
     7
100
AcDbLine
 10
106.6785687660946
 20
4.00730111540004
 11
133.9356853030469
 21
-25.18611331761992
  0
LINE
  5
80e
100
AcDbEntity
  8
0
  6
CONTINUOUS
 62
     7
100
AcDbLine
 10
106.6785687660946
 20
4.00730111540004
 11
109.4568532975041
 21
2.49695851778821
  0
LINE
  5
80f
100
AcDbEntity
  8
0
  6
CONTINUOUS
 62
     7
100
AcDbLine
 10
106.6785687660946
 20
4.00730111540004
 11
107.9949908326552
 21
1.132056318464878
  0
MTEXT
  5
810
100
AcDbEntity
  8
0
  6
CONTINUOUS
 62
     7
100
AcDbMText
 10
138.5530110552083
 20
-25.18611331761991
 40
5
 41
100
 71
     4
 72
     1
  1
{\W0.848905;二面幅２７}
  0
LINE
  5
811
100
AcDbEntity
  8
0
  6
CONTINUOUS
 62
     7
100
AcDbLine
 10
106.6785687660946
 20
4.00730111540004
 11
133.9356853030469
 21
-25.18611331761992
  0
LINE
  5
812
100
AcDbEntity
  8
0
  6
CONTINUOUS
 62
     7
100
AcDbLine
 10
133.935685303047
 20
-25.18611331761993
 11
137.4100110485325
 21
-25.18611331761991
  0
DIMENSION
  5
813
100
AcDbEntity
  8
0
  6
CONTINUOUS
 62
     7
100
AcDbDimension
  2
*D29
 70
     4
 11
-7.73760710801238
 21
-317.9278844799189
 10
-43.46685791015602
 20
-338.8576660156251
  3
DIMSTYLE
100
AcDbRadialDimension
 15
-32.30364905704821
 25
-326.7072434673391
 40
11.92217165425813
1001
ACAD
1000
DSTYLE
1002
{
1070
    73
1070
     1
1070
    74
1070
     1
1002
}
  0
DIMENSION
  5
814
100
AcDbEntity
  8
0
  6
CONTINUOUS
 62
     7
100
AcDbDimension
  2
*D30
 70
     0
 10
-43.46685791015625
 20
-446.3180955907987
 11
-56.96685791015625
 21
-446.3180955907987
  3
DIMSTYLE
100
AcDbAlignedDimension
 13
-70.46685791015625
 23
-432.2259216308594
 14
-43.46685791015625
 24
-426.2259368896484
 50
0
100
AcDbRotatedDimension
1001
ACAD
1000
DSTYLE
1002
{
1070
    77
1070
     1
1070
   172
1070
     1
1070
    42
1040
0
1002
}
  0
DIMENSION
  5
815
100
AcDbEntity
  8
0
  6
CONTINUOUS
 62
     7
100
AcDbDimension
  2
*D31
 70
     0
 10
-43.46685791015625
 20
-456.507794885313
 11
-73.46685791015625
 21
-456.507794885313
  3
DIMSTYLE
100
AcDbAlignedDimension
 13
-103.4668579101563
 23
-431.7259216308594
 14
-43.46685791015625
 24
-426.2259368896484
 50
0
100
AcDbRotatedDimension
1001
ACAD
1000
DSTYLE
1002
{
1070
    77
1070
     1
1070
   172
1070
     1
1070
    42
1040
0
1002
}
  0
DIMENSION
  5
816
100
AcDbEntity
  8
0
  6
CONTINUOUS
 62
     7
100
AcDbDimension
  2
*D32
 70
     0
 10
-28.46685791015625
 20
-456.507794885313
 11
-35.96685791015625
 21
-456.507794885313
  3
DIMSTYLE
100
AcDbAlignedDimension
 13
-43.46685791015625
 23
-426.2259368896484
 14
-28.46685791015625
 24
-423.7257955817518
 50
0
100
AcDbRotatedDimension
1001
ACAD
1000
DSTYLE
1002
{
1070
    77
1070
     1
1070
   172
1070
     1
1070
    75
1070
     1
1002
}
  0
DIMENSION
  5
817
100
AcDbEntity
  8
0
  6
CONTINUOUS
 62
     7
100
AcDbDimension
  2
*D33
 70
     0
 10
-114.4668579101563
 20
-456.507794885313
 11
-108.9668579101563
 21
-456.507794885313
  3
DIMSTYLE
100
AcDbAlignedDimension
 13
-103.4668579101563
 23
-431.7259216308594
 14
-114.4668579101563
 24
-431.7259216308594
 50
0
100
AcDbRotatedDimension
1001
ACAD
1000
DSTYLE
1002
{
1070
    77
1070
     1
1070
   172
1070
     1
1070
    75
1070
     1
1002
}
  0
DIMENSION
  5
818
100
AcDbEntity
  8
0
  6
CONTINUOUS
 62
     7
100
AcDbDimension
  2
*D34
 70
     0
 10
156.9280056451868
 20
-324.857666015625
 11
156.9280056451868
 21
-310.3341989103717
  3
DIMSTYLE
100
AcDbAlignedDimension
 13
146.8424377441406
 23
-352.857666015625
 14
146.8424377441406
 24
-324.857666015625
 50
90
100
AcDbRotatedDimension
1001
ACAD
1000
DSTYLE
1002
{
1070
    77
1070
     1
1070
   172
1070
     1
1070
    42
1040
0
1002
}
  0
DIMENSION
  5
819
100
AcDbEntity
  8
0
  6
CONTINUOUS
 62
     7
100
AcDbDimension
  2
*D35
 70
     0
 10
255.4460419673213
 20
-414.2259368896484
 11
255.4460419673213
 21
-433.2259292602539
  3
DIMSTYLE
100
AcDbAlignedDimension
 13
218.8424072265625
 23
-452.2259216308594
 14
218.8424377441406
 24
-414.2259368896484
 50
90
100
AcDbRotatedDimension
1001
ACAD
1000
DSTYLE
1002
{
1070
    77
1070
     1
1070
   172
1070
     1
1070
    42
1040
0
1002
}
  0
DIMENSION
  5
81a
100
AcDbEntity
  8
0
  6
CONTINUOUS
 62
     7
100
AcDbDimension
  2
*D36
 70
     0
 10
267.4717177625115
 20
-404.7259368896484
 11
267.4717177625115
 21
-433.2259292602539
  3
DIMSTYLE
100
AcDbAlignedDimension
 13
210.8424377441406
 23
-461.7259216308594
 14
210.8424377441406
 24
-404.7259368896484
 50
90
100
AcDbRotatedDimension
1001
ACAD
1000
DSTYLE
1002
{
1070
    77
1070
     1
1070
   172
1070
     1
1070
    42
1040
0
1002
}
  0
DIMENSION
  5
81b
100
AcDbEntity
  8
0
  6
CONTINUOUS
 62
     7
100
AcDbDimension
  2
*D37
 70
     0
 10
-130.6469268798828
 20
-83.75977192362589
 11
-142.0405082646696
 21
-83.75977192362589
  3
DIMSTYLE
100
AcDbAlignedDimension
 13
-133.6469268798828
 23
-11.68247985839844
 14
-130.6469268798828
 24
-32.68247985839844
 50
0
100
AcDbRotatedDimension
1001
ACAD
1000
DSTYLE
1002
{
1070
    46
1040
2.286
1070
    77
1070
     1
1070
   172
1070
     1
1070
    42
1040
0
1002
}
  0
DIMENSION
  5
81c
100
AcDbEntity
  8
0
  6
CONTINUOUS
 62
     7
100
AcDbDimension
  2
*D38
 70
     0
 10
125.3530731201172
 20
-83.75977192362589
 11
96.35308074951172
 21
-83.75977192362589
  3
DIMSTYLE
100
AcDbAlignedDimension
 13
67.35308837890625
 23
-34.68247985839844
 14
125.3530731201172
 24
-0.4825887118905881
 50
0
100
AcDbRotatedDimension
1001
ACAD
1000
DSTYLE
1002
{
1070
    77
1070
     1
1070
   172
1070
     1
1070
    42
1040
0
1002
}
  0
DIMENSION
  5
81d
100
AcDbEntity
  8
0
  6
CONTINUOUS
 62
     7
100
AcDbDimension
  2
*D39
 70
     0
 10
365.0801746469703
 20
49.31752014160156
 11
365.0801746469703
 21
7.317520141601563
  3
DIMSTYLE
100
AcDbAlignedDimension
 13
330.4930725097656
 23
-34.68247985839844
 14
330.4930725097656
 24
49.31752014160156
 50
90
100
AcDbRotatedDimension
1001
ACAD
1000
DSTYLE
1002
{
1070
    77
1070
     1
1070
   172
1070
     1
1070
    42
1040
0
1002
}
  0
DIMENSION
  5
81e
100
AcDbEntity
  8
0
  6
CONTINUOUS
 62
     7
100
AcDbDimension
  2
*D40
 70
     0
 10
178.8424377441406
 20
-476.6054077148438
 11
192.3424377441406
 21
-476.6054077148438
  3
DIMSTYLE
100
AcDbAlignedDimension
 13
205.8424377441406
 23
-464.2348327636719
 14
178.8424377441406
 24
-441.2259216308594
 50
0
100
AcDbRotatedDimension
1001
ACAD
1000
DSTYLE
1002
{
1070
    77
1070
     1
1070
   172
1070
     1
1070
    42
1040
0
1002
}
  0
ENDSEC
  0
SECTION
  2
OBJECTS
  0
DICTIONARY
  5
81f
100
AcDbDictionary
  3
ACAD_GROUP
350
820
  3
ACAD_MLINESTYLE
350
821
  0
DICTIONARY
  5
820
102
{ACAD_REACTORS
330
81f
102
}
100
AcDbDictionary
  0
DICTIONARY
  5
821
102
{ACAD_REACTORS
330
81f
102
}
100
AcDbDictionary
  3
STANDARD
350
822
  0
MLINESTYLE
  5
822
102
{ACAD_REACTORS
330
821
102
}
100
AcDbMlineStyle
  2
STANDARD
 70
     0
  3

 62
     0
 51
90
 52
90
 71
     2
 49
0.5
 62
   256
  6
BYLAYER
 49
-0.5
 62
   256
  6
BYLAYER
  0
ENDSEC
  0
EOF
