  0
SECTION
  2
HEADER
  9
$ACADVER
  1
AC1015
  9
$EXTMAX
 10
519.65576171875
 20
270.345703125
 30
0
  9
$EXTMIN
 10
-336.0941772460938
 20
-359.654296875
 30
0
  9
$LIMMAX
 10
519.65576171875
 20
270.345703125
  9
$LIMMIN
 10
-336.0941772460938
 20
-359.654296875
  9
$PLIMMAX
 10
519.65576171875
 20
270.345703125
  9
$PLIMMIN
 10
-336.0941772460938
 20
-359.654296875
  9
$TEXTSIZE
 40
3.2
  9
$DIMSHO
 70
     0
  9
$DIMASZ
 40
1.0
  9
$DIMTAD
 70
     1
  9
$DIMTIH
 70
     0
  9
$DIMTOH
 70
     0
  9
$DIMEXE
 40
2.54
  9
$DIMEXO
 40
2.54
  9
$DIMTVP
 40
1.0
  9
$DIMSAH
 70
     1
  9
$DIMDLE
 40
0.0
  9
$DIMTXT
 40
4
  9
$DIMGAP
 40
2
  9
$DIMAUNIT
 70
     1
  9
$DIMDEC
 70
     1
  9
$HANDSEED
  5
     865
  9
$MEASUREMENT
 70
     1
  0
ENDSEC
  0
SECTION
  2
TABLES
  0
TABLE
  2
LTYPE
  5
25
100
AcDbSymbolTable
 70
    48
  0
LTYPE
  5
26
100
AcDbSymbolTableRecord
100
AcDbLinetypeTableRecord
  2
BYBLOCK
 70
    64
  3

 72
    65
 73
     0
 40
0.0
  0
LTYPE
  5
27
100
AcDbSymbolTableRecord
100
AcDbLinetypeTableRecord
  2
BYLAYER
 70
    64
  3

 72
    65
 73
     0
 40
0.0
  0
LTYPE
  5
28
100
AcDbSymbolTableRecord
100
AcDbLinetypeTableRecord
  2
CONTINUOUS
 70
    64
  3
Solid line
 72
    65
 73
     0
 40
0.0
  0
LTYPE
  5
29
100
AcDbSymbolTableRecord
100
AcDbLinetypeTableRecord
  2
DASHED
 70
    64
  3
Dashed __ __ __ __ __ __ __ __ __ __ __ __ __ _
 72
    65
 73
     2
 40
4.5
 49
3.0
 74
     0
 49
-1.5
 74
     0
  0
LTYPE
  5
2a
100
AcDbSymbolTableRecord
100
AcDbLinetypeTableRecord
  2
CENTER
 70
    64
  3
Center ____ _ ____ _ ____ _ ____ _ ____ _ ____
 72
    65
 73
     4
 74
     0
 40
12.0
 49
7.5
 74
     0
 49
-1.5
 74
     0
 49
1.5
 74
     0
 49
-1.5
 74
     0
  0
LTYPE
  5
2b
100
AcDbSymbolTableRecord
100
AcDbLinetypeTableRecord
  2
PHANTOM
 70
    64
  3
Phantom ______  __  __  ______  __  __  ______
 72
    65
 73
     6
 74
     0
 40
15.0
 49
7.5
 74
     0
 49
-1.5
 74
     0
 49
1.5
 74
     0
 49
-1.5
 74
     0
 49
1.5
 74
     0
 49
-1.5
 74
     0
  0
LTYPE
  5
2c
100
AcDbSymbolTableRecord
100
AcDbLinetypeTableRecord
  2
DOT
 70
    64
  3
Dot . . . . . . . . . . . . . . . . . . . . . .
 72
    65
 73
     2
 74
     0
 40
1.5
 49
0.0
 74
     0
 49
-1.5
 74
     0
  0
LTYPE
  5
2d
100
AcDbSymbolTableRecord
100
AcDbLinetypeTableRecord
  2
HIDDEN
 70
    64
  3
Hidden __ __ __ __ __ __ __ __ __ __ __ __ __ _
 72
    65
 73
     2
 74
     0
 40
4.5
 49
3.0
 74
     0
 49
-1.5
 74
     0
  0
LTYPE
  5
2e
100
AcDbSymbolTableRecord
100
AcDbLinetypeTableRecord
  2
BORDER
 70
    64
  3
Border __ __ . __ __ . __ __ . __ __ . __ __ .
 72
    65
 73
     6
 40
3.5
 49
1.0
 74
     0
 49
-0.5
 74
     0
 49
1.0
 74
     0
 49
-0.5
 74
     0
 49
0.0
 74
     0
 49
-0.5
 74
     0
  0
LTYPE
  5
2f
100
AcDbSymbolTableRecord
100
AcDbLinetypeTableRecord
  2
BORDER2
 70
    64
  3
Border (.5x) __.__.__.__.__.__.__.__.__.__.__.
 72
    65
 73
     6
 40
1.75
 49
0.5
 74
     0
 49
-0.25
 74
     0
 49
0.5
 74
     0
 49
-0.25
 74
     0
 49
0.0
 74
     0
 49
-0.25
 74
     0
  0
LTYPE
  5
30
100
AcDbSymbolTableRecord
100
AcDbLinetypeTableRecord
  2
BORDERX2
 70
    64
  3
Border (2x) ____  ____  .  ____  ____  .  ___
 72
    65
 73
     6
 40
7.0
 49
2.0
 74
     0
 49
-1.0
 74
     0
 49
2.0
 74
     0
 49
-1.0
 74
     0
 49
0.0
 74
     0
 49
-1.0
 74
     0
  0
LTYPE
  5
31
100
AcDbSymbolTableRecord
100
AcDbLinetypeTableRecord
  2
CENTER2
 70
    64
  3
Center (.5x) ___ _ ___ _ ___ _ ___ _ ___ _ ___
 72
    65
 73
     4
 40
6.0
 49
3.75
 74
     0
 49
-0.75
 74
     0
 49
0.75
 74
     0
 49
-0.75
 74
     0
  0
LTYPE
  5
32
100
AcDbSymbolTableRecord
100
AcDbLinetypeTableRecord
  2
CENTERX2
 70
    64
  3
Center (2x) ________  __  ________  __  _____
 72
    65
 73
     4
 40
24.0
 49
15.0
 74
     0
 49
-3.0
 74
     0
 49
3.0
 74
     0
 49
-3.0
 74
     0
  0
LTYPE
  5
33
100
AcDbSymbolTableRecord
100
AcDbLinetypeTableRecord
  2
DASHDOT
 70
    64
  3
Dash dot __ . __ . __ . __ . __ . __ . __ . __
 72
    65
 73
     4
 40
6.0
 49
3.0
 74
     0
 49
-1.5
 74
     0
 49
0.0
 74
     0
 49
-1.5
 74
     0
  0
LTYPE
  5
34
100
AcDbSymbolTableRecord
100
AcDbLinetypeTableRecord
  2
DASHDOT2
 70
    64
  3
Dash dot (.5x) _._._._._._._._._._._._._._._.
 72
    65
 73
     4
 40
3.0
 49
1.5
 74
     0
 49
-0.75
 74
     0
 49
0.0
 74
     0
 49
-0.75
 74
     0
  0
LTYPE
  5
35
100
AcDbSymbolTableRecord
100
AcDbLinetypeTableRecord
  2
DASHDOTX2
 70
    64
  3
Dash dot (2x) ____  .  ____  .  ____  .  ___
 72
    65
 73
     4
 40
12.0
 49
6.0
 74
     0
 49
-3.0
 74
     0
 49
0.0
 74
     0
 49
-3.0
 74
     0
  0
LTYPE
  5
36
100
AcDbSymbolTableRecord
100
AcDbLinetypeTableRecord
  2
DASHED2
 70
    64
  3
Dashed (.5x) _ _ _ _ _ _ _ _ _ _ _ _ _ _ _ _ _
 72
    65
 73
     2
 40
2.25
 49
1.5
 74
     0
 49
-0.75
 74
     0
  0
LTYPE
  5
37
100
AcDbSymbolTableRecord
100
AcDbLinetypeTableRecord
  2
DASHEDX2
 70
    64
  3
Dashed (2x) ____  ____  ____  ____  ____  ___
 72
    65
 73
     2
 40
9.0
 49
6.0
 74
     0
 49
-3.0
 74
     0
  0
LTYPE
  5
38
100
AcDbSymbolTableRecord
100
AcDbLinetypeTableRecord
  2
DIVIDE
 70
    64
  3
Divide ____ . . ____ . . ____ . . ____ . . ____
 72
    65
 73
     6
 40
7.5
 49
3.0
 74
     0
 49
-1.5
 74
     0
 49
0.0
 74
     0
 49
-1.5
 74
     0
 49
0.0
 74
     0
 49
-1.5
 74
     0
  0
LTYPE
  5
39
100
AcDbSymbolTableRecord
100
AcDbLinetypeTableRecord
  2
DIVIDE2
 70
    64
  3
Divide (.5x) __..__..__..__..__..__..__..__.._
 72
    65
 73
     6
 40
3.75
 49
1.5
 74
     0
 49
-0.75
 74
     0
 49
0.0
 74
     0
 49
-0.75
 74
     0
 49
0.0
 74
     0
 49
-0.75
 74
     0
  0
LTYPE
  5
3a
100
AcDbSymbolTableRecord
100
AcDbLinetypeTableRecord
  2
DIVIDEX2
 70
    64
  3
Divide (2x) ________  .  .  ________  .  .  _
 72
    65
 73
     6
 40
15.0
 49
6.0
 74
     0
 49
-3.0
 74
     0
 49
0.0
 74
     0
 49
-3.0
 74
     0
 49
0.0
 74
     0
 49
-3.0
 74
     0
  0
LTYPE
  5
3b
100
AcDbSymbolTableRecord
100
AcDbLinetypeTableRecord
  2
DOT2
 70
    64
  3
Dot (.5x) .....................................
 72
    65
 73
     2
 40
0.75
 49
0.0
 74
     0
 49
-0.75
 74
     0
  0
LTYPE
  5
3c
100
AcDbSymbolTableRecord
100
AcDbLinetypeTableRecord
  2
DOTX2
 70
    64
  3
Dot (2x) .  .  .  .  .  .  .  .  .  .  .  .  . 
 72
    65
 73
     2
 40
3.0
 49
0.0
 74
     0
 49
-3.0
 74
     0
  0
LTYPE
  5
3d
100
AcDbSymbolTableRecord
100
AcDbLinetypeTableRecord
  2
HIDDEN2
 70
    64
  3
Hidden (.5x) _ _ _ _ _ _ _ _ _ _ _ _ _ _ _ _ _
 72
    65
 73
     2
 40
2.25
 49
1.5
 74
     0
 49
-0.75
 74
     0
  0
LTYPE
  5
3e
100
AcDbSymbolTableRecord
100
AcDbLinetypeTableRecord
  2
HIDDENX2
 70
    64
  3
Hidden (2x) ____ ____ ____ ____ ____ ____ ____
 72
    65
 73
     2
 40
9.0
 49
6.0
 74
     0
 49
-3.0
 74
     0
  0
LTYPE
  5
3f
100
AcDbSymbolTableRecord
100
AcDbLinetypeTableRecord
  2
PHANTOM2
 70
    64
  3
Phantom (.5x) ___ _ _ ___ _ _ ___ _ _ ___ _ _
 72
    65
 73
     6
 40
7.5
 49
3.75
 74
     0
 49
-0.75
 74
     0
 49
0.75
 74
     0
 49
-0.75
 74
     0
 49
0.75
 74
     0
 49
-0.75
 74
     0
  0
LTYPE
  5
40
100
AcDbSymbolTableRecord
100
AcDbLinetypeTableRecord
  2
PHANTOMX2
 70
    64
  3
Phantom (2x) ____________    ____    ____   _
 72
    65
 73
     6
 40
30.0
 49
15.0
 74
     0
 49
-3.0
 74
     0
 49
3.0
 74
     0
 49
-3.0
 74
     0
 49
3.0
 74
     0
 49
-3.0
 74
     0
  0
LTYPE
  5
41
100
AcDbSymbolTableRecord
100
AcDbLinetypeTableRecord
  2
ACAD_ISO02W100
 70
     0
  3
ISO dash __ __ __ __ __ __ __ __ __ __ __ __ __
 72
    65
 73
     2
 40
15.0
 49
12.0
 74
     0
 49
-3.0
 74
     0
  0
LTYPE
  5
42
100
AcDbSymbolTableRecord
100
AcDbLinetypeTableRecord
  2
ACAD_ISO03W100
 70
     0
  3
ISO dash space __    __    __    __    __    __
 72
    65
 73
     2
 40
30.0
 49
12.0
 74
     0
 49
-18.0
 74
     0
  0
LTYPE
  5
43
100
AcDbSymbolTableRecord
100
AcDbLinetypeTableRecord
  2
ACAD_ISO04W100
 70
     0
  3
ISO long-dash dot ____ . ____ . ____ . ____ . _
 72
    65
 73
     4
 40
30.0
 49
24.0
 74
     0
 49
-3.0
 74
     0
 49
0.0
 74
     0
 49
-3.0
 74
     0
  0
LTYPE
  5
44
100
AcDbSymbolTableRecord
100
AcDbLinetypeTableRecord
  2
ACAD_ISO05W100
 70
     0
  3
ISO long-dash double-dot ____ .. ____ .. ____ .
 72
    65
 73
     6
 40
33.0
 49
24.0
 74
     0
 49
-3.0
 74
     0
 49
0.0
 74
     0
 49
-3.0
 74
     0
 49
0.0
 74
     0
 49
-3.0
 74
     0
  0
LTYPE
  5
45
100
AcDbSymbolTableRecord
100
AcDbLinetypeTableRecord
  2
ACAD_ISO06W100
 70
     0
  3
ISO long-dash triple-dot ____ ... ____ ... ____
 72
    65
 73
     8
 40
36.0
 49
24.0
 74
     0
 49
-3.0
 74
     0
 49
0.0
 74
     0
 49
-3.0
 74
     0
 49
0.0
 74
     0
 49
-3.0
 74
     0
 49
0.0
 74
     0
 49
-3.0
 74
     0
  0
LTYPE
  5
46
100
AcDbSymbolTableRecord
100
AcDbLinetypeTableRecord
  2
ACAD_ISO07W100
 70
     0
  3
ISO dot . . . . . . . . . . . . . . . . . . . .
 72
    65
 73
     2
 40
3.0
 49
0.0
 74
     0
 49
-3.0
 74
     0
  0
LTYPE
  5
47
100
AcDbSymbolTableRecord
100
AcDbLinetypeTableRecord
  2
ACAD_ISO08W100
 70
     0
  3
ISO long-dash short-dash ____ __ ____ __ ____ _
 72
    65
 73
     4
 40
36.0
 49
24.0
 74
     0
 49
-3.0
 74
     0
 49
6.0
 74
     0
 49
-3.0
 74
     0
  0
LTYPE
  5
48
100
AcDbSymbolTableRecord
100
AcDbLinetypeTableRecord
  2
ACAD_ISO09W100
 70
     0
  3
ISO long-dash double-short-dash ____ __ __ ____
 72
    65
 73
     6
 40
45.0
 49
24.0
 74
     0
 49
-3.0
 74
     0
 49
6.0
 74
     0
 49
-3.0
 74
     0
 49
6.0
 74
     0
 49
-3.0
 74
     0
  0
LTYPE
  5
49
100
AcDbSymbolTableRecord
100
AcDbLinetypeTableRecord
  2
ACAD_ISO10W100
 70
     0
  3
ISO dash dot __ . __ . __ . __ . __ . __ . __ .
 72
    65
 73
     4
 40
18.0
 49
12.0
 74
     0
 49
-3.0
 74
     0
 49
0.0
 74
     0
 49
-3.0
 74
     0
  0
LTYPE
  5
4a
100
AcDbSymbolTableRecord
100
AcDbLinetypeTableRecord
  2
ACAD_ISO11W100
 70
     0
  3
ISO double-dash dot __ __ . __ __ . __ __ . __ 
 72
    65
 73
     6
 40
33.0
 49
12.0
 74
     0
 49
-3.0
 74
     0
 49
12.0
 74
     0
 49
-3.0
 74
     0
 49
0.0
 74
     0
 49
-3.0
 74
     0
  0
LTYPE
  5
4b
100
AcDbSymbolTableRecord
100
AcDbLinetypeTableRecord
  2
ACAD_ISO12W100
 70
     0
  3
ISO dash double-dot __ . . __ . . __ . . __ . .
 72
    65
 73
     6
 40
21.0
 49
12.0
 74
     0
 49
-3.0
 74
     0
 49
0.0
 74
     0
 49
-3.0
 74
     0
 49
0.0
 74
     0
 49
-3.0
 74
     0
  0
LTYPE
  5
4c
100
AcDbSymbolTableRecord
100
AcDbLinetypeTableRecord
  2
ACAD_ISO13W100
 70
     0
  3
ISO double-dash double-dot __ __ . . __ __ . . 
 72
    65
 73
     8
 40
36.0
 49
12.0
 74
     0
 49
-3.0
 74
     0
 49
12.0
 74
     0
 49
-3.0
 74
     0
 49
0.0
 74
     0
 49
-3.0
 74
     0
 49
0.0
 74
     0
 49
-3.0
 74
     0
  0
LTYPE
  5
4d
100
AcDbSymbolTableRecord
100
AcDbLinetypeTableRecord
  2
ACAD_ISO14W100
 70
     0
  3
ISO dash triple-dot __ . . . __ . . . __ . . . 
 72
    65
 73
     8
 40
24.0
 49
12.0
 74
     0
 49
-3.0
 74
     0
 49
0.0
 74
     0
 49
-3.0
 74
     0
 49
0.0
 74
     0
 49
-3.0
 74
     0
 49
0.0
 74
     0
 49
-3.0
 74
     0
  0
LTYPE
  5
4e
100
AcDbSymbolTableRecord
100
AcDbLinetypeTableRecord
  2
ACAD_ISO15W100
 70
     0
  3
ISO double-dash triple-dot __ __ . . . __ __ . 
 72
    65
 73
    10
 40
39.0
 49
12.0
 74
     0
 49
-3.0
 74
     0
 49
12.0
 74
     0
 49
-3.0
 74
     0
 49
0.0
 74
     0
 49
-3.0
 74
     0
 49
0.0
 74
     0
 49
-3.0
 74
     0
 49
0.0
 74
     0
 49
-3.0
 74
     0
  0
LTYPE
  5
4f
100
AcDbSymbolTableRecord
100
AcDbLinetypeTableRecord
  2
FENCELINE1
 70
     0
  3
Fenceline circle ----0-----0----0-----0----0---
 72
    65
 73
     4
 40
1.45
 49
0.25
 74
     0
 49
-0.1
 74
     4
 75
   133
340
24
 46
0.1
 50
0.0
 44
-0.1
 45
0.0
 49
-0.1
 74
     0
 49
1.0
 74
     0
  0
LTYPE
  5
50
100
AcDbSymbolTableRecord
100
AcDbLinetypeTableRecord
  2
FENCELINE2
 70
     0
  3
Fenceline square ----[]-----[]----[]-----[]----
 72
    65
 73
     4
 40
1.45
 49
0.25
 74
     0
 49
-0.1
 74
     4
 75
   132
340
24
 46
0.1
 50
0.0
 44
-0.1
 45
0.0
 49
-0.1
 74
     0
 49
1.0
 74
     0
  0
LTYPE
  5
51
100
AcDbSymbolTableRecord
100
AcDbLinetypeTableRecord
  2
TRACKS
 70
     0
  3
Tracks -|-|-|-|-|-|-|-|-|-|-|-|-|-|-|-|-|-|-|-|
 72
    65
 73
     2
 40
0.3
 49
0.15
 74
     4
 75
   130
340
24
 46
0.25
 50
0.0
 44
0.0
 45
0.0
 49
0.15
 74
     0
  0
LTYPE
  5
52
100
AcDbSymbolTableRecord
100
AcDbLinetypeTableRecord
  2
BATTING
 70
     0
  3
Batting SSSSSSSSSSSSSSSSSSSSSSSSSSSSSSSSSSSSSSS
 72
    65
 73
     4
 40
0.4001000000000002
 49
0.0001
 74
     0
 49
-0.1
 74
     4
 75
   134
340
24
 46
0.1
 50
0.0
 44
-0.1
 45
0.0
 49
-0.2
 74
     4
 75
   134
340
24
 46
0.1
 50
180.0
 44
0.1
 45
0.0
 49
-0.1
 74
     0
  0
LTYPE
  5
53
100
AcDbSymbolTableRecord
100
AcDbLinetypeTableRecord
  2
HOT_WATER_SUPPLY
 70
     0
  3
Hot water supply ---- HW ---- HW ---- HW ----
 72
    65
 73
     3
 40
0.9
 49
0.5
 74
     0
 49
-0.2
 74
     2
 75
     1
340
23
 46
0.1
 50
0.0
 44
-0.1
 45
-0.05
  9
HW
 49
-0.2
 74
     0
  0
LTYPE
  5
54
100
AcDbSymbolTableRecord
100
AcDbLinetypeTableRecord
  2
GAS_LINE
 70
     0
  3
Gas line ----GAS----GAS----GAS----GAS----GAS---
 72
    65
 73
     3
 40
0.95
 49
0.5
 74
     0
 49
-0.2
 74
     2
 75
     1
340
23
 46
0.1
 50
0.0
 44
-0.1
 45
-0.05
  9
GAS
 49
-0.25
 74
     0
  0
LTYPE
  5
55
100
AcDbSymbolTableRecord
100
AcDbLinetypeTableRecord
  2
ZIGZAG
 70
     0
  3
Zig zag /\/\/\/\/\/\/\/\/\/\/\/\/\/\/\/\/\/\/\/
 72
    65
 73
     4
 40
0.8001000000000001
 49
0.0001
 74
     0
 49
-0.2
 74
     4
 75
   131
340
24
 46
0.2
 50
0.0
 44
-0.2
 45
0.0
 49
-0.4
 74
     4
 75
   131
340
24
 46
0.2
 50
180.0
 44
0.2
 45
0.0
 49
-0.2
 74
     0
  0
ENDTAB
  0
TABLE
  2
LAYER
  5
c8
100
AcDbSymbolTable
 70
     2
  0
LAYER
  5
c9
100
AcDbSymbolTableRecord
100
AcDbLayerTableRecord
  2
0
 70
     0
 62
     7
  6
CONTINUOUS
390
F
  0
LAYER
  5
ca
100
AcDbSymbolTableRecord
100
AcDbLayerTableRecord
  2
DEFPOINTS
 70
     0
 62
     7
  6
CONTINUOUS
290
0
390
F
  0
ENDTAB
  0
TABLE
  2
STYLE
  5
cb
100
AcDbSymbolTable
 70
     2
  0
STYLE
  5
      23
100
AcDbSymbolTableRecord
100
AcDbTextStyleTableRecord
  2
STANDARD
 70
     0
 40
0.0
 41
1.0
 50
0.0
 71
     0
 42
0.2
  3
txt
  4
BIGFONT
  0
STYLE
  5
24
100
AcDbSymbolTableRecord
100
AcDbTextStyleTableRecord
  2

 70
     1
 40
0.0
 41
1.0
 50
0.0
 71
     0
 42
0.2
  3
ltypeshp.shx
  4

  0
ENDTAB
  0
TABLE
  2
DIMSTYLE
  5
cc
100
AcDbSymbolTable
100
AcDbDimStyleTable
 70
     1
  0
DIMSTYLE
105
cd
100
AcDbSymbolTableRecord
100
AcDbDimStyleTableRecord
  2
DIMSTYLE
 70
     0
  3

  4

  5
_OPEN
  6
_OPEN
  7
_OPEN
 40
1
 41
1
 42
0.009999999776482582
 43
0.38
 44
2.54
 45
0
 46
0
 47
0
 48
0
140
4
141
0.09
142
0
143
25.4
144
1
145
0
146
1
147
2
 71
     0
 72
     0
 73
     0
 74
     0
 75
     0
 76
     0
 78
     0
170
     0
171
     2
 77
     0
172
     0
173
     1
174
     0
175
     0
176
     0
177
     0
178
     0
271
     1
275
     1
340
23
  0
ENDTAB
  0
TABLE
  2
APPID
  5
ce
100
AcDbSymbolTable
 70
     1
  0
APPID
  5
cf
100
AcDbSymbolTableRecord
100
AcDbRegAppTableRecord
  2
ACAD
 70
     0
  0
ENDTAB
  0
TABLE
  2
VIEW
  5
d0
100
AcDbSymbolTable
 70
     0
  0
ENDTAB
  0
TABLE
  2
UCS
  5
d1
100
AcDbSymbolTable
 70
     0
  0
ENDTAB
  0
TABLE
  2
BLOCK_RECORD
  5
d2
100
AcDbSymbolTable
 70
    55
  0
BLOCK_RECORD
  5
d3
100
AcDbSymbolTableRecord
100
AcDbBlockTableRecord
  2
*MODEL_SPACE
  0
BLOCK_RECORD
  5
d4
100
AcDbSymbolTableRecord
100
AcDbBlockTableRecord
  2
*PAPER_SPACE
  0
BLOCK_RECORD
  5
d5
100
AcDbSymbolTableRecord
100
AcDbBlockTableRecord
  2
_OPEN
  0
BLOCK_RECORD
  5
d6
100
AcDbSymbolTableRecord
100
AcDbBlockTableRecord
  2
_NONE
  0
BLOCK_RECORD
  5
d7
100
AcDbSymbolTableRecord
100
AcDbBlockTableRecord
  2
_OPEN30
  0
BLOCK_RECORD
  5
d8
100
AcDbSymbolTableRecord
100
AcDbBlockTableRecord
  2
KOZU0001
  0
BLOCK_RECORD
  5
d9
100
AcDbSymbolTableRecord
100
AcDbBlockTableRecord
  2
KOZU0002
  0
BLOCK_RECORD
  5
da
100
AcDbSymbolTableRecord
100
AcDbBlockTableRecord
  2
KOZU0003
  0
BLOCK_RECORD
  5
db
100
AcDbSymbolTableRecord
100
AcDbBlockTableRecord
  2
KOZU0004
  0
BLOCK_RECORD
  5
dc
100
AcDbSymbolTableRecord
100
AcDbBlockTableRecord
  2
KOZU0005
  0
BLOCK_RECORD
  5
dd
100
AcDbSymbolTableRecord
100
AcDbBlockTableRecord
  2
KOZU0006
  0
BLOCK_RECORD
  5
de
100
AcDbSymbolTableRecord
100
AcDbBlockTableRecord
  2
KOZU0007
  0
BLOCK_RECORD
  5
df
100
AcDbSymbolTableRecord
100
AcDbBlockTableRecord
  2
KOZU0008
  0
BLOCK_RECORD
  5
e0
100
AcDbSymbolTableRecord
100
AcDbBlockTableRecord
  2
KOZU0009
  0
BLOCK_RECORD
  5
e1
100
AcDbSymbolTableRecord
100
AcDbBlockTableRecord
  2
KOZU0010
  0
BLOCK_RECORD
  5
e2
100
AcDbSymbolTableRecord
100
AcDbBlockTableRecord
  2
*D1
  0
BLOCK_RECORD
  5
e3
100
AcDbSymbolTableRecord
100
AcDbBlockTableRecord
  2
*D2
  0
BLOCK_RECORD
  5
e4
100
AcDbSymbolTableRecord
100
AcDbBlockTableRecord
  2
*D3
  0
BLOCK_RECORD
  5
e5
100
AcDbSymbolTableRecord
100
AcDbBlockTableRecord
  2
*D4
  0
BLOCK_RECORD
  5
e6
100
AcDbSymbolTableRecord
100
AcDbBlockTableRecord
  2
*D5
  0
BLOCK_RECORD
  5
e7
100
AcDbSymbolTableRecord
100
AcDbBlockTableRecord
  2
*D6
  0
BLOCK_RECORD
  5
e8
100
AcDbSymbolTableRecord
100
AcDbBlockTableRecord
  2
*D7
  0
BLOCK_RECORD
  5
e9
100
AcDbSymbolTableRecord
100
AcDbBlockTableRecord
  2
*D8
  0
BLOCK_RECORD
  5
ea
100
AcDbSymbolTableRecord
100
AcDbBlockTableRecord
  2
*D9
  0
BLOCK_RECORD
  5
eb
100
AcDbSymbolTableRecord
100
AcDbBlockTableRecord
  2
*D10
  0
BLOCK_RECORD
  5
ec
100
AcDbSymbolTableRecord
100
AcDbBlockTableRecord
  2
*D11
  0
BLOCK_RECORD
  5
ed
100
AcDbSymbolTableRecord
100
AcDbBlockTableRecord
  2
*D12
  0
BLOCK_RECORD
  5
ee
100
AcDbSymbolTableRecord
100
AcDbBlockTableRecord
  2
*D13
  0
BLOCK_RECORD
  5
ef
100
AcDbSymbolTableRecord
100
AcDbBlockTableRecord
  2
*D14
  0
BLOCK_RECORD
  5
f0
100
AcDbSymbolTableRecord
100
AcDbBlockTableRecord
  2
*D15
  0
BLOCK_RECORD
  5
f1
100
AcDbSymbolTableRecord
100
AcDbBlockTableRecord
  2
*D16
  0
BLOCK_RECORD
  5
f2
100
AcDbSymbolTableRecord
100
AcDbBlockTableRecord
  2
*D17
  0
BLOCK_RECORD
  5
f3
100
AcDbSymbolTableRecord
100
AcDbBlockTableRecord
  2
*D18
  0
BLOCK_RECORD
  5
f4
100
AcDbSymbolTableRecord
100
AcDbBlockTableRecord
  2
*D19
  0
BLOCK_RECORD
  5
f5
100
AcDbSymbolTableRecord
100
AcDbBlockTableRecord
  2
*D20
  0
BLOCK_RECORD
  5
f6
100
AcDbSymbolTableRecord
100
AcDbBlockTableRecord
  2
*D21
  0
BLOCK_RECORD
  5
f7
100
AcDbSymbolTableRecord
100
AcDbBlockTableRecord
  2
*D22
  0
BLOCK_RECORD
  5
f8
100
AcDbSymbolTableRecord
100
AcDbBlockTableRecord
  2
*D23
  0
BLOCK_RECORD
  5
f9
100
AcDbSymbolTableRecord
100
AcDbBlockTableRecord
  2
*D24
  0
BLOCK_RECORD
  5
fa
100
AcDbSymbolTableRecord
100
AcDbBlockTableRecord
  2
*D25
  0
BLOCK_RECORD
  5
fb
100
AcDbSymbolTableRecord
100
AcDbBlockTableRecord
  2
*D26
  0
BLOCK_RECORD
  5
fc
100
AcDbSymbolTableRecord
100
AcDbBlockTableRecord
  2
*D27
  0
BLOCK_RECORD
  5
fd
100
AcDbSymbolTableRecord
100
AcDbBlockTableRecord
  2
*D28
  0
BLOCK_RECORD
  5
fe
100
AcDbSymbolTableRecord
100
AcDbBlockTableRecord
  2
*D29
  0
BLOCK_RECORD
  5
ff
100
AcDbSymbolTableRecord
100
AcDbBlockTableRecord
  2
*D30
  0
BLOCK_RECORD
  5
100
100
AcDbSymbolTableRecord
100
AcDbBlockTableRecord
  2
*D31
  0
BLOCK_RECORD
  5
101
100
AcDbSymbolTableRecord
100
AcDbBlockTableRecord
  2
*D32
  0
BLOCK_RECORD
  5
102
100
AcDbSymbolTableRecord
100
AcDbBlockTableRecord
  2
*D33
  0
BLOCK_RECORD
  5
103
100
AcDbSymbolTableRecord
100
AcDbBlockTableRecord
  2
*D34
  0
BLOCK_RECORD
  5
104
100
AcDbSymbolTableRecord
100
AcDbBlockTableRecord
  2
*D35
  0
BLOCK_RECORD
  5
105
100
AcDbSymbolTableRecord
100
AcDbBlockTableRecord
  2
*D36
  0
BLOCK_RECORD
  5
106
100
AcDbSymbolTableRecord
100
AcDbBlockTableRecord
  2
*D37
  0
BLOCK_RECORD
  5
107
100
AcDbSymbolTableRecord
100
AcDbBlockTableRecord
  2
*D38
  0
BLOCK_RECORD
  5
108
100
AcDbSymbolTableRecord
100
AcDbBlockTableRecord
  2
*D39
  0
BLOCK_RECORD
  5
109
100
AcDbSymbolTableRecord
100
AcDbBlockTableRecord
  2
*D40
  0
ENDTAB
  0
TABLE
  2
VPORT
  5
10a
100
AcDbSymbolTable
 70
     0
  0
ENDTAB
  0
ENDSEC
  0
SECTION
  2
BLOCKS
  0
BLOCK
  8
0
  5
10b
100
AcDbEntity
100
AcDbBlockBegin
  2
*MODEL_SPACE
 70
     0
 10
0
 20
0
  3
*MODEL_SPACE
  0
ENDBLK
  8
0
  5
10c
100
AcDbEntity
100
AcDbBlockEnd
  0
BLOCK
  8
0
  5
10d
 67
     1
100
AcDbEntity
100
AcDbBlockBegin
  2
*PAPER_SPACE
 70
     0
 10
0
 20
0
  3
*PAPER_SPACE
  0
ENDBLK
  8
0
  5
10e
 67
     1
100
AcDbEntity
100
AcDbBlockEnd
  0
BLOCK
  8
0
  5
10f
100
AcDbEntity
100
AcDbBlockBegin
  2
_OPEN
 70
    64
 10
0
 20
0
  3
_OPEN
  0
LINE
  5
110
100
AcDbEntity
  8
0
  6
BYBLOCK
 62
     0
100
AcDbLine
 10
0
 20
0
 11
-3.12799995302215
 21
-0.5619999915596265
  0
LINE
  5
111
100
AcDbEntity
  8
0
  6
BYBLOCK
 62
     0
100
AcDbLine
 10
0
 20
0
 11
-3.127999953022157
 21
0.5619999915595884
  0
LINE
  5
112
100
AcDbEntity
  8
0
  6
BYBLOCK
 62
     0
100
AcDbLine
 10
0
 20
0
 11
-2.99999995494452
 21
0
  0
ENDBLK
  8
0
  5
113
100
AcDbEntity
100
AcDbBlockEnd
  0
BLOCK
  8
0
  5
114
100
AcDbEntity
100
AcDbBlockBegin
  2
_NONE
 70
    64
 10
0
 20
0
  3
_NONE
  0
CIRCLE
  5
115
100
AcDbEntity
  8
0
  6
BYBLOCK
 62
     0
100
AcDbCircle
 10
0
 20
0
 40
0.001
  0
ENDBLK
  8
0
  5
116
100
AcDbEntity
100
AcDbBlockEnd
  0
BLOCK
  8
0
  5
117
100
AcDbEntity
100
AcDbBlockBegin
  2
_OPEN30
 70
    64
 10
0
 20
0
  3
_OPEN30
  0
LINE
  5
118
100
AcDbEntity
  8
0
  6
BYBLOCK
 62
     0
100
AcDbLine
 10
0
 20
0
 11
-2.999999954944514
 21
-0.9999999849815249
  0
LINE
  5
119
100
AcDbEntity
  8
0
  6
BYBLOCK
 62
     0
100
AcDbLine
 10
0
 20
0
 11
-2.999999954944526
 21
0.9999999849814883
  0
LINE
  5
11a
100
AcDbEntity
  8
0
  6
BYBLOCK
 62
     0
100
AcDbLine
 10
0
 20
0
 11
-2.99999995494452
 21
0
  0
ENDBLK
  8
0
  5
11b
100
AcDbEntity
100
AcDbBlockEnd
  0
BLOCK
  8
0
  5
11c
100
AcDbEntity
100
AcDbBlockBegin
  2
*D1
 70
    65
 10
0
 20
0
  0
LINE
  5
11d
100
AcDbEntity
  8
0
  6
CONTINUOUS
 62
     7
100
AcDbLine
 10
-112.4006195518914
 20
91.77685546875
 11
-105.4006194617805
 21
91.77685546874999
  0
INSERT
  5
11e
100
AcDbEntity
  8
0
  6
CONTINUOUS
 62
     7
100
AcDbBlockReference
  2
_OPEN30
 10
-115.4006195068359
 20
91.77685546875
 41
1
 42
1
 43
1
 50
180.0000000000004
  0
INSERT
  5
11f
100
AcDbEntity
  8
0
  6
CONTINUOUS
 62
     7
100
AcDbBlockReference
  2
_OPEN30
 10
-102.4006195068359
 20
91.77685546875
 41
1
 42
1
 43
1
  0
LINE
  5
120
100
AcDbEntity
  8
0
  6
CONTINUOUS
 62
     7
100
AcDbLine
 10
-115.4006042480469
 20
81.62908935546875
 11
-115.4006042480469
 21
94.63385772705078
  0
LINE
  5
121
100
AcDbEntity
  8
0
  6
CONTINUOUS
 62
     7
100
AcDbLine
 10
-102.4006042480469
 20
83.92909240722656
 11
-102.4006042480469
 21
94.63385772705078
  0
MTEXT
  5
122
100
AcDbEntity
  8
0
  6
CONTINUOUS
 62
     7
100
AcDbMText
 10
-108.9006042480469
 20
91.77685546875
 40
4
 41
32
 71
     8
 72
     1
  1
{\W0.864328;１３}
  0
POINT
  5
123
100
AcDbEntity
  8
DEFPOINTS
  6
CONTINUOUS
 62
     7
100
AcDbPoint
 10
-115.4006042480469
 20
81.62908935546875
  0
POINT
  5
124
100
AcDbEntity
  8
DEFPOINTS
  6
CONTINUOUS
 62
     7
100
AcDbPoint
 10
-102.4006042480469
 20
83.92909240722656
  0
POINT
  5
125
100
AcDbEntity
  8
DEFPOINTS
  6
CONTINUOUS
 62
     7
100
AcDbPoint
 10
-102.4006195068359
 20
91.77685546875
  0
ENDBLK
  8
0
  5
126
100
AcDbEntity
100
AcDbBlockEnd
  0
BLOCK
  8
0
  5
127
100
AcDbEntity
100
AcDbBlockBegin
  2
*D2
 70
    65
 10
0
 20
0
  0
LINE
  5
128
100
AcDbEntity
  8
0
  6
CONTINUOUS
 62
     7
100
AcDbLine
 10
15.59938053821954
 20
91.77685546874999
 11
8.599380448108583
 21
91.77685546875
  0
INSERT
  5
129
100
AcDbEntity
  8
0
  6
CONTINUOUS
 62
     7
100
AcDbBlockReference
  2
_OPEN30
 10
18.59938049316406
 20
91.77685546875
 41
1
 42
1
 43
1
  0
INSERT
  5
12a
100
AcDbEntity
  8
0
  6
CONTINUOUS
 62
     7
100
AcDbBlockReference
  2
_OPEN30
 10
5.599380493164063
 20
91.77685546875
 41
1
 42
1
 43
1
 50
180.0000000000004
  0
LINE
  5
12b
100
AcDbEntity
  8
0
  6
CONTINUOUS
 62
     7
100
AcDbLine
 10
18.59938049316406
 20
81.62908935546875
 11
18.59938049316406
 21
94.63385772705078
  0
LINE
  5
12c
100
AcDbEntity
  8
0
  6
CONTINUOUS
 62
     7
100
AcDbLine
 10
5.599380493164063
 20
83.92909240722656
 11
5.599380493164063
 21
94.63385772705078
  0
MTEXT
  5
12d
100
AcDbEntity
  8
0
  6
CONTINUOUS
 62
     7
100
AcDbMText
 10
12.09938049316406
 20
91.77685546875
 40
4
 41
32
 71
     8
 72
     1
  1
{\W0.864328;１３}
  0
POINT
  5
12e
100
AcDbEntity
  8
DEFPOINTS
  6
CONTINUOUS
 62
     7
100
AcDbPoint
 10
18.59938049316406
 20
81.62908935546875
  0
POINT
  5
12f
100
AcDbEntity
  8
DEFPOINTS
  6
CONTINUOUS
 62
     7
100
AcDbPoint
 10
5.599380493164063
 20
83.92909240722656
  0
POINT
  5
130
100
AcDbEntity
  8
DEFPOINTS
  6
CONTINUOUS
 62
     7
100
AcDbPoint
 10
5.599380493164063
 20
91.77685546875
  0
ENDBLK
  8
0
  5
131
100
AcDbEntity
100
AcDbBlockEnd
  0
BLOCK
  8
0
  5
132
100
AcDbEntity
100
AcDbBlockBegin
  2
*D3
 70
    65
 10
0
 20
0
  0
LINE
  5
133
100
AcDbEntity
  8
0
  6
CONTINUOUS
 62
     7
100
AcDbLine
 10
-4.400619551891417
 20
10.68684387207031
 11
15.59938053821954
 21
10.6868438720703
  0
INSERT
  5
134
100
AcDbEntity
  8
0
  6
CONTINUOUS
 62
     7
100
AcDbBlockReference
  2
_OPEN30
 10
-7.400619506835938
 20
10.68684387207031
 41
1
 42
1
 43
1
 50
180.0000000000004
  0
INSERT
  5
135
100
AcDbEntity
  8
0
  6
CONTINUOUS
 62
     7
100
AcDbBlockReference
  2
_OPEN30
 10
18.59938049316406
 20
10.68684387207031
 41
1
 42
1
 43
1
  0
LINE
  5
136
100
AcDbEntity
  8
0
  6
CONTINUOUS
 62
     7
100
AcDbLine
 10
-7.400619506835938
 20
24.42910575866699
 11
-7.400619506835938
 21
7.829842567443848
  0
LINE
  5
137
100
AcDbEntity
  8
0
  6
CONTINUOUS
 62
     7
100
AcDbLine
 10
18.59938049316406
 20
24.22910881042481
 11
18.59938049316406
 21
7.829842567443848
  0
MTEXT
  5
138
100
AcDbEntity
  8
0
  6
CONTINUOUS
 62
     7
100
AcDbMText
 10
5.599380493164063
 20
10.68684387207031
 40
4
 41
32
 71
     8
 72
     1
  1
{\W0.864328;２６}
  0
POINT
  5
139
100
AcDbEntity
  8
DEFPOINTS
  6
CONTINUOUS
 62
     7
100
AcDbPoint
 10
-7.400619506835938
 20
24.42910575866699
  0
POINT
  5
13a
100
AcDbEntity
  8
DEFPOINTS
  6
CONTINUOUS
 62
     7
100
AcDbPoint
 10
18.59938049316406
 20
24.22910881042481
  0
POINT
  5
13b
100
AcDbEntity
  8
DEFPOINTS
  6
CONTINUOUS
 62
     7
100
AcDbPoint
 10
18.59938049316406
 20
10.68684387207031
  0
ENDBLK
  8
0
  5
13c
100
AcDbEntity
100
AcDbBlockEnd
  0
BLOCK
  8
0
  5
13d
100
AcDbEntity
100
AcDbBlockBegin
  2
*D4
 70
    65
 10
0
 20
0
  0
LINE
  5
13e
100
AcDbEntity
  8
0
  6
CONTINUOUS
 62
     7
100
AcDbLine
 10
-112.4006195518914
 20
10.68684387207031
 11
-92.40061946178045
 21
10.6868438720703
  0
INSERT
  5
13f
100
AcDbEntity
  8
0
  6
CONTINUOUS
 62
     7
100
AcDbBlockReference
  2
_OPEN30
 10
-115.4006195068359
 20
10.68684387207031
 41
1
 42
1
 43
1
 50
180.0000000000004
  0
INSERT
  5
140
100
AcDbEntity
  8
0
  6
CONTINUOUS
 62
     7
100
AcDbBlockReference
  2
_OPEN30
 10
-89.40061950683594
 20
10.68684387207031
 41
1
 42
1
 43
1
  0
LINE
  5
141
100
AcDbEntity
  8
0
  6
CONTINUOUS
 62
     7
100
AcDbLine
 10
-115.4006042480469
 20
24.22910881042481
 11
-115.4006042480469
 21
7.829842567443848
  0
LINE
  5
142
100
AcDbEntity
  8
0
  6
CONTINUOUS
 62
     7
100
AcDbLine
 10
-89.40060424804688
 20
24.42910575866699
 11
-89.40060424804688
 21
7.829842567443848
  0
MTEXT
  5
143
100
AcDbEntity
  8
0
  6
CONTINUOUS
 62
     7
100
AcDbMText
 10
-102.4006042480469
 20
10.68684387207031
 40
4
 41
32
 71
     8
 72
     1
  1
{\W0.864328;２６}
  0
POINT
  5
144
100
AcDbEntity
  8
DEFPOINTS
  6
CONTINUOUS
 62
     7
100
AcDbPoint
 10
-115.4006042480469
 20
24.22910881042481
  0
POINT
  5
145
100
AcDbEntity
  8
DEFPOINTS
  6
CONTINUOUS
 62
     7
100
AcDbPoint
 10
-89.40060424804688
 20
24.42910575866699
  0
POINT
  5
146
100
AcDbEntity
  8
DEFPOINTS
  6
CONTINUOUS
 62
     7
100
AcDbPoint
 10
-89.40061950683594
 20
10.68684387207031
  0
ENDBLK
  8
0
  5
147
100
AcDbEntity
100
AcDbBlockEnd
  0
BLOCK
  8
0
  5
148
100
AcDbEntity
100
AcDbBlockBegin
  2
*D5
 70
    65
 10
0
 20
0
  0
LINE
  5
149
100
AcDbEntity
  8
0
  6
CONTINUOUS
 62
     7
100
AcDbLine
 10
21.59938044810858
 20
10.68684387207031
 11
26.59936527943048
 21
10.6868438720703
  0
INSERT
  5
14a
100
AcDbEntity
  8
0
  6
CONTINUOUS
 62
     7
100
AcDbBlockReference
  2
_OPEN30
 10
18.59938049316406
 20
10.68684387207031
 41
1
 42
1
 43
1
 50
180.0000000000004
  0
INSERT
  5
14b
100
AcDbEntity
  8
0
  6
CONTINUOUS
 62
     7
100
AcDbBlockReference
  2
_OPEN30
 10
29.599365234375
 20
10.68684387207031
 41
1
 42
1
 43
1
  0
LINE
  5
14c
100
AcDbEntity
  8
0
  6
CONTINUOUS
 62
     7
100
AcDbLine
 10
29.599365234375
 20
38.3291015625
 11
29.599365234375
 21
7.829842567443848
  0
MTEXT
  5
14d
100
AcDbEntity
  8
0
  6
CONTINUOUS
 62
     7
100
AcDbMText
 10
24.099365234375
 20
10.68684387207031
 40
4
 41
32
 71
     8
 72
     1
  1
{\W0.864328;１１}
  0
POINT
  5
14e
100
AcDbEntity
  8
DEFPOINTS
  6
CONTINUOUS
 62
     7
100
AcDbPoint
 10
18.59938049316406
 20
24.22910881042481
  0
POINT
  5
14f
100
AcDbEntity
  8
DEFPOINTS
  6
CONTINUOUS
 62
     7
100
AcDbPoint
 10
29.599365234375
 20
38.3291015625
  0
POINT
  5
150
100
AcDbEntity
  8
DEFPOINTS
  6
CONTINUOUS
 62
     7
100
AcDbPoint
 10
29.599365234375
 20
10.68684387207031
  0
ENDBLK
  8
0
  5
151
100
AcDbEntity
100
AcDbBlockEnd
  0
BLOCK
  8
0
  5
152
100
AcDbEntity
100
AcDbBlockBegin
  2
*D6
 70
    65
 10
0
 20
0
  0
LINE
  5
153
100
AcDbEntity
  8
0
  6
CONTINUOUS
 62
     7
100
AcDbLine
 10
21.59938044810858
 20
-0.2669906616210938
 11
36.59936527943048
 21
-0.266990661621112
  0
INSERT
  5
154
100
AcDbEntity
  8
0
  6
CONTINUOUS
 62
     7
100
AcDbBlockReference
  2
_OPEN30
 10
18.59938049316406
 20
-0.2669906616210938
 41
1
 42
1
 43
1
 50
180.0000000000004
  0
INSERT
  5
155
100
AcDbEntity
  8
0
  6
CONTINUOUS
 62
     7
100
AcDbBlockReference
  2
_OPEN30
 10
39.599365234375
 20
-0.2669906616210938
 41
1
 42
1
 43
1
  0
LINE
  5
156
100
AcDbEntity
  8
0
  6
CONTINUOUS
 62
     7
100
AcDbLine
 10
18.59938049316406
 20
24.22910881042481
 11
18.59938049316406
 21
-3.123992919921875
  0
LINE
  5
157
100
AcDbEntity
  8
0
  6
CONTINUOUS
 62
     7
100
AcDbLine
 10
39.599365234375
 20
45.92910385131836
 11
39.599365234375
 21
-3.123992919921875
  0
MTEXT
  5
158
100
AcDbEntity
  8
0
  6
CONTINUOUS
 62
     7
100
AcDbMText
 10
29.099365234375
 20
-0.2669906616210938
 40
4
 41
32
 71
     8
 72
     1
  1
{\W0.864328;２１}
  0
POINT
  5
159
100
AcDbEntity
  8
DEFPOINTS
  6
CONTINUOUS
 62
     7
100
AcDbPoint
 10
18.59938049316406
 20
24.22910881042481
  0
POINT
  5
15a
100
AcDbEntity
  8
DEFPOINTS
  6
CONTINUOUS
 62
     7
100
AcDbPoint
 10
39.599365234375
 20
45.92910385131836
  0
POINT
  5
15b
100
AcDbEntity
  8
DEFPOINTS
  6
CONTINUOUS
 62
     7
100
AcDbPoint
 10
39.599365234375
 20
-0.2669906616210938
  0
ENDBLK
  8
0
  5
15c
100
AcDbEntity
100
AcDbBlockEnd
  0
BLOCK
  8
0
  5
15d
100
AcDbEntity
100
AcDbBlockBegin
  2
*D7
 70
    65
 10
0
 20
0
  0
LINE
  5
15e
100
AcDbEntity
  8
0
  6
CONTINUOUS
 62
     7
100
AcDbLine
 10
42.59936518931952
 20
-0.2669906616210938
 11
66.59936527943049
 21
-0.266990661621112
  0
INSERT
  5
15f
100
AcDbEntity
  8
0
  6
CONTINUOUS
 62
     7
100
AcDbBlockReference
  2
_OPEN30
 10
39.599365234375
 20
-0.2669906616210938
 41
1
 42
1
 43
1
 50
180.0000000000004
  0
INSERT
  5
160
100
AcDbEntity
  8
0
  6
CONTINUOUS
 62
     7
100
AcDbBlockReference
  2
_OPEN30
 10
69.599365234375
 20
-0.2669906616210938
 41
1
 42
1
 43
1
  0
LINE
  5
161
100
AcDbEntity
  8
0
  6
CONTINUOUS
 62
     7
100
AcDbLine
 10
69.599365234375
 20
47.42910003662109
 11
69.599365234375
 21
-3.123992919921875
  0
MTEXT
  5
162
100
AcDbEntity
  8
0
  6
CONTINUOUS
 62
     7
100
AcDbMText
 10
54.599365234375
 20
-0.2669906616210938
 40
4
 41
32
 71
     8
 72
     1
  1
{\W0.864328;３０}
  0
POINT
  5
163
100
AcDbEntity
  8
DEFPOINTS
  6
CONTINUOUS
 62
     7
100
AcDbPoint
 10
39.599365234375
 20
45.92910385131836
  0
POINT
  5
164
100
AcDbEntity
  8
DEFPOINTS
  6
CONTINUOUS
 62
     7
100
AcDbPoint
 10
69.599365234375
 20
47.42910003662109
  0
POINT
  5
165
100
AcDbEntity
  8
DEFPOINTS
  6
CONTINUOUS
 62
     7
100
AcDbPoint
 10
69.599365234375
 20
-0.2669906616210938
  0
ENDBLK
  8
0
  5
166
100
AcDbEntity
100
AcDbBlockEnd
  0
BLOCK
  8
0
  5
167
100
AcDbEntity
100
AcDbBlockBegin
  2
*D8
 70
    65
 10
0
 20
0
  0
LINE
  5
168
100
AcDbEntity
  8
0
  6
CONTINUOUS
 62
     7
100
AcDbLine
 10
66.59936527943049
 20
10.6868438720703
 11
45.59936518931952
 21
10.68684387207031
  0
INSERT
  5
169
100
AcDbEntity
  8
0
  6
CONTINUOUS
 62
     7
100
AcDbBlockReference
  2
_OPEN30
 10
69.599365234375
 20
10.68684387207031
 41
1
 42
1
 43
1
  0
INSERT
  5
16a
100
AcDbEntity
  8
0
  6
CONTINUOUS
 62
     7
100
AcDbBlockReference
  2
_OPEN30
 10
42.599365234375
 20
10.68684387207031
 41
1
 42
1
 43
1
 50
180.0000000000004
  0
LINE
  5
16b
100
AcDbEntity
  8
0
  6
CONTINUOUS
 62
     7
100
AcDbLine
 10
69.599365234375
 20
47.42910003662109
 11
69.599365234375
 21
7.829842567443848
  0
LINE
  5
16c
100
AcDbEntity
  8
0
  6
CONTINUOUS
 62
     7
100
AcDbLine
 10
42.599365234375
 20
45.92910385131836
 11
42.599365234375
 21
7.829842567443848
  0
MTEXT
  5
16d
100
AcDbEntity
  8
0
  6
CONTINUOUS
 62
     7
100
AcDbMText
 10
56.099365234375
 20
10.68684387207031
 40
4
 41
32
 71
     8
 72
     1
  1
{\W0.864328;２７}
  0
POINT
  5
16e
100
AcDbEntity
  8
DEFPOINTS
  6
CONTINUOUS
 62
     7
100
AcDbPoint
 10
69.599365234375
 20
47.42910003662109
  0
POINT
  5
16f
100
AcDbEntity
  8
DEFPOINTS
  6
CONTINUOUS
 62
     7
100
AcDbPoint
 10
42.599365234375
 20
45.92910385131836
  0
POINT
  5
170
100
AcDbEntity
  8
DEFPOINTS
  6
CONTINUOUS
 62
     7
100
AcDbPoint
 10
42.599365234375
 20
10.68684387207031
  0
ENDBLK
  8
0
  5
171
100
AcDbEntity
100
AcDbBlockEnd
  0
BLOCK
  8
0
  5
172
100
AcDbEntity
100
AcDbBlockBegin
  2
*D9
 70
    65
 10
0
 20
0
  0
LINE
  5
173
100
AcDbEntity
  8
0
  6
CONTINUOUS
 62
     7
100
AcDbLine
 10
53.59938044810858
 20
27.38606359481812
 11
55.59938053821954
 21
27.3860635948181
  0
INSERT
  5
174
100
AcDbEntity
  8
0
  6
CONTINUOUS
 62
     7
100
AcDbBlockReference
  2
_OPEN30
 10
50.59938049316406
 20
27.38606359481812
 41
1
 42
1
 43
1
 50
180.0000000000004
  0
INSERT
  5
175
100
AcDbEntity
  8
0
  6
CONTINUOUS
 62
     7
100
AcDbBlockReference
  2
_OPEN30
 10
58.59938049316406
 20
27.38606359481812
 41
1
 42
1
 43
1
  0
LINE
  5
176
100
AcDbEntity
  8
0
  6
CONTINUOUS
 62
     7
100
AcDbLine
 10
50.59938049316406
 20
42.42910003662109
 11
50.59938049316406
 21
25.10006359481812
  0
LINE
  5
177
100
AcDbEntity
  8
0
  6
CONTINUOUS
 62
     7
100
AcDbLine
 10
58.59938049316406
 20
42.42910003662109
 11
58.59938049316406
 21
25.10006359481812
  0
MTEXT
  5
178
100
AcDbEntity
  8
0
  6
CONTINUOUS
 62
     7
100
AcDbMText
 10
54.59938049316406
 20
27.38606359481812
 40
4
 41
16
 71
     8
 72
     1
  1
{\W0.900315;８}
  0
POINT
  5
179
100
AcDbEntity
  8
DEFPOINTS
  6
CONTINUOUS
 62
     7
100
AcDbPoint
 10
50.59938049316406
 20
42.42910003662109
  0
POINT
  5
17a
100
AcDbEntity
  8
DEFPOINTS
  6
CONTINUOUS
 62
     7
100
AcDbPoint
 10
58.59938049316406
 20
42.42910003662109
  0
POINT
  5
17b
100
AcDbEntity
  8
DEFPOINTS
  6
CONTINUOUS
 62
     7
100
AcDbPoint
 10
58.59938049316406
 20
27.38606359481812
  0
ENDBLK
  8
0
  5
17c
100
AcDbEntity
100
AcDbBlockEnd
  0
BLOCK
  8
0
  5
17d
100
AcDbEntity
100
AcDbBlockBegin
  2
*D10
 70
    65
 10
0
 20
0
  0
LINE
  5
17e
100
AcDbEntity
  8
0
  6
CONTINUOUS
 62
     7
100
AcDbLine
 10
15.59938053821954
 20
-0.266990661621112
 11
-112.4006195518914
 21
-0.2669906616210938
  0
INSERT
  5
17f
100
AcDbEntity
  8
0
  6
CONTINUOUS
 62
     7
100
AcDbBlockReference
  2
_OPEN30
 10
18.59938049316406
 20
-0.2669906616210938
 41
1
 42
1
 43
1
  0
INSERT
  5
180
100
AcDbEntity
  8
0
  6
CONTINUOUS
 62
     7
100
AcDbBlockReference
  2
_OPEN30
 10
-115.4006195068359
 20
-0.2669906616210938
 41
1
 42
1
 43
1
 50
180.0000000000004
  0
LINE
  5
181
100
AcDbEntity
  8
0
  6
CONTINUOUS
 62
     7
100
AcDbLine
 10
-115.4006042480469
 20
24.22910881042481
 11
-115.4006042480469
 21
-3.123992919921875
  0
MTEXT
  5
182
100
AcDbEntity
  8
0
  6
CONTINUOUS
 62
     7
100
AcDbMText
 10
-48.40060424804688
 20
-0.2669906616210938
 40
4
 41
128
 71
     8
 72
     1
  1
{\W0.845552;８４＋ストロ－ク}
  0
POINT
  5
183
100
AcDbEntity
  8
DEFPOINTS
  6
CONTINUOUS
 62
     7
100
AcDbPoint
 10
18.59938049316406
 20
24.22910881042481
  0
POINT
  5
184
100
AcDbEntity
  8
DEFPOINTS
  6
CONTINUOUS
 62
     7
100
AcDbPoint
 10
-115.4006042480469
 20
24.22910881042481
  0
POINT
  5
185
100
AcDbEntity
  8
DEFPOINTS
  6
CONTINUOUS
 62
     7
100
AcDbPoint
 10
-115.4006195068359
 20
-0.2669906616210938
  0
ENDBLK
  8
0
  5
186
100
AcDbEntity
100
AcDbBlockEnd
  0
BLOCK
  8
0
  5
187
100
AcDbEntity
100
AcDbBlockBegin
  2
*D11
 70
    65
 10
0
 20
0
  0
LINE
  5
188
100
AcDbEntity
  8
0
  6
CONTINUOUS
 62
     7
100
AcDbLine
 10
176.249374344593
 20
8.818624496459961
 11
210.7492676231805
 21
8.818624496459943
  0
INSERT
  5
189
100
AcDbEntity
  8
0
  6
CONTINUOUS
 62
     7
100
AcDbBlockReference
  2
_OPEN30
 10
173.2493743896484
 20
8.818624496459961
 41
1
 42
1
 43
1
 50
180.0000000000004
  0
INSERT
  5
18a
100
AcDbEntity
  8
0
  6
CONTINUOUS
 62
     7
100
AcDbBlockReference
  2
_OPEN30
 10
213.749267578125
 20
8.818624496459961
 41
1
 42
1
 43
1
  0
LINE
  5
18b
100
AcDbEntity
  8
0
  6
CONTINUOUS
 62
     7
100
AcDbLine
 10
173.2493743896484
 20
32.67910766601563
 11
173.2493743896484
 21
5.961624145507813
  0
LINE
  5
18c
100
AcDbEntity
  8
0
  6
CONTINUOUS
 62
     7
100
AcDbLine
 10
213.749267578125
 20
32.67910766601563
 11
213.749267578125
 21
5.961624145507813
  0
MTEXT
  5
18d
100
AcDbEntity
  8
0
  6
CONTINUOUS
 62
     7
100
AcDbMText
 10
193.4993286132813
 20
8.818624496459961
 40
4
 41
80
 71
     8
 72
     1
  1
{\W0.848905;□４０．５}
  0
POINT
  5
18e
100
AcDbEntity
  8
DEFPOINTS
  6
CONTINUOUS
 62
     7
100
AcDbPoint
 10
173.2493743896484
 20
32.67910766601563
  0
POINT
  5
18f
100
AcDbEntity
  8
DEFPOINTS
  6
CONTINUOUS
 62
     7
100
AcDbPoint
 10
213.749267578125
 20
32.67910766601563
  0
POINT
  5
190
100
AcDbEntity
  8
DEFPOINTS
  6
CONTINUOUS
 62
     7
100
AcDbPoint
 10
213.749267578125
 20
8.818624496459961
  0
ENDBLK
  8
0
  5
191
100
AcDbEntity
100
AcDbBlockEnd
  0
BLOCK
  8
0
  5
192
100
AcDbEntity
100
AcDbBlockBegin
  2
*D12
 70
    65
 10
0
 20
0
  0
LINE
  5
193
100
AcDbEntity
  8
0
  6
CONTINUOUS
 62
     7
100
AcDbLine
 10
167.499374344593
 20
-0.266998291015625
 11
219.4992676231805
 21
-0.2669982910156433
  0
INSERT
  5
194
100
AcDbEntity
  8
0
  6
CONTINUOUS
 62
     7
100
AcDbBlockReference
  2
_OPEN30
 10
164.4993743896484
 20
-0.266998291015625
 41
1
 42
1
 43
1
 50
180.0000000000004
  0
INSERT
  5
195
100
AcDbEntity
  8
0
  6
CONTINUOUS
 62
     7
100
AcDbBlockReference
  2
_OPEN30
 10
222.499267578125
 20
-0.266998291015625
 41
1
 42
1
 43
1
  0
LINE
  5
196
100
AcDbEntity
  8
0
  6
CONTINUOUS
 62
     7
100
AcDbLine
 10
164.4993743896484
 20
27.92906951904297
 11
164.4993743896484
 21
-3.123992919921875
  0
LINE
  5
197
100
AcDbEntity
  8
0
  6
CONTINUOUS
 62
     7
100
AcDbLine
 10
222.499267578125
 20
27.92906951904297
 11
222.499267578125
 21
-3.123992919921875
  0
MTEXT
  5
198
100
AcDbEntity
  8
0
  6
CONTINUOUS
 62
     7
100
AcDbMText
 10
193.4993286132813
 20
-0.266998291015625
 40
4
 41
48
 71
     8
 72
     1
  1
{\W0.855331;□５８}
  0
POINT
  5
199
100
AcDbEntity
  8
DEFPOINTS
  6
CONTINUOUS
 62
     7
100
AcDbPoint
 10
164.4993743896484
 20
27.92906951904297
  0
POINT
  5
19a
100
AcDbEntity
  8
DEFPOINTS
  6
CONTINUOUS
 62
     7
100
AcDbPoint
 10
222.499267578125
 20
27.92906951904297
  0
POINT
  5
19b
100
AcDbEntity
  8
DEFPOINTS
  6
CONTINUOUS
 62
     7
100
AcDbPoint
 10
222.499267578125
 20
-0.266998291015625
  0
ENDBLK
  8
0
  5
19c
100
AcDbEntity
100
AcDbBlockEnd
  0
BLOCK
  8
0
  5
19d
100
AcDbEntity
100
AcDbBlockBegin
  2
*D13
 70
    65
 10
0
 20
0
  0
LINE
  5
19e
100
AcDbEntity
  8
0
  6
CONTINUOUS
 62
     7
100
AcDbLine
 10
-62.05590820312501
 20
-278.1181641075555
 11
-62.05590820312497
 21
-268.1181640174445
  0
INSERT
  5
19f
100
AcDbEntity
  8
0
  6
CONTINUOUS
 62
     7
100
AcDbBlockReference
  2
_OPEN30
 10
-62.055908203125
 20
-281.1181640625
 41
1
 42
1
 43
1
 50
270.0000000000005
  0
INSERT
  5
1a0
100
AcDbEntity
  8
0
  6
CONTINUOUS
 62
     7
100
AcDbBlockReference
  2
_OPEN30
 10
-62.055908203125
 20
-265.1181640625
 41
1
 42
1
 43
1
 50
90.00000000000019
  0
LINE
  5
1a1
100
AcDbEntity
  8
0
  6
CONTINUOUS
 62
     7
100
AcDbLine
 10
-83.2691650390625
 20
-281.1181640625
 11
-59.19891357421875
 21
-281.1181640625
  0
LINE
  5
1a2
100
AcDbEntity
  8
0
  6
CONTINUOUS
 62
     7
100
AcDbLine
 10
-83.2691650390625
 20
-265.1181640625
 11
-59.19891357421875
 21
-265.1181640625
  0
MTEXT
  5
1a3
100
AcDbEntity
  8
0
  6
CONTINUOUS
 62
     7
100
AcDbMText
 10
-63.055908203125
 20
-280.5466641187668
 40
4
 41
32
 71
     7
 72
     1
  1
{\W0.864328;１６}
 11
0
 21
1
  0
MTEXT
  5
1a4
100
AcDbEntity
  8
0
  6
CONTINUOUS
 62
     7
100
AcDbMText
 10
-66.055908203125
 20
-272.5466641187668
 40
2
 41
32
 71
     7
 72
     1
  1
{\W0.851241;－０．１}
 11
0
 21
1
  0
MTEXT
  5
1a5
100
AcDbEntity
  8
0
  6
CONTINUOUS
 62
     7
100
AcDbMText
 10
-63.055908203125
 20
-272.5466641187668
 40
2
 41
32
 71
     7
 72
     1
  1
{\W0.851241;－０．３}
 11
0
 21
1
  0
POINT
  5
1a6
100
AcDbEntity
  8
DEFPOINTS
  6
CONTINUOUS
 62
     7
100
AcDbPoint
 10
-83.2691650390625
 20
-281.1181640625
  0
POINT
  5
1a7
100
AcDbEntity
  8
DEFPOINTS
  6
CONTINUOUS
 62
     7
100
AcDbPoint
 10
-83.2691650390625
 20
-265.1181640625
  0
POINT
  5
1a8
100
AcDbEntity
  8
DEFPOINTS
  6
CONTINUOUS
 62
     7
100
AcDbPoint
 10
-62.055908203125
 20
-265.1181640625
  0
ENDBLK
  8
0
  5
1a9
100
AcDbEntity
100
AcDbBlockEnd
  0
BLOCK
  8
0
  5
1aa
100
AcDbEntity
100
AcDbBlockBegin
  2
*D14
 70
    65
 10
0
 20
0
  0
LINE
  5
1ab
100
AcDbEntity
  8
0
  6
CONTINUOUS
 62
     7
100
AcDbLine
 10
-62.52621459960938
 20
-212.6550751182977
 11
-62.52621459960935
 21
-194.6550750281867
  0
INSERT
  5
1ac
100
AcDbEntity
  8
0
  6
CONTINUOUS
 62
     7
100
AcDbBlockReference
  2
_OPEN30
 10
-62.52621459960938
 20
-215.6550750732422
 41
1
 42
1
 43
1
 50
270.0000000000005
  0
INSERT
  5
1ad
100
AcDbEntity
  8
0
  6
CONTINUOUS
 62
     7
100
AcDbBlockReference
  2
_OPEN30
 10
-62.52621459960938
 20
-191.6550750732422
 41
1
 42
1
 43
1
 50
90.00000000000019
  0
LINE
  5
1ae
100
AcDbEntity
  8
0
  6
CONTINUOUS
 62
     7
100
AcDbLine
 10
-87.2691650390625
 20
-215.6550750732422
 11
-59.66921615600586
 21
-215.6550750732422
  0
LINE
  5
1af
100
AcDbEntity
  8
0
  6
CONTINUOUS
 62
     7
100
AcDbLine
 10
-87.2691650390625
 20
-191.6550750732422
 11
-59.66921615600586
 21
-191.6550750732422
  0
MTEXT
  5
1b0
100
AcDbEntity
  8
0
  6
CONTINUOUS
 62
     7
100
AcDbMText
 10
-62.52621459960938
 20
-203.6550750732422
 40
4
 41
88
 71
     8
 72
     1
  1
{\W0.855331;\U+2205２４}
 11
0
 21
1
  0
POINT
  5
1b1
100
AcDbEntity
  8
DEFPOINTS
  6
CONTINUOUS
 62
     7
100
AcDbPoint
 10
-87.2691650390625
 20
-215.6550750732422
  0
POINT
  5
1b2
100
AcDbEntity
  8
DEFPOINTS
  6
CONTINUOUS
 62
     7
100
AcDbPoint
 10
-87.2691650390625
 20
-191.6550750732422
  0
POINT
  5
1b3
100
AcDbEntity
  8
DEFPOINTS
  6
CONTINUOUS
 62
     7
100
AcDbPoint
 10
-62.52621459960938
 20
-191.6550750732422
  0
ENDBLK
  8
0
  5
1b4
100
AcDbEntity
100
AcDbBlockEnd
  0
BLOCK
  8
0
  5
1b5
100
AcDbEntity
100
AcDbBlockBegin
  2
*D15
 70
    65
 10
0
 20
0
  0
LINE
  5
1b6
100
AcDbEntity
  8
0
  6
CONTINUOUS
 62
     7
100
AcDbLine
 10
58.01695255970392
 20
-231.7552337646485
 11
56.01696772838202
 21
-231.7552337646484
  0
INSERT
  5
1b7
100
AcDbEntity
  8
0
  6
CONTINUOUS
 62
     7
100
AcDbBlockReference
  2
_OPEN30
 10
61.01695251464844
 20
-231.7552337646484
 41
1
 42
1
 43
1
  0
INSERT
  5
1b8
100
AcDbEntity
  8
0
  6
CONTINUOUS
 62
     7
100
AcDbBlockReference
  2
_OPEN30
 10
53.0169677734375
 20
-231.7552337646484
 41
1
 42
1
 43
1
 50
180.0000000000004
  0
LINE
  5
1b9
100
AcDbEntity
  8
0
  6
CONTINUOUS
 62
     7
100
AcDbLine
 10
61.01695251464844
 20
-214.1551055908203
 11
61.01695251464844
 21
-234.6122283935547
  0
LINE
  5
1ba
100
AcDbEntity
  8
0
  6
CONTINUOUS
 62
     7
100
AcDbLine
 10
53.0169677734375
 20
-214.1550445556641
 11
53.0169677734375
 21
-234.6122283935547
  0
MTEXT
  5
1bb
100
AcDbEntity
  8
0
  6
CONTINUOUS
 62
     7
100
AcDbMText
 10
57.0169677734375
 20
-231.7552337646484
 40
4
 41
16
 71
     8
 72
     1
  1
{\W0.900315;８}
  0
POINT
  5
1bc
100
AcDbEntity
  8
DEFPOINTS
  6
CONTINUOUS
 62
     7
100
AcDbPoint
 10
61.01695251464844
 20
-214.1551055908203
  0
POINT
  5
1bd
100
AcDbEntity
  8
DEFPOINTS
  6
CONTINUOUS
 62
     7
100
AcDbPoint
 10
53.0169677734375
 20
-214.1550445556641
  0
POINT
  5
1be
100
AcDbEntity
  8
DEFPOINTS
  6
CONTINUOUS
 62
     7
100
AcDbPoint
 10
53.0169677734375
 20
-231.7552337646484
  0
ENDBLK
  8
0
  5
1bf
100
AcDbEntity
100
AcDbBlockEnd
  0
BLOCK
  8
0
  5
1c0
100
AcDbEntity
100
AcDbBlockBegin
  2
*D16
 70
    65
 10
0
 20
0
  0
LINE
  5
1c1
100
AcDbEntity
  8
0
  6
CONTINUOUS
 62
     7
100
AcDbLine
 10
-145.269165084118
 20
-315.5470480747008
 11
-83.26916499400701
 21
-315.5470480747008
  0
INSERT
  5
1c2
100
AcDbEntity
  8
0
  6
CONTINUOUS
 62
     7
100
AcDbBlockReference
  2
_OPEN30
 10
-148.2691650390625
 20
-315.5470480747008
 41
1
 42
1
 43
1
 50
180.0000000000004
  0
INSERT
  5
1c3
100
AcDbEntity
  8
0
  6
CONTINUOUS
 62
     7
100
AcDbBlockReference
  2
_OPEN30
 10
-80.2691650390625
 20
-315.5470480747008
 41
1
 42
1
 43
1
  0
LINE
  5
1c4
100
AcDbEntity
  8
0
  6
CONTINUOUS
 62
     7
100
AcDbLine
 10
-148.2691650390625
 20
-284.1181640625
 11
-148.2691650390625
 21
-317.8330480747008
  0
LINE
  5
1c5
100
AcDbEntity
  8
0
  6
CONTINUOUS
 62
     7
100
AcDbLine
 10
-80.2691650390625
 20
-278.1181640625
 11
-80.2691650390625
 21
-317.8330480747008
  0
MTEXT
  5
1c6
100
AcDbEntity
  8
0
  6
CONTINUOUS
 62
     7
100
AcDbMText
 10
-114.2691650390625
 20
-315.5470480747008
 40
4
 41
32
 71
     8
 72
     1
  1
{\W0.864328;６８}
  0
POINT
  5
1c7
100
AcDbEntity
  8
DEFPOINTS
  6
CONTINUOUS
 62
     7
100
AcDbPoint
 10
-148.2691650390625
 20
-284.1181640625
  0
POINT
  5
1c8
100
AcDbEntity
  8
DEFPOINTS
  6
CONTINUOUS
 62
     7
100
AcDbPoint
 10
-80.2691650390625
 20
-278.1181640625
  0
POINT
  5
1c9
100
AcDbEntity
  8
DEFPOINTS
  6
CONTINUOUS
 62
     7
100
AcDbPoint
 10
-80.2691650390625
 20
-315.5470480747008
  0
ENDBLK
  8
0
  5
1ca
100
AcDbEntity
100
AcDbBlockEnd
  0
BLOCK
  8
0
  5
1cb
100
AcDbEntity
100
AcDbBlockBegin
  2
*D17
 70
    65
 10
0
 20
0
  0
LINE
  5
1cc
100
AcDbEntity
  8
0
  6
CONTINUOUS
 62
     7
100
AcDbLine
 10
64.01695246959295
 20
-231.7552337646484
 11
113.016967818493
 21
-231.7552337646485
  0
INSERT
  5
1cd
100
AcDbEntity
  8
0
  6
CONTINUOUS
 62
     7
100
AcDbBlockReference
  2
_OPEN30
 10
61.01695251464844
 20
-231.7552337646484
 41
1
 42
1
 43
1
 50
180.0000000000004
  0
INSERT
  5
1ce
100
AcDbEntity
  8
0
  6
CONTINUOUS
 62
     7
100
AcDbBlockReference
  2
_OPEN30
 10
116.0169677734375
 20
-231.7552337646484
 41
1
 42
1
 43
1
  0
LINE
  5
1cf
100
AcDbEntity
  8
0
  6
CONTINUOUS
 62
     7
100
AcDbLine
 10
116.0169677734375
 20
-219.058349609375
 11
116.0169677734375
 21
-234.6122283935547
  0
MTEXT
  5
1d0
100
AcDbEntity
  8
0
  6
CONTINUOUS
 62
     7
100
AcDbMText
 10
88.5169677734375
 20
-231.7552337646484
 40
4
 41
32
 71
     8
 72
     1
  1
{\W0.864328;５５}
  0
POINT
  5
1d1
100
AcDbEntity
  8
DEFPOINTS
  6
CONTINUOUS
 62
     7
100
AcDbPoint
 10
61.01695251464844
 20
-218.528076171875
  0
POINT
  5
1d2
100
AcDbEntity
  8
DEFPOINTS
  6
CONTINUOUS
 62
     7
100
AcDbPoint
 10
116.0169677734375
 20
-219.058349609375
  0
POINT
  5
1d3
100
AcDbEntity
  8
DEFPOINTS
  6
CONTINUOUS
 62
     7
100
AcDbPoint
 10
116.0169677734375
 20
-231.7552337646484
  0
ENDBLK
  8
0
  5
1d4
100
AcDbEntity
100
AcDbBlockEnd
  0
BLOCK
  8
0
  5
1d5
100
AcDbEntity
100
AcDbBlockBegin
  2
*D18
 70
    65
 10
0
 20
0
  0
LINE
  5
1d6
100
AcDbEntity
  8
0
  6
CONTINUOUS
 62
     7
100
AcDbLine
 10
125.6258265418312
 20
-212.4112134984375
 11
139.8944716491351
 21
-225.4135978225629
  0
LINE
  5
1d7
100
AcDbEntity
  8
0
  6
CONTINUOUS
 62
     7
100
AcDbLine
 10
116.0169729276513
 20
-203.6550676786285
 11
123.4084008195304
 21
-210.3905553833356
  0
INSERT
  5
1d8
100
AcDbEntity
  8
0
  6
CONTINUOUS
 62
     7
100
AcDbBlockReference
  2
_OPEN30
 10
125.625829143801
 20
-212.4112016552965
 41
1
 42
1
 43
1
 50
317.6584451879069
  0
MTEXT
  5
1d9
100
AcDbEntity
  8
0
  6
CONTINUOUS
 62
     7
100
AcDbMText
 10
135.8820190429688
 20
-221.7572326660156
 40
4
 41
48
 71
     8
 72
     1
  1
{\W0.855331;Ｒ１３}
 11
0.7396310949786107
 21
-0.6730125135097722
  0
POINT
  5
1da
100
AcDbEntity
  8
DEFPOINTS
  6
CONTINUOUS
 62
     7
100
AcDbPoint
 10
116.0169729276513
 20
-203.6550676786285
  0
POINT
  5
1db
100
AcDbEntity
  8
DEFPOINTS
  6
CONTINUOUS
 62
     7
100
AcDbPoint
 10
125.625829143801
 20
-212.4112016552965
  0
ENDBLK
  8
0
  5
1dc
100
AcDbEntity
100
AcDbBlockEnd
  0
BLOCK
  8
0
  5
1dd
100
AcDbEntity
100
AcDbBlockBegin
  2
*D19
 70
    65
 10
0
 20
0
  0
LINE
  5
1de
100
AcDbEntity
  8
0
  6
CONTINUOUS
 62
     7
100
AcDbLine
 10
-158.269165084118
 20
-232.1590781417544
 11
-96.26916499400701
 21
-232.1590781417544
  0
INSERT
  5
1df
100
AcDbEntity
  8
0
  6
CONTINUOUS
 62
     7
100
AcDbBlockReference
  2
_OPEN30
 10
-161.2691650390625
 20
-232.1590781417544
 41
1
 42
1
 43
1
 50
180.0000000000004
  0
INSERT
  5
1e0
100
AcDbEntity
  8
0
  6
CONTINUOUS
 62
     7
100
AcDbBlockReference
  2
_OPEN30
 10
-93.2691650390625
 20
-232.1590781417544
 41
1
 42
1
 43
1
  0
LINE
  5
1e1
100
AcDbEntity
  8
0
  6
CONTINUOUS
 62
     7
100
AcDbLine
 10
-161.2691650390625
 20
-210.6550750732422
 11
-161.2691650390625
 21
-234.4450781417544
  0
LINE
  5
1e2
100
AcDbEntity
  8
0
  6
CONTINUOUS
 62
     7
100
AcDbLine
 10
-93.2691650390625
 20
-215.6550750732422
 11
-93.2691650390625
 21
-234.4450781417544
  0
MTEXT
  5
1e3
100
AcDbEntity
  8
0
  6
CONTINUOUS
 62
     7
100
AcDbMText
 10
-127.2691650390625
 20
-232.1590781417544
 40
4
 41
32
 71
     8
 72
     1
  1
{\W0.864328;６８}
  0
POINT
  5
1e4
100
AcDbEntity
  8
DEFPOINTS
  6
CONTINUOUS
 62
     7
100
AcDbPoint
 10
-161.2691650390625
 20
-210.6550750732422
  0
POINT
  5
1e5
100
AcDbEntity
  8
DEFPOINTS
  6
CONTINUOUS
 62
     7
100
AcDbPoint
 10
-93.2691650390625
 20
-215.6550750732422
  0
POINT
  5
1e6
100
AcDbEntity
  8
DEFPOINTS
  6
CONTINUOUS
 62
     7
100
AcDbPoint
 10
-93.2691650390625
 20
-232.1590781417544
  0
ENDBLK
  8
0
  5
1e7
100
AcDbEntity
100
AcDbBlockEnd
  0
BLOCK
  8
0
  5
1e8
100
AcDbEntity
100
AcDbBlockBegin
  2
*D20
 70
    65
 10
0
 20
0
  0
LINE
  5
1e9
100
AcDbEntity
  8
0
  6
CONTINUOUS
 62
     7
100
AcDbLine
 10
51.01696772838202
 20
-242.8349304199219
 11
113.016967818493
 21
-242.8349304199219
  0
INSERT
  5
1ea
100
AcDbEntity
  8
0
  6
CONTINUOUS
 62
     7
100
AcDbBlockReference
  2
_OPEN30
 10
48.0169677734375
 20
-242.8349304199219
 41
1
 42
1
 43
1
 50
180.0000000000004
  0
INSERT
  5
1eb
100
AcDbEntity
  8
0
  6
CONTINUOUS
 62
     7
100
AcDbBlockReference
  2
_OPEN30
 10
116.0169677734375
 20
-242.8349304199219
 41
1
 42
1
 43
1
  0
LINE
  5
1ec
100
AcDbEntity
  8
0
  6
CONTINUOUS
 62
     7
100
AcDbLine
 10
48.0169677734375
 20
-210.6550750732422
 11
48.0169677734375
 21
-245.6919250488281
  0
LINE
  5
1ed
100
AcDbEntity
  8
0
  6
CONTINUOUS
 62
     7
100
AcDbLine
 10
116.0169677734375
 20
-219.4127807617188
 11
116.0169677734375
 21
-245.6919250488281
  0
MTEXT
  5
1ee
100
AcDbEntity
  8
0
  6
CONTINUOUS
 62
     7
100
AcDbMText
 10
82.0169677734375
 20
-242.8349304199219
 40
4
 41
32
 71
     8
 72
     1
  1
{\W0.864328;６８}
  0
POINT
  5
1ef
100
AcDbEntity
  8
DEFPOINTS
  6
CONTINUOUS
 62
     7
100
AcDbPoint
 10
48.0169677734375
 20
-210.6550750732422
  0
POINT
  5
1f0
100
AcDbEntity
  8
DEFPOINTS
  6
CONTINUOUS
 62
     7
100
AcDbPoint
 10
116.0169677734375
 20
-219.4127807617188
  0
POINT
  5
1f1
100
AcDbEntity
  8
DEFPOINTS
  6
CONTINUOUS
 62
     7
100
AcDbPoint
 10
116.0169677734375
 20
-242.8349304199219
  0
ENDBLK
  8
0
  5
1f2
100
AcDbEntity
100
AcDbBlockEnd
  0
BLOCK
  8
0
  5
1f3
100
AcDbEntity
100
AcDbBlockBegin
  2
*D21
 70
    65
 10
0
 20
0
  0
LINE
  5
1f4
100
AcDbEntity
  8
0
  6
CONTINUOUS
 62
     7
100
AcDbLine
 10
146.6839904785156
 20
-285.864135787243
 11
146.6839904785157
 21
-275.864135697132
  0
INSERT
  5
1f5
100
AcDbEntity
  8
0
  6
CONTINUOUS
 62
     7
100
AcDbBlockReference
  2
_OPEN30
 10
146.6839904785156
 20
-288.8641357421875
 41
1
 42
1
 43
1
 50
270.0000000000005
  0
INSERT
  5
1f6
100
AcDbEntity
  8
0
  6
CONTINUOUS
 62
     7
100
AcDbBlockReference
  2
_OPEN30
 10
146.6839904785156
 20
-272.8641357421875
 41
1
 42
1
 43
1
 50
90.00000000000019
  0
LINE
  5
1f7
100
AcDbEntity
  8
0
  6
CONTINUOUS
 62
     7
100
AcDbLine
 10
129.0169219970703
 20
-288.8641357421875
 11
149.5409851074219
 21
-288.8641357421875
  0
LINE
  5
1f8
100
AcDbEntity
  8
0
  6
CONTINUOUS
 62
     7
100
AcDbLine
 10
129.0169219970703
 20
-272.8641357421875
 11
149.5409851074219
 21
-272.8641357421875
  0
MTEXT
  5
1f9
100
AcDbEntity
  8
0
  6
CONTINUOUS
 62
     7
100
AcDbMText
 10
145.6839904785156
 20
-288.2926357984543
 40
4
 41
32
 71
     7
 72
     1
  1
{\W0.864328;１６}
 11
0
 21
1
  0
MTEXT
  5
1fa
100
AcDbEntity
  8
0
  6
CONTINUOUS
 62
     7
100
AcDbMText
 10
142.6839904785156
 20
-280.2926357984543
 40
2
 41
32
 71
     7
 72
     1
  1
{\W0.851241;＋０．３}
 11
0
 21
1
  0
MTEXT
  5
1fb
100
AcDbEntity
  8
0
  6
CONTINUOUS
 62
     7
100
AcDbMText
 10
145.6839904785156
 20
-280.2926357984543
 40
2
 41
32
 71
     7
 72
     1
  1
{\W0.851241;＋０．１}
 11
0
 21
1
  0
POINT
  5
1fc
100
AcDbEntity
  8
DEFPOINTS
  6
CONTINUOUS
 62
     7
100
AcDbPoint
 10
129.0169219970703
 20
-288.8641357421875
  0
POINT
  5
1fd
100
AcDbEntity
  8
DEFPOINTS
  6
CONTINUOUS
 62
     7
100
AcDbPoint
 10
129.0169219970703
 20
-272.8641357421875
  0
POINT
  5
1fe
100
AcDbEntity
  8
DEFPOINTS
  6
CONTINUOUS
 62
     7
100
AcDbPoint
 10
146.6839904785156
 20
-272.8641357421875
  0
ENDBLK
  8
0
  5
1ff
100
AcDbEntity
100
AcDbBlockEnd
  0
BLOCK
  8
0
  5
200
100
AcDbEntity
100
AcDbBlockBegin
  2
*D22
 70
    65
 10
0
 20
0
  0
LINE
  5
201
100
AcDbEntity
  8
0
  6
CONTINUOUS
 62
     7
100
AcDbLine
 10
158.111083984375
 20
-296.864135787243
 11
158.111083984375
 21
-264.864135697132
  0
INSERT
  5
202
100
AcDbEntity
  8
0
  6
CONTINUOUS
 62
     7
100
AcDbBlockReference
  2
_OPEN30
 10
158.111083984375
 20
-299.8641357421875
 41
1
 42
1
 43
1
 50
270.0000000000005
  0
INSERT
  5
203
100
AcDbEntity
  8
0
  6
CONTINUOUS
 62
     7
100
AcDbBlockReference
  2
_OPEN30
 10
158.111083984375
 20
-261.8641357421875
 41
1
 42
1
 43
1
 50
90.00000000000019
  0
LINE
  5
204
100
AcDbEntity
  8
0
  6
CONTINUOUS
 62
     7
100
AcDbLine
 10
127.0169219970703
 20
-299.8641357421875
 11
160.9680786132813
 21
-299.8641357421875
  0
LINE
  5
205
100
AcDbEntity
  8
0
  6
CONTINUOUS
 62
     7
100
AcDbLine
 10
127.0169219970703
 20
-261.8641357421875
 11
160.9680786132813
 21
-261.8641357421875
  0
MTEXT
  5
206
100
AcDbEntity
  8
0
  6
CONTINUOUS
 62
     7
100
AcDbMText
 10
158.111083984375
 20
-280.8641357421875
 40
4
 41
32
 71
     8
 72
     1
  1
{\W0.864328;３８}
 11
0
 21
1
  0
POINT
  5
207
100
AcDbEntity
  8
DEFPOINTS
  6
CONTINUOUS
 62
     7
100
AcDbPoint
 10
127.0169219970703
 20
-299.8641357421875
  0
POINT
  5
208
100
AcDbEntity
  8
DEFPOINTS
  6
CONTINUOUS
 62
     7
100
AcDbPoint
 10
127.0169219970703
 20
-261.8641357421875
  0
POINT
  5
209
100
AcDbEntity
  8
DEFPOINTS
  6
CONTINUOUS
 62
     7
100
AcDbPoint
 10
158.111083984375
 20
-261.8641357421875
  0
ENDBLK
  8
0
  5
20a
100
AcDbEntity
100
AcDbBlockEnd
  0
BLOCK
  8
0
  5
20b
100
AcDbEntity
100
AcDbBlockBegin
  2
*D23
 70
    65
 10
0
 20
0
  0
LINE
  5
20c
100
AcDbEntity
  8
0
  6
CONTINUOUS
 62
     7
100
AcDbLine
 10
168.4752197265625
 20
-306.364135787243
 11
168.4752197265625
 21
-255.364120438343
  0
INSERT
  5
20d
100
AcDbEntity
  8
0
  6
CONTINUOUS
 62
     7
100
AcDbBlockReference
  2
_OPEN30
 10
168.4752197265625
 20
-309.3641357421875
 41
1
 42
1
 43
1
 50
270.0000000000005
  0
INSERT
  5
20e
100
AcDbEntity
  8
0
  6
CONTINUOUS
 62
     7
100
AcDbBlockReference
  2
_OPEN30
 10
168.4752197265625
 20
-252.3641204833984
 41
1
 42
1
 43
1
 50
90.00000000000019
  0
LINE
  5
20f
100
AcDbEntity
  8
0
  6
CONTINUOUS
 62
     7
100
AcDbLine
 10
121.0169219970703
 20
-309.3641357421875
 11
171.3322143554688
 21
-309.3641357421875
  0
LINE
  5
210
100
AcDbEntity
  8
0
  6
CONTINUOUS
 62
     7
100
AcDbLine
 10
121.0169219970703
 20
-252.3641204833984
 11
171.3322143554688
 21
-252.3641204833984
  0
MTEXT
  5
211
100
AcDbEntity
  8
0
  6
CONTINUOUS
 62
     7
100
AcDbMText
 10
168.4752197265625
 20
-280.8641357421875
 40
4
 41
32
 71
     8
 72
     1
  1
{\W0.864328;５７}
 11
0
 21
1
  0
POINT
  5
212
100
AcDbEntity
  8
DEFPOINTS
  6
CONTINUOUS
 62
     7
100
AcDbPoint
 10
121.0169219970703
 20
-309.3641357421875
  0
POINT
  5
213
100
AcDbEntity
  8
DEFPOINTS
  6
CONTINUOUS
 62
     7
100
AcDbPoint
 10
121.0169219970703
 20
-252.3641204833984
  0
POINT
  5
214
100
AcDbEntity
  8
DEFPOINTS
  6
CONTINUOUS
 62
     7
100
AcDbPoint
 10
168.4752197265625
 20
-252.3641204833984
  0
ENDBLK
  8
0
  5
215
100
AcDbEntity
100
AcDbBlockEnd
  0
BLOCK
  8
0
  5
216
100
AcDbEntity
100
AcDbBlockBegin
  2
*D24
 70
    65
 10
0
 20
0
  0
LINE
  5
217
100
AcDbEntity
  8
0
  6
CONTINUOUS
 62
     7
100
AcDbLine
 10
94.01696772838201
 20
-323.4896240234375
 11
113.016967818493
 21
-323.4896240234375
  0
INSERT
  5
218
100
AcDbEntity
  8
0
  6
CONTINUOUS
 62
     7
100
AcDbBlockReference
  2
_OPEN30
 10
91.0169677734375
 20
-323.4896240234375
 41
1
 42
1
 43
1
 50
180.0000000000004
  0
INSERT
  5
219
100
AcDbEntity
  8
0
  6
CONTINUOUS
 62
     7
100
AcDbBlockReference
  2
_OPEN30
 10
116.0169677734375
 20
-323.4896240234375
 41
1
 42
1
 43
1
  0
LINE
  5
21a
100
AcDbEntity
  8
0
  6
CONTINUOUS
 62
     7
100
AcDbLine
 10
91.0169677734375
 20
-288.8641357421875
 11
91.0169677734375
 21
-326.3466186523438
  0
LINE
  5
21b
100
AcDbEntity
  8
0
  6
CONTINUOUS
 62
     7
100
AcDbLine
 10
116.0169677734375
 20
-311.1183471679688
 11
116.0169677734375
 21
-326.3466186523438
  0
MTEXT
  5
21c
100
AcDbEntity
  8
0
  6
CONTINUOUS
 62
     7
100
AcDbMText
 10
103.5169677734375
 20
-323.4896240234375
 40
4
 41
32
 71
     8
 72
     1
  1
{\W0.864328;２５}
  0
POINT
  5
21d
100
AcDbEntity
  8
DEFPOINTS
  6
CONTINUOUS
 62
     7
100
AcDbPoint
 10
91.0169677734375
 20
-288.8641357421875
  0
POINT
  5
21e
100
AcDbEntity
  8
DEFPOINTS
  6
CONTINUOUS
 62
     7
100
AcDbPoint
 10
116.0169677734375
 20
-311.1183471679688
  0
POINT
  5
21f
100
AcDbEntity
  8
DEFPOINTS
  6
CONTINUOUS
 62
     7
100
AcDbPoint
 10
116.0169677734375
 20
-323.4896240234375
  0
ENDBLK
  8
0
  5
220
100
AcDbEntity
100
AcDbBlockEnd
  0
BLOCK
  8
0
  5
221
100
AcDbEntity
100
AcDbBlockBegin
  2
*D25
 70
    65
 10
0
 20
0
  0
LINE
  5
222
100
AcDbEntity
  8
0
  6
CONTINUOUS
 62
     7
100
AcDbLine
 10
-249.5505218956414
 20
7.347332000732422
 11
-215.050643875843
 21
7.347332000732403
  0
INSERT
  5
223
100
AcDbEntity
  8
0
  6
CONTINUOUS
 62
     7
100
AcDbBlockReference
  2
_OPEN30
 10
-252.5505218505859
 20
7.347332000732422
 41
1
 42
1
 43
1
 50
180.0000000000004
  0
INSERT
  5
224
100
AcDbEntity
  8
0
  6
CONTINUOUS
 62
     7
100
AcDbBlockReference
  2
_OPEN30
 10
-212.0506439208984
 20
7.347332000732422
 41
1
 42
1
 43
1
  0
LINE
  5
225
100
AcDbEntity
  8
0
  6
CONTINUOUS
 62
     7
100
AcDbLine
 10
-252.5505065917969
 20
32.67910766601563
 11
-252.5505065917969
 21
4.490331649780273
  0
LINE
  5
226
100
AcDbEntity
  8
0
  6
CONTINUOUS
 62
     7
100
AcDbLine
 10
-212.0506286621094
 20
32.67910766601563
 11
-212.0506286621094
 21
4.490331649780273
  0
MTEXT
  5
227
100
AcDbEntity
  8
0
  6
CONTINUOUS
 62
     7
100
AcDbMText
 10
-232.3005828857422
 20
7.347332000732422
 40
4
 41
80
 71
     8
 72
     1
  1
{\W0.848905;□４０．５}
  0
POINT
  5
228
100
AcDbEntity
  8
DEFPOINTS
  6
CONTINUOUS
 62
     7
100
AcDbPoint
 10
-252.5505065917969
 20
32.67910766601563
  0
POINT
  5
229
100
AcDbEntity
  8
DEFPOINTS
  6
CONTINUOUS
 62
     7
100
AcDbPoint
 10
-212.0506286621094
 20
32.67910766601563
  0
POINT
  5
22a
100
AcDbEntity
  8
DEFPOINTS
  6
CONTINUOUS
 62
     7
100
AcDbPoint
 10
-212.0506439208984
 20
7.347332000732422
  0
ENDBLK
  8
0
  5
22b
100
AcDbEntity
100
AcDbBlockEnd
  0
BLOCK
  8
0
  5
22c
100
AcDbEntity
100
AcDbBlockBegin
  2
*D26
 70
    65
 10
0
 20
0
  0
LINE
  5
22d
100
AcDbEntity
  8
0
  6
CONTINUOUS
 62
     7
100
AcDbLine
 10
33.76580810546875
 20
60.92910003662109
 11
33.76580810546875
 21
81.51904296875
  0
LINE
  5
22e
100
AcDbEntity
  8
0
  6
CONTINUOUS
 62
     7
100
AcDbLine
 10
33.76580810546874
 20
47.92909999156561
 11
33.76580810546878
 21
57.92910008167657
  0
INSERT
  5
22f
100
AcDbEntity
  8
0
  6
CONTINUOUS
 62
     7
100
AcDbBlockReference
  2
_OPEN30
 10
33.76580810546875
 20
44.92910003662109
 41
1
 42
1
 43
1
 50
270.0000000000005
  0
INSERT
  5
230
100
AcDbEntity
  8
0
  6
CONTINUOUS
 62
     7
100
AcDbBlockReference
  2
_OPEN30
 10
33.76580810546875
 20
60.92910003662109
 41
1
 42
1
 43
1
 50
90.00000000000019
  0
LINE
  5
231
100
AcDbEntity
  8
0
  6
CONTINUOUS
 62
     7
100
AcDbLine
 10
37.86734008789063
 20
44.92910766601563
 11
30.90880012512207
 21
44.92910766601563
  0
LINE
  5
232
100
AcDbEntity
  8
0
  6
CONTINUOUS
 62
     7
100
AcDbLine
 10
37.86734008789063
 20
60.92910766601563
 11
30.90880012512207
 21
60.92910766601563
  0
MTEXT
  5
233
100
AcDbEntity
  8
0
  6
CONTINUOUS
 62
     7
100
AcDbMText
 10
33.76580810546875
 20
76.09054565429688
 40
4
 41
88
 71
     8
 72
     1
  1
{\W0.855331;\U+2205１６}
 11
0
 21
1
  0
POINT
  5
234
100
AcDbEntity
  8
DEFPOINTS
  6
CONTINUOUS
 62
     7
100
AcDbPoint
 10
37.86734008789063
 20
44.92910766601563
  0
POINT
  5
235
100
AcDbEntity
  8
DEFPOINTS
  6
CONTINUOUS
 62
     7
100
AcDbPoint
 10
37.86734008789063
 20
60.92910766601563
  0
POINT
  5
236
100
AcDbEntity
  8
DEFPOINTS
  6
CONTINUOUS
 62
     7
100
AcDbPoint
 10
33.76580810546875
 20
60.92910003662109
  0
ENDBLK
  8
0
  5
237
100
AcDbEntity
100
AcDbBlockEnd
  0
BLOCK
  8
0
  5
238
100
AcDbEntity
100
AcDbBlockBegin
  2
*D27
 70
    65
 10
0
 20
0
  0
LINE
  5
239
100
AcDbEntity
  8
0
  6
CONTINUOUS
 62
     7
100
AcDbLine
 10
344.3474731445313
 20
70.01488494873047
 11
344.3474731445313
 21
85.09862518310547
  0
LINE
  5
23a
100
AcDbEntity
  8
0
  6
CONTINUOUS
 62
     7
100
AcDbLine
 10
344.3474731445313
 20
41.01479335094061
 11
344.3474731445313
 21
67.01488499378596
  0
INSERT
  5
23b
100
AcDbEntity
  8
0
  6
CONTINUOUS
 62
     7
100
AcDbBlockReference
  2
_OPEN30
 10
344.3474731445313
 20
38.01479339599609
 41
1
 42
1
 43
1
 50
270.0000000000005
  0
INSERT
  5
23c
100
AcDbEntity
  8
0
  6
CONTINUOUS
 62
     7
100
AcDbBlockReference
  2
_OPEN30
 10
344.3474731445313
 20
70.01488494873047
 41
1
 42
1
 43
1
 50
90.00000000000019
  0
LINE
  5
23d
100
AcDbEntity
  8
0
  6
CONTINUOUS
 62
     7
100
AcDbLine
 10
348.3993743055487
 20
36.929157427039
 11
341.4904743118559
 21
38.78038701045591
  0
LINE
  5
23e
100
AcDbEntity
  8
0
  6
CONTINUOUS
 62
     7
100
AcDbLine
 10
348.3993839208974
 20
68.92913253759843
 11
341.4904838206226
 21
70.78036172324458
  0
MTEXT
  5
23f
100
AcDbEntity
  8
0
  6
CONTINUOUS
 62
     7
100
AcDbMText
 10
344.3474731445313
 20
79.67013549804688
 40
4
 41
88
 71
     8
 72
     1
  1
{\W0.855331;\U+2205３２}
 11
0
 21
1
  0
POINT
  5
240
100
AcDbEntity
  8
DEFPOINTS
  6
CONTINUOUS
 62
     7
100
AcDbPoint
 10
348.3993743055487
 20
36.929157427039
  0
POINT
  5
241
100
AcDbEntity
  8
DEFPOINTS
  6
CONTINUOUS
 62
     7
100
AcDbPoint
 10
348.3993839208974
 20
68.92913253759843
  0
POINT
  5
242
100
AcDbEntity
  8
DEFPOINTS
  6
CONTINUOUS
 62
     7
100
AcDbPoint
 10
344.3474731445313
 20
70.01488494873047
  0
ENDBLK
  8
0
  5
243
100
AcDbEntity
100
AcDbBlockEnd
  0
BLOCK
  8
0
  5
244
100
AcDbEntity
100
AcDbBlockBegin
  2
*D28
 70
    65
 10
0
 20
0
  0
LINE
  5
245
100
AcDbEntity
  8
0
  6
CONTINUOUS
 62
     7
100
AcDbLine
 10
-118.4006194617805
 20
-0.266990661621112
 11
-124.4006195518914
 21
-0.2669906616210938
  0
INSERT
  5
246
100
AcDbEntity
  8
0
  6
CONTINUOUS
 62
     7
100
AcDbBlockReference
  2
_OPEN30
 10
-115.4006195068359
 20
-0.2669906616210938
 41
1
 42
1
 43
1
  0
INSERT
  5
247
100
AcDbEntity
  8
0
  6
CONTINUOUS
 62
     7
100
AcDbBlockReference
  2
_OPEN30
 10
-127.4006195068359
 20
-0.2669906616210938
 41
1
 42
1
 43
1
 50
180.0000000000004
  0
LINE
  5
248
100
AcDbEntity
  8
0
  6
CONTINUOUS
 62
     7
100
AcDbLine
 10
-115.4006195068359
 20
23.92912292480469
 11
-115.4006195068359
 21
-3.123990774154663
  0
LINE
  5
249
100
AcDbEntity
  8
0
  6
CONTINUOUS
 62
     7
100
AcDbLine
 10
-127.4006195068359
 20
23.92910766601563
 11
-127.4006195068359
 21
-3.123990774154663
  0
MTEXT
  5
24a
100
AcDbEntity
  8
0
  6
CONTINUOUS
 62
     7
100
AcDbMText
 10
-121.4006195068359
 20
-0.2669906616210938
 40
4
 41
32
 71
     8
 72
     1
  1
{\W0.864328;１２}
  0
POINT
  5
24b
100
AcDbEntity
  8
DEFPOINTS
  6
CONTINUOUS
 62
     7
100
AcDbPoint
 10
-115.4006195068359
 20
23.92912292480469
  0
POINT
  5
24c
100
AcDbEntity
  8
DEFPOINTS
  6
CONTINUOUS
 62
     7
100
AcDbPoint
 10
-127.4006195068359
 20
23.92910766601563
  0
POINT
  5
24d
100
AcDbEntity
  8
DEFPOINTS
  6
CONTINUOUS
 62
     7
100
AcDbPoint
 10
-127.4006195068359
 20
-0.2669906616210938
  0
ENDBLK
  8
0
  5
24e
100
AcDbEntity
100
AcDbBlockEnd
  0
BLOCK
  8
0
  5
24f
100
AcDbEntity
100
AcDbBlockBegin
  2
*D29
 70
    65
 10
0
 20
0
  0
LINE
  5
250
100
AcDbEntity
  8
0
  6
CONTINUOUS
 62
     7
100
AcDbLine
 10
-127.4006195068359
 20
10.68684387207031
 11
-142.8304748535156
 21
10.68684387207031
  0
LINE
  5
251
100
AcDbEntity
  8
0
  6
CONTINUOUS
 62
     7
100
AcDbLine
 10
-124.2006378173828
 20
10.68684387207031
 11
-127.4006195068359
 21
10.68684387207031
  0
INSERT
  5
252
100
AcDbEntity
  8
0
  6
CONTINUOUS
 62
     7
100
AcDbBlockReference
  2
_OPEN30
 10
-124.2006378173828
 20
10.68684387207031
 41
1
 42
1
 43
1
 50
180
  0
LINE
  5
253
100
AcDbEntity
  8
0
  6
CONTINUOUS
 62
     7
100
AcDbLine
 10
-121.2006378624383
 20
10.68684387207031
 11
-117.8506379127502
 21
10.68684387207031
  0
INSERT
  5
254
100
AcDbEntity
  8
0
  6
CONTINUOUS
 62
     7
100
AcDbBlockReference
  2
_OPEN30
 10
-127.4006195068359
 20
10.68684387207031
 41
1
 42
1
 43
1
 50
3.562221243239139e-013
  0
LINE
  5
255
100
AcDbEntity
  8
0
  6
CONTINUOUS
 62
     7
100
AcDbLine
 10
-130.4006194617805
 20
10.6868438720703
 11
-133.7506194114685
 21
10.68684387207027
  0
LINE
  5
256
100
AcDbEntity
  8
0
  6
CONTINUOUS
 62
     7
100
AcDbLine
 10
-124.2006378173828
 20
23.92910766601563
 11
-124.2006378173828
 21
7.829843521118164
  0
LINE
  5
257
100
AcDbEntity
  8
0
  6
CONTINUOUS
 62
     7
100
AcDbLine
 10
-127.4006195068359
 20
23.92910766601563
 11
-127.4006195068359
 21
7.829843521118164
  0
MTEXT
  5
258
100
AcDbEntity
  8
0
  6
CONTINUOUS
 62
     7
100
AcDbMText
 10
-137.4019775390625
 20
10.68684387207031
 40
4
 41
48
 71
     8
 72
     1
  1
{\W0.855331;３．２}
  0
POINT
  5
259
100
AcDbEntity
  8
DEFPOINTS
  6
CONTINUOUS
 62
     7
100
AcDbPoint
 10
-124.2006378173828
 20
23.92910766601563
  0
POINT
  5
25a
100
AcDbEntity
  8
DEFPOINTS
  6
CONTINUOUS
 62
     7
100
AcDbPoint
 10
-127.4006195068359
 20
23.92910766601563
  0
POINT
  5
25b
100
AcDbEntity
  8
DEFPOINTS
  6
CONTINUOUS
 62
     7
100
AcDbPoint
 10
-127.4006195068359
 20
10.68684387207031
  0
ENDBLK
  8
0
  5
25c
100
AcDbEntity
100
AcDbBlockEnd
  0
BLOCK
  8
0
  5
25d
100
AcDbEntity
100
AcDbBlockBegin
  2
*D30
 70
    65
 10
0
 20
0
  0
LINE
  5
25e
100
AcDbEntity
  8
0
  6
CONTINUOUS
 62
     7
100
AcDbLine
 10
-124.4006195518914
 20
-11.63758850097656
 11
66.59936527943049
 21
-11.63758850097658
  0
INSERT
  5
25f
100
AcDbEntity
  8
0
  6
CONTINUOUS
 62
     7
100
AcDbBlockReference
  2
_OPEN30
 10
-127.4006195068359
 20
-11.63758850097656
 41
1
 42
1
 43
1
 50
180.0000000000004
  0
INSERT
  5
260
100
AcDbEntity
  8
0
  6
CONTINUOUS
 62
     7
100
AcDbBlockReference
  2
_OPEN30
 10
69.599365234375
 20
-11.63758850097656
 41
1
 42
1
 43
1
  0
LINE
  5
261
100
AcDbEntity
  8
0
  6
CONTINUOUS
 62
     7
100
AcDbLine
 10
-127.4006195068359
 20
23.92910766601563
 11
-127.4006195068359
 21
-14.49458885192871
  0
LINE
  5
262
100
AcDbEntity
  8
0
  6
CONTINUOUS
 62
     7
100
AcDbLine
 10
69.599365234375
 20
47.4290771484375
 11
69.599365234375
 21
-14.49458885192871
  0
MTEXT
  5
263
100
AcDbEntity
  8
0
  6
CONTINUOUS
 62
     7
100
AcDbMText
 10
-28.90062713623047
 20
-11.63758850097656
 40
4
 41
144
 71
     8
 72
     1
  1
{\W0.84495;１４７＋ストロ－ク}
  0
POINT
  5
264
100
AcDbEntity
  8
DEFPOINTS
  6
CONTINUOUS
 62
     7
100
AcDbPoint
 10
-127.4006195068359
 20
23.92910766601563
  0
POINT
  5
265
100
AcDbEntity
  8
DEFPOINTS
  6
CONTINUOUS
 62
     7
100
AcDbPoint
 10
69.599365234375
 20
47.4290771484375
  0
POINT
  5
266
100
AcDbEntity
  8
DEFPOINTS
  6
CONTINUOUS
 62
     7
100
AcDbPoint
 10
69.599365234375
 20
-11.63758850097656
  0
ENDBLK
  8
0
  5
267
100
AcDbEntity
100
AcDbBlockEnd
  0
BLOCK
  8
0
  5
268
100
AcDbEntity
100
AcDbBlockBegin
  2
*D31
 70
    65
 10
0
 20
0
  0
LINE
  5
269
100
AcDbEntity
  8
0
  6
CONTINUOUS
 62
     7
100
AcDbLine
 10
156.499374344593
 20
-9.741588592529297
 11
230.4993744347039
 21
-9.741588592529315
  0
INSERT
  5
26a
100
AcDbEntity
  8
0
  6
CONTINUOUS
 62
     7
100
AcDbBlockReference
  2
_OPEN30
 10
153.4993743896484
 20
-9.741588592529297
 41
1
 42
1
 43
1
 50
180.0000000000004
  0
INSERT
  5
26b
100
AcDbEntity
  8
0
  6
CONTINUOUS
 62
     7
100
AcDbBlockReference
  2
_OPEN30
 10
233.4993743896484
 20
-9.741588592529297
 41
1
 42
1
 43
1
  0
LINE
  5
26c
100
AcDbEntity
  8
0
  6
CONTINUOUS
 62
     7
100
AcDbLine
 10
153.4993743896484
 20
31.92906188964844
 11
153.4993743896484
 21
-12.59858894348145
  0
LINE
  5
26d
100
AcDbEntity
  8
0
  6
CONTINUOUS
 62
     7
100
AcDbLine
 10
233.4993743896484
 20
31.92906188964844
 11
233.4993743896484
 21
-12.59858894348145
  0
MTEXT
  5
26e
100
AcDbEntity
  8
0
  6
CONTINUOUS
 62
     7
100
AcDbMText
 10
193.4993743896484
 20
-9.741588592529297
 40
4
 41
32
 71
     8
 72
     1
  1
{\W0.864328;８０}
  0
POINT
  5
26f
100
AcDbEntity
  8
DEFPOINTS
  6
CONTINUOUS
 62
     7
100
AcDbPoint
 10
153.4993743896484
 20
31.92906188964844
  0
POINT
  5
270
100
AcDbEntity
  8
DEFPOINTS
  6
CONTINUOUS
 62
     7
100
AcDbPoint
 10
233.4993743896484
 20
31.92906188964844
  0
POINT
  5
271
100
AcDbEntity
  8
DEFPOINTS
  6
CONTINUOUS
 62
     7
100
AcDbPoint
 10
233.4993743896484
 20
-9.741588592529297
  0
ENDBLK
  8
0
  5
272
100
AcDbEntity
100
AcDbBlockEnd
  0
BLOCK
  8
0
  5
273
100
AcDbEntity
100
AcDbBlockBegin
  2
*D32
 70
    65
 10
0
 20
0
  0
LINE
  5
274
100
AcDbEntity
  8
0
  6
CONTINUOUS
 62
     7
100
AcDbLine
 10
146.499374344593
 20
-19.60904312133789
 11
240.4993744347039
 21
-19.60904312133791
  0
INSERT
  5
275
100
AcDbEntity
  8
0
  6
CONTINUOUS
 62
     7
100
AcDbBlockReference
  2
_OPEN30
 10
143.4993743896484
 20
-19.60904312133789
 41
1
 42
1
 43
1
 50
180.0000000000004
  0
INSERT
  5
276
100
AcDbEntity
  8
0
  6
CONTINUOUS
 62
     7
100
AcDbBlockReference
  2
_OPEN30
 10
243.4993743896484
 20
-19.60904312133789
 41
1
 42
1
 43
1
  0
LINE
  5
277
100
AcDbEntity
  8
0
  6
CONTINUOUS
 62
     7
100
AcDbLine
 10
143.4993743896484
 20
23.92906188964844
 11
143.4993743896484
 21
-22.46604347229004
  0
LINE
  5
278
100
AcDbEntity
  8
0
  6
CONTINUOUS
 62
     7
100
AcDbLine
 10
243.4993743896484
 20
23.92906188964844
 11
243.4993743896484
 21
-22.46604347229004
  0
MTEXT
  5
279
100
AcDbEntity
  8
0
  6
CONTINUOUS
 62
     7
100
AcDbMText
 10
193.4993743896484
 20
-19.60904312133789
 40
4
 41
48
 71
     8
 72
     1
  1
{\W0.855331;１００}
  0
POINT
  5
27a
100
AcDbEntity
  8
DEFPOINTS
  6
CONTINUOUS
 62
     7
100
AcDbPoint
 10
143.4993743896484
 20
23.92906188964844
  0
POINT
  5
27b
100
AcDbEntity
  8
DEFPOINTS
  6
CONTINUOUS
 62
     7
100
AcDbPoint
 10
243.4993743896484
 20
23.92906188964844
  0
POINT
  5
27c
100
AcDbEntity
  8
DEFPOINTS
  6
CONTINUOUS
 62
     7
100
AcDbPoint
 10
243.4993743896484
 20
-19.60904312133789
  0
ENDBLK
  8
0
  5
27d
100
AcDbEntity
100
AcDbBlockEnd
  0
BLOCK
  8
0
  5
27e
100
AcDbEntity
100
AcDbBlockBegin
  2
*D33
 70
    65
 10
0
 20
0
  0
LINE
  5
27f
100
AcDbEntity
  8
0
  6
CONTINUOUS
 62
     7
100
AcDbLine
 10
257.850830078125
 20
34.92906184459296
 11
257.850830078125
 21
70.92906193470392
  0
INSERT
  5
280
100
AcDbEntity
  8
0
  6
CONTINUOUS
 62
     7
100
AcDbBlockReference
  2
_OPEN30
 10
257.850830078125
 20
31.92906188964844
 41
1
 42
1
 43
1
 50
270.0000000000005
  0
INSERT
  5
281
100
AcDbEntity
  8
0
  6
CONTINUOUS
 62
     7
100
AcDbBlockReference
  2
_OPEN30
 10
257.850830078125
 20
73.92906188964844
 41
1
 42
1
 43
1
 50
90.00000000000019
  0
LINE
  5
282
100
AcDbEntity
  8
0
  6
CONTINUOUS
 62
     7
100
AcDbLine
 10
233.4993743896484
 20
31.92906188964844
 11
260.7078247070313
 21
31.92906188964844
  0
LINE
  5
283
100
AcDbEntity
  8
0
  6
CONTINUOUS
 62
     7
100
AcDbLine
 10
233.4993743896484
 20
73.92906188964844
 11
260.7078247070313
 21
73.92906188964844
  0
MTEXT
  5
284
100
AcDbEntity
  8
0
  6
CONTINUOUS
 62
     7
100
AcDbMText
 10
257.850830078125
 20
52.92906188964844
 40
4
 41
32
 71
     8
 72
     1
  1
{\W0.864328;４２}
 11
0
 21
1
  0
POINT
  5
285
100
AcDbEntity
  8
DEFPOINTS
  6
CONTINUOUS
 62
     7
100
AcDbPoint
 10
233.4993743896484
 20
31.92906188964844
  0
POINT
  5
286
100
AcDbEntity
  8
DEFPOINTS
  6
CONTINUOUS
 62
     7
100
AcDbPoint
 10
233.4993743896484
 20
73.92906188964844
  0
POINT
  5
287
100
AcDbEntity
  8
DEFPOINTS
  6
CONTINUOUS
 62
     7
100
AcDbPoint
 10
257.850830078125
 20
73.92906188964844
  0
ENDBLK
  8
0
  5
288
100
AcDbEntity
100
AcDbBlockEnd
  0
BLOCK
  8
0
  5
289
100
AcDbEntity
100
AcDbBlockBegin
  2
*D34
 70
    65
 10
0
 20
0
  0
LINE
  5
28a
100
AcDbEntity
  8
0
  6
CONTINUOUS
 62
     7
100
AcDbLine
 10
266.868408203125
 20
26.92906184459296
 11
266.868408203125
 21
78.92906193470392
  0
INSERT
  5
28b
100
AcDbEntity
  8
0
  6
CONTINUOUS
 62
     7
100
AcDbBlockReference
  2
_OPEN30
 10
266.868408203125
 20
23.92906188964844
 41
1
 42
1
 43
1
 50
270.0000000000005
  0
INSERT
  5
28c
100
AcDbEntity
  8
0
  6
CONTINUOUS
 62
     7
100
AcDbBlockReference
  2
_OPEN30
 10
266.868408203125
 20
81.92906188964844
 41
1
 42
1
 43
1
 50
90.00000000000019
  0
LINE
  5
28d
100
AcDbEntity
  8
0
  6
CONTINUOUS
 62
     7
100
AcDbLine
 10
243.4993743896484
 20
23.92906188964844
 11
269.7254028320313
 21
23.92906188964844
  0
LINE
  5
28e
100
AcDbEntity
  8
0
  6
CONTINUOUS
 62
     7
100
AcDbLine
 10
243.4993743896484
 20
81.92906188964844
 11
269.7254028320313
 21
81.92906188964844
  0
MTEXT
  5
28f
100
AcDbEntity
  8
0
  6
CONTINUOUS
 62
     7
100
AcDbMText
 10
266.868408203125
 20
52.92906188964844
 40
4
 41
32
 71
     8
 72
     1
  1
{\W0.864328;５８}
 11
0
 21
1
  0
POINT
  5
290
100
AcDbEntity
  8
DEFPOINTS
  6
CONTINUOUS
 62
     7
100
AcDbPoint
 10
243.4993743896484
 20
23.92906188964844
  0
POINT
  5
291
100
AcDbEntity
  8
DEFPOINTS
  6
CONTINUOUS
 62
     7
100
AcDbPoint
 10
243.4993743896484
 20
81.92906188964844
  0
POINT
  5
292
100
AcDbEntity
  8
DEFPOINTS
  6
CONTINUOUS
 62
     7
100
AcDbPoint
 10
266.868408203125
 20
81.92906188964844
  0
ENDBLK
  8
0
  5
293
100
AcDbEntity
100
AcDbBlockEnd
  0
BLOCK
  8
0
  5
294
100
AcDbEntity
100
AcDbBlockBegin
  2
*D35
 70
    65
 10
0
 20
0
  0
LINE
  5
295
100
AcDbEntity
  8
0
  6
CONTINUOUS
 62
     7
100
AcDbLine
 10
-80.65254819632963
 20
-191.5277926956142
 11
-72.80808769045206
 21
-183.9875789568002
  0
INSERT
  5
296
100
AcDbEntity
  8
0
  6
CONTINUOUS
 62
     7
100
AcDbBlockReference
  2
_OPEN
 10
-82.81539677102674
 20
-193.6067553630514
 41
1
 42
1
 43
1
 50
223.8670683925164
  0
LINE
  5
297
100
AcDbEntity
  8
0
  6
CONTINUOUS
 62
     7
100
AcDbLine
 10
-72.80808769045207
 20
-183.9875789568002
 11
-48.87958739576689
 21
-183.9875789568002
  0
MTEXT
  5
298
100
AcDbEntity
  8
0
  6
CONTINUOUS
 62
     7
100
AcDbMText
 10
-58.30808769045225
 20
-183.9875789568002
 40
4
 41
80
 71
     8
 72
     1
  1
{\W0.848905;Ｒ１４．５}
  0
POINT
  5
299
100
AcDbEntity
  8
DEFPOINTS
  6
CONTINUOUS
 62
     7
100
AcDbPoint
 10
-82.81539677102674
 20
-193.6067553630514
  0
POINT
  5
29a
100
AcDbEntity
  8
DEFPOINTS
  6
CONTINUOUS
 62
     7
100
AcDbPoint
 10
-72.80808769045206
 20
-183.9875789568002
  0
ENDBLK
  8
0
  5
29b
100
AcDbEntity
100
AcDbBlockEnd
  0
BLOCK
  8
0
  5
29c
100
AcDbEntity
100
AcDbBlockBegin
  2
*D36
 70
    65
 10
0
 20
0
  0
LINE
  5
29d
100
AcDbEntity
  8
0
  6
CONTINUOUS
 62
     7
100
AcDbLine
 10
-115.269165084118
 20
-299.2482839777241
 11
-96.26916499400701
 21
-299.2482839777241
  0
INSERT
  5
29e
100
AcDbEntity
  8
0
  6
CONTINUOUS
 62
     7
100
AcDbBlockReference
  2
_OPEN
 10
-118.2691650390625
 20
-299.2482839777241
 41
1
 42
1
 43
1
 50
180.0000000000004
  0
INSERT
  5
29f
100
AcDbEntity
  8
0
  6
CONTINUOUS
 62
     7
100
AcDbBlockReference
  2
_OPEN
 10
-93.2691650390625
 20
-299.2482839777241
 41
1
 42
1
 43
1
  0
LINE
  5
2a0
100
AcDbEntity
  8
0
  6
CONTINUOUS
 62
     7
100
AcDbLine
 10
-118.2691650390625
 20
-285.1181793212891
 11
-118.2691650390625
 21
-301.5342839777241
  0
LINE
  5
2a1
100
AcDbEntity
  8
0
  6
CONTINUOUS
 62
     7
100
AcDbLine
 10
-93.2691650390625
 20
-281.1181793212891
 11
-93.2691650390625
 21
-301.5342839777241
  0
MTEXT
  5
2a2
100
AcDbEntity
  8
0
  6
CONTINUOUS
 62
     7
100
AcDbMText
 10
-105.7691650390625
 20
-299.2482839777241
 40
4
 41
32
 71
     8
 72
     1
  1
{\W0.864328;２５}
  0
POINT
  5
2a3
100
AcDbEntity
  8
DEFPOINTS
  6
CONTINUOUS
 62
     7
100
AcDbPoint
 10
-118.2691650390625
 20
-285.1181793212891
  0
POINT
  5
2a4
100
AcDbEntity
  8
DEFPOINTS
  6
CONTINUOUS
 62
     7
100
AcDbPoint
 10
-93.2691650390625
 20
-281.1181793212891
  0
POINT
  5
2a5
100
AcDbEntity
  8
DEFPOINTS
  6
CONTINUOUS
 62
     7
100
AcDbPoint
 10
-93.2691650390625
 20
-299.2482839777241
  0
ENDBLK
  8
0
  5
2a6
100
AcDbEntity
100
AcDbBlockEnd
  0
BLOCK
  8
0
  5
2a7
100
AcDbEntity
100
AcDbBlockBegin
  2
*D37
 70
    65
 10
0
 20
0
  0
LINE
  5
2a8
100
AcDbEntity
  8
0
  6
CONTINUOUS
 62
     7
100
AcDbLine
 10
-145.269165084118
 20
-307.7413702056907
 11
-96.26916499400701
 21
-307.7413702056907
  0
INSERT
  5
2a9
100
AcDbEntity
  8
0
  6
CONTINUOUS
 62
     7
100
AcDbBlockReference
  2
_OPEN
 10
-148.2691650390625
 20
-307.7413702056907
 41
1
 42
1
 43
1
 50
180.0000000000004
  0
INSERT
  5
2aa
100
AcDbEntity
  8
0
  6
CONTINUOUS
 62
     7
100
AcDbBlockReference
  2
_OPEN
 10
-93.2691650390625
 20
-307.7413702056907
 41
1
 42
1
 43
1
  0
LINE
  5
2ab
100
AcDbEntity
  8
0
  6
CONTINUOUS
 62
     7
100
AcDbLine
 10
-148.2691650390625
 20
-284.1181793212891
 11
-148.2691650390625
 21
-310.0273702056907
  0
LINE
  5
2ac
100
AcDbEntity
  8
0
  6
CONTINUOUS
 62
     7
100
AcDbLine
 10
-93.2691650390625
 20
-281.1181793212891
 11
-93.2691650390625
 21
-310.0273702056907
  0
MTEXT
  5
2ad
100
AcDbEntity
  8
0
  6
CONTINUOUS
 62
     7
100
AcDbMText
 10
-120.7691650390625
 20
-307.7413702056907
 40
4
 41
32
 71
     8
 72
     1
  1
{\W0.864328;５５}
  0
POINT
  5
2ae
100
AcDbEntity
  8
DEFPOINTS
  6
CONTINUOUS
 62
     7
100
AcDbPoint
 10
-148.2691650390625
 20
-284.1181793212891
  0
POINT
  5
2af
100
AcDbEntity
  8
DEFPOINTS
  6
CONTINUOUS
 62
     7
100
AcDbPoint
 10
-93.2691650390625
 20
-281.1181793212891
  0
POINT
  5
2b0
100
AcDbEntity
  8
DEFPOINTS
  6
CONTINUOUS
 62
     7
100
AcDbPoint
 10
-93.2691650390625
 20
-307.7413702056907
  0
ENDBLK
  8
0
  5
2b1
100
AcDbEntity
100
AcDbBlockEnd
  0
BLOCK
  8
0
  5
2b2
100
AcDbEntity
100
AcDbBlockBegin
  2
*D38
 70
    65
 10
0
 20
0
  0
LINE
  5
2b3
100
AcDbEntity
  8
0
  6
CONTINUOUS
 62
     7
100
AcDbLine
 10
-90.26916508411799
 20
-307.7413702056907
 11
-83.26916499400701
 21
-307.7413702056907
  0
INSERT
  5
2b4
100
AcDbEntity
  8
0
  6
CONTINUOUS
 62
     7
100
AcDbBlockReference
  2
_OPEN
 10
-93.2691650390625
 20
-307.7413702056907
 41
1
 42
1
 43
1
 50
180.0000000000004
  0
INSERT
  5
2b5
100
AcDbEntity
  8
0
  6
CONTINUOUS
 62
     7
100
AcDbBlockReference
  2
_OPEN
 10
-80.2691650390625
 20
-307.7413702056907
 41
1
 42
1
 43
1
  0
LINE
  5
2b6
100
AcDbEntity
  8
0
  6
CONTINUOUS
 62
     7
100
AcDbLine
 10
-80.2691650390625
 20
-278.1182340917576
 11
-80.2691650390625
 21
-310.0273702056907
  0
MTEXT
  5
2b7
100
AcDbEntity
  8
0
  6
CONTINUOUS
 62
     7
100
AcDbMText
 10
-86.7691650390625
 20
-307.7413702056907
 40
4
 41
32
 71
     8
 72
     1
  1
{\W0.864328;１３}
  0
POINT
  5
2b8
100
AcDbEntity
  8
DEFPOINTS
  6
CONTINUOUS
 62
     7
100
AcDbPoint
 10
-93.2691650390625
 20
-281.1181793212891
  0
POINT
  5
2b9
100
AcDbEntity
  8
DEFPOINTS
  6
CONTINUOUS
 62
     7
100
AcDbPoint
 10
-80.2691650390625
 20
-278.1182340917576
  0
POINT
  5
2ba
100
AcDbEntity
  8
DEFPOINTS
  6
CONTINUOUS
 62
     7
100
AcDbPoint
 10
-80.2691650390625
 20
-307.7413702056907
  0
ENDBLK
  8
0
  5
2bb
100
AcDbEntity
100
AcDbBlockEnd
  0
BLOCK
  8
0
  5
2bc
100
AcDbEntity
100
AcDbBlockBegin
  2
*D39
 70
    65
 10
0
 20
0
  0
LINE
  5
2bd
100
AcDbEntity
  8
0
  6
CONTINUOUS
 62
     7
100
AcDbLine
 10
-148.2691650390625
 20
-307.7413702056907
 11
-156.2691650390625
 21
-307.7413702056907
  0
INSERT
  5
2be
100
AcDbEntity
  8
0
  6
CONTINUOUS
 62
     7
100
AcDbBlockReference
  2
_OPEN
 10
-148.2691650390625
 20
-307.7413702056907
 41
1
 42
1
 43
1
 50
180
  0
LINE
  5
2bf
100
AcDbEntity
  8
0
  6
CONTINUOUS
 62
     7
100
AcDbLine
 10
-145.269165084118
 20
-307.7413702056907
 11
-141.9191651344299
 21
-307.7413702056907
  0
INSERT
  5
2c0
100
AcDbEntity
  8
0
  6
CONTINUOUS
 62
     7
100
AcDbBlockReference
  2
_OPEN
 10
-156.2691650390625
 20
-307.7413702056907
 41
1
 42
1
 43
1
 50
3.562221243239139e-013
  0
LINE
  5
2c1
100
AcDbEntity
  8
0
  6
CONTINUOUS
 62
     7
100
AcDbLine
 10
-159.269164994007
 20
-307.7413702056907
 11
-162.6191649436951
 21
-307.7413702056907
  0
LINE
  5
2c2
100
AcDbEntity
  8
0
  6
CONTINUOUS
 62
     7
100
AcDbLine
 10
-156.2691650390625
 20
-284.1181793212891
 11
-156.2691650390625
 21
-310.0273702056907
  0
MTEXT
  5
2c3
100
AcDbEntity
  8
0
  6
CONTINUOUS
 62
     7
100
AcDbMText
 10
-152.2691650390625
 20
-307.7413702056907
 40
4
 41
16
 71
     8
 72
     1
  1
{\W0.900315;８}
  0
POINT
  5
2c4
100
AcDbEntity
  8
DEFPOINTS
  6
CONTINUOUS
 62
     7
100
AcDbPoint
 10
-148.2691650390625
 20
-284.1181793212891
  0
POINT
  5
2c5
100
AcDbEntity
  8
DEFPOINTS
  6
CONTINUOUS
 62
     7
100
AcDbPoint
 10
-156.2691650390625
 20
-284.1181793212891
  0
POINT
  5
2c6
100
AcDbEntity
  8
DEFPOINTS
  6
CONTINUOUS
 62
     7
100
AcDbPoint
 10
-156.2691650390625
 20
-307.7413702056907
  0
ENDBLK
  8
0
  5
2c7
100
AcDbEntity
100
AcDbBlockEnd
  0
BLOCK
  8
0
  5
2c8
100
AcDbEntity
100
AcDbBlockBegin
  2
*D40
 70
    65
 10
0
 20
0
  0
LINE
  5
2c9
100
AcDbEntity
  8
0
  6
CONTINUOUS
 62
     7
100
AcDbLine
 10
71.24193663435466
 20
-191.6550750732422
 11
71.24193663435466
 21
-175.915763225771
  0
LINE
  5
2ca
100
AcDbEntity
  8
0
  6
CONTINUOUS
 62
     7
100
AcDbLine
 10
71.24193663435464
 20
-212.6550751182977
 11
71.24193663435469
 21
-194.6550750281867
  0
INSERT
  5
2cb
100
AcDbEntity
  8
0
  6
CONTINUOUS
 62
     7
100
AcDbBlockReference
  2
_OPEN
 10
71.24193663435466
 20
-215.6550750732422
 41
1
 42
1
 43
1
 50
270.0000000000005
  0
INSERT
  5
2cc
100
AcDbEntity
  8
0
  6
CONTINUOUS
 62
     7
100
AcDbBlockReference
  2
_OPEN
 10
71.24193663435466
 20
-191.6550750732422
 41
1
 42
1
 43
1
 50
90.00000000000019
  0
LINE
  5
2cd
100
AcDbEntity
  8
0
  6
CONTINUOUS
 62
     7
100
AcDbLine
 10
62.01695251464844
 20
-215.6550750732422
 11
73.52793663435466
 21
-215.6550750732422
  0
LINE
  5
2ce
100
AcDbEntity
  8
0
  6
CONTINUOUS
 62
     7
100
AcDbLine
 10
62.01695251464844
 20
-191.6550750732422
 11
73.52793663435466
 21
-191.6550750732422
  0
MTEXT
  5
2cf
100
AcDbEntity
  8
0
  6
CONTINUOUS
 62
     7
100
AcDbMText
 10
71.24193663435466
 20
-181.344263401247
 40
4
 41
88
 71
     8
 72
     1
  1
{\W0.855331;\U+2205２４}
 11
0
 21
1
  0
POINT
  5
2d0
100
AcDbEntity
  8
DEFPOINTS
  6
CONTINUOUS
 62
     7
100
AcDbPoint
 10
62.01695251464844
 20
-215.6550750732422
  0
POINT
  5
2d1
100
AcDbEntity
  8
DEFPOINTS
  6
CONTINUOUS
 62
     7
100
AcDbPoint
 10
62.01695251464844
 20
-191.6550750732422
  0
POINT
  5
2d2
100
AcDbEntity
  8
DEFPOINTS
  6
CONTINUOUS
 62
     7
100
AcDbPoint
 10
71.24193663435466
 20
-191.6550750732422
  0
ENDBLK
  8
0
  5
2d3
100
AcDbEntity
100
AcDbBlockEnd
  0
BLOCK
  8
0
  5
2d4
100
AcDbEntity
100
AcDbBlockBegin
  2
KOZU0001
 70
    64
 10
0
 20
0
  0
POINT
  5
2d5
100
AcDbEntity
  8
0
  6
CONTINUOUS
 62
     7
100
AcDbPoint
 10
0
 20
0
  0
LINE
  5
2d6
100
AcDbEntity
  8
0
  6
CONTINUOUS
 62
     7
100
AcDbLine
 10
0
 20
28.69998931884766
 11
0
 21
-28.69999122619629
  0
LINE
  5
2d7
100
AcDbEntity
  8
0
  6
CONTINUOUS
 62
     7
100
AcDbLine
 10
10.00064392458765
 20
15.63642011861846
 11
-1.32657311437967e-005
 21
16.00008003778666
  0
LINE
  5
2d8
100
AcDbEntity
  8
0
  6
CONTINUOUS
 62
     7
100
AcDbLine
 10
10.00064143416451
 20
15.63633941072068
 11
10.9999852650465
 21
14.56157334615658
  0
LINE
  5
2d9
100
AcDbEntity
  8
0
  6
CONTINUOUS
 62
     7
100
AcDbLine
 10
10
 20
15.63636016845703
 11
10
 21
-15.60000228881836
  0
LINE
  5
2da
100
AcDbEntity
  8
0
  6
CONTINUOUS
 62
     7
100
AcDbLine
 10
10.99998474121094
 20
14.56157684326172
 11
10.99998474121094
 21
-14.59999847412109
  0
LINE
  5
2db
100
AcDbEntity
  8
0
  6
CONTINUOUS
 62
   190
100
AcDbLine
 10
10.99999046325684
 20
8
 11
19.2679443359375
 21
8
  0
LINE
  5
2dc
100
AcDbEntity
  8
0
  6
CONTINUOUS
 62
   190
100
AcDbLine
 10
19.2679132097192
 20
7.999991834900688
 11
20.99996400951627
 21
6.999991821439513
  0
LINE
  5
2dd
100
AcDbEntity
  8
0
  6
CONTINUOUS
 62
   190
100
AcDbLine
 10
20.99998474121094
 20
6.999969482421875
 11
32
 21
6.999969482421875
  0
LINE
  5
2de
100
AcDbEntity
  8
0
  6
CONTINUOUS
 62
     7
100
AcDbLine
 10
23.99998092651367
 20
6.18798828125
 11
32
 21
6.18798828125
  0
LINE
  5
2df
100
AcDbEntity
  8
0
  6
CONTINUOUS
 62
   190
100
AcDbLine
 10
23.99998474121094
 20
6.999992370605469
 11
23.99998474121094
 21
-6.999996185302734
  0
LINE
  5
2e0
100
AcDbEntity
  8
0
  6
CONTINUOUS
 62
     7
100
AcDbLine
 10
22.59353536946005
 20
6.99997601644842
 11
23.99995118374305
 21
6.187981452905715
  0
LINE
  5
2e1
100
AcDbEntity
  8
0
  6
CONTINUOUS
 62
   190
100
AcDbLine
 10
20.99998474121094
 20
6.999992370605469
 11
20.99998474121094
 21
-6.999996185302734
  0
LINE
  5
2e2
100
AcDbEntity
  8
0
  6
CONTINUOUS
 62
   190
100
AcDbLine
 10
19.26795959472656
 20
8
 11
19.26795959472656
 21
3.872978210449219
  0
LINE
  5
2e3
100
AcDbEntity
  8
0
  6
CONTINUOUS
 62
   190
100
AcDbLine
 10
13.99998474121094
 20
3.87298583984375
 11
20.99998474121094
 21
3.87298583984375
  0
LINE
  5
2e4
100
AcDbEntity
  8
0
  6
CONTINUOUS
 62
   190
100
AcDbLine
 10
13.99998474121094
 20
3.872978210449219
 11
13.99998474121094
 21
-3.872982025146484
  0
LINE
  5
2e5
100
AcDbEntity
  8
0
  6
CONTINUOUS
 62
   190
100
AcDbLine
 10
20.99997197836361
 20
-3.87296645690256
 11
13.99997345893356
 21
3.872997282982867
  0
LINE
  5
2e6
100
AcDbEntity
  8
0
  6
CONTINUOUS
 62
   190
100
AcDbLine
 10
20.9999589697462
 20
3.872983354335027
 11
13.99997291896889
 21
-3.872966588157197
  0
LINE
  5
2e7
100
AcDbEntity
  8
0
  6
CONTINUOUS
 62
   190
100
AcDbLine
 10
13.99998474121094
 20
-3.87298583984375
 11
20.99998474121094
 21
-3.87298583984375
  0
LINE
  5
2e8
100
AcDbEntity
  8
0
  6
CONTINUOUS
 62
   190
100
AcDbLine
 10
19.26795959472656
 20
-3.872982025146484
 11
19.26795959472656
 21
-8
  0
LINE
  5
2e9
100
AcDbEntity
  8
0
  6
CONTINUOUS
 62
   190
100
AcDbLine
 10
19.26792109465013
 20
-8.00000930669864
 11
20.99998841257082
 21
-6.999999756494175
  0
LINE
  5
2ea
100
AcDbEntity
  8
0
  6
CONTINUOUS
 62
   190
100
AcDbLine
 10
10.99998474121094
 20
-8
 11
19.2679443359375
 21
-8
  0
LINE
  5
2eb
100
AcDbEntity
  8
0
  6
CONTINUOUS
 62
     7
100
AcDbLine
 10
10.9999889378561
 20
-14.60000145286432
 11
9.962251256869598
 21
-15.63773913385083
  0
LINE
  5
2ec
100
AcDbEntity
  8
0
  6
CONTINUOUS
 62
     7
100
AcDbLine
 10
8.026150264295318e-006
 20
-16.00000296248594
 11
9.96227274833274
 21
-15.63773838901695
  0
LINE
  5
2ed
100
AcDbEntity
  8
0
  6
CONTINUOUS
 62
   190
100
AcDbLine
 10
20.99998474121094
 20
-7
 11
31.99998092651367
 21
-7
  0
LINE
  5
2ee
100
AcDbEntity
  8
0
  6
CONTINUOUS
 62
     7
100
AcDbLine
 10
22.59357445176042
 20
-6.999986488518919
 11
24.00000678416705
 21
-6.187982388232923
  0
LINE
  5
2ef
100
AcDbEntity
  8
0
  6
CONTINUOUS
 62
     7
100
AcDbLine
 10
23.99998092651367
 20
-6.18798828125
 11
31.99998092651367
 21
-6.18798828125
  0
LINE
  5
2f0
100
AcDbEntity
  8
0
  6
CONTINUOUS
 62
     7
100
AcDbLine
 10
33.27115631103516
 20
-12.70170593261719
 11
38.72884368896484
 21
-12.70170593261719
  0
LINE
  5
2f1
100
AcDbEntity
  8
0
  6
CONTINUOUS
 62
     7
100
AcDbLine
 10
32.0000078178362
 20
-10.50000270154926
 11
33.27116319230828
 21
-12.70170835493242
  0
LINE
  5
2f2
100
AcDbEntity
  8
0
  6
CONTINUOUS
 62
     7
100
AcDbLine
 10
32
 20
-10.49999809265137
 11
32
 21
10.49999618530273
  0
LINE
  5
2f3
100
AcDbEntity
  8
0
  6
CONTINUOUS
 62
     7
100
AcDbLine
 10
33.27115631103516
 20
-6.350845336914063
 11
38.72884368896484
 21
-6.350845336914063
  0
LINE
  5
2f4
100
AcDbEntity
  8
0
  6
CONTINUOUS
 62
     7
100
AcDbLine
 10
33.27115631103516
 20
6.350845336914063
 11
38.72884368896484
 21
6.350845336914063
  0
LINE
  5
2f5
100
AcDbEntity
  8
0
  6
CONTINUOUS
 62
     7
100
AcDbLine
 10
32.00000235132652
 20
10.49999704797414
 11
33.27115486477561
 21
12.70169774592021
  0
LINE
  5
2f6
100
AcDbEntity
  8
0
  6
CONTINUOUS
 62
     7
100
AcDbLine
 10
33.27115631103516
 20
12.70170593261719
 11
38.72884368896484
 21
12.70170593261719
  0
LINE
  5
2f7
100
AcDbEntity
  8
0
  6
CONTINUOUS
 62
     7
100
AcDbLine
 10
39.99998978703459
 20
10.49999086620871
 11
38.72883441256251
 21
12.70169651959187
  0
LINE
  5
2f8
100
AcDbEntity
  8
0
  6
CONTINUOUS
 62
     7
100
AcDbLine
 10
40
 20
-10.49999809265137
 11
40
 21
10.5
  0
LINE
  5
2f9
100
AcDbEntity
  8
0
  6
CONTINUOUS
 62
   190
100
AcDbLine
 10
40
 20
6.999969482421875
 11
49.49997711181641
 21
6.999969482421875
  0
LINE
  5
2fa
100
AcDbEntity
  8
0
  6
CONTINUOUS
 62
   190
100
AcDbLine
 10
49.49996691104393
 20
6.999956721754831
 11
50.99996355572475
 21
5.49997170953327
  0
LINE
  5
2fb
100
AcDbEntity
  8
0
  6
CONTINUOUS
 62
   190
100
AcDbLine
 10
50.99998474121094
 20
5.500007629394531
 11
50.99998474121094
 21
-5.5
  0
LINE
  5
2fc
100
AcDbEntity
  8
0
  6
CONTINUOUS
 62
   190
100
AcDbLine
 10
49.49998474121094
 20
6.999992370605469
 11
49.49998474121094
 21
-6.999996185302734
  0
LINE
  5
2fd
100
AcDbEntity
  8
0
  6
CONTINUOUS
 62
     7
100
AcDbLine
 10
40
 20
6.18798828125
 11
50.31198883056641
 21
6.18798828125
  0
LINE
  5
2fe
100
AcDbEntity
  8
0
  6
CONTINUOUS
 62
     7
100
AcDbLine
 10
39.99997711181641
 20
-6.18798828125
 11
50.31198883056641
 21
-6.18798828125
  0
LINE
  5
2ff
100
AcDbEntity
  8
0
  6
CONTINUOUS
 62
   190
100
AcDbLine
 10
39.99997711181641
 20
-7
 11
49.49999237060547
 21
-7
  0
LINE
  5
300
100
AcDbEntity
  8
0
  6
CONTINUOUS
 62
   190
100
AcDbLine
 10
50.99999811609314
 20
-5.500015879572363
 11
49.50001849864727
 21
-7.000007129435655
  0
LINE
  5
301
100
AcDbEntity
  8
0
  6
CONTINUOUS
 62
     7
100
AcDbLine
 10
39.9999954406097
 20
-10.49999633271839
 11
38.72884101981195
 21
-12.70170033428919
  0
LINE
  5
302
100
AcDbEntity
  8
0
  6
CONTINUOUS
 62
     7
100
AcDbLine
 10
-25.50000190734863
 20
-28.99998474121094
 11
-0.3000106811523438
 21
-28.99998474121094
  0
LINE
  5
303
100
AcDbEntity
  8
0
  6
CONTINUOUS
 62
     7
100
AcDbLine
 10
-26
 20
29.25
 11
-26
 21
-28.4999942779541
  0
LINE
  5
304
100
AcDbEntity
  8
0
  6
CONTINUOUS
 62
     7
100
AcDbLine
 10
-25.50000190734863
 20
29
 11
-0.3000106811523438
 21
29
  0
LINE
  5
305
100
AcDbEntity
  8
0
  6
CONTINUOUS
 62
     7
100
AcDbLine
 10
-107.9999923706055
 20
-23.84001159667969
 11
-26
 21
-23.84001159667969
  0
LINE
  5
306
100
AcDbEntity
  8
0
  6
CENTER
 62
     3
100
AcDbLine
 10
-107.9999847412109
 20
-20.25002288818359
 11
-26
 21
-20.25002288818359
  0
LINE
  5
307
100
AcDbEntity
  8
0
  6
CONTINUOUS
 62
     7
100
AcDbLine
 10
-107.9999923706055
 20
-16.65999603271484
 11
-26
 21
-16.65999603271484
  0
LINE
  5
308
100
AcDbEntity
  8
0
  6
DASHED
 62
     7
100
AcDbLine
 10
-3.899993896484375
 20
29.24999237060547
 11
-3.899993896484375
 21
28.24999237060547
  0
LINE
  5
309
100
AcDbEntity
  8
0
  6
DASHED
 62
     7
100
AcDbLine
 10
-22.09999465942383
 20
28.25
 11
-3.900001525878906
 21
28.25
  0
LINE
  5
30a
100
AcDbEntity
  8
0
  6
DASHED
 62
     7
100
AcDbLine
 10
-6.300005564371527
 20
28.24998325249978
 11
-6.623644187661063
 21
18.24999284955023
  0
LINE
  5
30b
100
AcDbEntity
  8
0
  6
DASHED
 62
     7
100
AcDbLine
 10
-7.300024328667329
 20
27.24993363703847
 11
-6.300023249963537
 21
28.24993471574226
  0
LINE
  5
30c
100
AcDbEntity
  8
0
  6
DASHED
 62
     7
100
AcDbLine
 10
-7.606813678983004
 20
18.24998155436899
 11
-7.2999958138365
 21
27.24997172858024
  0
LINE
  5
30d
100
AcDbEntity
  8
0
  6
DASHED
 62
     7
100
AcDbLine
 10
-18.70000076293945
 20
27.24996948242188
 11
-7.300009727478027
 21
27.24996948242188
  0
LINE
  5
30e
100
AcDbEntity
  8
0
  6
DASHED
 62
     7
100
AcDbLine
 10
-22.09999084472656
 20
29.24999237060547
 11
-22.09999084472656
 21
28.24999237060547
  0
LINE
  5
30f
100
AcDbEntity
  8
0
  6
DASHED
 62
     7
100
AcDbLine
 10
-19.70006413909771
 20
28.24995629492869
 11
-18.70006036299562
 21
27.2499525188266
  0
LINE
  5
310
100
AcDbEntity
  8
0
  6
DASHED
 62
     7
100
AcDbLine
 10
-19.37644203716462
 20
18.24999144638047
 11
-19.70007874227191
 21
28.24998191140968
  0
LINE
  5
311
100
AcDbEntity
  8
0
  6
DASHED
 62
     7
100
AcDbLine
 10
-18.70006222104373
 20
27.24997808015754
 11
-18.39324229463752
 21
18.24997270856334
  0
LINE
  5
312
100
AcDbEntity
  8
0
  6
CONTINUOUS
 62
     7
100
AcDbLine
 10
-107.9999923706055
 20
23.83999633789063
 11
-26
 21
23.83999633789063
  0
LINE
  5
313
100
AcDbEntity
  8
0
  6
CENTER
 62
     3
100
AcDbLine
 10
-107.9999847412109
 20
20.25
 11
-26
 21
20.25
  0
LINE
  5
314
100
AcDbEntity
  8
0
  6
CONTINUOUS
 62
     7
100
AcDbLine
 10
-107.9999923706055
 20
16.66000366210938
 11
-26
 21
16.66000366210938
  0
LINE
  5
315
100
AcDbEntity
  8
0
  6
CENTER
 62
     3
100
AcDbLine
 10
-13
 20
30.99999237060547
 11
-13
 21
16.07315063476563
  0
LINE
  5
316
100
AcDbEntity
  8
0
  6
CONTINUOUS
 62
     7
100
AcDbLine
 10
-133.6999816894531
 20
29
 11
-108.4999923706055
 21
29
  0
LINE
  5
317
100
AcDbEntity
  8
0
  6
CONTINUOUS
 62
     7
100
AcDbLine
 10
-134
 20
29
 11
-134
 21
-29
  0
LINE
  5
318
100
AcDbEntity
  8
0
  6
CONTINUOUS
 62
     7
100
AcDbLine
 10
-133.6999816894531
 20
-28.99998474121094
 11
-108.4999923706055
 21
-28.99998474121094
  0
LINE
  5
319
100
AcDbEntity
  8
0
  6
CONTINUOUS
 62
     7
100
AcDbLine
 10
-108
 20
29.25
 11
-108
 21
-28.4999942779541
  0
LINE
  5
31a
100
AcDbEntity
  8
0
  6
DASHED
 62
     7
100
AcDbLine
 10
-130.0999755859375
 20
29.24999237060547
 11
-130.0999755859375
 21
28.24999237060547
  0
LINE
  5
31b
100
AcDbEntity
  8
0
  6
DASHED
 62
     7
100
AcDbLine
 10
-130.1000061035156
 20
28.25
 11
-111.8999862670898
 21
28.25
  0
LINE
  5
31c
100
AcDbEntity
  8
0
  6
DASHED
 62
     7
100
AcDbLine
 10
-127.3763592878859
 20
18.24999932343724
 11
-127.6999960546897
 21
28.24999169481698
  0
LINE
  5
31d
100
AcDbEntity
  8
0
  6
DASHED
 62
     7
100
AcDbLine
 10
-127.6999985647215
 20
28.2499873150092
 11
-126.6999974860177
 21
27.24998623630541
  0
LINE
  5
31e
100
AcDbEntity
  8
0
  6
DASHED
 62
     7
100
AcDbLine
 10
-126.6999893188477
 20
27.24996948242188
 11
-115.2999954223633
 21
27.24996948242188
  0
LINE
  5
31f
100
AcDbEntity
  8
0
  6
CENTER
 62
     3
100
AcDbLine
 10
-121
 20
30.99999237060547
 11
-121
 21
17.99999237060547
  0
LINE
  5
320
100
AcDbEntity
  8
0
  6
DASHED
 62
     7
100
AcDbLine
 10
-126.7000095861615
 20
27.24999673100406
 11
-126.3931899196986
 21
18.24999898437481
  0
LINE
  5
321
100
AcDbEntity
  8
0
  6
DASHED
 62
     7
100
AcDbLine
 10
-115.6067302951249
 20
18.24997866522193
 11
-115.2999118776017
 21
27.24998504248378
  0
LINE
  5
322
100
AcDbEntity
  8
0
  6
DASHED
 62
     7
100
AcDbLine
 10
-114.3000111688945
 20
28.24999322624639
 11
-114.6236497921841
 21
18.25000282329685
  0
LINE
  5
323
100
AcDbEntity
  8
0
  6
DASHED
 62
     7
100
AcDbLine
 10
-111.8999633789063
 20
29.24999237060547
 11
-111.8999633789063
 21
28.24999237060547
  0
LINE
  5
324
100
AcDbEntity
  8
0
  6
DASHED
 62
     7
100
AcDbLine
 10
-115.2999614516894
 20
27.24989991955965
 11
-114.2999603729856
 21
28.24990099826344
  0
LINE
  5
325
100
AcDbEntity
  8
0
  6
CENTER
 62
     3
100
AcDbLine
 10
-145.3488616943359
 20
0
 11
54.07499694824219
 21
0
  0
LINE
  5
326
100
AcDbEntity
  8
0
  6
CONTINUOUS
 62
     7
100
AcDbLine
 10
-142.7527878630695
 20
10.98492941830541
 11
-134.6959798699884
 21
8.222125934043056
  0
LINE
  5
327
100
AcDbEntity
  8
0
  6
CONTINUOUS
 62
     7
100
AcDbLine
 10
-142.8000183105469
 20
11.19707584381104
 11
-142.8000183105469
 21
29.00000190734863
  0
LINE
  5
328
100
AcDbEntity
  8
0
  6
CONTINUOUS
 62
     7
100
AcDbLine
 10
-142.6655506548667
 20
10.855904465847
 11
-140.8606382835555
 21
8.922071167542939
  0
LINE
  5
329
100
AcDbEntity
  8
0
  6
CONTINUOUS
 62
     7
100
AcDbLine
 10
-140
 20
-6.738669395446777
 11
-140
 21
6.73867130279541
  0
LINE
  5
32a
100
AcDbEntity
  8
0
  6
CONTINUOUS
 62
     7
100
AcDbLine
 10
-142.752809115572
 20
-10.98492603000926
 11
-134.6959858030663
 21
-8.222120179031535
  0
LINE
  5
32b
100
AcDbEntity
  8
0
  6
CONTINUOUS
 62
     7
100
AcDbLine
 10
-142.6655472482104
 20
-10.85590472960838
 11
-140.8606290195679
 21
-8.922066462008445
  0
LINE
  5
32c
100
AcDbEntity
  8
0
  6
CONTINUOUS
 62
     7
100
AcDbLine
 10
-142.8000183105469
 20
-11.1970739364624
 11
-142.8000183105469
 21
-28.99999809265137
  0
LINE
  5
32d
100
AcDbEntity
  8
0
  6
CONTINUOUS
 62
     7
100
AcDbLine
 10
-146.0000152587891
 20
-29
 11
-134
 21
-29
  0
LINE
  5
32e
100
AcDbEntity
  8
0
  6
CONTINUOUS
 62
     7
100
AcDbLine
 10
-146
 20
-11.69318199157715
 11
-146
 21
-28.99999809265137
  0
LINE
  5
32f
100
AcDbEntity
  8
0
  6
DASHED
 62
     7
100
AcDbLine
 10
-142.8000183105469
 20
-25.5
 11
-146.0000152587891
 21
-25.5
  0
LINE
  5
330
100
AcDbEntity
  8
0
  6
CENTER
 62
     3
100
AcDbLine
 10
-140.2001190185547
 20
-21
 11
-148.5536651611328
 21
-21
  0
LINE
  5
331
100
AcDbEntity
  8
0
  6
DASHED
 62
     7
100
AcDbLine
 10
-142.8000183105469
 20
-16.5
 11
-146.0000152587891
 21
-16.5
  0
LINE
  5
332
100
AcDbEntity
  8
0
  6
CONTINUOUS
 62
     7
100
AcDbLine
 10
-143.1160614781607
 20
-8.296329674872467
 11
-145.4943035501113
 21
-10.5259329774763
  0
LINE
  5
333
100
AcDbEntity
  8
0
  6
CONTINUOUS
 62
     7
100
AcDbLine
 10
-142.8000183105469
 20
-7.566771030426025
 11
-142.8000183105469
 21
7.566773891448975
  0
LINE
  5
334
100
AcDbEntity
  8
0
  6
CONTINUOUS
 62
     7
100
AcDbLine
 10
-143.1160517249158
 20
8.296329550915971
 11
-145.494293045491
 21
10.52593365498608
  0
LINE
  5
335
100
AcDbEntity
  8
0
  6
CONTINUOUS
 62
     7
100
AcDbLine
 10
-146
 20
11.69318580627441
 11
-146
 21
29.00000190734863
  0
LINE
  5
336
100
AcDbEntity
  8
0
  6
DASHED
 62
     7
100
AcDbLine
 10
-142.8000030517578
 20
16.5
 11
-146
 21
16.5
  0
LINE
  5
337
100
AcDbEntity
  8
0
  6
CENTER
 62
     3
100
AcDbLine
 10
-140.2001190185547
 20
21
 11
-148.7332916259766
 21
21
  0
LINE
  5
338
100
AcDbEntity
  8
0
  6
DASHED
 62
     7
100
AcDbLine
 10
-142.8000030517578
 20
25.5
 11
-146
 21
25.5
  0
LINE
  5
339
100
AcDbEntity
  8
0
  6
CONTINUOUS
 62
     7
100
AcDbLine
 10
-146
 20
29
 11
-134
 21
29
  0
LINE
  5
33a
100
AcDbEntity
  8
0
  6
CONTINUOUS
 62
     7
100
AcDbLine
 10
-133.5
 20
29.25
 11
-108
 21
29.25
  0
LINE
  5
33b
100
AcDbEntity
  8
0
  6
CONTINUOUS
 62
     7
100
AcDbLine
 10
-133.5
 20
29.25
 11
-133.5
 21
29
  0
LINE
  5
33c
100
AcDbEntity
  8
0
  6
CONTINUOUS
 62
     7
100
AcDbLine
 10
-0.5
 20
29.25
 11
-0.5
 21
29
  0
LINE
  5
33d
100
AcDbEntity
  8
0
  6
CONTINUOUS
 62
     7
100
AcDbLine
 10
-26
 20
29.25
 11
-0.5
 21
29.25
  0
ARC
  5
33e
100
AcDbEntity
  8
0
  6
CONTINUOUS
 62
   190
100
AcDbCircle
 10
18.24996948242188
 20
0
 40
5.749997615814209
100
AcDbArc
 50
137.6573810608645
 51
222.3426016362922
  0
ARC
  5
33f
100
AcDbEntity
  8
0
  6
CONTINUOUS
 62
     7
100
AcDbCircle
 10
37.91148376464844
 20
-9.526275634765625
 40
5.622808456420898
100
AcDbArc
 50
145.6157535572233
 51
205.6157415664978
  0
ARC
  5
340
100
AcDbEntity
  8
0
  6
CONTINUOUS
 62
     7
100
AcDbCircle
 10
53.30618286132813
 20
0
 40
21.01751327514648
100
AcDbArc
 50
162.4120629904984
 51
197.5879333670366
  0
ARC
  5
341
100
AcDbEntity
  8
0
  6
CONTINUOUS
 62
     7
100
AcDbCircle
 10
37.91148376464844
 20
9.526275634765625
 40
5.622808456420898
100
AcDbArc
 50
154.3842411306589
 51
214.3841744984201
  0
ARC
  5
342
100
AcDbEntity
  8
0
  6
CONTINUOUS
 62
     7
100
AcDbCircle
 10
34.08851623535156
 20
9.526275634765625
 40
5.622808456420898
100
AcDbArc
 50
325.6156973218489
 51
25.61584071792557
  0
ARC
  5
343
100
AcDbEntity
  8
0
  6
CONTINUOUS
 62
     7
100
AcDbCircle
 10
34.08851623535156
 20
-9.526275634765625
 40
5.622808456420898
100
AcDbArc
 50
334.3841592820751
 51
34.38424803663848
  0
ARC
  5
344
100
AcDbEntity
  8
0
  6
CONTINUOUS
 62
     7
100
AcDbCircle
 10
18.69381713867188
 20
0
 40
21.01751327514648
100
AcDbArc
 50
342.4120460287118
 51
17.58795567883627
  0
ARC
  5
345
100
AcDbEntity
  8
0
  6
CONTINUOUS
 62
     7
100
AcDbCircle
 10
-25.5
 20
28.49996948242188
 40
0.4999998807907105
100
AcDbArc
 50
89.99998201391075
 51
180.0000186693356
  0
ARC
  5
346
100
AcDbEntity
  8
0
  6
CONTINUOUS
 62
     7
100
AcDbCircle
 10
-0.300018310546875
 20
-28.69999694824219
 40
0.2999999225139618
100
AcDbArc
 50
270.00001798609
 51
360
  0
ARC
  5
347
100
AcDbEntity
  8
0
  6
CONTINUOUS
 62
     7
100
AcDbCircle
 10
-25.5
 20
-28.49998474121094
 40
0.4999998807907105
100
AcDbArc
 50
180.0000223118009
 51
269.9999974955225
  0
ARC
  5
348
100
AcDbEntity
  8
0
  6
CONTINUOUS
 62
     7
100
AcDbCircle
 10
-0.300018310546875
 20
28.69998168945313
 40
0.2999999225139618
100
AcDbArc
 50
0
 51
89.99998201391065
  0
ARC
  5
349
100
AcDbEntity
  8
0
  6
CONTINUOUS
 62
     7
100
AcDbCircle
 10
-108.5
 20
28.49996948242188
 40
0.4999998807907105
100
AcDbArc
 50
0
 51
89.99998201390993
  0
ARC
  5
34a
100
AcDbEntity
  8
0
  6
CONTINUOUS
 62
     7
100
AcDbCircle
 10
-133.699951171875
 20
-28.69999694824219
 40
0.2999999225139618
100
AcDbArc
 50
180.0000223118008
 51
269.9999974955238
  0
ARC
  5
34b
100
AcDbEntity
  8
0
  6
CONTINUOUS
 62
     7
100
AcDbCircle
 10
-108.5
 20
-28.49998474121094
 40
0.4999998807907105
100
AcDbArc
 50
270.0000179860908
 51
360
  0
ARC
  5
34c
100
AcDbEntity
  8
0
  6
CONTINUOUS
 62
     7
100
AcDbCircle
 10
-133.699951171875
 20
28.69998168945313
 40
0.2999999225139618
100
AcDbArc
 50
89.99998201391283
 51
180.0000186693357
  0
ARC
  5
34d
100
AcDbEntity
  8
0
  6
CONTINUOUS
 62
     7
100
AcDbCircle
 10
-135
 20
7.269454956054688
 40
0.9999997019767761
100
AcDbArc
 50
0
 51
72.29968338360555
  0
ARC
  5
34e
100
AcDbEntity
  8
0
  6
CONTINUOUS
 62
     7
100
AcDbCircle
 10
-143.1999969482422
 20
6.738671779632568
 40
3.199999809265137
100
AcDbArc
 50
0
 51
43.02511011033771
  0
ARC
  5
34f
100
AcDbEntity
  8
0
  6
CONTINUOUS
 62
     7
100
AcDbCircle
 10
-143.2000122070313
 20
-6.738668918609619
 40
3.199999809265137
100
AcDbArc
 50
316.9748625689061
 51
359.999972679244
  0
ARC
  5
350
100
AcDbEntity
  8
0
  6
CONTINUOUS
 62
     7
100
AcDbCircle
 10
-135
 20
-7.269454956054688
 40
0.9999997019767761
100
AcDbArc
 50
287.7003166163951
 51
360
  0
ARC
  5
351
100
AcDbEntity
  8
0
  6
CONTINUOUS
 62
     7
100
AcDbCircle
 10
-144.4000091552734
 20
-11.69318199157715
 40
1.600000381469727
100
AcDbArc
 50
133.1523522088639
 51
179.9999640278213
  0
ARC
  5
352
100
AcDbEntity
  8
0
  6
CONTINUOUS
 62
     7
100
AcDbCircle
 10
-143.8000183105469
 20
-7.566771030426025
 40
0.9999997019767761
100
AcDbArc
 50
313.1523608602872
 51
359.999972679244
  0
ARC
  5
353
100
AcDbEntity
  8
0
  6
CONTINUOUS
 62
     7
100
AcDbCircle
 10
-143.8000030517578
 20
7.566773891448975
 40
0.9999997019767761
100
AcDbArc
 50
0
 51
46.84761181895762
  0
ARC
  5
354
100
AcDbEntity
  8
0
  6
CONTINUOUS
 62
     7
100
AcDbCircle
 10
-144.3999938964844
 20
11.69318580627441
 40
1.600000381469727
100
AcDbArc
 50
179.999991348578
 51
226.8476031675356
  0
ARC
  5
355
100
AcDbEntity
  8
0
  6
CONTINUOUS
 62
     7
100
AcDbCircle
 10
-142.3000030517578
 20
11.19707584381104
 40
0.5
100
AcDbArc
 50
180.0000632929361
 51
223.0251187617597
  0
ARC
  5
356
100
AcDbEntity
  8
0
  6
CONTINUOUS
 62
     7
100
AcDbCircle
 10
-142.3000183105469
 20
-11.1970739364624
 40
0.5
100
AcDbArc
 50
136.9748539174831
 51
179.999909386308
  0
MTEXT
  5
357
100
AcDbEntity
  8
0
  6
CONTINUOUS
 62
     7
100
AcDbMText
 10
-39.55356250703335
 20
-9.34999942779541
 40
0.5
 41
34
 71
     7
 72
     1
  1
{\W0.842735;ＢＮ－６１０５－ＦＢ－４０－Ｂ－＊}
  0
ENDBLK
  8
0
  5
358
100
AcDbEntity
100
AcDbBlockEnd
  0
BLOCK
  8
0
  5
359
100
AcDbEntity
100
AcDbBlockBegin
  2
KOZU0002
 70
    64
 10
0
 20
0
  0
POINT
  5
35a
100
AcDbEntity
  8
0
  6
CONTINUOUS
 62
     7
100
AcDbPoint
 10
0
 20
0
  0
LINE
  5
35b
100
AcDbEntity
  8
0
  6
CONTINUOUS
 62
     7
100
AcDbLine
 10
10.00064891507366
 20
15.63645238350402
 11
-1.018133396835097e-005
 21
16.00011237198447
  0
LINE
  5
35c
100
AcDbEntity
  8
0
  6
CONTINUOUS
 62
     7
100
AcDbLine
 10
0
 20
28.69998168945313
 11
0
 21
-28.69999694824219
  0
LINE
  5
35d
100
AcDbEntity
  8
0
  6
CONTINUOUS
 62
     7
100
AcDbLine
 10
-25.50000190734863
 20
29
 11
-0.3000106811523438
 21
29
  0
LINE
  5
35e
100
AcDbEntity
  8
0
  6
CONTINUOUS
 62
     7
100
AcDbLine
 10
-26
 20
28.49996948242188
 11
-26
 21
-28.5
  0
LINE
  5
35f
100
AcDbEntity
  8
0
  6
CENTER
 62
     3
100
AcDbLine
 10
-13
 20
11.2774658203125
 11
-13
 21
-11.02066040039063
  0
LINE
  5
360
100
AcDbEntity
  8
0
  6
CONTINUOUS
 62
     7
100
AcDbLine
 10
-25.50000190734863
 20
-29
 11
-0.3000106811523438
 21
-29
  0
LINE
  5
361
100
AcDbEntity
  8
0
  6
CONTINUOUS
 62
     7
100
AcDbLine
 10
-1.75500969993303e-005
 20
-15.99998194352565
 11
9.962249078174299
 21
-15.63771730074426
  0
LINE
  5
362
100
AcDbEntity
  8
0
  6
CONTINUOUS
 62
     7
100
AcDbLine
 10
10
 20
15.6363525390625
 11
10
 21
-15.60001373291016
  0
LINE
  5
363
100
AcDbEntity
  8
0
  6
CONTINUOUS
 62
     7
100
AcDbLine
 10
11.00000242484762
 20
-14.60000415026263
 11
9.96225934906451
 21
-15.63774722604574
  0
LINE
  5
364
100
AcDbEntity
  8
0
  6
CONTINUOUS
 62
     7
100
AcDbLine
 10
10.99998474121094
 20
14.56155395507813
 11
10.99998474121094
 21
-14.60000610351563
  0
LINE
  5
365
100
AcDbEntity
  8
0
  6
CONTINUOUS
 62
     7
100
AcDbLine
 10
10.00064692342033
 20
15.63634191029235
 11
10.99998815670815
 21
14.56157863936741
  0
LINE
  5
366
100
AcDbEntity
  8
0
  6
CONTINUOUS
 62
   190
100
AcDbLine
 10
10.99999046325684
 20
8
 11
12.49997901916504
 21
8
  0
LINE
  5
367
100
AcDbEntity
  8
0
  6
CONTINUOUS
 62
     7
100
AcDbLine
 10
12.5000048477553
 20
8.000018278123481
 11
14.00000404040018
 21
6.999988299211716
  0
LINE
  5
368
100
AcDbEntity
  8
0
  6
CONTINUOUS
 62
   190
100
AcDbLine
 10
13.99998474121094
 20
6.999969482421875
 11
32
 21
6.999969482421875
  0
LINE
  5
369
100
AcDbEntity
  8
0
  6
CONTINUOUS
 62
   190
100
AcDbLine
 10
23.99998474121094
 20
6.999969482421875
 11
23.99998474121094
 21
-7.000007629394531
  0
LINE
  5
36a
100
AcDbEntity
  8
0
  6
CONTINUOUS
 62
     7
100
AcDbLine
 10
22.59354115997688
 20
7.00000130470645
 11
23.99995697425988
 21
6.188006741163745
  0
LINE
  5
36b
100
AcDbEntity
  8
0
  6
CONTINUOUS
 62
     7
100
AcDbLine
 10
23.99998092651367
 20
6.18798828125
 11
32
 21
6.18798828125
  0
LINE
  5
36c
100
AcDbEntity
  8
0
  6
CONTINUOUS
 62
   190
100
AcDbLine
 10
10.99998474121094
 20
-8
 11
12.49999046325684
 21
-8
  0
LINE
  5
36d
100
AcDbEntity
  8
0
  6
CONTINUOUS
 62
     7
100
AcDbLine
 10
12.49998408288181
 20
-8.000002514744706
 11
13.9999878549847
 21
-7.000000035827472
  0
LINE
  5
36e
100
AcDbEntity
  8
0
  6
CONTINUOUS
 62
   190
100
AcDbLine
 10
13.99998474121094
 20
-7
 11
31.99998092651367
 21
-7
  0
LINE
  5
36f
100
AcDbEntity
  8
0
  6
CONTINUOUS
 62
   190
100
AcDbLine
 10
19.26795959472656
 20
6.999969482421875
 11
19.26795959472656
 21
-7
  0
LINE
  5
370
100
AcDbEntity
  8
0
  6
CONTINUOUS
 62
   190
100
AcDbLine
 10
20.99998474121094
 20
6.999969482421875
 11
20.99998474121094
 21
-7.000007629394531
  0
LINE
  5
371
100
AcDbEntity
  8
0
  6
CONTINUOUS
 62
     7
100
AcDbLine
 10
22.59357121660655
 20
-7.000003773251432
 11
24.00000354901318
 21
-6.187999672965436
  0
LINE
  5
372
100
AcDbEntity
  8
0
  6
CONTINUOUS
 62
     7
100
AcDbLine
 10
23.99998092651367
 20
-6.18798828125
 11
31.99998092651367
 21
-6.18798828125
  0
LINE
  5
373
100
AcDbEntity
  8
0
  6
CONTINUOUS
 62
     7
100
AcDbLine
 10
31.99998899988591
 20
-10.49997392260106
 11
32.2886624046507
 21
-10.99997091747351
  0
LINE
  5
374
100
AcDbEntity
  8
0
  6
CONTINUOUS
 62
     7
100
AcDbLine
 10
32
 20
-10.49998474121094
 11
32
 21
10.50001525878906
  0
LINE
  5
375
100
AcDbEntity
  8
0
  6
CONTINUOUS
 62
     7
100
AcDbLine
 10
32.28867721557617
 20
-10.99998474121094
 11
39.7113151550293
 21
-10.99998474121094
  0
LINE
  5
376
100
AcDbEntity
  8
0
  6
CONTINUOUS
 62
     7
100
AcDbLine
 10
39.99998474121094
 20
-10.49998569488525
 11
39.99998474121094
 21
10.50001525878906
  0
LINE
  5
377
100
AcDbEntity
  8
0
  6
CONTINUOUS
 62
     7
100
AcDbLine
 10
39.99999176285409
 20
-10.49997218520013
 11
39.71131835808931
 21
-10.99996918007257
  0
LINE
  5
378
100
AcDbEntity
  8
0
  6
CONTINUOUS
 62
     7
100
AcDbLine
 10
33.27115631103516
 20
1.52587890625e-005
 11
38.72884368896484
 21
1.52587890625e-005
  0
LINE
  5
379
100
AcDbEntity
  8
0
  6
CONTINUOUS
 62
     7
100
AcDbLine
 10
32.28867721557617
 20
11.00001525878906
 11
39.71132278442383
 21
11.00001525878906
  0
LINE
  5
37a
100
AcDbEntity
  8
0
  6
CONTINUOUS
 62
     7
100
AcDbLine
 10
31.99999497746818
 20
10.49998809077429
 11
32.28867601162761
 21
10.99999830014564
  0
LINE
  5
37b
100
AcDbEntity
  8
0
  6
CONTINUOUS
 62
     7
100
AcDbLine
 10
39.99999837010356
 20
10.49997599989744
 11
39.71131733594413
 21
10.99998620926879
  0
LINE
  5
37c
100
AcDbEntity
  8
0
  6
CONTINUOUS
 62
   190
100
AcDbLine
 10
40
 20
6.999969482421875
 11
49.49997711181641
 21
6.999969482421875
  0
LINE
  5
37d
100
AcDbEntity
  8
0
  6
CONTINUOUS
 62
     7
100
AcDbLine
 10
40
 20
6.18798828125
 11
50.31198883056641
 21
6.18798828125
  0
LINE
  5
37e
100
AcDbEntity
  8
0
  6
CONTINUOUS
 62
   190
100
AcDbLine
 10
49.49996151620549
 20
6.999967511327132
 11
50.99995816088631
 21
5.49998249910557
  0
LINE
  5
37f
100
AcDbEntity
  8
0
  6
CONTINUOUS
 62
   190
100
AcDbLine
 10
49.49998474121094
 20
6.999969482421875
 11
49.49998474121094
 21
-7.000007629394531
  0
LINE
  5
380
100
AcDbEntity
  8
0
  6
CONTINUOUS
 62
   190
100
AcDbLine
 10
50.99998474121094
 20
5.500007629394531
 11
50.99998474121094
 21
-5.500007629394531
  0
LINE
  5
381
100
AcDbEntity
  8
0
  6
CONTINUOUS
 62
   190
100
AcDbLine
 10
51.00002239262559
 20
-5.500002392486707
 11
49.50003738040402
 21
-6.999999037167527
  0
LINE
  5
382
100
AcDbEntity
  8
0
  6
CONTINUOUS
 62
     7
100
AcDbLine
 10
39.99997711181641
 20
-6.18798828125
 11
50.31198883056641
 21
-6.18798828125
  0
LINE
  5
383
100
AcDbEntity
  8
0
  6
CONTINUOUS
 62
   190
100
AcDbLine
 10
39.99997711181641
 20
-7
 11
49.49999237060547
 21
-7
  0
LINE
  5
384
100
AcDbEntity
  8
0
  6
CENTER
 62
     3
100
AcDbLine
 10
-107.9999847412109
 20
-20.25003051757813
 11
-26
 21
-20.25003051757813
  0
LINE
  5
385
100
AcDbEntity
  8
0
  6
CONTINUOUS
 62
     7
100
AcDbLine
 10
-107.9999923706055
 20
-23.84002685546875
 11
-26
 21
-23.84002685546875
  0
LINE
  5
386
100
AcDbEntity
  8
0
  6
CONTINUOUS
 62
     7
100
AcDbLine
 10
-107.9999923706055
 20
-16.66000366210938
 11
-26
 21
-16.66000366210938
  0
LINE
  5
387
100
AcDbEntity
  8
0
  6
CONTINUOUS
 62
     7
100
AcDbLine
 10
-107.9999923706055
 20
16.66000366210938
 11
-26
 21
16.66000366210938
  0
LINE
  5
388
100
AcDbEntity
  8
0
  6
CENTER
 62
     3
100
AcDbLine
 10
-107.9999847412109
 20
20.25
 11
-26
 21
20.25
  0
LINE
  5
389
100
AcDbEntity
  8
0
  6
CONTINUOUS
 62
     7
100
AcDbLine
 10
-107.9999923706055
 20
23.83999633789063
 11
-26
 21
23.83999633789063
  0
LINE
  5
38a
100
AcDbEntity
  8
0
  6
CONTINUOUS
 62
     7
100
AcDbLine
 10
-133.6999816894531
 20
29
 11
-108.4999923706055
 21
29
  0
LINE
  5
38b
100
AcDbEntity
  8
0
  6
CONTINUOUS
 62
     7
100
AcDbLine
 10
-133.9999847412109
 20
28.95000076293945
 11
-133.9999847412109
 21
-28.95000076293945
  0
LINE
  5
38c
100
AcDbEntity
  8
0
  6
CENTER
 62
     3
100
AcDbLine
 10
-120.9999847412109
 20
11.2774658203125
 11
-120.9999847412109
 21
-11.02066040039063
  0
LINE
  5
38d
100
AcDbEntity
  8
0
  6
CONTINUOUS
 62
     7
100
AcDbLine
 10
-107.9999847412109
 20
28.49996948242188
 11
-107.9999847412109
 21
-28.5
  0
LINE
  5
38e
100
AcDbEntity
  8
0
  6
CONTINUOUS
 62
     7
100
AcDbLine
 10
-133.6999816894531
 20
-29
 11
-108.4999923706055
 21
-29
  0
LINE
  5
38f
100
AcDbEntity
  8
0
  6
CENTER
 62
     3
100
AcDbLine
 10
-139.8249969482422
 20
0
 11
54.07499694824219
 21
0
  0
LINE
  5
390
100
AcDbEntity
  8
0
  6
CONTINUOUS
 62
     7
100
AcDbLine
 10
-137.1999816894531
 20
-27.75
 11
-137.1999816894531
 21
27.75
  0
LINE
  5
391
100
AcDbEntity
  8
0
  6
CONTINUOUS
 62
     7
100
AcDbLine
 10
-137.1999816894531
 20
12.75
 11
-139.1999816894531
 21
12.75
  0
LINE
  5
392
100
AcDbEntity
  8
0
  6
CONTINUOUS
 62
     7
100
AcDbLine
 10
-139.1999816894531
 20
27.75
 11
-139.1999816894531
 21
12.75000095367432
  0
LINE
  5
393
100
AcDbEntity
  8
0
  6
CONTINUOUS
 62
     7
100
AcDbLine
 10
-139.1999816894531
 20
20.25
 11
-144.2999877929688
 21
20.25
  0
LINE
  5
394
100
AcDbEntity
  8
0
  6
CONTINUOUS
 62
     7
100
AcDbLine
 10
-139.1999816894531
 20
13.75
 11
-144.2999877929688
 21
13.75
  0
LINE
  5
395
100
AcDbEntity
  8
0
  6
CONTINUOUS
 62
     7
100
AcDbLine
 10
-144.2999800064747
 20
13.75000604661376
 11
-144.6999775923393
 21
14.44282247764348
  0
LINE
  5
396
100
AcDbEntity
  8
0
  6
CONTINUOUS
 62
     7
100
AcDbLine
 10
-144.6999816894531
 20
26.05718231201172
 11
-144.6999816894531
 21
14.44282150268555
  0
LINE
  5
397
100
AcDbEntity
  8
0
  6
CENTER
 62
     3
100
AcDbLine
 10
-133.9999847412109
 20
20.25
 11
-146.7809143066406
 21
20.25
  0
LINE
  5
398
100
AcDbEntity
  8
0
  6
CONTINUOUS
 62
     7
100
AcDbLine
 10
-137.1999874273879
 20
19.09530113822908
 11
-139.1999884677544
 21
20.25000265276421
  0
LINE
  5
399
100
AcDbEntity
  8
0
  6
CONTINUOUS
 62
     7
100
AcDbLine
 10
-137.1999842619079
 20
20.24999994289198
 11
-139.1999853022744
 21
21.40470145742712
  0
LINE
  5
39a
100
AcDbEntity
  8
0
  6
CONTINUOUS
 62
     7
100
AcDbLine
 10
-135.9999847412109
 20
30.95000076293945
 11
-141.2999877929688
 21
30.95000076293945
  0
LINE
  5
39b
100
AcDbEntity
  8
0
  6
CONTINUOUS
 62
     7
100
AcDbLine
 10
-139.5999755859375
 20
50
 11
-145.9999694824219
 21
50
  0
LINE
  5
39c
100
AcDbEntity
  8
0
  6
CONTINUOUS
 62
     7
100
AcDbLine
 10
-142.7999877929688
 20
32.45000076293945
 11
-142.7999877929688
 21
50
  0
LINE
  5
39d
100
AcDbEntity
  8
0
  6
CONTINUOUS
 62
     7
100
AcDbLine
 10
-145.9999847412109
 20
31.75
 11
-145.9999847412109
 21
50
  0
LINE
  5
39e
100
AcDbEntity
  8
0
  6
DASHED
 62
     7
100
AcDbLine
 10
-142.7999725341797
 20
44.5
 11
-145.9999847412109
 21
44.5
  0
LINE
  5
39f
100
AcDbEntity
  8
0
  6
CENTER
 62
     3
100
AcDbLine
 10
-138.7056274414063
 20
40
 11
-149.8792877197266
 21
40
  0
LINE
  5
3a0
100
AcDbEntity
  8
0
  6
DASHED
 62
     7
100
AcDbLine
 10
-142.7999725341797
 20
35.5
 11
-145.9999847412109
 21
35.5
  0
LINE
  5
3a1
100
AcDbEntity
  8
0
  6
CONTINUOUS
 62
     7
100
AcDbLine
 10
-144.2999885946695
 20
26.75000510367749
 11
-144.6999901974587
 21
26.05718218215435
  0
LINE
  5
3a2
100
AcDbEntity
  8
0
  6
CONTINUOUS
 62
     7
100
AcDbLine
 10
-139.1999816894531
 20
26.75
 11
-144.2999877929688
 21
26.75
  0
LINE
  5
3a3
100
AcDbEntity
  8
0
  6
CONTINUOUS
 62
     7
100
AcDbLine
 10
-137.1999816894531
 20
27.75
 11
-141.9999847412109
 21
27.75
  0
LINE
  5
3a4
100
AcDbEntity
  8
0
  6
CONTINUOUS
 62
     7
100
AcDbLine
 10
-137.1999816894531
 20
-12.75
 11
-139.1999816894531
 21
-12.75
  0
LINE
  5
3a5
100
AcDbEntity
  8
0
  6
CONTINUOUS
 62
     7
100
AcDbLine
 10
-139.1999816894531
 20
-27.75
 11
-139.1999816894531
 21
-12.74999904632568
  0
LINE
  5
3a6
100
AcDbEntity
  8
0
  6
CONTINUOUS
 62
     7
100
AcDbLine
 10
-139.1999816894531
 20
-13.75
 11
-144.2999877929688
 21
-13.75
  0
LINE
  5
3a7
100
AcDbEntity
  8
0
  6
CONTINUOUS
 62
     7
100
AcDbLine
 10
-139.1999816894531
 20
-20.25
 11
-144.2999877929688
 21
-20.25
  0
LINE
  5
3a8
100
AcDbEntity
  8
0
  6
CONTINUOUS
 62
     7
100
AcDbLine
 10
-137.1999904639977
 20
-19.09529869028457
 11
-139.1999785971086
 21
-20.24999204326412
  0
LINE
  5
3a9
100
AcDbEntity
  8
0
  6
CONTINUOUS
 62
     7
100
AcDbLine
 10
-137.1999856984132
 20
-20.25000079857326
 11
-139.199987046024
 21
-21.40470178094569
  0
LINE
  5
3aa
100
AcDbEntity
  8
0
  6
CENTER
 62
     3
100
AcDbLine
 10
-133.9999847412109
 20
-20.25
 11
-146.7809295654297
 21
-20.25
  0
LINE
  5
3ab
100
AcDbEntity
  8
0
  6
CONTINUOUS
 62
     7
100
AcDbLine
 10
-144.2999898789601
 20
-13.75000459242486
 11
-144.6999876670513
 21
-14.44282090669894
  0
LINE
  5
3ac
100
AcDbEntity
  8
0
  6
CONTINUOUS
 62
     7
100
AcDbLine
 10
-144.6999816894531
 20
-26.05717849731445
 11
-144.6999816894531
 21
-14.44281768798828
  0
LINE
  5
3ad
100
AcDbEntity
  8
0
  6
CONTINUOUS
 62
     7
100
AcDbLine
 10
-144.2999905437624
 20
-26.75000364948724
 11
-144.699991944323
 21
-26.05718061120737
  0
LINE
  5
3ae
100
AcDbEntity
  8
0
  6
CONTINUOUS
 62
     7
100
AcDbLine
 10
-139.1999816894531
 20
-26.75
 11
-144.2999877929688
 21
-26.75
  0
LINE
  5
3af
100
AcDbEntity
  8
0
  6
CONTINUOUS
 62
     7
100
AcDbLine
 10
-137.1999816894531
 20
-27.75
 11
-141.9999847412109
 21
-27.75
  0
LINE
  5
3b0
100
AcDbEntity
  8
0
  6
CONTINUOUS
 62
     7
100
AcDbLine
 10
-135.9999847412109
 20
-30.95000076293945
 11
-141.2999877929688
 21
-30.95000076293945
  0
LINE
  5
3b1
100
AcDbEntity
  8
0
  6
CONTINUOUS
 62
     7
100
AcDbLine
 10
-145.9999847412109
 20
-50
 11
-145.9999847412109
 21
-31.75
  0
LINE
  5
3b2
100
AcDbEntity
  8
0
  6
CONTINUOUS
 62
     7
100
AcDbLine
 10
-142.7999877929688
 20
-50
 11
-142.7999877929688
 21
-32.45000076293945
  0
LINE
  5
3b3
100
AcDbEntity
  8
0
  6
DASHED
 62
     7
100
AcDbLine
 10
-142.7999877929688
 20
-35.5
 11
-145.9999847412109
 21
-35.5
  0
LINE
  5
3b4
100
AcDbEntity
  8
0
  6
CENTER
 62
     3
100
AcDbLine
 10
-138.5337371826172
 20
-40
 11
-149.8793029785156
 21
-40
  0
LINE
  5
3b5
100
AcDbEntity
  8
0
  6
DASHED
 62
     7
100
AcDbLine
 10
-142.7999877929688
 20
-44.5
 11
-145.9999847412109
 21
-44.5
  0
LINE
  5
3b6
100
AcDbEntity
  8
0
  6
CONTINUOUS
 62
     7
100
AcDbLine
 10
-139.5999908447266
 20
-50
 11
-146
 21
-50
  0
LINE
  5
3b7
100
AcDbEntity
  8
0
  6
CONTINUOUS
 62
     7
100
AcDbLine
 10
-139.5999876925791
 20
-50.00000083491889
 11
-134.0688418940777
 21
-29.47028927020357
  0
LINE
  5
3b8
100
AcDbEntity
  8
0
  6
CONTINUOUS
 62
     7
100
AcDbLine
 10
-139.5999740961604
 20
49.99999539724615
 11
-134.0688442342805
 21
29.47028744031252
  0
LINE
  5
3b9
100
AcDbEntity
  8
0
  6
CONTINUOUS
 62
     7
100
AcDbLine
 10
-133.4999847412109
 20
18
 11
-133.4999847412109
 21
-18
  0
LINE
  5
3ba
100
AcDbEntity
  8
0
  6
CONTINUOUS
 62
     7
100
AcDbLine
 10
-0.5
 20
18
 11
-0.5
 21
-18
  0
LINE
  5
3bb
100
AcDbEntity
  8
0
  6
CONTINUOUS
 62
     7
100
AcDbLine
 10
-131.4999847412109
 20
-20
 11
-107.9999847412109
 21
-20
  0
LINE
  5
3bc
100
AcDbEntity
  8
0
  6
CONTINUOUS
 62
     7
100
AcDbLine
 10
-131.4999847412109
 20
20
 11
-107.9999847412109
 21
20
  0
LINE
  5
3bd
100
AcDbEntity
  8
0
  6
CONTINUOUS
 62
     7
100
AcDbLine
 10
-26
 20
-20
 11
-2.5
 21
-20
  0
LINE
  5
3be
100
AcDbEntity
  8
0
  6
CONTINUOUS
 62
     7
100
AcDbLine
 10
-26
 20
20
 11
-2.5
 21
20
  0
LINE
  5
3bf
100
AcDbEntity
  8
0
  6
CENTER
 62
     3
100
AcDbLine
 10
-114.7499847412109
 20
11
 11
-111.2499847412109
 21
11
  0
LINE
  5
3c0
100
AcDbEntity
  8
0
  6
CENTER
 62
     3
100
AcDbLine
 10
-130.7499847412109
 20
-11
 11
-127.2499847412109
 21
-11
  0
LINE
  5
3c1
100
AcDbEntity
  8
0
  6
CENTER
 62
     3
100
AcDbLine
 10
-112.9999847412109
 20
12.75
 11
-112.9999847412109
 21
9.25
  0
LINE
  5
3c2
100
AcDbEntity
  8
0
  6
CENTER
 62
     3
100
AcDbLine
 10
-128.9999847412109
 20
-9.25
 11
-128.9999847412109
 21
-12.75
  0
LINE
  5
3c3
100
AcDbEntity
  8
0
  6
CENTER
 62
     3
100
AcDbLine
 10
-21
 20
-9.25
 11
-21
 21
-12.75
  0
LINE
  5
3c4
100
AcDbEntity
  8
0
  6
CENTER
 62
     3
100
AcDbLine
 10
-5
 20
12.75
 11
-5
 21
9.25
  0
LINE
  5
3c5
100
AcDbEntity
  8
0
  6
CENTER
 62
     3
100
AcDbLine
 10
-6.75
 20
11
 11
-3.25
 21
11
  0
LINE
  5
3c6
100
AcDbEntity
  8
0
  6
CENTER
 62
     3
100
AcDbLine
 10
-22.75
 20
-11
 11
-19.25
 21
-11
  0
ARC
  5
3c7
100
AcDbEntity
  8
0
  6
CONTINUOUS
 62
     7
100
AcDbCircle
 10
-25.5
 20
28.49996948242188
 40
0.4999998807907105
100
AcDbArc
 50
89.99998201391075
 51
180.0000186693356
  0
CIRCLE
  5
3c8
100
AcDbEntity
  8
0
  6
CONTINUOUS
 62
     7
100
AcDbCircle
 10
-13
 20
0
 40
6
  0
CIRCLE
  5
3c9
100
AcDbEntity
  8
0
  6
CONTINUOUS
 62
     7
100
AcDbCircle
 10
-13
 20
0
 40
6.800000190734863
  0
CIRCLE
  5
3ca
100
AcDbEntity
  8
0
  6
CONTINUOUS
 62
     7
100
AcDbCircle
 10
-12.99999237060547
 20
0
 40
9.099998474121094
  0
ARC
  5
3cb
100
AcDbEntity
  8
0
  6
CONTINUOUS
 62
     7
100
AcDbCircle
 10
-25.5
 20
-28.5
 40
0.4999998807907105
100
AcDbArc
 50
180.0000223118009
 51
269.9999974955225
  0
ARC
  5
3cc
100
AcDbEntity
  8
0
  6
CONTINUOUS
 62
     7
100
AcDbCircle
 10
-0.300018310546875
 20
-28.70001220703125
 40
0.2999999225139618
100
AcDbArc
 50
270.00001798609
 51
360
  0
ARC
  5
3cd
100
AcDbEntity
  8
0
  6
CONTINUOUS
 62
     7
100
AcDbCircle
 10
-0.300018310546875
 20
28.69998168945313
 40
0.2999999225139618
100
AcDbArc
 50
0
 51
89.99998201391065
  0
ARC
  5
3ce
100
AcDbEntity
  8
0
  6
CONTINUOUS
 62
     7
100
AcDbCircle
 10
23.82541656494141
 20
-5.499984741210938
 40
15.885910987854
100
AcDbArc
 50
339.7437899407639
 51
20.25621005923677
  0
ARC
  5
3cf
100
AcDbEntity
  8
0
  6
CONTINUOUS
 62
     7
100
AcDbCircle
 10
48.17458343505859
 20
-5.499984741210938
 40
15.885910987854
100
AcDbArc
 50
159.7438086100979
 51
200.2561740870588
  0
ARC
  5
3d0
100
AcDbEntity
  8
0
  6
CONTINUOUS
 62
     7
100
AcDbCircle
 10
48.17458343505859
 20
5.500015258789063
 40
15.885910987854
100
AcDbArc
 50
159.7438086100979
 51
200.2561740870588
  0
ARC
  5
3d1
100
AcDbEntity
  8
0
  6
CONTINUOUS
 62
     7
100
AcDbCircle
 10
23.82541656494141
 20
5.500015258789063
 40
15.885910987854
100
AcDbArc
 50
339.7437899407639
 51
20.25621005923677
  0
ARC
  5
3d2
100
AcDbEntity
  8
0
  6
CONTINUOUS
 62
     7
100
AcDbCircle
 10
-108.4999847412109
 20
28.49996948242188
 40
0.4999998807907105
100
AcDbArc
 50
0
 51
89.99998201390993
  0
CIRCLE
  5
3d3
100
AcDbEntity
  8
0
  6
CONTINUOUS
 62
     7
100
AcDbCircle
 10
-120.9999771118164
 20
0
 40
9.099998474121094
  0
CIRCLE
  5
3d4
100
AcDbEntity
  8
0
  6
CONTINUOUS
 62
     7
100
AcDbCircle
 10
-120.9999847412109
 20
0
 40
6.800000190734863
  0
CIRCLE
  5
3d5
100
AcDbEntity
  8
0
  6
CONTINUOUS
 62
     7
100
AcDbCircle
 10
-120.9999847412109
 20
0
 40
6
  0
ARC
  5
3d6
100
AcDbEntity
  8
0
  6
CONTINUOUS
 62
     7
100
AcDbCircle
 10
-133.6999664306641
 20
28.69998168945313
 40
0.2999999225139618
100
AcDbArc
 50
89.99998201391283
 51
180.0000186693357
  0
ARC
  5
3d7
100
AcDbEntity
  8
0
  6
CONTINUOUS
 62
     7
100
AcDbCircle
 10
-133.6999664306641
 20
-28.70001220703125
 40
0.2999999225139618
100
AcDbArc
 50
180.0000223118008
 51
269.9999974955238
  0
ARC
  5
3d8
100
AcDbEntity
  8
0
  6
CONTINUOUS
 62
     7
100
AcDbCircle
 10
-108.4999847412109
 20
-28.5
 40
0.4999998807907105
100
AcDbArc
 50
270.0000179860908
 51
360
  0
ARC
  5
3d9
100
AcDbEntity
  8
0
  6
CONTINUOUS
 62
     7
100
AcDbCircle
 10
-131.2968444824219
 20
17
 40
13.40313720703125
100
AcDbArc
 50
165.9669578874366
 51
194.0329291870717
  0
ARC
  5
3da
100
AcDbEntity
  8
0
  6
CONTINUOUS
 62
     7
100
AcDbCircle
 10
-141.2999877929688
 20
32.45000076293945
 40
1.5
100
AcDbArc
 50
180.0000050089571
 51
270.0000006832459
  0
ARC
  5
3db
100
AcDbEntity
  8
0
  6
CONTINUOUS
 62
     7
100
AcDbCircle
 10
-131.2968444824219
 20
23.5
 40
13.40313720703125
100
AcDbArc
 50
165.9669578874366
 51
194.03294284745
  0
ARC
  5
3dc
100
AcDbEntity
  8
0
  6
CONTINUOUS
 62
     7
100
AcDbCircle
 10
-131.2968444824219
 20
-17
 40
13.40313720703125
100
AcDbArc
 50
165.9670261893283
 51
194.0329974889634
  0
ARC
  5
3dd
100
AcDbEntity
  8
0
  6
CONTINUOUS
 62
     7
100
AcDbCircle
 10
-131.2968444824219
 20
-23.5
 40
13.40313720703125
100
AcDbArc
 50
165.96701252895
 51
194.0329974889634
  0
ARC
  5
3de
100
AcDbEntity
  8
0
  6
CONTINUOUS
 62
     7
100
AcDbCircle
 10
-141.2999877929688
 20
-32.45000076293945
 40
1.5
100
AcDbArc
 50
90.00002299504598
 51
180.0000050089571
  0
ARC
  5
3df
100
AcDbEntity
  8
0
  6
CONTINUOUS
 62
     7
100
AcDbCircle
 10
-141.9999847412109
 20
31.75
 40
4
100
AcDbArc
 50
179.9999813306653
 51
270.0000179860901
  0
ARC
  5
3e0
100
AcDbEntity
  8
0
  6
CONTINUOUS
 62
     7
100
AcDbCircle
 10
-141.9999847412109
 20
-31.75
 40
4
100
AcDbArc
 50
89.99998201391055
 51
179.9999640278213
  0
ARC
  5
3e1
100
AcDbEntity
  8
0
  6
CONTINUOUS
 62
     7
100
AcDbCircle
 10
-135.9999847412109
 20
-28.95000076293945
 40
2
100
AcDbArc
 50
270.0000179860897
 51
360
  0
ARC
  5
3e2
100
AcDbEntity
  8
0
  6
CONTINUOUS
 62
     7
100
AcDbCircle
 10
-135.9999847412109
 20
28.95000076293945
 40
2
100
AcDbArc
 50
0
 51
89.99998201391097
  0
ARC
  5
3e3
100
AcDbEntity
  8
0
  6
CONTINUOUS
 62
     7
100
AcDbCircle
 10
-131.4999847412109
 20
18
 40
2
100
AcDbArc
 50
89.99998201391097
 51
179.9999640278213
  0
ARC
  5
3e4
100
AcDbEntity
  8
0
  6
CONTINUOUS
 62
     7
100
AcDbCircle
 10
-131.4999847412109
 20
-18
 40
2
100
AcDbArc
 50
179.9999813306653
 51
270.0000179860897
  0
ARC
  5
3e5
100
AcDbEntity
  8
0
  6
CONTINUOUS
 62
     7
100
AcDbCircle
 10
-2.5
 20
-18
 40
2
100
AcDbArc
 50
270.00001798609
 51
360
  0
ARC
  5
3e6
100
AcDbEntity
  8
0
  6
CONTINUOUS
 62
     7
100
AcDbCircle
 10
-2.5
 20
18
 40
2
100
AcDbArc
 50
0
 51
89.99998201391065
  0
CIRCLE
  5
3e7
100
AcDbEntity
  8
0
  6
CONTINUOUS
 62
     7
100
AcDbCircle
 10
-112.9999847412109
 20
11
 40
1.75
  0
CIRCLE
  5
3e8
100
AcDbEntity
  8
0
  6
CONTINUOUS
 62
     7
100
AcDbCircle
 10
-128.9999847412109
 20
-11
 40
1.75
  0
CIRCLE
  5
3e9
100
AcDbEntity
  8
0
  6
CONTINUOUS
 62
     7
100
AcDbCircle
 10
-21
 20
-11
 40
1.75
  0
CIRCLE
  5
3ea
100
AcDbEntity
  8
0
  6
CONTINUOUS
 62
     7
100
AcDbCircle
 10
-5
 20
11
 40
1.75
  0
MTEXT
  5
3eb
100
AcDbEntity
  8
0
  6
CONTINUOUS
 62
     7
100
AcDbMText
 10
-39.55356250703335
 20
-9.34999942779541
 40
0.5
 41
34
 71
     7
 72
     1
  1
{\W0.842735;ＢＮ－６１０５－ＦＢ－４０－Ｂ－＊}
  0
ENDBLK
  8
0
  5
3ec
100
AcDbEntity
100
AcDbBlockEnd
  0
BLOCK
  8
0
  5
3ed
100
AcDbEntity
100
AcDbBlockBegin
  2
KOZU0003
 70
    64
 10
0
 20
0
  0
POINT
  5
3ee
100
AcDbEntity
  8
0
  6
CONTINUOUS
 62
     7
100
AcDbPoint
 10
0
 20
0
  0
LINE
  5
3ef
100
AcDbEntity
  8
0
  6
DASHED
 62
     7
100
AcDbLine
 10
29
 20
25
 11
29
 21
-25
  0
LINE
  5
3f0
100
AcDbEntity
  8
0
  6
DASHED
 62
     7
100
AcDbLine
 10
-28.99989318847656
 20
25
 11
-28.99989318847656
 21
-25
  0
LINE
  5
3f1
100
AcDbEntity
  8
0
  6
DASHED
 62
     7
100
AcDbLine
 10
-9.099990844726563
 20
29.25
 11
-9.099990844726563
 21
28.25000762939453
  0
LINE
  5
3f2
100
AcDbEntity
  8
0
  6
DASHED
 62
     7
100
AcDbLine
 10
9.099990844726563
 20
28.25000762939453
 11
-9.099990844726563
 21
28.25000762939453
  0
LINE
  5
3f3
100
AcDbEntity
  8
0
  6
DASHED
 62
     7
100
AcDbLine
 10
-6.699821170124511
 20
28.2500144688771
 11
-6.376182176653425
 21
18.25001262782444
  0
LINE
  5
3f4
100
AcDbEntity
  8
0
  6
DASHED
 62
     7
100
AcDbLine
 10
-5.699953279604832
 20
27.25002399988167
 11
-6.699954358308622
 21
28.25002507858546
  0
LINE
  5
3f5
100
AcDbEntity
  8
0
  6
DASHED
 62
     7
100
AcDbLine
 10
5.699981689453125
 20
27.25000762939453
 11
-5.699981689453125
 21
27.25000762939453
  0
LINE
  5
3f6
100
AcDbEntity
  8
0
  6
DASHED
 62
     7
100
AcDbLine
 10
-5.393125772789846
 20
18.25000266450167
 11
-5.699944417762361
 21
27.25001571360789
  0
LINE
  5
3f7
100
AcDbEntity
  8
0
  6
DASHED
 62
     7
100
AcDbLine
 10
5.700139253928068
 20
27.24999489514158
 11
5.393319847408472
 21
18.25000477347728
  0
LINE
  5
3f8
100
AcDbEntity
  8
0
  6
DASHED
 62
     7
100
AcDbLine
 10
6.376259678877609
 20
18.24999596256107
 11
6.699896630771137
 21
28.2499940529924
  0
LINE
  5
3f9
100
AcDbEntity
  8
0
  6
DASHED
 62
     7
100
AcDbLine
 10
5.699970138344236
 20
27.24999635154905
 11
6.699976611844635
 21
28.25000282504945
  0
LINE
  5
3fa
100
AcDbEntity
  8
0
  6
DASHED
 62
     7
100
AcDbLine
 10
9.099990844726563
 20
29.25
 11
9.099990844726563
 21
28.25000762939453
  0
LINE
  5
3fb
100
AcDbEntity
  8
0
  6
DASHED
 62
     7
100
AcDbLine
 10
-27.99991434201956
 20
13.00000104191631
 11
-28.49990407070525
 21
13.49999081274797
  0
LINE
  5
3fc
100
AcDbEntity
  8
0
  6
DASHED
 62
     7
100
AcDbLine
 10
-28.49989318847656
 20
16
 11
-28.49989318847656
 21
0
  0
LINE
  5
3fd
100
AcDbEntity
  8
0
  6
DASHED
 62
     7
100
AcDbLine
 10
-27.99993592120623
 20
3.000004753400649
 11
-28.49993643948468
 21
2.500004192975307
  0
LINE
  5
3fe
100
AcDbEntity
  8
0
  6
DASHED
 62
     7
100
AcDbLine
 10
-27.99990844726563
 20
3
 11
-27.99990844726563
 21
13
  0
LINE
  5
3ff
100
AcDbEntity
  8
0
  6
DASHED
 62
     7
100
AcDbLine
 10
-18.49989318847656
 20
3
 11
-27.99989318847656
 21
3
  0
LINE
  5
400
100
AcDbEntity
  8
0
  6
DASHED
 62
     7
100
AcDbLine
 10
-18.49989318847656
 20
4.405998229980469
 11
-18.49989318847656
 21
3
  0
LINE
  5
401
100
AcDbEntity
  8
0
  6
DASHED
 62
     7
100
AcDbLine
 10
-12.49989318847656
 20
4
 11
-18.49989318847656
 21
4
  0
LINE
  5
402
100
AcDbEntity
  8
0
  6
DASHED
 62
     7
100
AcDbLine
 10
-11.49989318847656
 20
4.405998229980469
 11
-18.49989318847656
 21
4.405998229980469
  0
LINE
  5
403
100
AcDbEntity
  8
0
  6
CENTER
 62
     3
100
AcDbLine
 10
-8.288055419921875
 20
8
 11
-30.99989318847656
 21
8
  0
LINE
  5
404
100
AcDbEntity
  8
0
  6
DASHED
 62
     7
100
AcDbLine
 10
-18.49989318847656
 20
13
 11
-27.99989318847656
 21
13
  0
LINE
  5
405
100
AcDbEntity
  8
0
  6
DASHED
 62
     7
100
AcDbLine
 10
-18.49989318847656
 20
13
 11
-18.49989318847656
 21
11.59400177001953
  0
LINE
  5
406
100
AcDbEntity
  8
0
  6
DASHED
 62
     7
100
AcDbLine
 10
-12.49989318847656
 20
12
 11
-18.49989318847656
 21
12
  0
LINE
  5
407
100
AcDbEntity
  8
0
  6
DASHED
 62
     7
100
AcDbLine
 10
-11.49989318847656
 20
11.59400177001953
 11
-18.49989318847656
 21
11.59400177001953
  0
LINE
  5
408
100
AcDbEntity
  8
0
  6
DASHED
 62
     7
100
AcDbLine
 10
-11.7966685908224
 20
11.59399879891256
 11
-12.49987814977627
 21
11.99999703435824
  0
LINE
  5
409
100
AcDbEntity
  8
0
  6
DASHED
 62
     7
100
AcDbLine
 10
-11.49989318847656
 20
11.59400177001953
 11
-11.49989318847656
 21
9.25
  0
LINE
  5
40a
100
AcDbEntity
  8
0
  6
DASHED
 62
     7
100
AcDbLine
 10
-8.242202758789063
 20
9.25
 11
-11.49989318847656
 21
9.25
  0
LINE
  5
40b
100
AcDbEntity
  8
0
  6
DASHED
 62
     7
100
AcDbLine
 10
-8.366592407226563
 20
6.75
 11
-11.49989318847656
 21
6.75
  0
LINE
  5
40c
100
AcDbEntity
  8
0
  6
DASHED
 62
     7
100
AcDbLine
 10
-11.49989318847656
 20
6.75
 11
-11.49989318847656
 21
4.405998229980469
  0
LINE
  5
40d
100
AcDbEntity
  8
0
  6
DASHED
 62
     7
100
AcDbLine
 10
-11.79668633527437
 20
4.40600120242275
 11
-12.49989589422823
 21
4.000002966977069
  0
LINE
  5
40e
100
AcDbEntity
  8
0
  6
DASHED
 62
     7
100
AcDbLine
 10
-28.49989318847656
 20
16
 11
-28.99989318847656
 21
16
  0
LINE
  5
40f
100
AcDbEntity
  8
0
  6
DASHED
 62
     7
100
AcDbLine
 10
-28.49989318847656
 20
0
 11
-28.99989318847656
 21
0
  0
LINE
  5
410
100
AcDbEntity
  8
0
  6
CENTER
 62
     3
100
AcDbLine
 10
-53.02499771118164
 20
0
 11
53.02499771118164
 21
0
  0
LINE
  5
411
100
AcDbEntity
  8
0
  6
CENTER
 62
     3
100
AcDbLine
 10
0
 20
32.10914611816406
 11
0
 21
-32.00590133666992
  0
LINE
  5
412
100
AcDbEntity
  8
0
  6
CONTINUOUS
 62
     7
100
AcDbLine
 10
-26.74519224462021
 20
16.50001036334744
 11
-20.25000393456294
 21
12.7500065210967
  0
LINE
  5
413
100
AcDbEntity
  8
0
  6
CONTINUOUS
 62
     7
100
AcDbLine
 10
-26.74516296386719
 20
23.99999618530273
 11
-26.74516296386719
 21
16.5
  0
LINE
  5
414
100
AcDbEntity
  8
0
  6
CENTER
 62
     3
100
AcDbLine
 10
-27.75
 20
20.25
 11
-12.75
 21
20.25
  0
LINE
  5
415
100
AcDbEntity
  8
0
  6
CONTINUOUS
 62
     7
100
AcDbLine
 10
-20.24999961244288
 20
27.74999849379283
 11
-26.74518929868049
 21
23.99999846566522
  0
LINE
  5
416
100
AcDbEntity
  8
0
  6
CONTINUOUS
 62
     7
100
AcDbLine
 10
-13.75480832366265
 20
23.99999949825762
 11
-20.24999862932987
 21
27.74999988401314
  0
LINE
  5
417
100
AcDbEntity
  8
0
  6
CENTER
 62
     3
100
AcDbLine
 10
-20.25
 20
27.75
 11
-20.25
 21
12.75
  0
LINE
  5
418
100
AcDbEntity
  8
0
  6
CONTINUOUS
 62
     7
100
AcDbLine
 10
-13.75479125976563
 20
16.49999237060547
 11
-13.75479125976563
 21
23.99999618530273
  0
LINE
  5
419
100
AcDbEntity
  8
0
  6
CONTINUOUS
 62
     7
100
AcDbLine
 10
-20.25000749095332
 20
12.75000266370089
 11
-13.75481445848951
 21
16.49999975701579
  0
LINE
  5
41a
100
AcDbEntity
  8
0
  6
CENTER
 62
     3
100
AcDbLine
 10
-20.25
 20
-12.75
 11
-20.25
 21
-27.75
  0
LINE
  5
41b
100
AcDbEntity
  8
0
  6
CONTINUOUS
 62
     7
100
AcDbLine
 10
-13.75481299412448
 20
-16.4999982261769
 11
-20.25000061559669
 21
-12.74999939014231
  0
LINE
  5
41c
100
AcDbEntity
  8
0
  6
CONTINUOUS
 62
     7
100
AcDbLine
 10
-20.2499989438976
 20
-12.74999706749095
 11
-26.74518924956482
 21
-16.49999745324647
  0
LINE
  5
41d
100
AcDbEntity
  8
0
  6
CONTINUOUS
 62
     7
100
AcDbLine
 10
-26.74516296386719
 20
-16.5
 11
-26.74516296386719
 21
-23.99999237060547
  0
LINE
  5
41e
100
AcDbEntity
  8
0
  6
CENTER
 62
     3
100
AcDbLine
 10
-27.75
 20
-20.25
 11
-12.75
 21
-20.25
  0
LINE
  5
41f
100
AcDbEntity
  8
0
  6
CONTINUOUS
 62
     7
100
AcDbLine
 10
-26.74520855924049
 20
-24.00000691564646
 11
-20.25002148804208
 21
-27.75001004264074
  0
LINE
  5
420
100
AcDbEntity
  8
0
  6
CONTINUOUS
 62
     7
100
AcDbLine
 10
-20.25000421027502
 20
-27.75000584825956
 11
-13.75481179724104
 21
-24.00000911257222
  0
LINE
  5
421
100
AcDbEntity
  8
0
  6
CONTINUOUS
 62
     7
100
AcDbLine
 10
-13.75479125976563
 20
-24.00000762939453
 11
-13.75479125976563
 21
-16.5
  0
LINE
  5
422
100
AcDbEntity
  8
0
  6
CONTINUOUS
 62
     7
100
AcDbLine
 10
-48
 20
29
 11
48
 21
29
  0
LINE
  5
423
100
AcDbEntity
  8
0
  6
CONTINUOUS
 62
     7
100
AcDbLine
 10
50
 20
27
 11
50
 21
-27
  0
LINE
  5
424
100
AcDbEntity
  8
0
  6
CENTER
 62
     3
100
AcDbLine
 10
33.5
 20
21
 11
46.5
 21
21
  0
LINE
  5
425
100
AcDbEntity
  8
0
  6
CENTER
 62
     3
100
AcDbLine
 10
40
 20
27.5
 11
40
 21
14.5
  0
LINE
  5
426
100
AcDbEntity
  8
0
  6
CENTER
 62
     3
100
AcDbLine
 10
40
 20
-14.5
 11
40
 21
-27.5
  0
LINE
  5
427
100
AcDbEntity
  8
0
  6
CONTINUOUS
 62
     7
100
AcDbLine
 10
33.75
 20
-11
 11
50
 21
-11
  0
LINE
  5
428
100
AcDbEntity
  8
0
  6
CONTINUOUS
 62
     7
100
AcDbLine
 10
-50
 20
27
 11
-50
 21
-27
  0
LINE
  5
429
100
AcDbEntity
  8
0
  6
CENTER
 62
     3
100
AcDbLine
 10
-40
 20
27.5
 11
-40
 21
14.5
  0
LINE
  5
42a
100
AcDbEntity
  8
0
  6
CENTER
 62
     3
100
AcDbLine
 10
-46.5
 20
21
 11
-33.5
 21
21
  0
LINE
  5
42b
100
AcDbEntity
  8
0
  6
CONTINUOUS
 62
     7
100
AcDbLine
 10
-50
 20
11
 11
-33.75
 21
11
  0
LINE
  5
42c
100
AcDbEntity
  8
0
  6
CONTINUOUS
 62
     7
100
AcDbLine
 10
-27.75
 20
29
 11
-27.75
 21
17
  0
LINE
  5
42d
100
AcDbEntity
  8
0
  6
CONTINUOUS
 62
     7
100
AcDbLine
 10
-50
 20
-11
 11
-33.75
 21
-11
  0
LINE
  5
42e
100
AcDbEntity
  8
0
  6
CONTINUOUS
 62
     7
100
AcDbLine
 10
-27.75
 20
-17
 11
-27.75
 21
-29
  0
LINE
  5
42f
100
AcDbEntity
  8
0
  6
CONTINUOUS
 62
     7
100
AcDbLine
 10
-48
 20
-29
 11
48
 21
-29
  0
LINE
  5
430
100
AcDbEntity
  8
0
  6
CENTER
 62
     3
100
AcDbLine
 10
33.5
 20
-21
 11
46.5
 21
-21
  0
LINE
  5
431
100
AcDbEntity
  8
0
  6
CENTER
 62
     3
100
AcDbLine
 10
-40
 20
-14.5
 11
-40
 21
-27.5
  0
LINE
  5
432
100
AcDbEntity
  8
0
  6
CONTINUOUS
 62
     7
100
AcDbLine
 10
13.75479896426349
 20
16.49999526639955
 11
20.24998046059706
 21
12.74999535805939
  0
LINE
  5
433
100
AcDbEntity
  8
0
  6
CONTINUOUS
 62
     7
100
AcDbLine
 10
13.75483798980713
 20
-16.5
 11
13.75483798980713
 21
-23.99999237060547
  0
LINE
  5
434
100
AcDbEntity
  8
0
  6
CENTER
 62
     3
100
AcDbLine
 10
12.75000095367432
 20
-20.25
 11
27.75
 21
-20.25
  0
LINE
  5
435
100
AcDbEntity
  8
0
  6
CONTINUOUS
 62
     7
100
AcDbLine
 10
20.25000061559669
 20
-12.74999939014231
 11
13.75480969049985
 21
-16.50000013352573
  0
LINE
  5
436
100
AcDbEntity
  8
0
  6
CENTER
 62
     3
100
AcDbLine
 10
20.25
 20
27.75
 11
20.25
 21
12.75
  0
LINE
  5
437
100
AcDbEntity
  8
0
  6
CONTINUOUS
 62
     7
100
AcDbLine
 10
26.74518982849342
 20
-16.50000026520974
 11
20.25000282645082
 21
-12.75000178680305
  0
LINE
  5
438
100
AcDbEntity
  8
0
  6
CONTINUOUS
 62
     7
100
AcDbLine
 10
27.75
 20
-17
 11
27.75
 21
-29
  0
LINE
  5
439
100
AcDbEntity
  8
0
  6
CONTINUOUS
 62
     7
100
AcDbLine
 10
33.75
 20
11
 11
50
 21
11
  0
LINE
  5
43a
100
AcDbEntity
  8
0
  6
CONTINUOUS
 62
     7
100
AcDbLine
 10
20.25000573677514
 20
-27.75001935835964
 11
26.74519856276233
 21
-24.00002238425392
  0
LINE
  5
43b
100
AcDbEntity
  8
0
  6
CONTINUOUS
 62
     7
100
AcDbLine
 10
26.74520874023438
 20
-24.00000762939453
 11
26.74520874023438
 21
-16.5
  0
LINE
  5
43c
100
AcDbEntity
  8
0
  6
CONTINUOUS
 62
     7
100
AcDbLine
 10
27.75
 20
29
 11
27.75
 21
17
  0
LINE
  5
43d
100
AcDbEntity
  8
0
  6
CONTINUOUS
 62
     7
100
AcDbLine
 10
20.25000359286305
 20
12.74998623098656
 11
26.74519600589703
 21
16.49998296667391
  0
LINE
  5
43e
100
AcDbEntity
  8
0
  6
CONTINUOUS
 62
     7
100
AcDbLine
 10
26.74520874023438
 20
16.49999237060547
 11
26.74520874023438
 21
24
  0
LINE
  5
43f
100
AcDbEntity
  8
0
  6
CENTER
 62
     3
100
AcDbLine
 10
12.75000095367432
 20
20.25
 11
27.75
 21
20.25
  0
LINE
  5
440
100
AcDbEntity
  8
0
  6
CONTINUOUS
 62
     7
100
AcDbLine
 10
26.7451909504928
 20
23.9999975119908
 11
20.25000456787982
 21
27.74999563276958
  0
LINE
  5
441
100
AcDbEntity
  8
0
  6
CONTINUOUS
 62
     7
100
AcDbLine
 10
20.25000240979171
 20
27.75000096545581
 11
13.75481210412448
 21
24.00000057970029
  0
LINE
  5
442
100
AcDbEntity
  8
0
  6
CONTINUOUS
 62
     7
100
AcDbLine
 10
13.75483798980713
 20
24
 11
13.75483798980713
 21
16.50000762939453
  0
LINE
  5
443
100
AcDbEntity
  8
0
  6
CENTER
 62
     3
100
AcDbLine
 10
20.25
 20
-12.75
 11
20.25
 21
-27.75
  0
LINE
  5
444
100
AcDbEntity
  8
0
  6
CONTINUOUS
 62
     7
100
AcDbLine
 10
13.75479933222572
 20
-24.00000789949009
 11
20.24998103503577
 21
-27.75000792703966
  0
LINE
  5
445
100
AcDbEntity
  8
0
  6
CENTER
 62
     3
100
AcDbLine
 10
-46.5
 20
-21
 11
-33.5
 21
-21
  0
LINE
  5
446
100
AcDbEntity
  8
0
  6
CONTINUOUS
 62
     7
100
AcDbLine
 10
-20
 20
29.25
 11
20
 21
29.25
  0
LINE
  5
447
100
AcDbEntity
  8
0
  6
CONTINUOUS
 62
     7
100
AcDbLine
 10
-20
 20
29.25
 11
-20
 21
29
  0
LINE
  5
448
100
AcDbEntity
  8
0
  6
CONTINUOUS
 62
     7
100
AcDbLine
 10
20
 20
29.25
 11
20
 21
29
  0
LINE
  5
449
100
AcDbEntity
  8
0
  6
DASHED
 62
     7
100
AcDbLine
 10
-25.60565185546875
 20
2.999992370605469
 11
-25.60565185546875
 21
12.99999237060547
  0
LINE
  5
44a
100
AcDbEntity
  8
0
  6
DASHED
 62
     7
100
AcDbLine
 10
-26.10565185546874
 20
2.99999244610337
 11
-26.10565185546874
 21
12.99999244610337
  0
LINE
  5
44b
100
AcDbEntity
  8
0
  6
DASHED
 62
     1
100
AcDbLine
 10
-10.1056572198868
 20
8.959998277902429
 11
-10.1056572198868
 21
7.040001301050013
  0
LINE
  5
44c
100
AcDbEntity
  8
0
  6
DASHED
 62
     1
100
AcDbLine
 10
-15.10565690478017
 20
10.00000059906699
 11
-10.10565702899479
 21
8.959998286638236
  0
LINE
  5
44d
100
AcDbEntity
  8
0
  6
DASHED
 62
     1
100
AcDbLine
 10
-15.1056575087634
 20
6.000000489843471
 11
-10.10565731890628
 21
7.040001292314191
  0
LINE
  5
44e
100
AcDbEntity
  8
0
  6
DASHED
 62
     1
100
AcDbLine
 10
-19.10565649669428
 20
11.99999999999995
 11
-15.60565649669428
 21
11.99999999999995
  0
LINE
  5
44f
100
AcDbEntity
  8
0
  6
DASHED
 62
     1
100
AcDbLine
 10
-19.1056577046607
 20
4.000000000000045
 11
-15.6056577046607
 21
4.000000000000045
  0
LINE
  5
450
100
AcDbEntity
  8
0
  6
DASHED
 62
     1
100
AcDbLine
 10
-15.10565659189917
 20
11.50000037999886
 11
-15.60565673965177
 21
12.00000063660046
  0
LINE
  5
451
100
AcDbEntity
  8
0
  6
DASHED
 62
     1
100
AcDbLine
 10
-15.60565788966629
 20
4.000000536438686
 11
-15.10565763306469
 21
4.50000068419129
  0
LINE
  5
452
100
AcDbEntity
  8
0
  6
DASHED
 62
     1
100
AcDbLine
 10
-23.6056568376352
 20
12.90000009536738
 11
-22.90565607469575
 21
12.90000009536738
  0
LINE
  5
453
100
AcDbEntity
  8
0
  6
DASHED
 62
     1
100
AcDbLine
 10
-23.6056583173941
 20
3.099999904632623
 11
-22.90565755445464
 21
3.099999904632623
  0
LINE
  5
454
100
AcDbEntity
  8
0
  6
DASHED
 62
     1
100
AcDbLine
 10
-22.90565624079115
 20
11.79999995231624
 11
-21.30565681299574
 21
11.79999995231624
  0
LINE
  5
455
100
AcDbEntity
  8
0
  6
DASHED
 62
     1
100
AcDbLine
 10
-22.90565738835924
 20
4.200000047683759
 11
-21.30565796056383
 21
4.200000047683759
  0
LINE
  5
456
100
AcDbEntity
  8
0
  6
DASHED
 62
     1
100
AcDbLine
 10
-23.60565757751451
 20
12.90000192328704
 11
-23.60565757751451
 21
3.100001732552178
  0
LINE
  5
457
100
AcDbEntity
  8
0
  6
DASHED
 62
     1
100
AcDbLine
 10
-21.30565812665923
 20
3.099999904632623
 11
-20.6056583173941
 21
3.099999904632623
  0
LINE
  5
458
100
AcDbEntity
  8
0
  6
DASHED
 62
     1
100
AcDbLine
 10
-21.30565664690034
 20
12.90000009536738
 11
-20.6056568376352
 21
12.90000009536738
  0
LINE
  5
459
100
AcDbEntity
  8
0
  6
DASHED
 62
     1
100
AcDbLine
 10
-19.10565710067741
 20
12.00000114843843
 11
-19.10565710067741
 21
4.000001148438425
  0
LINE
  5
45a
100
AcDbEntity
  8
0
  6
DASHED
 62
     1
100
AcDbLine
 10
-20.60565757751455
 20
12.90000147029963
 11
-20.60565757751455
 21
3.10000127956477
  0
LINE
  5
45b
100
AcDbEntity
  8
0
  6
DASHED
 62
     1
100
AcDbLine
 10
-21.30565738677967
 20
13.00000148062924
 11
-21.30565738677967
 21
3.000001480629235
  0
LINE
  5
45c
100
AcDbEntity
  8
0
  6
DASHED
 62
     1
100
AcDbLine
 10
-22.90565681457507
 20
13.00000172222243
 11
-22.90565681457507
 21
3.000001722222432
  0
LINE
  5
45d
100
AcDbEntity
  8
0
  6
DASHED
 62
     1
100
AcDbLine
 10
-15.10565733909603
 20
11.50000054445525
 11
-15.10565733909603
 21
4.500000544455252
  0
LINE
  5
45e
100
AcDbEntity
  8
0
  6
DASHED
 62
     1
100
AcDbLine
 10
-15.60565710067744
 20
4.000000619953116
 11
-15.60565710067744
 21
12.00000061995312
  0
LINE
  5
45f
100
AcDbEntity
  8
0
  6
DASHED
 62
     1
100
AcDbLine
 10
-22.90565756955421
 20
3.000000000000057
 11
-21.3056581417588
 21
3.000000000000057
  0
LINE
  5
460
100
AcDbEntity
  8
0
  6
DASHED
 62
     1
100
AcDbLine
 10
-22.90565605959618
 20
12.99999999999994
 11
-21.30565663180077
 21
12.99999999999994
  0
LINE
  5
461
100
AcDbEntity
  8
0
  6
DASHED
 62
     1
100
AcDbLine
 10
-20.60565812019358
 20
4.405999898910563
 11
-15.19965798286448
 21
4.405999898910563
  0
LINE
  5
462
100
AcDbEntity
  8
0
  6
DASHED
 62
     1
100
AcDbLine
 10
-20.60565703483572
 20
11.59400010108944
 11
-15.19965689750662
 21
11.59400010108944
  0
CIRCLE
  5
463
100
AcDbEntity
  8
0
  6
CONTINUOUS
 62
     7
100
AcDbCircle
 10
0
 20
0
 40
16
  0
ARC
  5
464
100
AcDbEntity
  8
0
  6
DASHED
 62
     7
100
AcDbCircle
 10
-24.99989318847656
 20
25
 40
4
100
AcDbArc
 50
89.99998201391065
 51
180.0000323297137
  0
ARC
  5
465
100
AcDbEntity
  8
0
  6
DASHED
 62
     7
100
AcDbCircle
 10
25
 20
25
 40
4
100
AcDbArc
 50
0
 51
89.99998201391065
  0
ARC
  5
466
100
AcDbEntity
  8
0
  6
DASHED
 62
     7
100
AcDbCircle
 10
25
 20
-25
 40
4
100
AcDbArc
 50
270.0000453068467
 51
360
  0
ARC
  5
467
100
AcDbEntity
  8
0
  6
DASHED
 62
     7
100
AcDbCircle
 10
-24.99989318847656
 20
-25
 40
4
100
AcDbArc
 50
180.0000496325577
 51
270.00001798609
  0
CIRCLE
  5
468
100
AcDbEntity
  8
0
  6
CONTINUOUS
 62
     7
100
AcDbCircle
 10
-20.25
 20
20.25
 40
7.5
  0
CIRCLE
  5
469
100
AcDbEntity
  8
0
  6
CONTINUOUS
 62
     7
100
AcDbCircle
 10
-20.25
 20
20.25000381469727
 40
6.495187759399414
  0
CIRCLE
  5
46a
100
AcDbEntity
  8
0
  6
CONTINUOUS
 62
     7
100
AcDbCircle
 10
-20.25
 20
-20.24999237060547
 40
6.495187759399414
  0
CIRCLE
  5
46b
100
AcDbEntity
  8
0
  6
CONTINUOUS
 62
     7
100
AcDbCircle
 10
-20.25
 20
-20.25
 40
7.5
  0
ARC
  5
46c
100
AcDbEntity
  8
0
  6
CONTINUOUS
 62
     7
100
AcDbCircle
 10
48
 20
27
 40
2
100
AcDbArc
 50
0
 51
89.99998201391055
  0
CIRCLE
  5
46d
100
AcDbEntity
  8
0
  6
CONTINUOUS
 62
     7
100
AcDbCircle
 10
40
 20
21
 40
4.5
  0
CIRCLE
  5
46e
100
AcDbEntity
  8
0
  6
CONTINUOUS
 62
     7
100
AcDbCircle
 10
40
 20
-21
 40
4.5
  0
ARC
  5
46f
100
AcDbEntity
  8
0
  6
CONTINUOUS
 62
     7
100
AcDbCircle
 10
33.75
 20
-17
 40
6
100
AcDbArc
 50
89.99998201391063
 51
180.0000186693354
  0
ARC
  5
470
100
AcDbEntity
  8
0
  6
CONTINUOUS
 62
     7
100
AcDbCircle
 10
-48
 20
27
 40
2
100
AcDbArc
 50
89.99998201391055
 51
180.0000186693354
  0
CIRCLE
  5
471
100
AcDbEntity
  8
0
  6
CONTINUOUS
 62
     7
100
AcDbCircle
 10
-40
 20
21
 40
4.5
  0
ARC
  5
472
100
AcDbEntity
  8
0
  6
CONTINUOUS
 62
     7
100
AcDbCircle
 10
-33.75
 20
17
 40
6
100
AcDbArc
 50
270.0000179860901
 51
360
  0
ARC
  5
473
100
AcDbEntity
  8
0
  6
CONTINUOUS
 62
     7
100
AcDbCircle
 10
-33.75
 20
-17
 40
6
100
AcDbArc
 50
0
 51
89.99998201391063
  0
ARC
  5
474
100
AcDbEntity
  8
0
  6
CONTINUOUS
 62
     7
100
AcDbCircle
 10
-48
 20
-27
 40
2
100
AcDbArc
 50
180.0000359721794
 51
270.0000179860901
  0
CIRCLE
  5
475
100
AcDbEntity
  8
0
  6
CONTINUOUS
 62
     7
100
AcDbCircle
 10
-40
 20
-21
 40
4.5
  0
ARC
  5
476
100
AcDbEntity
  8
0
  6
CONTINUOUS
 62
     7
100
AcDbCircle
 10
48
 20
-27
 40
2
100
AcDbArc
 50
270.0000179860901
 51
360
  0
CIRCLE
  5
477
100
AcDbEntity
  8
0
  6
CONTINUOUS
 62
     7
100
AcDbCircle
 10
20.25
 20
-20.25
 40
7.5
  0
CIRCLE
  5
478
100
AcDbEntity
  8
0
  6
CONTINUOUS
 62
     7
100
AcDbCircle
 10
20.25
 20
-20.24999237060547
 40
6.495187759399414
  0
ARC
  5
479
100
AcDbEntity
  8
0
  6
CONTINUOUS
 62
     7
100
AcDbCircle
 10
33.75
 20
17
 40
6
100
AcDbArc
 50
180.0000359721794
 51
270.0000179860901
  0
CIRCLE
  5
47a
100
AcDbEntity
  8
0
  6
CONTINUOUS
 62
     7
100
AcDbCircle
 10
20.25
 20
20.25
 40
7.5
  0
CIRCLE
  5
47b
100
AcDbEntity
  8
0
  6
CONTINUOUS
 62
     7
100
AcDbCircle
 10
20.25
 20
20.25000762939453
 40
6.495187759399414
  0
CIRCLE
  5
47c
100
AcDbEntity
  8
0
  6
CONTINUOUS
 62
     7
100
AcDbCircle
 10
0
 20
0
 40
16.10000038146973
  0
CIRCLE
  5
47d
100
AcDbEntity
  8
0
  6
CONTINUOUS
 62
     7
100
AcDbCircle
 10
0
 20
0
 40
15
  0
MTEXT
  5
47e
100
AcDbEntity
  8
0
  6
CONTINUOUS
 62
     7
100
AcDbMText
 10
2.79643739759922
 20
-24.75
 40
0.5
 41
34
 71
     7
 72
     1
  1
{\W0.842735;ＢＮ－６１０５－ＦＢ－４０－Ｂ－＊}
  0
INSERT
  5
47f
100
AcDbEntity
  8
0
  6
CONTINUOUS
 62
     3
100
AcDbBlockReference
  2
KOZU0009
 10
0
 20
0
  0
ENDBLK
  8
0
  5
480
100
AcDbEntity
100
AcDbBlockEnd
  0
BLOCK
  8
0
  5
481
100
AcDbEntity
100
AcDbBlockBegin
  2
KOZU0004
 70
    64
 10
0
 20
0
  0
POINT
  5
482
100
AcDbEntity
  8
0
  6
CONTINUOUS
 62
     7
100
AcDbPoint
 10
0
 20
0
  0
LINE
  5
483
100
AcDbEntity
  8
0
  6
CONTINUOUS
 62
     7
100
AcDbLine
 10
-11.00050672658498
 20
6.350856316943868
 11
-0.000481719315935436
 21
12.70001786400692
  0
LINE
  5
484
100
AcDbEntity
  8
0
  6
CONTINUOUS
 62
     7
100
AcDbLine
 10
-0.000486291238900094
 20
12.70003483696577
 11
10.99951228525756
 21
6.350888545617565
  0
LINE
  5
485
100
AcDbEntity
  8
0
  6
CONTINUOUS
 62
     7
100
AcDbLine
 10
10.99951171875
 20
6.350868225097656
 11
10.99951171875
 21
-6.350835800170898
  0
LINE
  5
486
100
AcDbEntity
  8
0
  6
CONTINUOUS
 62
     7
100
AcDbLine
 10
10.99952482385645
 20
-6.350833959623349
 11
-0.0004869680263039911
 21
-12.69998787882898
  0
LINE
  5
487
100
AcDbEntity
  8
0
  6
CONTINUOUS
 62
     7
100
AcDbLine
 10
-0.0004825394339045275
 20
-12.69998876114678
 11
-11.00049433131666
 21
-6.35083484194115
  0
LINE
  5
488
100
AcDbEntity
  8
0
  6
CONTINUOUS
 62
     7
100
AcDbLine
 10
-11.00048828125
 20
6.350868225097656
 11
-11.00048828125
 21
-6.350835800170898
  0
LINE
  5
489
100
AcDbEntity
  8
0
  6
CENTER
 62
     3
100
AcDbLine
 10
8.288055419921875
 20
8
 11
30.99989318847656
 21
8
  0
LINE
  5
48a
100
AcDbEntity
  8
0
  6
DASHED
 62
     7
100
AcDbLine
 10
8.242202758789063
 20
9.25
 11
11.49989318847656
 21
9.25
  0
LINE
  5
48b
100
AcDbEntity
  8
0
  6
DASHED
 62
     7
100
AcDbLine
 10
8.366592407226563
 20
6.75
 11
11.49989318847656
 21
6.75
  0
LINE
  5
48c
100
AcDbEntity
  8
0
  6
DASHED
 62
     7
100
AcDbLine
 10
11.49989318847656
 20
6.750007629394531
 11
11.49989318847656
 21
4.406005859375
  0
LINE
  5
48d
100
AcDbEntity
  8
0
  6
CONTINUOUS
 62
     7
100
AcDbLine
 10
28.99989318847656
 20
25.00000762939453
 11
28.99989318847656
 21
-24.99999237060547
  0
LINE
  5
48e
100
AcDbEntity
  8
0
  6
CONTINUOUS
 62
     7
100
AcDbLine
 10
-29
 20
25.00000762939453
 11
-29
 21
-24.99999237060547
  0
LINE
  5
48f
100
AcDbEntity
  8
0
  6
DASHED
 62
     7
100
AcDbLine
 10
9.099990844726563
 20
29.25000762939453
 11
9.099990844726563
 21
28.25001525878906
  0
LINE
  5
490
100
AcDbEntity
  8
0
  6
DASHED
 62
     7
100
AcDbLine
 10
-9.099990844726563
 20
28.25001525878906
 11
9.099990844726563
 21
28.25001525878906
  0
LINE
  5
491
100
AcDbEntity
  8
0
  6
DASHED
 62
     7
100
AcDbLine
 10
5.69996069745017
 20
27.25003816122277
 11
6.699972565747178
 21
28.25005002951978
  0
LINE
  5
492
100
AcDbEntity
  8
0
  6
DASHED
 62
     7
100
AcDbLine
 10
6.699841618683422
 20
28.25002716551301
 11
6.376202872000036
 21
18.25003294986243
  0
LINE
  5
493
100
AcDbEntity
  8
0
  6
DASHED
 62
     7
100
AcDbLine
 10
5.393127982296792
 20
18.25002549065751
 11
5.69994688721131
 21
27.25004616472872
  0
LINE
  5
494
100
AcDbEntity
  8
0
  6
DASHED
 62
     7
100
AcDbLine
 10
-5.699996948242188
 20
27.25001525878906
 11
5.699981689453125
 21
27.25001525878906
  0
LINE
  5
495
100
AcDbEntity
  8
0
  6
DASHED
 62
     7
100
AcDbLine
 10
-5.699963394848474
 20
27.25005704301091
 11
-6.699964473552264
 21
28.25005812171469
  0
LINE
  5
496
100
AcDbEntity
  8
0
  6
DASHED
 62
     7
100
AcDbLine
 10
-9.099990844726563
 20
29.25000762939453
 11
-9.099990844726563
 21
28.25001525878906
  0
LINE
  5
497
100
AcDbEntity
  8
0
  6
DASHED
 62
     7
100
AcDbLine
 10
-6.37625476188129
 20
18.25002093020764
 11
-6.699891590381701
 21
28.2500152079379
  0
LINE
  5
498
100
AcDbEntity
  8
0
  6
DASHED
 62
     7
100
AcDbLine
 10
-5.700122834260565
 20
27.25000308873252
 11
-5.393303427740968
 21
18.25001296706821
  0
LINE
  5
499
100
AcDbEntity
  8
0
  6
CONTINUOUS
 62
     7
100
AcDbLine
 10
-10
 20
26.5
 11
10
 21
26.5
  0
LINE
  5
49a
100
AcDbEntity
  8
0
  6
CONTINUOUS
 62
     7
100
AcDbLine
 10
-11.5
 20
25.00000762939453
 11
-11.5
 21
18.14347076416016
  0
LINE
  5
49b
100
AcDbEntity
  8
0
  6
CONTINUOUS
 62
     7
100
AcDbLine
 10
10.11651611328125
 20
19
 11
-10.11651611328125
 21
19
  0
LINE
  5
49c
100
AcDbEntity
  8
0
  6
CONTINUOUS
 62
     7
100
AcDbLine
 10
-9.988306607206425
 20
13.52381387633091
 11
-11.61747853787915
 21
15.15298580700362
  0
LINE
  5
49d
100
AcDbEntity
  8
0
  6
CONTINUOUS
 62
     7
100
AcDbLine
 10
9.988305427094668
 20
13.52385821481554
 11
11.61748005516569
 21
15.15303284288656
  0
LINE
  5
49e
100
AcDbEntity
  8
0
  6
CONTINUOUS
 62
     7
100
AcDbLine
 10
11.5
 20
25.00000762939453
 11
11.5
 21
18.14347076416016
  0
LINE
  5
49f
100
AcDbEntity
  8
0
  6
DASHED
 62
     7
100
AcDbLine
 10
11.49989318847656
 20
11.59400939941406
 11
11.49989318847656
 21
9.250007629394531
  0
LINE
  5
4a0
100
AcDbEntity
  8
0
  6
DASHED
 62
     7
100
AcDbLine
 10
11.49989318847656
 20
11.59400939941406
 11
18.49989318847656
 21
11.59400939941406
  0
LINE
  5
4a1
100
AcDbEntity
  8
0
  6
DASHED
 62
     7
100
AcDbLine
 10
11.79667417592667
 20
11.59401964280609
 11
12.49988373488053
 21
12.00001787825178
  0
LINE
  5
4a2
100
AcDbEntity
  8
0
  6
DASHED
 62
     7
100
AcDbLine
 10
12.49989318847656
 20
12
 11
18.49989318847656
 21
12
  0
LINE
  5
4a3
100
AcDbEntity
  8
0
  6
DASHED
 62
     7
100
AcDbLine
 10
18.49989318847656
 20
13.00000762939453
 11
18.49989318847656
 21
11.59400939941406
  0
LINE
  5
4a4
100
AcDbEntity
  8
0
  6
DASHED
 62
     7
100
AcDbLine
 10
18.49989318847656
 20
13
 11
27.99989318847656
 21
13
  0
LINE
  5
4a5
100
AcDbEntity
  8
0
  6
DASHED
 62
     7
100
AcDbLine
 10
28.00016784667969
 20
3
 11
28.00016784667969
 21
13
  0
LINE
  5
4a6
100
AcDbEntity
  8
0
  6
DASHED
 62
     7
100
AcDbLine
 10
27.9999190624668
 20
12.99999632146947
 11
28.49991958074525
 21
13.49999688189481
  0
LINE
  5
4a7
100
AcDbEntity
  8
0
  6
DASHED
 62
     7
100
AcDbLine
 10
28.49989318847656
 20
16.00000762939453
 11
28.49989318847656
 21
7.62939453125e-006
  0
LINE
  5
4a8
100
AcDbEntity
  8
0
  6
DASHED
 62
     7
100
AcDbLine
 10
27.99991164462319
 20
3.000045214376243
 11
28.49991216290164
 21
2.500044653950901
  0
LINE
  5
4a9
100
AcDbEntity
  8
0
  6
DASHED
 62
     7
100
AcDbLine
 10
28.49989318847656
 20
16
 11
28.99989318847656
 21
16
  0
LINE
  5
4aa
100
AcDbEntity
  8
0
  6
CONTINUOUS
 62
     7
100
AcDbLine
 10
25
 20
7.5
 11
24.5
 21
7.5
  0
LINE
  5
4ab
100
AcDbEntity
  8
0
  6
CONTINUOUS
 62
     7
100
AcDbLine
 10
22.5
 20
10.00000762939453
 11
22.5
 21
9.500007629394531
  0
LINE
  5
4ac
100
AcDbEntity
  8
0
  6
CONTINUOUS
 62
     7
100
AcDbLine
 10
21
 20
11.5
 11
18.14346313476563
 21
11.5
  0
LINE
  5
4ad
100
AcDbEntity
  8
0
  6
CONTINUOUS
 62
     7
100
AcDbLine
 10
-13.52383174659467
 20
9.988294131739266
 11
-15.15300367726739
 21
11.61746606241199
  0
LINE
  5
4ae
100
AcDbEntity
  8
0
  6
CONTINUOUS
 62
     7
100
AcDbLine
 10
-17.09999847412109
 20
-1.5
 11
-25
 21
-1.5
  0
LINE
  5
4af
100
AcDbEntity
  8
0
  6
CONTINUOUS
 62
     7
100
AcDbLine
 10
-21
 20
11.5
 11
-18.14346313476563
 21
11.5
  0
LINE
  5
4b0
100
AcDbEntity
  8
0
  6
CONTINUOUS
 62
     7
100
AcDbLine
 10
-22.5
 20
10.00000762939453
 11
-22.5
 21
9.500007629394531
  0
LINE
  5
4b1
100
AcDbEntity
  8
0
  6
CONTINUOUS
 62
     7
100
AcDbLine
 10
-25
 20
7.5
 11
-24.5
 21
7.5
  0
LINE
  5
4b2
100
AcDbEntity
  8
0
  6
CONTINUOUS
 62
     7
100
AcDbLine
 10
-26.5
 20
6.000007629394531
 11
-26.5
 21
-5.999992370605469
  0
LINE
  5
4b3
100
AcDbEntity
  8
0
  6
CONTINUOUS
 62
     7
100
AcDbLine
 10
-25
 20
-7.5
 11
-24.5
 21
-7.5
  0
LINE
  5
4b4
100
AcDbEntity
  8
0
  6
CONTINUOUS
 62
     7
100
AcDbLine
 10
-22.5
 20
-9.999992370605469
 11
-22.5
 21
-9.499992370605469
  0
LINE
  5
4b5
100
AcDbEntity
  8
0
  6
CONTINUOUS
 62
     7
100
AcDbLine
 10
-21
 20
-11.5
 11
-18.14346313476563
 21
-11.5
  0
LINE
  5
4b6
100
AcDbEntity
  8
0
  6
CONTINUOUS
 62
     7
100
AcDbLine
 10
-13.52382584603588
 20
-9.988273058315011
 11
-15.15300047410691
 21
-11.61744768638604
  0
LINE
  5
4b7
100
AcDbEntity
  8
0
  6
CONTINUOUS
 62
     7
100
AcDbLine
 10
-9.988288231180475
 20
-13.52381067317042
 11
-11.6174628592515
 21
-15.15298530124144
  0
LINE
  5
4b8
100
AcDbEntity
  8
0
  6
CONTINUOUS
 62
     7
100
AcDbLine
 10
-11.5
 20
-18.14345550537109
 11
-11.5
 21
-20.99999237060547
  0
LINE
  5
4b9
100
AcDbEntity
  8
0
  6
CONTINUOUS
 62
     7
100
AcDbLine
 10
-7.5
 20
-24.49999237060547
 11
-7.5
 21
-24.99999237060547
  0
LINE
  5
4ba
100
AcDbEntity
  8
0
  6
CONTINUOUS
 62
     7
100
AcDbLine
 10
-10
 20
-22.5
 11
-9.5
 21
-22.5
  0
LINE
  5
4bb
100
AcDbEntity
  8
0
  6
CONTINUOUS
 62
     7
100
AcDbLine
 10
-6
 20
-26.5
 11
6
 21
-26.5
  0
LINE
  5
4bc
100
AcDbEntity
  8
0
  6
CONTINUOUS
 62
     7
100
AcDbLine
 10
7.5
 20
-24.49999237060547
 11
7.5
 21
-24.99999237060547
  0
LINE
  5
4bd
100
AcDbEntity
  8
0
  6
CONTINUOUS
 62
     7
100
AcDbLine
 10
10
 20
-22.5
 11
9.5
 21
-22.5
  0
LINE
  5
4be
100
AcDbEntity
  8
0
  6
CONTINUOUS
 62
     7
100
AcDbLine
 10
11.5
 20
-18.14345550537109
 11
11.5
 21
-20.99999237060547
  0
LINE
  5
4bf
100
AcDbEntity
  8
0
  6
CONTINUOUS
 62
     7
100
AcDbLine
 10
9.988302223934181
 20
-13.52383983878959
 11
11.61746606241199
 21
-15.15300367726739
  0
LINE
  5
4c0
100
AcDbEntity
  8
0
  6
CONTINUOUS
 62
     7
100
AcDbLine
 10
13.52381387633091
 20
-9.988306607206425
 11
15.15298850440193
 21
-11.61748123527745
  0
LINE
  5
4c1
100
AcDbEntity
  8
0
  6
CONTINUOUS
 62
     7
100
AcDbLine
 10
21
 20
-11.5
 11
18.14346313476563
 21
-11.5
  0
LINE
  5
4c2
100
AcDbEntity
  8
0
  6
CONTINUOUS
 62
     7
100
AcDbLine
 10
22.5
 20
-9.999992370605469
 11
22.5
 21
-9.499992370605469
  0
LINE
  5
4c3
100
AcDbEntity
  8
0
  6
CONTINUOUS
 62
     7
100
AcDbLine
 10
25
 20
-7.5
 11
24.5
 21
-7.5
  0
LINE
  5
4c4
100
AcDbEntity
  8
0
  6
CONTINUOUS
 62
     7
100
AcDbLine
 10
26.5
 20
6.000007629394531
 11
26.5
 21
-5.999992370605469
  0
LINE
  5
4c5
100
AcDbEntity
  8
0
  6
CONTINUOUS
 62
     7
100
AcDbLine
 10
17.10000610351563
 20
1.5
 11
25
 21
1.5
  0
LINE
  5
4c6
100
AcDbEntity
  8
0
  6
CONTINUOUS
 62
     7
100
AcDbLine
 10
13.52383225235686
 20
9.988309810366912
 11
15.15300688042788
 21
11.61748443843794
  0
LINE
  5
4c7
100
AcDbEntity
  8
0
  6
DASHED
 62
     7
100
AcDbLine
 10
11.49989318847656
 20
4.406005859375
 11
18.49989318847656
 21
4.406005859375
  0
LINE
  5
4c8
100
AcDbEntity
  8
0
  6
DASHED
 62
     7
100
AcDbLine
 10
11.79666699036318
 20
4.406013472420884
 11
12.49988315656649
 21
4.000011422277884
  0
LINE
  5
4c9
100
AcDbEntity
  8
0
  6
DASHED
 62
     7
100
AcDbLine
 10
12.49989318847656
 20
4
 11
18.49989318847656
 21
4
  0
LINE
  5
4ca
100
AcDbEntity
  8
0
  6
DASHED
 62
     7
100
AcDbLine
 10
18.49989318847656
 20
4.406005859375
 11
18.49989318847656
 21
3.000007629394531
  0
LINE
  5
4cb
100
AcDbEntity
  8
0
  6
DASHED
 62
     7
100
AcDbLine
 10
18.49989318847656
 20
3
 11
27.99989318847656
 21
3
  0
LINE
  5
4cc
100
AcDbEntity
  8
0
  6
DASHED
 62
     7
100
AcDbLine
 10
28.49989318847656
 20
0
 11
28.99989318847656
 21
0
  0
LINE
  5
4cd
100
AcDbEntity
  8
0
  6
CENTER
 62
     3
100
AcDbLine
 10
0
 20
31.91401100158691
 11
0
 21
-31.75914573669434
  0
LINE
  5
4ce
100
AcDbEntity
  8
0
  6
CENTER
 62
     3
100
AcDbLine
 10
-52.9151725769043
 20
0
 11
52.72118377685547
 21
0
  0
LINE
  5
4cf
100
AcDbEntity
  8
0
  6
CONTINUOUS
 62
     7
100
AcDbLine
 10
-30.95000076293945
 20
-29
 11
-30.95000076293945
 21
-17
  0
LINE
  5
4d0
100
AcDbEntity
  8
0
  6
CONTINUOUS
 62
     7
100
AcDbLine
 10
-50
 20
-11
 11
-36.95000076293945
 21
-11
  0
LINE
  5
4d1
100
AcDbEntity
  8
0
  6
CONTINUOUS
 62
     7
100
AcDbLine
 10
-50
 20
27
 11
-50
 21
-27
  0
LINE
  5
4d2
100
AcDbEntity
  8
0
  6
CENTER
 62
     3
100
AcDbLine
 10
-46.5
 20
-21
 11
-33.5
 21
-21
  0
LINE
  5
4d3
100
AcDbEntity
  8
0
  6
CENTER
 62
     3
100
AcDbLine
 10
-40
 20
-14.5
 11
-40
 21
-27.5
  0
LINE
  5
4d4
100
AcDbEntity
  8
0
  6
CONTINUOUS
 62
     7
100
AcDbLine
 10
-48
 20
-29
 11
48
 21
-29
  0
LINE
  5
4d5
100
AcDbEntity
  8
0
  6
CONTINUOUS
 62
     7
100
AcDbLine
 10
50
 20
27
 11
50
 21
-27
  0
LINE
  5
4d6
100
AcDbEntity
  8
0
  6
CENTER
 62
     3
100
AcDbLine
 10
33.5
 20
-21
 11
46.5
 21
-21
  0
LINE
  5
4d7
100
AcDbEntity
  8
0
  6
CENTER
 62
     3
100
AcDbLine
 10
40
 20
-14.5
 11
40
 21
-27.5
  0
LINE
  5
4d8
100
AcDbEntity
  8
0
  6
CONTINUOUS
 62
     7
100
AcDbLine
 10
30.95000076293945
 20
-29
 11
30.95000076293945
 21
-17
  0
LINE
  5
4d9
100
AcDbEntity
  8
0
  6
CONTINUOUS
 62
     7
100
AcDbLine
 10
36.95000076293945
 20
-11
 11
50
 21
-11
  0
LINE
  5
4da
100
AcDbEntity
  8
0
  6
CONTINUOUS
 62
     7
100
AcDbLine
 10
36.95000076293945
 20
11
 11
50
 21
11
  0
LINE
  5
4db
100
AcDbEntity
  8
0
  6
CONTINUOUS
 62
     7
100
AcDbLine
 10
30.95000076293945
 20
29
 11
30.95000076293945
 21
17
  0
LINE
  5
4dc
100
AcDbEntity
  8
0
  6
CONTINUOUS
 62
     7
100
AcDbLine
 10
-48
 20
29
 11
48
 21
29
  0
LINE
  5
4dd
100
AcDbEntity
  8
0
  6
CENTER
 62
     3
100
AcDbLine
 10
40
 20
27.5
 11
40
 21
14.5
  0
LINE
  5
4de
100
AcDbEntity
  8
0
  6
CENTER
 62
     3
100
AcDbLine
 10
33.5
 20
21
 11
46.5
 21
21
  0
LINE
  5
4df
100
AcDbEntity
  8
0
  6
CONTINUOUS
 62
     7
100
AcDbLine
 10
-30.95000076293945
 20
29
 11
-30.95000076293945
 21
17
  0
LINE
  5
4e0
100
AcDbEntity
  8
0
  6
CENTER
 62
     3
100
AcDbLine
 10
-46.5
 20
21
 11
-33.5
 21
21
  0
LINE
  5
4e1
100
AcDbEntity
  8
0
  6
CENTER
 62
     3
100
AcDbLine
 10
-40
 20
27.5
 11
-40
 21
14.5
  0
LINE
  5
4e2
100
AcDbEntity
  8
0
  6
CONTINUOUS
 62
     7
100
AcDbLine
 10
-50
 20
11
 11
-36.95000076293945
 21
11
  0
LINE
  5
4e3
100
AcDbEntity
  8
0
  6
CONTINUOUS
 62
     7
100
AcDbLine
 10
-16.25
 20
23.16593551635742
 11
-16.25
 21
17.33412551879883
  0
LINE
  5
4e4
100
AcDbEntity
  8
0
  6
CONTINUOUS
 62
     7
100
AcDbLine
 10
-24.25
 20
23.16593551635742
 11
-24.25
 21
17.33412551879883
  0
LINE
  5
4e5
100
AcDbEntity
  8
0
  6
CONTINUOUS
 62
     7
100
AcDbLine
 10
-20.25000181009109
 20
15.55002189238385
 11
-24.24999966008593
 21
17.33411540538066
  0
LINE
  5
4e6
100
AcDbEntity
  8
0
  6
CONTINUOUS
 62
     7
100
AcDbLine
 10
-24.25000063656789
 20
23.16594511667367
 11
-20.25000278657304
 21
24.95003862967048
  0
LINE
  5
4e7
100
AcDbEntity
  8
0
  6
CONTINUOUS
 62
     7
100
AcDbLine
 10
-20.24999734706332
 20
24.95002842940204
 11
-16.24999997741629
 21
23.16593383944959
  0
LINE
  5
4e8
100
AcDbEntity
  8
0
  6
CONTINUOUS
 62
     7
100
AcDbLine
 10
-16.24999830490201
 20
17.33412907282914
 11
-20.24999567454903
 21
15.5500344828767
  0
LINE
  5
4e9
100
AcDbEntity
  8
0
  6
CENTER
 62
     3
100
AcDbLine
 10
-20.25
 20
27.00003051757813
 11
-20.25
 21
13.50003051757813
  0
LINE
  5
4ea
100
AcDbEntity
  8
0
  6
CENTER
 62
     3
100
AcDbLine
 10
-27
 20
20.25003051757813
 11
-13.5
 21
20.25003051757813
  0
LINE
  5
4eb
100
AcDbEntity
  8
0
  6
CONTINUOUS
 62
     7
100
AcDbLine
 10
24.24989318847656
 20
23.16593551635742
 11
24.24989318847656
 21
17.33412551879883
  0
LINE
  5
4ec
100
AcDbEntity
  8
0
  6
CONTINUOUS
 62
     7
100
AcDbLine
 10
16.24989318847656
 20
23.16593551635742
 11
16.24989318847656
 21
17.33412551879883
  0
LINE
  5
4ed
100
AcDbEntity
  8
0
  6
CONTINUOUS
 62
     7
100
AcDbLine
 10
20.24988979248525
 20
15.55002263940518
 11
16.2498919424904
 21
17.33411615240199
  0
LINE
  5
4ee
100
AcDbEntity
  8
0
  6
CONTINUOUS
 62
     7
100
AcDbLine
 10
16.24989116024446
 20
23.16594393416865
 11
20.24989075217407
 21
24.9500382241095
  0
LINE
  5
4ef
100
AcDbEntity
  8
0
  6
CONTINUOUS
 62
     7
100
AcDbLine
 10
20.24989872294272
 20
24.95002828839399
 11
24.24989609258974
 21
23.16593369844154
  0
LINE
  5
4f0
100
AcDbEntity
  8
0
  6
CONTINUOUS
 62
     7
100
AcDbLine
 10
24.24989582893334
 20
17.33412887237632
 11
20.24989845928632
 21
15.55003428242388
  0
LINE
  5
4f1
100
AcDbEntity
  8
0
  6
CENTER
 62
     3
100
AcDbLine
 10
20.24989318847656
 20
27.00003051757813
 11
20.24989318847656
 21
13.50003051757813
  0
LINE
  5
4f2
100
AcDbEntity
  8
0
  6
CENTER
 62
     3
100
AcDbLine
 10
13.49989318847656
 20
20.25003051757813
 11
26.99989318847656
 21
20.25003051757813
  0
LINE
  5
4f3
100
AcDbEntity
  8
0
  6
CONTINUOUS
 62
     7
100
AcDbLine
 10
24.24989318847656
 20
-17.33404922485352
 11
24.24989318847656
 21
-23.16585922241211
  0
LINE
  5
4f4
100
AcDbEntity
  8
0
  6
CONTINUOUS
 62
     7
100
AcDbLine
 10
16.24989318847656
 20
-17.33404922485352
 11
16.24989318847656
 21
-23.16585922241211
  0
LINE
  5
4f5
100
AcDbEntity
  8
0
  6
CONTINUOUS
 62
     7
100
AcDbLine
 10
20.24989123967552
 20
-24.94996221238552
 11
16.2498916477459
 21
-23.16586792244466
  0
LINE
  5
4f6
100
AcDbEntity
  8
0
  6
CONTINUOUS
 62
     7
100
AcDbLine
 10
16.24989193748432
 20
-17.3340388812386
 11
20.24988978747916
 21
-15.54994536824179
  0
LINE
  5
4f7
100
AcDbEntity
  8
0
  6
CONTINUOUS
 62
     7
100
AcDbLine
 10
20.24989894680823
 20
-15.54995827070002
 11
24.24989631645525
 21
-17.33405286065247
  0
LINE
  5
4f8
100
AcDbEntity
  8
0
  6
CONTINUOUS
 62
     7
100
AcDbLine
 10
24.24989608756285
 20
-23.16585642727815
 11
20.24989871791583
 21
-24.9499510172306
  0
LINE
  5
4f9
100
AcDbEntity
  8
0
  6
CENTER
 62
     3
100
AcDbLine
 10
20.24989318847656
 20
-13.49995422363281
 11
20.24989318847656
 21
-26.99995422363281
  0
LINE
  5
4fa
100
AcDbEntity
  8
0
  6
CENTER
 62
     3
100
AcDbLine
 10
13.49989318847656
 20
-20.24995422363281
 11
26.99989318847656
 21
-20.24995422363281
  0
LINE
  5
4fb
100
AcDbEntity
  8
0
  6
CONTINUOUS
 62
     7
100
AcDbLine
 10
-16.25
 20
-17.33404922485352
 11
-16.25
 21
-23.16585922241211
  0
LINE
  5
4fc
100
AcDbEntity
  8
0
  6
CONTINUOUS
 62
     7
100
AcDbLine
 10
-24.25
 20
-17.33404922485352
 11
-24.25
 21
-23.16585922241211
  0
LINE
  5
4fd
100
AcDbEntity
  8
0
  6
CONTINUOUS
 62
     7
100
AcDbLine
 10
-20.25000278156696
 20
-24.94996135850708
 11
-24.2500006315618
 21
-23.16586784551027
  0
LINE
  5
4fe
100
AcDbEntity
  8
0
  6
CONTINUOUS
 62
     7
100
AcDbLine
 10
-24.25000014758738
 20
-17.33403939365668
 11
-20.25000229759253
 21
-15.54994588065987
  0
LINE
  5
4ff
100
AcDbEntity
  8
0
  6
CONTINUOUS
 62
     7
100
AcDbLine
 10
-20.24999644646666
 20
-15.54995895364787
 11
-16.24999907681964
 21
-17.33405354360032
  0
LINE
  5
500
100
AcDbEntity
  8
0
  6
CONTINUOUS
 62
     7
100
AcDbLine
 10
-16.24999698106908
 20
-23.16585627383671
 11
-20.2499943507161
 21
-24.94995086378915
  0
LINE
  5
501
100
AcDbEntity
  8
0
  6
CENTER
 62
     3
100
AcDbLine
 10
-20.25
 20
-13.49995422363281
 11
-20.25
 21
-26.99995422363281
  0
LINE
  5
502
100
AcDbEntity
  8
0
  6
CENTER
 62
     3
100
AcDbLine
 10
-27
 20
-20.24995422363281
 11
-13.5
 21
-20.24995422363281
  0
LINE
  5
503
100
AcDbEntity
  8
0
  6
CONTINUOUS
 62
     7
100
AcDbLine
 10
-20
 20
29.25
 11
20
 21
29.25
  0
LINE
  5
504
100
AcDbEntity
  8
0
  6
CONTINUOUS
 62
     7
100
AcDbLine
 10
20
 20
29.25
 11
20
 21
29
  0
LINE
  5
505
100
AcDbEntity
  8
0
  6
CONTINUOUS
 62
     7
100
AcDbLine
 10
-20
 20
29.25
 11
-20
 21
29
  0
LINE
  5
506
100
AcDbEntity
  8
0
  6
DASHED
 62
     1
100
AcDbLine
 10
10.10565721988678
 20
7.040001511573792
 11
10.10565721988678
 21
8.959998488426209
  0
LINE
  5
507
100
AcDbEntity
  8
0
  6
DASHED
 62
     1
100
AcDbLine
 10
15.10565720677183
 20
5.999999945388217
 11
10.10565717395052
 21
7.040001502837966
  0
LINE
  5
508
100
AcDbEntity
  8
0
  6
DASHED
 62
     1
100
AcDbLine
 10
15.10565720677183
 20
10.00000005461178
 11
10.10565717395052
 21
8.959998497162035
  0
LINE
  5
509
100
AcDbEntity
  8
0
  6
DASHED
 62
     1
100
AcDbLine
 10
19.10565710067749
 20
4
 11
15.60565710067749
 21
4
  0
LINE
  5
50a
100
AcDbEntity
  8
0
  6
DASHED
 62
     1
100
AcDbLine
 10
19.10565710067749
 20
12
 11
15.60565710067749
 21
12
  0
LINE
  5
50b
100
AcDbEntity
  8
0
  6
DASHED
 62
     1
100
AcDbLine
 10
15.10565712038449
 20
4.500000164456323
 11
15.60565734363503
 21
3.999999983352648
  0
LINE
  5
50c
100
AcDbEntity
  8
0
  6
DASHED
 62
     1
100
AcDbLine
 10
15.60565728568311
 20
12.00000008351451
 11
15.10565710457944
 21
11.49999986026397
  0
LINE
  5
50d
100
AcDbEntity
  8
0
  6
DASHED
 62
     1
100
AcDbLine
 10
23.60565757751465
 20
3.099999904632568
 11
22.9056568145752
 21
3.099999904632568
  0
LINE
  5
50e
100
AcDbEntity
  8
0
  6
DASHED
 62
     1
100
AcDbLine
 10
23.60565757751465
 20
12.90000009536743
 11
22.9056568145752
 21
12.90000009536743
  0
LINE
  5
50f
100
AcDbEntity
  8
0
  6
DASHED
 62
     1
100
AcDbLine
 10
22.9056568145752
 20
4.200000047683716
 11
21.30565738677979
 21
4.200000047683716
  0
LINE
  5
510
100
AcDbEntity
  8
0
  6
DASHED
 62
     1
100
AcDbLine
 10
22.9056568145752
 20
11.79999995231628
 11
21.30565738677979
 21
11.79999995231628
  0
LINE
  5
511
100
AcDbEntity
  8
0
  6
DASHED
 62
     1
100
AcDbLine
 10
23.60565757751465
 20
3.099999904632568
 11
23.60565757751465
 21
12.90000009536743
  0
LINE
  5
512
100
AcDbEntity
  8
0
  6
DASHED
 62
     1
100
AcDbLine
 10
21.30565738677979
 20
12.90000009536743
 11
20.60565757751465
 21
12.90000009536743
  0
LINE
  5
513
100
AcDbEntity
  8
0
  6
DASHED
 62
     1
100
AcDbLine
 10
21.30565738677979
 20
3.099999904632568
 11
20.60565757751465
 21
3.099999904632568
  0
LINE
  5
514
100
AcDbEntity
  8
0
  6
DASHED
 62
     1
100
AcDbLine
 10
19.10565710067749
 20
4
 11
19.10565710067749
 21
12
  0
LINE
  5
515
100
AcDbEntity
  8
0
  6
DASHED
 62
     1
100
AcDbLine
 10
20.60565757751465
 20
3.099999904632568
 11
20.60565757751465
 21
12.90000009536743
  0
LINE
  5
516
100
AcDbEntity
  8
0
  6
DASHED
 62
     1
100
AcDbLine
 10
21.30565738677979
 20
3
 11
21.30565738677979
 21
13
  0
LINE
  5
517
100
AcDbEntity
  8
0
  6
DASHED
 62
     1
100
AcDbLine
 10
22.9056568145752
 20
3
 11
22.9056568145752
 21
13
  0
LINE
  5
518
100
AcDbEntity
  8
0
  6
DASHED
 62
     1
100
AcDbLine
 10
15.10565733909607
 20
4.5
 11
15.10565733909607
 21
11.5
  0
LINE
  5
519
100
AcDbEntity
  8
0
  6
DASHED
 62
     1
100
AcDbLine
 10
15.60565710067749
 20
12
 11
15.60565710067749
 21
4
  0
LINE
  5
51a
100
AcDbEntity
  8
0
  6
DASHED
 62
     1
100
AcDbLine
 10
22.9056568145752
 20
13
 11
21.30565738677979
 21
13
  0
LINE
  5
51b
100
AcDbEntity
  8
0
  6
DASHED
 62
     1
100
AcDbLine
 10
22.9056568145752
 20
3
 11
21.30565738677979
 21
3
  0
LINE
  5
51c
100
AcDbEntity
  8
0
  6
DASHED
 62
     1
100
AcDbLine
 10
20.60565757751465
 20
11.59400010108948
 11
15.19965744018555
 21
11.59400010108948
  0
LINE
  5
51d
100
AcDbEntity
  8
0
  6
DASHED
 62
     1
100
AcDbLine
 10
20.60565757751465
 20
4.405999898910523
 11
15.19965744018555
 21
4.405999898910523
  0
LINE
  5
51e
100
AcDbEntity
  8
0
  6
DASHED
 62
     7
100
AcDbLine
 10
25.60565185546875
 20
13.00000762939453
 11
25.60565185546875
 21
3.000007629394531
  0
LINE
  5
51f
100
AcDbEntity
  8
0
  6
DASHED
 62
     7
100
AcDbLine
 10
26.10565185546875
 20
13.00000762939453
 11
26.10565185546875
 21
3.000007629394531
  0
CIRCLE
  5
520
100
AcDbEntity
  8
0
  6
CONTINUOUS
 62
     7
100
AcDbCircle
 10
0
 20
0
 40
6.999998092651367
  0
CIRCLE
  5
521
100
AcDbEntity
  8
0
  6
CONTINUOUS
 62
     7
100
AcDbCircle
 10
0
 20
0
 40
6.187998294830322
  0
CIRCLE
  5
522
100
AcDbEntity
  8
0
  6
CONTINUOUS
 62
     7
100
AcDbCircle
 10
0
 20
0
 40
10.49999713897705
  0
ARC
  5
523
100
AcDbEntity
  8
0
  6
CONTINUOUS
 62
     7
100
AcDbCircle
 10
-25
 20
25
 40
4
100
AcDbArc
 50
90.00003665542401
 51
180.0000186693354
  0
CIRCLE
  5
524
100
AcDbEntity
  8
0
  6
CONTINUOUS
 62
     7
100
AcDbCircle
 10
-20.25
 20
20.25
 40
7.099999904632568
  0
ARC
  5
525
100
AcDbEntity
  8
0
  6
CONTINUOUS
 62
     7
100
AcDbCircle
 10
24.99989318847656
 20
25
 40
4
100
AcDbArc
 50
359.9999813306654
 51
90.00003665542401
  0
ARC
  5
526
100
AcDbEntity
  8
0
  6
CONTINUOUS
 62
     7
100
AcDbCircle
 10
24.99989318847656
 20
-25
 40
4
100
AcDbArc
 50
270.00001798609
 51
359.9999813306654
  0
CIRCLE
  5
527
100
AcDbEntity
  8
0
  6
CONTINUOUS
 62
     7
100
AcDbCircle
 10
20.25
 20
-20.25
 40
7.099999904632568
  0
CIRCLE
  5
528
100
AcDbEntity
  8
0
  6
CONTINUOUS
 62
     7
100
AcDbCircle
 10
-20.25
 20
-20.25
 40
7.099999904632568
  0
ARC
  5
529
100
AcDbEntity
  8
0
  6
CONTINUOUS
 62
     7
100
AcDbCircle
 10
-25
 20
-25
 40
4
100
AcDbArc
 50
180.0000223118011
 51
269.9999974955226
  0
CIRCLE
  5
52a
100
AcDbEntity
  8
0
  6
CONTINUOUS
 62
     7
100
AcDbCircle
 10
20.25
 20
20.25
 40
7.099999904632568
  0
ARC
  5
52b
100
AcDbEntity
  8
0
  6
CONTINUOUS
 62
     7
100
AcDbCircle
 10
-10
 20
25
 40
1.5
100
AcDbArc
 50
90.00000250447815
 51
180.000005008957
  0
ARC
  5
52c
100
AcDbEntity
  8
0
  6
CONTINUOUS
 62
     7
100
AcDbCircle
 10
-10.11651611328125
 20
17.5
 40
1.5
100
AcDbArc
 50
90.00000250447815
 51
164.8168906349899
  0
ARC
  5
52d
100
AcDbEntity
  8
0
  6
CONTINUOUS
 62
     7
100
AcDbCircle
 10
-20.25
 20
20.25
 40
9
100
AcDbArc
 50
283.5362029964372
 51
346.463797060407
  0
ARC
  5
52e
100
AcDbEntity
  8
0
  6
CONTINUOUS
 62
     7
100
AcDbCircle
 10
-10.55680847167969
 20
16.21366882324219
 40
1.5
100
AcDbArc
 50
157.3926935732394
 51
224.9999960159124
  0
ARC
  5
52f
100
AcDbEntity
  8
0
  6
CONTINUOUS
 62
     7
100
AcDbCircle
 10
-8.927627563476563
 20
14.58450317382813
 40
1.5
100
AcDbArc
 50
224.999999658378
 51
301.4721431531073
  0
CIRCLE
  5
530
100
AcDbEntity
  8
0
  6
CONTINUOUS
 62
     7
100
AcDbCircle
 10
0
 20
0
 40
15.60000038146973
  0
ARC
  5
531
100
AcDbEntity
  8
0
  6
CONTINUOUS
 62
     7
100
AcDbCircle
 10
8.927627563476563
 20
14.58450317382813
 40
1.5
100
AcDbArc
 50
238.527858668127
 51
314.9999987477617
  0
ARC
  5
532
100
AcDbEntity
  8
0
  6
CONTINUOUS
 62
     7
100
AcDbCircle
 10
10.55680847167969
 20
16.21366882324219
 40
1.5
100
AcDbArc
 50
314.9999987477617
 51
22.60731143571692
  0
ARC
  5
533
100
AcDbEntity
  8
0
  6
CONTINUOUS
 62
     7
100
AcDbCircle
 10
20.25
 20
20.25
 40
9
100
AcDbArc
 50
193.5362004919591
 51
256.463798824797
  0
ARC
  5
534
100
AcDbEntity
  8
0
  6
CONTINUOUS
 62
     7
100
AcDbCircle
 10
10.11651611328125
 20
17.5
 40
1.5
100
AcDbArc
 50
15.1831143739665
 51
90.00000250447815
  0
ARC
  5
535
100
AcDbEntity
  8
0
  6
CONTINUOUS
 62
     7
100
AcDbCircle
 10
10
 20
25
 40
1.5
100
AcDbArc
 50
0
 51
90.00000250447815
  0
ARC
  5
536
100
AcDbEntity
  8
0
  6
CONTINUOUS
 62
     7
100
AcDbCircle
 10
25
 20
6
 40
1.5
100
AcDbArc
 50
6.785183320455502e-014
 51
90.0000025044782
  0
ARC
  5
537
100
AcDbEntity
  8
0
  6
CONTINUOUS
 62
     7
100
AcDbCircle
 10
24.5
 20
9.5
 40
2
100
AcDbArc
 50
179.9999949910437
 51
269.9999974955226
  0
ARC
  5
538
100
AcDbEntity
  8
0
  6
CONTINUOUS
 62
     7
100
AcDbCircle
 10
21
 20
10
 40
1.5
100
AcDbArc
 50
6.785183320455502e-014
 51
90.0000025044782
  0
ARC
  5
539
100
AcDbEntity
  8
0
  6
CONTINUOUS
 62
     7
100
AcDbCircle
 10
-16.21366119384766
 20
10.55682373046875
 40
1.5
100
AcDbArc
 50
45.00000125223911
 51
112.6073139401951
  0
ARC
  5
53a
100
AcDbEntity
  8
0
  6
CONTINUOUS
 62
     7
100
AcDbCircle
 10
-14.58448791503906
 20
8.927642822265625
 40
1.5
100
AcDbArc
 50
328.5278577575105
 51
45.00000125223911
  0
ARC
  5
53b
100
AcDbEntity
  8
0
  6
CONTINUOUS
 62
     7
100
AcDbCircle
 10
-17.09999847412109
 20
0
 40
1.5
100
AcDbArc
 50
269.9999974955225
 51
360
  0
ARC
  5
53c
100
AcDbEntity
  8
0
  6
CONTINUOUS
 62
     7
100
AcDbCircle
 10
-25
 20
0
 40
1.5
100
AcDbArc
 50
179.9999949910437
 51
269.9999974955225
  0
ARC
  5
53d
100
AcDbEntity
  8
0
  6
CONTINUOUS
 62
     7
100
AcDbCircle
 10
-21
 20
10
 40
1.5
100
AcDbArc
 50
90.0000025044782
 51
180.000005008957
  0
ARC
  5
53e
100
AcDbEntity
  8
0
  6
CONTINUOUS
 62
     7
100
AcDbCircle
 10
-24.5
 20
9.5
 40
2
100
AcDbArc
 50
269.9999974955226
 51
360
  0
ARC
  5
53f
100
AcDbEntity
  8
0
  6
CONTINUOUS
 62
     7
100
AcDbCircle
 10
-25
 20
6
 40
1.5
100
AcDbArc
 50
90.0000025044782
 51
180.000005008957
  0
ARC
  5
540
100
AcDbEntity
  8
0
  6
CONTINUOUS
 62
     7
100
AcDbCircle
 10
-25
 20
-6
 40
1.5
100
AcDbArc
 50
179.9999949910437
 51
269.9999974955225
  0
ARC
  5
541
100
AcDbEntity
  8
0
  6
CONTINUOUS
 62
     7
100
AcDbCircle
 10
-24.5
 20
-9.5
 40
2
100
AcDbArc
 50
0
 51
90.00000250447816
  0
ARC
  5
542
100
AcDbEntity
  8
0
  6
CONTINUOUS
 62
     7
100
AcDbCircle
 10
-21
 20
-10
 40
1.5
100
AcDbArc
 50
179.9999949910437
 51
269.9999974955225
  0
ARC
  5
543
100
AcDbEntity
  8
0
  6
CONTINUOUS
 62
     7
100
AcDbCircle
 10
-20.25
 20
-20.25
 40
9
100
AcDbArc
 50
13.53620293959373
 51
76.46379700356351
  0
ARC
  5
544
100
AcDbEntity
  8
0
  6
CONTINUOUS
 62
     7
100
AcDbCircle
 10
-16.21366119384766
 20
-10.55679321289063
 40
1.5
100
AcDbArc
 50
247.3926860598056
 51
314.9999987477617
  0
ARC
  5
545
100
AcDbEntity
  8
0
  6
CONTINUOUS
 62
     7
100
AcDbCircle
 10
-14.58448791503906
 20
-8.927627563476563
 40
1.5
100
AcDbArc
 50
314.9999987477617
 51
31.47214224249019
  0
ARC
  5
546
100
AcDbEntity
  8
0
  6
CONTINUOUS
 62
     7
100
AcDbCircle
 10
-8.927627563476563
 20
-14.58448791503906
 40
1.5
100
AcDbArc
 50
58.52785684689341
 51
135.0000003416227
  0
ARC
  5
547
100
AcDbEntity
  8
0
  6
CONTINUOUS
 62
     7
100
AcDbCircle
 10
-10.55680847167969
 20
-16.21365356445313
 40
1.5
100
AcDbArc
 50
135.0000003416227
 51
202.607316444674
  0
ARC
  5
548
100
AcDbEntity
  8
0
  6
CONTINUOUS
 62
     7
100
AcDbCircle
 10
-10
 20
-21
 40
1.5
100
AcDbArc
 50
179.9999949910437
 51
269.9999974955226
  0
ARC
  5
549
100
AcDbEntity
  8
0
  6
CONTINUOUS
 62
     7
100
AcDbCircle
 10
-9.5
 20
-24.5
 40
2
100
AcDbArc
 50
0
 51
90.00000250447816
  0
ARC
  5
54a
100
AcDbEntity
  8
0
  6
CONTINUOUS
 62
     7
100
AcDbCircle
 10
-6
 20
-25
 40
1.5
100
AcDbArc
 50
179.9999949910437
 51
269.9999974955226
  0
ARC
  5
54b
100
AcDbEntity
  8
0
  6
CONTINUOUS
 62
     7
100
AcDbCircle
 10
6
 20
-25
 40
1.5
100
AcDbArc
 50
269.9999974955226
 51
1.3570366640911e-013
  0
ARC
  5
54c
100
AcDbEntity
  8
0
  6
CONTINUOUS
 62
     7
100
AcDbCircle
 10
9.5
 20
-24.5
 40
2
100
AcDbArc
 50
90.00000250447816
 51
180.000005008957
  0
ARC
  5
54d
100
AcDbEntity
  8
0
  6
CONTINUOUS
 62
     7
100
AcDbCircle
 10
10
 20
-21
 40
1.5
100
AcDbArc
 50
269.9999974955226
 51
1.3570366640911e-013
  0
ARC
  5
54e
100
AcDbEntity
  8
0
  6
CONTINUOUS
 62
     7
100
AcDbCircle
 10
20.25
 20
-20.25
 40
9
100
AcDbArc
 50
103.5362011752037
 51
166.4637995080417
  0
ARC
  5
54f
100
AcDbEntity
  8
0
  6
CONTINUOUS
 62
     7
100
AcDbCircle
 10
10.55680847167969
 20
-16.21365356445313
 40
1.5
100
AcDbArc
 50
337.3926885642838
 51
45.00000125223911
  0
ARC
  5
550
100
AcDbEntity
  8
0
  6
CONTINUOUS
 62
     7
100
AcDbCircle
 10
8.927627563476563
 20
-14.58448791503906
 40
1.5
100
AcDbArc
 50
45.00000125223911
 51
121.4721413318737
  0
ARC
  5
551
100
AcDbEntity
  8
0
  6
CONTINUOUS
 62
     7
100
AcDbCircle
 10
14.58448791503906
 20
-8.927627563476563
 40
1.5
100
AcDbArc
 50
148.5278593513716
 51
224.9999960159124
  0
ARC
  5
552
100
AcDbEntity
  8
0
  6
CONTINUOUS
 62
     7
100
AcDbCircle
 10
16.21366882324219
 20
-10.55679321289063
 40
1.5
100
AcDbArc
 50
224.999999658378
 51
292.6073089312395
  0
ARC
  5
553
100
AcDbEntity
  8
0
  6
CONTINUOUS
 62
     7
100
AcDbCircle
 10
21
 20
-10
 40
1.5
100
AcDbArc
 50
269.9999974955225
 51
6.785183320455502e-014
  0
ARC
  5
554
100
AcDbEntity
  8
0
  6
CONTINUOUS
 62
     7
100
AcDbCircle
 10
24.5
 20
-9.5
 40
2
100
AcDbArc
 50
90.00000250447816
 51
180.000005008957
  0
ARC
  5
555
100
AcDbEntity
  8
0
  6
CONTINUOUS
 62
     7
100
AcDbCircle
 10
25
 20
-6
 40
1.5
100
AcDbArc
 50
269.9999974955225
 51
6.785183320455502e-014
  0
ARC
  5
556
100
AcDbEntity
  8
0
  6
CONTINUOUS
 62
     7
100
AcDbCircle
 10
25
 20
0
 40
1.5
100
AcDbArc
 50
0
 51
90.0000025044782
  0
ARC
  5
557
100
AcDbEntity
  8
0
  6
CONTINUOUS
 62
     7
100
AcDbCircle
 10
17.10000610351563
 20
0
 40
1.5
100
AcDbArc
 50
90.0000025044782
 51
180.000005008957
  0
ARC
  5
558
100
AcDbEntity
  8
0
  6
CONTINUOUS
 62
     7
100
AcDbCircle
 10
14.58448791503906
 20
8.927642822265625
 40
1.5
100
AcDbArc
 50
135.0000003416227
 51
211.4721370061634
  0
ARC
  5
559
100
AcDbEntity
  8
0
  6
CONTINUOUS
 62
     7
100
AcDbCircle
 10
16.21366882324219
 20
10.55682373046875
 40
1.5
100
AcDbArc
 50
67.39269106876121
 51
135.0000003416227
  0
ARC
  5
55a
100
AcDbEntity
  8
0
  6
CONTINUOUS
 62
     7
100
AcDbCircle
 10
-36.95000076293945
 20
-17
 40
6
100
AcDbArc
 50
359.9999453584874
 51
89.99992737239727
  0
ARC
  5
55b
100
AcDbEntity
  8
0
  6
CONTINUOUS
 62
     7
100
AcDbCircle
 10
-48
 20
-27
 40
2
100
AcDbArc
 50
180.0000359721794
 51
270.0000179860901
  0
CIRCLE
  5
55c
100
AcDbEntity
  8
0
  6
CONTINUOUS
 62
     7
100
AcDbCircle
 10
-40
 20
-21
 40
4.5
  0
ARC
  5
55d
100
AcDbEntity
  8
0
  6
CONTINUOUS
 62
     7
100
AcDbCircle
 10
48
 20
-27
 40
2
100
AcDbArc
 50
270.0000179860901
 51
360
  0
CIRCLE
  5
55e
100
AcDbEntity
  8
0
  6
CONTINUOUS
 62
     7
100
AcDbCircle
 10
40
 20
-21
 40
4.5
  0
ARC
  5
55f
100
AcDbEntity
  8
0
  6
CONTINUOUS
 62
     7
100
AcDbCircle
 10
36.95000076293945
 20
-17
 40
6
100
AcDbArc
 50
89.99992737239727
 51
179.9999640278213
  0
ARC
  5
560
100
AcDbEntity
  8
0
  6
CONTINUOUS
 62
     7
100
AcDbCircle
 10
36.95000076293945
 20
17
 40
6
100
AcDbArc
 50
179.9999813306653
 51
270.0000179860901
  0
CIRCLE
  5
561
100
AcDbEntity
  8
0
  6
CONTINUOUS
 62
     7
100
AcDbCircle
 10
40
 20
21
 40
4.5
  0
ARC
  5
562
100
AcDbEntity
  8
0
  6
CONTINUOUS
 62
     7
100
AcDbCircle
 10
48
 20
27
 40
2
100
AcDbArc
 50
0
 51
89.99998201391055
  0
CIRCLE
  5
563
100
AcDbEntity
  8
0
  6
CONTINUOUS
 62
     7
100
AcDbCircle
 10
-40
 20
21
 40
4.5
  0
ARC
  5
564
100
AcDbEntity
  8
0
  6
CONTINUOUS
 62
     7
100
AcDbCircle
 10
-36.95000076293945
 20
17
 40
6
100
AcDbArc
 50
270.0000179860901
 51
360
  0
ARC
  5
565
100
AcDbEntity
  8
0
  6
CONTINUOUS
 62
     7
100
AcDbCircle
 10
-48
 20
27
 40
2
100
AcDbArc
 50
89.99998201391055
 51
180.0000186693354
  0
CIRCLE
  5
566
100
AcDbEntity
  8
0
  6
CONTINUOUS
 62
     7
100
AcDbCircle
 10
-20.25
 20
20.25003051757813
 40
6.75
  0
CIRCLE
  5
567
100
AcDbEntity
  8
0
  6
CONTINUOUS
 62
     7
100
AcDbCircle
 10
-20.25
 20
20.25003051757813
 40
4.949999809265137
  0
CIRCLE
  5
568
100
AcDbEntity
  8
0
  6
CONTINUOUS
 62
     7
100
AcDbCircle
 10
-20.25
 20
20.25003051757813
 40
4
  0
CIRCLE
  5
569
100
AcDbEntity
  8
0
  6
CONTINUOUS
 62
     7
100
AcDbCircle
 10
-20.25
 20
20.25003051757813
 40
3.323500633239746
  0
CIRCLE
  5
56a
100
AcDbEntity
  8
0
  6
CONTINUOUS
 62
     7
100
AcDbCircle
 10
20.24989318847656
 20
20.25003051757813
 40
6.75
  0
CIRCLE
  5
56b
100
AcDbEntity
  8
0
  6
CONTINUOUS
 62
     7
100
AcDbCircle
 10
20.24989318847656
 20
20.25003051757813
 40
4.949999809265137
  0
CIRCLE
  5
56c
100
AcDbEntity
  8
0
  6
CONTINUOUS
 62
     7
100
AcDbCircle
 10
20.24989318847656
 20
20.25003051757813
 40
4
  0
CIRCLE
  5
56d
100
AcDbEntity
  8
0
  6
CONTINUOUS
 62
     7
100
AcDbCircle
 10
20.24989318847656
 20
20.25003051757813
 40
3.323500633239746
  0
CIRCLE
  5
56e
100
AcDbEntity
  8
0
  6
CONTINUOUS
 62
     7
100
AcDbCircle
 10
20.24989318847656
 20
-20.24995422363281
 40
6.75
  0
CIRCLE
  5
56f
100
AcDbEntity
  8
0
  6
CONTINUOUS
 62
     7
100
AcDbCircle
 10
20.24989318847656
 20
-20.24995422363281
 40
4.949999809265137
  0
CIRCLE
  5
570
100
AcDbEntity
  8
0
  6
CONTINUOUS
 62
     7
100
AcDbCircle
 10
20.24989318847656
 20
-20.24995422363281
 40
4
  0
CIRCLE
  5
571
100
AcDbEntity
  8
0
  6
CONTINUOUS
 62
     7
100
AcDbCircle
 10
20.24989318847656
 20
-20.24995422363281
 40
3.323500633239746
  0
CIRCLE
  5
572
100
AcDbEntity
  8
0
  6
CONTINUOUS
 62
     7
100
AcDbCircle
 10
-20.25
 20
-20.24995422363281
 40
6.75
  0
CIRCLE
  5
573
100
AcDbEntity
  8
0
  6
CONTINUOUS
 62
     7
100
AcDbCircle
 10
-20.25
 20
-20.24995422363281
 40
4.949999809265137
  0
CIRCLE
  5
574
100
AcDbEntity
  8
0
  6
CONTINUOUS
 62
     7
100
AcDbCircle
 10
-20.25
 20
-20.24995422363281
 40
4
  0
CIRCLE
  5
575
100
AcDbEntity
  8
0
  6
CONTINUOUS
 62
     7
100
AcDbCircle
 10
-20.25
 20
-20.24995422363281
 40
3.323500633239746
  0
MTEXT
  5
576
100
AcDbEntity
  8
0
  6
CONTINUOUS
 62
     7
100
AcDbMText
 10
1.589741125702858
 20
-21.14616394042969
 40
0.5
 41
34
 71
     7
 72
     1
  1
{\W0.842735;ＢＮ－６１０５－ＦＢ－４０－Ｂ－＊}
  0
INSERT
  5
577
100
AcDbEntity
  8
0
  6
CONTINUOUS
 62
     3
100
AcDbBlockReference
  2
KOZU0010
 10
0
 20
0
  0
ENDBLK
  8
0
  5
578
100
AcDbEntity
100
AcDbBlockEnd
  0
BLOCK
  8
0
  5
579
100
AcDbEntity
100
AcDbBlockBegin
  2
KOZU0005
 70
    64
 10
0
 20
0
  0
POINT
  5
57a
100
AcDbEntity
  8
0
  6
CONTINUOUS
 62
     7
100
AcDbPoint
 10
0
 20
0
  0
LINE
  5
57b
100
AcDbEntity
  8
0
  6
CONTINUOUS
 62
   190
100
AcDbLine
 10
-50.99998474121094
 20
5.500007629394531
 11
-50.99998474121094
 21
-5.5
  0
LINE
  5
57c
100
AcDbEntity
  8
0
  6
CONTINUOUS
 62
   190
100
AcDbLine
 10
-49.49997230573595
 20
6.999983695758797
 11
-50.99996895041677
 21
5.499998683537235
  0
LINE
  5
57d
100
AcDbEntity
  8
0
  6
CONTINUOUS
 62
   190
100
AcDbLine
 10
-49.49998474121094
 20
6.999992370605469
 11
-49.49998474121094
 21
-6.999996185302734
  0
LINE
  5
57e
100
AcDbEntity
  8
0
  6
CONTINUOUS
 62
     7
100
AcDbLine
 10
-40
 20
6.18798828125
 11
-50.31199645996094
 21
6.18798828125
  0
LINE
  5
57f
100
AcDbEntity
  8
0
  6
CONTINUOUS
 62
   190
100
AcDbLine
 10
-40
 20
6.999969482421875
 11
-49.49998474121094
 21
6.999969482421875
  0
LINE
  5
580
100
AcDbEntity
  8
0
  6
CONTINUOUS
 62
     7
100
AcDbLine
 10
-40
 20
-10.49999809265137
 11
-40
 21
10.5
  0
LINE
  5
581
100
AcDbEntity
  8
0
  6
CONTINUOUS
 62
     7
100
AcDbLine
 10
-40.00000954031209
 20
10.50001768768451
 11
-38.72886084156031
 21
12.70171177838114
  0
LINE
  5
582
100
AcDbEntity
  8
0
  6
CONTINUOUS
 62
     7
100
AcDbLine
 10
-33.27116394042969
 20
12.70170593261719
 11
-38.72883605957031
 21
12.70170593261719
  0
LINE
  5
583
100
AcDbEntity
  8
0
  6
CONTINUOUS
 62
     7
100
AcDbLine
 10
-32.00003233948534
 20
10.49998413913526
 11
-33.27119248232907
 21
12.70169805158024
  0
LINE
  5
584
100
AcDbEntity
  8
0
  6
CONTINUOUS
 62
     7
100
AcDbLine
 10
-32
 20
-10.49999809265137
 11
-32
 21
10.49999618530273
  0
LINE
  5
585
100
AcDbEntity
  8
0
  6
CONTINUOUS
 62
   190
100
AcDbLine
 10
-20.99998474121094
 20
6.999969482421875
 11
-32
 21
6.999969482421875
  0
LINE
  5
586
100
AcDbEntity
  8
0
  6
CONTINUOUS
 62
     7
100
AcDbLine
 10
-23.99998474121094
 20
6.18798828125
 11
-32
 21
6.18798828125
  0
LINE
  5
587
100
AcDbEntity
  8
0
  6
CONTINUOUS
 62
     7
100
AcDbLine
 10
-33.27116394042969
 20
6.350845336914063
 11
-38.72883605957031
 21
6.350845336914063
  0
LINE
  5
588
100
AcDbEntity
  8
0
  6
CONTINUOUS
 62
     7
100
AcDbLine
 10
-33.27116394042969
 20
-6.350845336914063
 11
-38.72883605957031
 21
-6.350845336914063
  0
LINE
  5
589
100
AcDbEntity
  8
0
  6
CONTINUOUS
 62
     7
100
AcDbLine
 10
-40.00000954031209
 20
-10.50001768768451
 11
-38.72885702686299
 21
-12.70171838563059
  0
LINE
  5
58a
100
AcDbEntity
  8
0
  6
CONTINUOUS
 62
     7
100
AcDbLine
 10
-33.27116394042969
 20
-12.70170593261719
 11
-38.72883605957031
 21
-12.70170593261719
  0
LINE
  5
58b
100
AcDbEntity
  8
0
  6
CONTINUOUS
 62
     7
100
AcDbLine
 10
-31.99999993290527
 20
-10.4999852297513
 11
-33.271160075749
 21
-12.70169914219628
  0
LINE
  5
58c
100
AcDbEntity
  8
0
  6
CONTINUOUS
 62
   190
100
AcDbLine
 10
-50.99999002397144
 20
-5.500034761391873
 11
-49.50000501174988
 21
-7.000031406072694
  0
LINE
  5
58d
100
AcDbEntity
  8
0
  6
CONTINUOUS
 62
     7
100
AcDbLine
 10
-39.99998474121094
 20
-6.18798828125
 11
-50.31199645996094
 21
-6.18798828125
  0
LINE
  5
58e
100
AcDbEntity
  8
0
  6
CONTINUOUS
 62
   190
100
AcDbLine
 10
-39.99998474121094
 20
-7
 11
-49.49998474121094
 21
-7
  0
LINE
  5
58f
100
AcDbEntity
  8
0
  6
CONTINUOUS
 62
   190
100
AcDbLine
 10
-20.99998474121094
 20
-7
 11
-31.99998474121094
 21
-7
  0
LINE
  5
590
100
AcDbEntity
  8
0
  6
CONTINUOUS
 62
     7
100
AcDbLine
 10
-23.99998474121094
 20
-6.18798828125
 11
-31.99998474121094
 21
-6.18798828125
  0
LINE
  5
591
100
AcDbEntity
  8
0
  6
CONTINUOUS
 62
   190
100
AcDbLine
 10
-23.99998474121094
 20
6.999992370605469
 11
-23.99998474121094
 21
-6.999996185302734
  0
LINE
  5
592
100
AcDbEntity
  8
0
  6
CONTINUOUS
 62
     7
100
AcDbLine
 10
-22.59356358721192
 20
-6.999990558752533
 11
-23.99999591961855
 21
-6.187986458466536
  0
LINE
  5
593
100
AcDbEntity
  8
0
  6
CONTINUOUS
 62
   190
100
AcDbLine
 10
-20.99998474121094
 20
6.999992370605469
 11
-20.99998474121094
 21
-6.999996185302734
  0
LINE
  5
594
100
AcDbEntity
  8
0
  6
CONTINUOUS
 62
     7
100
AcDbLine
 10
-22.59354369699272
 20
6.999986625460629
 11
-23.99996281490044
 21
6.187990154569267
  0
LINE
  5
595
100
AcDbEntity
  8
0
  6
CONTINUOUS
 62
   190
100
AcDbLine
 10
-19.26791295418291
 20
7.999987577601633
 11
-20.99996375397997
 21
6.99998756414046
  0
LINE
  5
596
100
AcDbEntity
  8
0
  6
CONTINUOUS
 62
   190
100
AcDbLine
 10
-10.99998474121094
 20
8
 11
-19.2679443359375
 21
8
  0
LINE
  5
597
100
AcDbEntity
  8
0
  6
CONTINUOUS
 62
   190
100
AcDbLine
 10
-19.26795959472656
 20
8
 11
-19.26795959472656
 21
3.872978210449219
  0
LINE
  5
598
100
AcDbEntity
  8
0
  6
CONTINUOUS
 62
   190
100
AcDbLine
 10
-13.99998474121094
 20
3.87298583984375
 11
-20.99998474121094
 21
3.87298583984375
  0
LINE
  5
599
100
AcDbEntity
  8
0
  6
CONTINUOUS
 62
   190
100
AcDbLine
 10
-20.99996533777383
 20
3.872977599572224
 11
-13.99997928699652
 21
-3.87297234292
  0
LINE
  5
59a
100
AcDbEntity
  8
0
  6
CONTINUOUS
 62
   190
100
AcDbLine
 10
-20.99998640209827
 20
-3.872948280633917
 11
-13.99999523597625
 21
3.873007322327313
  0
LINE
  5
59b
100
AcDbEntity
  8
0
  6
CONTINUOUS
 62
   190
100
AcDbLine
 10
-13.99998474121094
 20
3.872978210449219
 11
-13.99998474121094
 21
-3.872982025146484
  0
LINE
  5
59c
100
AcDbEntity
  8
0
  6
CONTINUOUS
 62
   190
100
AcDbLine
 10
-13.99998474121094
 20
-3.87298583984375
 11
-20.99998474121094
 21
-3.87298583984375
  0
LINE
  5
59d
100
AcDbEntity
  8
0
  6
CONTINUOUS
 62
   190
100
AcDbLine
 10
-19.26795959472656
 20
-3.872982025146484
 11
-19.26795959472656
 21
-8
  0
LINE
  5
59e
100
AcDbEntity
  8
0
  6
CONTINUOUS
 62
   190
100
AcDbLine
 10
-19.26791404479895
 20
-8.000019984181705
 11
-20.99999127359381
 21
-7.000004711931263
  0
LINE
  5
59f
100
AcDbEntity
  8
0
  6
CONTINUOUS
 62
   190
100
AcDbLine
 10
-10.99998474121094
 20
-8
 11
-19.2679443359375
 21
-8
  0
LINE
  5
5a0
100
AcDbEntity
  8
0
  6
CONTINUOUS
 62
     7
100
AcDbLine
 10
-10.99999703005102
 20
-14.60003112424567
 11
-9.96226474386112
 21
-15.63776341043557
  0
LINE
  5
5a1
100
AcDbEntity
  8
0
  6
CONTINUOUS
 62
     7
100
AcDbLine
 10
-10.99998474121094
 20
14.56157684326172
 11
-10.99998474121094
 21
-14.59999847412109
  0
LINE
  5
5a2
100
AcDbEntity
  8
0
  6
CONTINUOUS
 62
     7
100
AcDbLine
 10
-10
 20
15.63636016845703
 11
-10
 21
-15.60000228881836
  0
LINE
  5
5a3
100
AcDbEntity
  8
0
  6
CONTINUOUS
 62
     7
100
AcDbLine
 10
1.296356654245656e-006
 20
-16.00000902731439
 11
-9.962255801470532
 21
-15.63774473109499
  0
LINE
  5
5a4
100
AcDbEntity
  8
0
  6
CONTINUOUS
 62
     7
100
AcDbLine
 10
-10.0006267553066
 20
15.63634399326941
 11
-10.99998357415943
 21
14.5615639605095
  0
LINE
  5
5a5
100
AcDbEntity
  8
0
  6
CONTINUOUS
 62
     7
100
AcDbLine
 10
-10.00066877305467
 20
15.63642112364797
 11
1.510250771552535e-005
 21
16.00008201318774
  0
LINE
  5
5a6
100
AcDbEntity
  8
0
  6
CONTINUOUS
 62
     7
100
AcDbLine
 10
25.49998474121094
 20
29
 11
0.3000030517578125
 21
29
  0
LINE
  5
5a7
100
AcDbEntity
  8
0
  6
CENTER
 62
     3
100
AcDbLine
 10
12.99998474121094
 20
30.99999237060547
 11
12.99998474121094
 21
0.8013763427734375
  0
LINE
  5
5a8
100
AcDbEntity
  8
0
  6
CONTINUOUS
 62
     7
100
AcDbLine
 10
25.99998474121094
 20
29.25
 11
25.99998474121094
 21
-28.4999942779541
  0
LINE
  5
5a9
100
AcDbEntity
  8
0
  6
DASHED
 62
     7
100
AcDbLine
 10
22.09999084472656
 20
29.24999237060547
 11
22.09999084472656
 21
28.24999237060547
  0
LINE
  5
5aa
100
AcDbEntity
  8
0
  6
DASHED
 62
     7
100
AcDbLine
 10
22.09999084472656
 20
28.25
 11
3.900009155273438
 21
28.25
  0
LINE
  5
5ab
100
AcDbEntity
  8
0
  6
DASHED
 62
     7
100
AcDbLine
 10
19.37643084584768
 20
18.24999944196194
 11
19.70006742756186
 21
28.24998609429009
  0
LINE
  5
5ac
100
AcDbEntity
  8
0
  6
DASHED
 62
     7
100
AcDbLine
 10
19.70004121121212
 20
28.24995224883124
 11
18.70004013250833
 21
27.24995117012745
  0
LINE
  5
5ad
100
AcDbEntity
  8
0
  6
DASHED
 62
     7
100
AcDbLine
 10
18.70005669727751
 20
27.24998399383873
 11
18.39323651092798
 21
18.24997099727959
  0
LINE
  5
5ae
100
AcDbEntity
  8
0
  6
DASHED
 62
     7
100
AcDbLine
 10
18.69999694824219
 20
27.24996948242188
 11
7.300003051757813
 21
27.24996948242188
  0
LINE
  5
5af
100
AcDbEntity
  8
0
  6
DASHED
 62
     7
100
AcDbLine
 10
7.300008144277498
 20
27.24990666305542
 11
6.300007065573709
 21
28.24990774175921
  0
LINE
  5
5b0
100
AcDbEntity
  8
0
  6
DASHED
 62
     7
100
AcDbLine
 10
7.60672510375052
 20
18.24997662630194
 11
7.299907108633014
 21
27.24997061299569
  0
LINE
  5
5b1
100
AcDbEntity
  8
0
  6
DASHED
 62
     7
100
AcDbLine
 10
6.300030885212812
 20
28.24998216363352
 11
6.623669508502348
 21
18.24999176068397
  0
LINE
  5
5b2
100
AcDbEntity
  8
0
  6
DASHED
 62
     7
100
AcDbLine
 10
3.899993896484375
 20
29.24999237060547
 11
3.899993896484375
 21
28.24999237060547
  0
LINE
  5
5b3
100
AcDbEntity
  8
0
  6
CONTINUOUS
 62
     7
100
AcDbLine
 10
0
 20
28.69998931884766
 11
0
 21
-28.69999122619629
  0
LINE
  5
5b4
100
AcDbEntity
  8
0
  6
CONTINUOUS
 62
     7
100
AcDbLine
 10
107.9999847412109
 20
23.83999633789063
 11
25.99998474121094
 21
23.83999633789063
  0
LINE
  5
5b5
100
AcDbEntity
  8
0
  6
CENTER
 62
     3
100
AcDbLine
 10
107.9999847412109
 20
20.25
 11
25.99998474121094
 21
20.25
  0
LINE
  5
5b6
100
AcDbEntity
  8
0
  6
CONTINUOUS
 62
     7
100
AcDbLine
 10
107.9999847412109
 20
16.66000366210938
 11
25.99998474121094
 21
16.66000366210938
  0
LINE
  5
5b7
100
AcDbEntity
  8
0
  6
CENTER
 62
     3
100
AcDbLine
 10
5.999984741210938
 20
7.999969482421875
 11
19.99998474121094
 21
7.999969482421875
  0
LINE
  5
5b8
100
AcDbEntity
  8
0
  6
CONTINUOUS
 62
     7
100
AcDbLine
 10
8.100997924804688
 20
8.999969482421875
 11
9.126998901367188
 21
8.999969482421875
  0
LINE
  5
5b9
100
AcDbEntity
  8
0
  6
CONTINUOUS
 62
     7
100
AcDbLine
 10
9.684502150077982
 20
11.74267458746965
 11
10.19750273699645
 21
10.85413173440712
  0
LINE
  5
5ba
100
AcDbEntity
  8
0
  6
CONTINUOUS
 62
     7
100
AcDbLine
 10
11.41654250233867
 20
12.74263356879377
 11
11.92954308925714
 21
11.85409071573124
  0
LINE
  5
5bb
100
AcDbEntity
  8
0
  6
CONTINUOUS
 62
     7
100
AcDbLine
 10
14.58347534284587
 20
12.74264795653775
 11
14.07047489707259
 21
11.854105021985
  0
LINE
  5
5bc
100
AcDbEntity
  8
0
  6
CONTINUOUS
 62
     7
100
AcDbLine
 10
16.31547872912493
 20
11.74264020704818
 11
15.80247828335164
 21
10.85409727249543
  0
LINE
  5
5bd
100
AcDbEntity
  8
0
  6
CONTINUOUS
 62
     7
100
AcDbLine
 10
17.89900207519531
 20
8.999984741210938
 11
16.87300109863281
 21
8.999984741210938
  0
LINE
  5
5be
100
AcDbEntity
  8
0
  6
CONTINUOUS
 62
     7
100
AcDbLine
 10
17.89900207519531
 20
7.000015258789063
 11
16.87300109863281
 21
7.000015258789063
  0
LINE
  5
5bf
100
AcDbEntity
  8
0
  6
CONTINUOUS
 62
     7
100
AcDbLine
 10
16.31555987472697
 20
4.257330709677348
 11
15.80255928780851
 21
5.145873562739884
  0
LINE
  5
5c0
100
AcDbEntity
  8
0
  6
CONTINUOUS
 62
     7
100
AcDbLine
 10
14.58353478125828
 20
3.257345299357
 11
14.07053419433981
 21
4.145888152419537
  0
LINE
  5
5c1
100
AcDbEntity
  8
0
  6
CONTINUOUS
 62
     7
100
AcDbLine
 10
11.41651339974115
 20
3.257298491222679
 11
11.92951384551444
 21
4.145841425775428
  0
LINE
  5
5c2
100
AcDbEntity
  8
0
  6
CONTINUOUS
 62
     7
100
AcDbLine
 10
9.684469977488066
 20
4.257294116827165
 11
10.19747042326135
 21
5.145837051379914
  0
LINE
  5
5c3
100
AcDbEntity
  8
0
  6
CONTINUOUS
 62
     7
100
AcDbLine
 10
8.100997924804688
 20
6.999969482421875
 11
9.126998901367188
 21
6.999969482421875
  0
LINE
  5
5c4
100
AcDbEntity
  8
0
  6
CONTINUOUS
 62
     7
100
AcDbLine
 10
14.14997863769531
 20
9.991828918457031
 11
11.84999084472656
 21
9.991828918457031
  0
LINE
  5
5c5
100
AcDbEntity
  8
0
  6
CONTINUOUS
 62
     7
100
AcDbLine
 10
14.14996128590282
 20
9.991819239712893
 11
15.29995782779218
 21
7.999955290609501
  0
LINE
  5
5c6
100
AcDbEntity
  8
0
  6
CONTINUOUS
 62
     7
100
AcDbLine
 10
14.1499487809912
 20
6.008121631705054
 11
15.29993769351909
 21
7.999972366290397
  0
LINE
  5
5c7
100
AcDbEntity
  8
0
  6
CONTINUOUS
 62
     7
100
AcDbLine
 10
11.84999084472656
 20
6.008110046386719
 11
14.14997863769531
 21
6.008110046386719
  0
LINE
  5
5c8
100
AcDbEntity
  8
0
  6
CONTINUOUS
 62
     7
100
AcDbLine
 10
10.69999459312767
 20
7.999956312210412
 11
11.84998732033629
 21
6.008098970366046
  0
LINE
  5
5c9
100
AcDbEntity
  8
0
  6
CONTINUOUS
 62
     7
100
AcDbLine
 10
11.84999060576238
 20
9.991841594202096
 11
10.69999406387302
 21
7.999977645098705
  0
LINE
  5
5ca
100
AcDbEntity
  8
0
  6
CONTINUOUS
 62
     7
100
AcDbLine
 10
25.49998474121094
 20
-28.99998474121094
 11
0.3000030517578125
 21
-28.99998474121094
  0
LINE
  5
5cb
100
AcDbEntity
  8
0
  6
CONTINUOUS
 62
     7
100
AcDbLine
 10
107.9999847412109
 20
-23.84001159667969
 11
25.99998474121094
 21
-23.84001159667969
  0
LINE
  5
5cc
100
AcDbEntity
  8
0
  6
CENTER
 62
     3
100
AcDbLine
 10
107.9999847412109
 20
-20.25002288818359
 11
25.99998474121094
 21
-20.25002288818359
  0
LINE
  5
5cd
100
AcDbEntity
  8
0
  6
CONTINUOUS
 62
     7
100
AcDbLine
 10
107.9999847412109
 20
-16.65999603271484
 11
25.99998474121094
 21
-16.65999603271484
  0
LINE
  5
5ce
100
AcDbEntity
  8
0
  6
CONTINUOUS
 62
     7
100
AcDbLine
 10
133.6999969482422
 20
29
 11
108.4999847412109
 21
29
  0
LINE
  5
5cf
100
AcDbEntity
  8
0
  6
CONTINUOUS
 62
     7
100
AcDbLine
 10
107.9999847412109
 20
29.25
 11
107.9999847412109
 21
-28.4999942779541
  0
LINE
  5
5d0
100
AcDbEntity
  8
0
  6
DASHED
 62
     7
100
AcDbLine
 10
111.8999786376953
 20
29.24999237060547
 11
111.8999786376953
 21
28.24999237060547
  0
LINE
  5
5d1
100
AcDbEntity
  8
0
  6
DASHED
 62
     7
100
AcDbLine
 10
130.1000213623047
 20
28.25
 11
111.9000091552734
 21
28.25
  0
LINE
  5
5d2
100
AcDbEntity
  8
0
  6
DASHED
 62
     7
100
AcDbLine
 10
114.3000192261751
 20
28.24998012858047
 11
114.6236577569192
 21
18.2499925851567
  0
LINE
  5
5d3
100
AcDbEntity
  8
0
  6
DASHED
 62
     7
100
AcDbLine
 10
115.2999371751047
 20
27.24987024817831
 11
114.2999360964009
 21
28.2498713268821
  0
LINE
  5
5d4
100
AcDbEntity
  8
0
  6
DASHED
 62
     7
100
AcDbLine
 10
126.6999969482422
 20
27.24996948242188
 11
115.2999725341797
 21
27.24996948242188
  0
LINE
  5
5d5
100
AcDbEntity
  8
0
  6
DASHED
 62
     7
100
AcDbLine
 10
115.6067225726817
 20
18.2499812646418
 11
115.2999041876512
 21
27.24998668878303
  0
LINE
  5
5d6
100
AcDbEntity
  8
0
  6
CENTER
 62
     3
100
AcDbLine
 10
120.9999847412109
 20
30.99999237060547
 11
120.9999847412109
 21
0.8013763427734375
  0
LINE
  5
5d7
100
AcDbEntity
  8
0
  6
DASHED
 62
     7
100
AcDbLine
 10
130.0999908447266
 20
29.24999237060547
 11
130.0999908447266
 21
28.24999237060547
  0
LINE
  5
5d8
100
AcDbEntity
  8
0
  6
CONTINUOUS
 62
     7
100
AcDbLine
 10
133.9999847412109
 20
29.00002098083496
 11
133.9999847412109
 21
-28.99997901916504
  0
LINE
  5
5d9
100
AcDbEntity
  8
0
  6
DASHED
 62
     7
100
AcDbLine
 10
127.6999661959418
 20
28.24998731500919
 11
126.699965117238
 21
27.2499862363054
  0
LINE
  5
5da
100
AcDbEntity
  8
0
  6
DASHED
 62
     7
100
AcDbLine
 10
126.6999715263226
 20
27.24999993696184
 11
126.3931518598597
 21
18.25000219033259
  0
LINE
  5
5db
100
AcDbEntity
  8
0
  6
DASHED
 62
     7
100
AcDbLine
 10
127.3763746620832
 20
18.25000264256583
 11
127.7000115522802
 21
28.24999882664663
  0
LINE
  5
5dc
100
AcDbEntity
  8
0
  6
CENTER
 62
     3
100
AcDbLine
 10
113.9999847412109
 20
7.999969482421875
 11
127.9999847412109
 21
7.999969482421875
  0
LINE
  5
5dd
100
AcDbEntity
  8
0
  6
CONTINUOUS
 62
     7
100
AcDbLine
 10
122.5834662494065
 20
12.74265837336511
 11
122.0704658036332
 21
11.85411543881236
  0
LINE
  5
5de
100
AcDbEntity
  8
0
  6
CONTINUOUS
 62
     7
100
AcDbLine
 10
119.4165659340714
 20
12.74266789587004
 11
119.9295665209899
 21
11.85412504280751
  0
LINE
  5
5df
100
AcDbEntity
  8
0
  6
CONTINUOUS
 62
     7
100
AcDbLine
 10
117.6845670733582
 20
11.74271525037506
 11
118.1975676602766
 21
10.85417239731252
  0
LINE
  5
5e0
100
AcDbEntity
  8
0
  6
CONTINUOUS
 62
     7
100
AcDbLine
 10
116.1009979248047
 20
8.999969482421875
 11
117.1269989013672
 21
8.999969482421875
  0
LINE
  5
5e1
100
AcDbEntity
  8
0
  6
CONTINUOUS
 62
     7
100
AcDbLine
 10
116.1009979248047
 20
6.999969482421875
 11
117.1269989013672
 21
6.999969482421875
  0
LINE
  5
5e2
100
AcDbEntity
  8
0
  6
CONTINUOUS
 62
     7
100
AcDbLine
 10
117.6844416919679
 20
4.257297994874861
 11
118.1974421377412
 21
5.145840929427607
  0
LINE
  5
5e3
100
AcDbEntity
  8
0
  6
CONTINUOUS
 62
     7
100
AcDbLine
 10
119.4165067840204
 20
3.257307477538681
 11
119.9295072297937
 21
4.145850412091427
  0
LINE
  5
5e4
100
AcDbEntity
  8
0
  6
CONTINUOUS
 62
     7
100
AcDbLine
 10
122.5835777199056
 20
3.257382079091961
 11
122.0705771329871
 21
4.145924932154493
  0
LINE
  5
5e5
100
AcDbEntity
  8
0
  6
CONTINUOUS
 62
     7
100
AcDbLine
 10
124.3156436752563
 20
4.257355842370828
 11
123.8026430883379
 21
5.145898695433367
  0
LINE
  5
5e6
100
AcDbEntity
  8
0
  6
CONTINUOUS
 62
     7
100
AcDbLine
 10
125.8990020751953
 20
7.000015258789063
 11
124.8730010986328
 21
7.000015258789063
  0
LINE
  5
5e7
100
AcDbEntity
  8
0
  6
CONTINUOUS
 62
     7
100
AcDbLine
 10
124.3154820242787
 20
11.74264347131875
 11
123.8024815785054
 21
10.85410053676601
  0
LINE
  5
5e8
100
AcDbEntity
  8
0
  6
CONTINUOUS
 62
     7
100
AcDbLine
 10
125.8990020751953
 20
8.999984741210938
 11
124.8730010986328
 21
8.999984741210938
  0
LINE
  5
5e9
100
AcDbEntity
  8
0
  6
CONTINUOUS
 62
     7
100
AcDbLine
 10
122.1498852619285
 20
9.991804640957582
 11
123.2998894331793
 21
7.999927477336144
  0
LINE
  5
5ea
100
AcDbEntity
  8
0
  6
CONTINUOUS
 62
     7
100
AcDbLine
 10
122.1499786376953
 20
9.991828918457031
 11
119.8499908447266
 21
9.991828918457031
  0
LINE
  5
5eb
100
AcDbEntity
  8
0
  6
CONTINUOUS
 62
     7
100
AcDbLine
 10
119.8499713526385
 20
9.991841035787502
 11
118.6999748107491
 21
7.999977086684112
  0
LINE
  5
5ec
100
AcDbEntity
  8
0
  6
CONTINUOUS
 62
     7
100
AcDbLine
 10
118.7000203519559
 20
7.999982858137507
 11
119.8500168938452
 21
6.00811890903411
  0
LINE
  5
5ed
100
AcDbEntity
  8
0
  6
CONTINUOUS
 62
     7
100
AcDbLine
 10
122.1499408738119
 20
6.008132142050599
 11
123.2999297863399
 21
7.99998287663594
  0
LINE
  5
5ee
100
AcDbEntity
  8
0
  6
CONTINUOUS
 62
     7
100
AcDbLine
 10
119.8499908447266
 20
6.008110046386719
 11
122.1499786376953
 21
6.008110046386719
  0
LINE
  5
5ef
100
AcDbEntity
  8
0
  6
CONTINUOUS
 62
     7
100
AcDbLine
 10
133.6999969482422
 20
-28.99998474121094
 11
108.4999847412109
 21
-28.99998474121094
  0
LINE
  5
5f0
100
AcDbEntity
  8
0
  6
CENTER
 62
     3
100
AcDbLine
 10
-54.77499771118164
 20
0
 11
144.9456787109375
 21
0
  0
LINE
  5
5f1
100
AcDbEntity
  8
0
  6
CONTINUOUS
 62
     7
100
AcDbLine
 10
142.7527790929047
 20
-10.98492569980027
 11
134.6959715426696
 21
-8.222120924123594
  0
LINE
  5
5f2
100
AcDbEntity
  8
0
  6
CONTINUOUS
 62
     7
100
AcDbLine
 10
142.6655387862626
 20
-10.85590656497342
 11
140.8606267407778
 21
-8.922072962564656
  0
LINE
  5
5f3
100
AcDbEntity
  8
0
  6
CONTINUOUS
 62
     7
100
AcDbLine
 10
139.9999847412109
 20
6.738668441772461
 11
139.9999847412109
 21
-6.738672256469727
  0
LINE
  5
5f4
100
AcDbEntity
  8
0
  6
CONTINUOUS
 62
     7
100
AcDbLine
 10
142.752770872391
 20
10.98492572518234
 11
134.6959471170392
 21
8.22212116562141
  0
LINE
  5
5f5
100
AcDbEntity
  8
0
  6
CONTINUOUS
 62
     7
100
AcDbLine
 10
142.6655431279609
 20
10.85589668114542
 11
140.8606245734912
 21
8.92205871765124
  0
LINE
  5
5f6
100
AcDbEntity
  8
0
  6
CONTINUOUS
 62
     7
100
AcDbLine
 10
142.8000030517578
 20
11.19707298278809
 11
142.8000030517578
 21
28.99999618530273
  0
LINE
  5
5f7
100
AcDbEntity
  8
0
  6
CENTER
 62
     3
100
AcDbLine
 10
140.2001037597656
 20
21.00002098083496
 11
148.5536499023438
 21
21.00002098083496
  0
LINE
  5
5f8
100
AcDbEntity
  8
0
  6
CONTINUOUS
 62
     7
100
AcDbLine
 10
146
 20
29.00002098083496
 11
133.9999847412109
 21
29.00002098083496
  0
LINE
  5
5f9
100
AcDbEntity
  8
0
  6
DASHED
 62
     7
100
AcDbLine
 10
142.8000030517578
 20
25.50002098083496
 11
146
 21
25.50002098083496
  0
LINE
  5
5fa
100
AcDbEntity
  8
0
  6
CONTINUOUS
 62
     7
100
AcDbLine
 10
145.9999847412109
 20
11.69318008422852
 11
145.9999847412109
 21
28.99999618530273
  0
LINE
  5
5fb
100
AcDbEntity
  8
0
  6
DASHED
 62
     7
100
AcDbLine
 10
142.8000030517578
 20
16.50002098083496
 11
146
 21
16.50002098083496
  0
LINE
  5
5fc
100
AcDbEntity
  8
0
  6
CONTINUOUS
 62
     7
100
AcDbLine
 10
143.1160524399732
 20
8.296316691705329
 11
145.4942948876113
 21
10.52591959357596
  0
LINE
  5
5fd
100
AcDbEntity
  8
0
  6
CONTINUOUS
 62
     7
100
AcDbLine
 10
142.8000030517578
 20
7.566769599914551
 11
142.8000030517578
 21
-7.566775321960449
  0
LINE
  5
5fe
100
AcDbEntity
  8
0
  6
CONTINUOUS
 62
     7
100
AcDbLine
 10
143.1160336292155
 20
-8.296338011751274
 11
145.4942745741029
 21
-10.52594251655441
  0
LINE
  5
5ff
100
AcDbEntity
  8
0
  6
CONTINUOUS
 62
     7
100
AcDbLine
 10
145.9999847412109
 20
-11.69318771362305
 11
145.9999847412109
 21
-29.00000381469727
  0
LINE
  5
600
100
AcDbEntity
  8
0
  6
CONTINUOUS
 62
     7
100
AcDbLine
 10
142.8000030517578
 20
-11.19707679748535
 11
142.8000030517578
 21
-29.00000381469727
  0
LINE
  5
601
100
AcDbEntity
  8
0
  6
DASHED
 62
     7
100
AcDbLine
 10
142.7999877929688
 20
-16.49997901916504
 11
145.9999847412109
 21
-16.49997901916504
  0
LINE
  5
602
100
AcDbEntity
  8
0
  6
CENTER
 62
     3
100
AcDbLine
 10
140.2001037597656
 20
-20.99997901916504
 11
148.7332763671875
 21
-20.99997901916504
  0
LINE
  5
603
100
AcDbEntity
  8
0
  6
DASHED
 62
     7
100
AcDbLine
 10
142.7999877929688
 20
-25.49997901916504
 11
145.9999847412109
 21
-25.49997901916504
  0
LINE
  5
604
100
AcDbEntity
  8
0
  6
CONTINUOUS
 62
     7
100
AcDbLine
 10
145.9999847412109
 20
-28.99997901916504
 11
133.9999847412109
 21
-28.99997901916504
  0
LINE
  5
605
100
AcDbEntity
  8
0
  6
CONTINUOUS
 62
     7
100
AcDbLine
 10
0.4999847412109375
 20
29.25
 11
25.99998474121094
 21
29.25
  0
LINE
  5
606
100
AcDbEntity
  8
0
  6
CONTINUOUS
 62
     7
100
AcDbLine
 10
0.4999847412109375
 20
29.25
 11
0.4999847412109375
 21
29
  0
LINE
  5
607
100
AcDbEntity
  8
0
  6
CONTINUOUS
 62
     7
100
AcDbLine
 10
133.4999847412109
 20
29.25
 11
133.4999847412109
 21
-28.4999942779541
  0
LINE
  5
608
100
AcDbEntity
  8
0
  6
CONTINUOUS
 62
     7
100
AcDbLine
 10
107.9999847412109
 20
29.25
 11
133.4999847412109
 21
29.25
  0
ARC
  5
609
100
AcDbEntity
  8
0
  6
CONTINUOUS
 62
     7
100
AcDbCircle
 10
-34.08851623535156
 20
9.526275634765625
 40
5.622808456420898
100
AcDbArc
 50
154.3841181872539
 51
214.3842564606901
  0
ARC
  5
60a
100
AcDbEntity
  8
0
  6
CONTINUOUS
 62
     7
100
AcDbCircle
 10
-37.91148376464844
 20
9.526275634765625
 40
5.622808456420898
100
AcDbArc
 50
325.6157895294027
 51
25.61572289716239
  0
ARC
  5
60b
100
AcDbEntity
  8
0
  6
CONTINUOUS
 62
     7
100
AcDbCircle
 10
-18.69380187988281
 20
0
 40
21.01751327514648
100
AcDbArc
 50
162.412008348985
 51
197.5879197066583
  0
ARC
  5
60c
100
AcDbEntity
  8
0
  6
CONTINUOUS
 62
     7
100
AcDbCircle
 10
-53.30619812011719
 20
0
 40
21.01751327514648
100
AcDbArc
 50
342.4120306607861
 51
17.58790103732292
  0
ARC
  5
60d
100
AcDbEntity
  8
0
  6
CONTINUOUS
 62
     7
100
AcDbCircle
 10
-34.08851623535156
 20
-9.526275634765625
 40
5.622808456420898
100
AcDbArc
 50
145.6157125760882
 51
205.6157962080111
  0
ARC
  5
60e
100
AcDbEntity
  8
0
  6
CONTINUOUS
 62
     7
100
AcDbCircle
 10
-37.91148376464844
 20
-9.526275634765625
 40
5.622808456420898
100
AcDbArc
 50
334.384222461325
 51
34.38421047059804
  0
ARC
  5
60f
100
AcDbEntity
  8
0
  6
CONTINUOUS
 62
   190
100
AcDbCircle
 10
-18.24996948242188
 20
0
 40
5.749997615814209
100
AcDbArc
 50
317.6573623915306
 51
42.34258296695681
  0
ARC
  5
610
100
AcDbEntity
  8
0
  6
CONTINUOUS
 62
     7
100
AcDbCircle
 10
0.300018310546875
 20
28.69998168945313
 40
0.2999999225139618
100
AcDbArc
 50
89.99998201391065
 51
179.9999640278216
  0
ARC
  5
611
100
AcDbEntity
  8
0
  6
CONTINUOUS
 62
     7
100
AcDbCircle
 10
25.49998474121094
 20
28.49996948242188
 40
0.4999998807907105
100
AcDbArc
 50
359.9999453584874
 51
89.99998201391075
  0
CIRCLE
  5
612
100
AcDbEntity
  8
0
  6
CONTINUOUS
 62
     7
100
AcDbCircle
 10
12.99998474121094
 20
7.999969482421875
 40
5.5
  0
CIRCLE
  5
613
100
AcDbEntity
  8
0
  6
CONTINUOUS
 62
     7
100
AcDbCircle
 10
12.99998474121094
 20
7.999969482421875
 40
5
  0
ARC
  5
614
100
AcDbEntity
  8
0
  6
CONTINUOUS
 62
     7
100
AcDbCircle
 10
12.99998474121094
 20
7.999969482421875
 40
4
100
AcDbArc
 50
134.4775591720084
 51
165.5225174781439
  0
ARC
  5
615
100
AcDbEntity
  8
0
  6
CONTINUOUS
 62
     7
100
AcDbCircle
 10
12.99998474121094
 20
7.999969482421875
 40
4
100
AcDbArc
 50
74.47796731370649
 51
105.5229392802203
  0
ARC
  5
616
100
AcDbEntity
  8
0
  6
CONTINUOUS
 62
     7
100
AcDbCircle
 10
12.99998474121094
 20
7.999969482421875
 40
4
100
AcDbArc
 50
14.47771463460236
 51
45.52311861058119
  0
ARC
  5
617
100
AcDbEntity
  8
0
  6
CONTINUOUS
 62
     7
100
AcDbCircle
 10
12.99998474121094
 20
7.999969482421875
 40
4
100
AcDbArc
 50
314.4775780687149
 51
345.5231323088554
  0
ARC
  5
618
100
AcDbEntity
  8
0
  6
CONTINUOUS
 62
     7
100
AcDbCircle
 10
12.99998474121094
 20
7.999969482421875
 40
4
100
AcDbArc
 50
254.4775115122656
 51
285.5229342712647
  0
ARC
  5
619
100
AcDbEntity
  8
0
  6
CONTINUOUS
 62
     7
100
AcDbCircle
 10
12.99998474121094
 20
7.999969482421875
 40
4
100
AcDbArc
 50
194.4774825218568
 51
225.5225227902624
  0
CIRCLE
  5
61a
100
AcDbEntity
  8
0
  6
CONTINUOUS
 62
     7
100
AcDbCircle
 10
12.99998474121094
 20
7.999980926513672
 40
1.991851329803467
  0
CIRCLE
  5
61b
100
AcDbEntity
  8
0
  6
CONTINUOUS
 62
     7
100
AcDbCircle
 10
12.99998474121094
 20
7.999969482421875
 40
2.299999952316284
  0
CIRCLE
  5
61c
100
AcDbEntity
  8
0
  6
CONTINUOUS
 62
     7
100
AcDbCircle
 10
12.99998474121094
 20
7.999969482421875
 40
2.5
  0
ARC
  5
61d
100
AcDbEntity
  8
0
  6
CONTINUOUS
 62
     7
100
AcDbCircle
 10
0.300018310546875
 20
-28.69999694824219
 40
0.2999999225139618
100
AcDbArc
 50
179.9999640278216
 51
269.9999460417327
  0
ARC
  5
61e
100
AcDbEntity
  8
0
  6
CONTINUOUS
 62
     7
100
AcDbCircle
 10
25.49998474121094
 20
-28.49998474121094
 40
0.4999998807907105
100
AcDbArc
 50
269.9999906653333
 51
359.9999658490549
  0
ARC
  5
61f
100
AcDbEntity
  8
0
  6
CONTINUOUS
 62
     7
100
AcDbCircle
 10
108.4999847412109
 20
28.49996948242188
 40
0.4999998807907105
100
AcDbArc
 50
89.99998201390993
 51
179.9999640278215
  0
ARC
  5
620
100
AcDbEntity
  8
0
  6
CONTINUOUS
 62
     7
100
AcDbCircle
 10
133.6999664306641
 20
28.69998168945313
 40
0.2999999225139618
100
AcDbArc
 50
359.9999453584874
 51
89.99998201391283
  0
CIRCLE
  5
621
100
AcDbEntity
  8
0
  6
CONTINUOUS
 62
     7
100
AcDbCircle
 10
120.9999847412109
 20
7.999969482421875
 40
5.5
  0
CIRCLE
  5
622
100
AcDbEntity
  8
0
  6
CONTINUOUS
 62
     7
100
AcDbCircle
 10
120.9999847412109
 20
7.999969482421875
 40
5
  0
ARC
  5
623
100
AcDbEntity
  8
0
  6
CONTINUOUS
 62
     7
100
AcDbCircle
 10
120.9999847412109
 20
7.999969482421875
 40
4
100
AcDbArc
 50
74.47796731370657
 51
105.5229392802203
  0
ARC
  5
624
100
AcDbEntity
  8
0
  6
CONTINUOUS
 62
     7
100
AcDbCircle
 10
120.9999847412109
 20
7.999969482421875
 40
4
100
AcDbArc
 50
134.4775591720084
 51
165.5225174781438
  0
ARC
  5
625
100
AcDbEntity
  8
0
  6
CONTINUOUS
 62
     7
100
AcDbCircle
 10
120.9999847412109
 20
7.999969482421875
 40
4
100
AcDbArc
 50
194.4774825218569
 51
225.5225227902624
  0
ARC
  5
626
100
AcDbEntity
  8
0
  6
CONTINUOUS
 62
     7
100
AcDbCircle
 10
120.9999847412109
 20
7.999969482421875
 40
4
100
AcDbArc
 50
254.4775115122655
 51
285.5229342712648
  0
ARC
  5
627
100
AcDbEntity
  8
0
  6
CONTINUOUS
 62
     7
100
AcDbCircle
 10
120.9999847412109
 20
7.999969482421875
 40
4
100
AcDbArc
 50
314.4775780687148
 51
345.5231323088554
  0
ARC
  5
628
100
AcDbEntity
  8
0
  6
CONTINUOUS
 62
     7
100
AcDbCircle
 10
120.9999847412109
 20
7.999969482421875
 40
4
100
AcDbArc
 50
14.47771463460238
 51
45.5231186105812
  0
CIRCLE
  5
629
100
AcDbEntity
  8
0
  6
CONTINUOUS
 62
     7
100
AcDbCircle
 10
120.9999847412109
 20
7.999969482421875
 40
2.5
  0
CIRCLE
  5
62a
100
AcDbEntity
  8
0
  6
CONTINUOUS
 62
     7
100
AcDbCircle
 10
120.9999847412109
 20
7.999969482421875
 40
2.299999952316284
  0
CIRCLE
  5
62b
100
AcDbEntity
  8
0
  6
CONTINUOUS
 62
     7
100
AcDbCircle
 10
120.9999847412109
 20
7.999980926513672
 40
1.991851329803467
  0
ARC
  5
62c
100
AcDbEntity
  8
0
  6
CONTINUOUS
 62
     7
100
AcDbCircle
 10
133.6999664306641
 20
-28.69999694824219
 40
0.2999999225139618
100
AcDbArc
 50
269.9999906653339
 51
359.9999658490549
  0
ARC
  5
62d
100
AcDbEntity
  8
0
  6
CONTINUOUS
 62
     7
100
AcDbCircle
 10
108.4999847412109
 20
-28.49998474121094
 40
0.4999998807907105
100
AcDbArc
 50
179.9999640278215
 51
269.9999460417321
  0
ARC
  5
62e
100
AcDbEntity
  8
0
  6
CONTINUOUS
 62
     7
100
AcDbCircle
 10
134.9999847412109
 20
-7.269454956054688
 40
0.9999997019767761
100
AcDbArc
 50
180.000005008957
 51
252.2997020529408
  0
ARC
  5
62f
100
AcDbEntity
  8
0
  6
CONTINUOUS
 62
     7
100
AcDbCircle
 10
143.1999816894531
 20
-6.738673210144043
 40
3.199999809265137
100
AcDbArc
 50
180.000005008957
 51
223.025115119295
  0
ARC
  5
630
100
AcDbEntity
  8
0
  6
CONTINUOUS
 62
     7
100
AcDbCircle
 10
134.9999847412109
 20
7.269454956054688
 40
0.9999997019767761
100
AcDbArc
 50
107.7003216253504
 51
180.000005008957
  0
ARC
  5
631
100
AcDbEntity
  8
0
  6
CONTINUOUS
 62
     7
100
AcDbCircle
 10
143.1999969482422
 20
6.738667488098145
 40
3.199999809265137
100
AcDbArc
 50
136.9748675778618
 51
179.9999776881997
  0
ARC
  5
632
100
AcDbEntity
  8
0
  6
CONTINUOUS
 62
     7
100
AcDbCircle
 10
144.3999938964844
 20
11.69318008422852
 40
1.600000381469727
100
AcDbArc
 50
313.1523881810438
 51
360
  0
ARC
  5
633
100
AcDbEntity
  8
0
  6
CONTINUOUS
 62
     7
100
AcDbCircle
 10
142.3000030517578
 20
11.19707298278809
 40
0.5
100
AcDbArc
 50
316.9748898896635
 51
359.9999453584874
  0
ARC
  5
634
100
AcDbEntity
  8
0
  6
CONTINUOUS
 62
     7
100
AcDbCircle
 10
143.8000030517578
 20
7.566769599914551
 40
0.9999997019767761
100
AcDbArc
 50
133.1523658692426
 51
179.9999776881997
  0
ARC
  5
635
100
AcDbEntity
  8
0
  6
CONTINUOUS
 62
     7
100
AcDbCircle
 10
143.7999877929688
 20
-7.566775321960449
 40
0.9999997019767761
100
AcDbArc
 50
180.000005008957
 51
226.8476168279142
  0
ARC
  5
636
100
AcDbEntity
  8
0
  6
CONTINUOUS
 62
     7
100
AcDbCircle
 10
144.3999786376953
 20
-11.69318771362305
 40
1.600000381469727
100
AcDbArc
 50
0
 51
46.84761181895694
  0
ARC
  5
637
100
AcDbEntity
  8
0
  6
CONTINUOUS
 62
     7
100
AcDbCircle
 10
142.2999877929688
 20
-11.19707679748535
 40
0.5
100
AcDbArc
 50
6.830189170014174e-005
 51
43.02512377071576
  0
MTEXT
  5
638
100
AcDbEntity
  8
0
  6
CONTINUOUS
 62
     7
100
AcDbMText
 10
30.44643749296665
 20
-9.699999809265137
 40
0.5
 41
34
 71
     7
 72
     1
  1
{\W0.842735;ＢＮ－６１０５－ＦＢ－４０－Ｂ－＊}
  0
ENDBLK
  8
0
  5
639
100
AcDbEntity
100
AcDbBlockEnd
  0
BLOCK
  8
0
  5
63a
100
AcDbEntity
100
AcDbBlockBegin
  2
KOZU0006
 70
    64
 10
0
 20
0
  0
POINT
  5
63b
100
AcDbEntity
  8
0
  6
CONTINUOUS
 62
     7
100
AcDbPoint
 10
0
 20
0
  0
LINE
  5
63c
100
AcDbEntity
  8
0
  6
CONTINUOUS
 62
     7
100
AcDbLine
 10
0
 20
-28.69998168945313
 11
0
 21
28.69999694824219
  0
LINE
  5
63d
100
AcDbEntity
  8
0
  6
CONTINUOUS
 62
     7
100
AcDbLine
 10
-25.50000190734863
 20
29
 11
-0.3000106811523438
 21
29
  0
LINE
  5
63e
100
AcDbEntity
  8
0
  6
CONTINUOUS
 62
     7
100
AcDbLine
 10
-25.50000190734863
 20
-29
 11
-0.3000106811523438
 21
-29
  0
LINE
  5
63f
100
AcDbEntity
  8
0
  6
CONTINUOUS
 62
     7
100
AcDbLine
 10
10.00063581504476
 20
-15.6364595400007
 11
-2.042222962439499e-005
 21
-16.00011942451278
  0
LINE
  5
640
100
AcDbEntity
  8
0
  6
CONTINUOUS
 62
     7
100
AcDbLine
 10
10.00063155840495
 20
-15.63632762352442
 11
10.99996759650443
 21
-14.56156993987781
  0
LINE
  5
641
100
AcDbEntity
  8
0
  6
CONTINUOUS
 62
     7
100
AcDbLine
 10
10
 20
-15.6363525390625
 11
10
 21
15.60001373291016
  0
LINE
  5
642
100
AcDbEntity
  8
0
  6
CONTINUOUS
 62
     7
100
AcDbLine
 10
10.99998474121094
 20
-14.56155395507813
 11
10.99998474121094
 21
14.60000610351563
  0
LINE
  5
643
100
AcDbEntity
  8
0
  6
CONTINUOUS
 62
   190
100
AcDbLine
 10
10.99999046325684
 20
-8
 11
12.49997901916504
 21
-8
  0
LINE
  5
644
100
AcDbEntity
  8
0
  6
CONTINUOUS
 62
     7
100
AcDbLine
 10
12.50003553035453
 20
-8.000047108372836
 11
14.00002837501906
 21
-7.000021361577125
  0
LINE
  5
645
100
AcDbEntity
  8
0
  6
CONTINUOUS
 62
   190
100
AcDbLine
 10
13.99998474121094
 20
-6.999969482421875
 11
32
 21
-6.999969482421875
  0
LINE
  5
646
100
AcDbEntity
  8
0
  6
CONTINUOUS
 62
     7
100
AcDbLine
 10
12.49997297381203
 20
7.999992728182909
 11
13.99998309395495
 21
6.999986017239136
  0
LINE
  5
647
100
AcDbEntity
  8
0
  6
CONTINUOUS
 62
   190
100
AcDbLine
 10
10.99998474121094
 20
8
 11
12.49999046325684
 21
8
  0
LINE
  5
648
100
AcDbEntity
  8
0
  6
CONTINUOUS
 62
     7
100
AcDbLine
 10
11.00000242484762
 20
14.60000415026263
 11
9.96225934906451
 21
15.63774722604574
  0
LINE
  5
649
100
AcDbEntity
  8
0
  6
CONTINUOUS
 62
     7
100
AcDbLine
 10
-3.519008318408901e-005
 20
15.99996922471547
 11
9.962231438188113
 21
15.63770458193408
  0
LINE
  5
64a
100
AcDbEntity
  8
0
  6
CONTINUOUS
 62
   190
100
AcDbLine
 10
13.99998474121094
 20
7
 11
31.99998092651367
 21
7
  0
LINE
  5
64b
100
AcDbEntity
  8
0
  6
CONTINUOUS
 62
   190
100
AcDbLine
 10
19.26795959472656
 20
-6.999969482421875
 11
19.26795959472656
 21
7
  0
LINE
  5
64c
100
AcDbEntity
  8
0
  6
CONTINUOUS
 62
   190
100
AcDbLine
 10
20.99998474121094
 20
-6.999969482421875
 11
20.99998474121094
 21
7.000007629394531
  0
LINE
  5
64d
100
AcDbEntity
  8
0
  6
CONTINUOUS
 62
   190
100
AcDbLine
 10
23.99998474121094
 20
-6.999969482421875
 11
23.99998474121094
 21
7.000007629394531
  0
LINE
  5
64e
100
AcDbEntity
  8
0
  6
CONTINUOUS
 62
     7
100
AcDbLine
 10
22.59356791298183
 20
7.000005680600092
 11
24.00000024538846
 21
6.188001580314094
  0
LINE
  5
64f
100
AcDbEntity
  8
0
  6
CONTINUOUS
 62
     7
100
AcDbLine
 10
23.99998092651367
 20
6.18798828125
 11
31.99998092651367
 21
6.18798828125
  0
LINE
  5
650
100
AcDbEntity
  8
0
  6
CONTINUOUS
 62
     7
100
AcDbLine
 10
22.59352857514516
 20
-6.999990951230538
 11
23.99994438942816
 21
-6.187996387687834
  0
LINE
  5
651
100
AcDbEntity
  8
0
  6
CONTINUOUS
 62
     7
100
AcDbLine
 10
23.99998092651367
 20
-6.18798828125
 11
32
 21
-6.18798828125
  0
LINE
  5
652
100
AcDbEntity
  8
0
  6
CONTINUOUS
 62
     7
100
AcDbLine
 10
32.28867721557617
 20
-11.00001525878906
 11
39.71132278442383
 21
-11.00001525878906
  0
LINE
  5
653
100
AcDbEntity
  8
0
  6
CONTINUOUS
 62
     7
100
AcDbLine
 10
32
 20
10.49998474121094
 11
32
 21
-10.50001525878906
  0
LINE
  5
654
100
AcDbEntity
  8
0
  6
CONTINUOUS
 62
     7
100
AcDbLine
 10
32.00000056257245
 20
-10.49996724688075
 11
32.28867778203455
 21
-10.99997084900265
  0
LINE
  5
655
100
AcDbEntity
  8
0
  6
CONTINUOUS
 62
     7
100
AcDbLine
 10
33.27115631103516
 20
-1.52587890625e-005
 11
38.72884368896484
 21
-1.52587890625e-005
  0
LINE
  5
656
100
AcDbEntity
  8
0
  6
CONTINUOUS
 62
     7
100
AcDbLine
 10
40.00000739577425
 20
-10.49996799637193
 11
39.71133399100946
 21
-10.99996499124438
  0
LINE
  5
657
100
AcDbEntity
  8
0
  6
CONTINUOUS
 62
     7
100
AcDbLine
 10
39.99998474121094
 20
10.49997043609619
 11
39.99998474121094
 21
-10.50001525878906
  0
LINE
  5
658
100
AcDbEntity
  8
0
  6
CONTINUOUS
 62
   190
100
AcDbLine
 10
40
 20
-6.999969482421875
 11
49.49997711181641
 21
-6.999969482421875
  0
LINE
  5
659
100
AcDbEntity
  8
0
  6
CONTINUOUS
 62
     7
100
AcDbLine
 10
40
 20
-6.18798828125
 11
50.31198883056641
 21
-6.18798828125
  0
LINE
  5
65a
100
AcDbEntity
  8
0
  6
CONTINUOUS
 62
   190
100
AcDbLine
 10
49.49998474121094
 20
-6.999969482421875
 11
49.49998474121094
 21
7.000007629394531
  0
LINE
  5
65b
100
AcDbEntity
  8
0
  6
CONTINUOUS
 62
   190
100
AcDbLine
 10
49.49994533183658
 20
-6.999962116467767
 11
50.99994467392617
 21
-5.49997440685836
  0
LINE
  5
65c
100
AcDbEntity
  8
0
  6
CONTINUOUS
 62
   190
100
AcDbLine
 10
50.99998474121094
 20
-5.500007629394531
 11
50.99998474121094
 21
5.500007629394531
  0
LINE
  5
65d
100
AcDbEntity
  8
0
  6
CONTINUOUS
 62
   190
100
AcDbLine
 10
51.00000351084792
 20
5.500005089958226
 11
49.50001849862635
 21
7.000001734639046
  0
LINE
  5
65e
100
AcDbEntity
  8
0
  6
CONTINUOUS
 62
   190
100
AcDbLine
 10
39.99997711181641
 20
7
 11
49.49999237060547
 21
7
  0
LINE
  5
65f
100
AcDbEntity
  8
0
  6
CONTINUOUS
 62
     7
100
AcDbLine
 10
39.99997711181641
 20
6.18798828125
 11
50.31198883056641
 21
6.18798828125
  0
LINE
  5
660
100
AcDbEntity
  8
0
  6
CONTINUOUS
 62
     7
100
AcDbLine
 10
32.28867721557617
 20
10.99998474121094
 11
39.7113151550293
 21
10.99998474121094
  0
LINE
  5
661
100
AcDbEntity
  8
0
  6
CONTINUOUS
 62
     7
100
AcDbLine
 10
31.99999141830716
 20
10.49998574082389
 11
32.28866482307195
 21
10.99998273569634
  0
LINE
  5
662
100
AcDbEntity
  8
0
  6
CONTINUOUS
 62
     7
100
AcDbLine
 10
39.99998515560465
 20
10.49996837050281
 11
39.71131175083986
 21
10.99996536537526
  0
LINE
  5
663
100
AcDbEntity
  8
0
  6
CONTINUOUS
 62
     7
100
AcDbLine
 10
-26
 20
-28.49996948242188
 11
-26
 21
28.5
  0
LINE
  5
664
100
AcDbEntity
  8
0
  6
CONTINUOUS
 62
     7
100
AcDbLine
 10
-107.9999923706055
 20
-23.83999633789063
 11
-26
 21
-23.83999633789063
  0
LINE
  5
665
100
AcDbEntity
  8
0
  6
CENTER
 62
     3
100
AcDbLine
 10
-107.9999847412109
 20
-20.25
 11
-26
 21
-20.25
  0
LINE
  5
666
100
AcDbEntity
  8
0
  6
CONTINUOUS
 62
     7
100
AcDbLine
 10
-107.9999923706055
 20
-16.66000366210938
 11
-26
 21
-16.66000366210938
  0
LINE
  5
667
100
AcDbEntity
  8
0
  6
CONTINUOUS
 62
     7
100
AcDbLine
 10
-107.9999923706055
 20
16.66000366210938
 11
-26
 21
16.66000366210938
  0
LINE
  5
668
100
AcDbEntity
  8
0
  6
CENTER
 62
     3
100
AcDbLine
 10
-107.9999847412109
 20
20.25003051757813
 11
-26
 21
20.25003051757813
  0
LINE
  5
669
100
AcDbEntity
  8
0
  6
CONTINUOUS
 62
     7
100
AcDbLine
 10
-107.9999923706055
 20
23.84002685546875
 11
-26
 21
23.84002685546875
  0
LINE
  5
66a
100
AcDbEntity
  8
0
  6
CONTINUOUS
 62
     7
100
AcDbLine
 10
-133.6999816894531
 20
29
 11
-108.4999923706055
 21
29
  0
LINE
  5
66b
100
AcDbEntity
  8
0
  6
CONTINUOUS
 62
     7
100
AcDbLine
 10
-107.9999847412109
 20
-28.49996948242188
 11
-107.9999847412109
 21
28.5
  0
LINE
  5
66c
100
AcDbEntity
  8
0
  6
CONTINUOUS
 62
     7
100
AcDbLine
 10
-133.9999847412109
 20
-28.95000076293945
 11
-133.9999847412109
 21
28.95000076293945
  0
LINE
  5
66d
100
AcDbEntity
  8
0
  6
CONTINUOUS
 62
     7
100
AcDbLine
 10
-133.6999816894531
 20
-29
 11
-108.4999923706055
 21
-29
  0
LINE
  5
66e
100
AcDbEntity
  8
0
  6
CENTER
 62
     3
100
AcDbLine
 10
-140.5249938964844
 20
0
 11
54.77499771118164
 21
0
  0
LINE
  5
66f
100
AcDbEntity
  8
0
  6
CONTINUOUS
 62
     7
100
AcDbLine
 10
-137.1999816894531
 20
-27.75
 11
-137.1999816894531
 21
27.75
  0
LINE
  5
670
100
AcDbEntity
  8
0
  6
CONTINUOUS
 62
     7
100
AcDbLine
 10
-137.1999816894531
 20
12.75
 11
-139.1999816894531
 21
12.75
  0
LINE
  5
671
100
AcDbEntity
  8
0
  6
CONTINUOUS
 62
     7
100
AcDbLine
 10
-139.1999816894531
 20
27.75
 11
-139.1999816894531
 21
12.75000095367432
  0
LINE
  5
672
100
AcDbEntity
  8
0
  6
CONTINUOUS
 62
     7
100
AcDbLine
 10
-139.1999816894531
 20
20.25
 11
-144.2999877929688
 21
20.25
  0
LINE
  5
673
100
AcDbEntity
  8
0
  6
CONTINUOUS
 62
     7
100
AcDbLine
 10
-139.1999816894531
 20
13.75
 11
-144.2999877929688
 21
13.75
  0
LINE
  5
674
100
AcDbEntity
  8
0
  6
CONTINUOUS
 62
     7
100
AcDbLine
 10
-144.2999800064747
 20
13.75000604661376
 11
-144.6999775923393
 21
14.44282247764348
  0
LINE
  5
675
100
AcDbEntity
  8
0
  6
CONTINUOUS
 62
     7
100
AcDbLine
 10
-144.6999816894531
 20
26.05718231201172
 11
-144.6999816894531
 21
14.44282150268555
  0
LINE
  5
676
100
AcDbEntity
  8
0
  6
CENTER
 62
     3
100
AcDbLine
 10
-133.9999847412109
 20
20.25
 11
-146.7809143066406
 21
20.25
  0
LINE
  5
677
100
AcDbEntity
  8
0
  6
CONTINUOUS
 62
     7
100
AcDbLine
 10
-137.1999874273879
 20
19.09530113822908
 11
-139.1999884677544
 21
20.25000265276421
  0
LINE
  5
678
100
AcDbEntity
  8
0
  6
CONTINUOUS
 62
     7
100
AcDbLine
 10
-137.1999842619079
 20
20.24999994289198
 11
-139.1999853022744
 21
21.40470145742712
  0
LINE
  5
679
100
AcDbEntity
  8
0
  6
CONTINUOUS
 62
     7
100
AcDbLine
 10
-135.9999847412109
 20
30.95000076293945
 11
-141.2999877929688
 21
30.95000076293945
  0
LINE
  5
67a
100
AcDbEntity
  8
0
  6
CONTINUOUS
 62
     7
100
AcDbLine
 10
-139.5999755859375
 20
50
 11
-145.9999694824219
 21
50
  0
LINE
  5
67b
100
AcDbEntity
  8
0
  6
CONTINUOUS
 62
     7
100
AcDbLine
 10
-142.7999877929688
 20
32.45000076293945
 11
-142.7999877929688
 21
50
  0
LINE
  5
67c
100
AcDbEntity
  8
0
  6
CONTINUOUS
 62
     7
100
AcDbLine
 10
-145.9999847412109
 20
31.75
 11
-145.9999847412109
 21
50
  0
LINE
  5
67d
100
AcDbEntity
  8
0
  6
DASHED
 62
     7
100
AcDbLine
 10
-142.7999725341797
 20
44.5
 11
-145.9999847412109
 21
44.5
  0
LINE
  5
67e
100
AcDbEntity
  8
0
  6
CENTER
 62
     3
100
AcDbLine
 10
-138.7056274414063
 20
40
 11
-149.8792877197266
 21
40
  0
LINE
  5
67f
100
AcDbEntity
  8
0
  6
DASHED
 62
     7
100
AcDbLine
 10
-142.7999725341797
 20
35.5
 11
-145.9999847412109
 21
35.5
  0
LINE
  5
680
100
AcDbEntity
  8
0
  6
CONTINUOUS
 62
     7
100
AcDbLine
 10
-144.2999885946695
 20
26.75000510367749
 11
-144.6999901974587
 21
26.05718218215435
  0
LINE
  5
681
100
AcDbEntity
  8
0
  6
CONTINUOUS
 62
     7
100
AcDbLine
 10
-139.1999816894531
 20
26.75
 11
-144.2999877929688
 21
26.75
  0
LINE
  5
682
100
AcDbEntity
  8
0
  6
CONTINUOUS
 62
     7
100
AcDbLine
 10
-137.1999816894531
 20
27.75
 11
-141.9999847412109
 21
27.75
  0
LINE
  5
683
100
AcDbEntity
  8
0
  6
CONTINUOUS
 62
     7
100
AcDbLine
 10
-137.1999816894531
 20
-12.75
 11
-139.1999816894531
 21
-12.75
  0
LINE
  5
684
100
AcDbEntity
  8
0
  6
CONTINUOUS
 62
     7
100
AcDbLine
 10
-139.1999816894531
 20
-27.75
 11
-139.1999816894531
 21
-12.74999904632568
  0
LINE
  5
685
100
AcDbEntity
  8
0
  6
CONTINUOUS
 62
     7
100
AcDbLine
 10
-139.1999816894531
 20
-13.75
 11
-144.2999877929688
 21
-13.75
  0
LINE
  5
686
100
AcDbEntity
  8
0
  6
CONTINUOUS
 62
     7
100
AcDbLine
 10
-139.1999816894531
 20
-20.25
 11
-144.2999877929688
 21
-20.25
  0
LINE
  5
687
100
AcDbEntity
  8
0
  6
CONTINUOUS
 62
     7
100
AcDbLine
 10
-137.1999904639977
 20
-19.09529869028457
 11
-139.1999785971086
 21
-20.24999204326412
  0
LINE
  5
688
100
AcDbEntity
  8
0
  6
CONTINUOUS
 62
     7
100
AcDbLine
 10
-137.1999856984132
 20
-20.25000079857326
 11
-139.199987046024
 21
-21.40470178094569
  0
LINE
  5
689
100
AcDbEntity
  8
0
  6
CENTER
 62
     3
100
AcDbLine
 10
-133.9999847412109
 20
-20.25
 11
-146.7809295654297
 21
-20.25
  0
LINE
  5
68a
100
AcDbEntity
  8
0
  6
CONTINUOUS
 62
     7
100
AcDbLine
 10
-144.2999898789601
 20
-13.75000459242486
 11
-144.6999876670513
 21
-14.44282090669894
  0
LINE
  5
68b
100
AcDbEntity
  8
0
  6
CONTINUOUS
 62
     7
100
AcDbLine
 10
-144.6999816894531
 20
-26.05717849731445
 11
-144.6999816894531
 21
-14.44281768798828
  0
LINE
  5
68c
100
AcDbEntity
  8
0
  6
CONTINUOUS
 62
     7
100
AcDbLine
 10
-144.2999905437624
 20
-26.75000364948724
 11
-144.699991944323
 21
-26.05718061120737
  0
LINE
  5
68d
100
AcDbEntity
  8
0
  6
CONTINUOUS
 62
     7
100
AcDbLine
 10
-139.1999816894531
 20
-26.75
 11
-144.2999877929688
 21
-26.75
  0
LINE
  5
68e
100
AcDbEntity
  8
0
  6
CONTINUOUS
 62
     7
100
AcDbLine
 10
-137.1999816894531
 20
-27.75
 11
-141.9999847412109
 21
-27.75
  0
LINE
  5
68f
100
AcDbEntity
  8
0
  6
CONTINUOUS
 62
     7
100
AcDbLine
 10
-135.9999847412109
 20
-30.95000076293945
 11
-141.2999877929688
 21
-30.95000076293945
  0
LINE
  5
690
100
AcDbEntity
  8
0
  6
CONTINUOUS
 62
     7
100
AcDbLine
 10
-145.9999847412109
 20
-50
 11
-145.9999847412109
 21
-31.75
  0
LINE
  5
691
100
AcDbEntity
  8
0
  6
CONTINUOUS
 62
     7
100
AcDbLine
 10
-142.7999877929688
 20
-50
 11
-142.7999877929688
 21
-32.45000076293945
  0
LINE
  5
692
100
AcDbEntity
  8
0
  6
DASHED
 62
     7
100
AcDbLine
 10
-142.7999877929688
 20
-35.5
 11
-145.9999847412109
 21
-35.5
  0
LINE
  5
693
100
AcDbEntity
  8
0
  6
CENTER
 62
     3
100
AcDbLine
 10
-138.5337371826172
 20
-40
 11
-149.8793029785156
 21
-40
  0
LINE
  5
694
100
AcDbEntity
  8
0
  6
DASHED
 62
     7
100
AcDbLine
 10
-142.7999877929688
 20
-44.5
 11
-145.9999847412109
 21
-44.5
  0
LINE
  5
695
100
AcDbEntity
  8
0
  6
CONTINUOUS
 62
     7
100
AcDbLine
 10
-139.5999908447266
 20
-50
 11
-146
 21
-50
  0
LINE
  5
696
100
AcDbEntity
  8
0
  6
CONTINUOUS
 62
     7
100
AcDbLine
 10
-139.5999876925791
 20
-50.00000083491889
 11
-134.0688418940777
 21
-29.47028927020357
  0
LINE
  5
697
100
AcDbEntity
  8
0
  6
CONTINUOUS
 62
     7
100
AcDbLine
 10
-139.5999740961604
 20
49.99999539724615
 11
-134.0688442342805
 21
29.47028744031252
  0
ARC
  5
698
100
AcDbEntity
  8
0
  6
CONTINUOUS
 62
     7
100
AcDbCircle
 10
-0.300018310546875
 20
28.70001220703125
 40
0.2999999225139618
100
AcDbArc
 50
359.9999453584874
 51
89.9999273723973
  0
ARC
  5
699
100
AcDbEntity
  8
0
  6
CONTINUOUS
 62
     7
100
AcDbCircle
 10
-0.300018310546875
 20
-28.69998168945313
 40
0.2999999225139618
100
AcDbArc
 50
269.9999633445767
 51
359.9999453584874
  0
ARC
  5
69a
100
AcDbEntity
  8
0
  6
CONTINUOUS
 62
     7
100
AcDbCircle
 10
48.17457580566406
 20
-5.500015258789063
 40
15.885910987854
100
AcDbArc
 50
159.7437539685845
 51
200.2561194455454
  0
ARC
  5
69b
100
AcDbEntity
  8
0
  6
CONTINUOUS
 62
     7
100
AcDbCircle
 10
23.82542419433594
 20
-5.500015258789063
 40
15.885910987854
100
AcDbArc
 50
339.7437352992506
 51
20.25615541772342
  0
ARC
  5
69c
100
AcDbEntity
  8
0
  6
CONTINUOUS
 62
     7
100
AcDbCircle
 10
23.82542419433594
 20
5.499984741210938
 40
15.885910987854
100
AcDbArc
 50
339.7437352992506
 51
20.25615541772342
  0
ARC
  5
69d
100
AcDbEntity
  8
0
  6
CONTINUOUS
 62
     7
100
AcDbCircle
 10
48.17457580566406
 20
5.499984741210938
 40
15.885910987854
100
AcDbArc
 50
159.7437539685845
 51
200.2561194455454
  0
ARC
  5
69e
100
AcDbEntity
  8
0
  6
CONTINUOUS
 62
     7
100
AcDbCircle
 10
-25.5
 20
-28.49996948242188
 40
0.4999998807907105
100
AcDbArc
 50
179.9999093863081
 51
269.9999460417325
  0
ARC
  5
69f
100
AcDbEntity
  8
0
  6
CONTINUOUS
 62
     7
100
AcDbCircle
 10
-25.5
 20
28.5
 40
0.4999998807907105
100
AcDbArc
 50
89.99995469315407
 51
179.9999367070648
  0
ARC
  5
6a0
100
AcDbEntity
  8
0
  6
CONTINUOUS
 62
     7
100
AcDbCircle
 10
-108.4999847412109
 20
28.5
 40
0.4999998807907105
100
AcDbArc
 50
359.9999453584874
 51
89.99992737239657
  0
ARC
  5
6a1
100
AcDbEntity
  8
0
  6
CONTINUOUS
 62
     7
100
AcDbCircle
 10
-133.6999664306641
 20
28.70001220703125
 40
0.2999999225139618
100
AcDbArc
 50
89.99995469315344
 51
179.9999367070649
  0
ARC
  5
6a2
100
AcDbEntity
  8
0
  6
CONTINUOUS
 62
     7
100
AcDbCircle
 10
-133.6999664306641
 20
-28.69998168945313
 40
0.2999999225139618
100
AcDbArc
 50
179.9999093863083
 51
269.9999460417338
  0
ARC
  5
6a3
100
AcDbEntity
  8
0
  6
CONTINUOUS
 62
     7
100
AcDbCircle
 10
-108.4999847412109
 20
-28.49996948242188
 40
0.4999998807907105
100
AcDbArc
 50
269.9999633445774
 51
359.9999453584874
  0
ARC
  5
6a4
100
AcDbEntity
  8
0
  6
CONTINUOUS
 62
     7
100
AcDbCircle
 10
-131.2968444824219
 20
17
 40
13.40313720703125
100
AcDbArc
 50
165.9669578874366
 51
194.0329291870717
  0
ARC
  5
6a5
100
AcDbEntity
  8
0
  6
CONTINUOUS
 62
     7
100
AcDbCircle
 10
-141.2999877929688
 20
32.45000076293945
 40
1.5
100
AcDbArc
 50
180.0000050089571
 51
270.0000006832459
  0
ARC
  5
6a6
100
AcDbEntity
  8
0
  6
CONTINUOUS
 62
     7
100
AcDbCircle
 10
-131.2968444824219
 20
23.5
 40
13.40313720703125
100
AcDbArc
 50
165.9669578874366
 51
194.03294284745
  0
ARC
  5
6a7
100
AcDbEntity
  8
0
  6
CONTINUOUS
 62
     7
100
AcDbCircle
 10
-131.2968444824219
 20
-17
 40
13.40313720703125
100
AcDbArc
 50
165.9670261893283
 51
194.0329974889634
  0
ARC
  5
6a8
100
AcDbEntity
  8
0
  6
CONTINUOUS
 62
     7
100
AcDbCircle
 10
-131.2968444824219
 20
-23.5
 40
13.40313720703125
100
AcDbArc
 50
165.96701252895
 51
194.0329974889634
  0
ARC
  5
6a9
100
AcDbEntity
  8
0
  6
CONTINUOUS
 62
     7
100
AcDbCircle
 10
-141.2999877929688
 20
-32.45000076293945
 40
1.5
100
AcDbArc
 50
90.00002299504598
 51
180.0000050089571
  0
ARC
  5
6aa
100
AcDbEntity
  8
0
  6
CONTINUOUS
 62
     7
100
AcDbCircle
 10
-135.9999847412109
 20
28.95000076293945
 40
2
100
AcDbArc
 50
0
 51
89.99998201391097
  0
ARC
  5
6ab
100
AcDbEntity
  8
0
  6
CONTINUOUS
 62
     7
100
AcDbCircle
 10
-135.9999847412109
 20
-28.95000076293945
 40
2
100
AcDbArc
 50
270.0000179860897
 51
360
  0
ARC
  5
6ac
100
AcDbEntity
  8
0
  6
CONTINUOUS
 62
     7
100
AcDbCircle
 10
-141.9999847412109
 20
-31.75
 40
4
100
AcDbArc
 50
89.99998201391055
 51
179.9999640278213
  0
ARC
  5
6ad
100
AcDbEntity
  8
0
  6
CONTINUOUS
 62
     7
100
AcDbCircle
 10
-141.9999847412109
 20
31.75
 40
4
100
AcDbArc
 50
179.9999813306653
 51
270.0000179860901
  0
MTEXT
  5
6ae
100
AcDbEntity
  8
0
  6
CONTINUOUS
 62
     7
100
AcDbMText
 10
-38.5035632699728
 20
-9.34999942779541
 40
0.5
 41
34
 71
     7
 72
     1
  1
{\W0.842735;ＢＮ－６１０５－ＦＢ－４０－Ｂ－＊}
  0
ENDBLK
  8
0
  5
6af
100
AcDbEntity
100
AcDbBlockEnd
  0
BLOCK
  8
0
  5
6b0
100
AcDbEntity
100
AcDbBlockBegin
  2
KOZU0007
 70
    64
 10
0
 20
0
  0
POINT
  5
6b1
100
AcDbEntity
  8
0
  6
CONTINUOUS
 62
     7
100
AcDbPoint
 10
0
 20
0
  0
LINE
  5
6b2
100
AcDbEntity
  8
0
  6
CENTER
 62
     3
100
AcDbLine
 10
-82.99999237060547
 20
0
 11
14.80397033691406
 21
0
  0
LINE
  5
6b3
100
AcDbEntity
  8
0
  6
CENTER
 62
     3
100
AcDbLine
 10
0
 20
-15.75770568847656
 11
0
 21
15.82633972167969
  0
LINE
  5
6b4
100
AcDbEntity
  8
0
  6
CONTINUOUS
 62
     7
100
AcDbLine
 10
-35.00001525878906
 20
13
 11
-1.52587890625e-005
 21
13
  0
LINE
  5
6b5
100
AcDbEntity
  8
0
  6
CONTINUOUS
 62
     7
100
AcDbLine
 10
-35.00001341538484
 20
13.00003164495753
 11
-37.00001408449343
 21
12.00003131040323
  0
LINE
  5
6b6
100
AcDbEntity
  8
0
  6
CONTINUOUS
 62
     7
100
AcDbLine
 10
-54.00001525878906
 20
12
 11
-37.00001525878906
 21
12
  0
LINE
  5
6b7
100
AcDbEntity
  8
0
  6
CONTINUOUS
 62
     7
100
AcDbLine
 10
-35
 20
13
 11
-35
 21
-13
  0
LINE
  5
6b8
100
AcDbEntity
  8
0
  6
CONTINUOUS
 62
     7
100
AcDbLine
 10
-35.00000237780925
 20
4.999953319792715
 11
-23.00001028922638
 21
12.99994775897136
  0
LINE
  5
6b9
100
AcDbEntity
  8
0
  6
CONTINUOUS
 62
     7
100
AcDbLine
 10
-35.00005898116449
 20
-5.00002103221995
 11
-23.00005419650155
 21
-13.00002393545167
  0
LINE
  5
6ba
100
AcDbEntity
  8
0
  6
CONTINUOUS
 62
     7
100
AcDbLine
 10
-35.00001525878906
 20
-13
 11
-1.52587890625e-005
 21
-13
  0
LINE
  5
6bb
100
AcDbEntity
  8
0
  6
CONTINUOUS
 62
     7
100
AcDbLine
 10
-35.00003985814428
 20
-12.99996511156281
 11
-37.00004052725287
 21
-11.99996477700852
  0
LINE
  5
6bc
100
AcDbEntity
  8
0
  6
CONTINUOUS
 62
     7
100
AcDbLine
 10
-37
 20
-12
 11
-37
 21
12
  0
LINE
  5
6bd
100
AcDbEntity
  8
0
  6
CONTINUOUS
 62
     7
100
AcDbLine
 10
-54.00001525878906
 20
-12
 11
-37.00001525878906
 21
-12
  0
LINE
  5
6be
100
AcDbEntity
  8
0
  6
CONTINUOUS
 62
     7
100
AcDbLine
 10
-54.00001525878906
 20
-12
 11
-54.00001525878906
 21
12
  0
LINE
  5
6bf
100
AcDbEntity
  8
0
  6
CONTINUOUS
 62
     7
100
AcDbLine
 10
-54.0000048078017
 20
-12.00002145810874
 11
-55.0000058443586
 21
-11.00002033725806
  0
LINE
  5
6c0
100
AcDbEntity
  8
0
  6
CONTINUOUS
 62
     7
100
AcDbLine
 10
-55.00001525878906
 20
-11.00001525878906
 11
-55.00001525878906
 21
11
  0
LINE
  5
6c1
100
AcDbEntity
  8
0
  6
CONTINUOUS
 62
     7
100
AcDbLine
 10
-61.72884368896484
 20
-6.350845336914063
 11
-56.27115631103516
 21
-6.350845336914063
  0
LINE
  5
6c2
100
AcDbEntity
  8
0
  6
CONTINUOUS
 62
     7
100
AcDbLine
 10
-54.99999379033586
 20
-10.49998859741378
 11
-56.27115011848228
 21
-12.70169590260931
  0
LINE
  5
6c3
100
AcDbEntity
  8
0
  6
CONTINUOUS
 62
     7
100
AcDbLine
 10
-61.72884368896484
 20
-12.70170593261719
 11
-56.27115631103516
 21
-12.70170593261719
  0
LINE
  5
6c4
100
AcDbEntity
  8
0
  6
CONTINUOUS
 62
     7
100
AcDbLine
 10
-62.99998624995188
 20
-10.4999868004082
 11
-61.72882992180547
 21
-12.70169410560373
  0
LINE
  5
6c5
100
AcDbEntity
  8
0
  6
CONTINUOUS
 62
     7
100
AcDbLine
 10
-63
 20
-10.5
 11
-63
 21
10.5
  0
LINE
  5
6c6
100
AcDbEntity
  8
0
  6
CONTINUOUS
 62
   190
100
AcDbLine
 10
-67.99999237060547
 20
-7
 11
-63
 21
-7
  0
LINE
  5
6c7
100
AcDbEntity
  8
0
  6
CONTINUOUS
 62
     7
100
AcDbLine
 10
-55.00001031192493
 20
10.99997102544587
 11
-54.00001998066792
 21
11.99996127241001
  0
LINE
  5
6c8
100
AcDbEntity
  8
0
  6
CONTINUOUS
 62
     7
100
AcDbLine
 10
-54.99998769415902
 20
10.5000009267092
 11
-56.27114402230543
 21
12.70170823190473
  0
LINE
  5
6c9
100
AcDbEntity
  8
0
  6
CONTINUOUS
 62
     7
100
AcDbLine
 10
-61.72884368896484
 20
12.70170593261719
 11
-56.27115631103516
 21
12.70170593261719
  0
LINE
  5
6ca
100
AcDbEntity
  8
0
  6
CONTINUOUS
 62
     7
100
AcDbLine
 10
-61.72884368896484
 20
6.350845336914063
 11
-56.27115631103516
 21
6.350845336914063
  0
LINE
  5
6cb
100
AcDbEntity
  8
0
  6
CONTINUOUS
 62
     7
100
AcDbLine
 10
-63.00000886425237
 20
10.50000866644692
 11
-61.72885253610595
 21
12.70171597164244
  0
LWPOLYLINE
  5
6cc
100
AcDbEntity
  8
0
  6
CONTINUOUS
 62
     7
100
AcDbPolyline
 90
     6
 70
     0
 10
-83.05712959243877
 20
10.25351811072878
 10
-81.89915369513498
 20
1.194056201677384
 10
-84.30290551078647
 20
0.2819283549628029
 10
-79.19111073489206
 20
-0.2744475693354112
 10
-81.59486255054355
 20
-1.186575416049992
 10
-80.43688665323977
 20
-10.24603732510138
  0
LINE
  5
6cd
100
AcDbEntity
  8
0
  6
CONTINUOUS
 62
   190
100
AcDbLine
 10
-82.76906585693359
 20
7.999984741210938
 11
-69.73203277587891
 21
7.999984741210938
  0
LINE
  5
6ce
100
AcDbEntity
  8
0
  6
CONTINUOUS
 62
   190
100
AcDbLine
 10
-69.73202514648438
 20
7.999984741210938
 11
-69.73202514648438
 21
3.872970581054688
  0
LINE
  5
6cf
100
AcDbEntity
  8
0
  6
CONTINUOUS
 62
   190
100
AcDbLine
 10
-69.73202381031291
 20
8.000011225502501
 11
-67.99997301051585
 21
7.000011212041326
  0
LINE
  5
6d0
100
AcDbEntity
  8
0
  6
CONTINUOUS
 62
   190
100
AcDbLine
 10
-67.99999237060547
 20
7
 11
-63
 21
7
  0
LINE
  5
6d1
100
AcDbEntity
  8
0
  6
CONTINUOUS
 62
     3
100
AcDbLine
 10
-66.40641295772231
 20
7.000006340069589
 11
-64.99998723256513
 21
6.188006054480912
  0
LINE
  5
6d2
100
AcDbEntity
  8
0
  6
CONTINUOUS
 62
   190
100
AcDbLine
 10
-65
 20
7
 11
-65
 21
-7
  0
LINE
  5
6d3
100
AcDbEntity
  8
0
  6
CONTINUOUS
 62
     3
100
AcDbLine
 10
-64.99999237060547
 20
6.18798828125
 11
-63
 21
6.18798828125
  0
LINE
  5
6d4
100
AcDbEntity
  8
0
  6
CONTINUOUS
 62
   190
100
AcDbLine
 10
-68
 20
7
 11
-68
 21
-7
  0
LINE
  5
6d5
100
AcDbEntity
  8
0
  6
CONTINUOUS
 62
   190
100
AcDbLine
 10
-74.99998474121094
 20
3.872970581054688
 11
-67.99999237060547
 21
3.872970581054688
  0
LINE
  5
6d6
100
AcDbEntity
  8
0
  6
CONTINUOUS
 62
   190
100
AcDbLine
 10
-67.99999056061289
 20
3.87297186068783
 11
-74.9999817267349
 21
-3.872983742273398
  0
LINE
  5
6d7
100
AcDbEntity
  8
0
  6
CONTINUOUS
 62
   190
100
AcDbLine
 10
-68.00002370574049
 20
-3.872986389035535
 11
-75.0000148718625
 21
3.872969213925693
  0
LINE
  5
6d8
100
AcDbEntity
  8
0
  6
CONTINUOUS
 62
   190
100
AcDbLine
 10
-74.99998474121094
 20
3.872970581054688
 11
-74.99998474121094
 21
-3.87298583984375
  0
LINE
  5
6d9
100
AcDbEntity
  8
0
  6
CONTINUOUS
 62
   190
100
AcDbLine
 10
-74.99998474121094
 20
-3.87298583984375
 11
-67.99999237060547
 21
-3.87298583984375
  0
LINE
  5
6da
100
AcDbEntity
  8
0
  6
CONTINUOUS
 62
   190
100
AcDbLine
 10
-69.73202514648438
 20
-3.87298583984375
 11
-69.73202514648438
 21
-8
  0
LINE
  5
6db
100
AcDbEntity
  8
0
  6
CONTINUOUS
 62
   190
100
AcDbLine
 10
-69.73206270554785
 20
-7.999989633347198
 11
-67.99999208400243
 21
-6.999978175794077
  0
LINE
  5
6dc
100
AcDbEntity
  8
0
  6
CONTINUOUS
 62
   190
100
AcDbLine
 10
-80.72395324707031
 20
-8
 11
-69.73203277587891
 21
-8
  0
LINE
  5
6dd
100
AcDbEntity
  8
0
  6
CONTINUOUS
 62
     3
100
AcDbLine
 10
-66.40645852867755
 20
-6.999973185227756
 11
-65.00002619627092
 21
-6.187969084941759
  0
LINE
  5
6de
100
AcDbEntity
  8
0
  6
CONTINUOUS
 62
     3
100
AcDbLine
 10
-64.99999237060547
 20
-6.188003540039063
 11
-63
 21
-6.188003540039063
  0
LINE
  5
6df
100
AcDbEntity
  8
0
  6
CONTINUOUS
 62
     7
100
AcDbLine
 10
33.5
 20
5
 11
33.5
 21
-4.999969482421875
  0
LINE
  5
6e0
100
AcDbEntity
  8
0
  6
CONTINUOUS
 62
     7
100
AcDbLine
 10
34.50007877207986
 20
5.999847431093176
 11
33.50008043292115
 21
4.999849007640911
  0
LINE
  5
6e1
100
AcDbEntity
  8
0
  6
CONTINUOUS
 62
     7
100
AcDbLine
 10
34.5
 20
6
 11
34.5
 21
-5.999969482421875
  0
LINE
  5
6e2
100
AcDbEntity
  8
0
  6
CONTINUOUS
 62
     7
100
AcDbLine
 10
34.5
 20
6
 11
42.99998474121094
 21
6
  0
LINE
  5
6e3
100
AcDbEntity
  8
0
  6
CENTER
 62
     3
100
AcDbLine
 10
39
 20
4.5
 11
39
 21
-4.499969482421875
  0
LINE
  5
6e4
100
AcDbEntity
  8
0
  6
CENTER
 62
     3
100
AcDbLine
 10
30.95195007324219
 20
0
 11
93.00154113769531
 21
0
  0
LINE
  5
6e5
100
AcDbEntity
  8
0
  6
CONTINUOUS
 62
     7
100
AcDbLine
 10
33.50002016292363
 20
-5.0000525347682
 11
34.50002128377431
 21
-6.000053571325095
  0
LINE
  5
6e6
100
AcDbEntity
  8
0
  6
CONTINUOUS
 62
     7
100
AcDbLine
 10
34.5
 20
-5.999969482421875
 11
42.99998474121094
 21
-5.999969482421875
  0
LINE
  5
6e7
100
AcDbEntity
  8
0
  6
CONTINUOUS
 62
     7
100
AcDbLine
 10
43
 20
11
 11
43
 21
-10.99996948242188
  0
LINE
  5
6e8
100
AcDbEntity
  8
0
  6
CONTINUOUS
 62
     7
100
AcDbLine
 10
43.00001717649775
 20
-11.00001814562145
 11
45.00001941819912
 21
-13.00002021873524
  0
LINE
  5
6e9
100
AcDbEntity
  8
0
  6
CONTINUOUS
 62
     7
100
AcDbLine
 10
45
 20
13
 11
45
 21
-12.99996948242188
  0
LINE
  5
6ea
100
AcDbEntity
  8
0
  6
CONTINUOUS
 62
     7
100
AcDbLine
 10
44.99998474121094
 20
-12.99996948242188
 11
79
 21
-12.99996948242188
  0
LINE
  5
6eb
100
AcDbEntity
  8
0
  6
CONTINUOUS
 62
     7
100
AcDbLine
 10
45.00010463913066
 20
12.99988914204151
 11
43.00010526341505
 21
10.99988959773856
  0
LINE
  5
6ec
100
AcDbEntity
  8
0
  6
CONTINUOUS
 62
     7
100
AcDbLine
 10
44.99998474121094
 20
13
 11
79
 21
13
  0
LINE
  5
6ed
100
AcDbEntity
  8
0
  6
CENTER
 62
     3
100
AcDbLine
 10
62
 20
15.07791137695313
 11
62
 21
-15.56852722167969
  0
LINE
  5
6ee
100
AcDbEntity
  8
0
  6
CONTINUOUS
 62
     7
100
AcDbLine
 10
54
 20
13
 11
54
 21
-12.99996948242188
  0
LINE
  5
6ef
100
AcDbEntity
  8
0
  6
CONTINUOUS
 62
     7
100
AcDbLine
 10
54
 20
6
 11
70
 21
6
  0
LINE
  5
6f0
100
AcDbEntity
  8
0
  6
CONTINUOUS
 62
     7
100
AcDbLine
 10
54
 20
-5.999969482421875
 11
70
 21
-5.999969482421875
  0
LINE
  5
6f1
100
AcDbEntity
  8
0
  6
CONTINUOUS
 62
     7
100
AcDbLine
 10
70
 20
13
 11
70
 21
-12.99996948242188
  0
LINE
  5
6f2
100
AcDbEntity
  8
0
  6
CONTINUOUS
 62
     7
100
AcDbLine
 10
80.99998980505077
 20
11.00004764841557
 11
78.99998756334941
 21
13.00004972152937
  0
LINE
  5
6f3
100
AcDbEntity
  8
0
  6
CONTINUOUS
 62
     7
100
AcDbLine
 10
79
 20
13
 11
79
 21
-12.99996948242188
  0
LINE
  5
6f4
100
AcDbEntity
  8
0
  6
CONTINUOUS
 62
     7
100
AcDbLine
 10
81
 20
11
 11
81
 21
-10.99996948242188
  0
LINE
  5
6f5
100
AcDbEntity
  8
0
  6
CONTINUOUS
 62
     7
100
AcDbLine
 10
81
 20
6
 11
89.5
 21
6
  0
LINE
  5
6f6
100
AcDbEntity
  8
0
  6
CENTER
 62
     3
100
AcDbLine
 10
85
 20
4.5
 11
85
 21
-4.499969482421875
  0
LINE
  5
6f7
100
AcDbEntity
  8
0
  6
CONTINUOUS
 62
     7
100
AcDbLine
 10
89.5
 20
6
 11
89.5
 21
-5.999969482421875
  0
LINE
  5
6f8
100
AcDbEntity
  8
0
  6
CONTINUOUS
 62
     7
100
AcDbLine
 10
90.50002188480593
 20
5.000009207809576
 11
89.50002076395526
 21
6.000010244366472
  0
LINE
  5
6f9
100
AcDbEntity
  8
0
  6
CONTINUOUS
 62
     7
100
AcDbLine
 10
90.5
 20
5
 11
90.5
 21
-4.999969482421875
  0
LINE
  5
6fa
100
AcDbEntity
  8
0
  6
CONTINUOUS
 62
     7
100
AcDbLine
 10
90.50016214951188
 20
-5.000149472527333
 11
89.50016102866118
 21
-6.000150509084229
  0
LINE
  5
6fb
100
AcDbEntity
  8
0
  6
CONTINUOUS
 62
     7
100
AcDbLine
 10
81
 20
-5.999969482421875
 11
89.5
 21
-5.999969482421875
  0
LINE
  5
6fc
100
AcDbEntity
  8
0
  6
CONTINUOUS
 62
     7
100
AcDbLine
 10
79.00019366144798
 20
-13.00017253743845
 11
81.0001903397654
 21
-11.00017569053393
  0
LINE
  5
6fd
100
AcDbEntity
  8
0
  6
CENTER
 62
     3
100
AcDbLine
 10
-82.99999237060547
 20
-77.20906066894531
 11
14.69601440429688
 21
-77.20906066894531
  0
LINE
  5
6fe
100
AcDbEntity
  8
0
  6
CONTINUOUS
 62
     7
100
AcDbLine
 10
-25.00001525878906
 20
-69.20904541015625
 11
12.99995422363281
 21
-69.20904541015625
  0
LINE
  5
6ff
100
AcDbEntity
  8
0
  6
CONTINUOUS
 62
     7
100
AcDbLine
 10
12.99993896484375
 20
-69.20904541015625
 11
12.99993896484375
 21
-60.20907592773438
  0
LINE
  5
700
100
AcDbEntity
  8
0
  6
CONTINUOUS
 62
     7
100
AcDbLine
 10
13.0000303673198
 20
-60.20895449225182
 11
11.00004987339153
 21
-58.2089738297378
  0
LINE
  5
701
100
AcDbEntity
  8
0
  6
CONTINUOUS
 62
     7
100
AcDbLine
 10
-11.00001525878906
 20
-58.20904541015625
 11
10.99995422363281
 21
-58.20904541015625
  0
LINE
  5
702
100
AcDbEntity
  8
0
  6
CONTINUOUS
 62
     7
100
AcDbLine
 10
-35.00001525878906
 20
-60.20904541015625
 11
12.99995422363281
 21
-60.20904541015625
  0
LINE
  5
703
100
AcDbEntity
  8
0
  6
CENTER
 62
     3
100
AcDbLine
 10
-7.646713256835938
 20
-54.20904541015625
 11
7.442138671875
 21
-54.20904541015625
  0
LINE
  5
704
100
AcDbEntity
  8
0
  6
CENTER
 62
     3
100
AcDbLine
 10
0
 20
-107.4632720947266
 11
0
 21
-46.73985290527344
  0
LINE
  5
705
100
AcDbEntity
  8
0
  6
CONTINUOUS
 62
     7
100
AcDbLine
 10
-5.000015258789063
 20
-48.70904541015625
 11
4.999954223632813
 21
-48.70904541015625
  0
LINE
  5
706
100
AcDbEntity
  8
0
  6
CONTINUOUS
 62
     7
100
AcDbLine
 10
5.00001541911659
 20
-48.70899881681733
 11
6.000016371379694
 21
-49.70900002196179
  0
LINE
  5
707
100
AcDbEntity
  8
0
  6
CONTINUOUS
 62
     7
100
AcDbLine
 10
-6.000015258789063
 20
-49.70904541015625
 11
5.999954223632813
 21
-49.70904541015625
  0
LINE
  5
708
100
AcDbEntity
  8
0
  6
CONTINUOUS
 62
     7
100
AcDbLine
 10
5.99993896484375
 20
-58.20907592773438
 11
5.99993896484375
 21
-49.70907592773438
  0
LINE
  5
709
100
AcDbEntity
  8
0
  6
CONTINUOUS
 62
     7
100
AcDbLine
 10
-4.999956195886991
 20
-48.70911935680364
 11
-5.999957316737675
 21
-49.70912039336054
  0
LINE
  5
70a
100
AcDbEntity
  8
0
  6
CONTINUOUS
 62
     7
100
AcDbLine
 10
-6.000030517578125
 20
-58.20907592773438
 11
-6.000030517578125
 21
-49.70907592773438
  0
LINE
  5
70b
100
AcDbEntity
  8
0
  6
CONTINUOUS
 62
     7
100
AcDbLine
 10
-10.99992800232691
 20
-58.20912125941484
 11
-12.99993024402827
 21
-60.20912333252864
  0
LINE
  5
70c
100
AcDbEntity
  8
0
  6
CONTINUOUS
 62
     7
100
AcDbLine
 10
-6.000030517578125
 20
-85.20906066894531
 11
-6.000030517578125
 21
-69.20907592773438
  0
LINE
  5
70d
100
AcDbEntity
  8
0
  6
CONTINUOUS
 62
     7
100
AcDbLine
 10
5.99993896484375
 20
-85.20906066894531
 11
5.99993896484375
 21
-69.20907592773438
  0
LINE
  5
70e
100
AcDbEntity
  8
0
  6
CONTINUOUS
 62
     7
100
AcDbLine
 10
-25.00001525878906
 20
-85.20906066894531
 11
12.99995422363281
 21
-85.20906066894531
  0
LINE
  5
70f
100
AcDbEntity
  8
0
  6
CONTINUOUS
 62
     7
100
AcDbLine
 10
12.99993896484375
 20
-94.20912170410156
 11
12.99993896484375
 21
-85.20906066894531
  0
LINE
  5
710
100
AcDbEntity
  8
0
  6
CONTINUOUS
 62
     7
100
AcDbLine
 10
11.00002939001431
 20
-96.20918475657419
 11
13.00003163171567
 21
-94.2091826834604
  0
LINE
  5
711
100
AcDbEntity
  8
0
  6
CONTINUOUS
 62
     7
100
AcDbLine
 10
-35.00001525878906
 20
-94.20906066894531
 11
12.99995422363281
 21
-94.20906066894531
  0
LINE
  5
712
100
AcDbEntity
  8
0
  6
CONTINUOUS
 62
     7
100
AcDbLine
 10
-11.00001525878906
 20
-96.20906066894531
 11
10.99995422363281
 21
-96.20906066894531
  0
LINE
  5
713
100
AcDbEntity
  8
0
  6
CONTINUOUS
 62
     7
100
AcDbLine
 10
5.99993896484375
 20
-104.7090606689453
 11
5.99993896484375
 21
-96.20912170410156
  0
LINE
  5
714
100
AcDbEntity
  8
0
  6
CENTER
 62
     3
100
AcDbLine
 10
-7.2786865234375
 20
-100.2090606689453
 11
7.258132934570313
 21
-100.2090606689453
  0
LINE
  5
715
100
AcDbEntity
  8
0
  6
CONTINUOUS
 62
     7
100
AcDbLine
 10
-5.000015258789063
 20
-105.7090606689453
 11
4.999954223632813
 21
-105.7090606689453
  0
LINE
  5
716
100
AcDbEntity
  8
0
  6
CONTINUOUS
 62
     7
100
AcDbLine
 10
-6.000015258789063
 20
-104.7090606689453
 11
5.999954223632813
 21
-104.7090606689453
  0
LINE
  5
717
100
AcDbEntity
  8
0
  6
CONTINUOUS
 62
     7
100
AcDbLine
 10
5.000125018534163
 20
-105.7091354086205
 11
6.000126139384847
 21
-104.7091343720636
  0
LINE
  5
718
100
AcDbEntity
  8
0
  6
CONTINUOUS
 62
     7
100
AcDbLine
 10
-5.999946147821738
 20
-104.7090961027221
 11
-4.999966690450371
 21
-105.7090756443854
  0
LINE
  5
719
100
AcDbEntity
  8
0
  6
CONTINUOUS
 62
     7
100
AcDbLine
 10
-6.000030517578125
 20
-104.7090606689453
 11
-6.000030517578125
 21
-96.20912170410156
  0
LINE
  5
71a
100
AcDbEntity
  8
0
  6
CONTINUOUS
 62
     7
100
AcDbLine
 10
-12.99996944059413
 20
-94.20904671772709
 11
-10.99994578829481
 21
-96.20907053861581
  0
LINE
  5
71b
100
AcDbEntity
  8
0
  6
CONTINUOUS
 62
     7
100
AcDbLine
 10
-35.00003965255434
 20
-86.20915528544957
 11
-23.00006026005154
 21
-94.20914126057514
  0
LINE
  5
71c
100
AcDbEntity
  8
0
  6
CONTINUOUS
 62
     7
100
AcDbLine
 10
-25
 20
-85.20906066894531
 11
-25
 21
-69.20904541015625
  0
LINE
  5
71d
100
AcDbEntity
  8
0
  6
CONTINUOUS
 62
     7
100
AcDbLine
 10
-34.99994486868565
 20
-68.20917994784347
 11
-22.9999400840227
 21
-60.20917704461175
  0
LINE
  5
71e
100
AcDbEntity
  8
0
  6
CONTINUOUS
 62
     7
100
AcDbLine
 10
-35
 20
-94.20906066894531
 11
-35
 21
-60.20904541015625
  0
LINE
  5
71f
100
AcDbEntity
  8
0
  6
CONTINUOUS
 62
     7
100
AcDbLine
 10
-35.00008495910299
 20
-63.20899359532995
 11
-37.00008711651056
 21
-65.20899575273752
  0
LINE
  5
720
100
AcDbEntity
  8
0
  6
CONTINUOUS
 62
     7
100
AcDbLine
 10
-54.00001525878906
 20
-65.20906066894531
 11
-37.00001525878906
 21
-65.20906066894531
  0
LINE
  5
721
100
AcDbEntity
  8
0
  6
CONTINUOUS
 62
     7
100
AcDbLine
 10
-37
 20
-89.20906066894531
 11
-37
 21
-65.20906066894531
  0
LINE
  5
722
100
AcDbEntity
  8
0
  6
CONTINUOUS
 62
     7
100
AcDbLine
 10
-36.9999589900911
 20
-89.20903108252256
 11
-34.99996762227674
 21
-91.20902245033693
  0
LINE
  5
723
100
AcDbEntity
  8
0
  6
CONTINUOUS
 62
     7
100
AcDbLine
 10
-54.00001525878906
 20
-89.20906066894531
 11
-37.00001525878906
 21
-89.20906066894531
  0
LINE
  5
724
100
AcDbEntity
  8
0
  6
CONTINUOUS
 62
     7
100
AcDbLine
 10
-55.00003780897863
 20
-88.20907674476331
 11
-54.00003862688682
 21
-89.20907972007548
  0
LINE
  5
725
100
AcDbEntity
  8
0
  6
CONTINUOUS
 62
     7
100
AcDbLine
 10
-55.00001525878906
 20
-88.20906066894531
 11
-55.00001525878906
 21
-66.20906066894531
  0
LINE
  5
726
100
AcDbEntity
  8
0
  6
CONTINUOUS
 62
     7
100
AcDbLine
 10
-54.00001525878906
 20
-89.20906066894531
 11
-54.00001525878906
 21
-65.20906066894531
  0
LINE
  5
727
100
AcDbEntity
  8
0
  6
CONTINUOUS
 62
     7
100
AcDbLine
 10
-55.00009237183769
 20
-66.20900020318919
 11
-54.0000912931339
 21
-65.20899912448542
  0
LINE
  5
728
100
AcDbEntity
  8
0
  6
CONTINUOUS
 62
     7
100
AcDbLine
 10
-54.99996645230425
 20
-66.70908023609373
 11
-55.28864748646367
 21
-66.20907002672239
  0
LINE
  5
729
100
AcDbEntity
  8
0
  6
CONTINUOUS
 62
     7
100
AcDbLine
 10
-62.71131896972656
 20
-66.20906066894531
 11
-55.28868103027344
 21
-66.20906066894531
  0
LINE
  5
72a
100
AcDbEntity
  8
0
  6
CONTINUOUS
 62
     7
100
AcDbLine
 10
-61.72884368896484
 20
-77.20906066894531
 11
-56.27115631103516
 21
-77.20906066894531
  0
LINE
  5
72b
100
AcDbEntity
  8
0
  6
CONTINUOUS
 62
     7
100
AcDbLine
 10
-55.00008689626596
 20
-87.70901065014071
 11
-55.28876030103073
 21
-88.20900764501316
  0
LINE
  5
72c
100
AcDbEntity
  8
0
  6
CONTINUOUS
 62
     7
100
AcDbLine
 10
-62.71131896972656
 20
-88.20906066894531
 11
-55.28868103027344
 21
-88.20906066894531
  0
LINE
  5
72d
100
AcDbEntity
  8
0
  6
CONTINUOUS
 62
     7
100
AcDbLine
 10
-62.99999017776056
 20
-87.70904725625931
 11
-62.71131677299577
 21
-88.20904425113176
  0
LINE
  5
72e
100
AcDbEntity
  8
0
  6
CONTINUOUS
 62
     7
100
AcDbLine
 10
-63
 20
-87.70906066894531
 11
-63
 21
-66.70906066894531
  0
LINE
  5
72f
100
AcDbEntity
  8
0
  6
CONTINUOUS
 62
     7
100
AcDbLine
 10
-63.00010774128816
 20
-66.70902767366255
 11
-62.71142670712874
 21
-66.20901746429119
  0
LINE
  5
730
100
AcDbEntity
  8
0
  6
CONTINUOUS
 62
   190
100
AcDbLine
 10
-74.99998474121094
 20
-70.20906066894531
 11
-63
 21
-70.20906066894531
  0
LINE
  5
731
100
AcDbEntity
  8
0
  6
CONTINUOUS
 62
     3
100
AcDbLine
 10
-64.99999237060547
 20
-71.02107238769531
 11
-63
 21
-71.02107238769531
  0
LINE
  5
732
100
AcDbEntity
  8
0
  6
CONTINUOUS
 62
   190
100
AcDbLine
 10
-65
 20
-70.20906066894531
 11
-65
 21
-84.20906066894531
  0
LINE
  5
733
100
AcDbEntity
  8
0
  6
CONTINUOUS
 62
     3
100
AcDbLine
 10
-66.40639128423226
 20
-70.20900049117704
 11
-64.99997216632454
 21
-71.0209969620684
  0
LINE
  5
734
100
AcDbEntity
  8
0
  6
CONTINUOUS
 62
     3
100
AcDbLine
 10
-64.99999237060547
 20
-83.39704895019531
 11
-63
 21
-83.39704895019531
  0
LINE
  5
735
100
AcDbEntity
  8
0
  6
CONTINUOUS
 62
   190
100
AcDbLine
 10
-74.99998474121094
 20
-84.20906066894531
 11
-63
 21
-84.20906066894531
  0
LINE
  5
736
100
AcDbEntity
  8
0
  6
CONTINUOUS
 62
     3
100
AcDbLine
 10
-66.40649818503815
 20
-84.2089793868072
 11
-65.00007245988097
 21
-83.39697910121852
  0
LINE
  5
737
100
AcDbEntity
  8
0
  6
CONTINUOUS
 62
   190
100
AcDbLine
 10
-68
 20
-70.20906066894531
 11
-68
 21
-84.20906066894531
  0
LINE
  5
738
100
AcDbEntity
  8
0
  6
CONTINUOUS
 62
   190
100
AcDbLine
 10
-69.73202514648438
 20
-70.20906066894531
 11
-69.73202514648438
 21
-84.20906066894531
  0
LINE
  5
739
100
AcDbEntity
  8
0
  6
CONTINUOUS
 62
     7
100
AcDbLine
 10
-74.99991620494745
 20
-84.20916115565268
 11
-76.49990728097026
 21
-85.20915517051684
  0
LINE
  5
73a
100
AcDbEntity
  8
0
  6
CONTINUOUS
 62
   190
100
AcDbLine
 10
-80.72395324707031
 20
-85.20906066894531
 11
-76.49997711181641
 21
-85.20906066894531
  0
LINE
  5
73b
100
AcDbEntity
  8
0
  6
CONTINUOUS
 62
     7
100
AcDbLine
 10
-74.99999920946458
 20
-70.20909988664644
 11
-76.49999729470267
 21
-69.20911638568542
  0
LINE
  5
73c
100
AcDbEntity
  8
0
  6
CONTINUOUS
 62
   190
100
AcDbLine
 10
-82.76906585693359
 20
-69.20907592773438
 11
-76.49998474121094
 21
-69.20907592773438
  0
LWPOLYLINE
  5
73d
100
AcDbEntity
  8
0
  6
CONTINUOUS
 62
     7
100
AcDbPolyline
 90
     6
 70
     0
 10
-83.05714907481458
 20
-66.95554178824423
 10
-81.89917124287979
 20
-76.01501883294382
 10
-84.30292305853128
 20
-76.92714667965841
 10
-79.19112828263687
 20
-77.48352260395663
 10
-81.59488009828837
 20
-78.39565045067121
 10
-80.43690226635357
 20
-87.45512749537082
  0
CIRCLE
  5
73e
100
AcDbEntity
  8
0
  6
CONTINUOUS
 62
     7
100
AcDbCircle
 10
0
 20
0
 40
5.999999523162842
  0
CIRCLE
  5
73f
100
AcDbEntity
  8
0
  6
CONTINUOUS
 62
     7
100
AcDbCircle
 10
0
 20
0
 40
4.999999523162842
  0
CIRCLE
  5
740
100
AcDbEntity
  8
0
  6
CONTINUOUS
 62
     7
100
AcDbCircle
 10
0
 20
0
 40
11
  0
CIRCLE
  5
741
100
AcDbEntity
  8
0
  6
CONTINUOUS
 62
     7
100
AcDbCircle
 10
0
 20
0
 40
12.99999809265137
  0
ARC
  5
742
100
AcDbEntity
  8
0
  6
CONTINUOUS
 62
     7
100
AcDbCircle
 10
-60.91148376464844
 20
-9.526275634765625
 40
5.622808456420898
100
AcDbArc
 50
334.3841592820751
 51
34.38424803663848
  0
ARC
  5
743
100
AcDbEntity
  8
0
  6
CONTINUOUS
 62
     7
100
AcDbCircle
 10
-57.08851623535156
 20
-9.526275634765625
 40
5.622808456420898
100
AcDbArc
 50
145.6157535572233
 51
205.6157415664978
  0
ARC
  5
744
100
AcDbEntity
  8
0
  6
CONTINUOUS
 62
     7
100
AcDbCircle
 10
-41.69381713867188
 20
0
 40
21.01751327514648
100
AcDbArc
 50
162.4120629904984
 51
197.5879333670366
  0
ARC
  5
745
100
AcDbEntity
  8
0
  6
CONTINUOUS
 62
     7
100
AcDbCircle
 10
-76.30618286132813
 20
0
 40
21.01751327514648
100
AcDbArc
 50
342.4120460287118
 51
17.58795567883627
  0
ARC
  5
746
100
AcDbEntity
  8
0
  6
CONTINUOUS
 62
     7
100
AcDbCircle
 10
-60.91148376464844
 20
9.526275634765625
 40
5.622808456420898
100
AcDbArc
 50
325.6156973218489
 51
25.61584071792557
  0
ARC
  5
747
100
AcDbEntity
  8
0
  6
CONTINUOUS
 62
     7
100
AcDbCircle
 10
-57.08851623535156
 20
9.526275634765625
 40
5.622808456420898
100
AcDbArc
 50
154.3842411306589
 51
214.3841744984201
  0
ARC
  5
748
100
AcDbEntity
  8
0
  6
CONTINUOUS
 62
   190
100
AcDbCircle
 10
-70.75
 20
0
 40
5.749997615814209
100
AcDbArc
 50
137.6573810608645
 51
222.3426016362921
  0
CIRCLE
  5
749
100
AcDbEntity
  8
0
  6
CONTINUOUS
 62
     7
100
AcDbCircle
 10
39
 20
0
 40
1.5
  0
CIRCLE
  5
74a
100
AcDbEntity
  8
0
  6
CONTINUOUS
 62
     7
100
AcDbCircle
 10
85
 20
0
 40
1.5
  0
ARC
  5
74b
100
AcDbEntity
  8
0
  6
CONTINUOUS
 62
     7
100
AcDbCircle
 10
-71.17459106445313
 20
-71.70906066894531
 40
15.885910987854
100
AcDbArc
 50
339.7437899407639
 51
20.25621005923677
  0
ARC
  5
74c
100
AcDbEntity
  8
0
  6
CONTINUOUS
 62
     7
100
AcDbCircle
 10
-71.17459106445313
 20
-82.70906066894531
 40
15.885910987854
100
AcDbArc
 50
339.7437899407639
 51
20.25621005923677
  0
ARC
  5
74d
100
AcDbEntity
  8
0
  6
CONTINUOUS
 62
     7
100
AcDbCircle
 10
-46.82540893554688
 20
-82.70906066894531
 40
15.885910987854
100
AcDbArc
 50
159.7438086100979
 51
200.2561740870588
  0
ARC
  5
74e
100
AcDbEntity
  8
0
  6
CONTINUOUS
 62
     7
100
AcDbCircle
 10
-46.82540893554688
 20
-71.70906066894531
 40
15.885910987854
100
AcDbArc
 50
159.7438086100979
 51
200.2561740870588
  0
MTEXT
  5
74f
100
AcDbEntity
  8
0
  6
CONTINUOUS
 62
     7
100
AcDbMText
 10
-23.42598873579264
 20
-9.355559556749128
 40
0.5
 41
24
 71
     7
 72
     1
  1
{\W0.843764;ＢＮ－６１０５－４０－Ｙ}
  0
MTEXT
  5
750
100
AcDbEntity
  8
0
  6
CONTINUOUS
 62
     7
100
AcDbMText
 10
-48.65356098115444
 20
-83.54999542236328
 40
0.5
 41
24
 71
     7
 72
     1
  1
{\W0.843764;ＢＮ－６１０５－４０－Ｙ}
  0
MTEXT
  5
751
100
AcDbEntity
  8
0
  6
CONTINUOUS
 62
     7
100
AcDbMText
 10
46.54643596708775
 20
-9.699999809265137
 40
0.5
 41
24
 71
     7
 72
     1
  1
{\W0.843764;ＢＮ－６１０５－４０－Ｙ}
  0
ENDBLK
  8
0
  5
752
100
AcDbEntity
100
AcDbBlockEnd
  0
BLOCK
  8
0
  5
753
100
AcDbEntity
100
AcDbBlockBegin
  2
KOZU0008
 70
    64
 10
0
 20
0
  0
POINT
  5
754
100
AcDbEntity
  8
0
  6
CONTINUOUS
 62
     7
100
AcDbPoint
 10
0
 20
0
  0
LINE
  5
755
100
AcDbEntity
  8
0
  6
CENTER
 62
     3
100
AcDbLine
 10
0
 20
-14.5
 11
0
 21
14.5
  0
LINE
  5
756
100
AcDbEntity
  8
0
  6
CENTER
 62
     3
100
AcDbLine
 10
-82.99998474121094
 20
0
 11
14.80396270751953
 21
0
  0
LINE
  5
757
100
AcDbEntity
  8
0
  6
CONTINUOUS
 62
     7
100
AcDbLine
 10
0.8039344248369669
 20
-5.945839823252593
 11
5.999992792359848
 21
-8.944225255172391
  0
LINE
  5
758
100
AcDbEntity
  8
0
  6
CONTINUOUS
 62
     7
100
AcDbLine
 10
5.999970225931261
 20
-12.0000421943571
 11
12.99997807188604
 21
-5.000034938458825
  0
LINE
  5
759
100
AcDbEntity
  8
0
  6
CONTINUOUS
 62
     7
100
AcDbLine
 10
13
 20
-5
 11
13
 21
5
  0
LINE
  5
75a
100
AcDbEntity
  8
0
  6
CONTINUOUS
 62
     7
100
AcDbLine
 10
5.999997199917036
 20
11.99997745679892
 11
12.99999965107498
 21
4.99997559569703
  0
LINE
  5
75b
100
AcDbEntity
  8
0
  6
CONTINUOUS
 62
     7
100
AcDbLine
 10
-54.00001525878906
 20
12
 11
6
 21
12
  0
LINE
  5
75c
100
AcDbEntity
  8
0
  6
CONTINUOUS
 62
     7
100
AcDbLine
 10
0.8039142571795703
 20
5.9459305845595
 11
5.999962506036267
 21
8.944310177503073
  0
LINE
  5
75d
100
AcDbEntity
  8
0
  6
CONTINUOUS
 62
     7
100
AcDbLine
 10
-25.00000805951882
 20
8.944324943713548
 11
-5.550241425429938
 21
-2.279162708849874
  0
LINE
  5
75e
100
AcDbEntity
  8
0
  6
CONTINUOUS
 62
     7
100
AcDbLine
 10
-25.0000358678017
 20
-8.944238591429505
 11
-5.550271092243344
 21
2.279247988668896
  0
LINE
  5
75f
100
AcDbEntity
  8
0
  6
CONTINUOUS
 62
     7
100
AcDbLine
 10
-25
 20
-8.94427490234375
 11
6
 21
-8.94427490234375
  0
LINE
  5
760
100
AcDbEntity
  8
0
  6
CONTINUOUS
 62
     7
100
AcDbLine
 10
-25
 20
-8.94427490234375
 11
-25
 21
8.94427490234375
  0
LINE
  5
761
100
AcDbEntity
  8
0
  6
CONTINUOUS
 62
     7
100
AcDbLine
 10
-25
 20
8.94427490234375
 11
6
 21
8.94427490234375
  0
LINE
  5
762
100
AcDbEntity
  8
0
  6
CONTINUOUS
 62
     7
100
AcDbLine
 10
-54.00001525878906
 20
-12
 11
6
 21
-12
  0
LINE
  5
763
100
AcDbEntity
  8
0
  6
CONTINUOUS
 62
     7
100
AcDbLine
 10
-54
 20
-12
 11
-54
 21
12
  0
LINE
  5
764
100
AcDbEntity
  8
0
  6
CONTINUOUS
 62
     7
100
AcDbLine
 10
-54.0000196434947
 20
-12.00007675477337
 11
-55.0000206800516
 21
-11.00007563392268
  0
LINE
  5
765
100
AcDbEntity
  8
0
  6
CONTINUOUS
 62
     7
100
AcDbLine
 10
-54.99998873273781
 20
10.99998720983479
 11
-54.00000919107447
 21
11.99996666720616
  0
LINE
  5
766
100
AcDbEntity
  8
0
  6
CONTINUOUS
 62
     7
100
AcDbLine
 10
-55
 20
-11.00001525878906
 11
-55
 21
11
  0
LINE
  5
767
100
AcDbEntity
  8
0
  6
CONTINUOUS
 62
     7
100
AcDbLine
 10
-54.9999882052316
 20
10.50000944130731
 11
-56.27114453337801
 21
12.70171674650284
  0
LINE
  5
768
100
AcDbEntity
  8
0
  6
CONTINUOUS
 62
     7
100
AcDbLine
 10
-61.72883605957031
 20
12.70170593261719
 11
-56.27116394042969
 21
12.70170593261719
  0
LINE
  5
769
100
AcDbEntity
  8
0
  6
CONTINUOUS
 62
     7
100
AcDbLine
 10
-62.99996210243362
 20
10.49999047816381
 11
-61.72879814489258
 21
12.70171099785823
  0
LINE
  5
76a
100
AcDbEntity
  8
0
  6
CONTINUOUS
 62
     7
100
AcDbLine
 10
-63
 20
-10.5
 11
-63
 21
10.5
  0
LINE
  5
76b
100
AcDbEntity
  8
0
  6
CONTINUOUS
 62
     7
100
AcDbLine
 10
-61.72883605957031
 20
6.350845336914063
 11
-56.27116394042969
 21
6.350845336914063
  0
LINE
  5
76c
100
AcDbEntity
  8
0
  6
CONTINUOUS
 62
     7
100
AcDbLine
 10
-61.72883605957031
 20
-6.350845336914063
 11
-56.27116394042969
 21
-6.350845336914063
  0
LINE
  5
76d
100
AcDbEntity
  8
0
  6
CONTINUOUS
 62
     7
100
AcDbLine
 10
-55.00000853805255
 20
-10.50000651181347
 11
-56.27115723680433
 21
-12.70170060251009
  0
LINE
  5
76e
100
AcDbEntity
  8
0
  6
CONTINUOUS
 62
     7
100
AcDbLine
 10
-61.72883605957031
 20
-12.70170593261719
 11
-56.27116394042969
 21
-12.70170593261719
  0
LINE
  5
76f
100
AcDbEntity
  8
0
  6
CONTINUOUS
 62
     7
100
AcDbLine
 10
-63.00001472324005
 20
-10.49996800080503
 11
-61.72885839509364
 21
-12.70167530600056
  0
LINE
  5
770
100
AcDbEntity
  8
0
  6
CONTINUOUS
 62
   190
100
AcDbLine
 10
-67.99998474121094
 20
-7
 11
-63
 21
-7
  0
LINE
  5
771
100
AcDbEntity
  8
0
  6
CONTINUOUS
 62
     3
100
AcDbLine
 10
-66.4064291701859
 20
-6.999978259259429
 11
-64.99999683777928
 21
-6.187974158973432
  0
LINE
  5
772
100
AcDbEntity
  8
0
  6
CONTINUOUS
 62
   190
100
AcDbLine
 10
-65
 20
7
 11
-65
 21
-7
  0
LINE
  5
773
100
AcDbEntity
  8
0
  6
CONTINUOUS
 62
     3
100
AcDbLine
 10
-64.99998474121094
 20
-6.188003540039063
 11
-63
 21
-6.188003540039063
  0
LINE
  5
774
100
AcDbEntity
  8
0
  6
CONTINUOUS
 62
   190
100
AcDbLine
 10
-67.99998474121094
 20
7
 11
-63
 21
7
  0
LINE
  5
775
100
AcDbEntity
  8
0
  6
CONTINUOUS
 62
     3
100
AcDbLine
 10
-66.40638683438453
 20
7.000028698833777
 11
-64.99996771647682
 21
6.188032227942411
  0
LINE
  5
776
100
AcDbEntity
  8
0
  6
CONTINUOUS
 62
     3
100
AcDbLine
 10
-64.99998474121094
 20
6.18798828125
 11
-63
 21
6.18798828125
  0
LINE
  5
777
100
AcDbEntity
  8
0
  6
CONTINUOUS
 62
   190
100
AcDbLine
 10
-68
 20
7
 11
-68
 21
-7
  0
LINE
  5
778
100
AcDbEntity
  8
0
  6
CONTINUOUS
 62
   190
100
AcDbLine
 10
-69.73200480529718
 20
8.000028884365889
 11
-67.99996061274958
 21
7.000032685602037
  0
LINE
  5
779
100
AcDbEntity
  8
0
  6
CONTINUOUS
 62
   190
100
AcDbLine
 10
-69.7320556640625
 20
7.999984741210938
 11
-69.7320556640625
 21
3.872970581054688
  0
LINE
  5
77a
100
AcDbEntity
  8
0
  6
CONTINUOUS
 62
   190
100
AcDbLine
 10
-82.76907348632813
 20
7.999984741210938
 11
-69.73202514648438
 21
7.999984741210938
  0
LWPOLYLINE
  5
77b
100
AcDbEntity
  8
0
  6
CONTINUOUS
 62
     7
100
AcDbPolyline
 90
     6
 70
     0
 10
-83.05709738651136
 20
10.25350684434256
 10
-81.89912150503035
 20
1.194045059081264
 10
-84.30287332068185
 20
0.2819172123666807
 10
-79.19107854478745
 20
-0.2744587119315334
 10
-81.59483036043893
 20
-1.186586558646114
 10
-80.43685447895793
 20
-10.24604834390742
  0
LINE
  5
77c
100
AcDbEntity
  8
0
  6
CONTINUOUS
 62
   190
100
AcDbLine
 10
-75
 20
3.872970581054688
 11
-75
 21
-3.87298583984375
  0
LINE
  5
77d
100
AcDbEntity
  8
0
  6
CONTINUOUS
 62
   190
100
AcDbLine
 10
-74.99998474121094
 20
3.872970581054688
 11
-67.99998474121094
 21
3.872970581054688
  0
LINE
  5
77e
100
AcDbEntity
  8
0
  6
CONTINUOUS
 62
   190
100
AcDbLine
 10
-68.00005548805734
 20
-3.872973977848933
 11
-75.00005176952408
 21
3.872987285581303
  0
LINE
  5
77f
100
AcDbEntity
  8
0
  6
CONTINUOUS
 62
   190
100
AcDbLine
 10
-68.00000389409897
 20
3.872968485329036
 11
-74.99999506022098
 21
-3.872987117632192
  0
LINE
  5
780
100
AcDbEntity
  8
0
  6
CONTINUOUS
 62
   190
100
AcDbLine
 10
-74.99998474121094
 20
-3.87298583984375
 11
-67.99998474121094
 21
-3.87298583984375
  0
LINE
  5
781
100
AcDbEntity
  8
0
  6
CONTINUOUS
 62
   190
100
AcDbLine
 10
-69.7320556640625
 20
-3.87298583984375
 11
-69.7320556640625
 21
-8
  0
LINE
  5
782
100
AcDbEntity
  8
0
  6
CONTINUOUS
 62
   190
100
AcDbLine
 10
-69.73205323727541
 20
-7.999990774086971
 11
-67.99998922297945
 21
-6.999983131231165
  0
LINE
  5
783
100
AcDbEntity
  8
0
  6
CONTINUOUS
 62
   190
100
AcDbLine
 10
-80.72395324707031
 20
-8
 11
-69.73202514648438
 21
-8
  0
LINE
  5
784
100
AcDbEntity
  8
0
  6
CENTER
 62
     3
100
AcDbLine
 10
62
 20
15
 11
62
 21
-15
  0
LINE
  5
785
100
AcDbEntity
  8
0
  6
CENTER
 62
     3
100
AcDbLine
 10
47
 20
0
 11
77
 21
0
  0
LINE
  5
786
100
AcDbEntity
  8
0
  6
CONTINUOUS
 62
     7
100
AcDbLine
 10
54
 20
8.94427490234375
 11
54
 21
-8.94427490234375
  0
LINE
  5
787
100
AcDbEntity
  8
0
  6
CONTINUOUS
 62
     7
100
AcDbLine
 10
70
 20
8.94427490234375
 11
70
 21
-8.94427490234375
  0
LINE
  5
788
100
AcDbEntity
  8
0
  6
CONTINUOUS
 62
     7
100
AcDbLine
 10
73.00006103515625
 20
4.79583740234375
 11
73.00006103515625
 21
6.350845336914063
  0
LINE
  5
789
100
AcDbEntity
  8
0
  6
CONTINUOUS
 62
     7
100
AcDbLine
 10
73.0000016698183
 20
6.350814561573266
 11
71.65331250070037
 21
7.128326885376584
  0
LINE
  5
78a
100
AcDbEntity
  8
0
  6
CONTINUOUS
 62
     7
100
AcDbLine
 10
63.34669425893446
 20
11.92416114335365
 11
61.9999984825691
 21
12.7016772818578
  0
LINE
  5
78b
100
AcDbEntity
  8
0
  6
CONTINUOUS
 62
     7
100
AcDbLine
 10
62.00005038615828
 20
12.70166974662424
 11
60.6533537791596
 21
11.92415504681919
  0
LINE
  5
78c
100
AcDbEntity
  8
0
  6
CONTINUOUS
 62
     7
100
AcDbLine
 10
52.34675023567926
 20
7.128341107031798
 11
51.00004702142909
 21
6.350822592532978
  0
LINE
  5
78d
100
AcDbEntity
  8
0
  6
CONTINUOUS
 62
     7
100
AcDbLine
 10
51.00006103515625
 20
6.350860595703125
 11
51.00006103515625
 21
4.79583740234375
  0
LINE
  5
78e
100
AcDbEntity
  8
0
  6
CONTINUOUS
 62
     7
100
AcDbLine
 10
51.00006103515625
 20
-4.795822143554688
 11
51.00006103515625
 21
-6.350845336914063
  0
LINE
  5
78f
100
AcDbEntity
  8
0
  6
CONTINUOUS
 62
     7
100
AcDbLine
 10
50.99994794419064
 20
-6.35091255391659
 11
52.34663700986786
 21
-7.128425056884218
  0
LINE
  5
790
100
AcDbEntity
  8
0
  6
CONTINUOUS
 62
     7
100
AcDbLine
 10
60.65325461359309
 20
-11.92426041997861
 11
61.99994367927032
 21
-12.70177292294624
  0
LINE
  5
791
100
AcDbEntity
  8
0
  6
CONTINUOUS
 62
     7
100
AcDbLine
 10
62.00001905208065
 20
-12.70172227063932
 11
63.34670915526833
 21
-11.92421156469249
  0
LINE
  5
792
100
AcDbEntity
  8
0
  6
CONTINUOUS
 62
     7
100
AcDbLine
 10
71.65332655129056
 20
-7.128391100634854
 11
73.00002326173025
 21
-6.350876579995134
  0
LINE
  5
793
100
AcDbEntity
  8
0
  6
CONTINUOUS
 62
     7
100
AcDbLine
 10
73.00006103515625
 20
-6.350860595703125
 11
73.00006103515625
 21
-4.79583740234375
  0
LINE
  5
794
100
AcDbEntity
  8
0
  6
CONTINUOUS
 62
     7
100
AcDbLine
 10
9.999891994594794
 20
-61.46321136578216
 11
12.99988996235001
 21
-64.46320908065646
  0
LINE
  5
795
100
AcDbEntity
  8
0
  6
CONTINUOUS
 62
     7
100
AcDbLine
 10
13
 20
-74.46310424804688
 11
13
 21
-64.46310424804688
  0
LINE
  5
796
100
AcDbEntity
  8
0
  6
CENTER
 62
     3
100
AcDbLine
 10
-82.99998474121094
 20
-69.46310424804688
 11
14.69601440429688
 21
-69.46310424804688
  0
LINE
  5
797
100
AcDbEntity
  8
0
  6
CONTINUOUS
 62
     7
100
AcDbLine
 10
10.00001831180396
 20
-77.46314045383193
 11
13.00002167435601
 21
-74.46313734416123
  0
LINE
  5
798
100
AcDbEntity
  8
0
  6
CONTINUOUS
 62
     7
100
AcDbLine
 10
-25
 20
-77.46310424804688
 11
10
 21
-77.46310424804688
  0
LINE
  5
799
100
AcDbEntity
  8
0
  6
DASHED
 62
     7
100
AcDbLine
 10
6
 20
-77.46310424804688
 11
6
 21
-61.46310424804688
  0
LINE
  5
79a
100
AcDbEntity
  8
0
  6
CENTER
 62
     3
100
AcDbLine
 10
0
 20
-80.46310424804688
 11
0
 21
-58.46310424804688
  0
LINE
  5
79b
100
AcDbEntity
  8
0
  6
DASHED
 62
     7
100
AcDbLine
 10
-6
 20
-77.46310424804688
 11
-6
 21
-61.46310424804688
  0
LINE
  5
79c
100
AcDbEntity
  8
0
  6
CONTINUOUS
 62
     7
100
AcDbLine
 10
-25
 20
-61.46310424804688
 11
10
 21
-61.46310424804688
  0
LINE
  5
79d
100
AcDbEntity
  8
0
  6
CONTINUOUS
 62
     7
100
AcDbLine
 10
-25
 20
-61.46310424804688
 11
-25
 21
-57.46310424804688
  0
LINE
  5
79e
100
AcDbEntity
  8
0
  6
CONTINUOUS
 62
     7
100
AcDbLine
 10
-54.00001525878906
 20
-57.46310424804688
 11
-25
 21
-57.46310424804688
  0
LINE
  5
79f
100
AcDbEntity
  8
0
  6
CONTINUOUS
 62
     7
100
AcDbLine
 10
-54
 20
-81.46310424804688
 11
-54
 21
-57.46310424804688
  0
LINE
  5
7a0
100
AcDbEntity
  8
0
  6
CONTINUOUS
 62
     7
100
AcDbLine
 10
-55.00016473150597
 20
-80.46320484485455
 11
-54.00016554941416
 21
-81.46320782016672
  0
LINE
  5
7a1
100
AcDbEntity
  8
0
  6
CONTINUOUS
 62
     7
100
AcDbLine
 10
-54.00001525878906
 20
-81.46310424804688
 11
-25
 21
-81.46310424804688
  0
LINE
  5
7a2
100
AcDbEntity
  8
0
  6
CONTINUOUS
 62
     7
100
AcDbLine
 10
-25
 20
-81.46310424804688
 11
-25
 21
-77.46310424804688
  0
LINE
  5
7a3
100
AcDbEntity
  8
0
  6
CONTINUOUS
 62
     7
100
AcDbLine
 10
-55.00001341310048
 20
-79.96312780537902
 11
-55.28867918847063
 21
-80.46311158575257
  0
LINE
  5
7a4
100
AcDbEntity
  8
0
  6
CONTINUOUS
 62
     7
100
AcDbLine
 10
-61.72883605957031
 20
-69.46310424804688
 11
-56.27116394042969
 21
-69.46310424804688
  0
LINE
  5
7a5
100
AcDbEntity
  8
0
  6
CONTINUOUS
 62
     7
100
AcDbLine
 10
-55
 20
-80.46310424804688
 11
-55
 21
-58.46310424804688
  0
LINE
  5
7a6
100
AcDbEntity
  8
0
  6
CONTINUOUS
 62
     7
100
AcDbLine
 10
-55.00002561122965
 20
-58.4630993065033
 11
-54.00002453252586
 21
-57.46309822779951
  0
LINE
  5
7a7
100
AcDbEntity
  8
0
  6
CONTINUOUS
 62
     7
100
AcDbLine
 10
-54.99995049017542
 20
-58.96307527273828
 11
-55.28863152433485
 21
-58.46306506336693
  0
LINE
  5
7a8
100
AcDbEntity
  8
0
  6
CONTINUOUS
 62
     7
100
AcDbLine
 10
-62.71131896972656
 20
-58.46310424804688
 11
-55.28868103027344
 21
-58.46310424804688
  0
LINE
  5
7a9
100
AcDbEntity
  8
0
  6
CONTINUOUS
 62
     7
100
AcDbLine
 10
-63.00001114298716
 20
-58.96314055509879
 11
-62.71131485003847
 21
-58.46310391672964
  0
LINE
  5
7aa
100
AcDbEntity
  8
0
  6
CONTINUOUS
 62
     7
100
AcDbLine
 10
-63
 20
-79.96310424804688
 11
-63
 21
-58.96310424804688
  0
LINE
  5
7ab
100
AcDbEntity
  8
0
  6
CONTINUOUS
 62
     7
100
AcDbLine
 10
-62.9999401572393
 20
-79.96304024861348
 11
-62.71126675247452
 21
-80.46303724348593
  0
LINE
  5
7ac
100
AcDbEntity
  8
0
  6
CONTINUOUS
 62
     7
100
AcDbLine
 10
-62.71131896972656
 20
-80.46310424804688
 11
-55.28868103027344
 21
-80.46310424804688
  0
LINE
  5
7ad
100
AcDbEntity
  8
0
  6
CONTINUOUS
 62
   190
100
AcDbLine
 10
-74.99998474121094
 20
-76.46310424804688
 11
-63
 21
-76.46310424804688
  0
LINE
  5
7ae
100
AcDbEntity
  8
0
  6
CONTINUOUS
 62
     3
100
AcDbLine
 10
-66.40645803869683
 20
-76.46309260568008
 11
-65.0000124917913
 21
-75.65108087599946
  0
LINE
  5
7af
100
AcDbEntity
  8
0
  6
CONTINUOUS
 62
   190
100
AcDbLine
 10
-65
 20
-62.46310424804688
 11
-65
 21
-76.46310424804688
  0
LINE
  5
7b0
100
AcDbEntity
  8
0
  6
CONTINUOUS
 62
     3
100
AcDbLine
 10
-64.99998474121094
 20
-75.65110778808594
 11
-63
 21
-75.65110778808594
  0
LINE
  5
7b1
100
AcDbEntity
  8
0
  6
CONTINUOUS
 62
     3
100
AcDbLine
 10
-64.99998474121094
 20
-63.27511596679688
 11
-63
 21
-63.27511596679688
  0
LINE
  5
7b2
100
AcDbEntity
  8
0
  6
CONTINUOUS
 62
   190
100
AcDbLine
 10
-74.99998474121094
 20
-62.46310424804688
 11
-63
 21
-62.46310424804688
  0
LINE
  5
7b3
100
AcDbEntity
  8
0
  6
CONTINUOUS
 62
     3
100
AcDbLine
 10
-66.40640637950473
 20
-62.46306650562944
 11
-64.999987261597
 21
-63.2750629765208
  0
LINE
  5
7b4
100
AcDbEntity
  8
0
  6
CONTINUOUS
 62
   190
100
AcDbLine
 10
-68
 20
-62.46310424804688
 11
-68
 21
-76.46310424804688
  0
LINE
  5
7b5
100
AcDbEntity
  8
0
  6
CONTINUOUS
 62
   190
100
AcDbLine
 10
-69.7320556640625
 20
-62.46310424804688
 11
-69.7320556640625
 21
-76.46310424804688
  0
LINE
  5
7b6
100
AcDbEntity
  8
0
  6
CONTINUOUS
 62
     7
100
AcDbLine
 10
-74.99998380254122
 20
-62.46317496833862
 11
-76.499988235849
 21
-61.46318723539555
  0
LINE
  5
7b7
100
AcDbEntity
  8
0
  6
CONTINUOUS
 62
   190
100
AcDbLine
 10
-82.76907348632813
 20
-61.46311950683594
 11
-76.49998474121094
 21
-61.46311950683594
  0
LINE
  5
7b8
100
AcDbEntity
  8
0
  6
CONTINUOUS
 62
     7
100
AcDbLine
 10
-74.99996474520239
 20
-76.46318545332376
 11
-76.4999558212252
 21
-77.46317946818792
  0
LINE
  5
7b9
100
AcDbEntity
  8
0
  6
CONTINUOUS
 62
   190
100
AcDbLine
 10
-80.72395324707031
 20
-77.46310424804688
 11
-76.49998474121094
 21
-77.46310424804688
  0
LWPOLYLINE
  5
7ba
100
AcDbEntity
  8
0
  6
CONTINUOUS
 62
     7
100
AcDbPolyline
 90
     6
 70
     0
 10
-83.05709396853744
 20
-59.20959789713331
 10
-81.89911710391816
 20
-68.2690673740088
 10
-84.30286891956965
 20
-69.18119522072338
 10
-79.19107414367524
 20
-69.7375711450216
 10
-81.59482595932673
 20
-70.64969899173617
 10
-80.43684909470744
 20
-79.70916846861167
  0
LINE
  5
7bb
100
AcDbEntity
  8
0
  6
DASHED
 62
     7
100
AcDbLine
 10
54
 20
-6
 11
70
 21
-6
  0
LINE
  5
7bc
100
AcDbEntity
  8
0
  6
DASHED
 62
     7
100
AcDbLine
 10
54
 20
6
 11
70
 21
6
  0
LINE
  5
7bd
100
AcDbEntity
  8
0
  6
CONTINUOUS
 62
     7
100
AcDbLine
 10
5.999974250793457
 20
12
 11
5.999974250793457
 21
8.94427490234375
  0
LINE
  5
7be
100
AcDbEntity
  8
0
  6
CONTINUOUS
 62
     7
100
AcDbLine
 10
5.999974250793457
 20
-8.94427490234375
 11
5.999974250793457
 21
-12
  0
CIRCLE
  5
7bf
100
AcDbEntity
  8
0
  6
CONTINUOUS
 62
     7
100
AcDbCircle
 10
0
 20
0
 40
6
  0
ARC
  5
7c0
100
AcDbEntity
  8
0
  6
CONTINUOUS
 62
     7
100
AcDbCircle
 10
-2
 20
0
 40
12.00000667572022
100
AcDbArc
 50
311.8103311412169
 51
48.18966885878378
  0
ARC
  5
7c1
100
AcDbEntity
  8
0
  6
CONTINUOUS
 62
     7
100
AcDbCircle
 10
-57.0885009765625
 20
9.526275634765625
 40
5.622808456420898
100
AcDbArc
 50
154.3842411306589
 51
214.3841744984201
  0
ARC
  5
7c2
100
AcDbEntity
  8
0
  6
CONTINUOUS
 62
     7
100
AcDbCircle
 10
-60.9114990234375
 20
9.526275634765625
 40
5.622808456420898
100
AcDbArc
 50
325.6156973218489
 51
25.61584071792557
  0
ARC
  5
7c3
100
AcDbEntity
  8
0
  6
CONTINUOUS
 62
     7
100
AcDbCircle
 10
-76.30618286132813
 20
0
 40
21.01751327514648
100
AcDbArc
 50
342.4120460287118
 51
17.58795567883627
  0
ARC
  5
7c4
100
AcDbEntity
  8
0
  6
CONTINUOUS
 62
     7
100
AcDbCircle
 10
-41.69378662109375
 20
0
 40
21.01751327514648
100
AcDbArc
 50
162.4120629904984
 51
197.5879333670366
  0
ARC
  5
7c5
100
AcDbEntity
  8
0
  6
CONTINUOUS
 62
     7
100
AcDbCircle
 10
-57.0885009765625
 20
-9.526275634765625
 40
5.622808456420898
100
AcDbArc
 50
145.6157535572233
 51
205.6157415664978
  0
ARC
  5
7c6
100
AcDbEntity
  8
0
  6
CONTINUOUS
 62
     7
100
AcDbCircle
 10
-60.9114990234375
 20
-9.526275634765625
 40
5.622808456420898
100
AcDbArc
 50
334.3841592820751
 51
34.38424803663848
  0
ARC
  5
7c7
100
AcDbEntity
  8
0
  6
CONTINUOUS
 62
   190
100
AcDbCircle
 10
-70.75
 20
0
 40
5.749997615814209
100
AcDbArc
 50
137.6573810608645
 51
222.3426016362921
  0
CIRCLE
  5
7c8
100
AcDbEntity
  8
0
  6
CONTINUOUS
 62
     7
100
AcDbCircle
 10
62
 20
0
 40
5
  0
CIRCLE
  5
7c9
100
AcDbEntity
  8
0
  6
CONTINUOUS
 62
     7
100
AcDbCircle
 10
62
 20
0
 40
12
  0
ARC
  5
7ca
100
AcDbEntity
  8
0
  6
CONTINUOUS
 62
     7
100
AcDbCircle
 10
-71.17459106445313
 20
-74.96310424804688
 40
15.885910987854
100
AcDbArc
 50
339.7437899407639
 51
20.25621005923677
  0
ARC
  5
7cb
100
AcDbEntity
  8
0
  6
CONTINUOUS
 62
     7
100
AcDbCircle
 10
-71.17459106445313
 20
-63.96310424804688
 40
15.885910987854
100
AcDbArc
 50
339.7437899407639
 51
20.25621005923677
  0
ARC
  5
7cc
100
AcDbEntity
  8
0
  6
CONTINUOUS
 62
     7
100
AcDbCircle
 10
-46.825439453125
 20
-63.96310424804688
 40
15.885910987854
100
AcDbArc
 50
159.7438086100979
 51
200.2561740870588
  0
ARC
  5
7cd
100
AcDbEntity
  8
0
  6
CONTINUOUS
 62
     7
100
AcDbCircle
 10
-46.825439453125
 20
-74.96310424804688
 40
15.885910987854
100
AcDbArc
 50
159.7438086100979
 51
200.2561740870588
  0
MTEXT
  5
7ce
100
AcDbEntity
  8
0
  6
CONTINUOUS
 62
     7
100
AcDbMText
 10
-43.71561466157436
 20
-5.884073257446289
 40
0.5
 41
24
 71
     7
 72
     1
  1
{\W0.843764;ＢＮ－６１０５－４０－Ｔ}
  0
MTEXT
  5
7cf
100
AcDbEntity
  8
0
  6
CONTINUOUS
 62
     7
100
AcDbMText
 10
-43.1312488168478
 20
-75.71577453613281
 40
0.5
 41
24
 71
     7
 72
     1
  1
{\W0.843764;ＢＮ－６１０５－４０－Ｔ}
  0
MTEXT
  5
7d0
100
AcDbEntity
  8
0
  6
CONTINUOUS
 62
     7
100
AcDbMText
 10
55.04219402372837
 20
-8.805902481079102
 40
0.5
 41
24
 71
     7
 72
     1
  1
{\W0.843764;ＢＮ－６１０５－４０－Ｔ}
  0
ENDBLK
  8
0
  5
7d1
100
AcDbEntity
100
AcDbBlockEnd
  0
BLOCK
  8
0
  5
7d2
100
AcDbEntity
100
AcDbBlockBegin
  2
KOZU0009
 70
    64
 10
0
 20
0
  0
LINE
  5
7d3
100
AcDbEntity
  8
0
  6
CONTINUOUS
 62
     3
100
AcDbLine
 10
-22.14583940458758
 20
3.000000000000057
 11
-21.30565738677967
 21
3.840183698173686
  0
LINE
  5
7d4
100
AcDbEntity
  8
0
  6
CONTINUOUS
 62
     3
100
AcDbLine
 10
-22.90565681457507
 20
3.138207580404741
 11
-21.84386647087886
 21
4.200000047683759
  0
LINE
  5
7d5
100
AcDbEntity
  8
0
  6
CONTINUOUS
 62
     3
100
AcDbLine
 10
-22.90565681457507
 20
4.036234090433249
 11
-22.74189118485614
 21
4.20000004768376
  0
LINE
  5
7d6
100
AcDbEntity
  8
0
  6
CONTINUOUS
 62
     3
100
AcDbLine
 10
-21.42807947804926
 20
11.79999995231624
 11
-21.30565738677967
 21
11.92242228843025
  0
LINE
  5
7d7
100
AcDbEntity
  8
0
  6
CONTINUOUS
 62
     3
100
AcDbLine
 10
-22.32610419202654
 20
11.79999995231624
 11
-21.30565738677967
 21
12.82044879845876
  0
LINE
  5
7d8
100
AcDbEntity
  8
0
  6
CONTINUOUS
 62
     3
100
AcDbLine
 10
-22.90565681457507
 20
12.11847268068981
 11
-22.02413125831782
 21
12.99999999999994
  0
ENDBLK
  8
0
  5
7d9
100
AcDbEntity
100
AcDbBlockEnd
  0
BLOCK
  8
0
  5
7da
100
AcDbEntity
100
AcDbBlockBegin
  2
KOZU0010
 70
    64
 10
0
 20
0
  0
LINE
  5
7db
100
AcDbEntity
  8
0
  6
CONTINUOUS
 62
     3
100
AcDbLine
 10
22.75539629427649
 20
2.999999999999998
 11
22.9056568145752
 21
3.150260820820042
  0
LINE
  5
7dc
100
AcDbEntity
  8
0
  6
CONTINUOUS
 62
     3
100
AcDbLine
 10
21.85737158029921
 20
3
 11
22.9056568145752
 21
4.048287330848551
  0
LINE
  5
7dd
100
AcDbEntity
  8
0
  6
CONTINUOUS
 62
     3
100
AcDbLine
 10
21.30565738677979
 20
3.346311213079593
 11
22.15934451400795
 21
4.200000047683714
  0
LINE
  5
7de
100
AcDbEntity
  8
0
  6
CONTINUOUS
 62
     3
100
AcDbLine
 10
22.57513150683764
 20
11.79999995231628
 11
22.9056568145752
 21
12.13052592110512
  0
LINE
  5
7df
100
AcDbEntity
  8
0
  6
CONTINUOUS
 62
     3
100
AcDbLine
 10
21.67710679286035
 20
11.79999995231628
 11
22.87710444054638
 21
13
  0
LINE
  5
7e0
100
AcDbEntity
  8
0
  6
CONTINUOUS
 62
     3
100
AcDbLine
 10
21.30565738677979
 20
12.32657631336467
 11
21.97907972656909
 21
13
  0
ENDBLK
  8
0
  5
7e1
100
AcDbEntity
100
AcDbBlockEnd
  0
ENDSEC
  0
SECTION
  2
ENTITIES
  0
LINE
  5
7e2
100
AcDbEntity
  8
0
  6
CONTINUOUS
 62
     7
100
AcDbLine
 10
328.4644729280826
 20
-225.2374572753906
 11
253.2767333984375
 21
-225.2374572753906
  0
LINE
  5
7e3
100
AcDbEntity
  8
0
  6
CONTINUOUS
 62
     7
100
AcDbLine
 10
253.2767333984375
 20
-218.6374572753906
 11
328.4644729280826
 21
-218.6374572753906
  0
LINE
  5
7e4
100
AcDbEntity
  8
0
  6
CONTINUOUS
 62
     7
100
AcDbLine
 10
253.2767333984375
 20
-212.0374572753906
 11
328.4644729280826
 21
-212.0374572753906
  0
LINE
  5
7e5
100
AcDbEntity
  8
0
  6
CONTINUOUS
 62
     7
100
AcDbLine
 10
253.2767333984375
 20
-236.2374572753906
 11
392.7470153808594
 21
-236.2374572753906
  0
LINE
  5
7e6
100
AcDbEntity
  8
0
  6
CONTINUOUS
 62
     7
100
AcDbLine
 10
253.2767333984375
 20
-269.8341522216797
 11
392.7470153808594
 21
-269.8341522216797
  0
LINE
  5
7e7
100
AcDbEntity
  8
0
  6
CONTINUOUS
 62
     7
100
AcDbLine
 10
253.2767333984375
 20
-236.2374572753906
 11
253.2767333984375
 21
-269.8341522216797
  0
LINE
  5
7e8
100
AcDbEntity
  8
0
  6
PHANTOM
 62
     7
100
AcDbLine
 10
-199.0831909179688
 20
-162.170654296875
 11
224.5926208496094
 21
-162.170654296875
  0
LINE
  5
7e9
100
AcDbEntity
  8
0
  6
PHANTOM
 62
     7
100
AcDbLine
 10
-199.0831909179688
 20
-162.170654296875
 11
-199.0831909179688
 21
-336.457763671875
  0
LINE
  5
7ea
100
AcDbEntity
  8
0
  6
PHANTOM
 62
     7
100
AcDbLine
 10
224.5926208496094
 20
-162.170654296875
 11
224.5926208496094
 21
-336.457763671875
  0
LINE
  5
7eb
100
AcDbEntity
  8
0
  6
PHANTOM
 62
     7
100
AcDbLine
 10
3.220962524414063
 20
-162.170654296875
 11
3.220962524414063
 21
-336.457763671875
  0
LINE
  5
7ec
100
AcDbEntity
  8
0
  6
PHANTOM
 62
     7
100
AcDbLine
 10
-199.0831909179688
 20
-336.457763671875
 11
224.5926208496094
 21
-336.457763671875
  0
LINE
  5
7ed
100
AcDbEntity
  8
0
  6
CONTINUOUS
 62
     7
100
AcDbLine
 10
392.7470153808594
 20
-236.2374572753906
 11
392.7470153808594
 21
-269.8341522216797
  0
ARC
  5
7ee
100
AcDbEntity
  8
0
  6
PHANTOM
 62
     7
100
AcDbCircle
 10
-93.2691650390625
 20
-203.6550750732422
 40
14.5
100
AcDbArc
 50
270.0000000000005
 51
90.00000000000019
  0
MTEXT
  5
7ef
100
AcDbEntity
  8
0
  6
CONTINUOUS
 62
     7
100
AcDbMText
 10
254.5711620092392
 20
-211.2374572753906
 40
5
 41
300
 71
     7
 72
     1
  1
{\W0.843062;最高使用圧力　：　１．０ＭＰａ}
  0
MTEXT
  5
7f0
100
AcDbEntity
  8
0
  6
CONTINUOUS
 62
     7
100
AcDbMText
 10
254.5711620092392
 20
-217.8374572753906
 40
5
 41
300
 71
     7
 72
     1
  1
{\W0.843062;耐圧力　　　　：　１．５ＭＰａ}
  0
MTEXT
  5
7f1
100
AcDbEntity
  8
0
  6
CONTINUOUS
 62
     7
100
AcDbMText
 10
254.5711621284485
 20
-224.4374572753906
 40
5
 41
240
 71
     7
 72
     1
  1
{\W0.843763;周囲温度　　　：　常　温}
  0
MTEXT
  5
7f2
100
AcDbEntity
  8
0
  6
CONTINUOUS
 62
     7
100
AcDbMText
 10
294.3483937740326
 20
-245.34794921875
 40
6
 41
192
 71
     7
 72
     1
  1
{\W0.845552;日本精器株式会社}
  0
MTEXT
  5
7f3
100
AcDbEntity
  8
0
  6
CONTINUOUS
 62
     7
100
AcDbMText
 10
286.363524389267
 20
-256.0124740600586
 40
6
 41
168
 71
     7
 72
     1
  1
{\W0.846334;空気圧シリンダ}
  0
MTEXT
  5
7f4
100
AcDbEntity
  8
0
  6
CONTINUOUS
 62
     7
100
AcDbMText
 10
257.213524389267
 20
-256.0124740600586
 40
6
 41
72
 71
     7
 72
     1
  1
{\W0.855331;品　名}
  0
MTEXT
  5
7f5
100
AcDbEntity
  8
0
  6
CONTINUOUS
 62
     7
100
AcDbMText
 10
257.213524389267
 20
-266.1874908447265
 40
6
 41
72
 71
     7
 72
     1
  1
{\W0.855331;型　番}
  0
MTEXT
  5
7f6
100
AcDbEntity
  8
0
  6
CONTINUOUS
 62
     7
100
AcDbMText
 10
286.363524389267
 20
-266.1874908447265
 40
6
 41
408
 71
     7
 72
     1
  1
{\W0.842735;ＢＮ－６１０５－ＦＢ－４０－Ｂ－＊}
  0
MTEXT
  5
7f7
100
AcDbEntity
  8
0
  6
CONTINUOUS
 62
     7
100
AcDbMText
 10
46.02841091156006
 20
93.21865844726563
 40
7
 41
56
 71
     7
 72
     1
  1
{\W0.864328;＊１}
  0
MTEXT
  5
7f8
100
AcDbEntity
  8
0
  6
CONTINUOUS
 62
     7
100
AcDbMText
 10
48.81386852264404
 20
143.3569183349609
 40
7
 41
56
 71
     7
 72
     1
  1
{\W0.864328;＊２}
  0
MTEXT
  5
7f9
100
AcDbEntity
  8
0
  6
CONTINUOUS
 62
     7
100
AcDbMText
 10
-180.7878999710083
 20
88.337890625
 40
7
 41
56
 71
     7
 72
     1
  1
{\W0.864328;＊３}
  0
MTEXT
  5
7fa
100
AcDbEntity
  8
0
  6
CONTINUOUS
 62
     7
100
AcDbMText
 10
247.5079069137573
 20
93.84996795654297
 40
7
 41
56
 71
     7
 72
     1
  1
{\W0.864328;＊４}
  0
MTEXT
  5
7fb
100
AcDbEntity
  8
0
  6
CONTINUOUS
 62
     7
100
AcDbMText
 10
342.3902006149292
 20
94.48676300048828
 40
7
 41
56
 71
     7
 72
     1
  1
{\W0.864328;＊５}
  0
MTEXT
  5
7fc
100
AcDbEntity
  8
0
  6
CONTINUOUS
 62
     7
100
AcDbMText
 10
48.81386852264404
 20
-65.55253601074219
 40
7
 41
56
 71
     7
 72
     1
  1
{\W0.864328;＊６}
  0
MTEXT
  5
7fd
100
AcDbEntity
  8
0
  6
CONTINUOUS
 62
     7
100
AcDbMText
 10
18.80787944793701
 20
-182.4176788330078
 40
7
 41
56
 71
     7
 72
     1
  1
{\W0.864328;＊７}
  0
MTEXT
  5
7fe
100
AcDbEntity
  8
0
  6
CONTINUOUS
 62
     7
100
AcDbMText
 10
-184.8360261917114
 20
-181.0779266357422
 40
7
 41
56
 71
     7
 72
     1
  1
{\W0.864328;＊８}
  0
MTEXT
  5
7ff
100
AcDbEntity
  8
0
  6
CONTINUOUS
 62
     7
100
AcDbMText
 10
-119.7561228275299
 20
-175.5719604492188
 40
6
 41
120
 71
     7
 72
     1
  1
{\W0.848905;Ｔコネクタ}
  0
MTEXT
  5
800
100
AcDbEntity
  8
0
  6
CONTINUOUS
 62
     7
100
AcDbMText
 10
98.64515280723572
 20
-175.1483001708984
 40
6
 41
120
 71
     7
 72
     1
  1
{\W0.848905;Ｙコネクタ}
  0
INSERT
  5
801
100
AcDbEntity
  8
0
  6
CONTINUOUS
 62
     7
100
AcDbBlockReference
  2
KOZU0001
 10
18.59938049316406
 20
52.92910766601563
  0
INSERT
  5
802
100
AcDbEntity
  8
0
  6
CONTINUOUS
 62
     7
100
AcDbBlockReference
  2
KOZU0002
 10
18.59938049316406
 20
176.8527526855469
  0
INSERT
  5
803
100
AcDbEntity
  8
0
  6
CONTINUOUS
 62
     7
100
AcDbBlockReference
  2
KOZU0003
 10
-232.3006286621094
 20
52.9290771484375
  0
INSERT
  5
804
100
AcDbEntity
  8
0
  6
CONTINUOUS
 62
     7
100
AcDbBlockReference
  2
KOZU0004
 10
193.4993743896484
 20
52.92906188964844
  0
INSERT
  5
805
100
AcDbEntity
  8
0
  6
CONTINUOUS
 62
     7
100
AcDbBlockReference
  2
KOZU0005
 10
348.3993530273438
 20
52.92910766601563
  0
INSERT
  5
806
100
AcDbEntity
  8
0
  6
CONTINUOUS
 62
     7
100
AcDbBlockReference
  2
KOZU0006
 10
18.59938049316406
 20
-90.99455261230469
  0
INSERT
  5
807
100
AcDbEntity
  8
0
  6
CONTINUOUS
 62
     7
100
AcDbBlockReference
  2
KOZU0007
 10
116.0169677734375
 20
-203.6550750732422
  0
INSERT
  5
808
100
AcDbEntity
  8
0
  6
CONTINUOUS
 62
     7
100
AcDbBlockReference
  2
KOZU0008
 10
-93.2691650390625
 20
-203.6550750732422
  0
DIMENSION
  5
809
100
AcDbEntity
  8
0
  6
CONTINUOUS
 62
     7
100
AcDbDimension
  2
*D1
 70
     0
 10
-102.4006042480469
 20
91.77685546875
 11
-108.9006042480469
 21
91.77685546875
  3
DIMSTYLE
100
AcDbAlignedDimension
 13
-115.4006042480469
 23
81.62908935546875
 14
-102.4006042480469
 24
83.92909240722656
 50
0
100
AcDbRotatedDimension
1001
ACAD
1000
DSTYLE
1002
{
1070
     6
1000
_OPEN30
1070
     7
1000
_OPEN30
1070
    77
1070
     1
1070
   172
1070
     1
1070
    42
1040
0
1002
}
  0
DIMENSION
  5
80a
100
AcDbEntity
  8
0
  6
CONTINUOUS
 62
     7
100
AcDbDimension
  2
*D2
 70
     0
 10
5.599380493164063
 20
91.77685546875
 11
12.09938049316406
 21
91.77685546875
  3
DIMSTYLE
100
AcDbAlignedDimension
 13
18.59938049316406
 23
81.62908935546875
 14
5.599380493164063
 24
83.92909240722656
 50
0
100
AcDbRotatedDimension
1001
ACAD
1000
DSTYLE
1002
{
1070
     6
1000
_OPEN30
1070
     7
1000
_OPEN30
1070
    77
1070
     1
1070
   172
1070
     1
1070
    42
1040
0
1002
}
  0
LINE
  5
80b
100
AcDbEntity
  8
0
  6
CONTINUOUS
 62
     7
100
AcDbLine
 10
-96.01928714404663
 20
75.58963052851215
 11
-79.98222318785236
 21
92.07234923013439
  0
LINE
  5
80c
100
AcDbEntity
  8
0
  6
CONTINUOUS
 62
     7
100
AcDbLine
 10
-96.01928714404663
 20
75.58963052851215
 11
-94.24077526542219
 21
78.22347243610859
  0
LINE
  5
80d
100
AcDbEntity
  8
0
  6
CONTINUOUS
 62
     7
100
AcDbLine
 10
-96.01928714404663
 20
75.58963052851215
 11
-93.43517103512555
 21
77.43964988847414
  0
MTEXT
  5
80e
100
AcDbEntity
  8
0
  6
CONTINUOUS
 62
     7
100
AcDbMText
 10
-74.59041595458984
 20
92.07234954833984
 40
4
 41
112
 71
     4
 72
     1
  1
{\W0.846334;２－Ｒｃ１／４}
  0
LINE
  5
80f
100
AcDbEntity
  8
0
  6
CONTINUOUS
 62
     7
100
AcDbLine
 10
-96.01928714404663
 20
75.58963052851215
 11
-79.98222318785236
 21
92.07234923013439
  0
LINE
  5
810
100
AcDbEntity
  8
0
  6
CONTINUOUS
 62
     7
100
AcDbLine
 10
-79.98222351074219
 20
92.07234954833984
 11
-75.73341369628906
 21
92.07234954833984
  0
DIMENSION
  5
811
100
AcDbEntity
  8
0
  6
CONTINUOUS
 62
     7
100
AcDbDimension
  2
*D3
 70
     0
 10
18.59938049316406
 20
10.68684387207031
 11
5.599380493164063
 21
10.68684387207031
  3
DIMSTYLE
100
AcDbAlignedDimension
 13
-7.400619506835938
 23
24.42910575866699
 14
18.59938049316406
 24
24.22910881042481
 50
0
100
AcDbRotatedDimension
1001
ACAD
1000
DSTYLE
1002
{
1070
     6
1000
_OPEN30
1070
     7
1000
_OPEN30
1070
    77
1070
     1
1070
   172
1070
     1
1070
    42
1040
0
1002
}
  0
DIMENSION
  5
812
100
AcDbEntity
  8
0
  6
CONTINUOUS
 62
     7
100
AcDbDimension
  2
*D4
 70
     0
 10
-89.40060424804688
 20
10.68684387207031
 11
-102.4006042480469
 21
10.68684387207031
  3
DIMSTYLE
100
AcDbAlignedDimension
 13
-115.4006042480469
 23
24.22910881042481
 14
-89.40060424804688
 24
24.42910575866699
 50
0
100
AcDbRotatedDimension
1001
ACAD
1000
DSTYLE
1002
{
1070
     6
1000
_OPEN30
1070
     7
1000
_OPEN30
1070
    77
1070
     1
1070
   172
1070
     1
1070
    42
1040
0
1002
}
  0
DIMENSION
  5
813
100
AcDbEntity
  8
0
  6
CONTINUOUS
 62
     7
100
AcDbDimension
  2
*D5
 70
     0
 10
29.599365234375
 20
10.68684387207031
 11
24.099365234375
 21
10.68684387207031
  3
DIMSTYLE
100
AcDbAlignedDimension
 13
18.59938049316406
 23
24.22910881042481
 14
29.599365234375
 24
38.3291015625
 50
0
100
AcDbRotatedDimension
1001
ACAD
1000
DSTYLE
1002
{
1070
     6
1000
_OPEN30
1070
     7
1000
_OPEN30
1070
    77
1070
     1
1070
   172
1070
     1
1070
    75
1070
     1
1002
}
  0
DIMENSION
  5
814
100
AcDbEntity
  8
0
  6
CONTINUOUS
 62
     7
100
AcDbDimension
  2
*D6
 70
     0
 10
39.599365234375
 20
-0.2669906616210938
 11
29.099365234375
 21
-0.2669906616210938
  3
DIMSTYLE
100
AcDbAlignedDimension
 13
18.59938049316406
 23
24.22910881042481
 14
39.599365234375
 24
45.92910385131836
 50
0
100
AcDbRotatedDimension
1001
ACAD
1000
DSTYLE
1002
{
1070
     6
1000
_OPEN30
1070
     7
1000
_OPEN30
1070
    77
1070
     1
1070
   172
1070
     1
1070
    42
1040
0
1002
}
  0
DIMENSION
  5
815
100
AcDbEntity
  8
0
  6
CONTINUOUS
 62
     7
100
AcDbDimension
  2
*D7
 70
     0
 10
69.599365234375
 20
-0.2669906616210938
 11
54.599365234375
 21
-0.2669906616210938
  3
DIMSTYLE
100
AcDbAlignedDimension
 13
39.599365234375
 23
45.92910385131836
 14
69.599365234375
 24
47.42910003662109
 50
0
100
AcDbRotatedDimension
1001
ACAD
1000
DSTYLE
1002
{
1070
     6
1000
_OPEN30
1070
     7
1000
_OPEN30
1070
    77
1070
     1
1070
   172
1070
     1
1070
    75
1070
     1
1002
}
  0
DIMENSION
  5
816
100
AcDbEntity
  8
0
  6
CONTINUOUS
 62
     7
100
AcDbDimension
  2
*D8
 70
     0
 10
42.599365234375
 20
10.68684387207031
 11
56.099365234375
 21
10.68684387207031
  3
DIMSTYLE
100
AcDbAlignedDimension
 13
69.599365234375
 23
47.42910003662109
 14
42.599365234375
 24
45.92910385131836
 50
0
100
AcDbRotatedDimension
1001
ACAD
1000
DSTYLE
1002
{
1070
     6
1000
_OPEN30
1070
     7
1000
_OPEN30
1070
    77
1070
     1
1070
   172
1070
     1
1070
    42
1040
0
1002
}
  0
DIMENSION
  5
817
100
AcDbEntity
  8
0
  6
CONTINUOUS
 62
     7
100
AcDbDimension
  2
*D9
 70
     0
 10
58.59938049316406
 20
27.38606359481812
 11
54.59938049316406
 21
27.38606359481812
  3
DIMSTYLE
100
AcDbAlignedDimension
 13
50.59938049316406
 23
42.42910003662109
 14
58.59938049316406
 24
42.42910003662109
 50
0
100
AcDbRotatedDimension
1001
ACAD
1000
DSTYLE
1002
{
1070
     6
1000
_OPEN30
1070
     7
1000
_OPEN30
1070
    77
1070
     1
1070
   172
1070
     1
1070
    42
1040
0
1002
}
  0
DIMENSION
  5
818
100
AcDbEntity
  8
0
  6
CONTINUOUS
 62
     7
100
AcDbDimension
  2
*D10
 70
     0
 10
-115.4006195068359
 20
-0.2669906616210938
 11
-48.40060424804688
 21
-0.2669906616210938
  3
DIMSTYLE
100
AcDbAlignedDimension
 13
18.59938049316406
 23
24.22910881042481
 14
-115.4006042480469
 24
24.22910881042481
 50
0
100
AcDbRotatedDimension
1001
ACAD
1000
DSTYLE
1002
{
1070
     6
1000
_OPEN30
1070
     7
1000
_OPEN30
1070
    77
1070
     1
1070
   172
1070
     1
1070
    75
1070
     1
1002
}
  0
DIMENSION
  5
819
100
AcDbEntity
  8
0
  6
CONTINUOUS
 62
     7
100
AcDbDimension
  2
*D11
 70
     0
 10
213.749267578125
 20
8.818624496459961
 11
193.4993286132813
 21
8.818624496459961
  3
DIMSTYLE
100
AcDbAlignedDimension
 13
173.2493743896484
 23
32.67910766601563
 14
213.749267578125
 24
32.67910766601563
 50
0
100
AcDbRotatedDimension
1001
ACAD
1000
DSTYLE
1002
{
1070
     6
1000
_OPEN30
1070
     7
1000
_OPEN30
1070
    77
1070
     1
1070
   172
1070
     1
1070
    42
1040
0
1002
}
  0
DIMENSION
  5
81a
100
AcDbEntity
  8
0
  6
CONTINUOUS
 62
     7
100
AcDbDimension
  2
*D12
 70
     0
 10
222.499267578125
 20
-0.266998291015625
 11
193.4993286132813
 21
-0.266998291015625
  3
DIMSTYLE
100
AcDbAlignedDimension
 13
164.4993743896484
 23
27.92906951904297
 14
222.499267578125
 24
27.92906951904297
 50
0
100
AcDbRotatedDimension
1001
ACAD
1000
DSTYLE
1002
{
1070
     6
1000
_OPEN30
1070
     7
1000
_OPEN30
1070
    77
1070
     1
1070
   172
1070
     1
1070
    42
1040
0
1002
}
  0
LINE
  5
81b
100
AcDbEntity
  8
0
  6
CONTINUOUS
 62
     7
100
AcDbLine
 10
171.8311477245703
 20
76.74466754465522
 11
165.6403821004936
 21
94.90427491657317
  0
LINE
  5
81c
100
AcDbEntity
  8
0
  6
CONTINUOUS
 62
     7
100
AcDbLine
 10
171.8311477245703
 20
76.74466754465522
 11
170.2898862943894
 21
79.52400935531043
  0
LINE
  5
81d
100
AcDbEntity
  8
0
  6
CONTINUOUS
 62
     7
100
AcDbLine
 10
171.8311477245703
 20
76.74466754465522
 11
171.353763901986
 21
79.88669433998246
  0
MTEXT
  5
81e
100
AcDbEntity
  8
0
  6
CONTINUOUS
 62
     7
100
AcDbMText
 10
162.4418487548828
 20
94.90428161621094
 40
4
 41
144
 71
     6
 72
     1
  1
{\W0.84495;４－Ｍ８ｘ１．２５}
  0
LINE
  5
81f
100
AcDbEntity
  8
0
  6
CONTINUOUS
 62
     7
100
AcDbLine
 10
171.8311477245703
 20
76.74466754465522
 11
165.6403821004936
 21
94.90427491657317
  0
LINE
  5
820
100
AcDbEntity
  8
0
  6
CONTINUOUS
 62
     7
100
AcDbLine
 10
165.6403821597775
 20
94.90427716939058
 11
163.5848554263933
 21
94.9042847987853
  0
LINE
  5
821
100
AcDbEntity
  8
0
  6
CONTINUOUS
 62
     7
100
AcDbLine
 10
62.82289128749535
 20
59.91444894678151
 11
66.53471335826373
 21
70.93958290752045
  0
LINE
  5
822
100
AcDbEntity
  8
0
  6
CONTINUOUS
 62
     7
100
AcDbLine
 10
62.82289128749535
 20
59.91444894678151
 11
63.28832271451372
 21
63.05826848412192
  0
LINE
  5
823
100
AcDbEntity
  8
0
  6
CONTINUOUS
 62
     7
100
AcDbLine
 10
62.82289128749535
 20
59.91444894678151
 11
64.3535718987022
 21
62.6996319862055
  0
MTEXT
  5
824
100
AcDbEntity
  8
0
  6
CONTINUOUS
 62
     7
100
AcDbMText
 10
72.98158264160156
 20
70.93958282470703
 40
4
 41
112
 71
     4
 72
     1
  1
{\W0.846334;Ｍ１４ｘ１．５}
  0
LINE
  5
825
100
AcDbEntity
  8
0
  6
CONTINUOUS
 62
     7
100
AcDbLine
 10
62.82289128749535
 20
59.91444894678151
 11
66.53471335826373
 21
70.93958290752045
  0
LINE
  5
826
100
AcDbEntity
  8
0
  6
CONTINUOUS
 62
     7
100
AcDbLine
 10
66.53471374511719
 20
70.93958282470703
 11
71.83858489990234
 21
70.93958282470703
  0
DIMENSION
  5
827
100
AcDbEntity
  8
0
  6
CONTINUOUS
 62
     7
100
AcDbDimension
  2
*D13
 70
     0
 10
-62.055908203125
 20
-265.1181640625
 11
-62.055908203125
 21
-273.1181640625
  3
DIMSTYLE
100
AcDbAlignedDimension
 13
-83.2691650390625
 23
-281.1181640625
 14
-83.2691650390625
 24
-265.1181640625
 50
90
100
AcDbRotatedDimension
1001
ACAD
1000
DSTYLE
1002
{
1070
     6
1000
_OPEN30
1070
     7
1000
_OPEN30
1070
    77
1070
     1
1070
   172
1070
     1
1070
    42
1040
0
1002
}
  0
DIMENSION
  5
828
100
AcDbEntity
  8
0
  6
CONTINUOUS
 62
     7
100
AcDbDimension
  2
*D14
 70
     0
 10
-62.52621459960938
 20
-191.6550750732422
 11
-62.52621459960938
 21
-203.6550750732422
  3
DIMSTYLE
100
AcDbAlignedDimension
 13
-87.2691650390625
 23
-215.6550750732422
 14
-87.2691650390625
 24
-191.6550750732422
 50
90
100
AcDbRotatedDimension
1001
ACAD
1000
DSTYLE
1002
{
1070
     6
1000
_OPEN30
1070
     7
1000
_OPEN30
1070
    77
1070
     1
1070
   172
1070
     1
1070
    42
1040
0
1002
}
  0
LINE
  5
829
100
AcDbEntity
  8
0
  6
CONTINUOUS
 62
     7
100
AcDbLine
 10
-90.76902516173337
 20
-209.1536069306238
 11
-81.69699216099302
 21
-230.4716110948721
  0
LINE
  5
82a
100
AcDbEntity
  8
0
  6
CONTINUOUS
 62
     7
100
AcDbLine
 10
-90.76902516173337
 20
-209.1536069306238
 11
-89.02705652269584
 21
-211.8117591003141
  0
LINE
  5
82b
100
AcDbEntity
  8
0
  6
CONTINUOUS
 62
     7
100
AcDbLine
 10
-90.76902516173337
 20
-209.1536069306238
 11
-90.06130084577545
 21
-212.2518893562948
  0
MTEXT
  5
82c
100
AcDbEntity
  8
0
  6
CONTINUOUS
 62
     7
100
AcDbMText
 10
-75.34793364704191
 20
-230.4716107670857
 40
4
 41
136
 71
     4
 72
     1
  1
{\W0.847392;\U+2205１２Ｈ１０}
  0
LINE
  5
82d
100
AcDbEntity
  8
0
  6
CONTINUOUS
 62
     7
100
AcDbLine
 10
-90.76902516173337
 20
-209.1536069306238
 11
-81.69699216099302
 21
-230.4716110948721
  0
LINE
  5
82e
100
AcDbEntity
  8
0
  6
CONTINUOUS
 62
     7
100
AcDbLine
 10
-81.69699216099303
 20
-230.4716110948722
 11
-76.49093138874113
 21
-230.4716110948722
  0
DIMENSION
  5
82f
100
AcDbEntity
  8
0
  6
CONTINUOUS
 62
     7
100
AcDbDimension
  2
*D15
 70
     0
 10
53.0169677734375
 20
-231.7552337646484
 11
57.0169677734375
 21
-231.7552337646484
  3
DIMSTYLE
100
AcDbAlignedDimension
 13
61.01695251464844
 23
-214.1551055908203
 14
53.0169677734375
 24
-214.1550445556641
 50
0
100
AcDbRotatedDimension
1001
ACAD
1000
DSTYLE
1002
{
1070
     6
1000
_OPEN30
1070
     7
1000
_OPEN30
1070
    77
1070
     1
1070
   172
1070
     1
1070
    42
1040
0
1002
}
  0
DIMENSION
  5
830
100
AcDbEntity
  8
0
  6
CONTINUOUS
 62
     7
100
AcDbDimension
  2
*D16
 70
     0
 10
-80.2691650390625
 20
-315.5470480747008
 11
-114.2691650390625
 21
-315.5470480747008
  3
DIMSTYLE
100
AcDbAlignedDimension
 13
-148.2691650390625
 23
-284.1181640625
 14
-80.2691650390625
 24
-278.1181640625
 50
0
100
AcDbRotatedDimension
1001
ACAD
1000
DSTYLE
1002
{
1070
     6
1000
_OPEN30
1070
     7
1000
_OPEN30
1070
    77
1070
     1
1070
   172
1070
     1
1070
    42
1040
0
1002
}
  0
DIMENSION
  5
831
100
AcDbEntity
  8
0
  6
CONTINUOUS
 62
     7
100
AcDbDimension
  2
*D17
 70
     0
 10
116.0169677734375
 20
-231.7552337646484
 11
88.5169677734375
 21
-231.7552337646484
  3
DIMSTYLE
100
AcDbAlignedDimension
 13
61.01695251464844
 23
-218.528076171875
 14
116.0169677734375
 24
-219.058349609375
 50
0
100
AcDbRotatedDimension
1001
ACAD
1000
DSTYLE
1002
{
1070
     6
1000
_OPEN30
1070
     7
1000
_OPEN30
1070
    77
1070
     1
1070
   172
1070
     1
1070
    75
1070
     1
1002
}
  0
DIMENSION
  5
832
100
AcDbEntity
  8
0
  6
CONTINUOUS
 62
     7
100
AcDbDimension
  2
*D18
 70
     4
 11
135.8820190429688
 21
-221.7572326660156
 10
116.0169729276513
 20
-203.6550676786285
  3
DIMSTYLE
100
AcDbRadialDimension
 15
125.625829143801
 25
-212.4112016552965
1001
ACAD
1000
DSTYLE
1002
{
1070
     6
1000
_OPEN30
1070
     7
1000
_OPEN30
1070
    77
1070
     1
1070
   172
1070
     1
1002
}
  0
LINE
  5
833
100
AcDbEntity
  8
0
  6
CONTINUOUS
 62
     7
100
AcDbLine
 10
119.1273682968258
 20
-198.5242772746498
 11
131.8455221043035
 21
-182.3871474146372
  0
LINE
  5
834
100
AcDbEntity
  8
0
  6
CONTINUOUS
 62
     7
100
AcDbLine
 10
119.1273682968258
 20
-198.5242772746498
 11
120.6221886963233
 21
-195.7196846714602
  0
LINE
  5
835
100
AcDbEntity
  8
0
  6
CONTINUOUS
 62
     7
100
AcDbLine
 10
119.1273682968258
 20
-198.5242772746498
 11
121.5049735697384
 21
-196.4154337852372
  0
MTEXT
  5
836
100
AcDbEntity
  8
0
  6
CONTINUOUS
 62
     7
100
AcDbMText
 10
138.5902557373047
 20
-182.3871459960938
 40
4
 41
168
 71
     4
 72
     1
  1
{\W0.845552;\U+2205１２Ｈ１０ｄ９}
  0
LINE
  5
837
100
AcDbEntity
  8
0
  6
CONTINUOUS
 62
     7
100
AcDbLine
 10
119.1273682968258
 20
-198.5242772746498
 11
131.8455221043035
 21
-182.3871474146372
  0
LINE
  5
838
100
AcDbEntity
  8
0
  6
CONTINUOUS
 62
     7
100
AcDbLine
 10
131.8455200195313
 20
-182.3871459960938
 11
137.4472503662109
 21
-182.3871459960938
  0
DIMENSION
  5
839
100
AcDbEntity
  8
0
  6
CONTINUOUS
 62
     7
100
AcDbDimension
  2
*D19
 70
     0
 10
-93.2691650390625
 20
-232.1590781417544
 11
-127.2691650390625
 21
-232.1590781417544
  3
DIMSTYLE
100
AcDbAlignedDimension
 13
-161.2691650390625
 23
-210.6550750732422
 14
-93.2691650390625
 24
-215.6550750732422
 50
0
100
AcDbRotatedDimension
1001
ACAD
1000
DSTYLE
1002
{
1070
     6
1000
_OPEN30
1070
     7
1000
_OPEN30
1070
    77
1070
     1
1070
   172
1070
     1
1070
    42
1040
0
1002
}
  0
DIMENSION
  5
83a
100
AcDbEntity
  8
0
  6
CONTINUOUS
 62
     7
100
AcDbDimension
  2
*D20
 70
     0
 10
116.0169677734375
 20
-242.8349304199219
 11
82.0169677734375
 21
-242.8349304199219
  3
DIMSTYLE
100
AcDbAlignedDimension
 13
48.0169677734375
 23
-210.6550750732422
 14
116.0169677734375
 24
-219.4127807617188
 50
0
100
AcDbRotatedDimension
1001
ACAD
1000
DSTYLE
1002
{
1070
     6
1000
_OPEN30
1070
     7
1000
_OPEN30
1070
    77
1070
     1
1070
   172
1070
     1
1070
    42
1040
0
1002
}
  0
DIMENSION
  5
83b
100
AcDbEntity
  8
0
  6
CONTINUOUS
 62
     7
100
AcDbDimension
  2
*D21
 70
     0
 10
146.6839904785156
 20
-272.8641357421875
 11
146.6839904785156
 21
-280.8641357421875
  3
DIMSTYLE
100
AcDbAlignedDimension
 13
129.0169219970703
 23
-288.8641357421875
 14
129.0169219970703
 24
-272.8641357421875
 50
90
100
AcDbRotatedDimension
1001
ACAD
1000
DSTYLE
1002
{
1070
     6
1000
_OPEN30
1070
     7
1000
_OPEN30
1070
    77
1070
     1
1070
   172
1070
     1
1070
    42
1040
0
1002
}
  0
DIMENSION
  5
83c
100
AcDbEntity
  8
0
  6
CONTINUOUS
 62
     7
100
AcDbDimension
  2
*D22
 70
     0
 10
158.111083984375
 20
-261.8641357421875
 11
158.111083984375
 21
-280.8641357421875
  3
DIMSTYLE
100
AcDbAlignedDimension
 13
127.0169219970703
 23
-299.8641357421875
 14
127.0169219970703
 24
-261.8641357421875
 50
90
100
AcDbRotatedDimension
1001
ACAD
1000
DSTYLE
1002
{
1070
     6
1000
_OPEN30
1070
     7
1000
_OPEN30
1070
    77
1070
     1
1070
   172
1070
     1
1070
    42
1040
0
1002
}
  0
DIMENSION
  5
83d
100
AcDbEntity
  8
0
  6
CONTINUOUS
 62
     7
100
AcDbDimension
  2
*D23
 70
     0
 10
168.4752197265625
 20
-252.3641204833984
 11
168.4752197265625
 21
-280.8641357421875
  3
DIMSTYLE
100
AcDbAlignedDimension
 13
121.0169219970703
 23
-309.3641357421875
 14
121.0169219970703
 24
-252.3641204833984
 50
90
100
AcDbRotatedDimension
1001
ACAD
1000
DSTYLE
1002
{
1070
     6
1000
_OPEN30
1070
     7
1000
_OPEN30
1070
    77
1070
     1
1070
   172
1070
     1
1070
    42
1040
0
1002
}
  0
DIMENSION
  5
83e
100
AcDbEntity
  8
0
  6
CONTINUOUS
 62
     7
100
AcDbDimension
  2
*D24
 70
     0
 10
116.0169677734375
 20
-323.4896240234375
 11
103.5169677734375
 21
-323.4896240234375
  3
DIMSTYLE
100
AcDbAlignedDimension
 13
91.0169677734375
 23
-288.8641357421875
 14
116.0169677734375
 24
-311.1183471679688
 50
0
100
AcDbRotatedDimension
1001
ACAD
1000
DSTYLE
1002
{
1070
     6
1000
_OPEN30
1070
     7
1000
_OPEN30
1070
    77
1070
     1
1070
   172
1070
     1
1070
    42
1040
0
1002
}
  0
DIMENSION
  5
83f
100
AcDbEntity
  8
0
  6
CONTINUOUS
 62
     7
100
AcDbDimension
  2
*D25
 70
     0
 10
-212.0506286621094
 20
7.347332000732422
 11
-232.3005828857422
 21
7.347332000732422
  3
DIMSTYLE
100
AcDbAlignedDimension
 13
-252.5505065917969
 23
32.67910766601563
 14
-212.0506286621094
 24
32.67910766601563
 50
0
100
AcDbRotatedDimension
1001
ACAD
1000
DSTYLE
1002
{
1070
     6
1000
_OPEN30
1070
     7
1000
_OPEN30
1070
    77
1070
     1
1070
   172
1070
     1
1070
    42
1040
0
1002
}
  0
DIMENSION
  5
840
100
AcDbEntity
  8
0
  6
CONTINUOUS
 62
     7
100
AcDbDimension
  2
*D26
 70
     0
 10
33.76580810546875
 20
60.92910766601563
 11
33.76580810546875
 21
76.09054565429688
  3
DIMSTYLE
100
AcDbAlignedDimension
 13
37.86734008789063
 23
44.92910766601563
 14
37.86734008789063
 24
60.92910766601563
 50
90
100
AcDbRotatedDimension
1001
ACAD
1000
DSTYLE
1002
{
1070
     6
1000
_OPEN30
1070
     7
1000
_OPEN30
1070
    77
1070
     1
1070
   172
1070
     1
1070
    42
1040
0
1002
}
  0
DIMENSION
  5
841
100
AcDbEntity
  8
0
  6
CONTINUOUS
 62
     7
100
AcDbDimension
  2
*D27
 70
     0
 10
344.3474731445313
 20
70.01488494873047
 11
344.3474731445313
 21
79.67013549804688
 52
74.99939059701404
  3
DIMSTYLE
100
AcDbAlignedDimension
 13
348.3993743055487
 23
36.929157427039
 14
348.3993839208974
 24
68.92913253759843
 50
90
100
AcDbRotatedDimension
1001
ACAD
1000
DSTYLE
1002
{
1070
     6
1000
_OPEN30
1070
     7
1000
_OPEN30
1070
    77
1070
     1
1070
   172
1070
     1
1070
    42
1040
0
1002
}
  0
LINE
  5
842
100
AcDbEntity
  8
0
  6
CONTINUOUS
 62
     7
100
AcDbLine
 10
36.1622660709426
 20
55.12151418279381
 11
44.5498730998334
 21
79.0861061263
  0
LINE
  5
843
100
AcDbEntity
  8
0
  6
CONTINUOUS
 62
     7
100
AcDbLine
 10
36.1622660709426
 20
55.12151418279381
 11
36.66515377800767
 21
58.25956001590435
  0
LINE
  5
844
100
AcDbEntity
  8
0
  6
CONTINUOUS
 62
     7
100
AcDbLine
 10
36.1622660709426
 20
55.12151418279381
 11
37.72605055671895
 21
57.88824615005496
  0
MTEXT
  5
845
100
AcDbEntity
  8
0
  6
CONTINUOUS
 62
     7
100
AcDbMText
 10
50.84057998657227
 20
79.08610534667969
 40
4
 41
80
 71
     4
 72
     1
  1
{\W0.848905;二面巾１４}
  0
LINE
  5
846
100
AcDbEntity
  8
0
  6
CONTINUOUS
 62
     7
100
AcDbLine
 10
36.1622660709426
 20
55.12151418279381
 11
44.5498730998334
 21
79.0861061263
  0
LINE
  5
847
100
AcDbEntity
  8
0
  6
CONTINUOUS
 62
     7
100
AcDbLine
 10
44.54987335205078
 20
79.08610534667969
 11
49.69757843017578
 21
79.08610534667969
  0
DIMENSION
  5
848
100
AcDbEntity
  8
0
  6
CONTINUOUS
 62
     7
100
AcDbDimension
  2
*D28
 70
     0
 10
-127.4006195068359
 20
-0.2669906616210938
 11
-121.4006195068359
 21
-0.2669906616210938
  3
DIMSTYLE
100
AcDbAlignedDimension
 13
-115.4006195068359
 23
23.92912292480469
 14
-127.4006195068359
 24
23.92910766601563
 50
0
100
AcDbRotatedDimension
1001
ACAD
1000
DSTYLE
1002
{
1070
     6
1000
_OPEN30
1070
     7
1000
_OPEN30
1070
    77
1070
     1
1070
   172
1070
     1
1070
    42
1040
0
1002
}
  0
DIMENSION
  5
849
100
AcDbEntity
  8
0
  6
CONTINUOUS
 62
     7
100
AcDbDimension
  2
*D29
 70
     0
 10
-127.4006195068359
 20
10.68684387207031
 11
-137.4019775390625
 21
10.68684387207031
  3
DIMSTYLE
100
AcDbAlignedDimension
 13
-124.2006378173828
 23
23.92910766601563
 14
-127.4006195068359
 24
23.92910766601563
 50
0
100
AcDbRotatedDimension
1001
ACAD
1000
DSTYLE
1002
{
1070
     6
1000
_OPEN30
1070
     7
1000
_OPEN30
1070
    77
1070
     1
1070
   172
1070
     1
1070
    42
1040
0
1002
}
  0
DIMENSION
  5
84a
100
AcDbEntity
  8
0
  6
CONTINUOUS
 62
     7
100
AcDbDimension
  2
*D30
 70
     0
 10
69.599365234375
 20
-11.63758850097656
 11
-28.90062713623047
 21
-11.63758850097656
  3
DIMSTYLE
100
AcDbAlignedDimension
 13
-127.4006195068359
 23
23.92910766601563
 14
69.599365234375
 24
47.4290771484375
 50
0
100
AcDbRotatedDimension
1001
ACAD
1000
DSTYLE
1002
{
1070
     6
1000
_OPEN30
1070
     7
1000
_OPEN30
1070
    77
1070
     1
1070
   172
1070
     1
1070
    42
1040
0
1002
}
  0
DIMENSION
  5
84b
100
AcDbEntity
  8
0
  6
CONTINUOUS
 62
     7
100
AcDbDimension
  2
*D31
 70
     0
 10
233.4993743896484
 20
-9.741588592529297
 11
193.4993743896484
 21
-9.741588592529297
  3
DIMSTYLE
100
AcDbAlignedDimension
 13
153.4993743896484
 23
31.92906188964844
 14
233.4993743896484
 24
31.92906188964844
 50
0
100
AcDbRotatedDimension
1001
ACAD
1000
DSTYLE
1002
{
1070
     6
1000
_OPEN30
1070
     7
1000
_OPEN30
1070
    77
1070
     1
1070
   172
1070
     1
1070
    42
1040
0
1002
}
  0
DIMENSION
  5
84c
100
AcDbEntity
  8
0
  6
CONTINUOUS
 62
     7
100
AcDbDimension
  2
*D32
 70
     0
 10
243.4993743896484
 20
-19.60904312133789
 11
193.4993743896484
 21
-19.60904312133789
  3
DIMSTYLE
100
AcDbAlignedDimension
 13
143.4993743896484
 23
23.92906188964844
 14
243.4993743896484
 24
23.92906188964844
 50
0
100
AcDbRotatedDimension
1001
ACAD
1000
DSTYLE
1002
{
1070
     6
1000
_OPEN30
1070
     7
1000
_OPEN30
1070
    77
1070
     1
1070
   172
1070
     1
1070
    42
1040
0
1002
}
  0
DIMENSION
  5
84d
100
AcDbEntity
  8
0
  6
CONTINUOUS
 62
     7
100
AcDbDimension
  2
*D33
 70
     0
 10
257.850830078125
 20
73.92906188964844
 11
257.850830078125
 21
52.92906188964844
  3
DIMSTYLE
100
AcDbAlignedDimension
 13
233.4993743896484
 23
31.92906188964844
 14
233.4993743896484
 24
73.92906188964844
 50
90
100
AcDbRotatedDimension
1001
ACAD
1000
DSTYLE
1002
{
1070
     6
1000
_OPEN30
1070
     7
1000
_OPEN30
1070
    77
1070
     1
1070
   172
1070
     1
1070
    42
1040
0
1002
}
  0
DIMENSION
  5
84e
100
AcDbEntity
  8
0
  6
CONTINUOUS
 62
     7
100
AcDbDimension
  2
*D34
 70
     0
 10
266.868408203125
 20
81.92906188964844
 11
266.868408203125
 21
52.92906188964844
  3
DIMSTYLE
100
AcDbAlignedDimension
 13
243.4993743896484
 23
23.92906188964844
 14
243.4993743896484
 24
81.92906188964844
 50
90
100
AcDbRotatedDimension
1001
ACAD
1000
DSTYLE
1002
{
1070
     6
1000
_OPEN30
1070
     7
1000
_OPEN30
1070
    77
1070
     1
1070
   172
1070
     1
1070
    42
1040
0
1002
}
  0
LINE
  5
84f
100
AcDbEntity
  8
0
  6
CONTINUOUS
 62
     7
100
AcDbLine
 10
236.7630512948091
 20
29.06333366104646
 11
255.1509146606036
 21
11.3882856547219
  0
LINE
  5
850
100
AcDbEntity
  8
0
  6
CONTINUOUS
 62
     7
100
AcDbLine
 10
236.7630512948091
 20
29.06333366104646
 11
239.407622657392
 21
27.30081557466372
  0
LINE
  5
851
100
AcDbEntity
  8
0
  6
CONTINUOUS
 62
     7
100
AcDbLine
 10
236.7630512948091
 20
29.06333366104646
 11
238.6286964802508
 21
26.49047615650841
  0
MTEXT
  5
852
100
AcDbEntity
  8
0
  6
CONTINUOUS
 62
     7
100
AcDbMText
 10
259.3836669921875
 20
11.38828849792481
 40
4
 41
104
 71
     4
 72
     1
  1
{\W0.851241;４－\U+2205９}
  0
LINE
  5
853
100
AcDbEntity
  8
0
  6
CONTINUOUS
 62
     7
100
AcDbLine
 10
236.7630512948091
 20
29.06333366104646
 11
255.1509146606036
 21
11.3882856547219
  0
LINE
  5
854
100
AcDbEntity
  8
0
  6
CONTINUOUS
 62
     7
100
AcDbLine
 10
255.150904710384
 20
11.38829160767218
 11
258.2406721664373
 21
11.38828874663503
  0
LINE
  5
855
100
AcDbEntity
  8
0
  6
CONTINUOUS
 62
     7
100
AcDbLine
 10
54.91216414451598
 20
49.97716242790224
 11
79.29620732943218
 21
30.97195229848228
  0
LINE
  5
856
100
AcDbEntity
  8
0
  6
CONTINUOUS
 62
     7
100
AcDbLine
 10
54.91216414451598
 20
49.97716242790224
 11
57.89308915190019
 21
48.9216597988285
  0
LINE
  5
857
100
AcDbEntity
  8
0
  6
CONTINUOUS
 62
     7
100
AcDbLine
 10
54.91216414451598
 20
49.97716242790224
 11
56.66360257297911
 21
47.34420532021272
  0
MTEXT
  5
858
100
AcDbEntity
  8
0
  6
CONTINUOUS
 62
     7
100
AcDbMText
 10
85.3922181256612
 20
30.97195229848227
 40
4
 41
80
 71
     4
 72
     1
  1
{\W0.848905;二面幅２２}
  0
LINE
  5
859
100
AcDbEntity
  8
0
  6
CONTINUOUS
 62
     7
100
AcDbLine
 10
54.91216414451598
 20
49.97716242790224
 11
79.29620732943218
 21
30.97195229848228
  0
LINE
  5
85a
100
AcDbEntity
  8
0
  6
CONTINUOUS
 62
     7
100
AcDbLine
 10
79.29620732943218
 20
30.97195229848228
 11
84.24921811898548
 21
30.97195229848227
  0
DIMENSION
  5
85b
100
AcDbEntity
  8
0
  6
CONTINUOUS
 62
     7
100
AcDbDimension
  2
*D35
 70
     4
 11
-58.30808769045225
 21
-183.9875789568002
 10
-93.2691650390626
 20
-203.6550750732421
  3
DIMSTYLE
100
AcDbRadialDimension
 15
-82.81539677102674
 25
-193.6067553630514
 40
13.88073448232239
1001
ACAD
1000
DSTYLE
1002
{
1070
    73
1070
     1
1070
    74
1070
     1
1002
}
  0
DIMENSION
  5
85c
100
AcDbEntity
  8
0
  6
CONTINUOUS
 62
     7
100
AcDbDimension
  2
*D36
 70
     0
 10
-93.2691650390625
 20
-299.2482839777241
 11
-105.7691650390625
 21
-299.2482839777241
  3
DIMSTYLE
100
AcDbAlignedDimension
 13
-118.2691650390625
 23
-285.1181793212891
 14
-93.2691650390625
 24
-281.1181793212891
 50
0
100
AcDbRotatedDimension
1001
ACAD
1000
DSTYLE
1002
{
1070
    77
1070
     1
1070
   172
1070
     1
1070
    42
1040
0
1002
}
  0
DIMENSION
  5
85d
100
AcDbEntity
  8
0
  6
CONTINUOUS
 62
     7
100
AcDbDimension
  2
*D37
 70
     0
 10
-93.2691650390625
 20
-307.7413702056907
 11
-120.7691650390625
 21
-307.7413702056907
  3
DIMSTYLE
100
AcDbAlignedDimension
 13
-148.2691650390625
 23
-284.1181793212891
 14
-93.2691650390625
 24
-281.1181793212891
 50
0
100
AcDbRotatedDimension
1001
ACAD
1000
DSTYLE
1002
{
1070
    77
1070
     1
1070
   172
1070
     1
1070
    42
1040
0
1002
}
  0
DIMENSION
  5
85e
100
AcDbEntity
  8
0
  6
CONTINUOUS
 62
     7
100
AcDbDimension
  2
*D38
 70
     0
 10
-80.2691650390625
 20
-307.7413702056907
 11
-86.7691650390625
 21
-307.7413702056907
  3
DIMSTYLE
100
AcDbAlignedDimension
 13
-93.2691650390625
 23
-281.1181793212891
 14
-80.2691650390625
 24
-278.1182340917576
 50
0
100
AcDbRotatedDimension
1001
ACAD
1000
DSTYLE
1002
{
1070
    77
1070
     1
1070
   172
1070
     1
1070
    75
1070
     1
1002
}
  0
DIMENSION
  5
85f
100
AcDbEntity
  8
0
  6
CONTINUOUS
 62
     7
100
AcDbDimension
  2
*D39
 70
     0
 10
-156.2691650390625
 20
-307.7413702056907
 11
-152.2691650390625
 21
-307.7413702056907
  3
DIMSTYLE
100
AcDbAlignedDimension
 13
-148.2691650390625
 23
-284.1181793212891
 14
-156.2691650390625
 24
-284.1181793212891
 50
0
100
AcDbRotatedDimension
1001
ACAD
1000
DSTYLE
1002
{
1070
    46
1040
2.286
1070
    77
1070
     1
1070
   172
1070
     1
1070
    75
1070
     1
1002
}
  0
DIMENSION
  5
860
100
AcDbEntity
  8
0
  6
CONTINUOUS
 62
     7
100
AcDbDimension
  2
*D40
 70
     0
 10
71.24193663435466
 20
-191.6550750732422
 11
71.24193663435466
 21
-181.344263401247
  3
DIMSTYLE
100
AcDbAlignedDimension
 13
62.01695251464844
 23
-215.6550750732422
 14
62.01695251464844
 24
-191.6550750732422
 50
90
100
AcDbRotatedDimension
1001
ACAD
1000
DSTYLE
1002
{
1070
    77
1070
     1
1070
   172
1070
     1
1070
    42
1040
0
1002
}
  0
ENDSEC
  0
SECTION
  2
OBJECTS
  0
DICTIONARY
  5
861
100
AcDbDictionary
  3
ACAD_GROUP
350
862
  3
ACAD_MLINESTYLE
350
863
  0
DICTIONARY
  5
862
102
{ACAD_REACTORS
330
861
102
}
100
AcDbDictionary
  0
DICTIONARY
  5
863
102
{ACAD_REACTORS
330
861
102
}
100
AcDbDictionary
  3
STANDARD
350
864
  0
MLINESTYLE
  5
864
102
{ACAD_REACTORS
330
863
102
}
100
AcDbMlineStyle
  2
STANDARD
 70
     0
  3

 62
     0
 51
90
 52
90
 71
     2
 49
0.5
 62
   256
  6
BYLAYER
 49
-0.5
 62
   256
  6
BYLAYER
  0
ENDSEC
  0
EOF
