  0
SECTION
  2
HEADER
  9
$ACADVER
  1
AC1015
  9
$EXTMAX
 10
714.132080078125
 20
351.4913635253906
 30
0
  9
$EXTMIN
 10
-254.8428955078125
 20
-357.7836608886719
 30
0
  9
$LIMMAX
 10
714.132080078125
 20
351.4913635253906
  9
$LIMMIN
 10
-254.8428955078125
 20
-357.7836608886719
  9
$PLIMMAX
 10
714.132080078125
 20
351.4913635253906
  9
$PLIMMIN
 10
-254.8428955078125
 20
-357.7836608886719
  9
$TEXTSIZE
 40
3.2
  9
$DIMSHO
 70
     0
  9
$DIMASZ
 40
1.0
  9
$DIMTAD
 70
     1
  9
$DIMTIH
 70
     0
  9
$DIMTOH
 70
     0
  9
$DIMEXE
 40
2.54
  9
$DIMEXO
 40
2.54
  9
$DIMTVP
 40
1.0
  9
$DIMSAH
 70
     1
  9
$DIMDLE
 40
0.0
  9
$DIMTXT
 40
4
  9
$DIMGAP
 40
2
  9
$DIMAUNIT
 70
     1
  9
$DIMDEC
 70
     1
  9
$HANDSEED
  5
     88f
  9
$MEASUREMENT
 70
     1
  0
ENDSEC
  0
SECTION
  2
TABLES
  0
TABLE
  2
LTYPE
  5
25
100
AcDbSymbolTable
 70
    48
  0
LTYPE
  5
26
100
AcDbSymbolTableRecord
100
AcDbLinetypeTableRecord
  2
BYBLOCK
 70
    64
  3

 72
    65
 73
     0
 40
0.0
  0
LTYPE
  5
27
100
AcDbSymbolTableRecord
100
AcDbLinetypeTableRecord
  2
BYLAYER
 70
    64
  3

 72
    65
 73
     0
 40
0.0
  0
LTYPE
  5
28
100
AcDbSymbolTableRecord
100
AcDbLinetypeTableRecord
  2
CONTINUOUS
 70
    64
  3
Solid line
 72
    65
 73
     0
 40
0.0
  0
LTYPE
  5
29
100
AcDbSymbolTableRecord
100
AcDbLinetypeTableRecord
  2
DASHED
 70
    64
  3
Dashed __ __ __ __ __ __ __ __ __ __ __ __ __ _
 72
    65
 73
     2
 40
4.5
 49
3.0
 74
     0
 49
-1.5
 74
     0
  0
LTYPE
  5
2a
100
AcDbSymbolTableRecord
100
AcDbLinetypeTableRecord
  2
CENTER
 70
    64
  3
Center ____ _ ____ _ ____ _ ____ _ ____ _ ____
 72
    65
 73
     4
 74
     0
 40
12.0
 49
7.5
 74
     0
 49
-1.5
 74
     0
 49
1.5
 74
     0
 49
-1.5
 74
     0
  0
LTYPE
  5
2b
100
AcDbSymbolTableRecord
100
AcDbLinetypeTableRecord
  2
PHANTOM
 70
    64
  3
Phantom ______  __  __  ______  __  __  ______
 72
    65
 73
     6
 74
     0
 40
15.0
 49
7.5
 74
     0
 49
-1.5
 74
     0
 49
1.5
 74
     0
 49
-1.5
 74
     0
 49
1.5
 74
     0
 49
-1.5
 74
     0
  0
LTYPE
  5
2c
100
AcDbSymbolTableRecord
100
AcDbLinetypeTableRecord
  2
DOT
 70
    64
  3
Dot . . . . . . . . . . . . . . . . . . . . . .
 72
    65
 73
     2
 74
     0
 40
1.5
 49
0.0
 74
     0
 49
-1.5
 74
     0
  0
LTYPE
  5
2d
100
AcDbSymbolTableRecord
100
AcDbLinetypeTableRecord
  2
HIDDEN
 70
    64
  3
Hidden __ __ __ __ __ __ __ __ __ __ __ __ __ _
 72
    65
 73
     2
 74
     0
 40
4.5
 49
3.0
 74
     0
 49
-1.5
 74
     0
  0
LTYPE
  5
2e
100
AcDbSymbolTableRecord
100
AcDbLinetypeTableRecord
  2
BORDER
 70
    64
  3
Border __ __ . __ __ . __ __ . __ __ . __ __ .
 72
    65
 73
     6
 40
3.5
 49
1.0
 74
     0
 49
-0.5
 74
     0
 49
1.0
 74
     0
 49
-0.5
 74
     0
 49
0.0
 74
     0
 49
-0.5
 74
     0
  0
LTYPE
  5
2f
100
AcDbSymbolTableRecord
100
AcDbLinetypeTableRecord
  2
BORDER2
 70
    64
  3
Border (.5x) __.__.__.__.__.__.__.__.__.__.__.
 72
    65
 73
     6
 40
1.75
 49
0.5
 74
     0
 49
-0.25
 74
     0
 49
0.5
 74
     0
 49
-0.25
 74
     0
 49
0.0
 74
     0
 49
-0.25
 74
     0
  0
LTYPE
  5
30
100
AcDbSymbolTableRecord
100
AcDbLinetypeTableRecord
  2
BORDERX2
 70
    64
  3
Border (2x) ____  ____  .  ____  ____  .  ___
 72
    65
 73
     6
 40
7.0
 49
2.0
 74
     0
 49
-1.0
 74
     0
 49
2.0
 74
     0
 49
-1.0
 74
     0
 49
0.0
 74
     0
 49
-1.0
 74
     0
  0
LTYPE
  5
31
100
AcDbSymbolTableRecord
100
AcDbLinetypeTableRecord
  2
CENTER2
 70
    64
  3
Center (.5x) ___ _ ___ _ ___ _ ___ _ ___ _ ___
 72
    65
 73
     4
 40
6.0
 49
3.75
 74
     0
 49
-0.75
 74
     0
 49
0.75
 74
     0
 49
-0.75
 74
     0
  0
LTYPE
  5
32
100
AcDbSymbolTableRecord
100
AcDbLinetypeTableRecord
  2
CENTERX2
 70
    64
  3
Center (2x) ________  __  ________  __  _____
 72
    65
 73
     4
 40
24.0
 49
15.0
 74
     0
 49
-3.0
 74
     0
 49
3.0
 74
     0
 49
-3.0
 74
     0
  0
LTYPE
  5
33
100
AcDbSymbolTableRecord
100
AcDbLinetypeTableRecord
  2
DASHDOT
 70
    64
  3
Dash dot __ . __ . __ . __ . __ . __ . __ . __
 72
    65
 73
     4
 40
6.0
 49
3.0
 74
     0
 49
-1.5
 74
     0
 49
0.0
 74
     0
 49
-1.5
 74
     0
  0
LTYPE
  5
34
100
AcDbSymbolTableRecord
100
AcDbLinetypeTableRecord
  2
DASHDOT2
 70
    64
  3
Dash dot (.5x) _._._._._._._._._._._._._._._.
 72
    65
 73
     4
 40
3.0
 49
1.5
 74
     0
 49
-0.75
 74
     0
 49
0.0
 74
     0
 49
-0.75
 74
     0
  0
LTYPE
  5
35
100
AcDbSymbolTableRecord
100
AcDbLinetypeTableRecord
  2
DASHDOTX2
 70
    64
  3
Dash dot (2x) ____  .  ____  .  ____  .  ___
 72
    65
 73
     4
 40
12.0
 49
6.0
 74
     0
 49
-3.0
 74
     0
 49
0.0
 74
     0
 49
-3.0
 74
     0
  0
LTYPE
  5
36
100
AcDbSymbolTableRecord
100
AcDbLinetypeTableRecord
  2
DASHED2
 70
    64
  3
Dashed (.5x) _ _ _ _ _ _ _ _ _ _ _ _ _ _ _ _ _
 72
    65
 73
     2
 40
2.25
 49
1.5
 74
     0
 49
-0.75
 74
     0
  0
LTYPE
  5
37
100
AcDbSymbolTableRecord
100
AcDbLinetypeTableRecord
  2
DASHEDX2
 70
    64
  3
Dashed (2x) ____  ____  ____  ____  ____  ___
 72
    65
 73
     2
 40
9.0
 49
6.0
 74
     0
 49
-3.0
 74
     0
  0
LTYPE
  5
38
100
AcDbSymbolTableRecord
100
AcDbLinetypeTableRecord
  2
DIVIDE
 70
    64
  3
Divide ____ . . ____ . . ____ . . ____ . . ____
 72
    65
 73
     6
 40
7.5
 49
3.0
 74
     0
 49
-1.5
 74
     0
 49
0.0
 74
     0
 49
-1.5
 74
     0
 49
0.0
 74
     0
 49
-1.5
 74
     0
  0
LTYPE
  5
39
100
AcDbSymbolTableRecord
100
AcDbLinetypeTableRecord
  2
DIVIDE2
 70
    64
  3
Divide (.5x) __..__..__..__..__..__..__..__.._
 72
    65
 73
     6
 40
3.75
 49
1.5
 74
     0
 49
-0.75
 74
     0
 49
0.0
 74
     0
 49
-0.75
 74
     0
 49
0.0
 74
     0
 49
-0.75
 74
     0
  0
LTYPE
  5
3a
100
AcDbSymbolTableRecord
100
AcDbLinetypeTableRecord
  2
DIVIDEX2
 70
    64
  3
Divide (2x) ________  .  .  ________  .  .  _
 72
    65
 73
     6
 40
15.0
 49
6.0
 74
     0
 49
-3.0
 74
     0
 49
0.0
 74
     0
 49
-3.0
 74
     0
 49
0.0
 74
     0
 49
-3.0
 74
     0
  0
LTYPE
  5
3b
100
AcDbSymbolTableRecord
100
AcDbLinetypeTableRecord
  2
DOT2
 70
    64
  3
Dot (.5x) .....................................
 72
    65
 73
     2
 40
0.75
 49
0.0
 74
     0
 49
-0.75
 74
     0
  0
LTYPE
  5
3c
100
AcDbSymbolTableRecord
100
AcDbLinetypeTableRecord
  2
DOTX2
 70
    64
  3
Dot (2x) .  .  .  .  .  .  .  .  .  .  .  .  . 
 72
    65
 73
     2
 40
3.0
 49
0.0
 74
     0
 49
-3.0
 74
     0
  0
LTYPE
  5
3d
100
AcDbSymbolTableRecord
100
AcDbLinetypeTableRecord
  2
HIDDEN2
 70
    64
  3
Hidden (.5x) _ _ _ _ _ _ _ _ _ _ _ _ _ _ _ _ _
 72
    65
 73
     2
 40
2.25
 49
1.5
 74
     0
 49
-0.75
 74
     0
  0
LTYPE
  5
3e
100
AcDbSymbolTableRecord
100
AcDbLinetypeTableRecord
  2
HIDDENX2
 70
    64
  3
Hidden (2x) ____ ____ ____ ____ ____ ____ ____
 72
    65
 73
     2
 40
9.0
 49
6.0
 74
     0
 49
-3.0
 74
     0
  0
LTYPE
  5
3f
100
AcDbSymbolTableRecord
100
AcDbLinetypeTableRecord
  2
PHANTOM2
 70
    64
  3
Phantom (.5x) ___ _ _ ___ _ _ ___ _ _ ___ _ _
 72
    65
 73
     6
 40
7.5
 49
3.75
 74
     0
 49
-0.75
 74
     0
 49
0.75
 74
     0
 49
-0.75
 74
     0
 49
0.75
 74
     0
 49
-0.75
 74
     0
  0
LTYPE
  5
40
100
AcDbSymbolTableRecord
100
AcDbLinetypeTableRecord
  2
PHANTOMX2
 70
    64
  3
Phantom (2x) ____________    ____    ____   _
 72
    65
 73
     6
 40
30.0
 49
15.0
 74
     0
 49
-3.0
 74
     0
 49
3.0
 74
     0
 49
-3.0
 74
     0
 49
3.0
 74
     0
 49
-3.0
 74
     0
  0
LTYPE
  5
41
100
AcDbSymbolTableRecord
100
AcDbLinetypeTableRecord
  2
ACAD_ISO02W100
 70
     0
  3
ISO dash __ __ __ __ __ __ __ __ __ __ __ __ __
 72
    65
 73
     2
 40
15.0
 49
12.0
 74
     0
 49
-3.0
 74
     0
  0
LTYPE
  5
42
100
AcDbSymbolTableRecord
100
AcDbLinetypeTableRecord
  2
ACAD_ISO03W100
 70
     0
  3
ISO dash space __    __    __    __    __    __
 72
    65
 73
     2
 40
30.0
 49
12.0
 74
     0
 49
-18.0
 74
     0
  0
LTYPE
  5
43
100
AcDbSymbolTableRecord
100
AcDbLinetypeTableRecord
  2
ACAD_ISO04W100
 70
     0
  3
ISO long-dash dot ____ . ____ . ____ . ____ . _
 72
    65
 73
     4
 40
30.0
 49
24.0
 74
     0
 49
-3.0
 74
     0
 49
0.0
 74
     0
 49
-3.0
 74
     0
  0
LTYPE
  5
44
100
AcDbSymbolTableRecord
100
AcDbLinetypeTableRecord
  2
ACAD_ISO05W100
 70
     0
  3
ISO long-dash double-dot ____ .. ____ .. ____ .
 72
    65
 73
     6
 40
33.0
 49
24.0
 74
     0
 49
-3.0
 74
     0
 49
0.0
 74
     0
 49
-3.0
 74
     0
 49
0.0
 74
     0
 49
-3.0
 74
     0
  0
LTYPE
  5
45
100
AcDbSymbolTableRecord
100
AcDbLinetypeTableRecord
  2
ACAD_ISO06W100
 70
     0
  3
ISO long-dash triple-dot ____ ... ____ ... ____
 72
    65
 73
     8
 40
36.0
 49
24.0
 74
     0
 49
-3.0
 74
     0
 49
0.0
 74
     0
 49
-3.0
 74
     0
 49
0.0
 74
     0
 49
-3.0
 74
     0
 49
0.0
 74
     0
 49
-3.0
 74
     0
  0
LTYPE
  5
46
100
AcDbSymbolTableRecord
100
AcDbLinetypeTableRecord
  2
ACAD_ISO07W100
 70
     0
  3
ISO dot . . . . . . . . . . . . . . . . . . . .
 72
    65
 73
     2
 40
3.0
 49
0.0
 74
     0
 49
-3.0
 74
     0
  0
LTYPE
  5
47
100
AcDbSymbolTableRecord
100
AcDbLinetypeTableRecord
  2
ACAD_ISO08W100
 70
     0
  3
ISO long-dash short-dash ____ __ ____ __ ____ _
 72
    65
 73
     4
 40
36.0
 49
24.0
 74
     0
 49
-3.0
 74
     0
 49
6.0
 74
     0
 49
-3.0
 74
     0
  0
LTYPE
  5
48
100
AcDbSymbolTableRecord
100
AcDbLinetypeTableRecord
  2
ACAD_ISO09W100
 70
     0
  3
ISO long-dash double-short-dash ____ __ __ ____
 72
    65
 73
     6
 40
45.0
 49
24.0
 74
     0
 49
-3.0
 74
     0
 49
6.0
 74
     0
 49
-3.0
 74
     0
 49
6.0
 74
     0
 49
-3.0
 74
     0
  0
LTYPE
  5
49
100
AcDbSymbolTableRecord
100
AcDbLinetypeTableRecord
  2
ACAD_ISO10W100
 70
     0
  3
ISO dash dot __ . __ . __ . __ . __ . __ . __ .
 72
    65
 73
     4
 40
18.0
 49
12.0
 74
     0
 49
-3.0
 74
     0
 49
0.0
 74
     0
 49
-3.0
 74
     0
  0
LTYPE
  5
4a
100
AcDbSymbolTableRecord
100
AcDbLinetypeTableRecord
  2
ACAD_ISO11W100
 70
     0
  3
ISO double-dash dot __ __ . __ __ . __ __ . __ 
 72
    65
 73
     6
 40
33.0
 49
12.0
 74
     0
 49
-3.0
 74
     0
 49
12.0
 74
     0
 49
-3.0
 74
     0
 49
0.0
 74
     0
 49
-3.0
 74
     0
  0
LTYPE
  5
4b
100
AcDbSymbolTableRecord
100
AcDbLinetypeTableRecord
  2
ACAD_ISO12W100
 70
     0
  3
ISO dash double-dot __ . . __ . . __ . . __ . .
 72
    65
 73
     6
 40
21.0
 49
12.0
 74
     0
 49
-3.0
 74
     0
 49
0.0
 74
     0
 49
-3.0
 74
     0
 49
0.0
 74
     0
 49
-3.0
 74
     0
  0
LTYPE
  5
4c
100
AcDbSymbolTableRecord
100
AcDbLinetypeTableRecord
  2
ACAD_ISO13W100
 70
     0
  3
ISO double-dash double-dot __ __ . . __ __ . . 
 72
    65
 73
     8
 40
36.0
 49
12.0
 74
     0
 49
-3.0
 74
     0
 49
12.0
 74
     0
 49
-3.0
 74
     0
 49
0.0
 74
     0
 49
-3.0
 74
     0
 49
0.0
 74
     0
 49
-3.0
 74
     0
  0
LTYPE
  5
4d
100
AcDbSymbolTableRecord
100
AcDbLinetypeTableRecord
  2
ACAD_ISO14W100
 70
     0
  3
ISO dash triple-dot __ . . . __ . . . __ . . . 
 72
    65
 73
     8
 40
24.0
 49
12.0
 74
     0
 49
-3.0
 74
     0
 49
0.0
 74
     0
 49
-3.0
 74
     0
 49
0.0
 74
     0
 49
-3.0
 74
     0
 49
0.0
 74
     0
 49
-3.0
 74
     0
  0
LTYPE
  5
4e
100
AcDbSymbolTableRecord
100
AcDbLinetypeTableRecord
  2
ACAD_ISO15W100
 70
     0
  3
ISO double-dash triple-dot __ __ . . . __ __ . 
 72
    65
 73
    10
 40
39.0
 49
12.0
 74
     0
 49
-3.0
 74
     0
 49
12.0
 74
     0
 49
-3.0
 74
     0
 49
0.0
 74
     0
 49
-3.0
 74
     0
 49
0.0
 74
     0
 49
-3.0
 74
     0
 49
0.0
 74
     0
 49
-3.0
 74
     0
  0
LTYPE
  5
4f
100
AcDbSymbolTableRecord
100
AcDbLinetypeTableRecord
  2
FENCELINE1
 70
     0
  3
Fenceline circle ----0-----0----0-----0----0---
 72
    65
 73
     4
 40
1.45
 49
0.25
 74
     0
 49
-0.1
 74
     4
 75
   133
340
24
 46
0.1
 50
0.0
 44
-0.1
 45
0.0
 49
-0.1
 74
     0
 49
1.0
 74
     0
  0
LTYPE
  5
50
100
AcDbSymbolTableRecord
100
AcDbLinetypeTableRecord
  2
FENCELINE2
 70
     0
  3
Fenceline square ----[]-----[]----[]-----[]----
 72
    65
 73
     4
 40
1.45
 49
0.25
 74
     0
 49
-0.1
 74
     4
 75
   132
340
24
 46
0.1
 50
0.0
 44
-0.1
 45
0.0
 49
-0.1
 74
     0
 49
1.0
 74
     0
  0
LTYPE
  5
51
100
AcDbSymbolTableRecord
100
AcDbLinetypeTableRecord
  2
TRACKS
 70
     0
  3
Tracks -|-|-|-|-|-|-|-|-|-|-|-|-|-|-|-|-|-|-|-|
 72
    65
 73
     2
 40
0.3
 49
0.15
 74
     4
 75
   130
340
24
 46
0.25
 50
0.0
 44
0.0
 45
0.0
 49
0.15
 74
     0
  0
LTYPE
  5
52
100
AcDbSymbolTableRecord
100
AcDbLinetypeTableRecord
  2
BATTING
 70
     0
  3
Batting SSSSSSSSSSSSSSSSSSSSSSSSSSSSSSSSSSSSSSS
 72
    65
 73
     4
 40
0.4001000000000002
 49
0.0001
 74
     0
 49
-0.1
 74
     4
 75
   134
340
24
 46
0.1
 50
0.0
 44
-0.1
 45
0.0
 49
-0.2
 74
     4
 75
   134
340
24
 46
0.1
 50
180.0
 44
0.1
 45
0.0
 49
-0.1
 74
     0
  0
LTYPE
  5
53
100
AcDbSymbolTableRecord
100
AcDbLinetypeTableRecord
  2
HOT_WATER_SUPPLY
 70
     0
  3
Hot water supply ---- HW ---- HW ---- HW ----
 72
    65
 73
     3
 40
0.9
 49
0.5
 74
     0
 49
-0.2
 74
     2
 75
     1
340
23
 46
0.1
 50
0.0
 44
-0.1
 45
-0.05
  9
HW
 49
-0.2
 74
     0
  0
LTYPE
  5
54
100
AcDbSymbolTableRecord
100
AcDbLinetypeTableRecord
  2
GAS_LINE
 70
     0
  3
Gas line ----GAS----GAS----GAS----GAS----GAS---
 72
    65
 73
     3
 40
0.95
 49
0.5
 74
     0
 49
-0.2
 74
     2
 75
     1
340
23
 46
0.1
 50
0.0
 44
-0.1
 45
-0.05
  9
GAS
 49
-0.25
 74
     0
  0
LTYPE
  5
55
100
AcDbSymbolTableRecord
100
AcDbLinetypeTableRecord
  2
ZIGZAG
 70
     0
  3
Zig zag /\/\/\/\/\/\/\/\/\/\/\/\/\/\/\/\/\/\/\/
 72
    65
 73
     4
 40
0.8001000000000001
 49
0.0001
 74
     0
 49
-0.2
 74
     4
 75
   131
340
24
 46
0.2
 50
0.0
 44
-0.2
 45
0.0
 49
-0.4
 74
     4
 75
   131
340
24
 46
0.2
 50
180.0
 44
0.2
 45
0.0
 49
-0.2
 74
     0
  0
ENDTAB
  0
TABLE
  2
LAYER
  5
c8
100
AcDbSymbolTable
 70
     2
  0
LAYER
  5
c9
100
AcDbSymbolTableRecord
100
AcDbLayerTableRecord
  2
0
 70
     0
 62
     7
  6
CONTINUOUS
390
F
  0
LAYER
  5
ca
100
AcDbSymbolTableRecord
100
AcDbLayerTableRecord
  2
DEFPOINTS
 70
     0
 62
     7
  6
CONTINUOUS
290
0
390
F
  0
ENDTAB
  0
TABLE
  2
STYLE
  5
cb
100
AcDbSymbolTable
 70
     2
  0
STYLE
  5
      23
100
AcDbSymbolTableRecord
100
AcDbTextStyleTableRecord
  2
STANDARD
 70
     0
 40
0.0
 41
1.0
 50
0.0
 71
     0
 42
0.2
  3
txt
  4
BIGFONT
  0
STYLE
  5
24
100
AcDbSymbolTableRecord
100
AcDbTextStyleTableRecord
  2

 70
     1
 40
0.0
 41
1.0
 50
0.0
 71
     0
 42
0.2
  3
ltypeshp.shx
  4

  0
ENDTAB
  0
TABLE
  2
DIMSTYLE
  5
cc
100
AcDbSymbolTable
100
AcDbDimStyleTable
 70
     1
  0
DIMSTYLE
105
cd
100
AcDbSymbolTableRecord
100
AcDbDimStyleTableRecord
  2
DIMSTYLE
 70
     0
  3

  4

  5
_OPEN
  6
_OPEN
  7
_OPEN
 40
1
 41
1
 42
0.009999999776482582
 43
0.38
 44
2.54
 45
0
 46
0
 47
0
 48
0
140
4
141
0.09
142
0
143
25.4
144
1
145
0
146
1
147
2
 71
     0
 72
     0
 73
     0
 74
     0
 75
     0
 76
     0
 78
     0
170
     0
171
     2
 77
     0
172
     0
173
     1
174
     0
175
     0
176
     0
177
     0
178
     0
271
     1
275
     1
340
23
  0
ENDTAB
  0
TABLE
  2
APPID
  5
ce
100
AcDbSymbolTable
 70
     1
  0
APPID
  5
cf
100
AcDbSymbolTableRecord
100
AcDbRegAppTableRecord
  2
ACAD
 70
     0
  0
ENDTAB
  0
TABLE
  2
VIEW
  5
d0
100
AcDbSymbolTable
 70
     0
  0
ENDTAB
  0
TABLE
  2
UCS
  5
d1
100
AcDbSymbolTable
 70
     0
  0
ENDTAB
  0
TABLE
  2
BLOCK_RECORD
  5
d2
100
AcDbSymbolTable
 70
    55
  0
BLOCK_RECORD
  5
d3
100
AcDbSymbolTableRecord
100
AcDbBlockTableRecord
  2
*MODEL_SPACE
  0
BLOCK_RECORD
  5
d4
100
AcDbSymbolTableRecord
100
AcDbBlockTableRecord
  2
*PAPER_SPACE
  0
BLOCK_RECORD
  5
d5
100
AcDbSymbolTableRecord
100
AcDbBlockTableRecord
  2
_OPEN
  0
BLOCK_RECORD
  5
d6
100
AcDbSymbolTableRecord
100
AcDbBlockTableRecord
  2
_NONE
  0
BLOCK_RECORD
  5
d7
100
AcDbSymbolTableRecord
100
AcDbBlockTableRecord
  2
_OPEN30
  0
BLOCK_RECORD
  5
d8
100
AcDbSymbolTableRecord
100
AcDbBlockTableRecord
  2
KOZU0001
  0
BLOCK_RECORD
  5
d9
100
AcDbSymbolTableRecord
100
AcDbBlockTableRecord
  2
KOZU0002
  0
BLOCK_RECORD
  5
da
100
AcDbSymbolTableRecord
100
AcDbBlockTableRecord
  2
KOZU0003
  0
BLOCK_RECORD
  5
db
100
AcDbSymbolTableRecord
100
AcDbBlockTableRecord
  2
KOZU0004
  0
BLOCK_RECORD
  5
dc
100
AcDbSymbolTableRecord
100
AcDbBlockTableRecord
  2
KOZU0005
  0
BLOCK_RECORD
  5
dd
100
AcDbSymbolTableRecord
100
AcDbBlockTableRecord
  2
KOZU0006
  0
BLOCK_RECORD
  5
de
100
AcDbSymbolTableRecord
100
AcDbBlockTableRecord
  2
KOZU0007
  0
BLOCK_RECORD
  5
df
100
AcDbSymbolTableRecord
100
AcDbBlockTableRecord
  2
KOZU0008
  0
BLOCK_RECORD
  5
e0
100
AcDbSymbolTableRecord
100
AcDbBlockTableRecord
  2
KOZU0009
  0
BLOCK_RECORD
  5
e1
100
AcDbSymbolTableRecord
100
AcDbBlockTableRecord
  2
KOZU0010
  0
BLOCK_RECORD
  5
e2
100
AcDbSymbolTableRecord
100
AcDbBlockTableRecord
  2
*D1
  0
BLOCK_RECORD
  5
e3
100
AcDbSymbolTableRecord
100
AcDbBlockTableRecord
  2
*D2
  0
BLOCK_RECORD
  5
e4
100
AcDbSymbolTableRecord
100
AcDbBlockTableRecord
  2
*D3
  0
BLOCK_RECORD
  5
e5
100
AcDbSymbolTableRecord
100
AcDbBlockTableRecord
  2
*D4
  0
BLOCK_RECORD
  5
e6
100
AcDbSymbolTableRecord
100
AcDbBlockTableRecord
  2
*D5
  0
BLOCK_RECORD
  5
e7
100
AcDbSymbolTableRecord
100
AcDbBlockTableRecord
  2
*D6
  0
BLOCK_RECORD
  5
e8
100
AcDbSymbolTableRecord
100
AcDbBlockTableRecord
  2
*D7
  0
BLOCK_RECORD
  5
e9
100
AcDbSymbolTableRecord
100
AcDbBlockTableRecord
  2
*D8
  0
BLOCK_RECORD
  5
ea
100
AcDbSymbolTableRecord
100
AcDbBlockTableRecord
  2
*D9
  0
BLOCK_RECORD
  5
eb
100
AcDbSymbolTableRecord
100
AcDbBlockTableRecord
  2
*D10
  0
BLOCK_RECORD
  5
ec
100
AcDbSymbolTableRecord
100
AcDbBlockTableRecord
  2
*D11
  0
BLOCK_RECORD
  5
ed
100
AcDbSymbolTableRecord
100
AcDbBlockTableRecord
  2
*D12
  0
BLOCK_RECORD
  5
ee
100
AcDbSymbolTableRecord
100
AcDbBlockTableRecord
  2
*D13
  0
BLOCK_RECORD
  5
ef
100
AcDbSymbolTableRecord
100
AcDbBlockTableRecord
  2
*D14
  0
BLOCK_RECORD
  5
f0
100
AcDbSymbolTableRecord
100
AcDbBlockTableRecord
  2
*D15
  0
BLOCK_RECORD
  5
f1
100
AcDbSymbolTableRecord
100
AcDbBlockTableRecord
  2
*D16
  0
BLOCK_RECORD
  5
f2
100
AcDbSymbolTableRecord
100
AcDbBlockTableRecord
  2
*D17
  0
BLOCK_RECORD
  5
f3
100
AcDbSymbolTableRecord
100
AcDbBlockTableRecord
  2
*D18
  0
BLOCK_RECORD
  5
f4
100
AcDbSymbolTableRecord
100
AcDbBlockTableRecord
  2
*D19
  0
BLOCK_RECORD
  5
f5
100
AcDbSymbolTableRecord
100
AcDbBlockTableRecord
  2
*D20
  0
BLOCK_RECORD
  5
f6
100
AcDbSymbolTableRecord
100
AcDbBlockTableRecord
  2
*D21
  0
BLOCK_RECORD
  5
f7
100
AcDbSymbolTableRecord
100
AcDbBlockTableRecord
  2
*D22
  0
BLOCK_RECORD
  5
f8
100
AcDbSymbolTableRecord
100
AcDbBlockTableRecord
  2
*D23
  0
BLOCK_RECORD
  5
f9
100
AcDbSymbolTableRecord
100
AcDbBlockTableRecord
  2
*D24
  0
BLOCK_RECORD
  5
fa
100
AcDbSymbolTableRecord
100
AcDbBlockTableRecord
  2
*D25
  0
BLOCK_RECORD
  5
fb
100
AcDbSymbolTableRecord
100
AcDbBlockTableRecord
  2
*D26
  0
BLOCK_RECORD
  5
fc
100
AcDbSymbolTableRecord
100
AcDbBlockTableRecord
  2
*D27
  0
BLOCK_RECORD
  5
fd
100
AcDbSymbolTableRecord
100
AcDbBlockTableRecord
  2
*D28
  0
BLOCK_RECORD
  5
fe
100
AcDbSymbolTableRecord
100
AcDbBlockTableRecord
  2
*D29
  0
BLOCK_RECORD
  5
ff
100
AcDbSymbolTableRecord
100
AcDbBlockTableRecord
  2
*D30
  0
BLOCK_RECORD
  5
100
100
AcDbSymbolTableRecord
100
AcDbBlockTableRecord
  2
*D31
  0
BLOCK_RECORD
  5
101
100
AcDbSymbolTableRecord
100
AcDbBlockTableRecord
  2
*D32
  0
BLOCK_RECORD
  5
102
100
AcDbSymbolTableRecord
100
AcDbBlockTableRecord
  2
*D33
  0
BLOCK_RECORD
  5
103
100
AcDbSymbolTableRecord
100
AcDbBlockTableRecord
  2
*D34
  0
BLOCK_RECORD
  5
104
100
AcDbSymbolTableRecord
100
AcDbBlockTableRecord
  2
*D35
  0
BLOCK_RECORD
  5
105
100
AcDbSymbolTableRecord
100
AcDbBlockTableRecord
  2
*D36
  0
BLOCK_RECORD
  5
106
100
AcDbSymbolTableRecord
100
AcDbBlockTableRecord
  2
*D37
  0
BLOCK_RECORD
  5
107
100
AcDbSymbolTableRecord
100
AcDbBlockTableRecord
  2
*D38
  0
BLOCK_RECORD
  5
108
100
AcDbSymbolTableRecord
100
AcDbBlockTableRecord
  2
*D39
  0
BLOCK_RECORD
  5
109
100
AcDbSymbolTableRecord
100
AcDbBlockTableRecord
  2
*D40
  0
ENDTAB
  0
TABLE
  2
VPORT
  5
10a
100
AcDbSymbolTable
 70
     0
  0
ENDTAB
  0
ENDSEC
  0
SECTION
  2
BLOCKS
  0
BLOCK
  8
0
  5
10b
100
AcDbEntity
100
AcDbBlockBegin
  2
*MODEL_SPACE
 70
     0
 10
0
 20
0
  3
*MODEL_SPACE
  0
ENDBLK
  8
0
  5
10c
100
AcDbEntity
100
AcDbBlockEnd
  0
BLOCK
  8
0
  5
10d
 67
     1
100
AcDbEntity
100
AcDbBlockBegin
  2
*PAPER_SPACE
 70
     0
 10
0
 20
0
  3
*PAPER_SPACE
  0
ENDBLK
  8
0
  5
10e
 67
     1
100
AcDbEntity
100
AcDbBlockEnd
  0
BLOCK
  8
0
  5
10f
100
AcDbEntity
100
AcDbBlockBegin
  2
_OPEN
 70
    64
 10
0
 20
0
  3
_OPEN
  0
LINE
  5
110
100
AcDbEntity
  8
0
  6
BYBLOCK
 62
     0
100
AcDbLine
 10
0
 20
0
 11
-3.12799995302215
 21
-0.5619999915596265
  0
LINE
  5
111
100
AcDbEntity
  8
0
  6
BYBLOCK
 62
     0
100
AcDbLine
 10
0
 20
0
 11
-3.127999953022157
 21
0.5619999915595884
  0
LINE
  5
112
100
AcDbEntity
  8
0
  6
BYBLOCK
 62
     0
100
AcDbLine
 10
0
 20
0
 11
-2.99999995494452
 21
0
  0
ENDBLK
  8
0
  5
113
100
AcDbEntity
100
AcDbBlockEnd
  0
BLOCK
  8
0
  5
114
100
AcDbEntity
100
AcDbBlockBegin
  2
_NONE
 70
    64
 10
0
 20
0
  3
_NONE
  0
CIRCLE
  5
115
100
AcDbEntity
  8
0
  6
BYBLOCK
 62
     0
100
AcDbCircle
 10
0
 20
0
 40
0.001
  0
ENDBLK
  8
0
  5
116
100
AcDbEntity
100
AcDbBlockEnd
  0
BLOCK
  8
0
  5
117
100
AcDbEntity
100
AcDbBlockBegin
  2
_OPEN30
 70
    64
 10
0
 20
0
  3
_OPEN30
  0
LINE
  5
118
100
AcDbEntity
  8
0
  6
BYBLOCK
 62
     0
100
AcDbLine
 10
0
 20
0
 11
-2.999999954944514
 21
-0.9999999849815249
  0
LINE
  5
119
100
AcDbEntity
  8
0
  6
BYBLOCK
 62
     0
100
AcDbLine
 10
0
 20
0
 11
-2.999999954944526
 21
0.9999999849814883
  0
LINE
  5
11a
100
AcDbEntity
  8
0
  6
BYBLOCK
 62
     0
100
AcDbLine
 10
0
 20
0
 11
-2.99999995494452
 21
0
  0
ENDBLK
  8
0
  5
11b
100
AcDbEntity
100
AcDbBlockEnd
  0
BLOCK
  8
0
  5
11c
100
AcDbEntity
100
AcDbBlockBegin
  2
*D1
 70
    65
 10
0
 20
0
  0
LINE
  5
11d
100
AcDbEntity
  8
0
  6
CONTINUOUS
 62
     7
100
AcDbLine
 10
-57.81250004505548
 20
-229.7003843905031
 11
13.18750004505548
 21
-229.7003843905031
  0
INSERT
  5
11e
100
AcDbEntity
  8
0
  6
CONTINUOUS
 62
     7
100
AcDbBlockReference
  2
_OPEN30
 10
-60.8125
 20
-229.7003843905031
 41
1
 42
1
 43
1
 50
180.0000000000004
  0
INSERT
  5
11f
100
AcDbEntity
  8
0
  6
CONTINUOUS
 62
     7
100
AcDbBlockReference
  2
_OPEN30
 10
16.1875
 20
-229.7003843905031
 41
1
 42
1
 43
1
  0
LINE
  5
120
100
AcDbEntity
  8
0
  6
CONTINUOUS
 62
     7
100
AcDbLine
 10
-60.8125
 20
-204.1416931152344
 11
-60.8125
 21
-231.9863843905031
  0
LINE
  5
121
100
AcDbEntity
  8
0
  6
CONTINUOUS
 62
     7
100
AcDbLine
 10
16.1875
 20
-211.6416931152344
 11
16.1875
 21
-231.9863843905031
  0
MTEXT
  5
122
100
AcDbEntity
  8
0
  6
CONTINUOUS
 62
     7
100
AcDbMText
 10
-22.3125
 20
-229.7003843905031
 40
5
 41
40
 71
     8
 72
     1
  1
{\W0.864328;７７}
  0
POINT
  5
123
100
AcDbEntity
  8
DEFPOINTS
  6
CONTINUOUS
 62
     7
100
AcDbPoint
 10
-60.8125
 20
-204.1416931152344
  0
POINT
  5
124
100
AcDbEntity
  8
DEFPOINTS
  6
CONTINUOUS
 62
     7
100
AcDbPoint
 10
16.1875
 20
-211.6416931152344
  0
POINT
  5
125
100
AcDbEntity
  8
DEFPOINTS
  6
CONTINUOUS
 62
     7
100
AcDbPoint
 10
16.1875
 20
-229.7003843905031
  0
ENDBLK
  8
0
  5
126
100
AcDbEntity
100
AcDbBlockEnd
  0
BLOCK
  8
0
  5
127
100
AcDbEntity
100
AcDbBlockBegin
  2
*D2
 70
    65
 10
0
 20
0
  0
LINE
  5
128
100
AcDbEntity
  8
0
  6
CONTINUOUS
 62
     7
100
AcDbLine
 10
28.18750004505548
 20
-323.0638385160395
 11
-40.81250004505548
 21
-323.0638385160395
  0
INSERT
  5
129
100
AcDbEntity
  8
0
  6
CONTINUOUS
 62
     7
100
AcDbBlockReference
  2
_OPEN30
 10
31.1875
 20
-323.0638385160395
 41
1
 42
1
 43
1
  0
INSERT
  5
12a
100
AcDbEntity
  8
0
  6
CONTINUOUS
 62
     7
100
AcDbBlockReference
  2
_OPEN30
 10
-43.8125
 20
-323.0638385160395
 41
1
 42
1
 43
1
 50
180.0000000000004
  0
LINE
  5
12b
100
AcDbEntity
  8
0
  6
CONTINUOUS
 62
     7
100
AcDbLine
 10
31.1875
 20
-280.0099487304688
 11
31.1875
 21
-325.3498385160395
  0
LINE
  5
12c
100
AcDbEntity
  8
0
  6
CONTINUOUS
 62
     7
100
AcDbLine
 10
-43.8125
 20
-287.5099487304688
 11
-43.8125
 21
-325.3498385160395
  0
MTEXT
  5
12d
100
AcDbEntity
  8
0
  6
CONTINUOUS
 62
     7
100
AcDbMText
 10
-6.3125
 20
-323.0638385160395
 40
5
 41
40
 71
     8
 72
     1
  1
{\W0.864328;７５}
  0
POINT
  5
12e
100
AcDbEntity
  8
DEFPOINTS
  6
CONTINUOUS
 62
     7
100
AcDbPoint
 10
31.1875
 20
-280.0099487304688
  0
POINT
  5
12f
100
AcDbEntity
  8
DEFPOINTS
  6
CONTINUOUS
 62
     7
100
AcDbPoint
 10
-43.8125
 20
-287.5099487304688
  0
POINT
  5
130
100
AcDbEntity
  8
DEFPOINTS
  6
CONTINUOUS
 62
     7
100
AcDbPoint
 10
-43.8125
 20
-323.0638385160395
  0
ENDBLK
  8
0
  5
131
100
AcDbEntity
100
AcDbBlockEnd
  0
BLOCK
  8
0
  5
132
100
AcDbEntity
100
AcDbBlockBegin
  2
*D3
 70
    65
 10
0
 20
0
  0
LINE
  5
133
100
AcDbEntity
  8
0
  6
CONTINUOUS
 62
     7
100
AcDbLine
 10
50.29208374023438
 20
-266.5099792480469
 11
50.29208374023438
 21
-245.201904296875
  0
LINE
  5
134
100
AcDbEntity
  8
0
  6
CONTINUOUS
 62
     7
100
AcDbLine
 10
50.29208374023437
 20
-279.5099487755242
 11
50.2920837402344
 21
-269.5099792029914
  0
INSERT
  5
135
100
AcDbEntity
  8
0
  6
CONTINUOUS
 62
     7
100
AcDbBlockReference
  2
_OPEN30
 10
50.29208374023438
 20
-282.5099487304688
 41
1
 42
1
 43
1
 50
270.0000000000005
  0
INSERT
  5
136
100
AcDbEntity
  8
0
  6
CONTINUOUS
 62
     7
100
AcDbBlockReference
  2
_OPEN30
 10
50.29208374023438
 20
-266.5099792480469
 41
1
 42
1
 43
1
 50
90.00000000000019
  0
LINE
  5
137
100
AcDbEntity
  8
0
  6
CONTINUOUS
 62
     7
100
AcDbLine
 10
28.6875
 20
-282.5099792480469
 11
53.14908218383789
 21
-282.5099792480469
  0
LINE
  5
138
100
AcDbEntity
  8
0
  6
CONTINUOUS
 62
     7
100
AcDbLine
 10
28.6875
 20
-266.5099792480469
 11
53.14908218383789
 21
-266.5099792480469
  0
MTEXT
  5
139
100
AcDbEntity
  8
0
  6
CONTINUOUS
 62
     7
100
AcDbMText
 10
49.04208374023438
 20
-263.7731739282608
 40
5
 41
40
 71
     7
 72
     1
  1
{\W0.864328;１６}
 11
0
 21
1
  0
MTEXT
  5
13a
100
AcDbEntity
  8
0
  6
CONTINUOUS
 62
     7
100
AcDbMText
 10
45.29208374023437
 20
-253.7731739282608
 40
2.5
 41
40
 71
     7
 72
     1
  1
{\W0.851241;－０．１}
 11
0
 21
1
  0
MTEXT
  5
13b
100
AcDbEntity
  8
0
  6
CONTINUOUS
 62
     7
100
AcDbMText
 10
49.04208374023437
 20
-253.7731739282608
 40
2.5
 41
40
 71
     7
 72
     1
  1
{\W0.851241;－０．３}
 11
0
 21
1
  0
POINT
  5
13c
100
AcDbEntity
  8
DEFPOINTS
  6
CONTINUOUS
 62
     7
100
AcDbPoint
 10
28.6875
 20
-282.5099792480469
  0
POINT
  5
13d
100
AcDbEntity
  8
DEFPOINTS
  6
CONTINUOUS
 62
     7
100
AcDbPoint
 10
28.6875
 20
-266.5099792480469
  0
POINT
  5
13e
100
AcDbEntity
  8
DEFPOINTS
  6
CONTINUOUS
 62
     7
100
AcDbPoint
 10
50.29208374023438
 20
-266.5099792480469
  0
ENDBLK
  8
0
  5
13f
100
AcDbEntity
100
AcDbBlockEnd
  0
BLOCK
  8
0
  5
140
100
AcDbEntity
100
AcDbBlockBegin
  2
*D4
 70
    65
 10
0
 20
0
  0
LINE
  5
141
100
AcDbEntity
  8
0
  6
CONTINUOUS
 62
     7
100
AcDbLine
 10
187.9986876990851
 20
-226.4843139648438
 11
192.9986877891961
 21
-226.4843139648438
  0
INSERT
  5
142
100
AcDbEntity
  8
0
  6
CONTINUOUS
 62
     7
100
AcDbBlockReference
  2
_OPEN30
 10
184.9986877441406
 20
-226.4843139648438
 41
1
 42
1
 43
1
 50
180.0000000000004
  0
INSERT
  5
143
100
AcDbEntity
  8
0
  6
CONTINUOUS
 62
     7
100
AcDbBlockReference
  2
_OPEN30
 10
195.9986877441406
 20
-226.4843139648438
 41
1
 42
1
 43
1
  0
LINE
  5
144
100
AcDbEntity
  8
0
  6
CONTINUOUS
 62
     7
100
AcDbLine
 10
184.9986877441406
 20
-206.4000244140625
 11
184.9986877441406
 21
-229.3412933349609
  0
LINE
  5
145
100
AcDbEntity
  8
0
  6
CONTINUOUS
 62
     7
100
AcDbLine
 10
195.9986877441406
 20
-208.1416931152344
 11
195.9986877441406
 21
-229.3412933349609
  0
MTEXT
  5
146
100
AcDbEntity
  8
0
  6
CONTINUOUS
 62
     7
100
AcDbMText
 10
190.4986877441406
 20
-226.4843139648438
 40
5
 41
40
 71
     8
 72
     1
  1
{\W0.864328;１１}
  0
POINT
  5
147
100
AcDbEntity
  8
DEFPOINTS
  6
CONTINUOUS
 62
     7
100
AcDbPoint
 10
184.9986877441406
 20
-206.4000244140625
  0
POINT
  5
148
100
AcDbEntity
  8
DEFPOINTS
  6
CONTINUOUS
 62
     7
100
AcDbPoint
 10
195.9986877441406
 20
-208.1416931152344
  0
POINT
  5
149
100
AcDbEntity
  8
DEFPOINTS
  6
CONTINUOUS
 62
     7
100
AcDbPoint
 10
195.9986877441406
 20
-226.4843139648438
  0
ENDBLK
  8
0
  5
14a
100
AcDbEntity
100
AcDbBlockEnd
  0
BLOCK
  8
0
  5
14b
100
AcDbEntity
100
AcDbBlockBegin
  2
*D5
 70
    65
 10
0
 20
0
  0
LINE
  5
14c
100
AcDbEntity
  8
0
  6
CONTINUOUS
 62
     7
100
AcDbLine
 10
198.9986876990851
 20
-226.4843139648438
 11
252.9986877891961
 21
-226.4843139648438
  0
INSERT
  5
14d
100
AcDbEntity
  8
0
  6
CONTINUOUS
 62
     7
100
AcDbBlockReference
  2
_OPEN30
 10
195.9986877441406
 20
-226.4843139648438
 41
1
 42
1
 43
1
 50
180.0000000000004
  0
INSERT
  5
14e
100
AcDbEntity
  8
0
  6
CONTINUOUS
 62
     7
100
AcDbBlockReference
  2
_OPEN30
 10
255.9986877441406
 20
-226.4843139648438
 41
1
 42
1
 43
1
  0
LINE
  5
14f
100
AcDbEntity
  8
0
  6
CONTINUOUS
 62
     7
100
AcDbLine
 10
255.9986877441406
 20
-213.4268798828125
 11
255.9986877441406
 21
-229.3412933349609
  0
MTEXT
  5
150
100
AcDbEntity
  8
0
  6
CONTINUOUS
 62
     7
100
AcDbMText
 10
225.9986877441406
 20
-226.4843139648438
 40
5
 41
40
 71
     8
 72
     1
  1
{\W0.864328;６０}
  0
POINT
  5
151
100
AcDbEntity
  8
DEFPOINTS
  6
CONTINUOUS
 62
     7
100
AcDbPoint
 10
195.9986877441406
 20
-208.1416931152344
  0
POINT
  5
152
100
AcDbEntity
  8
DEFPOINTS
  6
CONTINUOUS
 62
     7
100
AcDbPoint
 10
255.9986877441406
 20
-213.4268798828125
  0
POINT
  5
153
100
AcDbEntity
  8
DEFPOINTS
  6
CONTINUOUS
 62
     7
100
AcDbPoint
 10
255.9986877441406
 20
-226.4843139648438
  0
ENDBLK
  8
0
  5
154
100
AcDbEntity
100
AcDbBlockEnd
  0
BLOCK
  8
0
  5
155
100
AcDbEntity
100
AcDbBlockBegin
  2
*D6
 70
    65
 10
0
 20
0
  0
LINE
  5
156
100
AcDbEntity
  8
0
  6
CONTINUOUS
 62
     7
100
AcDbLine
 10
181.9986876990851
 20
-237.7984619140625
 11
252.9986877891961
 21
-237.7984619140625
  0
INSERT
  5
157
100
AcDbEntity
  8
0
  6
CONTINUOUS
 62
     7
100
AcDbBlockReference
  2
_OPEN30
 10
178.9986877441406
 20
-237.7984619140625
 41
1
 42
1
 43
1
 50
180.0000000000004
  0
INSERT
  5
158
100
AcDbEntity
  8
0
  6
CONTINUOUS
 62
     7
100
AcDbBlockReference
  2
_OPEN30
 10
255.9986877441406
 20
-237.7984619140625
 41
1
 42
1
 43
1
  0
LINE
  5
159
100
AcDbEntity
  8
0
  6
CONTINUOUS
 62
     7
100
AcDbLine
 10
178.9986877441406
 20
-204.1416931152344
 11
178.9986877441406
 21
-240.6554565429688
  0
LINE
  5
15a
100
AcDbEntity
  8
0
  6
CONTINUOUS
 62
     7
100
AcDbLine
 10
255.9986877441406
 20
-213.4268798828125
 11
255.9986877441406
 21
-240.6554565429688
  0
MTEXT
  5
15b
100
AcDbEntity
  8
0
  6
CONTINUOUS
 62
     7
100
AcDbMText
 10
217.4986877441406
 20
-237.7984619140625
 40
5
 41
40
 71
     8
 72
     1
  1
{\W0.864328;７７}
  0
POINT
  5
15c
100
AcDbEntity
  8
DEFPOINTS
  6
CONTINUOUS
 62
     7
100
AcDbPoint
 10
178.9986877441406
 20
-204.1416931152344
  0
POINT
  5
15d
100
AcDbEntity
  8
DEFPOINTS
  6
CONTINUOUS
 62
     7
100
AcDbPoint
 10
255.9986877441406
 20
-213.4268798828125
  0
POINT
  5
15e
100
AcDbEntity
  8
DEFPOINTS
  6
CONTINUOUS
 62
     7
100
AcDbPoint
 10
255.9986877441406
 20
-237.7984619140625
  0
ENDBLK
  8
0
  5
15f
100
AcDbEntity
100
AcDbBlockEnd
  0
BLOCK
  8
0
  5
160
100
AcDbEntity
100
AcDbBlockBegin
  2
*D7
 70
    65
 10
0
 20
0
  0
LINE
  5
161
100
AcDbEntity
  8
0
  6
CONTINUOUS
 62
     7
100
AcDbLine
 10
252.9986877891961
 20
-326.7438354492188
 11
231.9986876990851
 21
-326.7438354492188
  0
INSERT
  5
162
100
AcDbEntity
  8
0
  6
CONTINUOUS
 62
     7
100
AcDbBlockReference
  2
_OPEN30
 10
255.9986877441406
 20
-326.7438354492188
 41
1
 42
1
 43
1
  0
INSERT
  5
163
100
AcDbEntity
  8
0
  6
CONTINUOUS
 62
     7
100
AcDbBlockReference
  2
_OPEN30
 10
228.9986877441406
 20
-326.7438354492188
 41
1
 42
1
 43
1
 50
180.0000000000004
  0
LINE
  5
164
100
AcDbEntity
  8
0
  6
CONTINUOUS
 62
     7
100
AcDbLine
 10
255.9986877441406
 20
-315.5188598632813
 11
255.9986877441406
 21
-329.600830078125
  0
LINE
  5
165
100
AcDbEntity
  8
0
  6
CONTINUOUS
 62
     7
100
AcDbLine
 10
228.9986877441406
 20
-292.5099487304688
 11
228.9986877441406
 21
-329.600830078125
  0
MTEXT
  5
166
100
AcDbEntity
  8
0
  6
CONTINUOUS
 62
     7
100
AcDbMText
 10
242.4986877441406
 20
-326.7438354492188
 40
5
 41
40
 71
     8
 72
     1
  1
{\W0.864328;２７}
  0
POINT
  5
167
100
AcDbEntity
  8
DEFPOINTS
  6
CONTINUOUS
 62
     7
100
AcDbPoint
 10
255.9986877441406
 20
-315.5188598632813
  0
POINT
  5
168
100
AcDbEntity
  8
DEFPOINTS
  6
CONTINUOUS
 62
     7
100
AcDbPoint
 10
228.9986877441406
 20
-292.5099487304688
  0
POINT
  5
169
100
AcDbEntity
  8
DEFPOINTS
  6
CONTINUOUS
 62
     7
100
AcDbPoint
 10
228.9986877441406
 20
-326.7438354492188
  0
ENDBLK
  8
0
  5
16a
100
AcDbEntity
100
AcDbBlockEnd
  0
BLOCK
  8
0
  5
16b
100
AcDbEntity
100
AcDbBlockBegin
  2
*D8
 70
    65
 10
0
 20
0
  0
LINE
  5
16c
100
AcDbEntity
  8
0
  6
CONTINUOUS
 62
     7
100
AcDbLine
 10
-33.99545292591485
 20
157.7503509521484
 11
-25.9954528358039
 21
157.7503509521484
  0
INSERT
  5
16d
100
AcDbEntity
  8
0
  6
CONTINUOUS
 62
     7
100
AcDbBlockReference
  2
_OPEN30
 10
-36.99545288085938
 20
157.7503509521484
 41
1
 42
1
 43
1
 50
180.0000000000004
  0
INSERT
  5
16e
100
AcDbEntity
  8
0
  6
CONTINUOUS
 62
     7
100
AcDbBlockReference
  2
_OPEN30
 10
-22.99545288085938
 20
157.7503509521484
 41
1
 42
1
 43
1
  0
LINE
  5
16f
100
AcDbEntity
  8
0
  6
CONTINUOUS
 62
     7
100
AcDbLine
 10
-36.99545288085938
 20
143.0160522460938
 11
-36.99545288085938
 21
160.6073455810547
  0
LINE
  5
170
100
AcDbEntity
  8
0
  6
CONTINUOUS
 62
     7
100
AcDbLine
 10
-22.99545288085938
 20
145.0514526367188
 11
-22.99545288085938
 21
160.6073455810547
  0
MTEXT
  5
171
100
AcDbEntity
  8
0
  6
CONTINUOUS
 62
     7
100
AcDbMText
 10
-29.99545288085938
 20
157.7503509521484
 40
5
 41
40
 71
     8
 72
     1
  1
{\W0.864328;１４}
  0
POINT
  5
172
100
AcDbEntity
  8
DEFPOINTS
  6
CONTINUOUS
 62
     7
100
AcDbPoint
 10
-36.99545288085938
 20
143.0160522460938
  0
POINT
  5
173
100
AcDbEntity
  8
DEFPOINTS
  6
CONTINUOUS
 62
     7
100
AcDbPoint
 10
-22.99545288085938
 20
145.0514526367188
  0
POINT
  5
174
100
AcDbEntity
  8
DEFPOINTS
  6
CONTINUOUS
 62
     7
100
AcDbPoint
 10
-22.99545288085938
 20
157.7503509521484
  0
ENDBLK
  8
0
  5
175
100
AcDbEntity
100
AcDbBlockEnd
  0
BLOCK
  8
0
  5
176
100
AcDbEntity
100
AcDbBlockBegin
  2
*D9
 70
    65
 10
0
 20
0
  0
LINE
  5
177
100
AcDbEntity
  8
0
  6
CONTINUOUS
 62
     7
100
AcDbLine
 10
150.0045471641961
 20
157.7503509521484
 11
142.0045470740851
 21
157.7503509521484
  0
INSERT
  5
178
100
AcDbEntity
  8
0
  6
CONTINUOUS
 62
     7
100
AcDbBlockReference
  2
_OPEN30
 10
153.0045471191406
 20
157.7503509521484
 41
1
 42
1
 43
1
  0
INSERT
  5
179
100
AcDbEntity
  8
0
  6
CONTINUOUS
 62
     7
100
AcDbBlockReference
  2
_OPEN30
 10
139.0045471191406
 20
157.7503509521484
 41
1
 42
1
 43
1
 50
180.0000000000004
  0
LINE
  5
17a
100
AcDbEntity
  8
0
  6
CONTINUOUS
 62
     7
100
AcDbLine
 10
153.0045471191406
 20
143.0160522460938
 11
153.0045471191406
 21
160.6073455810547
  0
LINE
  5
17b
100
AcDbEntity
  8
0
  6
CONTINUOUS
 62
     7
100
AcDbLine
 10
139.0045471191406
 20
145.1939392089844
 11
139.0045471191406
 21
160.6073455810547
  0
MTEXT
  5
17c
100
AcDbEntity
  8
0
  6
CONTINUOUS
 62
     7
100
AcDbMText
 10
146.0045471191406
 20
157.7503509521484
 40
5
 41
40
 71
     8
 72
     1
  1
{\W0.864328;１４}
  0
POINT
  5
17d
100
AcDbEntity
  8
DEFPOINTS
  6
CONTINUOUS
 62
     7
100
AcDbPoint
 10
153.0045471191406
 20
143.0160522460938
  0
POINT
  5
17e
100
AcDbEntity
  8
DEFPOINTS
  6
CONTINUOUS
 62
     7
100
AcDbPoint
 10
139.0045471191406
 20
145.1939392089844
  0
POINT
  5
17f
100
AcDbEntity
  8
DEFPOINTS
  6
CONTINUOUS
 62
     7
100
AcDbPoint
 10
139.0045471191406
 20
157.7503509521484
  0
ENDBLK
  8
0
  5
180
100
AcDbEntity
100
AcDbBlockEnd
  0
BLOCK
  8
0
  5
181
100
AcDbEntity
100
AcDbBlockBegin
  2
*D10
 70
    65
 10
0
 20
0
  0
LINE
  5
182
100
AcDbEntity
  8
0
  6
CONTINUOUS
 62
     7
100
AcDbLine
 10
188.0045623328742
 20
79.67092895507813
 11
193.0045624229852
 21
79.67092895507811
  0
INSERT
  5
183
100
AcDbEntity
  8
0
  6
CONTINUOUS
 62
     7
100
AcDbBlockReference
  2
_OPEN30
 10
185.0045623779297
 20
79.67092895507813
 41
1
 42
1
 43
1
 50
180.0000000000004
  0
INSERT
  5
184
100
AcDbEntity
  8
0
  6
CONTINUOUS
 62
     7
100
AcDbBlockReference
  2
_OPEN30
 10
196.0045623779297
 20
79.67092895507813
 41
1
 42
1
 43
1
  0
LINE
  5
185
100
AcDbEntity
  8
0
  6
CONTINUOUS
 62
     7
100
AcDbLine
 10
185.0045623779297
 20
99.25772857666016
 11
185.0045623779297
 21
76.81392669677734
  0
LINE
  5
186
100
AcDbEntity
  8
0
  6
CONTINUOUS
 62
     7
100
AcDbLine
 10
196.0045623779297
 20
99.25772857666016
 11
196.0045623779297
 21
76.81392669677734
  0
MTEXT
  5
187
100
AcDbEntity
  8
0
  6
CONTINUOUS
 62
     7
100
AcDbMText
 10
190.5045623779297
 20
79.67092895507813
 40
5
 41
40
 71
     8
 72
     1
  1
{\W0.864328;１１}
  0
POINT
  5
188
100
AcDbEntity
  8
DEFPOINTS
  6
CONTINUOUS
 62
     7
100
AcDbPoint
 10
185.0045623779297
 20
99.25772857666016
  0
POINT
  5
189
100
AcDbEntity
  8
DEFPOINTS
  6
CONTINUOUS
 62
     7
100
AcDbPoint
 10
196.0045623779297
 20
99.25772857666016
  0
POINT
  5
18a
100
AcDbEntity
  8
DEFPOINTS
  6
CONTINUOUS
 62
     7
100
AcDbPoint
 10
196.0045623779297
 20
79.67092895507813
  0
ENDBLK
  8
0
  5
18b
100
AcDbEntity
100
AcDbBlockEnd
  0
BLOCK
  8
0
  5
18c
100
AcDbEntity
100
AcDbBlockBegin
  2
*D11
 70
    65
 10
0
 20
0
  0
LINE
  5
18d
100
AcDbEntity
  8
0
  6
CONTINUOUS
 62
     7
100
AcDbLine
 10
208.0045624229852
 20
57.10265350341795
 11
182.0045623328742
 21
57.10265350341797
  0
INSERT
  5
18e
100
AcDbEntity
  8
0
  6
CONTINUOUS
 62
     7
100
AcDbBlockReference
  2
_OPEN30
 10
211.0045623779297
 20
57.10265350341797
 41
1
 42
1
 43
1
  0
INSERT
  5
18f
100
AcDbEntity
  8
0
  6
CONTINUOUS
 62
     7
100
AcDbBlockReference
  2
_OPEN30
 10
179.0045623779297
 20
57.10265350341797
 41
1
 42
1
 43
1
 50
180.0000000000004
  0
LINE
  5
190
100
AcDbEntity
  8
0
  6
CONTINUOUS
 62
     7
100
AcDbLine
 10
211.0045623779297
 20
103.0160598754883
 11
211.0045623779297
 21
54.24565505981445
  0
LINE
  5
191
100
AcDbEntity
  8
0
  6
CONTINUOUS
 62
     7
100
AcDbLine
 10
179.0045623779297
 20
101.5160675048828
 11
179.0045623779297
 21
54.24565505981445
  0
MTEXT
  5
192
100
AcDbEntity
  8
0
  6
CONTINUOUS
 62
     7
100
AcDbMText
 10
195.0045623779297
 20
57.10265350341797
 40
5
 41
40
 71
     8
 72
     1
  1
{\W0.864328;３２}
  0
POINT
  5
193
100
AcDbEntity
  8
DEFPOINTS
  6
CONTINUOUS
 62
     7
100
AcDbPoint
 10
211.0045623779297
 20
103.0160598754883
  0
POINT
  5
194
100
AcDbEntity
  8
DEFPOINTS
  6
CONTINUOUS
 62
     7
100
AcDbPoint
 10
179.0045623779297
 20
101.5160675048828
  0
POINT
  5
195
100
AcDbEntity
  8
DEFPOINTS
  6
CONTINUOUS
 62
     7
100
AcDbPoint
 10
179.0045623779297
 20
57.10265350341797
  0
ENDBLK
  8
0
  5
196
100
AcDbEntity
100
AcDbBlockEnd
  0
BLOCK
  8
0
  5
197
100
AcDbEntity
100
AcDbBlockBegin
  2
*D12
 70
    65
 10
0
 20
0
  0
LINE
  5
198
100
AcDbEntity
  8
0
  6
CONTINUOUS
 62
     7
100
AcDbLine
 10
150.0045471641961
 20
44.80033111572264
 11
-33.99545292591485
 21
44.80033111572266
  0
INSERT
  5
199
100
AcDbEntity
  8
0
  6
CONTINUOUS
 62
     7
100
AcDbBlockReference
  2
_OPEN30
 10
153.0045471191406
 20
44.80033111572266
 41
1
 42
1
 43
1
  0
INSERT
  5
19a
100
AcDbEntity
  8
0
  6
CONTINUOUS
 62
     7
100
AcDbBlockReference
  2
_OPEN30
 10
-36.99545288085938
 20
44.80033111572266
 41
1
 42
1
 43
1
 50
180.0000000000004
  0
LINE
  5
19b
100
AcDbEntity
  8
0
  6
CONTINUOUS
 62
     7
100
AcDbLine
 10
-36.99545288085938
 20
78.01605987548828
 11
-36.99545288085938
 21
41.94333267211914
  0
MTEXT
  5
19c
100
AcDbEntity
  8
0
  6
CONTINUOUS
 62
     7
100
AcDbMText
 10
58.00454711914063
 20
44.80033111572266
 40
5
 41
160
 71
     8
 72
     1
  1
{\W0.845552;９０＋ストロ－ク}
  0
POINT
  5
19d
100
AcDbEntity
  8
DEFPOINTS
  6
CONTINUOUS
 62
     7
100
AcDbPoint
 10
153.0045471191406
 20
78.01605987548828
  0
POINT
  5
19e
100
AcDbEntity
  8
DEFPOINTS
  6
CONTINUOUS
 62
     7
100
AcDbPoint
 10
-36.99545288085938
 20
78.01605987548828
  0
POINT
  5
19f
100
AcDbEntity
  8
DEFPOINTS
  6
CONTINUOUS
 62
     7
100
AcDbPoint
 10
-36.99545288085938
 20
44.80033111572266
  0
ENDBLK
  8
0
  5
1a0
100
AcDbEntity
100
AcDbBlockEnd
  0
BLOCK
  8
0
  5
1a1
100
AcDbEntity
100
AcDbBlockBegin
  2
*D13
 70
    65
 10
0
 20
0
  0
LINE
  5
1a2
100
AcDbEntity
  8
0
  6
CONTINUOUS
 62
     7
100
AcDbLine
 10
292.7688552238777
 20
-276.5099792480469
 11
292.7688552238777
 21
-234.0060659495512
  0
LINE
  5
1a3
100
AcDbEntity
  8
0
  6
CONTINUOUS
 62
     7
100
AcDbLine
 10
292.7688552238777
 20
-279.5099792029914
 11
292.7688552238777
 21
-289.5099487755242
  0
INSERT
  5
1a4
100
AcDbEntity
  8
0
  6
CONTINUOUS
 62
     7
100
AcDbBlockReference
  2
_OPEN30
 10
292.7688552238777
 20
-276.5099792480469
 41
1
 42
1
 43
1
 50
90.00000000000019
  0
INSERT
  5
1a5
100
AcDbEntity
  8
0
  6
CONTINUOUS
 62
     7
100
AcDbBlockReference
  2
_OPEN30
 10
292.7688552238777
 20
-292.5099487304688
 41
1
 42
1
 43
1
 50
270.0000000000005
  0
LINE
  5
1a6
100
AcDbEntity
  8
0
  6
CONTINUOUS
 62
     7
100
AcDbLine
 10
270.9986877441406
 20
-276.5099792480469
 11
295.0548552238777
 21
-276.5099792480469
  0
LINE
  5
1a7
100
AcDbEntity
  8
0
  6
CONTINUOUS
 62
     7
100
AcDbLine
 10
270.9986877441406
 20
-292.5099487304688
 11
295.0548552238777
 21
-292.5099487304688
  0
MTEXT
  5
1a8
100
AcDbEntity
  8
0
  6
CONTINUOUS
 62
     7
100
AcDbMText
 10
291.5188552238777
 20
-252.5773161498229
 40
5
 41
40
 71
     7
 72
     1
  1
{\W0.864328;１６}
 11
0
 21
1
  0
MTEXT
  5
1a9
100
AcDbEntity
  8
0
  6
CONTINUOUS
 62
     7
100
AcDbMText
 10
287.7688552238777
 20
-242.5773161498229
 40
2.5
 41
40
 71
     7
 72
     1
  1
{\W0.851241;＋０．３}
 11
0
 21
1
  0
MTEXT
  5
1aa
100
AcDbEntity
  8
0
  6
CONTINUOUS
 62
     7
100
AcDbMText
 10
291.5188552238777
 20
-242.5773161498229
 40
2.5
 41
40
 71
     7
 72
     1
  1
{\W0.851241;＋０．１}
 11
0
 21
1
  0
POINT
  5
1ab
100
AcDbEntity
  8
DEFPOINTS
  6
CONTINUOUS
 62
     7
100
AcDbPoint
 10
270.9986877441406
 20
-276.5099792480469
  0
POINT
  5
1ac
100
AcDbEntity
  8
DEFPOINTS
  6
CONTINUOUS
 62
     7
100
AcDbPoint
 10
270.9986877441406
 20
-292.5099487304688
  0
POINT
  5
1ad
100
AcDbEntity
  8
DEFPOINTS
  6
CONTINUOUS
 62
     7
100
AcDbPoint
 10
292.7688552238777
 20
-292.5099487304688
  0
ENDBLK
  8
0
  5
1ae
100
AcDbEntity
100
AcDbBlockEnd
  0
BLOCK
  8
0
  5
1af
100
AcDbEntity
100
AcDbBlockBegin
  2
*D14
 70
    65
 10
0
 20
0
  0
LINE
  5
1b0
100
AcDbEntity
  8
0
  6
CONTINUOUS
 62
     7
100
AcDbLine
 10
266.9823898262139
 20
-205.3572806872838
 11
281.3614576676033
 21
-218.7308187769718
  0
LINE
  5
1b1
100
AcDbEntity
  8
0
  6
CONTINUOUS
 62
     7
100
AcDbLine
 10
255.998678989375
 20
-195.1416742765503
 11
264.7856292050515
 21
-203.3141590265241
  0
INSERT
  5
1b2
100
AcDbEntity
  8
0
  6
CONTINUOUS
 62
     7
100
AcDbBlockReference
  2
_OPEN30
 10
266.9823667177311
 20
-205.3572801756618
 41
1
 42
1
 43
1
 50
317.0750033655651
  0
MTEXT
  5
1b3
100
AcDbEntity
  8
0
  6
CONTINUOUS
 62
     7
100
AcDbMText
 10
276.3927001953125
 20
-214.1095886230469
 40
5
 41
60
 71
     8
 72
     1
  1
{\W0.855331;Ｒ１５}
 11
0.7325428987873797
 21
-0.6807208689589168
  0
POINT
  5
1b4
100
AcDbEntity
  8
DEFPOINTS
  6
CONTINUOUS
 62
     7
100
AcDbPoint
 10
255.998678989375
 20
-195.1416742765503
  0
POINT
  5
1b5
100
AcDbEntity
  8
DEFPOINTS
  6
CONTINUOUS
 62
     7
100
AcDbPoint
 10
266.9823667177311
 20
-205.3572801756618
  0
ENDBLK
  8
0
  5
1b6
100
AcDbEntity
100
AcDbBlockEnd
  0
BLOCK
  8
0
  5
1b7
100
AcDbEntity
100
AcDbBlockBegin
  2
*D15
 70
    65
 10
0
 20
0
  0
LINE
  5
1b8
100
AcDbEntity
  8
0
  6
CONTINUOUS
 62
     7
100
AcDbLine
 10
170.974949427902
 20
120.5160598754883
 11
170.974949427902
 21
146.4661536596192
  0
LINE
  5
1b9
100
AcDbEntity
  8
0
  6
CONTINUOUS
 62
     7
100
AcDbLine
 10
170.974949427902
 20
103.5160674598273
 11
170.9749494279021
 21
117.5160599205438
  0
INSERT
  5
1ba
100
AcDbEntity
  8
0
  6
CONTINUOUS
 62
     7
100
AcDbBlockReference
  2
_OPEN30
 10
170.974949427902
 20
100.5160675048828
 41
1
 42
1
 43
1
 50
270.0000000000005
  0
INSERT
  5
1bb
100
AcDbEntity
  8
0
  6
CONTINUOUS
 62
     7
100
AcDbBlockReference
  2
_OPEN30
 10
170.974949427902
 20
120.5160598754883
 41
1
 42
1
 43
1
 50
90.00000000000019
  0
LINE
  5
1bc
100
AcDbEntity
  8
0
  6
CONTINUOUS
 62
     7
100
AcDbLine
 10
174.2725067138672
 20
100.5160675048828
 11
168.688949427902
 21
100.5160675048828
  0
LINE
  5
1bd
100
AcDbEntity
  8
0
  6
CONTINUOUS
 62
     7
100
AcDbLine
 10
174.2725067138672
 20
120.5160598754883
 11
168.688949427902
 21
120.5160598754883
  0
MTEXT
  5
1be
100
AcDbEntity
  8
0
  6
CONTINUOUS
 62
     7
100
AcDbMText
 10
170.974949427902
 20
139.6805285594834
 40
5
 41
110
 71
     8
 72
     1
  1
{\W0.855331;\U+2205２０}
 11
0
 21
1
  0
POINT
  5
1bf
100
AcDbEntity
  8
DEFPOINTS
  6
CONTINUOUS
 62
     7
100
AcDbPoint
 10
174.2725067138672
 20
100.5160675048828
  0
POINT
  5
1c0
100
AcDbEntity
  8
DEFPOINTS
  6
CONTINUOUS
 62
     7
100
AcDbPoint
 10
174.2725067138672
 20
120.5160598754883
  0
POINT
  5
1c1
100
AcDbEntity
  8
DEFPOINTS
  6
CONTINUOUS
 62
     7
100
AcDbPoint
 10
170.974949427902
 20
120.5160598754883
  0
ENDBLK
  8
0
  5
1c2
100
AcDbEntity
100
AcDbBlockEnd
  0
BLOCK
  8
0
  5
1c3
100
AcDbEntity
100
AcDbBlockBegin
  2
*D16
 70
    65
 10
0
 20
0
  0
LINE
  5
1c4
100
AcDbEntity
  8
0
  6
CONTINUOUS
 62
     7
100
AcDbLine
 10
312.6841430213508
 20
57.10265350341797
 11
354.6841431114617
 21
57.10265350341795
  0
INSERT
  5
1c5
100
AcDbEntity
  8
0
  6
CONTINUOUS
 62
     7
100
AcDbBlockReference
  2
_OPEN30
 10
309.6841430664063
 20
57.10265350341797
 41
1
 42
1
 43
1
 50
180.0000000000004
  0
INSERT
  5
1c6
100
AcDbEntity
  8
0
  6
CONTINUOUS
 62
     7
100
AcDbBlockReference
  2
_OPEN30
 10
357.6841430664063
 20
57.10265350341797
 41
1
 42
1
 43
1
  0
LINE
  5
1c7
100
AcDbEntity
  8
0
  6
CONTINUOUS
 62
     7
100
AcDbLine
 10
309.6841430664063
 20
78.26300048828125
 11
309.6841430664063
 21
54.24565505981445
  0
LINE
  5
1c8
100
AcDbEntity
  8
0
  6
CONTINUOUS
 62
     7
100
AcDbLine
 10
357.6841430664063
 20
77.96826171875
 11
357.6841430664063
 21
54.24565505981445
  0
MTEXT
  5
1c9
100
AcDbEntity
  8
0
  6
CONTINUOUS
 62
     7
100
AcDbMText
 10
333.6841430664063
 20
57.10265350341797
 40
5
 41
60
 71
     8
 72
     1
  1
{\W0.855331;□４８}
  0
POINT
  5
1ca
100
AcDbEntity
  8
DEFPOINTS
  6
CONTINUOUS
 62
     7
100
AcDbPoint
 10
309.6841430664063
 20
78.26300048828125
  0
POINT
  5
1cb
100
AcDbEntity
  8
DEFPOINTS
  6
CONTINUOUS
 62
     7
100
AcDbPoint
 10
357.6841430664063
 20
77.96826171875
  0
POINT
  5
1cc
100
AcDbEntity
  8
DEFPOINTS
  6
CONTINUOUS
 62
     7
100
AcDbPoint
 10
357.6841430664063
 20
57.10265350341797
  0
ENDBLK
  8
0
  5
1cd
100
AcDbEntity
100
AcDbBlockEnd
  0
BLOCK
  8
0
  5
1ce
100
AcDbEntity
100
AcDbBlockBegin
  2
*D17
 70
    65
 10
0
 20
0
  0
LINE
  5
1cf
100
AcDbEntity
  8
0
  6
CONTINUOUS
 62
     7
100
AcDbLine
 10
303.6841430213508
 20
44.80033111572266
 11
363.6841431114617
 21
44.80033111572264
  0
INSERT
  5
1d0
100
AcDbEntity
  8
0
  6
CONTINUOUS
 62
     7
100
AcDbBlockReference
  2
_OPEN30
 10
300.6841430664063
 20
44.80033111572266
 41
1
 42
1
 43
1
 50
180.0000000000004
  0
INSERT
  5
1d1
100
AcDbEntity
  8
0
  6
CONTINUOUS
 62
     7
100
AcDbBlockReference
  2
_OPEN30
 10
366.6841430664063
 20
44.80033111572266
 41
1
 42
1
 43
1
  0
LINE
  5
1d2
100
AcDbEntity
  8
0
  6
CONTINUOUS
 62
     7
100
AcDbLine
 10
300.6841430664063
 20
81.98665618896484
 11
300.6841430664063
 21
41.94333267211914
  0
LINE
  5
1d3
100
AcDbEntity
  8
0
  6
CONTINUOUS
 62
     7
100
AcDbLine
 10
366.6841430664063
 20
80.56708526611328
 11
366.6841430664063
 21
41.94333267211914
  0
MTEXT
  5
1d4
100
AcDbEntity
  8
0
  6
CONTINUOUS
 62
     7
100
AcDbMText
 10
333.6841430664063
 20
44.80033111572266
 40
5
 41
60
 71
     8
 72
     1
  1
{\W0.855331;□６６}
  0
POINT
  5
1d5
100
AcDbEntity
  8
DEFPOINTS
  6
CONTINUOUS
 62
     7
100
AcDbPoint
 10
300.6841430664063
 20
81.98665618896484
  0
POINT
  5
1d6
100
AcDbEntity
  8
DEFPOINTS
  6
CONTINUOUS
 62
     7
100
AcDbPoint
 10
366.6841430664063
 20
80.56708526611328
  0
POINT
  5
1d7
100
AcDbEntity
  8
DEFPOINTS
  6
CONTINUOUS
 62
     7
100
AcDbPoint
 10
366.6841430664063
 20
44.80033111572266
  0
ENDBLK
  8
0
  5
1d8
100
AcDbEntity
100
AcDbBlockEnd
  0
BLOCK
  8
0
  5
1d9
100
AcDbEntity
100
AcDbBlockBegin
  2
*D18
 70
    65
 10
0
 20
0
  0
LINE
  5
1da
100
AcDbEntity
  8
0
  6
CONTINUOUS
 62
     7
100
AcDbLine
 10
-173.6750183556024
 20
56.82756805419922
 11
-131.6750182654914
 21
56.8275680541992
  0
INSERT
  5
1db
100
AcDbEntity
  8
0
  6
CONTINUOUS
 62
     7
100
AcDbBlockReference
  2
_OPEN30
 10
-176.6750183105469
 20
56.82756805419922
 41
1
 42
1
 43
1
 50
180.0000000000004
  0
INSERT
  5
1dc
100
AcDbEntity
  8
0
  6
CONTINUOUS
 62
     7
100
AcDbBlockReference
  2
_OPEN30
 10
-128.6750183105469
 20
56.82756805419922
 41
1
 42
1
 43
1
  0
LINE
  5
1dd
100
AcDbEntity
  8
0
  6
CONTINUOUS
 62
     7
100
AcDbLine
 10
-176.6749877929688
 20
77.96826171875
 11
-176.6749877929688
 21
53.97056579589844
  0
LINE
  5
1de
100
AcDbEntity
  8
0
  6
CONTINUOUS
 62
     7
100
AcDbLine
 10
-128.6749877929688
 20
78.26300048828125
 11
-128.6749877929688
 21
53.97056579589844
  0
MTEXT
  5
1df
100
AcDbEntity
  8
0
  6
CONTINUOUS
 62
     7
100
AcDbMText
 10
-152.6749877929688
 20
56.82756805419922
 40
5
 41
60
 71
     8
 72
     1
  1
{\W0.855331;□４８}
  0
POINT
  5
1e0
100
AcDbEntity
  8
DEFPOINTS
  6
CONTINUOUS
 62
     7
100
AcDbPoint
 10
-176.6749877929688
 20
77.96826171875
  0
POINT
  5
1e1
100
AcDbEntity
  8
DEFPOINTS
  6
CONTINUOUS
 62
     7
100
AcDbPoint
 10
-128.6749877929688
 20
78.26300048828125
  0
POINT
  5
1e2
100
AcDbEntity
  8
DEFPOINTS
  6
CONTINUOUS
 62
     7
100
AcDbPoint
 10
-128.6750183105469
 20
56.82756805419922
  0
ENDBLK
  8
0
  5
1e3
100
AcDbEntity
100
AcDbBlockEnd
  0
BLOCK
  8
0
  5
1e4
100
AcDbEntity
100
AcDbBlockBegin
  2
*D19
 70
    65
 10
0
 20
0
  0
LINE
  5
1e5
100
AcDbEntity
  8
0
  6
CONTINUOUS
 62
     7
100
AcDbLine
 10
-33.99545292591485
 20
57.10265350341797
 11
-11.9954528358039
 21
57.10265350341795
  0
INSERT
  5
1e6
100
AcDbEntity
  8
0
  6
CONTINUOUS
 62
     7
100
AcDbBlockReference
  2
_OPEN30
 10
-36.99545288085938
 20
57.10265350341797
 41
1
 42
1
 43
1
 50
180.0000000000004
  0
INSERT
  5
1e7
100
AcDbEntity
  8
0
  6
CONTINUOUS
 62
     7
100
AcDbBlockReference
  2
_OPEN30
 10
-8.995452880859375
 20
57.10265350341797
 41
1
 42
1
 43
1
  0
LINE
  5
1e8
100
AcDbEntity
  8
0
  6
CONTINUOUS
 62
     7
100
AcDbLine
 10
-36.99545288085938
 20
78.01605987548828
 11
-36.99545288085938
 21
54.24565505981445
  0
LINE
  5
1e9
100
AcDbEntity
  8
0
  6
CONTINUOUS
 62
     7
100
AcDbLine
 10
-8.995452880859375
 20
78.01605987548828
 11
-8.995452880859375
 21
54.24565505981445
  0
MTEXT
  5
1ea
100
AcDbEntity
  8
0
  6
CONTINUOUS
 62
     7
100
AcDbMText
 10
-22.99545288085938
 20
57.10265350341797
 40
5
 41
40
 71
     8
 72
     1
  1
{\W0.864328;２８}
  0
POINT
  5
1eb
100
AcDbEntity
  8
DEFPOINTS
  6
CONTINUOUS
 62
     7
100
AcDbPoint
 10
-36.99545288085938
 20
78.01605987548828
  0
POINT
  5
1ec
100
AcDbEntity
  8
DEFPOINTS
  6
CONTINUOUS
 62
     7
100
AcDbPoint
 10
-8.995452880859375
 20
78.01605987548828
  0
POINT
  5
1ed
100
AcDbEntity
  8
DEFPOINTS
  6
CONTINUOUS
 62
     7
100
AcDbPoint
 10
-8.995452880859375
 20
57.10265350341797
  0
ENDBLK
  8
0
  5
1ee
100
AcDbEntity
100
AcDbBlockEnd
  0
BLOCK
  8
0
  5
1ef
100
AcDbEntity
100
AcDbBlockBegin
  2
*D20
 70
    65
 10
0
 20
0
  0
LINE
  5
1f0
100
AcDbEntity
  8
0
  6
CONTINUOUS
 62
     7
100
AcDbLine
 10
128.0045470740851
 20
57.10265350341797
 11
150.0045471641961
 21
57.10265350341795
  0
INSERT
  5
1f1
100
AcDbEntity
  8
0
  6
CONTINUOUS
 62
     7
100
AcDbBlockReference
  2
_OPEN30
 10
125.0045471191406
 20
57.10265350341797
 41
1
 42
1
 43
1
 50
180.0000000000004
  0
INSERT
  5
1f2
100
AcDbEntity
  8
0
  6
CONTINUOUS
 62
     7
100
AcDbBlockReference
  2
_OPEN30
 10
153.0045471191406
 20
57.10265350341797
 41
1
 42
1
 43
1
  0
LINE
  5
1f3
100
AcDbEntity
  8
0
  6
CONTINUOUS
 62
     7
100
AcDbLine
 10
125.0045471191406
 20
78.01605987548828
 11
125.0045471191406
 21
54.24565505981445
  0
LINE
  5
1f4
100
AcDbEntity
  8
0
  6
CONTINUOUS
 62
     7
100
AcDbLine
 10
153.0045471191406
 20
78.01605987548828
 11
153.0045471191406
 21
41.35567855834961
  0
MTEXT
  5
1f5
100
AcDbEntity
  8
0
  6
CONTINUOUS
 62
     7
100
AcDbMText
 10
139.0045471191406
 20
57.10265350341797
 40
5
 41
40
 71
     8
 72
     1
  1
{\W0.864328;２８}
  0
POINT
  5
1f6
100
AcDbEntity
  8
DEFPOINTS
  6
CONTINUOUS
 62
     7
100
AcDbPoint
 10
125.0045471191406
 20
78.01605987548828
  0
POINT
  5
1f7
100
AcDbEntity
  8
DEFPOINTS
  6
CONTINUOUS
 62
     7
100
AcDbPoint
 10
153.0045471191406
 20
78.01605987548828
  0
POINT
  5
1f8
100
AcDbEntity
  8
DEFPOINTS
  6
CONTINUOUS
 62
     7
100
AcDbPoint
 10
153.0045471191406
 20
57.10265350341797
  0
ENDBLK
  8
0
  5
1f9
100
AcDbEntity
100
AcDbBlockEnd
  0
BLOCK
  8
0
  5
1fa
100
AcDbEntity
100
AcDbBlockBegin
  2
*D21
 70
    65
 10
0
 20
0
  0
LINE
  5
1fb
100
AcDbEntity
  8
0
  6
CONTINUOUS
 62
     7
100
AcDbLine
 10
156.0045470740851
 20
44.80033111572266
 11
173.0045624229852
 21
44.80033111572264
  0
INSERT
  5
1fc
100
AcDbEntity
  8
0
  6
CONTINUOUS
 62
     7
100
AcDbBlockReference
  2
_OPEN30
 10
153.0045471191406
 20
44.80033111572266
 41
1
 42
1
 43
1
 50
180.0000000000004
  0
INSERT
  5
1fd
100
AcDbEntity
  8
0
  6
CONTINUOUS
 62
     7
100
AcDbBlockReference
  2
_OPEN30
 10
176.0045623779297
 20
44.80033111572266
 41
1
 42
1
 43
1
  0
LINE
  5
1fe
100
AcDbEntity
  8
0
  6
CONTINUOUS
 62
     7
100
AcDbLine
 10
153.0045471191406
 20
78.01605987548828
 11
153.0045471191406
 21
41.94333267211914
  0
LINE
  5
1ff
100
AcDbEntity
  8
0
  6
CONTINUOUS
 62
     7
100
AcDbLine
 10
176.0045623779297
 20
101.5160598754883
 11
176.0045623779297
 21
41.94333267211914
  0
MTEXT
  5
200
100
AcDbEntity
  8
0
  6
CONTINUOUS
 62
     7
100
AcDbMText
 10
164.5045471191406
 20
44.80033111572266
 40
5
 41
40
 71
     8
 72
     1
  1
{\W0.864328;２３}
  0
POINT
  5
201
100
AcDbEntity
  8
DEFPOINTS
  6
CONTINUOUS
 62
     7
100
AcDbPoint
 10
153.0045471191406
 20
78.01605987548828
  0
POINT
  5
202
100
AcDbEntity
  8
DEFPOINTS
  6
CONTINUOUS
 62
     7
100
AcDbPoint
 10
176.0045623779297
 20
101.5160598754883
  0
POINT
  5
203
100
AcDbEntity
  8
DEFPOINTS
  6
CONTINUOUS
 62
     7
100
AcDbPoint
 10
176.0045623779297
 20
44.80033111572266
  0
ENDBLK
  8
0
  5
204
100
AcDbEntity
100
AcDbBlockEnd
  0
BLOCK
  8
0
  5
205
100
AcDbEntity
100
AcDbBlockBegin
  2
*D22
 70
    65
 10
0
 20
0
  0
LINE
  5
206
100
AcDbEntity
  8
0
  6
CONTINUOUS
 62
     7
100
AcDbLine
 10
179.0045623328742
 20
44.80033111572266
 11
208.0045624229852
 21
44.80033111572264
  0
INSERT
  5
207
100
AcDbEntity
  8
0
  6
CONTINUOUS
 62
     7
100
AcDbBlockReference
  2
_OPEN30
 10
176.0045623779297
 20
44.80033111572266
 41
1
 42
1
 43
1
 50
180.0000000000004
  0
INSERT
  5
208
100
AcDbEntity
  8
0
  6
CONTINUOUS
 62
     7
100
AcDbBlockReference
  2
_OPEN30
 10
211.0045623779297
 20
44.80033111572266
 41
1
 42
1
 43
1
  0
LINE
  5
209
100
AcDbEntity
  8
0
  6
CONTINUOUS
 62
     7
100
AcDbLine
 10
211.0045623779297
 20
103.0160598754883
 11
211.0045623779297
 21
41.94333267211914
  0
MTEXT
  5
20a
100
AcDbEntity
  8
0
  6
CONTINUOUS
 62
     7
100
AcDbMText
 10
193.5045623779297
 20
44.80033111572266
 40
5
 41
40
 71
     8
 72
     1
  1
{\W0.864328;３５}
  0
POINT
  5
20b
100
AcDbEntity
  8
DEFPOINTS
  6
CONTINUOUS
 62
     7
100
AcDbPoint
 10
176.0045623779297
 20
101.5160598754883
  0
POINT
  5
20c
100
AcDbEntity
  8
DEFPOINTS
  6
CONTINUOUS
 62
     7
100
AcDbPoint
 10
211.0045623779297
 20
103.0160598754883
  0
POINT
  5
20d
100
AcDbEntity
  8
DEFPOINTS
  6
CONTINUOUS
 62
     7
100
AcDbPoint
 10
211.0045623779297
 20
44.80033111572266
  0
ENDBLK
  8
0
  5
20e
100
AcDbEntity
100
AcDbBlockEnd
  0
BLOCK
  8
0
  5
20f
100
AcDbEntity
100
AcDbBlockBegin
  2
*D23
 70
    65
 10
0
 20
0
  0
LINE
  5
210
100
AcDbEntity
  8
0
  6
CONTINUOUS
 62
     7
100
AcDbLine
 10
489.2875671386719
 20
133.4468688964844
 11
489.2875671386719
 21
151.814697265625
  0
LINE
  5
211
100
AcDbEntity
  8
0
  6
CONTINUOUS
 62
     7
100
AcDbLine
 10
489.2875671386719
 20
96.44683070445623
 11
489.2875671386719
 21
130.4468689415399
  0
INSERT
  5
212
100
AcDbEntity
  8
0
  6
CONTINUOUS
 62
     7
100
AcDbBlockReference
  2
_OPEN30
 10
489.2875671386719
 20
93.44683074951172
 41
1
 42
1
 43
1
 50
270.0000000000005
  0
INSERT
  5
213
100
AcDbEntity
  8
0
  6
CONTINUOUS
 62
     7
100
AcDbBlockReference
  2
_OPEN30
 10
489.2875671386719
 20
133.4468688964844
 41
1
 42
1
 43
1
 50
90.00000000000019
  0
LINE
  5
214
100
AcDbEntity
  8
0
  6
CONTINUOUS
 62
     7
100
AcDbLine
 10
494.3637545709275
 20
90.51601165521603
 11
486.430533671407
 21
95.09625387629598
  0
LINE
  5
215
100
AcDbEntity
  8
0
  6
CONTINUOUS
 62
     7
100
AcDbLine
 10
494.3638868555339
 20
130.5160408229753
 11
486.4305900887552
 21
135.0963347435794
  0
MTEXT
  5
216
100
AcDbEntity
  8
0
  6
CONTINUOUS
 62
     7
100
AcDbMText
 10
489.2875671386719
 20
145.0290679931641
 40
5
 41
110
 71
     8
 72
     1
  1
{\W0.855331;\U+2205４０}
 11
0
 21
1
  0
POINT
  5
217
100
AcDbEntity
  8
DEFPOINTS
  6
CONTINUOUS
 62
     7
100
AcDbPoint
 10
494.3637545709275
 20
90.51601165521603
  0
POINT
  5
218
100
AcDbEntity
  8
DEFPOINTS
  6
CONTINUOUS
 62
     7
100
AcDbPoint
 10
494.3638868555339
 20
130.5160408229753
  0
POINT
  5
219
100
AcDbEntity
  8
DEFPOINTS
  6
CONTINUOUS
 62
     7
100
AcDbPoint
 10
489.2875671386719
 20
133.4468688964844
  0
ENDBLK
  8
0
  5
21a
100
AcDbEntity
100
AcDbBlockEnd
  0
BLOCK
  8
0
  5
21b
100
AcDbEntity
100
AcDbBlockBegin
  2
*D24
 70
    65
 10
0
 20
0
  0
LINE
  5
21c
100
AcDbEntity
  8
0
  6
CONTINUOUS
 62
     7
100
AcDbLine
 10
156.0045470740851
 20
57.10265350341797
 11
161.0045471641961
 21
57.10265350341795
  0
INSERT
  5
21d
100
AcDbEntity
  8
0
  6
CONTINUOUS
 62
     7
100
AcDbBlockReference
  2
_OPEN30
 10
153.0045471191406
 20
57.10265350341797
 41
1
 42
1
 43
1
 50
180.0000000000004
  0
INSERT
  5
21e
100
AcDbEntity
  8
0
  6
CONTINUOUS
 62
     7
100
AcDbBlockReference
  2
_OPEN30
 10
164.0045471191406
 20
57.10265350341797
 41
1
 42
1
 43
1
  0
LINE
  5
21f
100
AcDbEntity
  8
0
  6
CONTINUOUS
 62
     7
100
AcDbLine
 10
153.0045471191406
 20
41.94333267211914
 11
153.0045471191406
 21
59.95965194702148
  0
LINE
  5
220
100
AcDbEntity
  8
0
  6
CONTINUOUS
 62
     7
100
AcDbLine
 10
164.0045471191406
 20
91.13364410400391
 11
164.0045471191406
 21
54.24565505981445
  0
MTEXT
  5
221
100
AcDbEntity
  8
0
  6
CONTINUOUS
 62
     7
100
AcDbMText
 10
158.5045471191406
 20
57.10265350341797
 40
5
 41
40
 71
     8
 72
     1
  1
{\W0.864328;１１}
  0
POINT
  5
222
100
AcDbEntity
  8
DEFPOINTS
  6
CONTINUOUS
 62
     7
100
AcDbPoint
 10
153.0045471191406
 20
41.94333267211914
  0
POINT
  5
223
100
AcDbEntity
  8
DEFPOINTS
  6
CONTINUOUS
 62
     7
100
AcDbPoint
 10
164.0045471191406
 20
91.13364410400391
  0
POINT
  5
224
100
AcDbEntity
  8
DEFPOINTS
  6
CONTINUOUS
 62
     7
100
AcDbPoint
 10
164.0045471191406
 20
57.10265350341797
  0
ENDBLK
  8
0
  5
225
100
AcDbEntity
100
AcDbBlockEnd
  0
BLOCK
  8
0
  5
226
100
AcDbEntity
100
AcDbBlockBegin
  2
*D25
 70
    65
 10
0
 20
0
  0
LINE
  5
227
100
AcDbEntity
  8
0
  6
CONTINUOUS
 62
     7
100
AcDbLine
 10
291.6841430213508
 20
32.01763153076172
 11
375.6841431114617
 21
32.0176315307617
  0
INSERT
  5
228
100
AcDbEntity
  8
0
  6
CONTINUOUS
 62
     7
100
AcDbBlockReference
  2
_OPEN30
 10
288.6841430664063
 20
32.01763153076172
 41
1
 42
1
 43
1
 50
180.0000000000004
  0
INSERT
  5
229
100
AcDbEntity
  8
0
  6
CONTINUOUS
 62
     7
100
AcDbBlockReference
  2
_OPEN30
 10
378.6841430664063
 20
32.01763153076172
 41
1
 42
1
 43
1
  0
LINE
  5
22a
100
AcDbEntity
  8
0
  6
CONTINUOUS
 62
     7
100
AcDbLine
 10
288.6841430664063
 20
77.51605987548828
 11
288.6841430664063
 21
29.16063117980957
  0
LINE
  5
22b
100
AcDbEntity
  8
0
  6
CONTINUOUS
 62
     7
100
AcDbLine
 10
378.6841430664063
 20
81.01605987548828
 11
378.6841430664063
 21
29.16063117980957
  0
MTEXT
  5
22c
100
AcDbEntity
  8
0
  6
CONTINUOUS
 62
     7
100
AcDbMText
 10
333.6841430664063
 20
32.01763153076172
 40
5
 41
40
 71
     8
 72
     1
  1
{\W0.864328;９０}
  0
POINT
  5
22d
100
AcDbEntity
  8
DEFPOINTS
  6
CONTINUOUS
 62
     7
100
AcDbPoint
 10
288.6841430664063
 20
77.51605987548828
  0
POINT
  5
22e
100
AcDbEntity
  8
DEFPOINTS
  6
CONTINUOUS
 62
     7
100
AcDbPoint
 10
378.6841430664063
 20
81.01605987548828
  0
POINT
  5
22f
100
AcDbEntity
  8
DEFPOINTS
  6
CONTINUOUS
 62
     7
100
AcDbPoint
 10
378.6841430664063
 20
32.01763153076172
  0
ENDBLK
  8
0
  5
230
100
AcDbEntity
100
AcDbBlockEnd
  0
BLOCK
  8
0
  5
231
100
AcDbEntity
100
AcDbBlockBegin
  2
*D26
 70
    65
 10
0
 20
0
  0
LINE
  5
232
100
AcDbEntity
  8
0
  6
CONTINUOUS
 62
     7
100
AcDbLine
 10
281.6841430213508
 20
20.37712097167969
 11
385.6841431114617
 21
20.37712097167967
  0
INSERT
  5
233
100
AcDbEntity
  8
0
  6
CONTINUOUS
 62
     7
100
AcDbBlockReference
  2
_OPEN30
 10
278.6841430664063
 20
20.37712097167969
 41
1
 42
1
 43
1
 50
180.0000000000004
  0
INSERT
  5
234
100
AcDbEntity
  8
0
  6
CONTINUOUS
 62
     7
100
AcDbBlockReference
  2
_OPEN30
 10
388.6841430664063
 20
20.37712097167969
 41
1
 42
1
 43
1
  0
LINE
  5
235
100
AcDbEntity
  8
0
  6
CONTINUOUS
 62
     7
100
AcDbLine
 10
278.6841430664063
 20
79.51605987548828
 11
278.6841430664063
 21
17.52012062072754
  0
LINE
  5
236
100
AcDbEntity
  8
0
  6
CONTINUOUS
 62
     7
100
AcDbLine
 10
388.6841430664063
 20
79.51605987548828
 11
388.6841430664063
 21
17.52012062072754
  0
MTEXT
  5
237
100
AcDbEntity
  8
0
  6
CONTINUOUS
 62
     7
100
AcDbMText
 10
333.6841430664063
 20
20.37712097167969
 40
5
 41
60
 71
     8
 72
     1
  1
{\W0.855331;１１０}
  0
POINT
  5
238
100
AcDbEntity
  8
DEFPOINTS
  6
CONTINUOUS
 62
     7
100
AcDbPoint
 10
278.6841430664063
 20
79.51605987548828
  0
POINT
  5
239
100
AcDbEntity
  8
DEFPOINTS
  6
CONTINUOUS
 62
     7
100
AcDbPoint
 10
388.6841430664063
 20
79.51605987548828
  0
POINT
  5
23a
100
AcDbEntity
  8
DEFPOINTS
  6
CONTINUOUS
 62
     7
100
AcDbPoint
 10
388.6841430664063
 20
20.37712097167969
  0
ENDBLK
  8
0
  5
23b
100
AcDbEntity
100
AcDbBlockEnd
  0
BLOCK
  8
0
  5
23c
100
AcDbEntity
100
AcDbBlockBegin
  2
*D27
 70
    65
 10
0
 20
0
  0
LINE
  5
23d
100
AcDbEntity
  8
0
  6
CONTINUOUS
 62
     7
100
AcDbLine
 10
406.6393432617188
 20
88.5160598304328
 11
406.6393432617188
 21
132.5160522911492
  0
INSERT
  5
23e
100
AcDbEntity
  8
0
  6
CONTINUOUS
 62
     7
100
AcDbBlockReference
  2
_OPEN30
 10
406.6393432617188
 20
85.51605987548828
 41
1
 42
1
 43
1
 50
270.0000000000005
  0
INSERT
  5
23f
100
AcDbEntity
  8
0
  6
CONTINUOUS
 62
     7
100
AcDbBlockReference
  2
_OPEN30
 10
406.6393432617188
 20
135.5160522460938
 41
1
 42
1
 43
1
 50
90.00000000000019
  0
LINE
  5
240
100
AcDbEntity
  8
0
  6
CONTINUOUS
 62
     7
100
AcDbLine
 10
383.1841430664063
 20
85.51605987548828
 11
409.496337890625
 21
85.51605987548828
  0
LINE
  5
241
100
AcDbEntity
  8
0
  6
CONTINUOUS
 62
     7
100
AcDbLine
 10
383.1841430664063
 20
135.5160522460938
 11
409.496337890625
 21
135.5160522460938
  0
MTEXT
  5
242
100
AcDbEntity
  8
0
  6
CONTINUOUS
 62
     7
100
AcDbMText
 10
406.6393432617188
 20
110.5160522460938
 40
5
 41
40
 71
     8
 72
     1
  1
{\W0.864328;５０}
 11
0
 21
1
  0
POINT
  5
243
100
AcDbEntity
  8
DEFPOINTS
  6
CONTINUOUS
 62
     7
100
AcDbPoint
 10
383.1841430664063
 20
85.51605987548828
  0
POINT
  5
244
100
AcDbEntity
  8
DEFPOINTS
  6
CONTINUOUS
 62
     7
100
AcDbPoint
 10
383.1841430664063
 20
135.5160522460938
  0
POINT
  5
245
100
AcDbEntity
  8
DEFPOINTS
  6
CONTINUOUS
 62
     7
100
AcDbPoint
 10
406.6393432617188
 20
135.5160522460938
  0
ENDBLK
  8
0
  5
246
100
AcDbEntity
100
AcDbBlockEnd
  0
BLOCK
  8
0
  5
247
100
AcDbEntity
100
AcDbBlockBegin
  2
*D28
 70
    65
 10
0
 20
0
  0
LINE
  5
248
100
AcDbEntity
  8
0
  6
CONTINUOUS
 62
     7
100
AcDbLine
 10
417.9959411621094
 20
80.5160598304328
 11
417.9959411621094
 21
140.5160522911492
  0
INSERT
  5
249
100
AcDbEntity
  8
0
  6
CONTINUOUS
 62
     7
100
AcDbBlockReference
  2
_OPEN30
 10
417.9959411621094
 20
77.51605987548828
 41
1
 42
1
 43
1
 50
270.0000000000005
  0
INSERT
  5
24a
100
AcDbEntity
  8
0
  6
CONTINUOUS
 62
     7
100
AcDbBlockReference
  2
_OPEN30
 10
417.9959411621094
 20
143.5160522460938
 41
1
 42
1
 43
1
 50
90.00000000000019
  0
LINE
  5
24b
100
AcDbEntity
  8
0
  6
CONTINUOUS
 62
     7
100
AcDbLine
 10
386.6841430664063
 20
77.51605987548828
 11
420.8529357910156
 21
77.51605987548828
  0
LINE
  5
24c
100
AcDbEntity
  8
0
  6
CONTINUOUS
 62
     7
100
AcDbLine
 10
386.6841430664063
 20
143.5160522460938
 11
420.8529357910156
 21
143.5160522460938
  0
MTEXT
  5
24d
100
AcDbEntity
  8
0
  6
CONTINUOUS
 62
     7
100
AcDbMText
 10
417.9959411621094
 20
110.5160522460938
 40
5
 41
40
 71
     8
 72
     1
  1
{\W0.864328;６６}
 11
0
 21
1
  0
POINT
  5
24e
100
AcDbEntity
  8
DEFPOINTS
  6
CONTINUOUS
 62
     7
100
AcDbPoint
 10
386.6841430664063
 20
77.51605987548828
  0
POINT
  5
24f
100
AcDbEntity
  8
DEFPOINTS
  6
CONTINUOUS
 62
     7
100
AcDbPoint
 10
386.6841430664063
 20
143.5160522460938
  0
POINT
  5
250
100
AcDbEntity
  8
DEFPOINTS
  6
CONTINUOUS
 62
     7
100
AcDbPoint
 10
417.9959411621094
 20
143.5160522460938
  0
ENDBLK
  8
0
  5
251
100
AcDbEntity
100
AcDbBlockEnd
  0
BLOCK
  8
0
  5
252
100
AcDbEntity
100
AcDbBlockBegin
  2
*D29
 70
    65
 10
0
 20
0
  0
LINE
  5
253
100
AcDbEntity
  8
0
  6
CONTINUOUS
 62
     7
100
AcDbLine
 10
-48.99545288085938
 20
57.10265350341797
 11
-67.7666353898357
 21
57.10265350341797
  0
LINE
  5
254
100
AcDbEntity
  8
0
  6
CONTINUOUS
 62
     7
100
AcDbLine
 10
-48.99545288085938
 20
57.10265350341797
 11
-45.79545593261719
 21
57.10265350341797
  0
INSERT
  5
255
100
AcDbEntity
  8
0
  6
CONTINUOUS
 62
     7
100
AcDbBlockReference
  2
_OPEN
 10
-48.99545288085938
 20
57.10265350341797
 41
1
 42
1
 43
1
 50
3.562221243239139e-013
  0
LINE
  5
256
100
AcDbEntity
  8
0
  6
CONTINUOUS
 62
     7
100
AcDbLine
 10
-51.9954528358039
 20
57.10265350341795
 11
-55.34545278549194
 21
57.10265350341793
  0
INSERT
  5
257
100
AcDbEntity
  8
0
  6
CONTINUOUS
 62
     7
100
AcDbBlockReference
  2
_OPEN
 10
-45.79545593261719
 20
57.10265350341797
 41
1
 42
1
 43
1
 50
180
  0
LINE
  5
258
100
AcDbEntity
  8
0
  6
CONTINUOUS
 62
     7
100
AcDbLine
 10
-42.79545597767267
 20
57.10265350341797
 11
-39.44545602798462
 21
57.10265350341797
  0
LINE
  5
259
100
AcDbEntity
  8
0
  6
CONTINUOUS
 62
     7
100
AcDbLine
 10
-48.99545288085938
 20
77.51606750488281
 11
-48.99545288085938
 21
54.81665350341797
  0
LINE
  5
25a
100
AcDbEntity
  8
0
  6
CONTINUOUS
 62
     7
100
AcDbLine
 10
-45.79545593261719
 20
77.51606750488281
 11
-45.79545593261719
 21
54.81665350341797
  0
MTEXT
  5
25b
100
AcDbEntity
  8
0
  6
CONTINUOUS
 62
     7
100
AcDbMText
 10
-60.98101005128132
 20
57.10265350341797
 40
5
 41
60
 71
     8
 72
     1
  1
{\W0.855331;３．２}
  0
POINT
  5
25c
100
AcDbEntity
  8
DEFPOINTS
  6
CONTINUOUS
 62
     7
100
AcDbPoint
 10
-48.99545288085938
 20
77.51606750488281
  0
POINT
  5
25d
100
AcDbEntity
  8
DEFPOINTS
  6
CONTINUOUS
 62
     7
100
AcDbPoint
 10
-45.79545593261719
 20
77.51606750488281
  0
POINT
  5
25e
100
AcDbEntity
  8
DEFPOINTS
  6
CONTINUOUS
 62
     7
100
AcDbPoint
 10
-45.79545593261719
 20
57.10265350341797
  0
ENDBLK
  8
0
  5
25f
100
AcDbEntity
100
AcDbBlockEnd
  0
BLOCK
  8
0
  5
260
100
AcDbEntity
100
AcDbBlockBegin
  2
*D30
 70
    65
 10
0
 20
0
  0
LINE
  5
261
100
AcDbEntity
  8
0
  6
CONTINUOUS
 62
     7
100
AcDbLine
 10
-45.99545292591485
 20
44.80033111572266
 11
-39.9954528358039
 21
44.80033111572264
  0
INSERT
  5
262
100
AcDbEntity
  8
0
  6
CONTINUOUS
 62
     7
100
AcDbBlockReference
  2
_OPEN
 10
-48.99545288085938
 20
44.80033111572266
 41
1
 42
1
 43
1
 50
180.0000000000004
  0
INSERT
  5
263
100
AcDbEntity
  8
0
  6
CONTINUOUS
 62
     7
100
AcDbBlockReference
  2
_OPEN
 10
-36.99545288085938
 20
44.80033111572266
 41
1
 42
1
 43
1
  0
LINE
  5
264
100
AcDbEntity
  8
0
  6
CONTINUOUS
 62
     7
100
AcDbLine
 10
-48.99545288085938
 20
77.51606750488281
 11
-48.99545288085938
 21
42.51433111572266
  0
LINE
  5
265
100
AcDbEntity
  8
0
  6
CONTINUOUS
 62
     7
100
AcDbLine
 10
-36.99545288085938
 20
77.51606750488281
 11
-36.99545288085938
 21
42.51433111572266
  0
MTEXT
  5
266
100
AcDbEntity
  8
0
  6
CONTINUOUS
 62
     7
100
AcDbMText
 10
-42.99545288085938
 20
44.80033111572266
 40
5
 41
40
 71
     8
 72
     1
  1
{\W0.864328;１２}
  0
POINT
  5
267
100
AcDbEntity
  8
DEFPOINTS
  6
CONTINUOUS
 62
     7
100
AcDbPoint
 10
-48.99545288085938
 20
77.51606750488281
  0
POINT
  5
268
100
AcDbEntity
  8
DEFPOINTS
  6
CONTINUOUS
 62
     7
100
AcDbPoint
 10
-36.99545288085938
 20
77.51606750488281
  0
POINT
  5
269
100
AcDbEntity
  8
DEFPOINTS
  6
CONTINUOUS
 62
     7
100
AcDbPoint
 10
-36.99545288085938
 20
44.80033111572266
  0
ENDBLK
  8
0
  5
26a
100
AcDbEntity
100
AcDbBlockEnd
  0
BLOCK
  8
0
  5
26b
100
AcDbEntity
100
AcDbBlockBegin
  2
*D31
 70
    65
 10
0
 20
0
  0
LINE
  5
26c
100
AcDbEntity
  8
0
  6
CONTINUOUS
 62
     7
100
AcDbLine
 10
208.0045624229852
 20
32.0176315307617
 11
-45.99545292591485
 21
32.01763153076172
  0
INSERT
  5
26d
100
AcDbEntity
  8
0
  6
CONTINUOUS
 62
     7
100
AcDbBlockReference
  2
_OPEN
 10
211.0045623779297
 20
32.01763153076172
 41
1
 42
1
 43
1
  0
INSERT
  5
26e
100
AcDbEntity
  8
0
  6
CONTINUOUS
 62
     7
100
AcDbBlockReference
  2
_OPEN
 10
-48.99545288085938
 20
32.01763153076172
 41
1
 42
1
 43
1
 50
180.0000000000004
  0
LINE
  5
26f
100
AcDbEntity
  8
0
  6
CONTINUOUS
 62
     7
100
AcDbLine
 10
211.0045623779297
 20
103.0160598754883
 11
211.0045623779297
 21
29.73163153076172
  0
LINE
  5
270
100
AcDbEntity
  8
0
  6
CONTINUOUS
 62
     7
100
AcDbLine
 10
-48.99545288085938
 20
77.51606750488281
 11
-48.99545288085938
 21
29.73163153076172
  0
MTEXT
  5
271
100
AcDbEntity
  8
0
  6
CONTINUOUS
 62
     7
100
AcDbMText
 10
81.00455474853516
 20
32.01763153076172
 40
5
 41
180
 71
     8
 72
     1
  1
{\W0.84495;１６０＋ストロ－ク}
  0
POINT
  5
272
100
AcDbEntity
  8
DEFPOINTS
  6
CONTINUOUS
 62
     7
100
AcDbPoint
 10
211.0045623779297
 20
103.0160598754883
  0
POINT
  5
273
100
AcDbEntity
  8
DEFPOINTS
  6
CONTINUOUS
 62
     7
100
AcDbPoint
 10
-48.99545288085938
 20
77.51606750488281
  0
POINT
  5
274
100
AcDbEntity
  8
DEFPOINTS
  6
CONTINUOUS
 62
     7
100
AcDbPoint
 10
-48.99545288085938
 20
32.01763153076172
  0
ENDBLK
  8
0
  5
275
100
AcDbEntity
100
AcDbBlockEnd
  0
BLOCK
  8
0
  5
276
100
AcDbEntity
100
AcDbBlockBegin
  2
*D32
 70
    65
 10
0
 20
0
  0
LINE
  5
277
100
AcDbEntity
  8
0
  6
CONTINUOUS
 62
     7
100
AcDbLine
 10
30.41085819448383
 20
-181.8020499448101
 11
34.58833955010699
 21
-177.8841207277335
  0
INSERT
  5
278
100
AcDbEntity
  8
0
  6
CONTINUOUS
 62
     7
100
AcDbBlockReference
  2
_OPEN
 10
28.22264926929398
 20
-183.85430271418
 41
1
 42
1
 43
1
 50
223.1636324082141
  0
LINE
  5
279
100
AcDbEntity
  8
0
  6
CONTINUOUS
 62
     7
100
AcDbLine
 10
34.58833955010699
 20
-177.8841207277336
 11
62.87396512707996
 21
-177.8841207277336
  0
MTEXT
  5
27a
100
AcDbEntity
  8
0
  6
CONTINUOUS
 62
     7
100
AcDbMText
 10
51.088339550107
 20
-177.8841207277336
 40
5
 41
100
 71
     8
 72
     1
  1
{\W0.848905;Ｒ１６．５}
  0
POINT
  5
27b
100
AcDbEntity
  8
DEFPOINTS
  6
CONTINUOUS
 62
     7
100
AcDbPoint
 10
28.22264926929398
 20
-183.85430271418
  0
POINT
  5
27c
100
AcDbEntity
  8
DEFPOINTS
  6
CONTINUOUS
 62
     7
100
AcDbPoint
 10
34.58833955010699
 20
-177.8841207277335
  0
ENDBLK
  8
0
  5
27d
100
AcDbEntity
100
AcDbBlockEnd
  0
BLOCK
  8
0
  5
27e
100
AcDbEntity
100
AcDbBlockBegin
  2
*D33
 70
    65
 10
0
 20
0
  0
LINE
  5
27f
100
AcDbEntity
  8
0
  6
CONTINUOUS
 62
     7
100
AcDbLine
 10
-7.812500045055479
 20
-302.0883625145312
 11
13.18750004505548
 21
-302.0883625145312
  0
INSERT
  5
280
100
AcDbEntity
  8
0
  6
CONTINUOUS
 62
     7
100
AcDbBlockReference
  2
_OPEN
 10
-10.8125
 20
-302.0883625145312
 41
1
 42
1
 43
1
 50
180.0000000000004
  0
INSERT
  5
281
100
AcDbEntity
  8
0
  6
CONTINUOUS
 62
     7
100
AcDbBlockReference
  2
_OPEN
 10
16.1875
 20
-302.0883625145312
 41
1
 42
1
 43
1
  0
LINE
  5
282
100
AcDbEntity
  8
0
  6
CONTINUOUS
 62
     7
100
AcDbLine
 10
-10.8125
 20
-288.5099487304688
 11
-10.8125
 21
-304.3743625145312
  0
LINE
  5
283
100
AcDbEntity
  8
0
  6
CONTINUOUS
 62
     7
100
AcDbLine
 10
16.1875
 20
-282.5099639892578
 11
16.1875
 21
-304.3743625145312
  0
MTEXT
  5
284
100
AcDbEntity
  8
0
  6
CONTINUOUS
 62
     7
100
AcDbMText
 10
2.6875
 20
-302.0883625145312
 40
5
 41
40
 71
     8
 72
     1
  1
{\W0.864328;２７}
  0
POINT
  5
285
100
AcDbEntity
  8
DEFPOINTS
  6
CONTINUOUS
 62
     7
100
AcDbPoint
 10
-10.8125
 20
-288.5099487304688
  0
POINT
  5
286
100
AcDbEntity
  8
DEFPOINTS
  6
CONTINUOUS
 62
     7
100
AcDbPoint
 10
16.1875
 20
-282.5099639892578
  0
POINT
  5
287
100
AcDbEntity
  8
DEFPOINTS
  6
CONTINUOUS
 62
     7
100
AcDbPoint
 10
16.1875
 20
-302.0883625145312
  0
ENDBLK
  8
0
  5
288
100
AcDbEntity
100
AcDbBlockEnd
  0
BLOCK
  8
0
  5
289
100
AcDbEntity
100
AcDbBlockBegin
  2
*D34
 70
    65
 10
0
 20
0
  0
LINE
  5
28a
100
AcDbEntity
  8
0
  6
CONTINUOUS
 62
     7
100
AcDbLine
 10
-40.81250004505548
 20
-312.3966352984009
 11
13.18750004505548
 21
-312.3966352984009
  0
INSERT
  5
28b
100
AcDbEntity
  8
0
  6
CONTINUOUS
 62
     7
100
AcDbBlockReference
  2
_OPEN
 10
-43.8125
 20
-312.3966352984009
 41
1
 42
1
 43
1
 50
180.0000000000004
  0
INSERT
  5
28c
100
AcDbEntity
  8
0
  6
CONTINUOUS
 62
     7
100
AcDbBlockReference
  2
_OPEN
 10
16.1875
 20
-312.3966352984009
 41
1
 42
1
 43
1
  0
LINE
  5
28d
100
AcDbEntity
  8
0
  6
CONTINUOUS
 62
     7
100
AcDbLine
 10
-43.8125
 20
-285.7681166531398
 11
-43.8125
 21
-314.6826352984009
  0
LINE
  5
28e
100
AcDbEntity
  8
0
  6
CONTINUOUS
 62
     7
100
AcDbLine
 10
16.1875
 20
-282.5099639892578
 11
16.1875
 21
-314.6826352984009
  0
MTEXT
  5
28f
100
AcDbEntity
  8
0
  6
CONTINUOUS
 62
     7
100
AcDbMText
 10
-13.8125
 20
-312.3966352984009
 40
5
 41
40
 71
     8
 72
     1
  1
{\W0.864328;６０}
  0
POINT
  5
290
100
AcDbEntity
  8
DEFPOINTS
  6
CONTINUOUS
 62
     7
100
AcDbPoint
 10
-43.8125
 20
-285.7681166531398
  0
POINT
  5
291
100
AcDbEntity
  8
DEFPOINTS
  6
CONTINUOUS
 62
     7
100
AcDbPoint
 10
16.1875
 20
-282.5099639892578
  0
POINT
  5
292
100
AcDbEntity
  8
DEFPOINTS
  6
CONTINUOUS
 62
     7
100
AcDbPoint
 10
16.1875
 20
-312.3966352984009
  0
ENDBLK
  8
0
  5
293
100
AcDbEntity
100
AcDbBlockEnd
  0
BLOCK
  8
0
  5
294
100
AcDbEntity
100
AcDbBlockBegin
  2
*D35
 70
    65
 10
0
 20
0
  0
LINE
  5
295
100
AcDbEntity
  8
0
  6
CONTINUOUS
 62
     7
100
AcDbLine
 10
19.18749995494452
 20
-312.3966352984009
 11
28.18750004505548
 21
-312.3966352984009
  0
INSERT
  5
296
100
AcDbEntity
  8
0
  6
CONTINUOUS
 62
     7
100
AcDbBlockReference
  2
_OPEN
 10
16.1875
 20
-312.3966352984009
 41
1
 42
1
 43
1
 50
180.0000000000004
  0
INSERT
  5
297
100
AcDbEntity
  8
0
  6
CONTINUOUS
 62
     7
100
AcDbBlockReference
  2
_OPEN
 10
31.1875
 20
-312.3966352984009
 41
1
 42
1
 43
1
  0
LINE
  5
298
100
AcDbEntity
  8
0
  6
CONTINUOUS
 62
     7
100
AcDbLine
 10
31.1875
 20
-280.0098226813612
 11
31.1875
 21
-314.6826352984009
  0
MTEXT
  5
299
100
AcDbEntity
  8
0
  6
CONTINUOUS
 62
     7
100
AcDbMText
 10
23.6875
 20
-312.3966352984009
 40
5
 41
40
 71
     8
 72
     1
  1
{\W0.864328;１５}
  0
POINT
  5
29a
100
AcDbEntity
  8
DEFPOINTS
  6
CONTINUOUS
 62
     7
100
AcDbPoint
 10
16.1875
 20
-282.5099639892578
  0
POINT
  5
29b
100
AcDbEntity
  8
DEFPOINTS
  6
CONTINUOUS
 62
     7
100
AcDbPoint
 10
31.1875
 20
-280.0098226813612
  0
POINT
  5
29c
100
AcDbEntity
  8
DEFPOINTS
  6
CONTINUOUS
 62
     7
100
AcDbPoint
 10
31.1875
 20
-312.3966352984009
  0
ENDBLK
  8
0
  5
29d
100
AcDbEntity
100
AcDbBlockEnd
  0
BLOCK
  8
0
  5
29e
100
AcDbEntity
100
AcDbBlockBegin
  2
*D36
 70
    65
 10
0
 20
0
  0
LINE
  5
29f
100
AcDbEntity
  8
0
  6
CONTINUOUS
 62
     7
100
AcDbLine
 10
-51.81250004505548
 20
-312.3966352984009
 11
-46.81249995494452
 21
-312.3966352984009
  0
INSERT
  5
2a0
100
AcDbEntity
  8
0
  6
CONTINUOUS
 62
     7
100
AcDbBlockReference
  2
_OPEN
 10
-54.8125
 20
-312.3966352984009
 41
1
 42
1
 43
1
 50
180.0000000000004
  0
INSERT
  5
2a1
100
AcDbEntity
  8
0
  6
CONTINUOUS
 62
     7
100
AcDbBlockReference
  2
_OPEN
 10
-43.8125
 20
-312.3966352984009
 41
1
 42
1
 43
1
  0
LINE
  5
2a2
100
AcDbEntity
  8
0
  6
CONTINUOUS
 62
     7
100
AcDbLine
 10
-54.8125
 20
-285.7682121848987
 11
-54.8125
 21
-314.6826352984009
  0
MTEXT
  5
2a3
100
AcDbEntity
  8
0
  6
CONTINUOUS
 62
     7
100
AcDbMText
 10
-49.3125
 20
-312.3966352984009
 40
5
 41
40
 71
     8
 72
     1
  1
{\W0.864328;１１}
  0
POINT
  5
2a4
100
AcDbEntity
  8
DEFPOINTS
  6
CONTINUOUS
 62
     7
100
AcDbPoint
 10
-54.8125
 20
-285.7682121848987
  0
POINT
  5
2a5
100
AcDbEntity
  8
DEFPOINTS
  6
CONTINUOUS
 62
     7
100
AcDbPoint
 10
-43.8125
 20
-285.7681166531398
  0
POINT
  5
2a6
100
AcDbEntity
  8
DEFPOINTS
  6
CONTINUOUS
 62
     7
100
AcDbPoint
 10
-43.8125
 20
-312.3966352984009
  0
ENDBLK
  8
0
  5
2a7
100
AcDbEntity
100
AcDbBlockEnd
  0
BLOCK
  8
0
  5
2a8
100
AcDbEntity
100
AcDbBlockBegin
  2
*D37
 70
    65
 10
0
 20
0
  0
LINE
  5
2a9
100
AcDbEntity
  8
0
  6
CONTINUOUS
 62
     7
100
AcDbLine
 10
-28.87676450027669
 20
-181.1416931152344
 11
-28.87676450027669
 21
-164.9334049093902
  0
LINE
  5
2aa
100
AcDbEntity
  8
0
  6
CONTINUOUS
 62
     7
100
AcDbLine
 10
-28.8767645002767
 20
-206.1416931602899
 11
-28.87676450027667
 21
-184.1416930701789
  0
INSERT
  5
2ab
100
AcDbEntity
  8
0
  6
CONTINUOUS
 62
     7
100
AcDbBlockReference
  2
_OPEN
 10
-28.87676450027669
 20
-209.1416931152344
 41
1
 42
1
 43
1
 50
270.0000000000005
  0
INSERT
  5
2ac
100
AcDbEntity
  8
0
  6
CONTINUOUS
 62
     7
100
AcDbBlockReference
  2
_OPEN
 10
-28.87676450027669
 20
-181.1416931152344
 41
1
 42
1
 43
1
 50
90.00000000000019
  0
LINE
  5
2ad
100
AcDbEntity
  8
0
  6
CONTINUOUS
 62
     7
100
AcDbLine
 10
-42.8125
 20
-209.1416931152344
 11
-26.59076450027669
 21
-209.1416931152344
  0
LINE
  5
2ae
100
AcDbEntity
  8
0
  6
CONTINUOUS
 62
     7
100
AcDbLine
 10
-42.8125
 20
-181.1416931152344
 11
-26.59076450027669
 21
-181.1416931152344
  0
MTEXT
  5
2af
100
AcDbEntity
  8
0
  6
CONTINUOUS
 62
     7
100
AcDbMText
 10
-28.87676450027669
 20
-171.7190302479446
 40
5
 41
110
 71
     8
 72
     1
  1
{\W0.855331;\U+2205２８}
 11
0
 21
1
  0
POINT
  5
2b0
100
AcDbEntity
  8
DEFPOINTS
  6
CONTINUOUS
 62
     7
100
AcDbPoint
 10
-42.8125
 20
-209.1416931152344
  0
POINT
  5
2b1
100
AcDbEntity
  8
DEFPOINTS
  6
CONTINUOUS
 62
     7
100
AcDbPoint
 10
-42.8125
 20
-181.1416931152344
  0
POINT
  5
2b2
100
AcDbEntity
  8
DEFPOINTS
  6
CONTINUOUS
 62
     7
100
AcDbPoint
 10
-28.87676450027669
 20
-181.1416931152344
  0
ENDBLK
  8
0
  5
2b3
100
AcDbEntity
100
AcDbBlockEnd
  0
BLOCK
  8
0
  5
2b4
100
AcDbEntity
100
AcDbBlockBegin
  2
*D38
 70
    65
 10
0
 20
0
  0
LINE
  5
2b5
100
AcDbEntity
  8
0
  6
CONTINUOUS
 62
     7
100
AcDbLine
 10
206.298070570077
 20
-181.1416931152344
 11
206.298070570077
 21
-163.4183191190223
  0
LINE
  5
2b6
100
AcDbEntity
  8
0
  6
CONTINUOUS
 62
     7
100
AcDbLine
 10
206.298070570077
 20
-206.1416931602899
 11
206.298070570077
 21
-184.1416930701789
  0
INSERT
  5
2b7
100
AcDbEntity
  8
0
  6
CONTINUOUS
 62
     7
100
AcDbBlockReference
  2
_OPEN
 10
206.298070570077
 20
-209.1416931152344
 41
1
 42
1
 43
1
 50
270.0000000000005
  0
INSERT
  5
2b8
100
AcDbEntity
  8
0
  6
CONTINUOUS
 62
     7
100
AcDbBlockReference
  2
_OPEN
 10
206.298070570077
 20
-181.1416931152344
 41
1
 42
1
 43
1
 50
90.00000000000019
  0
LINE
  5
2b9
100
AcDbEntity
  8
0
  6
CONTINUOUS
 62
     7
100
AcDbLine
 10
196.9986877441406
 20
-209.1416931152344
 11
208.584070570077
 21
-209.1416931152344
  0
LINE
  5
2ba
100
AcDbEntity
  8
0
  6
CONTINUOUS
 62
     7
100
AcDbLine
 10
196.9986877441406
 20
-181.1416931152344
 11
208.584070570077
 21
-181.1416931152344
  0
MTEXT
  5
2bb
100
AcDbEntity
  8
0
  6
CONTINUOUS
 62
     7
100
AcDbMText
 10
206.298070570077
 20
-170.2039444575767
 40
5
 41
110
 71
     8
 72
     1
  1
{\W0.855331;\U+2205２８}
 11
0
 21
1
  0
POINT
  5
2bc
100
AcDbEntity
  8
DEFPOINTS
  6
CONTINUOUS
 62
     7
100
AcDbPoint
 10
196.9986877441406
 20
-209.1416931152344
  0
POINT
  5
2bd
100
AcDbEntity
  8
DEFPOINTS
  6
CONTINUOUS
 62
     7
100
AcDbPoint
 10
196.9986877441406
 20
-181.1416931152344
  0
POINT
  5
2be
100
AcDbEntity
  8
DEFPOINTS
  6
CONTINUOUS
 62
     7
100
AcDbPoint
 10
206.298070570077
 20
-181.1416931152344
  0
ENDBLK
  8
0
  5
2bf
100
AcDbEntity
100
AcDbBlockEnd
  0
BLOCK
  8
0
  5
2c0
100
AcDbEntity
100
AcDbBlockBegin
  2
*D39
 70
    65
 10
0
 20
0
  0
LINE
  5
2c1
100
AcDbEntity
  8
0
  6
CONTINUOUS
 62
     7
100
AcDbLine
 10
305.7712424874213
 20
-300.5099487755242
 11
305.7712424874213
 21
-268.5099639442024
  0
INSERT
  5
2c2
100
AcDbEntity
  8
0
  6
CONTINUOUS
 62
     7
100
AcDbBlockReference
  2
_OPEN
 10
305.7712424874213
 20
-303.5099487304688
 41
1
 42
1
 43
1
 50
270.0000000000005
  0
INSERT
  5
2c3
100
AcDbEntity
  8
0
  6
CONTINUOUS
 62
     7
100
AcDbBlockReference
  2
_OPEN
 10
305.7712424874213
 20
-265.5099639892578
 41
1
 42
1
 43
1
 50
90.00000000000019
  0
LINE
  5
2c4
100
AcDbEntity
  8
0
  6
CONTINUOUS
 62
     7
100
AcDbLine
 10
268.9986572265625
 20
-303.5099487304688
 11
308.0572424874213
 21
-303.5099487304688
  0
LINE
  5
2c5
100
AcDbEntity
  8
0
  6
CONTINUOUS
 62
     7
100
AcDbLine
 10
268.9986877441406
 20
-265.5099639892578
 11
308.0572424874213
 21
-265.5099639892578
  0
MTEXT
  5
2c6
100
AcDbEntity
  8
0
  6
CONTINUOUS
 62
     7
100
AcDbMText
 10
305.7712424874213
 20
-284.5099563598633
 40
5
 41
40
 71
     8
 72
     1
  1
{\W0.864328;３８}
 11
0
 21
1
  0
POINT
  5
2c7
100
AcDbEntity
  8
DEFPOINTS
  6
CONTINUOUS
 62
     7
100
AcDbPoint
 10
268.9986572265625
 20
-303.5099487304688
  0
POINT
  5
2c8
100
AcDbEntity
  8
DEFPOINTS
  6
CONTINUOUS
 62
     7
100
AcDbPoint
 10
268.9986877441406
 20
-265.5099639892578
  0
POINT
  5
2c9
100
AcDbEntity
  8
DEFPOINTS
  6
CONTINUOUS
 62
     7
100
AcDbPoint
 10
305.7712424874213
 20
-265.5099639892578
  0
ENDBLK
  8
0
  5
2ca
100
AcDbEntity
100
AcDbBlockEnd
  0
BLOCK
  8
0
  5
2cb
100
AcDbEntity
100
AcDbBlockBegin
  2
*D40
 70
    65
 10
0
 20
0
  0
LINE
  5
2cc
100
AcDbEntity
  8
0
  6
CONTINUOUS
 62
     7
100
AcDbLine
 10
316.6651345190389
 20
-310.0099487755242
 11
316.6651345190389
 21
-259.0099639442024
  0
INSERT
  5
2cd
100
AcDbEntity
  8
0
  6
CONTINUOUS
 62
     7
100
AcDbBlockReference
  2
_OPEN
 10
316.6651345190389
 20
-313.0099487304688
 41
1
 42
1
 43
1
 50
270.0000000000005
  0
INSERT
  5
2ce
100
AcDbEntity
  8
0
  6
CONTINUOUS
 62
     7
100
AcDbBlockReference
  2
_OPEN
 10
316.6651345190389
 20
-256.0099639892578
 41
1
 42
1
 43
1
 50
90.00000000000019
  0
LINE
  5
2cf
100
AcDbEntity
  8
0
  6
CONTINUOUS
 62
     7
100
AcDbLine
 10
260.9986877441406
 20
-313.0099487304688
 11
318.9511345190389
 21
-313.0099487304688
  0
LINE
  5
2d0
100
AcDbEntity
  8
0
  6
CONTINUOUS
 62
     7
100
AcDbLine
 10
260.9986877441406
 20
-256.0099639892578
 11
318.9511345190389
 21
-256.0099639892578
  0
MTEXT
  5
2d1
100
AcDbEntity
  8
0
  6
CONTINUOUS
 62
     7
100
AcDbMText
 10
316.6651345190389
 20
-284.5099563598633
 40
5
 41
40
 71
     8
 72
     1
  1
{\W0.864328;５７}
 11
0
 21
1
  0
POINT
  5
2d2
100
AcDbEntity
  8
DEFPOINTS
  6
CONTINUOUS
 62
     7
100
AcDbPoint
 10
260.9986877441406
 20
-313.0099487304688
  0
POINT
  5
2d3
100
AcDbEntity
  8
DEFPOINTS
  6
CONTINUOUS
 62
     7
100
AcDbPoint
 10
260.9986877441406
 20
-256.0099639892578
  0
POINT
  5
2d4
100
AcDbEntity
  8
DEFPOINTS
  6
CONTINUOUS
 62
     7
100
AcDbPoint
 10
316.6651345190389
 20
-256.0099639892578
  0
ENDBLK
  8
0
  5
2d5
100
AcDbEntity
100
AcDbBlockEnd
  0
BLOCK
  8
0
  5
2d6
100
AcDbEntity
100
AcDbBlockBegin
  2
KOZU0001
 70
    64
 10
0
 20
0
  0
POINT
  5
2d7
100
AcDbEntity
  8
0
  6
CONTINUOUS
 62
     7
100
AcDbPoint
 10
0
 20
0
  0
LINE
  5
2d8
100
AcDbEntity
  8
0
  6
CONTINUOUS
 62
     7
100
AcDbLine
 10
-28
 20
33.25
 11
-28
 21
-32.5
  0
LINE
  5
2d9
100
AcDbEntity
  8
0
  6
CONTINUOUS
 62
     7
100
AcDbLine
 10
-0.5
 20
32.99999237060547
 11
-27.49999237060547
 21
32.99999237060547
  0
LINE
  5
2da
100
AcDbEntity
  8
0
  6
DASHED
 62
     7
100
AcDbLine
 10
-25.10000610351563
 20
33.25
 11
-25.10000610351563
 21
32.25
  0
LINE
  5
2db
100
AcDbEntity
  8
0
  6
DASHED
 62
     7
100
AcDbLine
 10
-2.899993896484375
 20
32.25
 11
-25.09999847412109
 21
32.25
  0
LINE
  5
2dc
100
AcDbEntity
  8
0
  6
DASHED
 62
     7
100
AcDbLine
 10
-22.12633892482693
 20
20.25000822962543
 11
-22.54160376235668
 21
32.14163785279693
  0
LINE
  5
2dd
100
AcDbEntity
  8
0
  6
DASHED
 62
     7
100
AcDbLine
 10
-21.45001983388338
 20
31.04996666570969
 11
-22.65001681249064
 21
32.24996364431695
  0
LINE
  5
2de
100
AcDbEntity
  8
0
  6
DASHED
 62
     7
100
AcDbLine
 10
-21.45001022067368
 20
31.05001278980336
 11
-21.07875789492209
 21
20.25000298445271
  0
LINE
  5
2df
100
AcDbEntity
  8
0
  6
DASHED
 62
     7
100
AcDbLine
 10
-6.54998779296875
 20
31.05001831054688
 11
-21.44998168945313
 21
31.05001831054688
  0
LINE
  5
2e0
100
AcDbEntity
  8
0
  6
CENTER
 62
     3
100
AcDbLine
 10
-14
 20
34.67787933349609
 11
-14
 21
19.99999237060547
  0
LINE
  5
2e1
100
AcDbEntity
  8
0
  6
DASHED
 62
     7
100
AcDbLine
 10
-6.549988453461525
 20
31.05002027650099
 11
-5.349991474854264
 21
32.25001725510825
  0
LINE
  5
2e2
100
AcDbEntity
  8
0
  6
DASHED
 62
     7
100
AcDbLine
 10
-2.899993896484375
 20
33.25
 11
-2.899993896484375
 21
32.25
  0
LINE
  5
2e3
100
AcDbEntity
  8
0
  6
DASHED
 62
     7
100
AcDbLine
 10
-5.873584606419172
 20
20.25000903511149
 11
-5.458319702323916
 21
32.14164056446973
  0
LINE
  5
2e4
100
AcDbEntity
  8
0
  6
DASHED
 62
     7
100
AcDbLine
 10
-6.921243701158842
 20
20.25001086167794
 11
-6.54998653242122
 21
31.04999759884604
  0
LINE
  5
2e5
100
AcDbEntity
  8
0
  6
CONTINUOUS
 62
     7
100
AcDbLine
 10
0
 20
32.49999237060547
 11
0
 21
-32.5
  0
LINE
  5
2e6
100
AcDbEntity
  8
0
  6
CONTINUOUS
 62
     7
100
AcDbLine
 10
10.50024047618935
 20
19.91664216859764
 11
-2.67665557790453e-005
 21
20.03332440093304
  0
LINE
  5
2e7
100
AcDbEntity
  8
0
  6
CONTINUOUS
 62
     7
100
AcDbLine
 10
-161.9999847412109
 20
27.58998870849609
 11
-27.99999237060547
 21
27.58998870849609
  0
LINE
  5
2e8
100
AcDbEntity
  8
0
  6
CENTER
 62
     3
100
AcDbLine
 10
-161.9999847412109
 20
23.99999237060547
 11
-27.99999237060547
 21
23.99999237060547
  0
LINE
  5
2e9
100
AcDbEntity
  8
0
  6
CONTINUOUS
 62
     7
100
AcDbLine
 10
-161.9999847412109
 20
20.40999603271484
 11
-27.99999237060547
 21
20.40999603271484
  0
LINE
  5
2ea
100
AcDbEntity
  8
0
  6
CONTINUOUS
 62
     7
100
AcDbLine
 10
10.50024229719441
 20
19.91660979729406
 11
10.99996410631425
 21
19.38242132251938
  0
LINE
  5
2eb
100
AcDbEntity
  8
0
  6
CONTINUOUS
 62
     7
100
AcDbLine
 10
10.48275756835938
 20
19.91686248779297
 11
10.48275756835938
 21
-19.91683959960938
  0
LINE
  5
2ec
100
AcDbEntity
  8
0
  6
CONTINUOUS
 62
     7
100
AcDbLine
 10
11
 20
19.38246917724609
 11
11
 21
-19.38241577148438
  0
LINE
  5
2ed
100
AcDbEntity
  8
0
  6
CONTINUOUS
 62
     7
100
AcDbLine
 10
11
 20
10
 11
21.26795959472656
 21
10
  0
LINE
  5
2ee
100
AcDbEntity
  8
0
  6
CONTINUOUS
 62
     7
100
AcDbLine
 10
21.26795959472656
 20
10
 11
21.26795959472656
 21
5.267829895019531
  0
LINE
  5
2ef
100
AcDbEntity
  8
0
  6
CONTINUOUS
 62
     7
100
AcDbLine
 10
21.26792856102005
 20
9.999981965799661
 11
22.99997936081712
 21
8.999981952338487
  0
LINE
  5
2f0
100
AcDbEntity
  8
0
  6
CONTINUOUS
 62
     7
100
AcDbLine
 10
23.00001525878906
 20
9
 11
23.00001525878906
 21
2.5
  0
LINE
  5
2f1
100
AcDbEntity
  8
0
  6
CONTINUOUS
 62
     7
100
AcDbLine
 10
23.00001525878906
 20
9
 11
32.00001525878906
 21
9
  0
LINE
  5
2f2
100
AcDbEntity
  8
0
  6
CONTINUOUS
 62
     7
100
AcDbLine
 10
23.76903270116966
 20
8.999985409039915
 11
25.99998536761662
 21
8.187985015320013
  0
LINE
  5
2f3
100
AcDbEntity
  8
0
  6
CONTINUOUS
 62
     7
100
AcDbLine
 10
26.00001525878906
 20
9
 11
26.00001525878906
 21
-9
  0
LINE
  5
2f4
100
AcDbEntity
  8
0
  6
CONTINUOUS
 62
     7
100
AcDbLine
 10
26.00001525878906
 20
8.187995910644531
 11
32.00001525878906
 21
8.187995910644531
  0
LINE
  5
2f5
100
AcDbEntity
  8
0
  6
CONTINUOUS
 62
     7
100
AcDbLine
 10
23.00001525878906
 20
2.5
 11
26.00001525878906
 21
2.5
  0
LINE
  5
2f6
100
AcDbEntity
  8
0
  6
CONTINUOUS
 62
     7
100
AcDbLine
 10
25.9999712735311
 20
2.499985232783388
 11
14.99997548027517
 21
-5.267839040724052
  0
LINE
  5
2f7
100
AcDbEntity
  8
0
  6
CONTINUOUS
 62
     7
100
AcDbLine
 10
26.00000481930186
 20
-2.49999724676972
 11
15.00000902604593
 21
5.267827026737721
  0
LINE
  5
2f8
100
AcDbEntity
  8
0
  6
CONTINUOUS
 62
     7
100
AcDbLine
 10
23.00001525878906
 20
-2.5
 11
26.00001525878906
 21
-2.5
  0
LINE
  5
2f9
100
AcDbEntity
  8
0
  6
CONTINUOUS
 62
     7
100
AcDbLine
 10
15.00001525878906
 20
5.267829895019531
 11
23.00001525878906
 21
5.267829895019531
  0
LINE
  5
2fa
100
AcDbEntity
  8
0
  6
CONTINUOUS
 62
     7
100
AcDbLine
 10
15.00001525878906
 20
5.267829895019531
 11
15.00001525878906
 21
-5.267829895019531
  0
LINE
  5
2fb
100
AcDbEntity
  8
0
  6
CONTINUOUS
 62
     7
100
AcDbLine
 10
32.00001525878906
 20
11.25833129882813
 11
32.00001525878906
 21
-11.25833129882813
  0
LINE
  5
2fc
100
AcDbEntity
  8
0
  6
CONTINUOUS
 62
     7
100
AcDbLine
 10
31.99999259498732
 20
11.25833432630263
 11
34.16665674768832
 21
15.0111066543633
  0
LINE
  5
2fd
100
AcDbEntity
  8
0
  6
CONTINUOUS
 62
     7
100
AcDbLine
 10
34.16668701171875
 20
15.0111083984375
 11
40.83334350585938
 21
15.0111083984375
  0
LINE
  5
2fe
100
AcDbEntity
  8
0
  6
CONTINUOUS
 62
     7
100
AcDbLine
 10
42.99998037682057
 20
11.25831489962128
 11
40.83331431677091
 21
15.01109053130667
  0
LINE
  5
2ff
100
AcDbEntity
  8
0
  6
CONTINUOUS
 62
     7
100
AcDbLine
 10
43.00001525878906
 20
11.25833129882813
 11
43.00001525878906
 21
-11.25833129882813
  0
LINE
  5
300
100
AcDbEntity
  8
0
  6
CONTINUOUS
 62
     7
100
AcDbLine
 10
33.77503967285156
 20
7.794227600097656
 11
41.22499084472656
 21
7.794227600097656
  0
LINE
  5
301
100
AcDbEntity
  8
0
  6
CONTINUOUS
 62
     7
100
AcDbLine
 10
43.00001525878906
 20
9
 11
56.50001525878906
 21
9
  0
LINE
  5
302
100
AcDbEntity
  8
0
  6
CONTINUOUS
 62
     7
100
AcDbLine
 10
43.00001525878906
 20
8.187995910644531
 11
57.31202697753906
 21
8.187995910644531
  0
LINE
  5
303
100
AcDbEntity
  8
0
  6
CONTINUOUS
 62
     7
100
AcDbLine
 10
33.77503967285156
 20
-7.794227600097656
 11
41.22499084472656
 21
-7.794227600097656
  0
LINE
  5
304
100
AcDbEntity
  8
0
  6
CONTINUOUS
 62
     7
100
AcDbLine
 10
43.00001525878906
 20
-8.187995910644531
 11
57.31202697753906
 21
-8.187995910644531
  0
LINE
  5
305
100
AcDbEntity
  8
0
  6
CONTINUOUS
 62
     7
100
AcDbLine
 10
43.00001525878906
 20
-8.999992370605469
 11
56.50001525878906
 21
-8.999992370605469
  0
LINE
  5
306
100
AcDbEntity
  8
0
  6
CONTINUOUS
 62
     7
100
AcDbLine
 10
42.99998790350891
 20
-11.25832475119815
 11
40.83332375080791
 21
-15.01109707925883
  0
LINE
  5
307
100
AcDbEntity
  8
0
  6
CONTINUOUS
 62
     7
100
AcDbLine
 10
56.50001525878906
 20
9
 11
56.50001525878906
 21
-9
  0
LINE
  5
308
100
AcDbEntity
  8
0
  6
CONTINUOUS
 62
     7
100
AcDbLine
 10
57.99998944004953
 20
-7.500006235811991
 11
56.49998668402812
 21
-9.000006715901087
  0
LINE
  5
309
100
AcDbEntity
  8
0
  6
CONTINUOUS
 62
     7
100
AcDbLine
 10
58.00001525878906
 20
7.5
 11
58.00001525878906
 21
-7.5
  0
LINE
  5
30a
100
AcDbEntity
  8
0
  6
CONTINUOUS
 62
     7
100
AcDbLine
 10
56.49997336559802
 20
8.99995875281633
 11
57.99997114829087
 21
7.499958694195268
  0
LINE
  5
30b
100
AcDbEntity
  8
0
  6
CENTER
 62
     3
100
AcDbLine
 10
-202.1678466796875
 20
0
 11
62.24545288085938
 21
0
  0
LINE
  5
30c
100
AcDbEntity
  8
0
  6
CONTINUOUS
 62
     7
100
AcDbLine
 10
34.16668701171875
 20
-15.01110076904297
 11
40.83334350585938
 21
-15.01110076904297
  0
LINE
  5
30d
100
AcDbEntity
  8
0
  6
CONTINUOUS
 62
     7
100
AcDbLine
 10
31.99999640968464
 20
-11.25834093355208
 11
34.16666246973429
 21
-15.01111656523748
  0
LINE
  5
30e
100
AcDbEntity
  8
0
  6
CONTINUOUS
 62
     7
100
AcDbLine
 10
23.00001525878906
 20
-8.999992370605469
 11
32.00001525878906
 21
-8.999992370605469
  0
LINE
  5
30f
100
AcDbEntity
  8
0
  6
CONTINUOUS
 62
     7
100
AcDbLine
 10
26.00001525878906
 20
-8.187995910644531
 11
32.00001525878906
 21
-8.187995910644531
  0
LINE
  5
310
100
AcDbEntity
  8
0
  6
CONTINUOUS
 62
     7
100
AcDbLine
 10
23.76905682501619
 20
-9.00000707504795
 11
26.00000949146315
 21
-8.188006681328048
  0
LINE
  5
311
100
AcDbEntity
  8
0
  6
CONTINUOUS
 62
     7
100
AcDbLine
 10
23.00001525878906
 20
-2.5
 11
23.00001525878906
 21
-9
  0
LINE
  5
312
100
AcDbEntity
  8
0
  6
CONTINUOUS
 62
     7
100
AcDbLine
 10
15.00001525878906
 20
-5.267829895019531
 11
23.00001525878906
 21
-5.267829895019531
  0
LINE
  5
313
100
AcDbEntity
  8
0
  6
CONTINUOUS
 62
     7
100
AcDbLine
 10
21.26794037924289
 20
-9.999979547378409
 11
22.99999117903995
 21
-8.999979533917234
  0
LINE
  5
314
100
AcDbEntity
  8
0
  6
CONTINUOUS
 62
     7
100
AcDbLine
 10
21.26795959472656
 20
-5.267829895019531
 11
21.26795959472656
 21
-10
  0
LINE
  5
315
100
AcDbEntity
  8
0
  6
CONTINUOUS
 62
     7
100
AcDbLine
 10
11.00001525878906
 20
-9.999992370605469
 11
21.26795959472656
 21
-9.999992370605469
  0
LINE
  5
316
100
AcDbEntity
  8
0
  6
CONTINUOUS
 62
     7
100
AcDbLine
 10
10.50024989072221
 20
-19.91663518367319
 11
11.00000297219707
 21
-19.38241327963581
  0
LINE
  5
317
100
AcDbEntity
  8
0
  6
CONTINUOUS
 62
     7
100
AcDbLine
 10
10.50024064573928
 20
-19.91665742644469
 11
-4.185485288740742e-005
 21
-20.03333982833003
  0
LINE
  5
318
100
AcDbEntity
  8
0
  6
CONTINUOUS
 62
     7
100
AcDbLine
 10
-0.5
 20
-32.99999237060547
 11
-27.49999237060547
 21
-32.99999237060547
  0
LINE
  5
319
100
AcDbEntity
  8
0
  6
CONTINUOUS
 62
     7
100
AcDbLine
 10
-161.9999847412109
 20
-27.58998870849609
 11
-27.99999237060547
 21
-27.58998870849609
  0
LINE
  5
31a
100
AcDbEntity
  8
0
  6
CENTER
 62
     3
100
AcDbLine
 10
-161.9999847412109
 20
-23.99999237060547
 11
-27.99999237060547
 21
-23.99999237060547
  0
LINE
  5
31b
100
AcDbEntity
  8
0
  6
CONTINUOUS
 62
     7
100
AcDbLine
 10
-161.9999847412109
 20
-20.40999603271484
 11
-27.99999237060547
 21
-20.40999603271484
  0
LINE
  5
31c
100
AcDbEntity
  8
0
  6
CONTINUOUS
 62
     7
100
AcDbLine
 10
-162
 20
33.25
 11
-162
 21
-32.5
  0
LINE
  5
31d
100
AcDbEntity
  8
0
  6
CONTINUOUS
 62
     7
100
AcDbLine
 10
-202
 20
-32.99999237060547
 11
-162.4999847412109
 21
-32.99999237060547
  0
LINE
  5
31e
100
AcDbEntity
  8
0
  6
CONTINUOUS
 62
     7
100
AcDbLine
 10
-190
 20
32.49999237060547
 11
-190
 21
-32.5
  0
LINE
  5
31f
100
AcDbEntity
  8
0
  6
DASHED
 62
     7
100
AcDbLine
 10
-164.8999938964844
 20
33.25
 11
-164.8999938964844
 21
32.25
  0
LINE
  5
320
100
AcDbEntity
  8
0
  6
DASHED
 62
     7
100
AcDbLine
 10
-187.1000061035156
 20
32.25
 11
-164.8999786376953
 21
32.25
  0
LINE
  5
321
100
AcDbEntity
  8
0
  6
DASHED
 62
     7
100
AcDbLine
 10
-168.5499649447001
 20
31.04997846682727
 11
-167.3499679660929
 21
32.24997544543453
  0
LINE
  5
322
100
AcDbEntity
  8
0
  6
DASHED
 62
     7
100
AcDbLine
 10
-167.8736367921817
 20
20.2500253784474
 11
-167.4583718880864
 21
32.14165690780563
  0
LINE
  5
323
100
AcDbEntity
  8
0
  6
DASHED
 62
     7
100
AcDbLine
 10
-168.5500031067778
 20
31.05000939583654
 11
-168.9212551704224
 21
20.25000721537677
  0
LINE
  5
324
100
AcDbEntity
  8
0
  6
DASHED
 62
     7
100
AcDbLine
 10
-183.4500122070313
 20
31.05001831054688
 11
-168.5499877929688
 21
31.05001831054688
  0
LINE
  5
325
100
AcDbEntity
  8
0
  6
CENTER
 62
     3
100
AcDbLine
 10
-176
 20
34.53539276123047
 11
-176
 21
19.99999237060547
  0
LINE
  5
326
100
AcDbEntity
  8
0
  6
DASHED
 62
     7
100
AcDbLine
 10
-187.1000061035156
 20
33.25
 11
-187.1000061035156
 21
32.25
  0
LINE
  5
327
100
AcDbEntity
  8
0
  6
DASHED
 62
     7
100
AcDbLine
 10
-183.4500101492883
 20
31.05001623040353
 11
-184.6500071278956
 21
32.25001320901079
  0
LINE
  5
328
100
AcDbEntity
  8
0
  6
DASHED
 62
     7
100
AcDbLine
 10
-184.1263601804443
 20
20.25002159406262
 11
-184.54162448545
 21
32.14163596774031
  0
LINE
  5
329
100
AcDbEntity
  8
0
  6
DASHED
 62
     7
100
AcDbLine
 10
-183.0787367976192
 20
20.25002894995792
 11
-183.4499944905789
 21
31.05003093690749
  0
LINE
  5
32a
100
AcDbEntity
  8
0
  6
CONTINUOUS
 62
     7
100
AcDbLine
 10
-202
 20
32.99999237060547
 11
-162.4999847412109
 21
32.99999237060547
  0
LINE
  5
32b
100
AcDbEntity
  8
0
  6
CONTINUOUS
 62
     7
100
AcDbLine
 10
-189.5
 20
33.25
 11
-162
 21
33.25
  0
LINE
  5
32c
100
AcDbEntity
  8
0
  6
CONTINUOUS
 62
     7
100
AcDbLine
 10
-189.5
 20
33.25
 11
-189.5
 21
32.99999237060547
  0
LINE
  5
32d
100
AcDbEntity
  8
0
  6
CONTINUOUS
 62
     7
100
AcDbLine
 10
-0.5
 20
33.25
 11
-0.5
 21
32.99999237060547
  0
LINE
  5
32e
100
AcDbEntity
  8
0
  6
CONTINUOUS
 62
     7
100
AcDbLine
 10
-28
 20
33.25
 11
-0.5
 21
33.25
  0
LINE
  5
32f
100
AcDbEntity
  8
0
  6
CONTINUOUS
 62
     7
100
AcDbLine
 10
-190.3479953269564
 20
-12.11104517905203
 11
-198.4612576394447
 21
-14.70038183346266
  0
LINE
  5
330
100
AcDbEntity
  8
0
  6
CONTINUOUS
 62
     7
100
AcDbLine
 10
-190.3479943103823
 20
12.11104696978903
 11
-198.4612610357107
 21
14.70038789466121
  0
LINE
  5
331
100
AcDbEntity
  8
0
  6
CONTINUOUS
 62
     7
100
AcDbLine
 10
-198.3259052359331
 20
14.55553707831894
 11
-196.927444615272
 21
13.24447856115707
  0
LINE
  5
332
100
AcDbEntity
  8
0
  6
CONTINUOUS
 62
     7
100
AcDbLine
 10
-195.6000061035156
 20
-10.18042945861816
 11
-195.6000061035156
 21
10.1804313659668
  0
LINE
  5
333
100
AcDbEntity
  8
0
  6
CONTINUOUS
 62
     7
100
AcDbLine
 10
-198.8000030517578
 20
-11.56676483154297
 11
-198.8000030517578
 21
11.5667667388916
  0
LINE
  5
334
100
AcDbEntity
  8
0
  6
CONTINUOUS
 62
     7
100
AcDbLine
 10
-199.1160505741769
 20
12.29629435708179
 11
-200.514511194838
 21
13.60735287424366
  0
LINE
  5
335
100
AcDbEntity
  8
0
  6
CONTINUOUS
 62
     7
100
AcDbLine
 10
-202
 20
17.03618049621582
 11
-202
 21
33
  0
LINE
  5
336
100
AcDbEntity
  8
0
  6
DASHED
 62
     7
100
AcDbLine
 10
-198.8000030517578
 20
20.5
 11
-202
 21
20.5
  0
LINE
  5
337
100
AcDbEntity
  8
0
  6
CONTINUOUS
 62
     7
100
AcDbLine
 10
-198.8000030517578
 20
15.64985084533691
 11
-198.8000030517578
 21
33
  0
LINE
  5
338
100
AcDbEntity
  8
0
  6
CENTER
 62
     3
100
AcDbLine
 10
-196.0499877929688
 20
25
 11
-205.6166687011719
 21
25
  0
LINE
  5
339
100
AcDbEntity
  8
0
  6
DASHED
 62
     7
100
AcDbLine
 10
-198.8000030517578
 20
29.5
 11
-202
 21
29.5
  0
LINE
  5
33a
100
AcDbEntity
  8
0
  6
CONTINUOUS
 62
     7
100
AcDbLine
 10
-198.3259122283335
 20
-14.55553474429003
 11
-196.9274511658464
 21
-13.24447669840875
  0
LINE
  5
33b
100
AcDbEntity
  8
0
  6
CONTINUOUS
 62
     7
100
AcDbLine
 10
-198.8000030517578
 20
-15.64984893798828
 11
-198.8000030517578
 21
-33
  0
LINE
  5
33c
100
AcDbEntity
  8
0
  6
CONTINUOUS
 62
     7
100
AcDbLine
 10
-199.1160568052135
 20
-12.29629175677442
 11
-200.5145178677006
 21
-13.60734980265571
  0
LINE
  5
33d
100
AcDbEntity
  8
0
  6
CONTINUOUS
 62
     7
100
AcDbLine
 10
-202
 20
-17.03617668151856
 11
-202
 21
-33
  0
LINE
  5
33e
100
AcDbEntity
  8
0
  6
DASHED
 62
     7
100
AcDbLine
 10
-198.8000030517578
 20
-20.5
 11
-202
 21
-20.5
  0
LINE
  5
33f
100
AcDbEntity
  8
0
  6
CENTER
 62
     3
100
AcDbLine
 10
-195.9333343505859
 20
-25
 11
-205.2666625976563
 21
-25
  0
LINE
  5
340
100
AcDbEntity
  8
0
  6
DASHED
 62
     7
100
AcDbLine
 10
-198.8000030517578
 20
-29.5
 11
-202
 21
-29.5
  0
ARC
  5
341
100
AcDbEntity
  8
0
  6
CONTINUOUS
 62
     7
100
AcDbCircle
 10
-27.5
 20
32.49999237060547
 40
0.5
100
AcDbArc
 50
90.00003665542391
 51
180.0000186693352
  0
ARC
  5
342
100
AcDbEntity
  8
0
  6
CONTINUOUS
 62
     7
100
AcDbCircle
 10
-0.5
 20
32.49999237060547
 40
0.5
100
AcDbArc
 50
359.9999813306654
 51
90.00003665542401
  0
ARC
  5
343
100
AcDbEntity
  8
0
  6
CONTINUOUS
 62
     7
100
AcDbCircle
 10
20.93751525878906
 20
0
 40
7.9375
100
AcDbArc
 50
138.4201219458582
 51
221.5798607512985
  0
ARC
  5
344
100
AcDbEntity
  8
0
  6
CONTINUOUS
 62
     7
100
AcDbCircle
 10
36.55532836914063
 20
11.40267181396484
 40
4.555310249328613
100
AcDbArc
 50
181.7684129294307
 51
232.385811056993
  0
ARC
  5
345
100
AcDbEntity
  8
0
  6
CONTINUOUS
 62
     7
100
AcDbCircle
 10
38.4447021484375
 20
11.40267181396484
 40
4.555310249328613
100
AcDbArc
 50
307.6140814812146
 51
358.2314830238714
  0
ARC
  5
346
100
AcDbEntity
  8
0
  6
CONTINUOUS
 62
     7
100
AcDbCircle
 10
50.00001525878906
 20
0
 40
18
100
AcDbArc
 50
154.3217995412667
 51
205.6588947016739
  0
ARC
  5
347
100
AcDbEntity
  8
0
  6
CONTINUOUS
 62
     7
100
AcDbCircle
 10
25.00001525878906
 20
0
 40
18
100
AcDbArc
 50
334.3410932318109
 51
25.65890506064249
  0
ARC
  5
348
100
AcDbEntity
  8
0
  6
CONTINUOUS
 62
     7
100
AcDbCircle
 10
38.4447021484375
 20
-11.40267181396484
 40
4.555310249328613
100
AcDbArc
 50
1.768462014450824
 51
52.38586387727282
  0
ARC
  5
349
100
AcDbEntity
  8
0
  6
CONTINUOUS
 62
     7
100
AcDbCircle
 10
36.55532836914063
 20
-11.40267181396484
 40
4.555310249328613
100
AcDbArc
 50
127.6141343014944
 51
178.2315324290566
  0
ARC
  5
34a
100
AcDbEntity
  8
0
  6
CONTINUOUS
 62
     7
100
AcDbCircle
 10
-0.5
 20
-32.49999237060547
 40
0.5
100
AcDbArc
 50
270.00001798609
 51
359.9999813306654
  0
ARC
  5
34b
100
AcDbEntity
  8
0
  6
CONTINUOUS
 62
     7
100
AcDbCircle
 10
-27.5
 20
-32.49999237060547
 40
0.5
100
AcDbArc
 50
180.0000223118013
 51
269.9999974955226
  0
ARC
  5
34c
100
AcDbEntity
  8
0
  6
CONTINUOUS
 62
     7
100
AcDbCircle
 10
-162.5
 20
-32.49999237060547
 40
0.5
100
AcDbArc
 50
270.0000179860897
 51
360
  0
ARC
  5
34d
100
AcDbEntity
  8
0
  6
CONTINUOUS
 62
     7
100
AcDbCircle
 10
-189.5
 20
-32.49999237060547
 40
0.5
100
AcDbArc
 50
180.0000223118013
 51
269.9999974955222
  0
ARC
  5
34e
100
AcDbEntity
  8
0
  6
CONTINUOUS
 62
     7
100
AcDbCircle
 10
-189.5
 20
32.49999237060547
 40
0.5
100
AcDbArc
 50
89.99998201391097
 51
180.0000186693352
  0
ARC
  5
34f
100
AcDbEntity
  8
0
  6
CONTINUOUS
 62
     7
100
AcDbCircle
 10
-162.5
 20
32.49999237060547
 40
0.5
100
AcDbArc
 50
0
 51
89.99998201391097
  0
ARC
  5
350
100
AcDbEntity
  8
0
  6
CONTINUOUS
 62
     7
100
AcDbCircle
 10
-190.5
 20
-11.63472175598145
 40
0.5
100
AcDbArc
 50
287.7003539550626
 51
360
  0
ARC
  5
351
100
AcDbEntity
  8
0
  6
CONTINUOUS
 62
     7
100
AcDbCircle
 10
-190.5
 20
11.63472175598145
 40
0.5
100
AcDbArc
 50
0
 51
72.29955679773445
  0
ARC
  5
352
100
AcDbEntity
  8
0
  6
CONTINUOUS
 62
     7
100
AcDbCircle
 10
-197.3000030517578
 20
15.64985084533691
 40
1.5
100
AcDbArc
 50
179.999991348578
 51
226.8476031675358
  0
ARC
  5
353
100
AcDbEntity
  8
0
  6
CONTINUOUS
 62
     7
100
AcDbCircle
 10
-199.8000030517578
 20
10.18043231964111
 40
4.199999809265137
100
AcDbArc
 50
1.366037834002561e-005
 51
46.84759815857886
  0
ARC
  5
354
100
AcDbEntity
  8
0
  6
CONTINUOUS
 62
     7
100
AcDbCircle
 10
-199.8000030517578
 20
11.56676769256592
 40
1
100
AcDbArc
 50
0
 51
46.8475844981999
  0
ARC
  5
355
100
AcDbEntity
  8
0
  6
CONTINUOUS
 62
     7
100
AcDbCircle
 10
-197.3000030517578
 20
17.03618049621582
 40
4.699999809265137
100
AcDbArc
 50
180.0001006316054
 51
226.8476578090493
  0
ARC
  5
356
100
AcDbEntity
  8
0
  6
CONTINUOUS
 62
     7
100
AcDbCircle
 10
-199.8000030517578
 20
-10.18042850494385
 40
4.199999809265137
100
AcDbArc
 50
313.1523708781995
 51
360
  0
ARC
  5
357
100
AcDbEntity
  8
0
  6
CONTINUOUS
 62
     7
100
AcDbCircle
 10
-197.3000030517578
 20
-15.64984893798828
 40
1.5
100
AcDbArc
 50
133.1523522088639
 51
179.9999640278213
  0
ARC
  5
358
100
AcDbEntity
  8
0
  6
CONTINUOUS
 62
     7
100
AcDbCircle
 10
-199.8000030517578
 20
-11.56676387786865
 40
1
100
AcDbArc
 50
313.1523708781996
 51
360
  0
ARC
  5
359
100
AcDbEntity
  8
0
  6
CONTINUOUS
 62
     7
100
AcDbCircle
 10
-197.3000030517578
 20
-17.03617668151856
 40
4.699999809265137
100
AcDbArc
 50
133.1522975673508
 51
179.9998547447946
  0
MTEXT
  5
35a
100
AcDbEntity
  8
0
  6
CONTINUOUS
 62
     7
100
AcDbMText
 10
-43.40356098115444
 20
-11.09999942779541
 40
0.5
 41
34
 71
     7
 72
     1
  1
{\W0.842735;ＢＮ－６１０５－ＦＢ－５０－Ｂ－＊}
  0
ENDBLK
  8
0
  5
35b
100
AcDbEntity
100
AcDbBlockEnd
  0
BLOCK
  8
0
  5
35c
100
AcDbEntity
100
AcDbBlockBegin
  2
KOZU0002
 70
    64
 10
0
 20
0
  0
POINT
  5
35d
100
AcDbEntity
  8
0
  6
CONTINUOUS
 62
     7
100
AcDbPoint
 10
0
 20
0
  0
LINE
  5
35e
100
AcDbEntity
  8
0
  6
CONTINUOUS
 62
     7
100
AcDbLine
 10
33.29421997070313
 20
0
 11
41.70578002929688
 21
0
  0
LINE
  5
35f
100
AcDbEntity
  8
0
  6
CONTINUOUS
 62
     7
100
AcDbLine
 10
-0.5
 20
33
 11
-27.49999237060547
 21
33
  0
LINE
  5
360
100
AcDbEntity
  8
0
  6
CONTINUOUS
 62
     7
100
AcDbLine
 10
0
 20
-32.5
 11
0
 21
32.5
  0
LINE
  5
361
100
AcDbEntity
  8
0
  6
CONTINUOUS
 62
     7
100
AcDbLine
 10
1.950582387194588e-006
 20
20.00000532264886
 11
10.48276849682464
 21
19.91724137592533
  0
LINE
  5
362
100
AcDbEntity
  8
0
  6
CONTINUOUS
 62
     7
100
AcDbLine
 10
10.99995599588862
 20
19.39994536597641
 11
10.48271359937257
 21
19.91718758809139
  0
LINE
  5
363
100
AcDbEntity
  8
0
  6
CONTINUOUS
 62
     7
100
AcDbLine
 10
11
 20
-19.38247680664063
 11
11
 21
19.39999389648438
  0
LINE
  5
364
100
AcDbEntity
  8
0
  6
CONTINUOUS
 62
     7
100
AcDbLine
 10
10.48275756835938
 20
-19.9168701171875
 11
10.48275756835938
 21
19.917236328125
  0
LINE
  5
365
100
AcDbEntity
  8
0
  6
CONTINUOUS
 62
     7
100
AcDbLine
 10
10.50029940551818
 20
-19.91666322090055
 11
11.00001079051968
 21
-19.38248588921344
  0
LINE
  5
366
100
AcDbEntity
  8
0
  6
CONTINUOUS
 62
     7
100
AcDbLine
 10
10.50027516663882
 20
-19.91667421003526
 11
-7.333953354810019e-006
 21
-20.0333566119206
  0
LINE
  5
367
100
AcDbEntity
  8
0
  6
CONTINUOUS
 62
     7
100
AcDbLine
 10
-0.5
 20
-33
 11
-27.49999237060547
 21
-33
  0
LINE
  5
368
100
AcDbEntity
  8
0
  6
CONTINUOUS
 62
     7
100
AcDbLine
 10
11
 20
-10
 11
13.00001525878906
 21
-10
  0
LINE
  5
369
100
AcDbEntity
  8
0
  6
CONTINUOUS
 62
     7
100
AcDbLine
 10
12.99998447895037
 20
-9.999989163875769
 11
14.99998446106898
 21
-8.499989140033911
  0
LINE
  5
36a
100
AcDbEntity
  8
0
  6
CONTINUOUS
 62
     7
100
AcDbLine
 10
15.00001525878906
 20
-8.5
 11
26.00001525878906
 21
-8.5
  0
LINE
  5
36b
100
AcDbEntity
  8
0
  6
CONTINUOUS
 62
     7
100
AcDbLine
 10
21.26795959472656
 20
-8.5
 11
21.26795959472656
 21
8.5
  0
LINE
  5
36c
100
AcDbEntity
  8
0
  6
CONTINUOUS
 62
     7
100
AcDbLine
 10
23.00001525878906
 20
8.5
 11
23.00001525878906
 21
-8.5
  0
LINE
  5
36d
100
AcDbEntity
  8
0
  6
CONTINUOUS
 62
     7
100
AcDbLine
 10
11.00001525878906
 20
10
 11
13.00003051757813
 21
10
  0
LINE
  5
36e
100
AcDbEntity
  8
0
  6
CONTINUOUS
 62
     7
100
AcDbLine
 10
13.00005905628325
 20
10.00010131597449
 11
15.00005903840185
 21
8.500101292132632
  0
LINE
  5
36f
100
AcDbEntity
  8
0
  6
CONTINUOUS
 62
     7
100
AcDbLine
 10
15.00003051757813
 20
8.5
 11
26.00001525878906
 21
8.5
  0
LINE
  5
370
100
AcDbEntity
  8
0
  6
CONTINUOUS
 62
     7
100
AcDbLine
 10
26.00001525878906
 20
9
 11
26.00001525878906
 21
-9
  0
LINE
  5
371
100
AcDbEntity
  8
0
  6
CONTINUOUS
 62
     7
100
AcDbLine
 10
26.00001525878906
 20
9
 11
32.00001525878906
 21
9
  0
LINE
  5
372
100
AcDbEntity
  8
0
  6
CONTINUOUS
 62
     7
100
AcDbLine
 10
26.00001525878906
 20
8.18798828125
 11
32.00001525878906
 21
8.18798828125
  0
LINE
  5
373
100
AcDbEntity
  8
0
  6
CONTINUOUS
 62
     7
100
AcDbLine
 10
25.14286665945673
 20
8.500056270911346
 11
26.00001212061793
 21
8.188080825440965
  0
LINE
  5
374
100
AcDbEntity
  8
0
  6
CONTINUOUS
 62
     7
100
AcDbLine
 10
26.00001525878906
 20
-8.188003540039063
 11
32.00001525878906
 21
-8.188003540039063
  0
LINE
  5
375
100
AcDbEntity
  8
0
  6
CONTINUOUS
 62
     7
100
AcDbLine
 10
25.14282883622506
 20
-8.499996966153324
 11
26.00001731310054
 21
-8.188005864242783
  0
LINE
  5
376
100
AcDbEntity
  8
0
  6
CONTINUOUS
 62
     7
100
AcDbLine
 10
26.00001525878906
 20
-9
 11
32.00001525878906
 21
-9
  0
LINE
  5
377
100
AcDbEntity
  8
0
  6
CONTINUOUS
 62
     7
100
AcDbLine
 10
32.00001525878906
 20
-11.25833129882813
 11
32.00001525878906
 21
11.25833129882813
  0
LINE
  5
378
100
AcDbEntity
  8
0
  6
CONTINUOUS
 62
     7
100
AcDbLine
 10
31.99997823974865
 20
-11.2583514239697
 11
33.29420585726813
 21
-13.50001937383828
  0
LINE
  5
379
100
AcDbEntity
  8
0
  6
CONTINUOUS
 62
     7
100
AcDbLine
 10
33.29421997070313
 20
-13.5
 11
41.70578002929688
 21
-13.5
  0
LINE
  5
37a
100
AcDbEntity
  8
0
  6
CONTINUOUS
 62
     7
100
AcDbLine
 10
42.99999168397081
 20
-11.25832583264063
 11
41.70577169584596
 21
-13.49998056801031
  0
LINE
  5
37b
100
AcDbEntity
  8
0
  6
CONTINUOUS
 62
     7
100
AcDbLine
 10
43.00001525878906
 20
-11.25833129882813
 11
43.00001525878906
 21
11.25833129882813
  0
LINE
  5
37c
100
AcDbEntity
  8
0
  6
CONTINUOUS
 62
     7
100
AcDbLine
 10
43.00000159484497
 20
11.25833155468661
 11
41.7057739773255
 21
13.49999950455519
  0
LINE
  5
37d
100
AcDbEntity
  8
0
  6
CONTINUOUS
 62
     7
100
AcDbLine
 10
33.29426574707031
 20
13.5
 11
41.70578002929688
 21
13.5
  0
LINE
  5
37e
100
AcDbEntity
  8
0
  6
CONTINUOUS
 62
     7
100
AcDbLine
 10
32.00000706882058
 20
11.2582907311669
 11
33.29425757452396
 21
13.49999832453218
  0
LINE
  5
37f
100
AcDbEntity
  8
0
  6
CONTINUOUS
 62
     7
100
AcDbLine
 10
43.00001525878906
 20
9
 11
56.50001525878906
 21
9
  0
LINE
  5
380
100
AcDbEntity
  8
0
  6
CONTINUOUS
 62
     7
100
AcDbLine
 10
43.00001525878906
 20
8.18798828125
 11
57.31202697753906
 21
8.18798828125
  0
LINE
  5
381
100
AcDbEntity
  8
0
  6
CONTINUOUS
 62
     7
100
AcDbLine
 10
57.99997865048496
 20
7.499968472227543
 11
56.49997859186389
 21
8.999966254920381
  0
LINE
  5
382
100
AcDbEntity
  8
0
  6
CONTINUOUS
 62
     7
100
AcDbLine
 10
58.00001525878906
 20
-7.5
 11
58.00001525878906
 21
7.5
  0
LINE
  5
383
100
AcDbEntity
  8
0
  6
CONTINUOUS
 62
     7
100
AcDbLine
 10
56.50001525878906
 20
-9
 11
56.50001525878906
 21
9
  0
LINE
  5
384
100
AcDbEntity
  8
0
  6
CONTINUOUS
 62
     7
100
AcDbLine
 10
56.49999494479265
 20
-8.999969542393178
 11
57.99998463529671
 21
-7.499977575973169
  0
LINE
  5
385
100
AcDbEntity
  8
0
  6
CONTINUOUS
 62
     7
100
AcDbLine
 10
43.00001525878906
 20
-9
 11
56.50001525878906
 21
-9
  0
LINE
  5
386
100
AcDbEntity
  8
0
  6
CONTINUOUS
 62
     7
100
AcDbLine
 10
43.00001525878906
 20
-8.188003540039063
 11
57.31202697753906
 21
-8.188003540039063
  0
LINE
  5
387
100
AcDbEntity
  8
0
  6
CENTER
 62
     3
100
AcDbLine
 10
-14
 20
-13.38436889648438
 11
-14
 21
13.10000610351563
  0
LINE
  5
388
100
AcDbEntity
  8
0
  6
CONTINUOUS
 62
     7
100
AcDbLine
 10
-28
 20
-32.5
 11
-28
 21
32.5
  0
LINE
  5
389
100
AcDbEntity
  8
0
  6
CONTINUOUS
 62
     7
100
AcDbLine
 10
-161.9999847412109
 20
-27.58999633789063
 11
-27.99999237060547
 21
-27.58999633789063
  0
LINE
  5
38a
100
AcDbEntity
  8
0
  6
CENTER
 62
     3
100
AcDbLine
 10
-161.9999847412109
 20
-24
 11
-27.99999237060547
 21
-24
  0
LINE
  5
38b
100
AcDbEntity
  8
0
  6
CONTINUOUS
 62
     7
100
AcDbLine
 10
-161.9999847412109
 20
-20.41000366210938
 11
-27.99999237060547
 21
-20.41000366210938
  0
LINE
  5
38c
100
AcDbEntity
  8
0
  6
CONTINUOUS
 62
     7
100
AcDbLine
 10
-161.9999847412109
 20
20.40998840332031
 11
-27.99999237060547
 21
20.40998840332031
  0
LINE
  5
38d
100
AcDbEntity
  8
0
  6
CENTER
 62
     3
100
AcDbLine
 10
-161.9999847412109
 20
23.99998474121094
 11
-27.99999237060547
 21
23.99998474121094
  0
LINE
  5
38e
100
AcDbEntity
  8
0
  6
CONTINUOUS
 62
     7
100
AcDbLine
 10
-161.9999847412109
 20
27.58999633789063
 11
-27.99999237060547
 21
27.58999633789063
  0
LINE
  5
38f
100
AcDbEntity
  8
0
  6
CENTER
 62
     3
100
AcDbLine
 10
-197.1045532226563
 20
0
 11
62.24545288085938
 21
0
  0
LINE
  5
390
100
AcDbEntity
  8
0
  6
CONTINUOUS
 62
     7
100
AcDbLine
 10
-162
 20
-32.5
 11
-162
 21
32.5
  0
LINE
  5
391
100
AcDbEntity
  8
0
  6
CONTINUOUS
 62
     7
100
AcDbLine
 10
-189.5
 20
33
 11
-162.4999847412109
 21
33
  0
LINE
  5
392
100
AcDbEntity
  8
0
  6
CONTINUOUS
 62
     7
100
AcDbLine
 10
-190
 20
-34.74131393432617
 11
-190
 21
34.74132537841797
  0
LINE
  5
393
100
AcDbEntity
  8
0
  6
CENTER
 62
     3
100
AcDbLine
 10
-176
 20
-13.38436889648438
 11
-176
 21
13.10000610351563
  0
LINE
  5
394
100
AcDbEntity
  8
0
  6
CONTINUOUS
 62
     7
100
AcDbLine
 10
-189.5
 20
-33
 11
-162.4999847412109
 21
-33
  0
LINE
  5
395
100
AcDbEntity
  8
0
  6
CONTINUOUS
 62
     7
100
AcDbLine
 10
-187.5
 20
-25
 11
-162
 21
-25
  0
LINE
  5
396
100
AcDbEntity
  8
0
  6
CONTINUOUS
 62
     7
100
AcDbLine
 10
-187.5
 20
25
 11
-162
 21
25
  0
LINE
  5
397
100
AcDbEntity
  8
0
  6
CONTINUOUS
 62
     7
100
AcDbLine
 10
-189.5
 20
-23
 11
-189.5
 21
23
  0
LINE
  5
398
100
AcDbEntity
  8
0
  6
CONTINUOUS
 62
     7
100
AcDbLine
 10
-0.5
 20
-23
 11
-0.5
 21
23
  0
LINE
  5
399
100
AcDbEntity
  8
0
  6
CONTINUOUS
 62
     7
100
AcDbLine
 10
-28
 20
-25
 11
-2.5
 21
-25
  0
LINE
  5
39a
100
AcDbEntity
  8
0
  6
CONTINUOUS
 62
     7
100
AcDbLine
 10
-28
 20
25
 11
-2.5
 21
25
  0
LINE
  5
39b
100
AcDbEntity
  8
0
  6
CENTER
 62
     3
100
AcDbLine
 10
-169.75
 20
11
 11
-166.25
 21
11
  0
LINE
  5
39c
100
AcDbEntity
  8
0
  6
CENTER
 62
     3
100
AcDbLine
 10
-185.75
 20
-11
 11
-182.25
 21
-11
  0
LINE
  5
39d
100
AcDbEntity
  8
0
  6
CENTER
 62
     3
100
AcDbLine
 10
-184
 20
-12.75
 11
-184
 21
-9.25
  0
LINE
  5
39e
100
AcDbEntity
  8
0
  6
CENTER
 62
     3
100
AcDbLine
 10
-168
 20
9.25
 11
-168
 21
12.75
  0
LINE
  5
39f
100
AcDbEntity
  8
0
  6
CENTER
 62
     3
100
AcDbLine
 10
-22
 20
-12.75
 11
-22
 21
-9.25
  0
LINE
  5
3a0
100
AcDbEntity
  8
0
  6
CENTER
 62
     3
100
AcDbLine
 10
-6
 20
9.25
 11
-6
 21
12.75
  0
LINE
  5
3a1
100
AcDbEntity
  8
0
  6
CENTER
 62
     3
100
AcDbLine
 10
-7.75
 20
11
 11
-4.25
 21
11
  0
LINE
  5
3a2
100
AcDbEntity
  8
0
  6
CENTER
 62
     3
100
AcDbLine
 10
-23.75
 20
-11
 11
-20.25
 21
-11
  0
LINE
  5
3a3
100
AcDbEntity
  8
0
  6
CONTINUOUS
 62
     7
100
AcDbLine
 10
-196.2000019337806
 20
-55.0000033687693
 11
-190.1370815199832
 21
-35.63778727495732
  0
LINE
  5
3a4
100
AcDbEntity
  8
0
  6
CONTINUOUS
 62
     7
100
AcDbLine
 10
-196.2000122070313
 20
-55
 11
-202
 21
-55
  0
LINE
  5
3a5
100
AcDbEntity
  8
0
  6
CONTINUOUS
 62
     7
100
AcDbLine
 10
-198.7999877929688
 20
-55
 11
-198.7999877929688
 21
-36.70000076293945
  0
LINE
  5
3a6
100
AcDbEntity
  8
0
  6
DASHED
 62
     7
100
AcDbLine
 10
-198.7999877929688
 20
-49.5
 11
-202
 21
-49.5
  0
LINE
  5
3a7
100
AcDbEntity
  8
0
  6
CONTINUOUS
 62
     7
100
AcDbLine
 10
-202
 20
-55
 11
-202
 21
-35
  0
LINE
  5
3a8
100
AcDbEntity
  8
0
  6
CENTER
 62
     3
100
AcDbLine
 10
-194.4349822998047
 20
-45
 11
-206.853271484375
 21
-45
  0
LINE
  5
3a9
100
AcDbEntity
  8
0
  6
DASHED
 62
     7
100
AcDbLine
 10
-198.7999877929688
 20
-40.5
 11
-202
 21
-40.5
  0
LINE
  5
3aa
100
AcDbEntity
  8
0
  6
CONTINUOUS
 62
     7
100
AcDbLine
 10
-193.1999969482422
 20
-32
 11
-199
 21
-32
  0
LINE
  5
3ab
100
AcDbEntity
  8
0
  6
CONTINUOUS
 62
     7
100
AcDbLine
 10
-193
 20
-35.20000076293945
 11
-197.3000030517578
 21
-35.20000076293945
  0
LINE
  5
3ac
100
AcDbEntity
  8
0
  6
CONTINUOUS
 62
     7
100
AcDbLine
 10
-193.1999969482422
 20
-32
 11
-193.1999969482422
 21
32
  0
LINE
  5
3ad
100
AcDbEntity
  8
0
  6
CONTINUOUS
 62
     7
100
AcDbLine
 10
-195.1999969482422
 20
-31.70000076293945
 11
-193.1999969482422
 21
-31.70000076293945
  0
LINE
  5
3ae
100
AcDbEntity
  8
0
  6
CONTINUOUS
 62
     7
100
AcDbLine
 10
-200.5556488037109
 20
-30.5
 11
-195.1999969482422
 21
-30.5
  0
LINE
  5
3af
100
AcDbEntity
  8
0
  6
CONTINUOUS
 62
     7
100
AcDbLine
 10
-195.1999969482422
 20
-31.70000076293945
 11
-195.1999969482422
 21
-16.29999923706055
  0
LINE
  5
3b0
100
AcDbEntity
  8
0
  6
CONTINUOUS
 62
     7
100
AcDbLine
 10
-195.1999969482422
 20
-16.29999923706055
 11
-193.1999969482422
 21
-16.29999923706055
  0
LINE
  5
3b1
100
AcDbEntity
  8
0
  6
CONTINUOUS
 62
     7
100
AcDbLine
 10
-200.5556640625
 20
-17.5
 11
-195.1999969482422
 21
-17.5
  0
LINE
  5
3b2
100
AcDbEntity
  8
0
  6
CONTINUOUS
 62
     7
100
AcDbLine
 10
-200.7000457370441
 20
-17.75000045886017
 11
-200.5557013794563
 21
-17.49998876182691
  0
LINE
  5
3b3
100
AcDbEntity
  8
0
  6
CONTINUOUS
 62
     7
100
AcDbLine
 10
-200.6999969482422
 20
-30.24999809265137
 11
-200.6999969482422
 21
-17.75000190734863
  0
LINE
  5
3b4
100
AcDbEntity
  8
0
  6
CONTINUOUS
 62
     7
100
AcDbLine
 10
-200.7000214779102
 20
-30.24998904098625
 11
-200.5556848226906
 21
-30.49998756565196
  0
LINE
  5
3b5
100
AcDbEntity
  8
0
  6
CONTINUOUS
 62
     7
100
AcDbLine
 10
-195.1999969482422
 20
16.29997634887695
 11
-193.1999969482422
 21
16.29997634887695
  0
LINE
  5
3b6
100
AcDbEntity
  8
0
  6
CONTINUOUS
 62
     7
100
AcDbLine
 10
-195.1999969482422
 20
16.29997634887695
 11
-195.1999969482422
 21
31.69997787475586
  0
LINE
  5
3b7
100
AcDbEntity
  8
0
  6
CONTINUOUS
 62
     7
100
AcDbLine
 10
-200.5556488037109
 20
17.49997711181641
 11
-195.1999969482422
 21
17.49997711181641
  0
LINE
  5
3b8
100
AcDbEntity
  8
0
  6
CONTINUOUS
 62
     7
100
AcDbLine
 10
-200.6999985943178
 20
17.74998636159471
 11
-200.5556619390983
 21
17.49998783692901
  0
LINE
  5
3b9
100
AcDbEntity
  8
0
  6
CONTINUOUS
 62
     7
100
AcDbLine
 10
-200.6999969482422
 20
17.74997901916504
 11
-200.6999969482422
 21
30.24997520446777
  0
LINE
  5
3ba
100
AcDbEntity
  8
0
  6
CONTINUOUS
 62
     7
100
AcDbLine
 10
-200.7000337659935
 20
30.24998052882754
 11
-200.5556894084056
 21
30.4999922258608
  0
LINE
  5
3bb
100
AcDbEntity
  8
0
  6
CONTINUOUS
 62
     7
100
AcDbLine
 10
-200.5556640625
 20
30.49997711181641
 11
-195.1999969482422
 21
30.49997711181641
  0
LINE
  5
3bc
100
AcDbEntity
  8
0
  6
CENTER
 62
     3
100
AcDbLine
 10
-201.61328125
 20
23.99997711181641
 11
-193.1999969482422
 21
23.99997711181641
  0
LINE
  5
3bd
100
AcDbEntity
  8
0
  6
CONTINUOUS
 62
     7
100
AcDbLine
 10
-195.1999969482422
 20
31.69997787475586
 11
-193.1999969482422
 21
31.69997787475586
  0
LINE
  5
3be
100
AcDbEntity
  8
0
  6
CONTINUOUS
 62
     7
100
AcDbLine
 10
-193.1999969482422
 20
32
 11
-198.9999847412109
 21
32
  0
LINE
  5
3bf
100
AcDbEntity
  8
0
  6
CONTINUOUS
 62
     7
100
AcDbLine
 10
-196.1999974964687
 20
55.00000607343866
 11
-190.1370855589783
 21
35.63779532011454
  0
LINE
  5
3c0
100
AcDbEntity
  8
0
  6
CONTINUOUS
 62
     7
100
AcDbLine
 10
-193
 20
35.20000076293945
 11
-197.2999877929688
 21
35.20000076293945
  0
LINE
  5
3c1
100
AcDbEntity
  8
0
  6
CONTINUOUS
 62
     7
100
AcDbLine
 10
-202
 20
35
 11
-202
 21
55
  0
LINE
  5
3c2
100
AcDbEntity
  8
0
  6
DASHED
 62
     7
100
AcDbLine
 10
-198.7999877929688
 20
40.5
 11
-202
 21
40.5
  0
LINE
  5
3c3
100
AcDbEntity
  8
0
  6
CONTINUOUS
 62
     7
100
AcDbLine
 10
-198.7999877929688
 20
36.70000076293945
 11
-198.7999877929688
 21
55
  0
LINE
  5
3c4
100
AcDbEntity
  8
0
  6
CENTER
 62
     3
100
AcDbLine
 10
-194.0343933105469
 20
45
 11
-207.2538604736328
 21
45
  0
LINE
  5
3c5
100
AcDbEntity
  8
0
  6
DASHED
 62
     7
100
AcDbLine
 10
-198.7999877929688
 20
49.5
 11
-202
 21
49.5
  0
LINE
  5
3c6
100
AcDbEntity
  8
0
  6
CONTINUOUS
 62
     7
100
AcDbLine
 10
-196.1999816894531
 20
55
 11
-202
 21
55
  0
LINE
  5
3c7
100
AcDbEntity
  8
0
  6
CONTINUOUS
 62
     7
100
AcDbLine
 10
-200.1999969482422
 20
23.99997711181641
 11
-195.1999969482422
 21
23.99997711181641
  0
LINE
  5
3c8
100
AcDbEntity
  8
0
  6
CONTINUOUS
 62
     7
100
AcDbLine
 10
-200.1999969482422
 20
-24
 11
-195.1999969482422
 21
-24
  0
LINE
  5
3c9
100
AcDbEntity
  8
0
  6
CENTER
 62
     3
100
AcDbLine
 10
-201.61328125
 20
-23.99997711181641
 11
-193.1999969482422
 21
-23.99997711181641
  0
ARC
  5
3ca
100
AcDbEntity
  8
0
  6
CONTINUOUS
 62
     7
100
AcDbCircle
 10
-27.5
 20
32.5
 40
0.5
100
AcDbArc
 50
89.99995469315388
 51
179.9999367070644
  0
ARC
  5
3cb
100
AcDbEntity
  8
0
  6
CONTINUOUS
 62
     7
100
AcDbCircle
 10
-0.5
 20
32.5
 40
0.5
100
AcDbArc
 50
359.9999640278226
 51
89.9999273723973
  0
ARC
  5
3cc
100
AcDbEntity
  8
0
  6
CONTINUOUS
 62
     7
100
AcDbCircle
 10
-0.5
 20
-32.5
 40
0.5
100
AcDbArc
 50
269.9999087030633
 51
359.9999658490549
  0
ARC
  5
3cd
100
AcDbEntity
  8
0
  6
CONTINUOUS
 62
     7
100
AcDbCircle
 10
50.2496337890625
 20
-6.75
 40
18.24961280822754
100
AcDbArc
 50
158.2923660907135
 51
201.7076166064432
  0
ARC
  5
3ce
100
AcDbEntity
  8
0
  6
CONTINUOUS
 62
     7
100
AcDbCircle
 10
24.75080871582031
 20
-6.75
 40
18.24921226501465
100
AcDbArc
 50
338.2918402798337
 51
21.70815972016704
  0
ARC
  5
3cf
100
AcDbEntity
  8
0
  6
CONTINUOUS
 62
     7
100
AcDbCircle
 10
24.75080871582031
 20
6.75
 40
18.24921226501465
100
AcDbArc
 50
338.2918402798337
 51
21.70815972016704
  0
ARC
  5
3d0
100
AcDbEntity
  8
0
  6
CONTINUOUS
 62
     7
100
AcDbCircle
 10
50.2496337890625
 20
6.75
 40
18.24961280822754
100
AcDbArc
 50
158.2923660907135
 51
201.7076166064432
  0
CIRCLE
  5
3d1
100
AcDbEntity
  8
0
  6
CONTINUOUS
 62
     7
100
AcDbCircle
 10
-14
 20
0
 40
11.10000610351563
  0
CIRCLE
  5
3d2
100
AcDbEntity
  8
0
  6
CONTINUOUS
 62
     7
100
AcDbCircle
 10
-14
 20
0
 40
8.5
  0
CIRCLE
  5
3d3
100
AcDbEntity
  8
0
  6
CONTINUOUS
 62
     7
100
AcDbCircle
 10
-14
 20
0
 40
7.599999904632568
  0
ARC
  5
3d4
100
AcDbEntity
  8
0
  6
CONTINUOUS
 62
     7
100
AcDbCircle
 10
-27.5
 20
-32.5
 40
0.5
100
AcDbArc
 50
179.9999093863078
 51
269.9998914002194
  0
ARC
  5
3d5
100
AcDbEntity
  8
0
  6
CONTINUOUS
 62
     7
100
AcDbCircle
 10
-162.5
 20
-32.5
 40
0.5
100
AcDbArc
 50
269.9999633445764
 51
359.9999453584874
  0
ARC
  5
3d6
100
AcDbEntity
  8
0
  6
CONTINUOUS
 62
     7
100
AcDbCircle
 10
-162.5
 20
32.5
 40
0.5
100
AcDbArc
 50
359.9999453584874
 51
89.99992737239761
  0
ARC
  5
3d7
100
AcDbEntity
  8
0
  6
CONTINUOUS
 62
     7
100
AcDbCircle
 10
-189.5
 20
32.5
 40
0.5
100
AcDbArc
 50
89.99995469315428
 51
179.9999367070644
  0
CIRCLE
  5
3d8
100
AcDbEntity
  8
0
  6
CONTINUOUS
 62
     7
100
AcDbCircle
 10
-176
 20
0
 40
11.10000610351563
  0
CIRCLE
  5
3d9
100
AcDbEntity
  8
0
  6
CONTINUOUS
 62
     7
100
AcDbCircle
 10
-176
 20
0
 40
8.5
  0
CIRCLE
  5
3da
100
AcDbEntity
  8
0
  6
CONTINUOUS
 62
     7
100
AcDbCircle
 10
-176
 20
0
 40
7.599999904632568
  0
ARC
  5
3db
100
AcDbEntity
  8
0
  6
CONTINUOUS
 62
     7
100
AcDbCircle
 10
-189.5
 20
-32.5
 40
0.5
100
AcDbArc
 50
179.9999093863078
 51
269.9999460417336
  0
ARC
  5
3dc
100
AcDbEntity
  8
0
  6
CONTINUOUS
 62
     7
100
AcDbCircle
 10
-187.5
 20
23
 40
2
100
AcDbArc
 50
89.99998201391097
 51
179.9999640278213
  0
ARC
  5
3dd
100
AcDbEntity
  8
0
  6
CONTINUOUS
 62
     7
100
AcDbCircle
 10
-187.5
 20
-23
 40
2
100
AcDbArc
 50
179.9999813306653
 51
270.0000179860897
  0
ARC
  5
3de
100
AcDbEntity
  8
0
  6
CONTINUOUS
 62
     7
100
AcDbCircle
 10
-2.5
 20
-23
 40
2
100
AcDbArc
 50
270.00001798609
 51
360
  0
ARC
  5
3df
100
AcDbEntity
  8
0
  6
CONTINUOUS
 62
     7
100
AcDbCircle
 10
-2.5
 20
23
 40
2
100
AcDbArc
 50
0
 51
89.99998201391065
  0
CIRCLE
  5
3e0
100
AcDbEntity
  8
0
  6
CONTINUOUS
 62
     7
100
AcDbCircle
 10
-168
 20
11
 40
1.75
  0
CIRCLE
  5
3e1
100
AcDbEntity
  8
0
  6
CONTINUOUS
 62
     7
100
AcDbCircle
 10
-184
 20
-11
 40
1.75
  0
CIRCLE
  5
3e2
100
AcDbEntity
  8
0
  6
CONTINUOUS
 62
     7
100
AcDbCircle
 10
-22
 20
-11
 40
1.75
  0
CIRCLE
  5
3e3
100
AcDbEntity
  8
0
  6
CONTINUOUS
 62
     7
100
AcDbCircle
 10
-6
 20
11
 40
1.75
  0
ARC
  5
3e4
100
AcDbEntity
  8
0
  6
CONTINUOUS
 62
     7
100
AcDbCircle
 10
-199
 20
-35
 40
3
100
AcDbArc
 50
90.00002299504544
 51
180.000005008957
  0
ARC
  5
3e5
100
AcDbEntity
  8
0
  6
CONTINUOUS
 62
     7
100
AcDbCircle
 10
-197.3000030517578
 20
-36.70000076293945
 40
1.5
100
AcDbArc
 50
90.00002299504598
 51
180.0000050089571
  0
ARC
  5
3e6
100
AcDbEntity
  8
0
  6
CONTINUOUS
 62
     7
100
AcDbCircle
 10
-193
 20
-32.20000076293945
 40
3
100
AcDbArc
 50
270.0000006832459
 51
360
  0
ARC
  5
3e7
100
AcDbEntity
  8
0
  6
CONTINUOUS
 62
     7
100
AcDbCircle
 10
-189.8874969482422
 20
-20.75
 40
10.8125
100
AcDbArc
 50
162.5077949219053
 51
197.4923790205481
  0
ARC
  5
3e8
100
AcDbEntity
  8
0
  6
CONTINUOUS
 62
     7
100
AcDbCircle
 10
-189.8875122070313
 20
-27.25
 40
10.8125
100
AcDbArc
 50
162.5077949219053
 51
197.4923790205481
  0
ARC
  5
3e9
100
AcDbEntity
  8
0
  6
CONTINUOUS
 62
     7
100
AcDbCircle
 10
-189.8874969482422
 20
20.74997711181641
 40
10.8125
100
AcDbArc
 50
162.5077949219053
 51
197.4923790205481
  0
ARC
  5
3ea
100
AcDbEntity
  8
0
  6
CONTINUOUS
 62
     7
100
AcDbCircle
 10
-189.8874969482422
 20
27.24997711181641
 40
10.8125
100
AcDbArc
 50
162.5077949219053
 51
197.4923790205481
  0
ARC
  5
3eb
100
AcDbEntity
  8
0
  6
CONTINUOUS
 62
     7
100
AcDbCircle
 10
-193
 20
32.20000076293945
 40
3
100
AcDbArc
 50
359.9999863396224
 51
90.00002299504544
  0
ARC
  5
3ec
100
AcDbEntity
  8
0
  6
CONTINUOUS
 62
     7
100
AcDbCircle
 10
-197.2999877929688
 20
36.70000076293945
 40
1.5
100
AcDbArc
 50
180.0000050089571
 51
270.0000006832459
  0
ARC
  5
3ed
100
AcDbEntity
  8
0
  6
CONTINUOUS
 62
     7
100
AcDbCircle
 10
-198.9999847412109
 20
35
 40
3
100
AcDbArc
 50
180.0000050089571
 51
270.0000006832459
  0
ARC
  5
3ee
100
AcDbEntity
  8
0
  6
CONTINUOUS
 62
     7
100
AcDbCircle
 10
-193
 20
34.74132537841797
 40
3
100
AcDbArc
 50
0
 51
17.38696882477224
  0
ARC
  5
3ef
100
AcDbEntity
  8
0
  6
CONTINUOUS
 62
     7
100
AcDbCircle
 10
-193
 20
-34.74131393432617
 40
3
100
AcDbArc
 50
342.6130311752285
 51
360
  0
MTEXT
  5
3f0
100
AcDbEntity
  8
0
  6
CONTINUOUS
 62
     7
100
AcDbMText
 10
-43.05356250703335
 20
-11.44999980926514
 40
0.5
 41
34
 71
     7
 72
     1
  1
{\W0.842735;ＢＮ－６１０５－ＦＢ－５０－Ｂ－＊}
  0
ENDBLK
  8
0
  5
3f1
100
AcDbEntity
100
AcDbBlockEnd
  0
BLOCK
  8
0
  5
3f2
100
AcDbEntity
100
AcDbBlockBegin
  2
KOZU0003
 70
    64
 10
0
 20
0
  0
POINT
  5
3f3
100
AcDbEntity
  8
0
  6
CONTINUOUS
 62
     7
100
AcDbPoint
 10
0
 20
0
  0
LINE
  5
3f4
100
AcDbEntity
  8
0
  6
CENTER
 62
     3
100
AcDbLine
 10
0
 20
36.40619659423828
 11
0
 21
-35.86519622802734
  0
LINE
  5
3f5
100
AcDbEntity
  8
0
  6
CENTER
 62
     3
100
AcDbLine
 10
57.45703887939453
 20
0
 11
-57.2650032043457
 21
0
  0
LINE
  5
3f6
100
AcDbEntity
  8
0
  6
DASHED
 62
     7
100
AcDbLine
 10
-33
 20
28.00000762939453
 11
-33
 21
-27.99999237060547
  0
LINE
  5
3f7
100
AcDbEntity
  8
0
  6
CONTINUOUS
 62
     7
100
AcDbLine
 10
-25
 20
33.24999237060547
 11
-25
 21
33.00000762939453
  0
LINE
  5
3f8
100
AcDbEntity
  8
0
  6
CONTINUOUS
 62
     7
100
AcDbLine
 10
25
 20
33.24999237060547
 11
-25
 21
33.24999237060547
  0
LINE
  5
3f9
100
AcDbEntity
  8
0
  6
CONTINUOUS
 62
     7
100
AcDbLine
 10
25
 20
33.24999237060547
 11
25
 21
33.00000762939453
  0
LINE
  5
3fa
100
AcDbEntity
  8
0
  6
DASHED
 62
     7
100
AcDbLine
 10
33
 20
28.00000762939453
 11
33
 21
-27.99999237060547
  0
LINE
  5
3fb
100
AcDbEntity
  8
0
  6
DASHED
 62
     7
100
AcDbLine
 10
-32.5
 20
7.000007629394531
 11
-32.5
 21
-6.999992370605469
  0
LINE
  5
3fc
100
AcDbEntity
  8
0
  6
DASHED
 62
     7
100
AcDbLine
 10
-22.5
 20
-5
 11
-32
 21
-5
  0
LINE
  5
3fd
100
AcDbEntity
  8
0
  6
DASHED
 62
     7
100
AcDbLine
 10
-32.5
 20
-7
 11
-33
 21
-7
  0
LINE
  5
3fe
100
AcDbEntity
  8
0
  6
DASHED
 62
     7
100
AcDbLine
 10
-32.49999482870558
 20
-5.499982983912087
 11
-31.99999696567866
 21
-4.99998516303183
  0
LINE
  5
3ff
100
AcDbEntity
  8
0
  6
DASHED
 62
     7
100
AcDbLine
 10
-32.5
 20
7
 11
-33
 21
7
  0
LINE
  5
400
100
AcDbEntity
  8
0
  6
DASHED
 62
     7
100
AcDbLine
 10
-32.49997594691723
 20
5.499977589116275
 11
-31.99998617608556
 21
4.999987860430592
  0
LINE
  5
401
100
AcDbEntity
  8
0
  6
DASHED
 62
     7
100
AcDbLine
 10
-22.5
 20
5
 11
-32
 21
5
  0
LINE
  5
402
100
AcDbEntity
  8
0
  6
DASHED
 62
     7
100
AcDbLine
 10
-22.5
 20
5
 11
-22.5
 21
3.594001770019531
  0
LINE
  5
403
100
AcDbEntity
  8
0
  6
DASHED
 62
     7
100
AcDbLine
 10
-16.5
 20
4
 11
-22.5
 21
4
  0
LINE
  5
404
100
AcDbEntity
  8
0
  6
DASHED
 62
     7
100
AcDbLine
 10
-15.5
 20
3.593994140625
 11
-22.5
 21
3.593994140625
  0
LINE
  5
405
100
AcDbEntity
  8
0
  6
DASHED
 62
     7
100
AcDbLine
 10
-15.79681228241147
 20
3.59401362315672
 11
-16.50003505586424
 21
4.000019487997036
  0
LINE
  5
406
100
AcDbEntity
  8
0
  6
DASHED
 62
     7
100
AcDbLine
 10
-16.5
 20
4
 11
-16.5
 21
1.458000183105469
  0
LINE
  5
407
100
AcDbEntity
  8
0
  6
DASHED
 62
     7
100
AcDbLine
 10
-15.5
 20
3.594001770019531
 11
-15.5
 21
1.25
  0
LINE
  5
408
100
AcDbEntity
  8
0
  6
DASHED
 62
     7
100
AcDbLine
 10
-15.5
 20
-1.25
 11
-15.5
 21
-3.594001770019531
  0
LINE
  5
409
100
AcDbEntity
  8
0
  6
DASHED
 62
     7
100
AcDbLine
 10
-15.79679620688958
 20
-3.594010949199174
 11
-16.49999255134455
 21
-4.000001555250222
  0
LINE
  5
40a
100
AcDbEntity
  8
0
  6
DASHED
 62
     7
100
AcDbLine
 10
-15.5
 20
-3.593994140625
 11
-22.5
 21
-3.593994140625
  0
LINE
  5
40b
100
AcDbEntity
  8
0
  6
DASHED
 62
     7
100
AcDbLine
 10
-16.5
 20
-1.458000183105469
 11
-16.5
 21
-4
  0
LINE
  5
40c
100
AcDbEntity
  8
0
  6
DASHED
 62
     7
100
AcDbLine
 10
-16.5
 20
-4
 11
-22.5
 21
-4
  0
LINE
  5
40d
100
AcDbEntity
  8
0
  6
DASHED
 62
     7
100
AcDbLine
 10
-22.5
 20
-3.594001770019531
 11
-22.5
 21
-5
  0
LINE
  5
40e
100
AcDbEntity
  8
0
  6
DASHED
 62
     7
100
AcDbLine
 10
-11.10000610351563
 20
33.24999237060547
 11
-11.10000610351563
 21
32.24999237060547
  0
LINE
  5
40f
100
AcDbEntity
  8
0
  6
DASHED
 62
     7
100
AcDbLine
 10
11.10000610351563
 20
32.24999237060547
 11
-11.09999847412109
 21
32.24999237060547
  0
LINE
  5
410
100
AcDbEntity
  8
0
  6
DASHED
 62
     7
100
AcDbLine
 10
-8.126338431085712
 20
20.24999948797223
 11
-8.541603268615463
 21
32.14162911114373
  0
LINE
  5
411
100
AcDbEntity
  8
0
  6
DASHED
 62
     7
100
AcDbLine
 10
-7.450022602294082
 20
31.04995958503913
 11
-8.650019580901342
 21
32.24995656364639
  0
LINE
  5
412
100
AcDbEntity
  8
0
  6
DASHED
 62
     7
100
AcDbLine
 10
-7.450007046180639
 20
31.05000909947593
 11
-7.078754720429052
 21
20.24999929412529
  0
LINE
  5
413
100
AcDbEntity
  8
0
  6
DASHED
 62
     7
100
AcDbLine
 10
7.45001220703125
 20
31.05001068115234
 11
-7.449981689453125
 21
31.05001068115234
  0
LINE
  5
414
100
AcDbEntity
  8
0
  6
DASHED
 62
     7
100
AcDbLine
 10
11.10000610351563
 20
33.24999237060547
 11
11.10000610351563
 21
32.24999237060547
  0
LINE
  5
415
100
AcDbEntity
  8
0
  6
DASHED
 62
     7
100
AcDbLine
 10
8.126415831344696
 20
20.25000251062949
 11
8.54168073543995
 21
32.14163403998772
  0
LINE
  5
416
100
AcDbEntity
  8
0
  6
DASHED
 62
     7
100
AcDbLine
 10
7.450010464001712
 20
31.05001218430608
 11
8.650007442608972
 21
32.25000916291334
  0
LINE
  5
417
100
AcDbEntity
  8
0
  6
DASHED
 62
     7
100
AcDbLine
 10
7.078756482944691
 20
20.25000354059111
 11
7.450013651682312
 21
31.0499902777592
  0
LINE
  5
418
100
AcDbEntity
  8
0
  6
CONTINUOUS
 62
     7
100
AcDbLine
 10
-55
 20
15
 11
-38
 21
15
  0
LINE
  5
419
100
AcDbEntity
  8
0
  6
CENTER
 62
     3
100
AcDbLine
 10
-45
 20
31.5
 11
-45
 21
18.5
  0
LINE
  5
41a
100
AcDbEntity
  8
0
  6
CENTER
 62
     3
100
AcDbLine
 10
-51.5
 20
25
 11
-38.23362731933594
 21
25
  0
LINE
  5
41b
100
AcDbEntity
  8
0
  6
CONTINUOUS
 62
     7
100
AcDbLine
 10
-55
 20
31
 11
-55
 21
-31
  0
LINE
  5
41c
100
AcDbEntity
  8
0
  6
CONTINUOUS
 62
     7
100
AcDbLine
 10
-53
 20
33
 11
53
 21
33
  0
LINE
  5
41d
100
AcDbEntity
  8
0
  6
CONTINUOUS
 62
     7
100
AcDbLine
 10
-32
 20
33
 11
-32
 21
21
  0
LINE
  5
41e
100
AcDbEntity
  8
0
  6
CONTINUOUS
 62
     7
100
AcDbLine
 10
-24.00000285006112
 20
16.50000710908882
 11
-30.49519195946941
 21
20.2500019374292
  0
LINE
  5
41f
100
AcDbEntity
  8
0
  6
CONTINUOUS
 62
     7
100
AcDbLine
 10
-30.49520111083984
 20
20.24999618530273
 11
-30.49520111083984
 21
27.75
  0
LINE
  5
420
100
AcDbEntity
  8
0
  6
CENTER
 62
     3
100
AcDbLine
 10
-16.29999923706055
 20
24
 11
-31.70000076293945
 21
24
  0
LINE
  5
421
100
AcDbEntity
  8
0
  6
CONTINUOUS
 62
     7
100
AcDbLine
 10
-30.49519197602994
 20
27.75000045630955
 11
-24.00000034555428
 21
31.50000045477816
  0
LINE
  5
422
100
AcDbEntity
  8
0
  6
CENTER
 62
     3
100
AcDbLine
 10
-24
 20
31.70000076293945
 11
-24
 21
16.29999923706055
  0
LINE
  5
423
100
AcDbEntity
  8
0
  6
CONTINUOUS
 62
     7
100
AcDbLine
 10
-23.99999763062065
 20
31.50000332833289
 11
-17.50481312797088
 21
27.75000815024552
  0
LINE
  5
424
100
AcDbEntity
  8
0
  6
CONTINUOUS
 62
     7
100
AcDbLine
 10
-17.50481605529785
 20
27.75000190734863
 11
-17.50481605529785
 21
20.25000381469727
  0
LINE
  5
425
100
AcDbEntity
  8
0
  6
CONTINUOUS
 62
     7
100
AcDbLine
 10
-17.50480779459762
 20
20.25000617924122
 11
-23.99999516699006
 21
16.50000262025625
  0
LINE
  5
426
100
AcDbEntity
  8
0
  6
CONTINUOUS
 62
     7
100
AcDbLine
 10
17.50479888916016
 20
20.24999618530273
 11
17.50479888916016
 21
27.75
  0
LINE
  5
427
100
AcDbEntity
  8
0
  6
CENTER
 62
     3
100
AcDbLine
 10
31.70000076293945
 20
24
 11
16.29999923706055
 21
24
  0
LINE
  5
428
100
AcDbEntity
  8
0
  6
CONTINUOUS
 62
     7
100
AcDbLine
 10
17.50481137959669
 20
27.75000106091463
 11
24.00000218416613
 21
31.50000058254613
  0
LINE
  5
429
100
AcDbEntity
  8
0
  6
CONTINUOUS
 62
     7
100
AcDbLine
 10
24.00000480098154
 20
31.49999835577825
 11
30.49519219430322
 21
27.75000150876127
  0
LINE
  5
42a
100
AcDbEntity
  8
0
  6
CONTINUOUS
 62
     7
100
AcDbLine
 10
30.49518394470215
 20
27.75000190734863
 11
30.49518394470215
 21
20.25000381469727
  0
LINE
  5
42b
100
AcDbEntity
  8
0
  6
CONTINUOUS
 62
     7
100
AcDbLine
 10
30.49519157700817
 20
20.25000508297413
 11
24.00000337870985
 21
16.50000104715148
  0
LINE
  5
42c
100
AcDbEntity
  8
0
  6
CONTINUOUS
 62
     7
100
AcDbLine
 10
23.99999936421568
 20
16.50000985716823
 11
17.50481066776061
 21
20.25000444709024
  0
LINE
  5
42d
100
AcDbEntity
  8
0
  6
CONTINUOUS
 62
     7
100
AcDbLine
 10
32
 20
33
 11
32
 21
21
  0
LINE
  5
42e
100
AcDbEntity
  8
0
  6
CONTINUOUS
 62
     7
100
AcDbLine
 10
38
 20
15
 11
55
 21
15
  0
LINE
  5
42f
100
AcDbEntity
  8
0
  6
CENTER
 62
     3
100
AcDbLine
 10
45
 20
31.5
 11
45
 21
18.5
  0
LINE
  5
430
100
AcDbEntity
  8
0
  6
CENTER
 62
     3
100
AcDbLine
 10
38.5
 20
25
 11
51.76637268066406
 21
25
  0
LINE
  5
431
100
AcDbEntity
  8
0
  6
CONTINUOUS
 62
     7
100
AcDbLine
 10
55
 20
31
 11
55
 21
-31
  0
LINE
  5
432
100
AcDbEntity
  8
0
  6
CONTINUOUS
 62
     7
100
AcDbLine
 10
38
 20
-15
 11
55
 21
-15
  0
LINE
  5
433
100
AcDbEntity
  8
0
  6
CONTINUOUS
 62
     7
100
AcDbLine
 10
32
 20
-21
 11
32
 21
-33
  0
LINE
  5
434
100
AcDbEntity
  8
0
  6
CENTER
 62
     3
100
AcDbLine
 10
45
 20
-18.5
 11
45
 21
-31.5
  0
LINE
  5
435
100
AcDbEntity
  8
0
  6
CENTER
 62
     3
100
AcDbLine
 10
38.5
 20
-25
 11
51.76637268066406
 21
-25
  0
LINE
  5
436
100
AcDbEntity
  8
0
  6
CONTINUOUS
 62
     7
100
AcDbLine
 10
-53
 20
-33
 11
53
 21
-33
  0
LINE
  5
437
100
AcDbEntity
  8
0
  6
CONTINUOUS
 62
     7
100
AcDbLine
 10
30.49519252212348
 20
-27.7499944865481
 11
24.0000047367781
 21
-31.49999828395191
  0
LINE
  5
438
100
AcDbEntity
  8
0
  6
CONTINUOUS
 62
     7
100
AcDbLine
 10
23.99999815500807
 20
-31.49999778082598
 11
17.50480904559979
 21
-27.75000295248561
  0
LINE
  5
439
100
AcDbEntity
  8
0
  6
CENTER
 62
     3
100
AcDbLine
 10
24
 20
-16.29999923706055
 11
24
 21
-31.70000076293945
  0
LINE
  5
43a
100
AcDbEntity
  8
0
  6
CONTINUOUS
 62
     7
100
AcDbLine
 10
17.50479888916016
 20
-27.75000381469727
 11
17.50479888916016
 21
-20.25
  0
LINE
  5
43b
100
AcDbEntity
  8
0
  6
CENTER
 62
     3
100
AcDbLine
 10
31.70000076293945
 20
-24
 11
16.29999923706055
 21
-24
  0
LINE
  5
43c
100
AcDbEntity
  8
0
  6
CONTINUOUS
 62
     7
100
AcDbLine
 10
17.50480890187803
 20
-20.25000077066754
 11
24.00000053235369
 21
-16.50000077219894
  0
LINE
  5
43d
100
AcDbEntity
  8
0
  6
CONTINUOUS
 62
     7
100
AcDbLine
 10
24.00000285542515
 20
-16.50000169393102
 11
30.49518900988743
 21
-20.24999782569245
  0
LINE
  5
43e
100
AcDbEntity
  8
0
  6
CONTINUOUS
 62
     7
100
AcDbLine
 10
30.49518394470215
 20
-20.24999809265137
 11
30.49518394470215
 21
-27.74999618530273
  0
LINE
  5
43f
100
AcDbEntity
  8
0
  6
CENTER
 62
     3
100
AcDbLine
 10
-45
 20
-18.5
 11
-45
 21
-31.5
  0
LINE
  5
440
100
AcDbEntity
  8
0
  6
CENTER
 62
     3
100
AcDbLine
 10
-51.5
 20
-25
 11
-38.23362731933594
 21
-25
  0
LINE
  5
441
100
AcDbEntity
  8
0
  6
CONTINUOUS
 62
     7
100
AcDbLine
 10
-32
 20
-21
 11
-32
 21
-33
  0
LINE
  5
442
100
AcDbEntity
  8
0
  6
CONTINUOUS
 62
     7
100
AcDbLine
 10
-55
 20
-15
 11
-38
 21
-15
  0
LINE
  5
443
100
AcDbEntity
  8
0
  6
CONTINUOUS
 62
     7
100
AcDbLine
 10
-30.49519161840212
 20
-20.25000056419099
 11
-24.00000081383268
 21
-16.50000104255948
  0
LINE
  5
444
100
AcDbEntity
  8
0
  6
CONTINUOUS
 62
     7
100
AcDbLine
 10
-30.49520111083984
 20
-27.75000381469727
 11
-30.49520111083984
 21
-20.25
  0
LINE
  5
445
100
AcDbEntity
  8
0
  6
CENTER
 62
     3
100
AcDbLine
 10
-16.29999923706055
 20
-24
 11
-31.70000076293945
 21
-24
  0
LINE
  5
446
100
AcDbEntity
  8
0
  6
CONTINUOUS
 62
     7
100
AcDbLine
 10
-24.00000309703737
 20
-31.49999695491956
 11
-30.49519220644566
 21
-27.75000212657918
  0
LINE
  5
447
100
AcDbEntity
  8
0
  6
CONTINUOUS
 62
     7
100
AcDbLine
 10
-17.50480731775995
 20
-27.7499944865481
 11
-23.99999551605828
 21
-31.49999852237075
  0
LINE
  5
448
100
AcDbEntity
  8
0
  6
CONTINUOUS
 62
     7
100
AcDbLine
 10
-17.50481605529785
 20
-20.24999809265137
 11
-17.50481605529785
 21
-27.74999618530273
  0
LINE
  5
449
100
AcDbEntity
  8
0
  6
CONTINUOUS
 62
     7
100
AcDbLine
 10
-24.00000357396644
 20
-16.50000459942779
 11
-17.50481783245729
 21
-20.2500004927707
  0
LINE
  5
44a
100
AcDbEntity
  8
0
  6
CENTER
 62
     3
100
AcDbLine
 10
-24
 20
-16.29999923706055
 11
-24
 21
-31.70000076293945
  0
LINE
  5
44b
100
AcDbEntity
  8
0
  6
CENTER
 62
     3
100
AcDbLine
 10
24
 20
31.70000076293945
 11
24
 21
16.29999923706055
  0
LINE
  5
44c
100
AcDbEntity
  8
0
  6
DASHED
 62
     1
100
AcDbLine
 10
-14.10576629638672
 20
0.9599986076354981
 11
-14.10576629638672
 21
-0.9599986076354981
  0
LINE
  5
44d
100
AcDbEntity
  8
0
  6
DASHED
 62
     1
100
AcDbLine
 10
-19.10575807092016
 20
1.999999584720663
 11
-14.10575587077012
 21
0.9599967393604734
  0
LINE
  5
44e
100
AcDbEntity
  8
0
  6
DASHED
 62
     1
100
AcDbLine
 10
-19.10575858655037
 20
-1.999999019824485
 11
-14.10575605515428
 21
-0.9599977669910151
  0
LINE
  5
44f
100
AcDbEntity
  8
0
  6
DASHED
 62
     1
100
AcDbLine
 10
-19.10576629638672
 20
3.500000476837158
 11
-19.10576629638672
 21
-3.499999523162842
  0
LINE
  5
450
100
AcDbEntity
  8
0
  6
DASHED
 62
     1
100
AcDbLine
 10
-19.60576629638672
 20
-3.999999523162842
 11
-19.60576629638672
 21
4.000000476837158
  0
LINE
  5
451
100
AcDbEntity
  8
0
  6
DASHED
 62
     1
100
AcDbLine
 10
-19.10576488548013
 20
3.500002271549707
 11
-19.60576536161168
 21
4.000002874121937
  0
LINE
  5
452
100
AcDbEntity
  8
0
  6
DASHED
 62
     1
100
AcDbLine
 10
-23.10576629638672
 20
4.000000476837158
 11
-19.60576629638672
 21
4.000000476837158
  0
LINE
  5
453
100
AcDbEntity
  8
0
  6
DASHED
 62
     1
100
AcDbLine
 10
-24.60576629638672
 20
3.594000339508057
 11
-19.19976043701172
 21
3.594000339508057
  0
LINE
  5
454
100
AcDbEntity
  8
0
  6
DASHED
 62
     1
100
AcDbLine
 10
-23.10576629638672
 20
4.000000476837158
 11
-23.10576629638672
 21
-3.999999046325684
  0
LINE
  5
455
100
AcDbEntity
  8
0
  6
DASHED
 62
     1
100
AcDbLine
 10
-24.60576629638672
 20
4.900002002716065
 11
-24.60576629638672
 21
-4.899998664855957
  0
LINE
  5
456
100
AcDbEntity
  8
0
  6
DASHED
 62
     1
100
AcDbLine
 10
-25.30576324462891
 20
4.900000095367432
 11
-24.60576629638672
 21
4.900000095367432
  0
LINE
  5
457
100
AcDbEntity
  8
0
  6
DASHED
 62
     1
100
AcDbLine
 10
-25.30576324462891
 20
5.000001430511475
 11
-25.30576324462891
 21
-4.999998569488525
  0
LINE
  5
458
100
AcDbEntity
  8
0
  6
DASHED
 62
     1
100
AcDbLine
 10
-26.90576171875
 20
5.000000476837158
 11
-25.30576324462891
 21
5.000000476837158
  0
LINE
  5
459
100
AcDbEntity
  8
0
  6
DASHED
 62
     1
100
AcDbLine
 10
-26.90576171875
 20
5.000002384185791
 11
-26.90576171875
 21
-4.999998092651367
  0
LINE
  5
45a
100
AcDbEntity
  8
0
  6
DASHED
 62
     1
100
AcDbLine
 10
-26.90576171875
 20
3.799999713897705
 11
-25.30576324462891
 21
3.799999713897705
  0
LINE
  5
45b
100
AcDbEntity
  8
0
  6
DASHED
 62
     1
100
AcDbLine
 10
-26.90576171875
 20
-3.799999952316284
 11
-25.30576324462891
 21
-3.799999952316284
  0
LINE
  5
45c
100
AcDbEntity
  8
0
  6
DASHED
 62
     1
100
AcDbLine
 10
-26.90576171875
 20
-5
 11
-25.30576324462891
 21
-5
  0
LINE
  5
45d
100
AcDbEntity
  8
0
  6
DASHED
 62
     1
100
AcDbLine
 10
-25.30576324462891
 20
-4.900000095367432
 11
-24.60576629638672
 21
-4.900000095367432
  0
LINE
  5
45e
100
AcDbEntity
  8
0
  6
DASHED
 62
     1
100
AcDbLine
 10
-27.60576629638672
 20
-4.900000095367432
 11
-26.90576171875
 21
-4.900000095367432
  0
LINE
  5
45f
100
AcDbEntity
  8
0
  6
DASHED
 62
     1
100
AcDbLine
 10
-24.60576629638672
 20
-3.594000101089478
 11
-19.19976043701172
 21
-3.594000101089478
  0
LINE
  5
460
100
AcDbEntity
  8
0
  6
DASHED
 62
     1
100
AcDbLine
 10
-23.10576629638672
 20
-4
 11
-19.60576629638672
 21
-4
  0
LINE
  5
461
100
AcDbEntity
  8
0
  6
DASHED
 62
     1
100
AcDbLine
 10
-19.60577013474237
 20
-3.999998074244704
 11
-19.10576953217014
 21
-3.499997598113154
  0
LINE
  5
462
100
AcDbEntity
  8
0
  6
DASHED
 62
     1
100
AcDbLine
 10
-27.60576629638672
 20
4.900000095367432
 11
-26.90576171875
 21
4.900000095367432
  0
LINE
  5
463
100
AcDbEntity
  8
0
  6
DASHED
 62
     1
100
AcDbLine
 10
-27.60576629638672
 20
4.900002002716065
 11
-27.60576629638672
 21
-4.899998188018799
  0
LINE
  5
464
100
AcDbEntity
  8
0
  6
DASHED
 62
     7
100
AcDbLine
 10
-29.60575866699219
 20
-5.000007629394531
 11
-29.60575866699219
 21
4.999992847442627
  0
LINE
  5
465
100
AcDbEntity
  8
0
  6
DASHED
 62
     7
100
AcDbLine
 10
-30.10575866699219
 20
-5.000007629394531
 11
-30.10575866699219
 21
4.999992847442627
  0
ARC
  5
466
100
AcDbEntity
  8
0
  6
DASHED
 62
     7
100
AcDbCircle
 10
-28
 20
27.99999237060547
 40
5
100
AcDbArc
 50
90.000036655424
 51
180.0000186693354
  0
ARC
  5
467
100
AcDbEntity
  8
0
  6
DASHED
 62
     7
100
AcDbCircle
 10
28
 20
27.99999237060547
 40
5
100
AcDbArc
 50
0
 51
90.000036655424
  0
ARC
  5
468
100
AcDbEntity
  8
0
  6
DASHED
 62
     7
100
AcDbCircle
 10
28
 20
-28
 40
5
100
AcDbArc
 50
270.0000453068467
 51
360
  0
ARC
  5
469
100
AcDbEntity
  8
0
  6
DASHED
 62
     7
100
AcDbCircle
 10
-28
 20
-28
 40
5
100
AcDbArc
 50
180.0000359721794
 51
270.00001798609
  0
CIRCLE
  5
46a
100
AcDbEntity
  8
0
  6
CONTINUOUS
 62
     7
100
AcDbCircle
 10
0
 20
0
 40
20
  0
CIRCLE
  5
46b
100
AcDbEntity
  8
0
  6
CONTINUOUS
 62
     7
100
AcDbCircle
 10
-45
 20
25
 40
4.5
  0
ARC
  5
46c
100
AcDbEntity
  8
0
  6
CONTINUOUS
 62
     7
100
AcDbCircle
 10
-53
 20
31
 40
2
100
AcDbArc
 50
89.99998201391055
 51
180.0000186693354
  0
ARC
  5
46d
100
AcDbEntity
  8
0
  6
CONTINUOUS
 62
     7
100
AcDbCircle
 10
-38
 20
21
 40
6
100
AcDbArc
 50
270.0000179860901
 51
360
  0
CIRCLE
  5
46e
100
AcDbEntity
  8
0
  6
CONTINUOUS
 62
     7
100
AcDbCircle
 10
-24
 20
24
 40
7.699999809265137
  0
CIRCLE
  5
46f
100
AcDbEntity
  8
0
  6
CONTINUOUS
 62
     7
100
AcDbCircle
 10
-24
 20
24.00000190734863
 40
6.495190143585205
  0
CIRCLE
  5
470
100
AcDbEntity
  8
0
  6
CONTINUOUS
 62
     7
100
AcDbCircle
 10
24
 20
24
 40
7.699999809265137
  0
CIRCLE
  5
471
100
AcDbEntity
  8
0
  6
CONTINUOUS
 62
     7
100
AcDbCircle
 10
24
 20
24.00000190734863
 40
6.495190143585205
  0
ARC
  5
472
100
AcDbEntity
  8
0
  6
CONTINUOUS
 62
     7
100
AcDbCircle
 10
38
 20
21
 40
6
100
AcDbArc
 50
179.9999813306653
 51
269.9999974955226
  0
CIRCLE
  5
473
100
AcDbEntity
  8
0
  6
CONTINUOUS
 62
     7
100
AcDbCircle
 10
45
 20
25
 40
4.5
  0
ARC
  5
474
100
AcDbEntity
  8
0
  6
CONTINUOUS
 62
     7
100
AcDbCircle
 10
53
 20
31
 40
2
100
AcDbArc
 50
0
 51
89.99998201391055
  0
ARC
  5
475
100
AcDbEntity
  8
0
  6
CONTINUOUS
 62
     7
100
AcDbCircle
 10
38
 20
-21
 40
6
100
AcDbArc
 50
89.99998201391063
 51
179.9999640278213
  0
ARC
  5
476
100
AcDbEntity
  8
0
  6
CONTINUOUS
 62
     7
100
AcDbCircle
 10
53
 20
-31
 40
2
100
AcDbArc
 50
270.0000179860901
 51
360
  0
CIRCLE
  5
477
100
AcDbEntity
  8
0
  6
CONTINUOUS
 62
     7
100
AcDbCircle
 10
45
 20
-25
 40
4.5
  0
CIRCLE
  5
478
100
AcDbEntity
  8
0
  6
CONTINUOUS
 62
     7
100
AcDbCircle
 10
24
 20
-24
 40
7.699999809265137
  0
CIRCLE
  5
479
100
AcDbEntity
  8
0
  6
CONTINUOUS
 62
     7
100
AcDbCircle
 10
24
 20
-23.99999809265137
 40
6.495190143585205
  0
ARC
  5
47a
100
AcDbEntity
  8
0
  6
CONTINUOUS
 62
     7
100
AcDbCircle
 10
-53
 20
-31
 40
2
100
AcDbArc
 50
180.0000223118011
 51
269.9999974955226
  0
CIRCLE
  5
47b
100
AcDbEntity
  8
0
  6
CONTINUOUS
 62
     7
100
AcDbCircle
 10
-45
 20
-25
 40
4.5
  0
ARC
  5
47c
100
AcDbEntity
  8
0
  6
CONTINUOUS
 62
     7
100
AcDbCircle
 10
-38
 20
-21
 40
6
100
AcDbArc
 50
0
 51
89.99998201391063
  0
CIRCLE
  5
47d
100
AcDbEntity
  8
0
  6
CONTINUOUS
 62
     7
100
AcDbCircle
 10
-24
 20
-24
 40
7.699999809265137
  0
CIRCLE
  5
47e
100
AcDbEntity
  8
0
  6
CONTINUOUS
 62
     7
100
AcDbCircle
 10
-24
 20
-23.99999809265137
 40
6.495190143585205
  0
MTEXT
  5
47f
100
AcDbEntity
  8
0
  6
CONTINUOUS
 62
     7
100
AcDbMText
 10
4.049312725663185
 20
-24.4278736114502
 40
0.5
 41
34
 71
     7
 72
     1
  1
{\W0.842735;ＢＮ－６１０５－ＦＢ－５０－Ｂ－＊}
  0
INSERT
  5
480
100
AcDbEntity
  8
0
  6
CONTINUOUS
 62
     3
100
AcDbBlockReference
  2
KOZU0009
 10
0
 20
0
  0
ENDBLK
  8
0
  5
481
100
AcDbEntity
100
AcDbBlockEnd
  0
BLOCK
  8
0
  5
482
100
AcDbEntity
100
AcDbBlockBegin
  2
KOZU0004
 70
    64
 10
0
 20
0
  0
POINT
  5
483
100
AcDbEntity
  8
0
  6
CONTINUOUS
 62
     7
100
AcDbPoint
 10
0
 20
0
  0
LINE
  5
484
100
AcDbEntity
  8
0
  6
CENTER
 62
     3
100
AcDbLine
 10
0
 20
36.22138595581055
 11
0
 21
-36.0577392578125
  0
LINE
  5
485
100
AcDbEntity
  8
0
  6
CENTER
 62
     3
100
AcDbLine
 10
-58.97499847412109
 20
0
 11
58.27499771118164
 21
0
  0
LINE
  5
486
100
AcDbEntity
  8
0
  6
CONTINUOUS
 62
     7
100
AcDbLine
 10
-13.5
 20
7.794227600097656
 11
-13.5
 21
-7.794227600097656
  0
LINE
  5
487
100
AcDbEntity
  8
0
  6
CONTINUOUS
 62
     7
100
AcDbLine
 10
-13.50005542946428
 20
7.794219687270222
 11
-7.049541367720735e-005
 21
15.5884397628927
  0
LINE
  5
488
100
AcDbEntity
  8
0
  6
CONTINUOUS
 62
     7
100
AcDbLine
 10
-1.083587008920972e-005
 20
15.58845148086807
 11
13.50000052717831
 21
7.794216146456323
  0
LINE
  5
489
100
AcDbEntity
  8
0
  6
CONTINUOUS
 62
     7
100
AcDbLine
 10
13.5
 20
7.794227600097656
 11
13.5
 21
-7.794227600097656
  0
LINE
  5
48a
100
AcDbEntity
  8
0
  6
CONTINUOUS
 62
     7
100
AcDbLine
 10
4.025171856092413e-005
 20
-15.58844841443252
 11
13.50002518576916
 21
-7.79422833881004
  0
LINE
  5
48b
100
AcDbEntity
  8
0
  6
CONTINUOUS
 62
     7
100
AcDbLine
 10
-13.50004010466298
 20
-7.794284696669367
 11
-2.874161457455671e-005
 21
-15.58852003108111
  0
LINE
  5
48c
100
AcDbEntity
  8
0
  6
DASHED
 62
     7
100
AcDbLine
 10
15.5
 20
-1.25
 11
15.5
 21
-3.594001770019531
  0
LINE
  5
48d
100
AcDbEntity
  8
0
  6
DASHED
 62
     7
100
AcDbLine
 10
16.5
 20
-1.458000183105469
 11
16.5
 21
-4
  0
LINE
  5
48e
100
AcDbEntity
  8
0
  6
DASHED
 62
     7
100
AcDbLine
 10
15.5
 20
-3.593994140625
 11
22.5
 21
-3.593994140625
  0
LINE
  5
48f
100
AcDbEntity
  8
0
  6
DASHED
 62
     7
100
AcDbLine
 10
15.79676987936866
 20
-3.594026032224524
 11
16.49997943832252
 21
-4.000024267670206
  0
LINE
  5
490
100
AcDbEntity
  8
0
  6
DASHED
 62
     7
100
AcDbLine
 10
16.5
 20
-4
 11
22.5
 21
-4
  0
LINE
  5
491
100
AcDbEntity
  8
0
  6
DASHED
 62
     7
100
AcDbLine
 10
22.5
 20
-3.594001770019531
 11
22.5
 21
-5
  0
LINE
  5
492
100
AcDbEntity
  8
0
  6
DASHED
 62
     7
100
AcDbLine
 10
22.5
 20
-5
 11
32
 21
-5
  0
LINE
  5
493
100
AcDbEntity
  8
0
  6
DASHED
 62
     7
100
AcDbLine
 10
32.50004607927201
 20
-5.499950615130272
 11
32.00004551884667
 21
-4.999950096851825
  0
LINE
  5
494
100
AcDbEntity
  8
0
  6
DASHED
 62
     7
100
AcDbLine
 10
32.5
 20
7.000007629394531
 11
32.5
 21
-6.999992370605469
  0
LINE
  5
495
100
AcDbEntity
  8
0
  6
DASHED
 62
     7
100
AcDbLine
 10
32.5
 20
-7
 11
33
 21
-7
  0
LINE
  5
496
100
AcDbEntity
  8
0
  6
CONTINUOUS
 62
     7
100
AcDbLine
 10
33
 20
28.00000762939453
 11
33
 21
-27.99999237060547
  0
LINE
  5
497
100
AcDbEntity
  8
0
  6
DASHED
 62
     7
100
AcDbLine
 10
32.5
 20
7
 11
33
 21
7
  0
LINE
  5
498
100
AcDbEntity
  8
0
  6
DASHED
 62
     7
100
AcDbLine
 10
32.50002315138738
 20
5.499973543016829
 11
32.00003338055572
 21
4.999983814331145
  0
LINE
  5
499
100
AcDbEntity
  8
0
  6
DASHED
 62
     7
100
AcDbLine
 10
22.5
 20
5
 11
32
 21
5
  0
LINE
  5
49a
100
AcDbEntity
  8
0
  6
DASHED
 62
     7
100
AcDbLine
 10
22.5
 20
5
 11
22.5
 21
3.594001770019531
  0
LINE
  5
49b
100
AcDbEntity
  8
0
  6
DASHED
 62
     7
100
AcDbLine
 10
15.5
 20
3.593994140625
 11
22.5
 21
3.593994140625
  0
LINE
  5
49c
100
AcDbEntity
  8
0
  6
DASHED
 62
     7
100
AcDbLine
 10
16.5
 20
4
 11
22.5
 21
4
  0
LINE
  5
49d
100
AcDbEntity
  8
0
  6
DASHED
 62
     7
100
AcDbLine
 10
16.5
 20
4
 11
16.5
 21
1.458000183105469
  0
LINE
  5
49e
100
AcDbEntity
  8
0
  6
DASHED
 62
     7
100
AcDbLine
 10
15.79681800445745
 20
3.594003712282546
 11
16.50004077791021
 21
4.000009577122861
  0
LINE
  5
49f
100
AcDbEntity
  8
0
  6
DASHED
 62
     7
100
AcDbLine
 10
15.5
 20
3.594001770019531
 11
15.5
 21
1.25
  0
LINE
  5
4a0
100
AcDbEntity
  8
0
  6
CONTINUOUS
 62
     7
100
AcDbLine
 10
28.5
 20
11
 11
29
 21
11
  0
LINE
  5
4a1
100
AcDbEntity
  8
0
  6
CONTINUOUS
 62
     7
100
AcDbLine
 10
-53
 20
32.99999237060547
 11
53
 21
32.99999237060547
  0
LINE
  5
4a2
100
AcDbEntity
  8
0
  6
CONTINUOUS
 62
     7
100
AcDbLine
 10
25
 20
33.24999237060547
 11
25
 21
33.00000762939453
  0
LINE
  5
4a3
100
AcDbEntity
  8
0
  6
CONTINUOUS
 62
     7
100
AcDbLine
 10
-25
 20
33.24999237060547
 11
-25
 21
33.00000762939453
  0
LINE
  5
4a4
100
AcDbEntity
  8
0
  6
CONTINUOUS
 62
     7
100
AcDbLine
 10
-33
 20
28.00000762939453
 11
-33
 21
-27.99999237060547
  0
LINE
  5
4a5
100
AcDbEntity
  8
0
  6
CONTINUOUS
 62
     7
100
AcDbLine
 10
-26.5
 20
13.5
 11
-26.5
 21
13.00000762939453
  0
LINE
  5
4a6
100
AcDbEntity
  8
0
  6
CONTINUOUS
 62
     7
100
AcDbLine
 10
-25
 20
15
 11
-21
 21
15
  0
LINE
  5
4a7
100
AcDbEntity
  8
0
  6
CONTINUOUS
 62
     7
100
AcDbLine
 10
-15
 20
25.00000762939453
 11
-15
 21
20.99999237060547
  0
LINE
  5
4a8
100
AcDbEntity
  8
0
  6
CONTINUOUS
 62
     7
100
AcDbLine
 10
-13.5
 20
26.49999237060547
 11
-13
 21
26.49999237060547
  0
LINE
  5
4a9
100
AcDbEntity
  8
0
  6
CONTINUOUS
 62
     7
100
AcDbLine
 10
-11
 20
28.99999237060547
 11
-11
 21
28.50000762939453
  0
LINE
  5
4aa
100
AcDbEntity
  8
0
  6
CONTINUOUS
 62
     7
100
AcDbLine
 10
-9.5
 20
30.49999237060547
 11
9.5
 21
30.49999237060547
  0
LINE
  5
4ab
100
AcDbEntity
  8
0
  6
CONTINUOUS
 62
     7
100
AcDbLine
 10
-15
 20
22.99999237060547
 11
-5.899993896484375
 21
22.99999237060547
  0
LINE
  5
4ac
100
AcDbEntity
  8
0
  6
CONTINUOUS
 62
     7
100
AcDbLine
 10
-12.5
 20
23.00000762939453
 11
-12.5
 21
15.48418426513672
  0
LINE
  5
4ad
100
AcDbEntity
  8
0
  6
CONTINUOUS
 62
     7
100
AcDbLine
 10
-15.42904758045629
 20
17.19674018638188
 11
-13.80877436679076
 21
15.57646697271636
  0
LINE
  5
4ae
100
AcDbEntity
  8
0
  6
CONTINUOUS
 62
     7
100
AcDbLine
 10
-17.19680433388531
 20
15.42900501213929
 11
-15.57653112021979
 21
13.80873179847376
  0
LINE
  5
4af
100
AcDbEntity
  8
0
  6
CONTINUOUS
 62
     7
100
AcDbLine
 10
-29
 20
11
 11
-28.5
 21
11
  0
LINE
  5
4b0
100
AcDbEntity
  8
0
  6
CONTINUOUS
 62
     7
100
AcDbLine
 10
-30.5
 20
9.500007629394531
 11
-30.5
 21
-9.5
  0
LINE
  5
4b1
100
AcDbEntity
  8
0
  6
CONTINUOUS
 62
     7
100
AcDbLine
 10
-29.5
 20
6.5
 11
-19.5079345703125
 21
6.5
  0
LINE
  5
4b2
100
AcDbEntity
  8
0
  6
CONTINUOUS
 62
     7
100
AcDbLine
 10
-29.5
 20
1.25
 11
-20.77853393554688
 21
1.25
  0
LINE
  5
4b3
100
AcDbEntity
  8
0
  6
CONTINUOUS
 62
     7
100
AcDbLine
 10
-29.5
 20
-1.25
 11
-20.77853393554688
 21
-1.25
  0
LINE
  5
4b4
100
AcDbEntity
  8
0
  6
CONTINUOUS
 62
     7
100
AcDbLine
 10
-29.5
 20
-6.5
 11
-19.5079345703125
 21
-6.5
  0
LINE
  5
4b5
100
AcDbEntity
  8
0
  6
CONTINUOUS
 62
     7
100
AcDbLine
 10
-29
 20
-11
 11
-28.5
 21
-11
  0
LINE
  5
4b6
100
AcDbEntity
  8
0
  6
CONTINUOUS
 62
     7
100
AcDbLine
 10
-25
 20
-15
 11
-21
 21
-15
  0
LINE
  5
4b7
100
AcDbEntity
  8
0
  6
CONTINUOUS
 62
     7
100
AcDbLine
 10
-26.5
 20
-13
 11
-26.5
 21
-13.5
  0
LINE
  5
4b8
100
AcDbEntity
  8
0
  6
CONTINUOUS
 62
     7
100
AcDbLine
 10
-17.19675291473013
 20
-15.42899169373516
 11
-15.57647970106461
 21
-13.80871848006964
  0
LINE
  5
4b9
100
AcDbEntity
  8
0
  6
CONTINUOUS
 62
     7
100
AcDbLine
 10
-15.42903485210804
 20
-17.19679607310301
 11
-13.80876163844251
 21
-15.57652285943748
  0
LINE
  5
4ba
100
AcDbEntity
  8
0
  6
CONTINUOUS
 62
     7
100
AcDbLine
 10
-15
 20
-21
 11
-15
 21
-24.99999237060547
  0
LINE
  5
4bb
100
AcDbEntity
  8
0
  6
CONTINUOUS
 62
     7
100
AcDbLine
 10
-13.5
 20
-26.5
 11
-13
 21
-26.5
  0
LINE
  5
4bc
100
AcDbEntity
  8
0
  6
CONTINUOUS
 62
     7
100
AcDbLine
 10
-1.25
 20
-20.77852630615234
 11
-1.25
 21
-29.5
  0
LINE
  5
4bd
100
AcDbEntity
  8
0
  6
CONTINUOUS
 62
     7
100
AcDbLine
 10
1.25
 20
-20.77852630615234
 11
1.25
 21
-29.5
  0
LINE
  5
4be
100
AcDbEntity
  8
0
  6
CONTINUOUS
 62
     7
100
AcDbLine
 10
13.80874258806698
 20
-15.57654190981301
 11
15.42902659132573
 21
-17.19682591307175
  0
LINE
  5
4bf
100
AcDbEntity
  8
0
  6
CONTINUOUS
 62
     7
100
AcDbLine
 10
15.57648855190279
 20
-13.8087959459772
 11
17.19677255516154
 21
-15.42907994923594
  0
LINE
  5
4c0
100
AcDbEntity
  8
0
  6
CONTINUOUS
 62
     7
100
AcDbLine
 10
21
 20
-15
 11
25
 21
-15
  0
LINE
  5
4c1
100
AcDbEntity
  8
0
  6
CONTINUOUS
 62
     7
100
AcDbLine
 10
26.5
 20
-12.99999237060547
 11
26.5
 21
-13.5
  0
LINE
  5
4c2
100
AcDbEntity
  8
0
  6
CONTINUOUS
 62
     7
100
AcDbLine
 10
28.49725341796875
 20
-11
 11
29
 21
-11
  0
LINE
  5
4c3
100
AcDbEntity
  8
0
  6
CONTINUOUS
 62
     7
100
AcDbLine
 10
26.5
 20
13.5
 11
26.5
 21
13.00000762939453
  0
LINE
  5
4c4
100
AcDbEntity
  8
0
  6
CONTINUOUS
 62
     7
100
AcDbLine
 10
21
 20
15
 11
25
 21
15
  0
LINE
  5
4c5
100
AcDbEntity
  8
0
  6
CONTINUOUS
 62
     7
100
AcDbLine
 10
15.57652285943748
 20
13.80876163844251
 11
17.19679607310301
 21
15.42903485210804
  0
LINE
  5
4c6
100
AcDbEntity
  8
0
  6
CONTINUOUS
 62
     7
100
AcDbLine
 10
15
 20
25.00000762939453
 11
15
 21
20.99999237060547
  0
LINE
  5
4c7
100
AcDbEntity
  8
0
  6
CONTINUOUS
 62
     7
100
AcDbLine
 10
13
 20
26.49999237060547
 11
13.5
 21
26.49999237060547
  0
LINE
  5
4c8
100
AcDbEntity
  8
0
  6
CONTINUOUS
 62
     7
100
AcDbLine
 10
11
 20
28.99999237060547
 11
11
 21
28.50000762939453
  0
LINE
  5
4c9
100
AcDbEntity
  8
0
  6
CONTINUOUS
 62
     7
100
AcDbLine
 10
5.899993896484375
 20
22.99999237060547
 11
15
 21
22.99999237060547
  0
LINE
  5
4ca
100
AcDbEntity
  8
0
  6
CONTINUOUS
 62
     7
100
AcDbLine
 10
12.5
 20
23.00000762939453
 11
12.5
 21
15.48418426513672
  0
LINE
  5
4cb
100
AcDbEntity
  8
0
  6
CONTINUOUS
 62
     7
100
AcDbLine
 10
13.80880479681539
 20
15.57656601781036
 11
15.42907801048091
 21
17.19683923147588
  0
LINE
  5
4cc
100
AcDbEntity
  8
0
  6
CONTINUOUS
 62
     7
100
AcDbLine
 10
15
 20
-21
 11
15
 21
-24.99999237060547
  0
LINE
  5
4cd
100
AcDbEntity
  8
0
  6
CONTINUOUS
 62
     7
100
AcDbLine
 10
13
 20
-26.5
 11
13.5
 21
-26.5
  0
LINE
  5
4ce
100
AcDbEntity
  8
0
  6
CONTINUOUS
 62
     7
100
AcDbLine
 10
11
 20
-28.49999237060547
 11
11
 21
-29
  0
LINE
  5
4cf
100
AcDbEntity
  8
0
  6
CONTINUOUS
 62
     7
100
AcDbLine
 10
-9.5
 20
-30.5
 11
9.5
 21
-30.5
  0
LINE
  5
4d0
100
AcDbEntity
  8
0
  6
CONTINUOUS
 62
     7
100
AcDbLine
 10
-11
 20
-28.49999237060547
 11
-11
 21
-29
  0
LINE
  5
4d1
100
AcDbEntity
  8
0
  6
CONTINUOUS
 62
     7
100
AcDbLine
 10
30.5
 20
9.500007629394531
 11
30.5
 21
-9.5
  0
LINE
  5
4d2
100
AcDbEntity
  8
0
  6
CONTINUOUS
 62
     7
100
AcDbLine
 10
29.5
 20
-6.5
 11
19.5079345703125
 21
-6.5
  0
LINE
  5
4d3
100
AcDbEntity
  8
0
  6
CONTINUOUS
 62
     7
100
AcDbLine
 10
29.5
 20
-1.25
 11
20.77853393554688
 21
-1.25
  0
LINE
  5
4d4
100
AcDbEntity
  8
0
  6
CONTINUOUS
 62
     7
100
AcDbLine
 10
29.5
 20
1.25
 11
20.77853393554688
 21
1.25
  0
LINE
  5
4d5
100
AcDbEntity
  8
0
  6
CONTINUOUS
 62
     7
100
AcDbLine
 10
29.5
 20
6.5
 11
19.5079345703125
 21
6.5
  0
LINE
  5
4d6
100
AcDbEntity
  8
0
  6
CENTER
 62
     3
100
AcDbLine
 10
-31.25
 20
23.99999237060547
 11
-16.75
 21
23.99999237060547
  0
LINE
  5
4d7
100
AcDbEntity
  8
0
  6
CENTER
 62
     3
100
AcDbLine
 10
-31.25
 20
-24
 11
-16.75
 21
-24
  0
LINE
  5
4d8
100
AcDbEntity
  8
0
  6
CENTER
 62
     3
100
AcDbLine
 10
-24
 20
31.24999237060547
 11
-24
 21
16.74999237060547
  0
LINE
  5
4d9
100
AcDbEntity
  8
0
  6
CENTER
 62
     3
100
AcDbLine
 10
24
 20
31.24999237060547
 11
24
 21
16.74999237060547
  0
LINE
  5
4da
100
AcDbEntity
  8
0
  6
CENTER
 62
     3
100
AcDbLine
 10
-24
 20
-16.75
 11
-24
 21
-31.25
  0
LINE
  5
4db
100
AcDbEntity
  8
0
  6
CENTER
 62
     3
100
AcDbLine
 10
24
 20
-16.75
 11
24
 21
-31.25
  0
LINE
  5
4dc
100
AcDbEntity
  8
0
  6
CENTER
 62
     3
100
AcDbLine
 10
16.75
 20
-24
 11
31.25
 21
-24
  0
LINE
  5
4dd
100
AcDbEntity
  8
0
  6
CENTER
 62
     3
100
AcDbLine
 10
16.75
 20
23.99999237060547
 11
31.25
 21
23.99999237060547
  0
LINE
  5
4de
100
AcDbEntity
  8
0
  6
CONTINUOUS
 62
     7
100
AcDbLine
 10
28
 20
-21.0840950012207
 11
28
 21
-26.9159049987793
  0
LINE
  5
4df
100
AcDbEntity
  8
0
  6
CONTINUOUS
 62
     7
100
AcDbLine
 10
20
 20
-21.0840950012207
 11
20
 21
-26.9159049987793
  0
LINE
  5
4e0
100
AcDbEntity
  8
0
  6
CONTINUOUS
 62
     7
100
AcDbLine
 10
24.00000462043986
 20
-28.70000993634886
 11
20.00000502851025
 21
-26.915915646408
  0
LINE
  5
4e1
100
AcDbEntity
  8
0
  6
CONTINUOUS
 62
     7
100
AcDbLine
 10
20.00000502851025
 20
-21.08408342581599
 11
24.00000287850509
 21
-19.29998991281918
  0
LINE
  5
4e2
100
AcDbEntity
  8
0
  6
CONTINUOUS
 62
     7
100
AcDbLine
 10
24.00000822251621
 20
-19.30000457948395
 11
28.00000385022867
 21
-21.08409839249187
  0
LINE
  5
4e3
100
AcDbEntity
  8
0
  6
CONTINUOUS
 62
     7
100
AcDbLine
 10
28.00000496244346
 20
-26.91590229301201
 11
24.00000759279644
 21
-28.69999688296445
  0
LINE
  5
4e4
100
AcDbEntity
  8
0
  6
CONTINUOUS
 62
     7
100
AcDbLine
 10
28
 20
26.91589736938477
 11
28
 21
21.08408737182617
  0
LINE
  5
4e5
100
AcDbEntity
  8
0
  6
CONTINUOUS
 62
     7
100
AcDbLine
 10
20
 20
26.91589736938477
 11
20
 21
21.08408737182617
  0
LINE
  5
4e6
100
AcDbEntity
  8
0
  6
CONTINUOUS
 62
     7
100
AcDbLine
 10
24.00000403154249
 20
19.29998313312677
 11
20.00000618154764
 21
21.08407664612357
  0
LINE
  5
4e7
100
AcDbEntity
  8
0
  6
CONTINUOUS
 62
     7
100
AcDbLine
 10
20.0000046524169
 20
26.91590712478082
 11
24.00000424434651
 21
28.70000141472167
  0
LINE
  5
4e8
100
AcDbEntity
  8
0
  6
CONTINUOUS
 62
     7
100
AcDbLine
 10
24.0000079688875
 20
28.69998836133716
 11
28.00000533853451
 21
26.91589377138472
  0
LINE
  5
4e9
100
AcDbEntity
  8
0
  6
CONTINUOUS
 62
     7
100
AcDbLine
 10
28.00000327990149
 20
21.08409030634822
 11
24.00000765218903
 21
19.2999964933403
  0
LINE
  5
4ea
100
AcDbEntity
  8
0
  6
CONTINUOUS
 62
     7
100
AcDbLine
 10
-20
 20
26.91589736938477
 11
-20
 21
21.08408737182617
  0
LINE
  5
4eb
100
AcDbEntity
  8
0
  6
CONTINUOUS
 62
     7
100
AcDbLine
 10
-28
 20
26.91589736938477
 11
-28
 21
21.08408737182617
  0
LINE
  5
4ec
100
AcDbEntity
  8
0
  6
CONTINUOUS
 62
     7
100
AcDbLine
 10
-23.99999697685229
 20
19.29998347458712
 11
-27.99999482684713
 21
21.08407698758393
  0
LINE
  5
4ed
100
AcDbEntity
  8
0
  6
CONTINUOUS
 62
     7
100
AcDbLine
 10
-27.9999935488397
 20
26.91590751325283
 11
-23.99999569884486
 21
28.70000102624965
  0
LINE
  5
4ee
100
AcDbEntity
  8
0
  6
CONTINUOUS
 62
     7
100
AcDbLine
 10
-23.99999576500187
 20
28.69999083320486
 11
-19.99999665342029
 21
26.9158954663079
  0
LINE
  5
4ef
100
AcDbEntity
  8
0
  6
CONTINUOUS
 62
     7
100
AcDbLine
 10
-19.99999561665645
 20
21.08409103628136
 11
-23.99999298630347
 21
19.29999644632892
  0
LINE
  5
4f0
100
AcDbEntity
  8
0
  6
CONTINUOUS
 62
     7
100
AcDbLine
 10
-20
 20
-21.0840950012207
 11
-20
 21
-26.9159049987793
  0
LINE
  5
4f1
100
AcDbEntity
  8
0
  6
CONTINUOUS
 62
     7
100
AcDbLine
 10
-28
 20
-21.0840950012207
 11
-28
 21
-26.9159049987793
  0
LINE
  5
4f2
100
AcDbEntity
  8
0
  6
CONTINUOUS
 62
     7
100
AcDbLine
 10
-23.9999961937189
 20
-28.70000915940481
 11
-27.99999404371375
 21
-26.915915646408
  0
LINE
  5
4f3
100
AcDbEntity
  8
0
  6
CONTINUOUS
 62
     7
100
AcDbLine
 10
-27.99999210754296
 20
-21.08408308435563
 11
-23.99999599948289
 21
-19.29999034830288
  0
LINE
  5
4f4
100
AcDbEntity
  8
0
  6
CONTINUOUS
 62
     7
100
AcDbLine
 10
-23.99999435214698
 20
-19.30000419101169
 11
-19.99999698249996
 21
-21.08409878096413
  0
LINE
  5
4f5
100
AcDbEntity
  8
0
  6
CONTINUOUS
 62
     7
100
AcDbLine
 10
-19.99999528757678
 20
-26.91590321099067
 11
-23.9999926572238
 21
-28.69999780094311
  0
LINE
  5
4f6
100
AcDbEntity
  8
0
  6
DASHED
 62
     7
100
AcDbLine
 10
-11.10000610351563
 20
33.24999237060547
 11
-11.10000610351563
 21
32.24999237060547
  0
LINE
  5
4f7
100
AcDbEntity
  8
0
  6
DASHED
 62
     7
100
AcDbLine
 10
11.10000610351563
 20
32.24999237060547
 11
-11.09999847412109
 21
32.24999237060547
  0
LINE
  5
4f8
100
AcDbEntity
  8
0
  6
DASHED
 62
     7
100
AcDbLine
 10
-8.126338431085712
 20
20.24999948797223
 11
-8.541603268615463
 21
32.14162911114373
  0
LINE
  5
4f9
100
AcDbEntity
  8
0
  6
DASHED
 62
     7
100
AcDbLine
 10
-7.450022602294082
 20
31.04995958503913
 11
-8.650019580901342
 21
32.24995656364639
  0
LINE
  5
4fa
100
AcDbEntity
  8
0
  6
DASHED
 62
     7
100
AcDbLine
 10
-7.450007046180639
 20
31.05000909947593
 11
-7.078754720429052
 21
20.24999929412529
  0
LINE
  5
4fb
100
AcDbEntity
  8
0
  6
DASHED
 62
     7
100
AcDbLine
 10
7.45001220703125
 20
31.05001068115234
 11
-7.449981689453125
 21
31.05001068115234
  0
LINE
  5
4fc
100
AcDbEntity
  8
0
  6
DASHED
 62
     7
100
AcDbLine
 10
11.10000610351563
 20
33.24999237060547
 11
11.10000610351563
 21
32.24999237060547
  0
LINE
  5
4fd
100
AcDbEntity
  8
0
  6
DASHED
 62
     7
100
AcDbLine
 10
8.126415831344696
 20
20.25000251062949
 11
8.54168073543995
 21
32.14163403998772
  0
LINE
  5
4fe
100
AcDbEntity
  8
0
  6
DASHED
 62
     7
100
AcDbLine
 10
7.450010464001712
 20
31.05001218430608
 11
8.650007442608972
 21
32.25000916291334
  0
LINE
  5
4ff
100
AcDbEntity
  8
0
  6
DASHED
 62
     7
100
AcDbLine
 10
7.078756482944691
 20
20.25000354059111
 11
7.450013651682312
 21
31.0499902777592
  0
LINE
  5
500
100
AcDbEntity
  8
0
  6
CONTINUOUS
 62
     7
100
AcDbLine
 10
-55
 20
31
 11
-55
 21
-31
  0
LINE
  5
501
100
AcDbEntity
  8
0
  6
CONTINUOUS
 62
     7
100
AcDbLine
 10
-55
 20
15
 11
-41.20000076293945
 21
15
  0
LINE
  5
502
100
AcDbEntity
  8
0
  6
CONTINUOUS
 62
     7
100
AcDbLine
 10
-35.20000076293945
 20
33
 11
-35.20000076293945
 21
21
  0
LINE
  5
503
100
AcDbEntity
  8
0
  6
CENTER
 62
     3
100
AcDbLine
 10
-45
 20
31.5
 11
-45
 21
18.5
  0
LINE
  5
504
100
AcDbEntity
  8
0
  6
CENTER
 62
     3
100
AcDbLine
 10
-51.5
 20
25
 11
-38.5
 21
25
  0
LINE
  5
505
100
AcDbEntity
  8
0
  6
CONTINUOUS
 62
     7
100
AcDbLine
 10
35.20000076293945
 20
33
 11
35.20000076293945
 21
21
  0
LINE
  5
506
100
AcDbEntity
  8
0
  6
CONTINUOUS
 62
     7
100
AcDbLine
 10
41.20000076293945
 20
15
 11
55
 21
15
  0
LINE
  5
507
100
AcDbEntity
  8
0
  6
CENTER
 62
     3
100
AcDbLine
 10
45
 20
31.5
 11
45
 21
18.5
  0
LINE
  5
508
100
AcDbEntity
  8
0
  6
CENTER
 62
     3
100
AcDbLine
 10
38.5
 20
25
 11
51.5
 21
25
  0
LINE
  5
509
100
AcDbEntity
  8
0
  6
CONTINUOUS
 62
     7
100
AcDbLine
 10
55
 20
31
 11
55
 21
-31
  0
LINE
  5
50a
100
AcDbEntity
  8
0
  6
CONTINUOUS
 62
     7
100
AcDbLine
 10
41.20000076293945
 20
-15
 11
55
 21
-15
  0
LINE
  5
50b
100
AcDbEntity
  8
0
  6
CONTINUOUS
 62
     7
100
AcDbLine
 10
35.20000076293945
 20
-21
 11
35.20000076293945
 21
-33
  0
LINE
  5
50c
100
AcDbEntity
  8
0
  6
CONTINUOUS
 62
     7
100
AcDbLine
 10
53
 20
-33
 11
-53
 21
-33
  0
LINE
  5
50d
100
AcDbEntity
  8
0
  6
CENTER
 62
     3
100
AcDbLine
 10
45
 20
-18.5
 11
45
 21
-31.5
  0
LINE
  5
50e
100
AcDbEntity
  8
0
  6
CENTER
 62
     3
100
AcDbLine
 10
38.5
 20
-25
 11
51.5
 21
-25
  0
LINE
  5
50f
100
AcDbEntity
  8
0
  6
CONTINUOUS
 62
     7
100
AcDbLine
 10
-35.20000076293945
 20
-21
 11
-35.20000076293945
 21
-33
  0
LINE
  5
510
100
AcDbEntity
  8
0
  6
CONTINUOUS
 62
     7
100
AcDbLine
 10
-55
 20
-15
 11
-41.20000076293945
 21
-15
  0
LINE
  5
511
100
AcDbEntity
  8
0
  6
CENTER
 62
     3
100
AcDbLine
 10
-45
 20
-18.5
 11
-45
 21
-31.5
  0
LINE
  5
512
100
AcDbEntity
  8
0
  6
CENTER
 62
     3
100
AcDbLine
 10
-51.5
 20
-25
 11
-38.5
 21
-25
  0
LINE
  5
513
100
AcDbEntity
  8
0
  6
CONTINUOUS
 62
     7
100
AcDbLine
 10
-25
 20
33.24999237060547
 11
25
 21
33.24999237060547
  0
LINE
  5
514
100
AcDbEntity
  8
0
  6
DASHED
 62
     1
100
AcDbLine
 10
14.10576629638674
 20
-0.959998397112061
 11
14.10576629638674
 21
0.9599988181589351
  0
LINE
  5
515
100
AcDbEntity
  8
0
  6
DASHED
 62
     1
100
AcDbLine
 10
19.10575776892857
 20
-2.000000129174974
 11
14.10575572581466
 21
-0.9599965288354517
  0
LINE
  5
516
100
AcDbEntity
  8
0
  6
DASHED
 62
     1
100
AcDbLine
 10
19.10575888854179
 20
1.999998475370051
 11
14.10575620010993
 21
0.9599979775159875
  0
LINE
  5
517
100
AcDbEntity
  8
0
  6
DASHED
 62
     1
100
AcDbLine
 10
19.10576629638668
 20
-3.500001021292734
 11
19.10576629638668
 21
3.499998978707266
  0
LINE
  5
518
100
AcDbEntity
  8
0
  6
DASHED
 62
     1
100
AcDbLine
 10
19.60576629638667
 20
3.999998903209365
 11
19.60576629638667
 21
-4.000001096790635
  0
LINE
  5
519
100
AcDbEntity
  8
0
  6
DASHED
 62
     1
100
AcDbLine
 10
19.10576435699444
 20
-3.500002816005029
 11
19.605764757628
 21
-4.000003494075228
  0
LINE
  5
51a
100
AcDbEntity
  8
0
  6
DASHED
 62
     1
100
AcDbLine
 10
23.10576569240344
 20
-4.000000476837113
 11
19.60576569240344
 21
-4.000000476837113
  0
LINE
  5
51b
100
AcDbEntity
  8
0
  6
DASHED
 62
     1
100
AcDbLine
 10
24.60576575370775
 20
-3.594000339508016
 11
19.19975989433275
 21
-3.594000339508016
  0
LINE
  5
51c
100
AcDbEntity
  8
0
  6
DASHED
 62
     1
100
AcDbLine
 10
23.10576629638663
 20
-4.000001625275944
 11
23.10576629638663
 21
3.999997897886898
  0
LINE
  5
51d
100
AcDbEntity
  8
0
  6
DASHED
 62
     1
100
AcDbLine
 10
24.60576629638662
 20
-4.900003377648554
 11
24.60576629638662
 21
4.899997289923467
  0
LINE
  5
51e
100
AcDbEntity
  8
0
  6
DASHED
 62
     1
100
AcDbLine
 10
25.30576250474946
 20
-4.900000095367377
 11
24.60576555650727
 21
-4.900000095367377
  0
LINE
  5
51f
100
AcDbEntity
  8
0
  6
DASHED
 62
     1
100
AcDbLine
 10
25.30576324462879
 20
-5.000002911140565
 11
25.30576324462879
 21
4.999997088859435
  0
LINE
  5
520
100
AcDbEntity
  8
0
  6
DASHED
 62
     1
100
AcDbLine
 10
26.90576096377092
 20
-5.000000476837101
 11
25.30576248964982
 21
-5.000000476837101
  0
LINE
  5
521
100
AcDbEntity
  8
0
  6
DASHED
 62
     1
100
AcDbLine
 10
26.90576171874987
 20
-5.000004106407936
 11
26.90576171874987
 21
4.999996370429223
  0
LINE
  5
522
100
AcDbEntity
  8
0
  6
DASHED
 62
     1
100
AcDbLine
 10
26.90576114496599
 20
-3.799999713897662
 11
25.3057626708449
 21
-3.799999713897662
  0
LINE
  5
523
100
AcDbEntity
  8
0
  6
DASHED
 62
     1
100
AcDbLine
 10
26.90576229253404
 20
3.799999952316241
 11
25.30576381841295
 21
3.799999952316241
  0
LINE
  5
524
100
AcDbEntity
  8
0
  6
DASHED
 62
     1
100
AcDbLine
 10
26.90576247372901
 20
4.999999999999943
 11
25.30576399960792
 21
4.999999999999943
  0
LINE
  5
525
100
AcDbEntity
  8
0
  6
DASHED
 62
     1
100
AcDbLine
 10
25.30576398450835
 20
4.900000095367377
 11
24.60576703626617
 21
4.900000095367377
  0
LINE
  5
526
100
AcDbEntity
  8
0
  6
DASHED
 62
     1
100
AcDbLine
 10
27.60576703626617
 20
4.900000095367377
 11
26.90576245862945
 21
4.900000095367377
  0
LINE
  5
527
100
AcDbEntity
  8
0
  6
DASHED
 62
     1
100
AcDbLine
 10
24.60576683906565
 20
3.594000101089437
 11
19.19976097969065
 21
3.594000101089437
  0
LINE
  5
528
100
AcDbEntity
  8
0
  6
DASHED
 62
     1
100
AcDbLine
 10
23.10576690036993
 20
3.999999999999955
 11
19.60576690036993
 21
3.999999999999955
  0
LINE
  5
529
100
AcDbEntity
  8
0
  6
DASHED
 62
     1
100
AcDbLine
 10
19.60577073872525
 20
3.999997454290605
 11
19.10577006065505
 21
3.499997053657048
  0
LINE
  5
52a
100
AcDbEntity
  8
0
  6
DASHED
 62
     1
100
AcDbLine
 10
27.60576555650727
 20
-4.900000095367377
 11
26.90576097887055
 21
-4.900000095367377
  0
LINE
  5
52b
100
AcDbEntity
  8
0
  6
DASHED
 62
     1
100
AcDbLine
 10
27.60576629638658
 20
-4.900003830635962
 11
27.60576629638658
 21
4.899996360098902
  0
LINE
  5
52c
100
AcDbEntity
  8
0
  6
DASHED
 62
     7
100
AcDbLine
 10
29.60575866699203
 20
5.000005499484181
 11
29.60575866699203
 21
-4.999994977352977
  0
LINE
  5
52d
100
AcDbEntity
  8
0
  6
DASHED
 62
     7
100
AcDbLine
 10
30.10575866699202
 20
5.00000542398628
 11
30.10575866699202
 21
-4.999995052850879
  0
CIRCLE
  5
52e
100
AcDbEntity
  8
0
  6
CONTINUOUS
 62
     7
100
AcDbCircle
 10
0
 20
0
 40
9
  0
CIRCLE
  5
52f
100
AcDbEntity
  8
0
  6
CONTINUOUS
 62
     7
100
AcDbCircle
 10
0
 20
0
 40
8.199999809265137
  0
CIRCLE
  5
530
100
AcDbEntity
  8
0
  6
CONTINUOUS
 62
     7
100
AcDbCircle
 10
0
 20
0
 40
13.5
  0
ARC
  5
531
100
AcDbEntity
  8
0
  6
CONTINUOUS
 62
     7
100
AcDbCircle
 10
29
 20
9.5
 40
1.5
100
AcDbArc
 50
0
 51
90.0000025044782
  0
ARC
  5
532
100
AcDbEntity
  8
0
  6
CONTINUOUS
 62
     7
100
AcDbCircle
 10
28.5
 20
13
 40
2
100
AcDbArc
 50
179.9999949910437
 51
269.9999974955226
  0
ARC
  5
533
100
AcDbEntity
  8
0
  6
CONTINUOUS
 62
     7
100
AcDbCircle
 10
28
 20
27.99999237060547
 40
5
100
AcDbArc
 50
1.252239032743833e-006
 51
89.99998201391064
  0
CIRCLE
  5
534
100
AcDbEntity
  8
0
  6
CONTINUOUS
 62
     7
100
AcDbCircle
 10
24
 20
23.99999237060547
 40
7.25
  0
ARC
  5
535
100
AcDbEntity
  8
0
  6
CONTINUOUS
 62
     7
100
AcDbCircle
 10
-28
 20
27.99999237060547
 40
5
100
AcDbArc
 50
89.99998201391064
 51
180.0000186693354
  0
CIRCLE
  5
536
100
AcDbEntity
  8
0
  6
CONTINUOUS
 62
     7
100
AcDbCircle
 10
-24
 20
23.99999237060547
 40
7.25
  0
ARC
  5
537
100
AcDbEntity
  8
0
  6
CONTINUOUS
 62
     7
100
AcDbCircle
 10
-28.5
 20
13
 40
2
100
AcDbArc
 50
269.9999974955226
 51
360
  0
ARC
  5
538
100
AcDbEntity
  8
0
  6
CONTINUOUS
 62
     7
100
AcDbCircle
 10
-25
 20
13.5
 40
1.5
100
AcDbArc
 50
90.0000025044782
 51
180.000005008957
  0
ARC
  5
539
100
AcDbEntity
  8
0
  6
CONTINUOUS
 62
     7
100
AcDbCircle
 10
-21
 20
20.99999237060547
 40
6
100
AcDbArc
 50
269.9999974955226
 51
360
  0
ARC
  5
53a
100
AcDbEntity
  8
0
  6
CONTINUOUS
 62
     7
100
AcDbCircle
 10
-13.5
 20
24.99999237060547
 40
1.5
100
AcDbArc
 50
90.00000250447815
 51
180.000005008957
  0
ARC
  5
53b
100
AcDbEntity
  8
0
  6
CONTINUOUS
 62
     7
100
AcDbCircle
 10
-13
 20
28.49999237060547
 40
2
100
AcDbArc
 50
269.9999974955226
 51
360
  0
ARC
  5
53c
100
AcDbEntity
  8
0
  6
CONTINUOUS
 62
     7
100
AcDbCircle
 10
-9.5
 20
28.99999237060547
 40
1.5
100
AcDbArc
 50
90.00000250447815
 51
180.000005008957
  0
ARC
  5
53d
100
AcDbEntity
  8
0
  6
CONTINUOUS
 62
     7
100
AcDbCircle
 10
-14.721923828125
 20
17.90389251708984
 40
1
100
AcDbArc
 50
153.7493477265495
 51
224.9999960159124
  0
ARC
  5
53e
100
AcDbEntity
  8
0
  6
CONTINUOUS
 62
     7
100
AcDbCircle
 10
-13.10165405273438
 20
16.28363037109375
 40
1
100
AcDbArc
 50
224.9999996583781
 51
308.8198250206806
  0
CIRCLE
  5
53f
100
AcDbEntity
  8
0
  6
CONTINUOUS
 62
     7
100
AcDbCircle
 10
0
 20
0
 40
19.89999389648438
  0
ARC
  5
540
100
AcDbEntity
  8
0
  6
CONTINUOUS
 62
     7
100
AcDbCircle
 10
-17.90390014648438
 20
14.721923828125
 40
1
100
AcDbArc
 50
45.00000125223906
 51
116.2506529566958
  0
ARC
  5
541
100
AcDbEntity
  8
0
  6
CONTINUOUS
 62
     7
100
AcDbCircle
 10
-16.28363037109375
 20
13.10165405273438
 40
1
100
AcDbArc
 50
321.1801963805047
 51
45.00000125223906
  0
ARC
  5
542
100
AcDbEntity
  8
0
  6
CONTINUOUS
 62
     7
100
AcDbCircle
 10
-29
 20
9.5
 40
1.5
100
AcDbArc
 50
90.0000025044782
 51
180.000005008957
  0
ARC
  5
543
100
AcDbEntity
  8
0
  6
CONTINUOUS
 62
     7
100
AcDbCircle
 10
-29.5
 20
7.5
 40
1
100
AcDbArc
 50
179.9999949910437
 51
269.9999974955226
  0
ARC
  5
544
100
AcDbEntity
  8
0
  6
CONTINUOUS
 62
     7
100
AcDbCircle
 10
-19.5079345703125
 20
7.5
 40
1
100
AcDbArc
 50
269.9999974955226
 51
338.9703205361315
  0
ARC
  5
545
100
AcDbEntity
  8
0
  6
CONTINUOUS
 62
     7
100
AcDbCircle
 10
-20.77853393554688
 20
2.25
 40
1
100
AcDbArc
 50
269.9999974955226
 51
353.819830541788
  0
ARC
  5
546
100
AcDbEntity
  8
0
  6
CONTINUOUS
 62
     7
100
AcDbCircle
 10
-29.5
 20
2.25
 40
1
100
AcDbArc
 50
179.9999949910437
 51
269.9999974955226
  0
ARC
  5
547
100
AcDbEntity
  8
0
  6
CONTINUOUS
 62
     7
100
AcDbCircle
 10
-29.5
 20
-2.25
 40
1
100
AcDbArc
 50
90.00000250447806
 51
180.000005008957
  0
ARC
  5
548
100
AcDbEntity
  8
0
  6
CONTINUOUS
 62
     7
100
AcDbCircle
 10
-20.77853393554688
 20
-2.25
 40
1
100
AcDbArc
 50
6.180200620950842
 51
90.00000250447806
  0
ARC
  5
549
100
AcDbEntity
  8
0
  6
CONTINUOUS
 62
     7
100
AcDbCircle
 10
-19.5079345703125
 20
-7.5
 40
1
100
AcDbArc
 50
21.02971361481507
 51
90.00000250447806
  0
ARC
  5
54a
100
AcDbEntity
  8
0
  6
CONTINUOUS
 62
     7
100
AcDbCircle
 10
-29.5
 20
-7.5
 40
1
100
AcDbArc
 50
90.00000250447806
 51
180.000005008957
  0
ARC
  5
54b
100
AcDbEntity
  8
0
  6
CONTINUOUS
 62
     7
100
AcDbCircle
 10
-29
 20
-9.5
 40
1.5
100
AcDbArc
 50
179.9999813306653
 51
269.9999974955225
  0
ARC
  5
54c
100
AcDbEntity
  8
0
  6
CONTINUOUS
 62
     7
100
AcDbCircle
 10
-28.5
 20
-13
 40
2
100
AcDbArc
 50
0
 51
90.00000250447816
  0
ARC
  5
54d
100
AcDbEntity
  8
0
  6
CONTINUOUS
 62
     7
100
AcDbCircle
 10
-25
 20
-13.5
 40
1.5
100
AcDbArc
 50
179.9999949910437
 51
269.9999974955225
  0
CIRCLE
  5
54e
100
AcDbEntity
  8
0
  6
CONTINUOUS
 62
     7
100
AcDbCircle
 10
-24
 20
-24
 40
7.25
  0
ARC
  5
54f
100
AcDbEntity
  8
0
  6
CONTINUOUS
 62
     7
100
AcDbCircle
 10
-21
 20
-21
 40
6
100
AcDbArc
 50
0
 51
90.00000250447816
  0
ARC
  5
550
100
AcDbEntity
  8
0
  6
CONTINUOUS
 62
     7
100
AcDbCircle
 10
-17.90390014648438
 20
-14.721923828125
 40
1
100
AcDbArc
 50
243.7493470433049
 51
314.9999987477617
  0
ARC
  5
551
100
AcDbEntity
  8
0
  6
CONTINUOUS
 62
     7
100
AcDbCircle
 10
-16.28363037109375
 20
-13.10165405273438
 40
1
100
AcDbArc
 50
314.9999987477617
 51
38.81982752515809
  0
ARC
  5
552
100
AcDbEntity
  8
0
  6
CONTINUOUS
 62
     7
100
AcDbCircle
 10
-13.10165405273438
 20
-16.28363037109375
 40
1
100
AcDbArc
 50
51.18019546988757
 51
135.0000003416226
  0
ARC
  5
553
100
AcDbEntity
  8
0
  6
CONTINUOUS
 62
     7
100
AcDbCircle
 10
-14.721923828125
 20
-17.90390014648438
 40
1
100
AcDbArc
 50
135.0000003416226
 51
206.2506622913638
  0
ARC
  5
554
100
AcDbEntity
  8
0
  6
CONTINUOUS
 62
     7
100
AcDbCircle
 10
-13.5
 20
-25
 40
1.5
100
AcDbArc
 50
179.9999949910437
 51
269.9999974955226
  0
ARC
  5
555
100
AcDbEntity
  8
0
  6
CONTINUOUS
 62
     7
100
AcDbCircle
 10
-13
 20
-28.5
 40
2
100
AcDbArc
 50
0
 51
90.00000250447816
  0
ARC
  5
556
100
AcDbEntity
  8
0
  6
CONTINUOUS
 62
     7
100
AcDbCircle
 10
-2.25
 20
-20.77853393554688
 40
1
100
AcDbArc
 50
0
 51
83.81981511701886
  0
ARC
  5
557
100
AcDbEntity
  8
0
  6
CONTINUOUS
 62
     7
100
AcDbCircle
 10
2.25
 20
-20.77853393554688
 40
1
100
AcDbArc
 50
96.18018306174831
 51
180.000005008957
  0
ARC
  5
558
100
AcDbEntity
  8
0
  6
CONTINUOUS
 62
     7
100
AcDbCircle
 10
13.10165405273438
 20
-16.28363037109375
 40
1
100
AcDbArc
 50
45.00000125223906
 51
128.819799293785
  0
ARC
  5
559
100
AcDbEntity
  8
0
  6
CONTINUOUS
 62
     7
100
AcDbCircle
 10
16.28363037109375
 20
-13.10165405273438
 40
1
100
AcDbArc
 50
141.1801740687037
 51
224.9999960159124
  0
ARC
  5
55a
100
AcDbEntity
  8
0
  6
CONTINUOUS
 62
     7
100
AcDbCircle
 10
17.90390014648438
 20
-14.721923828125
 40
1
100
AcDbArc
 50
224.9999996583781
 51
296.2506616081185
  0
ARC
  5
55b
100
AcDbEntity
  8
0
  6
CONTINUOUS
 62
     7
100
AcDbCircle
 10
21
 20
-21
 40
6
100
AcDbArc
 50
90.00000250447816
 51
180.000005008957
  0
ARC
  5
55c
100
AcDbEntity
  8
0
  6
CONTINUOUS
 62
     7
100
AcDbCircle
 10
14.721923828125
 20
-17.90390014648438
 40
1
100
AcDbArc
 50
333.7493410100466
 51
45.00000125223906
  0
ARC
  5
55d
100
AcDbEntity
  8
0
  6
CONTINUOUS
 62
     7
100
AcDbCircle
 10
25
 20
-13.5
 40
1.5
100
AcDbArc
 50
269.9999974955225
 51
360
  0
ARC
  5
55e
100
AcDbEntity
  8
0
  6
CONTINUOUS
 62
     7
100
AcDbCircle
 10
28.5
 20
-13
 40
2
100
AcDbArc
 50
89.92086793275441
 51
180.000005008957
  0
ARC
  5
55f
100
AcDbEntity
  8
0
  6
CONTINUOUS
 62
     7
100
AcDbCircle
 10
29
 20
-9.5
 40
1.5
100
AcDbArc
 50
269.9999974955225
 51
360
  0
ARC
  5
560
100
AcDbEntity
  8
0
  6
CONTINUOUS
 62
     7
100
AcDbCircle
 10
25
 20
13.5
 40
1.5
100
AcDbArc
 50
0
 51
90.0000025044782
  0
ARC
  5
561
100
AcDbEntity
  8
0
  6
CONTINUOUS
 62
     7
100
AcDbCircle
 10
21
 20
20.99999237060547
 40
6
100
AcDbArc
 50
179.9999949910437
 51
269.9999974955226
  0
ARC
  5
562
100
AcDbEntity
  8
0
  6
CONTINUOUS
 62
     7
100
AcDbCircle
 10
17.90390014648438
 20
14.721923828125
 40
1
100
AcDbArc
 50
63.74933839188224
 51
135.0000003416226
  0
ARC
  5
563
100
AcDbEntity
  8
0
  6
CONTINUOUS
 62
     7
100
AcDbCircle
 10
16.28363037109375
 20
13.10165405273438
 40
1
100
AcDbArc
 50
135.0000003416226
 51
218.819808628453
  0
ARC
  5
564
100
AcDbEntity
  8
0
  6
CONTINUOUS
 62
     7
100
AcDbCircle
 10
13.5
 20
24.99999237060547
 40
1.5
100
AcDbArc
 50
0
 51
90.00000250447815
  0
ARC
  5
565
100
AcDbEntity
  8
0
  6
CONTINUOUS
 62
     7
100
AcDbCircle
 10
13
 20
28.49999237060547
 40
2
100
AcDbArc
 50
179.9999949910437
 51
269.9999974955226
  0
ARC
  5
566
100
AcDbEntity
  8
0
  6
CONTINUOUS
 62
     7
100
AcDbCircle
 10
9.5
 20
28.99999237060547
 40
1.5
100
AcDbArc
 50
0
 51
90.00000250447815
  0
ARC
  5
567
100
AcDbEntity
  8
0
  6
CONTINUOUS
 62
     7
100
AcDbCircle
 10
13.10165405273438
 20
16.28363037109375
 40
1
100
AcDbArc
 50
231.1801733854591
 51
314.9999987477617
  0
ARC
  5
568
100
AcDbEntity
  8
0
  6
CONTINUOUS
 62
     7
100
AcDbCircle
 10
14.721923828125
 20
17.90389251708984
 40
1
100
AcDbArc
 50
314.9999987477617
 51
26.25065898995414
  0
CIRCLE
  5
569
100
AcDbEntity
  8
0
  6
CONTINUOUS
 62
     7
100
AcDbCircle
 10
24
 20
-24
 40
7.25
  0
ARC
  5
56a
100
AcDbEntity
  8
0
  6
CONTINUOUS
 62
     7
100
AcDbCircle
 10
13.5
 20
-25
 40
1.5
100
AcDbArc
 50
269.9999974955226
 51
360
  0
ARC
  5
56b
100
AcDbEntity
  8
0
  6
CONTINUOUS
 62
     7
100
AcDbCircle
 10
13
 20
-28.5
 40
2
100
AcDbArc
 50
90.00000250447816
 51
180.000005008957
  0
ARC
  5
56c
100
AcDbEntity
  8
0
  6
CONTINUOUS
 62
     7
100
AcDbCircle
 10
9.5
 20
-29
 40
1.5
100
AcDbArc
 50
269.9999974955226
 51
360
  0
ARC
  5
56d
100
AcDbEntity
  8
0
  6
CONTINUOUS
 62
     7
100
AcDbCircle
 10
2.25
 20
-29.5
 40
1
100
AcDbArc
 50
179.9999949910437
 51
269.9999974955226
  0
ARC
  5
56e
100
AcDbEntity
  8
0
  6
CONTINUOUS
 62
     7
100
AcDbCircle
 10
-2.25
 20
-29.5
 40
1
100
AcDbArc
 50
269.9999974955226
 51
360
  0
ARC
  5
56f
100
AcDbEntity
  8
0
  6
CONTINUOUS
 62
     7
100
AcDbCircle
 10
-9.5
 20
-29
 40
1.5
100
AcDbArc
 50
179.9999949910437
 51
269.9999974955226
  0
ARC
  5
570
100
AcDbEntity
  8
0
  6
CONTINUOUS
 62
     7
100
AcDbCircle
 10
-28
 20
-28
 40
5
100
AcDbArc
 50
180.0000223118011
 51
269.9999974955226
  0
ARC
  5
571
100
AcDbEntity
  8
0
  6
CONTINUOUS
 62
     7
100
AcDbCircle
 10
28
 20
-28
 40
5
100
AcDbArc
 50
270.00001798609
 51
1.252239032743833e-006
  0
ARC
  5
572
100
AcDbEntity
  8
0
  6
CONTINUOUS
 62
     7
100
AcDbCircle
 10
29.5
 20
-7.5
 40
1
100
AcDbArc
 50
359.9999590188657
 51
89.99996152334305
  0
ARC
  5
573
100
AcDbEntity
  8
0
  6
CONTINUOUS
 62
     7
100
AcDbCircle
 10
19.5079345703125
 20
-7.5
 40
1
100
AcDbArc
 50
89.99996152334305
 51
158.970248705459
  0
ARC
  5
574
100
AcDbEntity
  8
0
  6
CONTINUOUS
 62
     7
100
AcDbCircle
 10
20.77853393554688
 20
-2.25
 40
1
100
AcDbArc
 50
89.99996152334305
 51
173.8197629799836
  0
ARC
  5
575
100
AcDbEntity
  8
0
  6
CONTINUOUS
 62
     7
100
AcDbCircle
 10
29.5
 20
-2.25
 40
1
100
AcDbArc
 50
359.9999590188657
 51
89.99996152334305
  0
ARC
  5
576
100
AcDbEntity
  8
0
  6
CONTINUOUS
 62
     7
100
AcDbCircle
 10
29.5
 20
2.25
 40
1
100
AcDbArc
 50
269.9999906653335
 51
359.9999931698116
  0
ARC
  5
577
100
AcDbEntity
  8
0
  6
CONTINUOUS
 62
     7
100
AcDbCircle
 10
20.77853393554688
 20
2.25
 40
1
100
AcDbArc
 50
186.180155057747
 51
269.9999906653335
  0
ARC
  5
578
100
AcDbEntity
  8
0
  6
CONTINUOUS
 62
     7
100
AcDbCircle
 10
29.5
 20
7.5
 40
1
100
AcDbArc
 50
269.9999906653335
 51
359.9999931698116
  0
ARC
  5
579
100
AcDbEntity
  8
0
  6
CONTINUOUS
 62
     7
100
AcDbCircle
 10
19.5079345703125
 20
7.5
 40
1
100
AcDbArc
 50
201.0296556718934
 51
269.9999770049552
  0
CIRCLE
  5
57a
100
AcDbEntity
  8
0
  6
CONTINUOUS
 62
     7
100
AcDbCircle
 10
24
 20
-24
 40
6.75
  0
CIRCLE
  5
57b
100
AcDbEntity
  8
0
  6
CONTINUOUS
 62
     7
100
AcDbCircle
 10
24
 20
-24
 40
6.25
  0
CIRCLE
  5
57c
100
AcDbEntity
  8
0
  6
CONTINUOUS
 62
     7
100
AcDbCircle
 10
24
 20
-24
 40
4.949999809265137
  0
CIRCLE
  5
57d
100
AcDbEntity
  8
0
  6
CONTINUOUS
 62
     7
100
AcDbCircle
 10
24
 20
-24
 40
4
  0
CIRCLE
  5
57e
100
AcDbEntity
  8
0
  6
CONTINUOUS
 62
     7
100
AcDbCircle
 10
24
 20
-24
 40
3.299999952316284
  0
CIRCLE
  5
57f
100
AcDbEntity
  8
0
  6
CONTINUOUS
 62
     7
100
AcDbCircle
 10
24
 20
-24
 40
3.299999952316284
  0
CIRCLE
  5
580
100
AcDbEntity
  8
0
  6
CONTINUOUS
 62
     7
100
AcDbCircle
 10
24
 20
23.99999237060547
 40
6.75
  0
CIRCLE
  5
581
100
AcDbEntity
  8
0
  6
CONTINUOUS
 62
     7
100
AcDbCircle
 10
24
 20
23.99999237060547
 40
6.25
  0
CIRCLE
  5
582
100
AcDbEntity
  8
0
  6
CONTINUOUS
 62
     7
100
AcDbCircle
 10
24
 20
23.99999237060547
 40
4.949999809265137
  0
CIRCLE
  5
583
100
AcDbEntity
  8
0
  6
CONTINUOUS
 62
     7
100
AcDbCircle
 10
24
 20
23.99999237060547
 40
4
  0
CIRCLE
  5
584
100
AcDbEntity
  8
0
  6
CONTINUOUS
 62
     7
100
AcDbCircle
 10
24
 20
23.99999237060547
 40
3.299999952316284
  0
CIRCLE
  5
585
100
AcDbEntity
  8
0
  6
CONTINUOUS
 62
     7
100
AcDbCircle
 10
24
 20
23.99999237060547
 40
3.299999952316284
  0
CIRCLE
  5
586
100
AcDbEntity
  8
0
  6
CONTINUOUS
 62
     7
100
AcDbCircle
 10
-24
 20
23.99999237060547
 40
6.75
  0
CIRCLE
  5
587
100
AcDbEntity
  8
0
  6
CONTINUOUS
 62
     7
100
AcDbCircle
 10
-24
 20
23.99999237060547
 40
6.25
  0
CIRCLE
  5
588
100
AcDbEntity
  8
0
  6
CONTINUOUS
 62
     7
100
AcDbCircle
 10
-24
 20
23.99999237060547
 40
4.949999809265137
  0
CIRCLE
  5
589
100
AcDbEntity
  8
0
  6
CONTINUOUS
 62
     7
100
AcDbCircle
 10
-24
 20
23.99999237060547
 40
4
  0
CIRCLE
  5
58a
100
AcDbEntity
  8
0
  6
CONTINUOUS
 62
     7
100
AcDbCircle
 10
-24
 20
23.99999237060547
 40
3.299999952316284
  0
CIRCLE
  5
58b
100
AcDbEntity
  8
0
  6
CONTINUOUS
 62
     7
100
AcDbCircle
 10
-24
 20
23.99999237060547
 40
3.299999952316284
  0
CIRCLE
  5
58c
100
AcDbEntity
  8
0
  6
CONTINUOUS
 62
     7
100
AcDbCircle
 10
-24
 20
-24
 40
6.75
  0
CIRCLE
  5
58d
100
AcDbEntity
  8
0
  6
CONTINUOUS
 62
     7
100
AcDbCircle
 10
-24
 20
-24
 40
6.25
  0
CIRCLE
  5
58e
100
AcDbEntity
  8
0
  6
CONTINUOUS
 62
     7
100
AcDbCircle
 10
-24
 20
-24
 40
4.949999809265137
  0
CIRCLE
  5
58f
100
AcDbEntity
  8
0
  6
CONTINUOUS
 62
     7
100
AcDbCircle
 10
-24
 20
-24
 40
4
  0
CIRCLE
  5
590
100
AcDbEntity
  8
0
  6
CONTINUOUS
 62
     7
100
AcDbCircle
 10
-24
 20
-24
 40
3.299999952316284
  0
CIRCLE
  5
591
100
AcDbEntity
  8
0
  6
CONTINUOUS
 62
     7
100
AcDbCircle
 10
-24
 20
-24
 40
3.299999952316284
  0
ARC
  5
592
100
AcDbEntity
  8
0
  6
CONTINUOUS
 62
     7
100
AcDbCircle
 10
-41.20000076293945
 20
21
 40
6
100
AcDbArc
 50
270.0000179860901
 51
360
  0
CIRCLE
  5
593
100
AcDbEntity
  8
0
  6
CONTINUOUS
 62
     7
100
AcDbCircle
 10
-45
 20
25
 40
4.5
  0
ARC
  5
594
100
AcDbEntity
  8
0
  6
CONTINUOUS
 62
     7
100
AcDbCircle
 10
-53
 20
31
 40
2
100
AcDbArc
 50
89.99998201391055
 51
180.0000186693354
  0
ARC
  5
595
100
AcDbEntity
  8
0
  6
CONTINUOUS
 62
     7
100
AcDbCircle
 10
41.20000076293945
 20
21
 40
6
100
AcDbArc
 50
179.9999813306653
 51
270.0000179860901
  0
CIRCLE
  5
596
100
AcDbEntity
  8
0
  6
CONTINUOUS
 62
     7
100
AcDbCircle
 10
45
 20
25
 40
4.5
  0
ARC
  5
597
100
AcDbEntity
  8
0
  6
CONTINUOUS
 62
     7
100
AcDbCircle
 10
53
 20
31
 40
2
100
AcDbArc
 50
0
 51
89.99998201391055
  0
ARC
  5
598
100
AcDbEntity
  8
0
  6
CONTINUOUS
 62
     7
100
AcDbCircle
 10
41.20000076293945
 20
-21
 40
6
100
AcDbArc
 50
89.99998201391063
 51
179.9999640278213
  0
CIRCLE
  5
599
100
AcDbEntity
  8
0
  6
CONTINUOUS
 62
     7
100
AcDbCircle
 10
45
 20
-25
 40
4.5
  0
ARC
  5
59a
100
AcDbEntity
  8
0
  6
CONTINUOUS
 62
     7
100
AcDbCircle
 10
53
 20
-31
 40
2
100
AcDbArc
 50
270.0000179860901
 51
360
  0
ARC
  5
59b
100
AcDbEntity
  8
0
  6
CONTINUOUS
 62
     7
100
AcDbCircle
 10
-53
 20
-31
 40
2
100
AcDbArc
 50
180.0000223118011
 51
270.0000179860901
  0
ARC
  5
59c
100
AcDbEntity
  8
0
  6
CONTINUOUS
 62
     7
100
AcDbCircle
 10
-41.20000076293945
 20
-21
 40
6
100
AcDbArc
 50
0
 51
89.99998201391063
  0
CIRCLE
  5
59d
100
AcDbEntity
  8
0
  6
CONTINUOUS
 62
     7
100
AcDbCircle
 10
-45
 20
-25
 40
4.5
  0
MTEXT
  5
59e
100
AcDbEntity
  8
0
  6
CONTINUOUS
 62
     7
100
AcDbMText
 10
4.348981991410255
 20
-24.51098823547363
 40
0.5
 41
34
 71
     7
 72
     1
  1
{\W0.842735;ＢＮ－６１０５－ＦＢ－５０－Ｂ－＊}
  0
INSERT
  5
59f
100
AcDbEntity
  8
0
  6
CONTINUOUS
 62
     3
100
AcDbBlockReference
  2
KOZU0010
 10
0
 20
0
  0
ENDBLK
  8
0
  5
5a0
100
AcDbEntity
100
AcDbBlockEnd
  0
BLOCK
  8
0
  5
5a1
100
AcDbEntity
100
AcDbBlockBegin
  2
KOZU0005
 70
    64
 10
0
 20
0
  0
POINT
  5
5a2
100
AcDbEntity
  8
0
  6
CONTINUOUS
 62
     7
100
AcDbPoint
 10
0
 20
0
  0
LINE
  5
5a3
100
AcDbEntity
  8
0
  6
CENTER
 62
     3
100
AcDbLine
 10
202.2999877929688
 20
0
 11
-62.24545288085938
 21
0
  0
LINE
  5
5a4
100
AcDbEntity
  8
0
  6
CONTINUOUS
 62
     7
100
AcDbLine
 10
0
 20
32.49999237060547
 11
0
 21
-32.5
  0
LINE
  5
5a5
100
AcDbEntity
  8
0
  6
CONTINUOUS
 62
     7
100
AcDbLine
 10
-10.50035929961384
 20
19.91671925053663
 11
-11.00007068461534
 21
19.38254191884952
  0
LINE
  5
5a6
100
AcDbEntity
  8
0
  6
CONTINUOUS
 62
     7
100
AcDbLine
 10
-11
 20
19.38246917724609
 11
-11
 21
-19.38256072998047
  0
LINE
  5
5a7
100
AcDbEntity
  8
0
  6
CONTINUOUS
 62
     7
100
AcDbLine
 10
-10.48275756835938
 20
19.91686248779297
 11
-10.48275756835938
 21
-19.91680145263672
  0
LINE
  5
5a8
100
AcDbEntity
  8
0
  6
CONTINUOUS
 62
     7
100
AcDbLine
 10
-11
 20
10
 11
-21.26797485351563
 21
10
  0
LINE
  5
5a9
100
AcDbEntity
  8
0
  6
CONTINUOUS
 62
     7
100
AcDbLine
 10
-21.26800570347562
 20
9.999985880744438
 11
-23.00005650327269
 21
8.999985867283264
  0
LINE
  5
5aa
100
AcDbEntity
  8
0
  6
CONTINUOUS
 62
     7
100
AcDbLine
 10
-23.00003051757813
 20
9
 11
-32.00003051757813
 21
9
  0
LINE
  5
5ab
100
AcDbEntity
  8
0
  6
CONTINUOUS
 62
     7
100
AcDbLine
 10
-23.00003051757813
 20
9
 11
-23.00003051757813
 21
2.5
  0
LINE
  5
5ac
100
AcDbEntity
  8
0
  6
CONTINUOUS
 62
     7
100
AcDbLine
 10
-15.00003051757813
 20
5.267822265625
 11
-23.00003051757813
 21
5.267822265625
  0
LINE
  5
5ad
100
AcDbEntity
  8
0
  6
CONTINUOUS
 62
     7
100
AcDbLine
 10
-21.26797485351563
 20
10
 11
-21.26797485351563
 21
5.267829895019531
  0
LINE
  5
5ae
100
AcDbEntity
  8
0
  6
CONTINUOUS
 62
     7
100
AcDbLine
 10
-26.00003051757813
 20
9
 11
-26.00003051757813
 21
-9
  0
LINE
  5
5af
100
AcDbEntity
  8
0
  6
CONTINUOUS
 62
     7
100
AcDbLine
 10
-23.00003051757813
 20
-9
 11
-32.00003051757813
 21
-9
  0
LINE
  5
5b0
100
AcDbEntity
  8
0
  6
CONTINUOUS
 62
     7
100
AcDbLine
 10
-23.76903856575203
 20
-8.999979214990368
 11
-25.99997689362757
 21
-8.187984040083853
  0
LINE
  5
5b1
100
AcDbEntity
  8
0
  6
CONTINUOUS
 62
     7
100
AcDbLine
 10
-26.00003051757813
 20
-8.18798828125
 11
-32.00003051757813
 21
-8.18798828125
  0
LINE
  5
5b2
100
AcDbEntity
  8
0
  6
CONTINUOUS
 62
     7
100
AcDbLine
 10
-21.26793023117954
 20
-10.00003826436169
 11
-22.9999546019788
 21
-9.000053509689785
  0
LINE
  5
5b3
100
AcDbEntity
  8
0
  6
CONTINUOUS
 62
     7
100
AcDbLine
 10
-23.00003051757813
 20
-2.5
 11
-23.00003051757813
 21
-9
  0
LINE
  5
5b4
100
AcDbEntity
  8
0
  6
CONTINUOUS
 62
     7
100
AcDbLine
 10
-23.00003051757813
 20
-2.5
 11
-26.00003051757813
 21
-2.5
  0
LINE
  5
5b5
100
AcDbEntity
  8
0
  6
CONTINUOUS
 62
     7
100
AcDbLine
 10
-26.0000641206723
 20
-2.500015773587542
 11
-15.00004339886888
 21
5.267826103615384
  0
LINE
  5
5b6
100
AcDbEntity
  8
0
  6
CONTINUOUS
 62
     7
100
AcDbLine
 10
-25.99999831022829
 20
2.500003157692733
 11
-15.00000251697236
 21
-5.267821115814708
  0
LINE
  5
5b7
100
AcDbEntity
  8
0
  6
CONTINUOUS
 62
     7
100
AcDbLine
 10
-23.00003051757813
 20
2.5
 11
-26.00003051757813
 21
2.5
  0
LINE
  5
5b8
100
AcDbEntity
  8
0
  6
CONTINUOUS
 62
     7
100
AcDbLine
 10
-15.00003051757813
 20
5.267829895019531
 11
-15.00003051757813
 21
-5.267829895019531
  0
LINE
  5
5b9
100
AcDbEntity
  8
0
  6
CONTINUOUS
 62
     7
100
AcDbLine
 10
-15.00003051757813
 20
-5.267822265625
 11
-23.00003051757813
 21
-5.267822265625
  0
LINE
  5
5ba
100
AcDbEntity
  8
0
  6
CONTINUOUS
 62
     7
100
AcDbLine
 10
-21.26797485351563
 20
-5.267829895019531
 11
-21.26797485351563
 21
-10
  0
LINE
  5
5bb
100
AcDbEntity
  8
0
  6
CONTINUOUS
 62
     7
100
AcDbLine
 10
-11.00003051757813
 20
-10
 11
-21.26797485351563
 21
-10
  0
LINE
  5
5bc
100
AcDbEntity
  8
0
  6
CONTINUOUS
 62
     7
100
AcDbLine
 10
-10.50038154073647
 20
-19.9166982673763
 11
-11.00001995690959
 21
-19.38259893730213
  0
LINE
  5
5bd
100
AcDbEntity
  8
0
  6
CONTINUOUS
 62
     7
100
AcDbLine
 10
-23.76907963757667
 20
9.000002831470725
 11
-25.99998928830936
 21
8.188018094190985
  0
LINE
  5
5be
100
AcDbEntity
  8
0
  6
CONTINUOUS
 62
     7
100
AcDbLine
 10
-26.00003051757813
 20
8.18798828125
 11
-32.00003051757813
 21
8.18798828125
  0
LINE
  5
5bf
100
AcDbEntity
  8
0
  6
CONTINUOUS
 62
     7
100
AcDbLine
 10
-32.00003051757813
 20
11.25833129882813
 11
-32.00003051757813
 21
-11.25833129882813
  0
LINE
  5
5c0
100
AcDbEntity
  8
0
  6
CONTINUOUS
 62
     7
100
AcDbLine
 10
-33.77505493164063
 20
7.794219970703125
 11
-41.22500610351563
 21
7.794219970703125
  0
LINE
  5
5c1
100
AcDbEntity
  8
0
  6
CONTINUOUS
 62
     7
100
AcDbLine
 10
-32.0000857261468
 20
11.25826293766964
 11
-34.1667498788478
 21
15.01103526573032
  0
LINE
  5
5c2
100
AcDbEntity
  8
0
  6
CONTINUOUS
 62
     7
100
AcDbLine
 10
-34.16668701171875
 20
15.0111083984375
 11
-40.83334350585938
 21
15.0111083984375
  0
LINE
  5
5c3
100
AcDbEntity
  8
0
  6
CONTINUOUS
 62
     7
100
AcDbLine
 10
-43.00002141659333
 20
11.25834299877856
 11
-40.83336489328696
 21
15.01110211234034
  0
LINE
  5
5c4
100
AcDbEntity
  8
0
  6
CONTINUOUS
 62
     7
100
AcDbLine
 10
-43.00003051757813
 20
11.25833129882813
 11
-43.00003051757813
 21
-11.25833129882813
  0
LINE
  5
5c5
100
AcDbEntity
  8
0
  6
CONTINUOUS
 62
     7
100
AcDbLine
 10
-43.00003051757813
 20
9
 11
-56.50003051757813
 21
9
  0
LINE
  5
5c6
100
AcDbEntity
  8
0
  6
CONTINUOUS
 62
     7
100
AcDbLine
 10
-43.00003051757813
 20
8.18798828125
 11
-57.31204223632813
 21
8.18798828125
  0
LINE
  5
5c7
100
AcDbEntity
  8
0
  6
CONTINUOUS
 62
     7
100
AcDbLine
 10
-56.50003051757813
 20
9
 11
-56.50003051757813
 21
-9
  0
LINE
  5
5c8
100
AcDbEntity
  8
0
  6
CONTINUOUS
 62
     7
100
AcDbLine
 10
-56.50007856413805
 20
8.999966844931432
 11
-58.00006825464212
 21
7.499974878511424
  0
LINE
  5
5c9
100
AcDbEntity
  8
0
  6
CONTINUOUS
 62
     7
100
AcDbLine
 10
-58.00003051757813
 20
7.5
 11
-58.00003051757813
 21
-7.5
  0
LINE
  5
5ca
100
AcDbEntity
  8
0
  6
CONTINUOUS
 62
     7
100
AcDbLine
 10
-58.00005687493143
 20
-7.500106039600428
 11
-56.50006490851142
 21
-9.000095730104491
  0
LINE
  5
5cb
100
AcDbEntity
  8
0
  6
CONTINUOUS
 62
     7
100
AcDbLine
 10
-43.00003051757813
 20
-9
 11
-56.50003051757813
 21
-9
  0
LINE
  5
5cc
100
AcDbEntity
  8
0
  6
CONTINUOUS
 62
     7
100
AcDbLine
 10
-43.00003051757813
 20
-8.18798828125
 11
-57.31204223632813
 21
-8.18798828125
  0
LINE
  5
5cd
100
AcDbEntity
  8
0
  6
CONTINUOUS
 62
     7
100
AcDbLine
 10
-43.00006385264216
 20
-11.25837630890923
 11
-40.83339969994117
 21
-15.0111486369699
  0
LINE
  5
5ce
100
AcDbEntity
  8
0
  6
CONTINUOUS
 62
     7
100
AcDbLine
 10
-34.16668701171875
 20
-15.0111083984375
 11
-40.83334350585938
 21
-15.0111083984375
  0
LINE
  5
5cf
100
AcDbEntity
  8
0
  6
CONTINUOUS
 62
     7
100
AcDbLine
 10
-32.00005080089801
 20
-11.25833595976787
 11
-34.16670732420438
 21
-15.01109507332964
  0
LINE
  5
5d0
100
AcDbEntity
  8
0
  6
CONTINUOUS
 62
     7
100
AcDbLine
 10
-33.77505493164063
 20
-7.794219970703125
 11
-41.22500610351563
 21
-7.794219970703125
  0
LINE
  5
5d1
100
AcDbEntity
  8
0
  6
CONTINUOUS
 62
     7
100
AcDbLine
 10
0.5
 20
32.99999237060547
 11
27.5
 21
32.99999237060547
  0
LINE
  5
5d2
100
AcDbEntity
  8
0
  6
CONTINUOUS
 62
     7
100
AcDbLine
 10
0.5
 20
-33
 11
27.5
 21
-33
  0
LINE
  5
5d3
100
AcDbEntity
  8
0
  6
CONTINUOUS
 62
     7
100
AcDbLine
 10
28
 20
33.24999237060547
 11
28
 21
-32.5
  0
LINE
  5
5d4
100
AcDbEntity
  8
0
  6
CONTINUOUS
 62
     7
100
AcDbLine
 10
162.0000305175781
 20
-27.58999633789063
 11
28
 21
-27.58999633789063
  0
LINE
  5
5d5
100
AcDbEntity
  8
0
  6
CENTER
 62
     3
100
AcDbLine
 10
162.0000305175781
 20
-24
 11
28
 21
-24
  0
LINE
  5
5d6
100
AcDbEntity
  8
0
  6
CONTINUOUS
 62
     7
100
AcDbLine
 10
162.0000305175781
 20
-20.41000366210938
 11
28
 21
-20.41000366210938
  0
LINE
  5
5d7
100
AcDbEntity
  8
0
  6
CONTINUOUS
 62
     7
100
AcDbLine
 10
162.0000305175781
 20
20.40999603271484
 11
28
 21
20.40999603271484
  0
LINE
  5
5d8
100
AcDbEntity
  8
0
  6
CENTER
 62
     3
100
AcDbLine
 10
162.0000305175781
 20
23.99999237060547
 11
28
 21
23.99999237060547
  0
LINE
  5
5d9
100
AcDbEntity
  8
0
  6
CONTINUOUS
 62
     7
100
AcDbLine
 10
162.0000305175781
 20
27.58998870849609
 11
28
 21
27.58998870849609
  0
LINE
  5
5da
100
AcDbEntity
  8
0
  6
CONTINUOUS
 62
     7
100
AcDbLine
 10
28
 20
33.24999237060547
 11
0.5
 21
33.24999237060547
  0
LINE
  5
5db
100
AcDbEntity
  8
0
  6
CONTINUOUS
 62
     7
100
AcDbLine
 10
0.5
 20
33.24999237060547
 11
0.5
 21
32.99999237060547
  0
LINE
  5
5dc
100
AcDbEntity
  8
0
  6
DASHED
 62
     7
100
AcDbLine
 10
5.873657917454531
 20
20.25000014412166
 11
5.458393545883308
 21
32.14161642398607
  0
LINE
  5
5dd
100
AcDbEntity
  8
0
  6
DASHED
 62
     7
100
AcDbLine
 10
6.549964176876783
 20
31.04997981552642
 11
5.349967198269521
 21
32.24997679413369
  0
LINE
  5
5de
100
AcDbEntity
  8
0
  6
DASHED
 62
     7
100
AcDbLine
 10
6.54998779296875
 20
31.05001068115234
 11
21.44998168945313
 21
31.05001068115234
  0
LINE
  5
5df
100
AcDbEntity
  8
0
  6
DASHED
 62
     7
100
AcDbLine
 10
2.899993896484375
 20
32.24999237060547
 11
25.10000610351563
 21
32.24999237060547
  0
LINE
  5
5e0
100
AcDbEntity
  8
0
  6
DASHED
 62
     7
100
AcDbLine
 10
2.899993896484375
 20
33.24999237060547
 11
2.899993896484375
 21
32.24999237060547
  0
LINE
  5
5e1
100
AcDbEntity
  8
0
  6
CENTER
 62
     3
100
AcDbLine
 10
14
 20
34.67787933349609
 11
14
 21
19.99999237060547
  0
LINE
  5
5e2
100
AcDbEntity
  8
0
  6
DASHED
 62
     7
100
AcDbLine
 10
25.10000610351563
 20
33.24999237060547
 11
25.10000610351563
 21
32.24999237060547
  0
LINE
  5
5e3
100
AcDbEntity
  8
0
  6
DASHED
 62
     7
100
AcDbLine
 10
21.44996790896601
 20
31.05003477501688
 11
22.64996488757327
 21
32.25003175362414
  0
LINE
  5
5e4
100
AcDbEntity
  8
0
  6
DASHED
 62
     7
100
AcDbLine
 10
22.1264683458279
 20
20.24999798461096
 11
22.54173324992316
 21
32.14162951396919
  0
LINE
  5
5e5
100
AcDbEntity
  8
0
  6
DASHED
 62
     7
100
AcDbLine
 10
21.44985542347297
 20
31.05000666013437
 11
21.0786033598284
 21
20.25000447967459
  0
LINE
  5
5e6
100
AcDbEntity
  8
0
  6
DASHED
 62
     7
100
AcDbLine
 10
6.921227808043364
 20
20.24998741363792
 11
6.549970639305742
 21
31.04997415080601
  0
LINE
  5
5e7
100
AcDbEntity
  8
0
  6
CONTINUOUS
 62
     7
100
AcDbLine
 10
162.0000305175781
 20
33.24999237060547
 11
162.0000305175781
 21
-32.5
  0
LINE
  5
5e8
100
AcDbEntity
  8
0
  6
CONTINUOUS
 62
     7
100
AcDbLine
 10
189.5000305175781
 20
33.24999237060547
 11
162.0000305175781
 21
33.24999237060547
  0
LINE
  5
5e9
100
AcDbEntity
  8
0
  6
CONTINUOUS
 62
     7
100
AcDbLine
 10
202.0000305175781
 20
32.99999237060547
 11
190.0000305175781
 21
32.99999237060547
  0
LINE
  5
5ea
100
AcDbEntity
  8
0
  6
DASHED
 62
     7
100
AcDbLine
 10
164.8999938964844
 20
33.24999237060547
 11
164.8999938964844
 21
32.24999237060547
  0
LINE
  5
5eb
100
AcDbEntity
  8
0
  6
DASHED
 62
     7
100
AcDbLine
 10
187.1000061035156
 20
32.24999237060547
 11
164.8999938964844
 21
32.24999237060547
  0
LINE
  5
5ec
100
AcDbEntity
  8
0
  6
DASHED
 62
     7
100
AcDbLine
 10
168.5498138903951
 20
31.04993530845439
 11
167.3498384909742
 21
32.24991070787522
  0
LINE
  5
5ed
100
AcDbEntity
  8
0
  6
DASHED
 62
     7
100
AcDbLine
 10
167.8739273979158
 20
20.25001071597659
 11
167.4586624938206
 21
32.14164224533482
  0
LINE
  5
5ee
100
AcDbEntity
  8
0
  6
DASHED
 62
     7
100
AcDbLine
 10
168.5497593068502
 20
31.0499952897435
 11
168.9210113704947
 21
20.24999310928372
  0
LINE
  5
5ef
100
AcDbEntity
  8
0
  6
DASHED
 62
     7
100
AcDbLine
 10
183.4499816894531
 20
31.05001068115234
 11
168.5499572753906
 21
31.05001068115234
  0
LINE
  5
5f0
100
AcDbEntity
  8
0
  6
CENTER
 62
     3
100
AcDbLine
 10
176.0000305175781
 20
34.53539276123047
 11
176.0000305175781
 21
19.99999237060547
  0
LINE
  5
5f1
100
AcDbEntity
  8
0
  6
DASHED
 62
     7
100
AcDbLine
 10
187.1000061035156
 20
33.24999237060547
 11
187.1000061035156
 21
32.24999237060547
  0
LINE
  5
5f2
100
AcDbEntity
  8
0
  6
CONTINUOUS
 62
     7
100
AcDbLine
 10
189.5000305175781
 20
33.24999237060547
 11
189.5000305175781
 21
32.99999237060547
  0
LINE
  5
5f3
100
AcDbEntity
  8
0
  6
CONTINUOUS
 62
     7
100
AcDbLine
 10
190.0000305175781
 20
32.99999237060547
 11
190.0000305175781
 21
-33
  0
LINE
  5
5f4
100
AcDbEntity
  8
0
  6
DASHED
 62
     7
100
AcDbLine
 10
183.4499562013222
 20
31.05009175755606
 11
184.649931600743
 21
32.25006715697688
  0
LINE
  5
5f5
100
AcDbEntity
  8
0
  6
DASHED
 62
     7
100
AcDbLine
 10
184.1265114106379
 20
20.24998005127446
 11
184.5417757822092
 21
32.14159633113887
  0
LINE
  5
5f6
100
AcDbEntity
  8
0
  6
DASHED
 62
     7
100
AcDbLine
 10
183.0786141440899
 20
20.25001408150712
 11
183.4498713128276
 21
31.05000081867521
  0
LINE
  5
5f7
100
AcDbEntity
  8
0
  6
CONTINUOUS
 62
     7
100
AcDbLine
 10
202.0000305175781
 20
-33
 11
190.0000305175781
 21
-33
  0
LINE
  5
5f8
100
AcDbEntity
  8
0
  6
CENTER
 62
     3
100
AcDbLine
 10
14
 20
6.777101993560791
 11
14
 21
-6.980327129364014
  0
LINE
  5
5f9
100
AcDbEntity
  8
0
  6
CENTER
 62
     3
100
AcDbLine
 10
176.0000305175781
 20
7.125390529632568
 11
176.0000305175781
 21
-6.806182861328125
  0
LINE
  5
5fa
100
AcDbEntity
  8
0
  6
CONTINUOUS
 62
     7
100
AcDbLine
 10
2.259159942452627e-009
 20
-20.00000046299901
 11
-10.48275774063849
 21
-19.93553970816965
  0
LINE
  5
5fb
100
AcDbEntity
  8
0
  6
CONTINUOUS
 62
     7
100
AcDbLine
 10
3.964633066289025e-010
 20
20.00000050771516
 11
-10.48275736143665
 21
19.93553594277246
  0
LINE
  5
5fc
100
AcDbEntity
  8
0
  6
CONTINUOUS
 62
     7
100
AcDbLine
 10
190.3480340592853
 20
12.1110485873619
 11
198.4612895553458
 21
14.70038449737163
  0
LINE
  5
5fd
100
AcDbEntity
  8
0
  6
CONTINUOUS
 62
     7
100
AcDbLine
 10
190.3480340592853
 20
-12.1110485873619
 11
198.4612895553458
 21
-14.70038449737163
  0
LINE
  5
5fe
100
AcDbEntity
  8
0
  6
CONTINUOUS
 62
     7
100
AcDbLine
 10
198.3259410840828
 20
-14.55553486770867
 11
196.9274802425086
 21
-13.24447658618708
  0
LINE
  5
5ff
100
AcDbEntity
  8
0
  6
CONTINUOUS
 62
     7
100
AcDbLine
 10
195.6000366210938
 20
10.18043041229248
 11
195.6000366210938
 21
-10.18043041229248
  0
LINE
  5
600
100
AcDbEntity
  8
0
  6
CONTINUOUS
 62
     7
100
AcDbLine
 10
198.8000335693359
 20
11.56676578521729
 11
198.8000335693359
 21
-11.56676578521729
  0
LINE
  5
601
100
AcDbEntity
  8
0
  6
CONTINUOUS
 62
     7
100
AcDbLine
 10
199.1160860416447
 20
-12.29629201333228
 11
200.5145468832188
 21
-13.60735029485386
  0
LINE
  5
602
100
AcDbEntity
  8
0
  6
CONTINUOUS
 62
     7
100
AcDbLine
 10
202.0000305175781
 20
-17.03617858886719
 11
202.0000305175781
 21
-33
  0
LINE
  5
603
100
AcDbEntity
  8
0
  6
DASHED
 62
     7
100
AcDbLine
 10
198.8000335693359
 20
-20.5
 11
202.0000305175781
 21
-20.5
  0
LINE
  5
604
100
AcDbEntity
  8
0
  6
CONTINUOUS
 62
     7
100
AcDbLine
 10
198.8000335693359
 20
-15.6498498916626
 11
198.8000335693359
 21
-33
  0
LINE
  5
605
100
AcDbEntity
  8
0
  6
CENTER
 62
     3
100
AcDbLine
 10
196.0500183105469
 20
-25
 11
205.61669921875
 21
-25
  0
LINE
  5
606
100
AcDbEntity
  8
0
  6
DASHED
 62
     7
100
AcDbLine
 10
198.8000335693359
 20
-29.5
 11
202.0000305175781
 21
-29.5
  0
LINE
  5
607
100
AcDbEntity
  8
0
  6
CONTINUOUS
 62
     7
100
AcDbLine
 10
198.3259410840828
 20
14.55553486770867
 11
196.9274802425086
 21
13.24447658618708
  0
LINE
  5
608
100
AcDbEntity
  8
0
  6
CONTINUOUS
 62
     7
100
AcDbLine
 10
198.8000335693359
 20
15.6498498916626
 11
198.8000335693359
 21
33
  0
LINE
  5
609
100
AcDbEntity
  8
0
  6
CONTINUOUS
 62
     7
100
AcDbLine
 10
199.1160860416447
 20
12.29629201333228
 11
200.5145468832188
 21
13.60735029485386
  0
LINE
  5
60a
100
AcDbEntity
  8
0
  6
CONTINUOUS
 62
     7
100
AcDbLine
 10
202.0000305175781
 20
17.03617858886719
 11
202.0000305175781
 21
32.99999237060547
  0
LINE
  5
60b
100
AcDbEntity
  8
0
  6
DASHED
 62
     7
100
AcDbLine
 10
198.8000335693359
 20
20.5
 11
202.0000305175781
 21
20.5
  0
LINE
  5
60c
100
AcDbEntity
  8
0
  6
CENTER
 62
     3
100
AcDbLine
 10
195.9333648681641
 20
25
 11
205.2666931152344
 21
25
  0
LINE
  5
60d
100
AcDbEntity
  8
0
  6
DASHED
 62
     7
100
AcDbLine
 10
198.8000335693359
 20
29.5
 11
202.0000305175781
 21
29.5
  0
LINE
  5
60e
100
AcDbEntity
  8
0
  6
CONTINUOUS
 62
     7
100
AcDbLine
 10
15.14999389648438
 20
1.991859436035156
 11
12.85000610351563
 21
1.991859436035156
  0
LINE
  5
60f
100
AcDbEntity
  8
0
  6
CONTINUOUS
 62
     7
100
AcDbLine
 10
12.85000640481682
 20
1.991872761975479
 11
11.70000986292746
 21
8.812872088093116e-006
  0
LINE
  5
610
100
AcDbEntity
  8
0
  6
CONTINUOUS
 62
     7
100
AcDbLine
 10
10.68451927635566
 20
3.742706339033125
 11
11.19751974406481
 21
2.854163692447121
  0
LINE
  5
611
100
AcDbEntity
  8
0
  6
CONTINUOUS
 62
     7
100
AcDbLine
 10
9.10101318359375
 20
1
 11
10.12701416015625
 21
1
  0
LINE
  5
612
100
AcDbEntity
  8
0
  6
CONTINUOUS
 62
     7
100
AcDbLine
 10
9.10101318359375
 20
-1
 11
10.12701416015625
 21
-1
  0
LINE
  5
613
100
AcDbEntity
  8
0
  6
CONTINUOUS
 62
     7
100
AcDbLine
 10
10.68448530547323
 20
-3.742675897267858
 11
11.19748575124652
 21
-2.854132962715108
  0
LINE
  5
614
100
AcDbEntity
  8
0
  6
CONTINUOUS
 62
     7
100
AcDbLine
 10
12.41652852124977
 20
-4.742671403663064
 11
12.92952896702305
 21
-3.854128469110315
  0
LINE
  5
615
100
AcDbEntity
  8
0
  6
CONTINUOUS
 62
     7
100
AcDbLine
 10
15.58355185591682
 20
-4.742622978881854
 11
15.07055114978904
 21
-3.854079919342785
  0
LINE
  5
616
100
AcDbEntity
  8
0
  6
CONTINUOUS
 62
     7
100
AcDbLine
 10
12.85000610351563
 20
-1.991859436035156
 11
15.14999389648438
 21
-1.991859436035156
  0
LINE
  5
617
100
AcDbEntity
  8
0
  6
CONTINUOUS
 62
     7
100
AcDbLine
 10
15.14996348378001
 20
-1.991847668802622
 11
16.2999523963079
 21
3.065782720135246e-006
  0
LINE
  5
618
100
AcDbEntity
  8
0
  6
CONTINUOUS
 62
     7
100
AcDbLine
 10
11.70001010675973
 20
-1.376517705420355e-005
 11
12.85000283396836
 21
-1.991871107021421
  0
LINE
  5
619
100
AcDbEntity
  8
0
  6
CONTINUOUS
 62
     7
100
AcDbLine
 10
15.1499761002526
 20
1.99185013510526
 11
16.29997264214196
 21
-1.381399813116246e-005
  0
LINE
  5
61a
100
AcDbEntity
  8
0
  6
CONTINUOUS
 62
     7
100
AcDbLine
 10
12.41655983509288
 20
4.74266543956656
 11
12.92956042201135
 21
3.854122586504023
  0
LINE
  5
61b
100
AcDbEntity
  8
0
  6
CONTINUOUS
 62
     7
100
AcDbLine
 10
15.58349046435449
 20
4.742678061652007
 11
15.0704900185812
 21
3.854135127099256
  0
LINE
  5
61c
100
AcDbEntity
  8
0
  6
CONTINUOUS
 62
     7
100
AcDbLine
 10
17.31549400549096
 20
3.742670222755474
 11
16.80249355971767
 21
2.854127288202723
  0
LINE
  5
61d
100
AcDbEntity
  8
0
  6
CONTINUOUS
 62
     7
100
AcDbLine
 10
18.89901733398438
 20
1.000015258789063
 11
17.87301635742188
 21
1.000015258789063
  0
LINE
  5
61e
100
AcDbEntity
  8
0
  6
CONTINUOUS
 62
     7
100
AcDbLine
 10
18.89901733398438
 20
-0.9999542236328125
 11
17.87301635742188
 21
-0.9999542236328125
  0
LINE
  5
61f
100
AcDbEntity
  8
0
  6
CONTINUOUS
 62
     7
100
AcDbLine
 10
17.31557720748118
 20
-3.742637419549867
 11
16.80257673977203
 21
-2.854094772963864
  0
LINE
  5
620
100
AcDbEntity
  8
0
  6
CONTINUOUS
 62
     7
100
AcDbLine
 10
177.1500244140625
 20
1.991859436035156
 11
174.8500366210938
 21
1.991859436035156
  0
LINE
  5
621
100
AcDbEntity
  8
0
  6
CONTINUOUS
 62
     7
100
AcDbLine
 10
174.8500369223949
 20
1.991872761975486
 11
173.7000403805056
 21
8.812872096086721e-006
  0
LINE
  5
622
100
AcDbEntity
  8
0
  6
CONTINUOUS
 62
     7
100
AcDbLine
 10
172.6845497939338
 20
3.74270633903312
 11
173.197550261643
 21
2.854163692447116
  0
LINE
  5
623
100
AcDbEntity
  8
0
  6
CONTINUOUS
 62
     7
100
AcDbLine
 10
171.1010437011719
 20
1
 11
172.1270446777344
 21
1
  0
LINE
  5
624
100
AcDbEntity
  8
0
  6
CONTINUOUS
 62
     7
100
AcDbLine
 10
171.1010437011719
 20
-1
 11
172.1270446777344
 21
-1
  0
LINE
  5
625
100
AcDbEntity
  8
0
  6
CONTINUOUS
 62
     7
100
AcDbLine
 10
172.6845158230513
 20
-3.742675897267858
 11
173.1975162688246
 21
-2.854132962715113
  0
LINE
  5
626
100
AcDbEntity
  8
0
  6
CONTINUOUS
 62
     7
100
AcDbLine
 10
174.4165590388279
 20
-4.742671403663067
 11
174.9295594846012
 21
-3.854128469110322
  0
LINE
  5
627
100
AcDbEntity
  8
0
  6
CONTINUOUS
 62
     7
100
AcDbLine
 10
177.583582373495
 20
-4.742622978881855
 11
177.0705816673672
 21
-3.85407991934278
  0
LINE
  5
628
100
AcDbEntity
  8
0
  6
CONTINUOUS
 62
     7
100
AcDbLine
 10
174.8500366210938
 20
-1.991859436035156
 11
177.1500244140625
 21
-1.991859436035156
  0
LINE
  5
629
100
AcDbEntity
  8
0
  6
CONTINUOUS
 62
     7
100
AcDbLine
 10
177.1499940013581
 20
-1.991847668802635
 11
178.299982913886
 21
3.06578270681257e-006
  0
LINE
  5
62a
100
AcDbEntity
  8
0
  6
CONTINUOUS
 62
     7
100
AcDbLine
 10
173.7000406243379
 20
-1.376517705864444e-005
 11
174.8500333515465
 21
-1.991871107021424
  0
LINE
  5
62b
100
AcDbEntity
  8
0
  6
CONTINUOUS
 62
     7
100
AcDbLine
 10
177.1500066178307
 20
1.991850135105267
 11
178.3000031597201
 21
-1.381399812316886e-005
  0
LINE
  5
62c
100
AcDbEntity
  8
0
  6
CONTINUOUS
 62
     7
100
AcDbLine
 10
174.416590352671
 20
4.742665439566565
 11
174.9295909395895
 21
3.854122586504019
  0
LINE
  5
62d
100
AcDbEntity
  8
0
  6
CONTINUOUS
 62
     7
100
AcDbLine
 10
177.5835209819326
 20
4.742678061652015
 11
177.0705205361593
 21
3.854135127099269
  0
LINE
  5
62e
100
AcDbEntity
  8
0
  6
CONTINUOUS
 62
     7
100
AcDbLine
 10
179.315524523069
 20
3.742670222755478
 11
178.8025240772957
 21
2.854127288202733
  0
LINE
  5
62f
100
AcDbEntity
  8
0
  6
CONTINUOUS
 62
     7
100
AcDbLine
 10
180.8990478515625
 20
1.000015258789063
 11
179.873046875
 21
1.000015258789063
  0
LINE
  5
630
100
AcDbEntity
  8
0
  6
CONTINUOUS
 62
     7
100
AcDbLine
 10
180.8990478515625
 20
-0.9999542236328125
 11
179.873046875
 21
-0.9999542236328125
  0
LINE
  5
631
100
AcDbEntity
  8
0
  6
CONTINUOUS
 62
     7
100
AcDbLine
 10
179.3156077250593
 20
-3.742637419549865
 11
178.8026072573502
 21
-2.854094772963862
  0
LINE
  5
632
100
AcDbEntity
  8
0
  6
CONTINUOUS
 62
     7
100
AcDbLine
 10
189.5000305175781
 20
-33
 11
162.5000305175781
 21
-33
  0
LINE
  5
633
100
AcDbEntity
  8
0
  6
CONTINUOUS
 62
     7
100
AcDbLine
 10
189.5000305175781
 20
32.99999237060547
 11
162.5000305175781
 21
32.99999237060547
  0
ARC
  5
634
100
AcDbEntity
  8
0
  6
CONTINUOUS
 62
     7
100
AcDbCircle
 10
-20.93753051757813
 20
0
 40
7.9375
100
AcDbArc
 50
318.4201032765242
 51
41.57984208196314
  0
ARC
  5
635
100
AcDbEntity
  8
0
  6
CONTINUOUS
 62
     7
100
AcDbCircle
 10
-38.4447021484375
 20
11.40267944335938
 40
4.555310249328613
100
AcDbArc
 50
181.7684948917008
 51
232.385893019263
  0
ARC
  5
636
100
AcDbEntity
  8
0
  6
CONTINUOUS
 62
     7
100
AcDbCircle
 10
-36.55532836914063
 20
-11.40267944335938
 40
4.555310249328613
100
AcDbArc
 50
0
 51
52.38582972632696
  0
ARC
  5
637
100
AcDbEntity
  8
0
  6
CONTINUOUS
 62
     7
100
AcDbCircle
 10
-38.4447021484375
 20
-11.40267944335938
 40
4.555310249328613
100
AcDbArc
 50
127.6141069807377
 51
178.2315051083
  0
ARC
  5
638
100
AcDbEntity
  8
0
  6
CONTINUOUS
 62
     7
100
AcDbCircle
 10
-25.00003051757813
 20
0
 40
18
100
AcDbArc
 50
154.3410606747261
 51
205.6588810412955
  0
ARC
  5
639
100
AcDbEntity
  8
0
  6
CONTINUOUS
 62
     7
100
AcDbCircle
 10
-50.00003051757813
 20
0
 40
18
100
AcDbArc
 50
334.3410693261488
 51
25.67816448655464
  0
ARC
  5
63a
100
AcDbEntity
  8
0
  6
CONTINUOUS
 62
     7
100
AcDbCircle
 10
-36.55532836914063
 20
11.40267944335938
 40
4.555310249328613
100
AcDbArc
 50
307.6141702736738
 51
360
  0
ARC
  5
63b
100
AcDbEntity
  8
0
  6
CONTINUOUS
 62
     7
100
AcDbCircle
 10
0.5
 20
32.49999237060547
 40
0.5
100
AcDbArc
 50
89.9999273723973
 51
179.9999913485778
  0
ARC
  5
63c
100
AcDbEntity
  8
0
  6
CONTINUOUS
 62
     7
100
AcDbCircle
 10
0.5
 20
-32.5
 40
0.5
100
AcDbArc
 50
179.9999776881994
 51
269.9999460417327
  0
ARC
  5
63d
100
AcDbEntity
  8
0
  6
CONTINUOUS
 62
     7
100
AcDbCircle
 10
27.5
 20
-32.5
 40
0.5
100
AcDbArc
 50
269.9999906653335
 51
359.9999658490549
  0
ARC
  5
63e
100
AcDbEntity
  8
0
  6
CONTINUOUS
 62
     7
100
AcDbCircle
 10
27.5
 20
32.49999237060547
 40
0.5
100
AcDbArc
 50
359.9999453584874
 51
89.9999273723972
  0
ARC
  5
63f
100
AcDbEntity
  8
0
  6
CONTINUOUS
 62
     7
100
AcDbCircle
 10
162.5000305175781
 20
32.49999237060547
 40
0.5
100
AcDbArc
 50
89.99998201391097
 51
179.9999640278211
  0
ARC
  5
640
100
AcDbEntity
  8
0
  6
CONTINUOUS
 62
     7
100
AcDbCircle
 10
189.5000305175781
 20
32.49999237060547
 40
0.5
100
AcDbArc
 50
359.9999453584874
 51
89.99998201391097
  0
ARC
  5
641
100
AcDbEntity
  8
0
  6
CONTINUOUS
 62
     7
100
AcDbCircle
 10
189.5000305175781
 20
-32.5
 40
0.5
100
AcDbArc
 50
269.9999906653331
 51
359.9999658490549
  0
ARC
  5
642
100
AcDbEntity
  8
0
  6
CONTINUOUS
 62
     7
100
AcDbCircle
 10
162.5000305175781
 20
-32.5
 40
0.5
100
AcDbArc
 50
179.9999640278211
 51
269.9999460417336
  0
ARC
  5
643
100
AcDbEntity
  8
0
  6
CONTINUOUS
 62
     7
100
AcDbCircle
 10
190.5000305175781
 20
11.63472175598145
 40
0.5
100
AcDbArc
 50
107.700362606485
 51
179.9999776881997
  0
ARC
  5
644
100
AcDbEntity
  8
0
  6
CONTINUOUS
 62
     7
100
AcDbCircle
 10
190.5000305175781
 20
-11.63472175598145
 40
0.5
100
AcDbArc
 50
179.999950367443
 51
252.2995654491587
  0
ARC
  5
645
100
AcDbEntity
  8
0
  6
CONTINUOUS
 62
     7
100
AcDbCircle
 10
197.3000335693359
 20
-15.6498498916626
 40
1.5
100
AcDbArc
 50
359.9999813306654
 51
46.84759474348407
  0
ARC
  5
646
100
AcDbEntity
  8
0
  6
CONTINUOUS
 62
     7
100
AcDbCircle
 10
199.8000335693359
 20
-10.18043041229248
 40
4.199999809265137
100
AcDbArc
 50
180.0000086514227
 51
226.8475931496232
  0
ARC
  5
647
100
AcDbEntity
  8
0
  6
CONTINUOUS
 62
     7
100
AcDbCircle
 10
199.8000335693359
 20
-11.56676578521729
 40
1
100
AcDbArc
 50
179.9999949910437
 51
226.8475794892453
  0
ARC
  5
648
100
AcDbEntity
  8
0
  6
CONTINUOUS
 62
     7
100
AcDbCircle
 10
197.3000335693359
 20
-17.03617858886719
 40
4.699999809265137
100
AcDbArc
 50
9.061369143097069e-005
 51
46.84764938499757
  0
ARC
  5
649
100
AcDbEntity
  8
0
  6
CONTINUOUS
 62
     7
100
AcDbCircle
 10
199.8000335693359
 20
10.18043041229248
 40
4.199999809265137
100
AcDbArc
 50
133.1523522088641
 51
179.9999367070646
  0
ARC
  5
64a
100
AcDbEntity
  8
0
  6
CONTINUOUS
 62
     7
100
AcDbCircle
 10
197.3000335693359
 20
15.6498498916626
 40
1.5
100
AcDbArc
 50
313.1523506150031
 51
359.9999624339603
  0
ARC
  5
64b
100
AcDbEntity
  8
0
  6
CONTINUOUS
 62
     7
100
AcDbCircle
 10
199.8000335693359
 20
11.56676578521729
 40
1
100
AcDbArc
 50
133.1523658692422
 51
179.999950367443
  0
ARC
  5
64c
100
AcDbEntity
  8
0
  6
CONTINUOUS
 62
     7
100
AcDbCircle
 10
197.3000335693359
 20
17.03617858886719
 40
4.699999809265137
100
AcDbArc
 50
313.1522959734898
 51
359.9998531509336
  0
CIRCLE
  5
64d
100
AcDbEntity
  8
0
  6
CONTINUOUS
 62
     7
100
AcDbCircle
 10
14
 20
1.1444091796875e-005
 40
1.991851329803467
  0
CIRCLE
  5
64e
100
AcDbEntity
  8
0
  6
CONTINUOUS
 62
     7
100
AcDbCircle
 10
14
 20
0
 40
2.299999952316284
  0
CIRCLE
  5
64f
100
AcDbEntity
  8
0
  6
CONTINUOUS
 62
     7
100
AcDbCircle
 10
14
 20
0
 40
5.5
  0
CIRCLE
  5
650
100
AcDbEntity
  8
0
  6
CONTINUOUS
 62
     7
100
AcDbCircle
 10
14
 20
0
 40
5
  0
ARC
  5
651
100
AcDbEntity
  8
0
  6
CONTINUOUS
 62
     7
100
AcDbCircle
 10
14
 20
0
 40
4
100
AcDbArc
 50
134.4775591720084
 51
165.5225174781439
  0
ARC
  5
652
100
AcDbEntity
  8
0
  6
CONTINUOUS
 62
     7
100
AcDbCircle
 10
14
 20
0
 40
4
100
AcDbArc
 50
194.4774825218568
 51
225.5225227902624
  0
ARC
  5
653
100
AcDbEntity
  8
0
  6
CONTINUOUS
 62
     7
100
AcDbCircle
 10
14
 20
0
 40
4
100
AcDbArc
 50
254.4775115122656
 51
285.5229342712647
  0
CIRCLE
  5
654
100
AcDbEntity
  8
0
  6
CONTINUOUS
 62
     7
100
AcDbCircle
 10
14
 20
0
 40
2.5
  0
ARC
  5
655
100
AcDbEntity
  8
0
  6
CONTINUOUS
 62
     7
100
AcDbCircle
 10
14
 20
0
 40
4
100
AcDbArc
 50
74.47796731370649
 51
105.5229392802203
  0
ARC
  5
656
100
AcDbEntity
  8
0
  6
CONTINUOUS
 62
     7
100
AcDbCircle
 10
14
 20
0
 40
4
100
AcDbArc
 50
14.47771463460237
 51
45.52311861058121
  0
ARC
  5
657
100
AcDbEntity
  8
0
  6
CONTINUOUS
 62
     7
100
AcDbCircle
 10
14
 20
0
 40
4
100
AcDbArc
 50
314.4775780687149
 51
345.5231323088554
  0
CIRCLE
  5
658
100
AcDbEntity
  8
0
  6
CONTINUOUS
 62
     7
100
AcDbCircle
 10
176.0000305175781
 20
1.1444091796875e-005
 40
1.991851329803467
  0
CIRCLE
  5
659
100
AcDbEntity
  8
0
  6
CONTINUOUS
 62
     7
100
AcDbCircle
 10
176.0000305175781
 20
0
 40
2.299999952316284
  0
CIRCLE
  5
65a
100
AcDbEntity
  8
0
  6
CONTINUOUS
 62
     7
100
AcDbCircle
 10
176.0000305175781
 20
0
 40
5.5
  0
CIRCLE
  5
65b
100
AcDbEntity
  8
0
  6
CONTINUOUS
 62
     7
100
AcDbCircle
 10
176.0000305175781
 20
0
 40
5
  0
ARC
  5
65c
100
AcDbEntity
  8
0
  6
CONTINUOUS
 62
     7
100
AcDbCircle
 10
176.0000305175781
 20
0
 40
4
100
AcDbArc
 50
134.4775591720083
 51
165.5225174781439
  0
ARC
  5
65d
100
AcDbEntity
  8
0
  6
CONTINUOUS
 62
     7
100
AcDbCircle
 10
176.0000305175781
 20
0
 40
4
100
AcDbArc
 50
194.4774825218568
 51
225.5225227902623
  0
ARC
  5
65e
100
AcDbEntity
  8
0
  6
CONTINUOUS
 62
     7
100
AcDbCircle
 10
176.0000305175781
 20
0
 40
4
100
AcDbArc
 50
254.4775115122658
 51
285.5229342712648
  0
CIRCLE
  5
65f
100
AcDbEntity
  8
0
  6
CONTINUOUS
 62
     7
100
AcDbCircle
 10
176.0000305175781
 20
0
 40
2.5
  0
ARC
  5
660
100
AcDbEntity
  8
0
  6
CONTINUOUS
 62
     7
100
AcDbCircle
 10
176.0000305175781
 20
0
 40
4
100
AcDbArc
 50
74.47796731370656
 51
105.5229392802201
  0
ARC
  5
661
100
AcDbEntity
  8
0
  6
CONTINUOUS
 62
     7
100
AcDbCircle
 10
176.0000305175781
 20
0
 40
4
100
AcDbArc
 50
14.47771463460234
 51
45.52311861058107
  0
ARC
  5
662
100
AcDbEntity
  8
0
  6
CONTINUOUS
 62
     7
100
AcDbCircle
 10
176.0000305175781
 20
0
 40
4
100
AcDbArc
 50
314.4775780687148
 51
345.5231323088554
  0
MTEXT
  5
663
100
AcDbEntity
  8
0
  6
CONTINUOUS
 62
     7
100
AcDbMText
 10
35.34643520414829
 20
-10.75
 40
0.5
 41
34
 71
     7
 72
     1
  1
{\W0.842735;ＢＮ－６１０５－ＦＢ－５０－Ｂ－＊}
  0
ENDBLK
  8
0
  5
664
100
AcDbEntity
100
AcDbBlockEnd
  0
BLOCK
  8
0
  5
665
100
AcDbEntity
100
AcDbBlockBegin
  2
KOZU0006
 70
    64
 10
0
 20
0
  0
POINT
  5
666
100
AcDbEntity
  8
0
  6
CONTINUOUS
 62
     7
100
AcDbPoint
 10
0
 20
0
  0
LINE
  5
667
100
AcDbEntity
  8
0
  6
CONTINUOUS
 62
     7
100
AcDbLine
 10
33.29421997070313
 20
0
 11
41.70578002929688
 21
0
  0
LINE
  5
668
100
AcDbEntity
  8
0
  6
CONTINUOUS
 62
     7
100
AcDbLine
 10
33.29421997070313
 20
13.5
 11
41.70578002929688
 21
13.5
  0
LINE
  5
669
100
AcDbEntity
  8
0
  6
CONTINUOUS
 62
     7
100
AcDbLine
 10
43.0000005726998
 20
11.25834858388283
 11
41.70578058457495
 21
13.50000331925251
  0
LINE
  5
66a
100
AcDbEntity
  8
0
  6
CONTINUOUS
 62
     7
100
AcDbLine
 10
43.00001525878906
 20
11.25833129882813
 11
43.00001525878906
 21
-11.25833892822266
  0
LINE
  5
66b
100
AcDbEntity
  8
0
  6
CONTINUOUS
 62
     7
100
AcDbLine
 10
43.00001525878906
 20
9
 11
56.50001525878906
 21
9
  0
LINE
  5
66c
100
AcDbEntity
  8
0
  6
CONTINUOUS
 62
     7
100
AcDbLine
 10
43.00001525878906
 20
8.188003540039063
 11
57.31202697753906
 21
8.188003540039063
  0
LINE
  5
66d
100
AcDbEntity
  8
0
  6
CONTINUOUS
 62
     7
100
AcDbLine
 10
56.49999764220937
 20
8.99999381897587
 11
57.99999812229847
 21
7.499991062954457
  0
LINE
  5
66e
100
AcDbEntity
  8
0
  6
CONTINUOUS
 62
     7
100
AcDbLine
 10
56.50001525878906
 20
9
 11
56.50001525878906
 21
-9.000007629394531
  0
LINE
  5
66f
100
AcDbEntity
  8
0
  6
CONTINUOUS
 62
     7
100
AcDbLine
 10
58.00001525878906
 20
7.5
 11
58.00001525878906
 21
-7.5
  0
LINE
  5
670
100
AcDbEntity
  8
0
  6
CONTINUOUS
 62
     7
100
AcDbLine
 10
57.99997595306824
 20
-7.499992748810239
 11
56.49996780224612
 21
-8.999998623691852
  0
LINE
  5
671
100
AcDbEntity
  8
0
  6
CONTINUOUS
 62
     7
100
AcDbLine
 10
43.00001525878906
 20
-8.187995910644531
 11
57.31202697753906
 21
-8.187995910644531
  0
LINE
  5
672
100
AcDbEntity
  8
0
  6
CONTINUOUS
 62
     7
100
AcDbLine
 10
43.00001525878906
 20
-9.000007629394531
 11
56.50001525878906
 21
-9.000007629394531
  0
LINE
  5
673
100
AcDbEntity
  8
0
  6
CONTINUOUS
 62
     7
100
AcDbLine
 10
42.99999117289821
 20
-11.25833434723874
 11
41.70576546272739
 21
-13.4999989934826
  0
LINE
  5
674
100
AcDbEntity
  8
0
  6
CONTINUOUS
 62
     7
100
AcDbLine
 10
33.29426574707031
 20
-13.50000762939453
 11
41.70578002929688
 21
-13.50000762939453
  0
LINE
  5
675
100
AcDbEntity
  8
0
  6
CONTINUOUS
 62
     7
100
AcDbLine
 10
31.99999983190395
 20
-11.25831252873477
 11
33.29424270821269
 21
-13.50000690760115
  0
LINE
  5
676
100
AcDbEntity
  8
0
  6
CONTINUOUS
 62
     7
100
AcDbLine
 10
32.00001525878906
 20
11.25833129882813
 11
32.00001525878906
 21
-11.25833892822266
  0
LINE
  5
677
100
AcDbEntity
  8
0
  6
CONTINUOUS
 62
     7
100
AcDbLine
 10
31.99997912495212
 20
11.25833769839821
 11
33.2942067424716
 21
13.50000564826679
  0
LINE
  5
678
100
AcDbEntity
  8
0
  6
CONTINUOUS
 62
     7
100
AcDbLine
 10
26.00001525878906
 20
9
 11
32.00001525878906
 21
9
  0
LINE
  5
679
100
AcDbEntity
  8
0
  6
CONTINUOUS
 62
     7
100
AcDbLine
 10
26.00001525878906
 20
8.188003540039063
 11
32.00001525878906
 21
8.188003540039063
  0
LINE
  5
67a
100
AcDbEntity
  8
0
  6
CONTINUOUS
 62
     7
100
AcDbLine
 10
26.00001525878906
 20
-9.000007629394531
 11
26.00001525878906
 21
9
  0
LINE
  5
67b
100
AcDbEntity
  8
0
  6
CONTINUOUS
 62
     7
100
AcDbLine
 10
15.00001525878906
 20
8.5
 11
26.00001525878906
 21
8.5
  0
LINE
  5
67c
100
AcDbEntity
  8
0
  6
CONTINUOUS
 62
     7
100
AcDbLine
 10
26.00001525878906
 20
-9.000007629394531
 11
32.00001525878906
 21
-9.000007629394531
  0
LINE
  5
67d
100
AcDbEntity
  8
0
  6
CONTINUOUS
 62
     7
100
AcDbLine
 10
26.00001525878906
 20
-8.187995910644531
 11
32.00001525878906
 21
-8.187995910644531
  0
LINE
  5
67e
100
AcDbEntity
  8
0
  6
CONTINUOUS
 62
     7
100
AcDbLine
 10
15.00003051757813
 20
-8.500007629394531
 11
26.00001525878906
 21
-8.500007629394531
  0
LINE
  5
67f
100
AcDbEntity
  8
0
  6
CONTINUOUS
 62
     7
100
AcDbLine
 10
-0.5
 20
33
 11
-27.49999237060547
 21
33
  0
LINE
  5
680
100
AcDbEntity
  8
0
  6
CONTINUOUS
 62
     7
100
AcDbLine
 10
-27.99999237060547
 20
32.5
 11
-27.99999237060547
 21
-32.50000762939453
  0
LINE
  5
681
100
AcDbEntity
  8
0
  6
CONTINUOUS
 62
     7
100
AcDbLine
 10
0
 20
32.5
 11
0
 21
-32.50000762939453
  0
LINE
  5
682
100
AcDbEntity
  8
0
  6
CONTINUOUS
 62
     7
100
AcDbLine
 10
10.50027499708888
 20
19.91665895218821
 11
-7.50350329223326e-006
 21
20.03334135407355
  0
LINE
  5
683
100
AcDbEntity
  8
0
  6
CONTINUOUS
 62
     7
100
AcDbLine
 10
10.50025591162176
 20
19.91665387523605
 11
10.99996729662326
 21
19.38247654354893
  0
LINE
  5
684
100
AcDbEntity
  8
0
  6
CONTINUOUS
 62
     7
100
AcDbLine
 10
10.48275756835938
 20
19.9168701171875
 11
10.48275756835938
 21
-19.91724395751953
  0
LINE
  5
685
100
AcDbEntity
  8
0
  6
CONTINUOUS
 62
     7
100
AcDbLine
 10
11
 20
19.38247680664063
 11
11
 21
-19.40000152587891
  0
LINE
  5
686
100
AcDbEntity
  8
0
  6
CONTINUOUS
 62
     7
100
AcDbLine
 10
11
 20
10
 11
13.00001525878906
 21
10
  0
LINE
  5
687
100
AcDbEntity
  8
0
  6
CONTINUOUS
 62
     7
100
AcDbLine
 10
13.00002148151383
 20
9.999987637996423
 11
15.00002146363243
 21
8.499987614154566
  0
LINE
  5
688
100
AcDbEntity
  8
0
  6
CONTINUOUS
 62
     7
100
AcDbLine
 10
11.00001525878906
 20
-10.00000762939453
 11
13.00003051757813
 21
-10.00000762939453
  0
LINE
  5
689
100
AcDbEntity
  8
0
  6
CONTINUOUS
 62
     7
100
AcDbLine
 10
13.00002872943905
 20
-10.00002273321118
 11
15.00002871155766
 21
-8.500022709369322
  0
LINE
  5
68a
100
AcDbEntity
  8
0
  6
CONTINUOUS
 62
     7
100
AcDbLine
 10
10.9999870159648
 20
-19.39997099126553
 11
10.48274461944875
 21
-19.91721321338051
  0
LINE
  5
68b
100
AcDbEntity
  8
0
  6
CONTINUOUS
 62
     7
100
AcDbLine
 10
-1.33227896246535e-005
 20
-20.00000353582771
 11
10.48273796513912
 21
-19.9172397095722
  0
LINE
  5
68c
100
AcDbEntity
  8
0
  6
CONTINUOUS
 62
     7
100
AcDbLine
 10
-0.5
 20
-33.00000762939453
 11
-27.49999237060547
 21
-33.00000762939453
  0
LINE
  5
68d
100
AcDbEntity
  8
0
  6
CONTINUOUS
 62
     7
100
AcDbLine
 10
21.26795959472656
 20
8.5
 11
21.26795959472656
 21
-8.500007629394531
  0
LINE
  5
68e
100
AcDbEntity
  8
0
  6
CONTINUOUS
 62
     7
100
AcDbLine
 10
23.00001525878906
 20
-8.500007629394531
 11
23.00001525878906
 21
8.5
  0
LINE
  5
68f
100
AcDbEntity
  8
0
  6
CONTINUOUS
 62
     7
100
AcDbLine
 10
25.14281319295029
 20
8.499998600323856
 11
26.00000166982576
 21
8.188007498413313
  0
LINE
  5
690
100
AcDbEntity
  8
0
  6
CONTINUOUS
 62
     7
100
AcDbLine
 10
25.14289271402749
 20
-8.499994014114055
 11
26.00003817518869
 21
-8.188018568643674
  0
LINE
  5
691
100
AcDbEntity
  8
0
  6
CENTER
 62
     3
100
AcDbLine
 10
-161.9999847412109
 20
-23.99997711181641
 11
-27.99999237060547
 21
-23.99997711181641
  0
LINE
  5
692
100
AcDbEntity
  8
0
  6
CONTINUOUS
 62
     7
100
AcDbLine
 10
-161.9999847412109
 20
-27.59000396728516
 11
-27.99999237060547
 21
-27.59000396728516
  0
LINE
  5
693
100
AcDbEntity
  8
0
  6
CONTINUOUS
 62
     7
100
AcDbLine
 10
-161.9999847412109
 20
-20.40998077392578
 11
-27.99999237060547
 21
-20.40998077392578
  0
LINE
  5
694
100
AcDbEntity
  8
0
  6
CENTER
 62
     3
100
AcDbLine
 10
-197.1045532226563
 20
0
 11
62.24545288085938
 21
0
  0
LINE
  5
695
100
AcDbEntity
  8
0
  6
CONTINUOUS
 62
     7
100
AcDbLine
 10
-161.9999847412109
 20
20.41000366210938
 11
-27.99999237060547
 21
20.41000366210938
  0
LINE
  5
696
100
AcDbEntity
  8
0
  6
CENTER
 62
     3
100
AcDbLine
 10
-161.9999847412109
 20
24
 11
-27.99999237060547
 21
24
  0
LINE
  5
697
100
AcDbEntity
  8
0
  6
CONTINUOUS
 62
     7
100
AcDbLine
 10
-161.9999847412109
 20
27.58999633789063
 11
-27.99999237060547
 21
27.58999633789063
  0
LINE
  5
698
100
AcDbEntity
  8
0
  6
CONTINUOUS
 62
     7
100
AcDbLine
 10
-161.9999847412109
 20
32.5
 11
-161.9999847412109
 21
-32.50000762939453
  0
LINE
  5
699
100
AcDbEntity
  8
0
  6
CONTINUOUS
 62
     7
100
AcDbLine
 10
-189.5
 20
-33.00000762939453
 11
-162.4999847412109
 21
-33.00000762939453
  0
LINE
  5
69a
100
AcDbEntity
  8
0
  6
CONTINUOUS
 62
     7
100
AcDbLine
 10
-190
 20
34.74132537841797
 11
-190
 21
-34.74131393432617
  0
LINE
  5
69b
100
AcDbEntity
  8
0
  6
CONTINUOUS
 62
     7
100
AcDbLine
 10
-189.5
 20
33
 11
-162.4999847412109
 21
33
  0
LINE
  5
69c
100
AcDbEntity
  8
0
  6
CONTINUOUS
 62
     7
100
AcDbLine
 10
-196.2000019337806
 20
-55.0000033687693
 11
-190.1370815199832
 21
-35.63778727495732
  0
LINE
  5
69d
100
AcDbEntity
  8
0
  6
CONTINUOUS
 62
     7
100
AcDbLine
 10
-196.2000122070313
 20
-55
 11
-202
 21
-55
  0
LINE
  5
69e
100
AcDbEntity
  8
0
  6
CONTINUOUS
 62
     7
100
AcDbLine
 10
-198.7999877929688
 20
-55
 11
-198.7999877929688
 21
-36.70000076293945
  0
LINE
  5
69f
100
AcDbEntity
  8
0
  6
DASHED
 62
     7
100
AcDbLine
 10
-198.7999877929688
 20
-49.5
 11
-202
 21
-49.5
  0
LINE
  5
6a0
100
AcDbEntity
  8
0
  6
CONTINUOUS
 62
     7
100
AcDbLine
 10
-202
 20
-55
 11
-202
 21
-35
  0
LINE
  5
6a1
100
AcDbEntity
  8
0
  6
CENTER
 62
     3
100
AcDbLine
 10
-194.4349822998047
 20
-45
 11
-206.853271484375
 21
-45
  0
LINE
  5
6a2
100
AcDbEntity
  8
0
  6
DASHED
 62
     7
100
AcDbLine
 10
-198.7999877929688
 20
-40.5
 11
-202
 21
-40.5
  0
LINE
  5
6a3
100
AcDbEntity
  8
0
  6
CONTINUOUS
 62
     7
100
AcDbLine
 10
-193.1999969482422
 20
-32
 11
-199
 21
-32
  0
LINE
  5
6a4
100
AcDbEntity
  8
0
  6
CONTINUOUS
 62
     7
100
AcDbLine
 10
-193
 20
-35.20000076293945
 11
-197.3000030517578
 21
-35.20000076293945
  0
LINE
  5
6a5
100
AcDbEntity
  8
0
  6
CONTINUOUS
 62
     7
100
AcDbLine
 10
-193.1999969482422
 20
-32
 11
-193.1999969482422
 21
32
  0
LINE
  5
6a6
100
AcDbEntity
  8
0
  6
CONTINUOUS
 62
     7
100
AcDbLine
 10
-195.1999969482422
 20
-31.70000076293945
 11
-193.1999969482422
 21
-31.70000076293945
  0
LINE
  5
6a7
100
AcDbEntity
  8
0
  6
CONTINUOUS
 62
     7
100
AcDbLine
 10
-200.5556488037109
 20
-30.5
 11
-195.1999969482422
 21
-30.5
  0
LINE
  5
6a8
100
AcDbEntity
  8
0
  6
CONTINUOUS
 62
     7
100
AcDbLine
 10
-195.1999969482422
 20
-31.70000076293945
 11
-195.1999969482422
 21
-16.29999923706055
  0
LINE
  5
6a9
100
AcDbEntity
  8
0
  6
CONTINUOUS
 62
     7
100
AcDbLine
 10
-195.1999969482422
 20
-16.29999923706055
 11
-193.1999969482422
 21
-16.29999923706055
  0
LINE
  5
6aa
100
AcDbEntity
  8
0
  6
CONTINUOUS
 62
     7
100
AcDbLine
 10
-200.5556640625
 20
-17.5
 11
-195.1999969482422
 21
-17.5
  0
LINE
  5
6ab
100
AcDbEntity
  8
0
  6
CONTINUOUS
 62
     7
100
AcDbLine
 10
-200.7000457370441
 20
-17.75000045886017
 11
-200.5557013794563
 21
-17.49998876182691
  0
LINE
  5
6ac
100
AcDbEntity
  8
0
  6
CONTINUOUS
 62
     7
100
AcDbLine
 10
-200.6999969482422
 20
-30.24999809265137
 11
-200.6999969482422
 21
-17.75000190734863
  0
LINE
  5
6ad
100
AcDbEntity
  8
0
  6
CONTINUOUS
 62
     7
100
AcDbLine
 10
-200.7000214779102
 20
-30.24998904098625
 11
-200.5556848226906
 21
-30.49998756565196
  0
LINE
  5
6ae
100
AcDbEntity
  8
0
  6
CONTINUOUS
 62
     7
100
AcDbLine
 10
-195.1999969482422
 20
16.29997634887695
 11
-193.1999969482422
 21
16.29997634887695
  0
LINE
  5
6af
100
AcDbEntity
  8
0
  6
CONTINUOUS
 62
     7
100
AcDbLine
 10
-195.1999969482422
 20
16.29997634887695
 11
-195.1999969482422
 21
31.69997787475586
  0
LINE
  5
6b0
100
AcDbEntity
  8
0
  6
CONTINUOUS
 62
     7
100
AcDbLine
 10
-200.5556488037109
 20
17.49997711181641
 11
-195.1999969482422
 21
17.49997711181641
  0
LINE
  5
6b1
100
AcDbEntity
  8
0
  6
CONTINUOUS
 62
     7
100
AcDbLine
 10
-200.6999985943178
 20
17.74998636159471
 11
-200.5556619390983
 21
17.49998783692901
  0
LINE
  5
6b2
100
AcDbEntity
  8
0
  6
CONTINUOUS
 62
     7
100
AcDbLine
 10
-200.6999969482422
 20
17.74997901916504
 11
-200.6999969482422
 21
30.24997520446777
  0
LINE
  5
6b3
100
AcDbEntity
  8
0
  6
CONTINUOUS
 62
     7
100
AcDbLine
 10
-200.7000337659935
 20
30.24998052882754
 11
-200.5556894084056
 21
30.4999922258608
  0
LINE
  5
6b4
100
AcDbEntity
  8
0
  6
CONTINUOUS
 62
     7
100
AcDbLine
 10
-200.5556640625
 20
30.49997711181641
 11
-195.1999969482422
 21
30.49997711181641
  0
LINE
  5
6b5
100
AcDbEntity
  8
0
  6
CENTER
 62
     3
100
AcDbLine
 10
-201.61328125
 20
23.99997711181641
 11
-193.1999969482422
 21
23.99997711181641
  0
LINE
  5
6b6
100
AcDbEntity
  8
0
  6
CONTINUOUS
 62
     7
100
AcDbLine
 10
-195.1999969482422
 20
31.69997787475586
 11
-193.1999969482422
 21
31.69997787475586
  0
LINE
  5
6b7
100
AcDbEntity
  8
0
  6
CONTINUOUS
 62
     7
100
AcDbLine
 10
-193.1999969482422
 20
32
 11
-198.9999847412109
 21
32
  0
LINE
  5
6b8
100
AcDbEntity
  8
0
  6
CONTINUOUS
 62
     7
100
AcDbLine
 10
-196.1999974964687
 20
55.00000607343866
 11
-190.1370855589783
 21
35.63779532011454
  0
LINE
  5
6b9
100
AcDbEntity
  8
0
  6
CONTINUOUS
 62
     7
100
AcDbLine
 10
-193
 20
35.20000076293945
 11
-197.2999877929688
 21
35.20000076293945
  0
LINE
  5
6ba
100
AcDbEntity
  8
0
  6
CONTINUOUS
 62
     7
100
AcDbLine
 10
-202
 20
35
 11
-202
 21
55
  0
LINE
  5
6bb
100
AcDbEntity
  8
0
  6
DASHED
 62
     7
100
AcDbLine
 10
-198.7999877929688
 20
40.5
 11
-202
 21
40.5
  0
LINE
  5
6bc
100
AcDbEntity
  8
0
  6
CONTINUOUS
 62
     7
100
AcDbLine
 10
-198.7999877929688
 20
36.70000076293945
 11
-198.7999877929688
 21
55
  0
LINE
  5
6bd
100
AcDbEntity
  8
0
  6
CENTER
 62
     3
100
AcDbLine
 10
-194.0343933105469
 20
45
 11
-207.2538604736328
 21
45
  0
LINE
  5
6be
100
AcDbEntity
  8
0
  6
DASHED
 62
     7
100
AcDbLine
 10
-198.7999877929688
 20
49.5
 11
-202
 21
49.5
  0
LINE
  5
6bf
100
AcDbEntity
  8
0
  6
CONTINUOUS
 62
     7
100
AcDbLine
 10
-196.1999816894531
 20
55
 11
-202
 21
55
  0
LINE
  5
6c0
100
AcDbEntity
  8
0
  6
CONTINUOUS
 62
     7
100
AcDbLine
 10
-200.1999969482422
 20
23.99997711181641
 11
-195.1999969482422
 21
23.99997711181641
  0
LINE
  5
6c1
100
AcDbEntity
  8
0
  6
CONTINUOUS
 62
     7
100
AcDbLine
 10
-200.1999969482422
 20
-24
 11
-195.1999969482422
 21
-24
  0
LINE
  5
6c2
100
AcDbEntity
  8
0
  6
CENTER
 62
     3
100
AcDbLine
 10
-201.61328125
 20
-23.99997711181641
 11
-193.1999969482422
 21
-23.99997711181641
  0
ARC
  5
6c3
100
AcDbEntity
  8
0
  6
CONTINUOUS
 62
     7
100
AcDbCircle
 10
24.75080871582031
 20
6.75
 40
18.24921226501465
100
AcDbArc
 50
338.2917856383203
 51
21.70810507865368
  0
ARC
  5
6c4
100
AcDbEntity
  8
0
  6
CONTINUOUS
 62
     7
100
AcDbCircle
 10
24.75080871582031
 20
-6.75
 40
18.24921226501465
100
AcDbArc
 50
338.2917856383203
 51
21.70810507865368
  0
ARC
  5
6c5
100
AcDbEntity
  8
0
  6
CONTINUOUS
 62
     7
100
AcDbCircle
 10
50.2496337890625
 20
-6.75
 40
18.24961280822754
100
AcDbArc
 50
158.2923114492002
 51
201.7075619649298
  0
ARC
  5
6c6
100
AcDbEntity
  8
0
  6
CONTINUOUS
 62
     7
100
AcDbCircle
 10
50.2496337890625
 20
6.75
 40
18.24961280822754
100
AcDbArc
 50
158.2923114492002
 51
201.7075619649298
  0
ARC
  5
6c7
100
AcDbEntity
  8
0
  6
CONTINUOUS
 62
     7
100
AcDbCircle
 10
-0.5
 20
32.5
 40
0.5
100
AcDbArc
 50
359.9999795094332
 51
90.00003665542401
  0
ARC
  5
6c8
100
AcDbEntity
  8
0
  6
CONTINUOUS
 62
     7
100
AcDbCircle
 10
-27.49999237060547
 20
32.5
 40
0.5
100
AcDbArc
 50
90.00003665542391
 51
180.0000186693352
  0
ARC
  5
6c9
100
AcDbEntity
  8
0
  6
CONTINUOUS
 62
     7
100
AcDbCircle
 10
-0.5
 20
-32.50000762939453
 40
0.5
100
AcDbArc
 50
270.00001798609
 51
359.9999795094332
  0
ARC
  5
6ca
100
AcDbEntity
  8
0
  6
CONTINUOUS
 62
     7
100
AcDbCircle
 10
-27.49999237060547
 20
-32.50000762939453
 40
0.5
100
AcDbArc
 50
180.0000086514229
 51
269.9999906653335
  0
ARC
  5
6cb
100
AcDbEntity
  8
0
  6
CONTINUOUS
 62
     7
100
AcDbCircle
 10
-162.4999847412109
 20
-32.50000762939453
 40
0.5
100
AcDbArc
 50
270.0000179860897
 51
360
  0
ARC
  5
6cc
100
AcDbEntity
  8
0
  6
CONTINUOUS
 62
     7
100
AcDbCircle
 10
-189.5
 20
-32.50000762939453
 40
0.5
100
AcDbArc
 50
180.0000086514229
 51
269.9999906653331
  0
ARC
  5
6cd
100
AcDbEntity
  8
0
  6
CONTINUOUS
 62
     7
100
AcDbCircle
 10
-189.5
 20
32.5
 40
0.5
100
AcDbArc
 50
89.99998201391097
 51
180.0000186693352
  0
ARC
  5
6ce
100
AcDbEntity
  8
0
  6
CONTINUOUS
 62
     7
100
AcDbCircle
 10
-162.4999847412109
 20
32.5
 40
0.5
100
AcDbArc
 50
0
 51
89.99998201391097
  0
ARC
  5
6cf
100
AcDbEntity
  8
0
  6
CONTINUOUS
 62
     7
100
AcDbCircle
 10
-199
 20
-35
 40
3
100
AcDbArc
 50
90.00002299504544
 51
180.000005008957
  0
ARC
  5
6d0
100
AcDbEntity
  8
0
  6
CONTINUOUS
 62
     7
100
AcDbCircle
 10
-197.3000030517578
 20
-36.70000076293945
 40
1.5
100
AcDbArc
 50
90.00002299504598
 51
180.0000050089571
  0
ARC
  5
6d1
100
AcDbEntity
  8
0
  6
CONTINUOUS
 62
     7
100
AcDbCircle
 10
-193
 20
-32.20000076293945
 40
3
100
AcDbArc
 50
270.0000006832459
 51
360
  0
ARC
  5
6d2
100
AcDbEntity
  8
0
  6
CONTINUOUS
 62
     7
100
AcDbCircle
 10
-189.8874969482422
 20
-20.75
 40
10.8125
100
AcDbArc
 50
162.5077949219053
 51
197.4923790205481
  0
ARC
  5
6d3
100
AcDbEntity
  8
0
  6
CONTINUOUS
 62
     7
100
AcDbCircle
 10
-189.8875122070313
 20
-27.25
 40
10.8125
100
AcDbArc
 50
162.5077949219053
 51
197.4923790205481
  0
ARC
  5
6d4
100
AcDbEntity
  8
0
  6
CONTINUOUS
 62
     7
100
AcDbCircle
 10
-189.8874969482422
 20
20.74997711181641
 40
10.8125
100
AcDbArc
 50
162.5077949219053
 51
197.4923790205481
  0
ARC
  5
6d5
100
AcDbEntity
  8
0
  6
CONTINUOUS
 62
     7
100
AcDbCircle
 10
-189.8874969482422
 20
27.24997711181641
 40
10.8125
100
AcDbArc
 50
162.5077949219053
 51
197.4923790205481
  0
ARC
  5
6d6
100
AcDbEntity
  8
0
  6
CONTINUOUS
 62
     7
100
AcDbCircle
 10
-193
 20
32.20000076293945
 40
3
100
AcDbArc
 50
359.9999863396224
 51
90.00002299504544
  0
ARC
  5
6d7
100
AcDbEntity
  8
0
  6
CONTINUOUS
 62
     7
100
AcDbCircle
 10
-197.2999877929688
 20
36.70000076293945
 40
1.5
100
AcDbArc
 50
180.0000050089571
 51
270.0000006832459
  0
ARC
  5
6d8
100
AcDbEntity
  8
0
  6
CONTINUOUS
 62
     7
100
AcDbCircle
 10
-198.9999847412109
 20
35
 40
3
100
AcDbArc
 50
180.0000050089571
 51
270.0000006832459
  0
ARC
  5
6d9
100
AcDbEntity
  8
0
  6
CONTINUOUS
 62
     7
100
AcDbCircle
 10
-193
 20
34.74132537841797
 40
3
100
AcDbArc
 50
0
 51
17.38696882477224
  0
ARC
  5
6da
100
AcDbEntity
  8
0
  6
CONTINUOUS
 62
     7
100
AcDbCircle
 10
-193
 20
-34.74131393432617
 40
3
100
AcDbArc
 50
342.6130311752285
 51
360
  0
MTEXT
  5
6db
100
AcDbEntity
  8
0
  6
CONTINUOUS
 62
     7
100
AcDbMText
 10
-43.7535632699728
 20
-11.09999942779541
 40
0.5
 41
34
 71
     7
 72
     1
  1
{\W0.842735;ＢＮ－６１０５－ＦＢ－５０－Ｂ－＊}
  0
ENDBLK
  8
0
  5
6dc
100
AcDbEntity
100
AcDbBlockEnd
  0
BLOCK
  8
0
  5
6dd
100
AcDbEntity
100
AcDbBlockBegin
  2
KOZU0007
 70
    64
 10
0
 20
0
  0
POINT
  5
6de
100
AcDbEntity
  8
0
  6
CONTINUOUS
 62
     7
100
AcDbPoint
 10
0
 20
0
  0
LINE
  5
6df
100
AcDbEntity
  8
0
  6
CENTER
 62
     3
100
AcDbLine
 10
-96.88946533203125
 20
0
 11
18.47726440429688
 21
0
  0
LINE
  5
6e0
100
AcDbEntity
  8
0
  6
CENTER
 62
     3
100
AcDbLine
 10
0
 20
18.3616943359375
 11
0
 21
-18.28518676757813
  0
LINE
  5
6e1
100
AcDbEntity
  8
0
  6
CONTINUOUS
 62
     7
100
AcDbLine
 10
-40
 20
15
 11
0
 21
15
  0
LINE
  5
6e2
100
AcDbEntity
  8
0
  6
CONTINUOUS
 62
     7
100
AcDbLine
 10
-39.99999376335033
 20
15.0000340200506
 11
-41.99999443245891
 21
14.0000336854963
  0
LINE
  5
6e3
100
AcDbEntity
  8
0
  6
CONTINUOUS
 62
     7
100
AcDbLine
 10
-59
 20
14
 11
-42
 21
14
  0
LINE
  5
6e4
100
AcDbEntity
  8
0
  6
CONTINUOUS
 62
     7
100
AcDbLine
 10
-42
 20
-14
 11
-42
 21
14
  0
LINE
  5
6e5
100
AcDbEntity
  8
0
  6
CONTINUOUS
 62
     7
100
AcDbLine
 10
-40
 20
-15
 11
-40
 21
15
  0
LINE
  5
6e6
100
AcDbEntity
  8
0
  6
CONTINUOUS
 62
     7
100
AcDbLine
 10
-39.99995402793526
 20
6.999948358814059
 11
-27.99994924327232
 21
14.99995126204578
  0
LINE
  5
6e7
100
AcDbEntity
  8
0
  6
CONTINUOUS
 62
     7
100
AcDbLine
 10
-40.00001750833357
 20
-7.000029825327999
 11
-28.00003811583077
 21
-15.00001580045356
  0
LINE
  5
6e8
100
AcDbEntity
  8
0
  6
CONTINUOUS
 62
     7
100
AcDbLine
 10
-39.99998474121094
 20
-15
 11
0
 21
-15
  0
LINE
  5
6e9
100
AcDbEntity
  8
0
  6
CONTINUOUS
 62
     7
100
AcDbLine
 10
-39.99998864539688
 20
-14.99998966445412
 11
-41.99997566662964
 21
-13.99999615383774
  0
LINE
  5
6ea
100
AcDbEntity
  8
0
  6
CONTINUOUS
 62
     7
100
AcDbLine
 10
-59
 20
-14
 11
-42
 21
-14
  0
LINE
  5
6eb
100
AcDbEntity
  8
0
  6
CONTINUOUS
 62
     7
100
AcDbLine
 10
-59
 20
14
 11
-59
 21
-14
  0
LINE
  5
6ec
100
AcDbEntity
  8
0
  6
CONTINUOUS
 62
     7
100
AcDbLine
 10
-58.99999460740269
 20
-14.00003899920783
 11
-59.99999252508452
 21
-13.00003475949206
  0
LINE
  5
6ed
100
AcDbEntity
  8
0
  6
CONTINUOUS
 62
     7
100
AcDbLine
 10
-60
 20
12.99998474121094
 11
-60
 21
-13
  0
LINE
  5
6ee
100
AcDbEntity
  8
0
  6
CONTINUOUS
 62
     7
100
AcDbLine
 10
-59.99998047134031
 20
12.99988539096609
 11
-58.99997892903137
 21
13.99988061125813
  0
LINE
  5
6ef
100
AcDbEntity
  8
0
  6
CONTINUOUS
 62
     7
100
AcDbLine
 10
-60.00003102542743
 20
11.25832954019856
 11
-62.16669517812844
 21
15.01110186825924
  0
LINE
  5
6f0
100
AcDbEntity
  8
0
  6
CONTINUOUS
 62
     7
100
AcDbLine
 10
-68.83334350585938
 20
15.0111083984375
 11
-62.16667175292969
 21
15.0111083984375
  0
LINE
  5
6f1
100
AcDbEntity
  8
0
  6
CONTINUOUS
 62
     7
100
AcDbLine
 10
-71.0000486584778
 20
11.25836334933192
 11
-68.83338450577679
 21
15.01113567739259
  0
LINE
  5
6f2
100
AcDbEntity
  8
0
  6
CONTINUOUS
 62
     7
100
AcDbLine
 10
-71
 20
11.25833129882813
 11
-71
 21
-11.25833129882813
  0
LINE
  5
6f3
100
AcDbEntity
  8
0
  6
CONTINUOUS
 62
     7
100
AcDbLine
 10
-68.83334350585938
 20
7.50555419921875
 11
-62.16667175292969
 21
7.50555419921875
  0
LWPOLYLINE
  5
6f4
100
AcDbEntity
  8
0
  6
CONTINUOUS
 62
     7
100
AcDbPolyline
 90
    10
 70
     0
 10
-98.37163432167138
 20
12.11140020580341
 10
-97.76795600302337
 20
7.178485405311371
 10
-100.1765604978935
 20
6.279249959339873
 10
-95.06782016122195
 20
5.695493012944051
 10
-97.47642465609205
 20
4.796257566972552
 10
-96.26906801879602
 20
-5.06957203401152
 10
-98.67767251366612
 20
-5.968807479983019
 10
-93.56893217699461
 20
-6.552564426378842
 10
-95.97753667186471
 20
-7.451799872350341
 10
-95.37385835321669
 20
-12.38471467284238
  0
LINE
  5
6f5
100
AcDbEntity
  8
0
  6
CONTINUOUS
 62
     7
100
AcDbLine
 10
-98.11328125
 20
10
 11
-78.7320556640625
 21
10
  0
LINE
  5
6f6
100
AcDbEntity
  8
0
  6
CONTINUOUS
 62
     7
100
AcDbLine
 10
-85
 20
5.267822265625
 11
-85
 21
-5.267837524414063
  0
LINE
  5
6f7
100
AcDbEntity
  8
0
  6
CONTINUOUS
 62
     7
100
AcDbLine
 10
-85
 20
5.267822265625
 11
-77
 21
5.267822265625
  0
LINE
  5
6f8
100
AcDbEntity
  8
0
  6
CONTINUOUS
 62
     7
100
AcDbLine
 10
-73.99996164955279
 20
-2.500020787284718
 11
-84.99995744280872
 21
5.267803486222718
  0
LINE
  5
6f9
100
AcDbEntity
  8
0
  6
CONTINUOUS
 62
     7
100
AcDbLine
 10
-73.99997612214816
 20
2.499968537587506
 11
-84.99997503147253
 21
-5.267857936381873
  0
LINE
  5
6fa
100
AcDbEntity
  8
0
  6
CONTINUOUS
 62
     7
100
AcDbLine
 10
-85
 20
-5.267837524414063
 11
-77
 21
-5.267837524414063
  0
LINE
  5
6fb
100
AcDbEntity
  8
0
  6
CONTINUOUS
 62
     7
100
AcDbLine
 10
-95.66574096679688
 20
-10
 11
-78.7320556640625
 21
-10
  0
LINE
  5
6fc
100
AcDbEntity
  8
0
  6
CONTINUOUS
 62
     7
100
AcDbLine
 10
-78.73214110842866
 20
-9.999912845831432
 11
-77.0000903086316
 21
-8.999912832370256
  0
LINE
  5
6fd
100
AcDbEntity
  8
0
  6
CONTINUOUS
 62
     7
100
AcDbLine
 10
-78.7320556640625
 20
-5.267837524414063
 11
-78.7320556640625
 21
-10
  0
LINE
  5
6fe
100
AcDbEntity
  8
0
  6
CONTINUOUS
 62
     7
100
AcDbLine
 10
-77
 20
-2.5
 11
-74
 21
-2.5
  0
LINE
  5
6ff
100
AcDbEntity
  8
0
  6
CONTINUOUS
 62
     7
100
AcDbLine
 10
-77
 20
2.5
 11
-74
 21
2.5
  0
LINE
  5
700
100
AcDbEntity
  8
0
  6
CONTINUOUS
 62
     7
100
AcDbLine
 10
-77
 20
9
 11
-71
 21
9
  0
LINE
  5
701
100
AcDbEntity
  8
0
  6
CONTINUOUS
 62
     7
100
AcDbLine
 10
-74
 20
9
 11
-74
 21
-9
  0
LINE
  5
702
100
AcDbEntity
  8
0
  6
CONTINUOUS
 62
     7
100
AcDbLine
 10
-74
 20
8.18798828125
 11
-71
 21
8.18798828125
  0
LINE
  5
703
100
AcDbEntity
  8
0
  6
CONTINUOUS
 62
     7
100
AcDbLine
 10
-76.23096403706803
 20
8.99999286331807
 11
-73.99999703204965
 21
8.187987250784779
  0
LINE
  5
704
100
AcDbEntity
  8
0
  6
CONTINUOUS
 62
     7
100
AcDbLine
 10
-77
 20
-9
 11
-71
 21
-9
  0
LINE
  5
705
100
AcDbEntity
  8
0
  6
CONTINUOUS
 62
     7
100
AcDbLine
 10
-74
 20
-8.188003540039063
 11
-71
 21
-8.188003540039063
  0
LINE
  5
706
100
AcDbEntity
  8
0
  6
CONTINUOUS
 62
     7
100
AcDbLine
 10
-76.23095230132061
 20
-9.000002800161369
 11
-74.00001397344508
 21
-8.188007625254855
  0
LINE
  5
707
100
AcDbEntity
  8
0
  6
CONTINUOUS
 62
     7
100
AcDbLine
 10
-77
 20
-2.5
 11
-77
 21
-9
  0
LINE
  5
708
100
AcDbEntity
  8
0
  6
CONTINUOUS
 62
     7
100
AcDbLine
 10
-77
 20
9
 11
-77
 21
2.5
  0
LINE
  5
709
100
AcDbEntity
  8
0
  6
CONTINUOUS
 62
     7
100
AcDbLine
 10
-78.73205459794812
 20
10.000001651221
 11
-77.00000379815106
 21
9.00000163775983
  0
LINE
  5
70a
100
AcDbEntity
  8
0
  6
CONTINUOUS
 62
     7
100
AcDbLine
 10
-78.7320556640625
 20
10
 11
-78.7320556640625
 21
5.267822265625
  0
LINE
  5
70b
100
AcDbEntity
  8
0
  6
CONTINUOUS
 62
     7
100
AcDbLine
 10
-68.83334350585938
 20
-7.50555419921875
 11
-62.16667175292969
 21
-7.50555419921875
  0
LINE
  5
70c
100
AcDbEntity
  8
0
  6
CONTINUOUS
 62
     7
100
AcDbLine
 10
-60.00003139955831
 20
-11.25830730002897
 11
-62.16669555225931
 21
-15.01107962808964
  0
LINE
  5
70d
100
AcDbEntity
  8
0
  6
CONTINUOUS
 62
     7
100
AcDbLine
 10
-68.83334350585938
 20
-15.0111083984375
 11
-62.16667175292969
 21
-15.0111083984375
  0
LINE
  5
70e
100
AcDbEntity
  8
0
  6
CONTINUOUS
 62
     7
100
AcDbLine
 10
-71.00002413682864
 20
-11.25834478691792
 11
-68.83336761352229
 21
-15.0111039004797
  0
LINE
  5
70f
100
AcDbEntity
  8
0
  6
CONTINUOUS
 62
     7
100
AcDbLine
 10
53.0025634765625
 20
5
 11
53.0025634765625
 21
-5
  0
LINE
  5
710
100
AcDbEntity
  8
0
  6
CONTINUOUS
 62
     7
100
AcDbLine
 10
54.0025634765625
 20
6
 11
54.0025634765625
 21
-6
  0
LINE
  5
711
100
AcDbEntity
  8
0
  6
CENTER
 62
     3
100
AcDbLine
 10
48.66000366210938
 20
0
 11
114.2131652832031
 21
0
  0
LINE
  5
712
100
AcDbEntity
  8
0
  6
CENTER
 62
     3
100
AcDbLine
 10
58.5025634765625
 20
4
 11
58.5025634765625
 21
-4
  0
LINE
  5
713
100
AcDbEntity
  8
0
  6
CONTINUOUS
 62
     7
100
AcDbLine
 10
54.00264749950214
 20
5.999857693959033
 11
53.00264646294524
 21
4.99985657310835
  0
LINE
  5
714
100
AcDbEntity
  8
0
  6
CONTINUOUS
 62
     7
100
AcDbLine
 10
54.0025634765625
 20
6
 11
62.5025634765625
 21
6
  0
LINE
  5
715
100
AcDbEntity
  8
0
  6
CONTINUOUS
 62
     7
100
AcDbLine
 10
62.5025634765625
 20
13
 11
62.5025634765625
 21
-13
  0
LINE
  5
716
100
AcDbEntity
  8
0
  6
CONTINUOUS
 62
     7
100
AcDbLine
 10
64.5025634765625
 20
15
 11
64.5025634765625
 21
-15
  0
LINE
  5
717
100
AcDbEntity
  8
0
  6
CONTINUOUS
 62
     7
100
AcDbLine
 10
62.50244112949502
 20
13.00012191908146
 11
64.5024432869026
 21
15.00012407648904
  0
LINE
  5
718
100
AcDbEntity
  8
0
  6
CONTINUOUS
 62
     7
100
AcDbLine
 10
53.00258214684759
 20
-4.999981580440771
 11
54.00256168851092
 21
-5.999961037812138
  0
LINE
  5
719
100
AcDbEntity
  8
0
  6
CONTINUOUS
 62
     7
100
AcDbLine
 10
54.0025634765625
 20
-6
 11
62.5025634765625
 21
-6
  0
LINE
  5
71a
100
AcDbEntity
  8
0
  6
CONTINUOUS
 62
     7
100
AcDbLine
 10
62.50264343436787
 20
-13.00008145810689
 11
64.50264559177545
 21
-15.00008361551447
  0
LINE
  5
71b
100
AcDbEntity
  8
0
  6
CONTINUOUS
 62
     7
100
AcDbLine
 10
64.5025634765625
 20
-15
 11
98.5025634765625
 21
-15
  0
LINE
  5
71c
100
AcDbEntity
  8
0
  6
CONTINUOUS
 62
     7
100
AcDbLine
 10
73.5025634765625
 20
15
 11
73.5025634765625
 21
-15
  0
LINE
  5
71d
100
AcDbEntity
  8
0
  6
CENTER
 62
     3
100
AcDbLine
 10
81.5025634765625
 20
18.89999961853027
 11
81.5025634765625
 21
-18.89999961853027
  0
LINE
  5
71e
100
AcDbEntity
  8
0
  6
CONTINUOUS
 62
     7
100
AcDbLine
 10
73.5025634765625
 20
-6
 11
89.5025634765625
 21
-6
  0
LINE
  5
71f
100
AcDbEntity
  8
0
  6
CONTINUOUS
 62
     7
100
AcDbLine
 10
73.5025634765625
 20
6
 11
89.5025634765625
 21
6
  0
LINE
  5
720
100
AcDbEntity
  8
0
  6
CONTINUOUS
 62
     7
100
AcDbLine
 10
64.5025634765625
 20
15
 11
98.5025634765625
 21
15
  0
LINE
  5
721
100
AcDbEntity
  8
0
  6
CONTINUOUS
 62
     7
100
AcDbLine
 10
89.5025634765625
 20
15
 11
89.5025634765625
 21
-15
  0
LINE
  5
722
100
AcDbEntity
  8
0
  6
CONTINUOUS
 62
     7
100
AcDbLine
 10
100.5025738317814
 20
12.99987915323403
 11
98.50257167437383
 21
14.99988131064162
  0
LINE
  5
723
100
AcDbEntity
  8
0
  6
CONTINUOUS
 62
     7
100
AcDbLine
 10
98.5025634765625
 20
15
 11
98.5025634765625
 21
-15
  0
LINE
  5
724
100
AcDbEntity
  8
0
  6
CONTINUOUS
 62
     7
100
AcDbLine
 10
100.5025634765625
 20
13
 11
100.5025634765625
 21
-13
  0
LINE
  5
725
100
AcDbEntity
  8
0
  6
CONTINUOUS
 62
     7
100
AcDbLine
 10
100.5025634765625
 20
6
 11
109.0025634765625
 21
6
  0
LINE
  5
726
100
AcDbEntity
  8
0
  6
CONTINUOUS
 62
     7
100
AcDbLine
 10
110.0026647906811
 20
5.000031608970929
 11
109.0026636698304
 21
6.000032645527824
  0
LINE
  5
727
100
AcDbEntity
  8
0
  6
CONTINUOUS
 62
     7
100
AcDbLine
 10
109.0025634765625
 20
6
 11
109.0025634765625
 21
-6
  0
LINE
  5
728
100
AcDbEntity
  8
0
  6
CONTINUOUS
 62
     7
100
AcDbLine
 10
110.0025634765625
 20
5
 11
110.0025634765625
 21
-5
  0
LINE
  5
729
100
AcDbEntity
  8
0
  6
CONTINUOUS
 62
     7
100
AcDbLine
 10
110.0027241334399
 20
-5.00012332051579
 11
109.0027230125892
 21
-6.000124357072686
  0
LINE
  5
72a
100
AcDbEntity
  8
0
  6
CONTINUOUS
 62
     7
100
AcDbLine
 10
100.5025634765625
 20
-6
 11
109.0025634765625
 21
-6
  0
LINE
  5
72b
100
AcDbEntity
  8
0
  6
CENTER
 62
     3
100
AcDbLine
 10
104.5025634765625
 20
4
 11
104.5025634765625
 21
-4
  0
LINE
  5
72c
100
AcDbEntity
  8
0
  6
CONTINUOUS
 62
     7
100
AcDbLine
 10
98.50247456803486
 20
-14.99990288982805
 11
100.5024767254424
 21
-12.99990073242047
  0
LINE
  5
72d
100
AcDbEntity
  8
0
  6
CONTINUOUS
 62
     7
100
AcDbLine
 10
-69.70579528808594
 20
-89.36827087402344
 11
-61.29423522949219
 21
-89.36827087402344
  0
LINE
  5
72e
100
AcDbEntity
  8
0
  6
CENTER
 62
     3
100
AcDbLine
 10
-96.88945007324219
 20
-89.36827087402344
 11
18.56619262695313
 21
-89.36827087402344
  0
LINE
  5
72f
100
AcDbEntity
  8
0
  6
CONTINUOUS
 62
     7
100
AcDbLine
 10
-59
 20
-75.36827087402344
 11
-42
 21
-75.36827087402344
  0
LINE
  5
730
100
AcDbEntity
  8
0
  6
CONTINUOUS
 62
     7
100
AcDbLine
 10
-59.99994871883834
 20
-76.36841222630503
 11
-58.99994447912258
 21
-75.3684143086232
  0
LINE
  5
731
100
AcDbEntity
  8
0
  6
CONTINUOUS
 62
     7
100
AcDbLine
 10
-60
 20
-76.3682861328125
 11
-60
 21
-102.3682556152344
  0
LINE
  5
732
100
AcDbEntity
  8
0
  6
CONTINUOUS
 62
     7
100
AcDbLine
 10
-59
 20
-75.36827087402344
 11
-59
 21
-103.3682556152344
  0
LINE
  5
733
100
AcDbEntity
  8
0
  6
CONTINUOUS
 62
     7
100
AcDbLine
 10
-60.00003638013055
 20
-78.10993848559983
 11
-61.29427162704467
 21
-75.86825732123234
  0
LINE
  5
734
100
AcDbEntity
  8
0
  6
CONTINUOUS
 62
     7
100
AcDbLine
 10
-69.70579528808594
 20
-75.86827087402344
 11
-61.29425048828125
 21
-75.86827087402344
  0
LINE
  5
735
100
AcDbEntity
  8
0
  6
CONTINUOUS
 62
     7
100
AcDbLine
 10
-70.99997060568362
 20
-78.10988938590059
 11
-69.70574298816413
 21
-75.86822143603202
  0
LINE
  5
736
100
AcDbEntity
  8
0
  6
CONTINUOUS
 62
     7
100
AcDbLine
 10
-71
 20
-78.10993957519531
 11
-71
 21
-100.6266174316406
  0
LINE
  5
737
100
AcDbEntity
  8
0
  6
CONTINUOUS
 62
     7
100
AcDbLine
 10
-74
 20
-80.36827087402344
 11
-71
 21
-80.36827087402344
  0
LINE
  5
738
100
AcDbEntity
  8
0
  6
CONTINUOUS
 62
     7
100
AcDbLine
 10
-74
 20
-81.18026733398438
 11
-71
 21
-81.18026733398438
  0
LINE
  5
739
100
AcDbEntity
  8
0
  6
CONTINUOUS
 62
     7
100
AcDbLine
 10
-74
 20
-80.36827087402344
 11
-74
 21
-98.36825561523438
  0
LWPOLYLINE
  5
73a
100
AcDbEntity
  8
0
  6
CONTINUOUS
 62
     7
100
AcDbPolyline
 90
    10
 70
     0
 10
-98.3716164355871
 20
-77.25690364124137
 10
-97.76793811693909
 20
-82.18981844173341
 10
-100.1765426118092
 20
-83.08905388770491
 10
-95.06780227513767
 20
-83.67281083410072
 10
-97.47640677000777
 20
-84.57204628007222
 10
-96.26905013271174
 20
-94.4378758810563
 10
-98.67765462758185
 20
-95.3371113270278
 10
-93.56891429091033
 20
-95.92086827342362
 10
-95.97751878578043
 20
-96.82010371939512
 10
-95.37384046713241
 20
-101.7530185198872
  0
LINE
  5
73b
100
AcDbEntity
  8
0
  6
CONTINUOUS
 62
     7
100
AcDbLine
 10
-98.11328125
 20
-79.36827087402344
 11
-87
 21
-79.36827087402344
  0
LINE
  5
73c
100
AcDbEntity
  8
0
  6
CONTINUOUS
 62
     7
100
AcDbLine
 10
-86.99999995469162
 20
-79.36826875224089
 11
-85.0000027799553
 21
-80.86827251925173
  0
LINE
  5
73d
100
AcDbEntity
  8
0
  6
CONTINUOUS
 62
     7
100
AcDbLine
 10
-85
 20
-80.86827087402344
 11
-74
 21
-80.86827087402344
  0
LINE
  5
73e
100
AcDbEntity
  8
0
  6
CONTINUOUS
 62
     7
100
AcDbLine
 10
-95.66574096679688
 20
-99.36825561523438
 11
-86.99998474121094
 21
-99.36825561523438
  0
LINE
  5
73f
100
AcDbEntity
  8
0
  6
CONTINUOUS
 62
     7
100
AcDbLine
 10
-86.99989752538477
 20
-99.36839811800039
 11
-84.99990645415545
 21
-97.86839892863776
  0
LINE
  5
740
100
AcDbEntity
  8
0
  6
CONTINUOUS
 62
     7
100
AcDbLine
 10
-85
 20
-97.86825561523438
 11
-74
 21
-97.86825561523438
  0
LINE
  5
741
100
AcDbEntity
  8
0
  6
CONTINUOUS
 62
     7
100
AcDbLine
 10
-78.7320556640625
 20
-80.86827087402344
 11
-78.7320556640625
 21
-97.86825561523438
  0
LINE
  5
742
100
AcDbEntity
  8
0
  6
CONTINUOUS
 62
     7
100
AcDbLine
 10
-77
 20
-80.86827087402344
 11
-77
 21
-97.86825561523438
  0
LINE
  5
743
100
AcDbEntity
  8
0
  6
CONTINUOUS
 62
     7
100
AcDbLine
 10
-74.85723932461207
 20
-80.86826292523979
 11
-74.00005084773659
 21
-81.18025402715034
  0
LINE
  5
744
100
AcDbEntity
  8
0
  6
CONTINUOUS
 62
     7
100
AcDbLine
 10
-74.85723269584177
 20
-97.86832134482992
 11
-74.00000837253774
 21
-97.5563171958859
  0
LINE
  5
745
100
AcDbEntity
  8
0
  6
CONTINUOUS
 62
     7
100
AcDbLine
 10
-74
 20
-97.5562744140625
 11
-71
 21
-97.5562744140625
  0
LINE
  5
746
100
AcDbEntity
  8
0
  6
CONTINUOUS
 62
     7
100
AcDbLine
 10
-74
 20
-98.36825561523438
 11
-71
 21
-98.36825561523438
  0
LINE
  5
747
100
AcDbEntity
  8
0
  6
CONTINUOUS
 62
     7
100
AcDbLine
 10
-71.00005568334038
 20
-100.6265750765683
 11
-69.70582043642627
 21
-102.8682562409358
  0
LINE
  5
748
100
AcDbEntity
  8
0
  6
CONTINUOUS
 62
     7
100
AcDbLine
 10
-69.70579528808594
 20
-102.8682556152344
 11
-61.29423522949219
 21
-102.8682556152344
  0
LINE
  5
749
100
AcDbEntity
  8
0
  6
CONTINUOUS
 62
     7
100
AcDbLine
 10
-60.00010785350813
 20
-100.6265413080777
 11
-61.29432784163298
 21
-102.8681960434474
  0
LINE
  5
74a
100
AcDbEntity
  8
0
  6
CONTINUOUS
 62
     7
100
AcDbLine
 10
-58.99997499320588
 20
-103.368340662538
 11
-59.99997291088771
 21
-102.3683364228223
  0
LINE
  5
74b
100
AcDbEntity
  8
0
  6
CONTINUOUS
 62
     7
100
AcDbLine
 10
-59
 20
-103.3682556152344
 11
-42
 21
-103.3682556152344
  0
LINE
  5
74c
100
AcDbEntity
  8
0
  6
CONTINUOUS
 62
     7
100
AcDbLine
 10
-40.00002361807872
 20
-104.3682613077272
 11
-42.00003793506316
 21
-103.368254149235
  0
LINE
  5
74d
100
AcDbEntity
  8
0
  6
CONTINUOUS
 62
     7
100
AcDbLine
 10
-42
 20
-103.3682556152344
 11
-42
 21
-75.36827087402344
  0
LINE
  5
74e
100
AcDbEntity
  8
0
  6
CONTINUOUS
 62
     7
100
AcDbLine
 10
-40
 20
-72.36827087402344
 11
-40
 21
-106.3682556152344
  0
LINE
  5
74f
100
AcDbEntity
  8
0
  6
CONTINUOUS
 62
     7
100
AcDbLine
 10
-40
 20
-106.3682556152344
 11
15
 21
-106.3682556152344
  0
LINE
  5
750
100
AcDbEntity
  8
0
  6
CONTINUOUS
 62
     7
100
AcDbLine
 10
-40.00003531298948
 20
-96.36831306462742
 11
-28.00004016607854
 21
-106.368293968358
  0
LINE
  5
751
100
AcDbEntity
  8
0
  6
CONTINUOUS
 62
     7
100
AcDbLine
 10
-27
 20
-97.36825561523438
 11
15
 21
-97.36825561523438
  0
LINE
  5
752
100
AcDbEntity
  8
0
  6
CONTINUOUS
 62
     7
100
AcDbLine
 10
-27
 20
-81.36827087402344
 11
-27
 21
-97.36825561523438
  0
LINE
  5
753
100
AcDbEntity
  8
0
  6
CONTINUOUS
 62
     7
100
AcDbLine
 10
-39.99996732059088
 20
-74.36825468306726
 11
-41.99996798969947
 21
-75.36825501762156
  0
LINE
  5
754
100
AcDbEntity
  8
0
  6
CONTINUOUS
 62
     7
100
AcDbLine
 10
-40
 20
-72.36827087402344
 11
15
 21
-72.36827087402344
  0
LINE
  5
755
100
AcDbEntity
  8
0
  6
CONTINUOUS
 62
     7
100
AcDbLine
 10
-40.00010783592447
 20
-82.36816258157081
 11
-28.00010852215264
 21
-72.36816284307619
  0
LINE
  5
756
100
AcDbEntity
  8
0
  6
CONTINUOUS
 62
     7
100
AcDbLine
 10
-27
 20
-81.36827087402344
 11
15
 21
-81.36827087402344
  0
LINE
  5
757
100
AcDbEntity
  8
0
  6
CONTINUOUS
 62
     7
100
AcDbLine
 10
15
 20
-72.36827087402344
 11
15
 21
-81.36827087402344
  0
LINE
  5
758
100
AcDbEntity
  8
0
  6
CONTINUOUS
 62
     7
100
AcDbLine
 10
13.0000275101408
 20
-70.36831083883105
 11
15.00000808836194
 21
-72.36829141705219
  0
LINE
  5
759
100
AcDbEntity
  8
0
  6
CONTINUOUS
 62
     7
100
AcDbLine
 10
-13
 20
-70.36827087402344
 11
13
 21
-70.36827087402344
  0
LINE
  5
75a
100
AcDbEntity
  8
0
  6
CONTINUOUS
 62
     7
100
AcDbLine
 10
6
 20
-70.36827087402344
 11
6
 21
-61.86827087402344
  0
LINE
  5
75b
100
AcDbEntity
  8
0
  6
CENTER
 62
     3
100
AcDbLine
 10
0
 20
-57.79557800292969
 11
0
 21
-120.3771667480469
  0
LINE
  5
75c
100
AcDbEntity
  8
0
  6
CONTINUOUS
 62
     7
100
AcDbLine
 10
-5
 20
-60.86827087402344
 11
5
 21
-60.86827087402344
  0
LINE
  5
75d
100
AcDbEntity
  8
0
  6
CONTINUOUS
 62
     7
100
AcDbLine
 10
4.999984210309854
 20
-60.8682742493632
 11
5.999985162572962
 21
-61.86827545450767
  0
LINE
  5
75e
100
AcDbEntity
  8
0
  6
CONTINUOUS
 62
     7
100
AcDbLine
 10
-6
 20
-61.86827087402344
 11
6
 21
-61.86827087402344
  0
LINE
  5
75f
100
AcDbEntity
  8
0
  6
CENTER
 62
     3
100
AcDbLine
 10
-7.626129150390625
 20
-66.36827087402344
 11
7.380645751953125
 21
-66.36827087402344
  0
LINE
  5
760
100
AcDbEntity
  8
0
  6
CONTINUOUS
 62
     7
100
AcDbLine
 10
-4.999905457792966
 20
-60.86836242057585
 11
-5.999903881245228
 21
-61.86836075973456
  0
LINE
  5
761
100
AcDbEntity
  8
0
  6
CONTINUOUS
 62
     7
100
AcDbLine
 10
-6
 20
-70.36827087402344
 11
-6
 21
-61.86827087402344
  0
LINE
  5
762
100
AcDbEntity
  8
0
  6
CONTINUOUS
 62
     7
100
AcDbLine
 10
-15.00010789209921
 20
-72.36811608616239
 11
-13.00010843208994
 21
-70.36811662615313
  0
LINE
  5
763
100
AcDbEntity
  8
0
  6
CONTINUOUS
 62
     7
100
AcDbLine
 10
-6
 20
-97.36825561523438
 11
-6
 21
-81.36827087402344
  0
LINE
  5
764
100
AcDbEntity
  8
0
  6
CONTINUOUS
 62
     7
100
AcDbLine
 10
6
 20
-97.36825561523438
 11
6
 21
-81.36827087402344
  0
LINE
  5
765
100
AcDbEntity
  8
0
  6
CONTINUOUS
 62
     7
100
AcDbLine
 10
15
 20
-97.36825561523438
 11
15
 21
-106.3682556152344
  0
LINE
  5
766
100
AcDbEntity
  8
0
  6
CONTINUOUS
 62
     7
100
AcDbLine
 10
14.99980578348908
 20
-106.3681096037184
 11
12.9998036260815
 21
-108.368111761126
  0
LINE
  5
767
100
AcDbEntity
  8
0
  6
CONTINUOUS
 62
     7
100
AcDbLine
 10
-13
 20
-108.3682556152344
 11
12.99996948242188
 21
-108.3682556152344
  0
LINE
  5
768
100
AcDbEntity
  8
0
  6
CONTINUOUS
 62
     7
100
AcDbLine
 10
6
 20
-116.8682556152344
 11
6
 21
-108.3682556152344
  0
LINE
  5
769
100
AcDbEntity
  8
0
  6
CENTER
 62
     3
100
AcDbLine
 10
-7.348220825195313
 20
-112.3682556152344
 11
7.93646240234375
 21
-112.3682556152344
  0
LINE
  5
76a
100
AcDbEntity
  8
0
  6
CONTINUOUS
 62
     7
100
AcDbLine
 10
-13.00000862835266
 20
-108.3682736050242
 11
-15.00001078576024
 21
-106.3682714476167
  0
LINE
  5
76b
100
AcDbEntity
  8
0
  6
CONTINUOUS
 62
     7
100
AcDbLine
 10
-6
 20
-116.8682556152344
 11
-6
 21
-108.3682556152344
  0
LINE
  5
76c
100
AcDbEntity
  8
0
  6
CONTINUOUS
 62
     7
100
AcDbLine
 10
-6.000000608257615
 20
-116.8682447575492
 11
-4.99999957170072
 21
-117.8682458783999
  0
LINE
  5
76d
100
AcDbEntity
  8
0
  6
CONTINUOUS
 62
     7
100
AcDbLine
 10
-6
 20
-116.8682556152344
 11
6
 21
-116.8682556152344
  0
LINE
  5
76e
100
AcDbEntity
  8
0
  6
CONTINUOUS
 62
     7
100
AcDbLine
 10
-5
 20
-117.8682556152344
 11
5
 21
-117.8682556152344
  0
LINE
  5
76f
100
AcDbEntity
  8
0
  6
CONTINUOUS
 62
     7
100
AcDbLine
 10
5.000113716467979
 20
-117.8683595906019
 11
6.000109442521826
 21
-116.8683639488414
  0
CIRCLE
  5
770
100
AcDbEntity
  8
0
  6
CONTINUOUS
 62
     7
100
AcDbCircle
 10
0
 20
0
 40
6
  0
CIRCLE
  5
771
100
AcDbEntity
  8
0
  6
CONTINUOUS
 62
     7
100
AcDbCircle
 10
0
 20
0
 40
13
  0
CIRCLE
  5
772
100
AcDbEntity
  8
0
  6
CONTINUOUS
 62
     7
100
AcDbCircle
 10
0
 20
0
 40
15
  0
ARC
  5
773
100
AcDbEntity
  8
0
  6
CONTINUOUS
 62
     7
100
AcDbCircle
 10
-66.66668701171875
 20
11.25833129882813
 40
4.33333683013916
100
AcDbArc
 50
179.9999813306654
 51
239.9999146984265
  0
ARC
  5
774
100
AcDbEntity
  8
0
  6
CONTINUOUS
 62
     7
100
AcDbCircle
 10
-74.0833740234375
 20
0
 40
14.08334922790527
100
AcDbArc
 50
327.7958083275523
 51
32.20413703093502
  0
ARC
  5
775
100
AcDbEntity
  8
0
  6
CONTINUOUS
 62
     7
100
AcDbCircle
 10
-64.33334350585938
 20
11.25833129882813
 40
4.33333683013916
100
AcDbArc
 50
300.0000666322404
 51
360
  0
ARC
  5
776
100
AcDbEntity
  8
0
  6
CONTINUOUS
 62
     7
100
AcDbCircle
 10
-79.0625
 20
0
 40
7.9375
100
AcDbArc
 50
138.4201219458581
 51
221.5798607512985
  0
ARC
  5
777
100
AcDbEntity
  8
0
  6
CONTINUOUS
 62
     7
100
AcDbCircle
 10
-56.91665649414063
 20
0
 40
14.08334922790527
100
AcDbArc
 50
147.7958269968863
 51
212.2041557002704
  0
ARC
  5
778
100
AcDbEntity
  8
0
  6
CONTINUOUS
 62
     7
100
AcDbCircle
 10
-66.66668701171875
 20
-11.25833129882813
 40
4.333333015441895
100
AcDbArc
 50
120.0000716411959
 51
179.9999640278213
  0
ARC
  5
779
100
AcDbEntity
  8
0
  6
CONTINUOUS
 62
     7
100
AcDbCircle
 10
-64.33334350585938
 20
-11.25833129882813
 40
4.333333015441895
100
AcDbArc
 50
0
 51
59.99989238662542
  0
CIRCLE
  5
77a
100
AcDbEntity
  8
0
  6
CONTINUOUS
 62
     7
100
AcDbCircle
 10
58.5025634765625
 20
0
 40
1.5
  0
CIRCLE
  5
77b
100
AcDbEntity
  8
0
  6
CONTINUOUS
 62
     7
100
AcDbCircle
 10
104.5025634765625
 20
0
 40
1.5
  0
ARC
  5
77c
100
AcDbEntity
  8
0
  6
CONTINUOUS
 62
     7
100
AcDbCircle
 10
-78.2490234375
 20
-82.61827087402344
 40
18.2490119934082
100
AcDbArc
 50
338.291590977929
 51
21.70840902207176
  0
ARC
  5
77d
100
AcDbEntity
  8
0
  6
CONTINUOUS
 62
     7
100
AcDbCircle
 10
-52.7503662109375
 20
-82.61827087402344
 40
18.24961280822754
100
AcDbArc
 50
158.2923660907135
 51
201.7076166064432
  0
ARC
  5
77e
100
AcDbEntity
  8
0
  6
CONTINUOUS
 62
     7
100
AcDbCircle
 10
-52.7503662109375
 20
-96.11825561523438
 40
18.24961280822754
100
AcDbArc
 50
158.2923660907135
 51
201.7076166064432
  0
ARC
  5
77f
100
AcDbEntity
  8
0
  6
CONTINUOUS
 62
     7
100
AcDbCircle
 10
-78.24911499023438
 20
-96.1182861328125
 40
18.24911117553711
100
AcDbArc
 50
338.2917771005838
 51
21.70828437111938
  0
MTEXT
  5
780
100
AcDbEntity
  8
0
  6
CONTINUOUS
 62
     7
100
AcDbMText
 10
-26.61283139668984
 20
-8.276919212341305
 40
0.5
 41
24
 71
     7
 72
     1
  1
{\W0.843764;ＢＮ－６１０５－５０－Ｙ}
  0
MTEXT
  5
781
100
AcDbEntity
  8
0
  6
CONTINUOUS
 62
     7
100
AcDbMText
 10
-52.50355945527554
 20
-97.19999694824219
 40
0.5
 41
24
 71
     7
 72
     1
  1
{\W0.843764;ＢＮ－６１０５－５０－Ｙ}
  0
MTEXT
  5
782
100
AcDbEntity
  8
0
  6
CONTINUOUS
 62
     7
100
AcDbMText
 10
66.14643444120884
 20
-11.09999942779541
 40
0.5
 41
24
 71
     7
 72
     1
  1
{\W0.843764;ＢＮ－６１０５－５０－Ｙ}
  0
ENDBLK
  8
0
  5
783
100
AcDbEntity
100
AcDbBlockEnd
  0
BLOCK
  8
0
  5
784
100
AcDbEntity
100
AcDbBlockBegin
  2
KOZU0008
 70
    64
 10
0
 20
0
  0
POINT
  5
785
100
AcDbEntity
  8
0
  6
CONTINUOUS
 62
     7
100
AcDbPoint
 10
0
 20
0
  0
LINE
  5
786
100
AcDbEntity
  8
0
  6
CENTER
 62
     3
100
AcDbLine
 10
-96.88957977294922
 20
0
 11
18.47724914550781
 21
0
  0
LINE
  5
787
100
AcDbEntity
  8
0
  6
CENTER
 62
     3
100
AcDbLine
 10
0
 20
16.5
 11
0
 21
-16.5
  0
LINE
  5
788
100
AcDbEntity
  8
0
  6
CONTINUOUS
 62
     7
100
AcDbLine
 10
7
 20
14
 11
7
 21
11.48910522460938
  0
LINE
  5
789
100
AcDbEntity
  8
0
  6
CONTINUOUS
 62
     7
100
AcDbLine
 10
6.999894344493729
 20
13.99994593887021
 11
14.99989252170552
 21
5.999948436007801
  0
LINE
  5
78a
100
AcDbEntity
  8
0
  6
CONTINUOUS
 62
     7
100
AcDbLine
 10
15
 20
6
 11
15
 21
-6
  0
LINE
  5
78b
100
AcDbEntity
  8
0
  6
CONTINUOUS
 62
     7
100
AcDbLine
 10
7.000062931882942
 20
-14.00006057830527
 11
15.0000718986884
 21
-6.000052285850093
  0
LINE
  5
78c
100
AcDbEntity
  8
0
  6
CONTINUOUS
 62
     7
100
AcDbLine
 10
7
 20
-11.4891357421875
 11
7
 21
-14
  0
LINE
  5
78d
100
AcDbEntity
  8
0
  6
CONTINUOUS
 62
     7
100
AcDbLine
 10
-27
 20
-11.4891357421875
 11
7
 21
-11.4891357421875
  0
LINE
  5
78e
100
AcDbEntity
  8
0
  6
CONTINUOUS
 62
     7
100
AcDbLine
 10
-1.349496989433888
 20
-5.846256216814598
 11
7.000007771485774
 21
-11.48910693216624
  0
LINE
  5
78f
100
AcDbEntity
  8
0
  6
CONTINUOUS
 62
     7
100
AcDbLine
 10
-27.00001718917205
 20
-11.4891315256141
 11
-4.921287079706483
 21
3.432349635207573
  0
LINE
  5
790
100
AcDbEntity
  8
0
  6
CONTINUOUS
 62
     7
100
AcDbLine
 10
-1.349524497058145
 20
5.846256043034261
 11
6.99998658503937
 21
11.48911103043125
  0
LINE
  5
791
100
AcDbEntity
  8
0
  6
CONTINUOUS
 62
     7
100
AcDbLine
 10
-59
 20
14
 11
7
 21
14
  0
LINE
  5
792
100
AcDbEntity
  8
0
  6
CONTINUOUS
 62
     7
100
AcDbLine
 10
-27
 20
11.48910522460938
 11
7
 21
11.48910522460938
  0
LINE
  5
793
100
AcDbEntity
  8
0
  6
CONTINUOUS
 62
     7
100
AcDbLine
 10
-26.99998336036993
 20
11.48912707978841
 11
-4.921265893260079
 21
-3.432345536942562
  0
LINE
  5
794
100
AcDbEntity
  8
0
  6
CONTINUOUS
 62
     7
100
AcDbLine
 10
-27
 20
11.48910522460938
 11
-27
 21
-11.4891357421875
  0
LINE
  5
795
100
AcDbEntity
  8
0
  6
CONTINUOUS
 62
     7
100
AcDbLine
 10
-59
 20
-14
 11
7
 21
-14
  0
LINE
  5
796
100
AcDbEntity
  8
0
  6
CONTINUOUS
 62
     7
100
AcDbLine
 10
-59
 20
14
 11
-59
 21
-14
  0
LINE
  5
797
100
AcDbEntity
  8
0
  6
CONTINUOUS
 62
     7
100
AcDbLine
 10
-59.0000674372166
 20
-14.00005788076574
 11
-60.00005996011887
 21
-13.00005903586364
  0
LINE
  5
798
100
AcDbEntity
  8
0
  6
CONTINUOUS
 62
     7
100
AcDbLine
 10
-60
 20
12.99998474121094
 11
-60
 21
-13
  0
LINE
  5
799
100
AcDbEntity
  8
0
  6
CONTINUOUS
 62
     7
100
AcDbLine
 10
-60.00003981389837
 20
12.99995012871298
 11
-59.0000355741826
 21
13.9999480463948
  0
LINE
  5
79a
100
AcDbEntity
  8
0
  6
CONTINUOUS
 62
     7
100
AcDbLine
 10
-59.99996825655767
 20
11.25836577982308
 11
-62.16662477986402
 21
15.01112489338485
  0
LINE
  5
79b
100
AcDbEntity
  8
0
  6
CONTINUOUS
 62
     7
100
AcDbLine
 10
-68.83334350585938
 20
15.0111083984375
 11
-62.16667175292969
 21
15.0111083984375
  0
LINE
  5
79c
100
AcDbEntity
  8
0
  6
CONTINUOUS
 62
     7
100
AcDbLine
 10
-71.00003483265883
 20
11.25828048483038
 11
-68.83336305056319
 21
15.01106602738995
  0
LINE
  5
79d
100
AcDbEntity
  8
0
  6
CONTINUOUS
 62
     7
100
AcDbLine
 10
-68.83334350585938
 20
7.50555419921875
 11
-62.16667175292969
 21
7.50555419921875
  0
LINE
  5
79e
100
AcDbEntity
  8
0
  6
CENTER
 62
     3
100
AcDbLine
 10
53.17113494873047
 20
0
 11
90.37574768066406
 21
0
  0
LINE
  5
79f
100
AcDbEntity
  8
0
  6
CENTER
 62
     3
100
AcDbLine
 10
71.5025634765625
 20
17.85000038146973
 11
71.5025634765625
 21
-17.14999961853027
  0
LINE
  5
7a0
100
AcDbEntity
  8
0
  6
DASHED
 62
     7
100
AcDbLine
 10
63.5025634765625
 20
6
 11
79.5025634765625
 21
6
  0
LINE
  5
7a1
100
AcDbEntity
  8
0
  6
CONTINUOUS
 62
     7
100
AcDbLine
 10
63.5025634765625
 20
11.48910522460938
 11
63.5025634765625
 21
-11.4891357421875
  0
LINE
  5
7a2
100
AcDbEntity
  8
0
  6
CONTINUOUS
 62
     7
100
AcDbLine
 10
79.5025634765625
 20
11.48912048339844
 11
79.5025634765625
 21
-11.4891357421875
  0
LINE
  5
7a3
100
AcDbEntity
  8
0
  6
DASHED
 62
     7
100
AcDbLine
 10
63.5025634765625
 20
-6
 11
79.5025634765625
 21
-6
  0
LINE
  5
7a4
100
AcDbEntity
  8
0
  6
CONTINUOUS
 62
     7
100
AcDbLine
 10
-60.00002976609308
 20
-11.25836550593966
 11
-62.16668628939944
 21
-15.01112461950143
  0
LINE
  5
7a5
100
AcDbEntity
  8
0
  6
CONTINUOUS
 62
     7
100
AcDbLine
 10
-68.83334350585938
 20
-7.50555419921875
 11
-62.16667175292969
 21
-7.50555419921875
  0
LINE
  5
7a6
100
AcDbEntity
  8
0
  6
CONTINUOUS
 62
     7
100
AcDbLine
 10
-71
 20
11.25833129882813
 11
-71
 21
-11.25833129882813
  0
LINE
  5
7a7
100
AcDbEntity
  8
0
  6
CONTINUOUS
 62
     7
100
AcDbLine
 10
-70.99997890822769
 20
-11.25830105484049
 11
-68.83332238492132
 21
-15.01106016840227
  0
LINE
  5
7a8
100
AcDbEntity
  8
0
  6
CONTINUOUS
 62
     7
100
AcDbLine
 10
-68.83334350585938
 20
-15.0111083984375
 11
-62.16667175292969
 21
-15.0111083984375
  0
LINE
  5
7a9
100
AcDbEntity
  8
0
  6
CONTINUOUS
 62
     7
100
AcDbLine
 10
-77
 20
-9
 11
-71
 21
-9
  0
LINE
  5
7aa
100
AcDbEntity
  8
0
  6
CONTINUOUS
 62
     7
100
AcDbLine
 10
-74
 20
9
 11
-74
 21
-9
  0
LINE
  5
7ab
100
AcDbEntity
  8
0
  6
CONTINUOUS
 62
     7
100
AcDbLine
 10
-74
 20
-8.188003540039063
 11
-71
 21
-8.188003540039063
  0
LINE
  5
7ac
100
AcDbEntity
  8
0
  6
CONTINUOUS
 62
     7
100
AcDbLine
 10
-76.23095360602396
 20
-8.999999215518514
 11
-74.00001527814843
 21
-8.188004040612
  0
LINE
  5
7ad
100
AcDbEntity
  8
0
  6
CONTINUOUS
 62
     7
100
AcDbLine
 10
-78.73208409338147
 20
-9.999965822421622
 11
-77.00003329358441
 21
-8.999965808960447
  0
LINE
  5
7ae
100
AcDbEntity
  8
0
  6
CONTINUOUS
 62
     7
100
AcDbLine
 10
-77
 20
-2.5
 11
-77
 21
-9
  0
LINE
  5
7af
100
AcDbEntity
  8
0
  6
CONTINUOUS
 62
     7
100
AcDbLine
 10
-78.7320556640625
 20
-5.267837524414063
 11
-78.7320556640625
 21
-10
  0
LINE
  5
7b0
100
AcDbEntity
  8
0
  6
CONTINUOUS
 62
     7
100
AcDbLine
 10
-85
 20
-5.267837524414063
 11
-77
 21
-5.267837524414063
  0
LINE
  5
7b1
100
AcDbEntity
  8
0
  6
CONTINUOUS
 62
     7
100
AcDbLine
 10
-95.66574096679688
 20
-10
 11
-78.7320556640625
 21
-10
  0
LWPOLYLINE
  5
7b2
100
AcDbEntity
  8
0
  6
CONTINUOUS
 62
     7
100
AcDbPolyline
 90
    10
 70
     0
 10
-98.37175718267858
 20
12.11146203348902
 10
-97.76807886403057
 20
7.178547232996979
 10
-100.1766833589007
 20
6.27931178702548
 10
-95.06794302222914
 20
5.695554840629659
 10
-97.47654751709925
 20
4.79631939465816
 10
-96.26919087980322
 20
-5.069510206325912
 10
-98.67779537467332
 20
-5.968745652297411
 10
-93.56905503800181
 20
-6.552502598693234
 10
-95.97765953287191
 20
-7.451738044664733
 10
-95.37398121422389
 20
-12.38465284515677
  0
LINE
  5
7b3
100
AcDbEntity
  8
0
  6
CONTINUOUS
 62
     7
100
AcDbLine
 10
-85
 20
5.267822265625
 11
-85
 21
-5.267837524414063
  0
LINE
  5
7b4
100
AcDbEntity
  8
0
  6
CONTINUOUS
 62
     7
100
AcDbLine
 10
-74.00006798016023
 20
-2.500039099414721
 11
-85.00006377341614
 21
5.267785174092715
  0
LINE
  5
7b5
100
AcDbEntity
  8
0
  6
CONTINUOUS
 62
     7
100
AcDbLine
 10
-85
 20
5.267822265625
 11
-77
 21
5.267822265625
  0
LINE
  5
7b6
100
AcDbEntity
  8
0
  6
CONTINUOUS
 62
     7
100
AcDbLine
 10
-78.7320556640625
 20
10
 11
-78.7320556640625
 21
5.267822265625
  0
LINE
  5
7b7
100
AcDbEntity
  8
0
  6
CONTINUOUS
 62
     7
100
AcDbLine
 10
-77
 20
9
 11
-77
 21
2.5
  0
LINE
  5
7b8
100
AcDbEntity
  8
0
  6
CONTINUOUS
 62
     7
100
AcDbLine
 10
-77
 20
2.5
 11
-74
 21
2.5
  0
LINE
  5
7b9
100
AcDbEntity
  8
0
  6
CONTINUOUS
 62
     7
100
AcDbLine
 10
-74.0000258021345
 20
2.499966144985258
 11
-85.00002159539044
 21
-5.267858128522178
  0
LINE
  5
7ba
100
AcDbEntity
  8
0
  6
CONTINUOUS
 62
     7
100
AcDbLine
 10
-77
 20
-2.5
 11
-74
 21
-2.5
  0
LINE
  5
7bb
100
AcDbEntity
  8
0
  6
CONTINUOUS
 62
     7
100
AcDbLine
 10
-76.23097641200175
 20
9.00002578403814
 11
-74.00003091484051
 21
8.188027999724934
  0
LINE
  5
7bc
100
AcDbEntity
  8
0
  6
CONTINUOUS
 62
     7
100
AcDbLine
 10
-77
 20
9
 11
-71
 21
9
  0
LINE
  5
7bd
100
AcDbEntity
  8
0
  6
CONTINUOUS
 62
     7
100
AcDbLine
 10
-74
 20
8.18798828125
 11
-71
 21
8.18798828125
  0
LINE
  5
7be
100
AcDbEntity
  8
0
  6
CONTINUOUS
 62
     7
100
AcDbLine
 10
-78.73206481448233
 20
10.00004499082043
 11
-77.00001401468526
 21
9.000044977359256
  0
LINE
  5
7bf
100
AcDbEntity
  8
0
  6
CONTINUOUS
 62
     7
100
AcDbLine
 10
-98.11328125
 20
10
 11
-78.7320556640625
 21
10
  0
LINE
  5
7c0
100
AcDbEntity
  8
0
  6
CONTINUOUS
 62
     7
100
AcDbLine
 10
-69.70579528808594
 20
-79.36827087402344
 11
-61.29423522949219
 21
-79.36827087402344
  0
LWPOLYLINE
  5
7c1
100
AcDbEntity
  8
0
  6
CONTINUOUS
 62
     7
100
AcDbPolyline
 90
    10
 70
     0
 10
-98.3718527581934
 20
-67.25685593016088
 10
-97.76817397616878
 20
-72.18977451710209
 10
-100.1767784710389
 20
-73.08900996307359
 10
-95.06803813436737
 20
-73.67276690946942
 10
-97.47664262923748
 20
-74.57200235544092
 10
-96.26928506518826
 20
-84.43783952932334
 10
-98.67788956005836
 20
-85.33707497529484
 10
-93.56914922338683
 20
-85.92083192169065
 10
-95.97775371825694
 20
-86.82006736766215
 10
-95.37407493623233
 20
-91.75298595460336
  0
LINE
  5
7c2
100
AcDbEntity
  8
0
  6
CONTINUOUS
 62
     7
100
AcDbLine
 10
-98.11328125
 20
-69.36827087402344
 11
-87
 21
-69.36827087402344
  0
LINE
  5
7c3
100
AcDbEntity
  8
0
  6
CONTINUOUS
 62
     7
100
AcDbLine
 10
-87.00005283613675
 20
-69.36837708952591
 11
-85.00005566140042
 21
-70.86838085653675
  0
LINE
  5
7c4
100
AcDbEntity
  8
0
  6
CONTINUOUS
 62
     7
100
AcDbLine
 10
-85
 20
-70.86827087402344
 11
-74
 21
-70.86827087402344
  0
LINE
  5
7c5
100
AcDbEntity
  8
0
  6
CONTINUOUS
 62
     7
100
AcDbLine
 10
-95.66574096679688
 20
-89.36827087402344
 11
-86.99998474121094
 21
-89.36827087402344
  0
LINE
  5
7c6
100
AcDbEntity
  8
0
  6
CONTINUOUS
 62
     7
100
AcDbLine
 10
-86.99995641494603
 20
-89.36830656535921
 11
-84.99995924020971
 21
-87.86830279834834
  0
LINE
  5
7c7
100
AcDbEntity
  8
0
  6
CONTINUOUS
 62
     7
100
AcDbLine
 10
-85
 20
-87.86827087402344
 11
-74
 21
-87.86827087402344
  0
LINE
  5
7c8
100
AcDbEntity
  8
0
  6
CONTINUOUS
 62
     7
100
AcDbLine
 10
-78.7320556640625
 20
-70.86827087402344
 11
-78.7320556640625
 21
-87.86827087402344
  0
LINE
  5
7c9
100
AcDbEntity
  8
0
  6
CONTINUOUS
 62
     7
100
AcDbLine
 10
-77
 20
-70.86827087402344
 11
-77
 21
-87.86827087402344
  0
LINE
  5
7ca
100
AcDbEntity
  8
0
  6
CENTER
 62
     3
100
AcDbLine
 10
-96.88968658447266
 20
-79.36827087402344
 11
18.56620788574219
 21
-79.36827087402344
  0
LINE
  5
7cb
100
AcDbEntity
  8
0
  6
CONTINUOUS
 62
     7
100
AcDbLine
 10
-74
 20
-70.36827087402344
 11
-74
 21
-88.36827087402344
  0
LINE
  5
7cc
100
AcDbEntity
  8
0
  6
CONTINUOUS
 62
     7
100
AcDbLine
 10
-74
 20
-70.36827087402344
 11
-71
 21
-70.36827087402344
  0
LINE
  5
7cd
100
AcDbEntity
  8
0
  6
CONTINUOUS
 62
     7
100
AcDbLine
 10
-74
 20
-71.18026733398438
 11
-71
 21
-71.18026733398438
  0
LINE
  5
7ce
100
AcDbEntity
  8
0
  6
CONTINUOUS
 62
     7
100
AcDbLine
 10
-74.8572226459717
 20
-70.86827635776022
 11
-74.00003416909622
 21
-71.18026745967076
  0
LINE
  5
7cf
100
AcDbEntity
  8
0
  6
CONTINUOUS
 62
     7
100
AcDbLine
 10
-71
 20
-68.10993957519531
 11
-71
 21
-90.62660217285156
  0
LINE
  5
7d0
100
AcDbEntity
  8
0
  6
CONTINUOUS
 62
     7
100
AcDbLine
 10
-71.00000097806893
 20
-68.10992305353983
 11
-69.70576573115481
 21
-65.86824188917234
  0
LINE
  5
7d1
100
AcDbEntity
  8
0
  6
CONTINUOUS
 62
     7
100
AcDbLine
 10
-69.70579528808594
 20
-65.86827087402344
 11
-61.29425048828125
 21
-65.86827087402344
  0
LINE
  5
7d2
100
AcDbEntity
  8
0
  6
CONTINUOUS
 62
     7
100
AcDbLine
 10
-59.99993320940668
 20
-68.10990369409993
 11
-61.29415319753153
 21
-65.86824895873025
  0
LINE
  5
7d3
100
AcDbEntity
  8
0
  6
CONTINUOUS
 62
     7
100
AcDbLine
 10
-74
 20
-87.5562744140625
 11
-71
 21
-87.5562744140625
  0
LINE
  5
7d4
100
AcDbEntity
  8
0
  6
CONTINUOUS
 62
     7
100
AcDbLine
 10
-74.85725265598859
 20
-87.86825884091601
 11
-74.00003550197025
 21
-87.55625730137869
  0
LINE
  5
7d5
100
AcDbEntity
  8
0
  6
CONTINUOUS
 62
     7
100
AcDbLine
 10
-74
 20
-88.36827087402344
 11
-71
 21
-88.36827087402344
  0
LINE
  5
7d6
100
AcDbEntity
  8
0
  6
CONTINUOUS
 62
     7
100
AcDbLine
 10
-70.99997131221969
 20
-90.62656875835654
 11
-69.70574369470022
 21
-92.86823670822511
  0
LINE
  5
7d7
100
AcDbEntity
  8
0
  6
CONTINUOUS
 62
     7
100
AcDbLine
 10
-69.70579528808594
 20
-92.86825561523438
 11
-61.29423522949219
 21
-92.86825561523438
  0
LINE
  5
7d8
100
AcDbEntity
  8
0
  6
CONTINUOUS
 62
     7
100
AcDbLine
 10
-60.00006961339231
 20
-90.62654411183559
 11
-61.29430486030643
 21
-92.86822527620308
  0
LINE
  5
7d9
100
AcDbEntity
  8
0
  6
CONTINUOUS
 62
     7
100
AcDbLine
 10
-59.0001214116142
 20
-93.36842158652968
 11
-60.00011932929603
 21
-92.36841734681391
  0
LINE
  5
7da
100
AcDbEntity
  8
0
  6
CONTINUOUS
 62
     7
100
AcDbLine
 10
-60
 20
-66.3682861328125
 11
-60
 21
-92.36825561523438
  0
LINE
  5
7db
100
AcDbEntity
  8
0
  6
CONTINUOUS
 62
     7
100
AcDbLine
 10
-59
 20
-65.36827087402344
 11
-59
 21
-93.36825561523438
  0
LINE
  5
7dc
100
AcDbEntity
  8
0
  6
CONTINUOUS
 62
     7
100
AcDbLine
 10
-59
 20
-93.36825561523438
 11
-27
 21
-93.36825561523438
  0
LINE
  5
7dd
100
AcDbEntity
  8
0
  6
CONTINUOUS
 62
     7
100
AcDbLine
 10
-59.99994374522218
 20
-66.36832085445853
 11
-58.99993950550641
 21
-65.36832293677671
  0
LINE
  5
7de
100
AcDbEntity
  8
0
  6
CONTINUOUS
 62
     7
100
AcDbLine
 10
-59
 20
-65.36827087402344
 11
-27
 21
-65.36827087402344
  0
LINE
  5
7df
100
AcDbEntity
  8
0
  6
CONTINUOUS
 62
     7
100
AcDbLine
 10
-27
 20
-87.36827087402344
 11
-27
 21
-93.36825561523438
  0
LINE
  5
7e0
100
AcDbEntity
  8
0
  6
CONTINUOUS
 62
     7
100
AcDbLine
 10
-27
 20
-87.36827087402344
 11
12.5
 21
-87.36827087402344
  0
LINE
  5
7e1
100
AcDbEntity
  8
0
  6
CONTINUOUS
 62
     7
100
AcDbLine
 10
-27
 20
-65.36827087402344
 11
-27
 21
-71.36827087402344
  0
LINE
  5
7e2
100
AcDbEntity
  8
0
  6
CONTINUOUS
 62
     7
100
AcDbLine
 10
-27
 20
-71.36827087402344
 11
12.5
 21
-71.36827087402344
  0
LINE
  5
7e3
100
AcDbEntity
  8
0
  6
DASHED
 62
     7
100
AcDbLine
 10
-6
 20
-71.36827087402344
 11
-6
 21
-87.36827087402344
  0
LINE
  5
7e4
100
AcDbEntity
  8
0
  6
CENTER
 62
     3
100
AcDbLine
 10
0
 20
-68.25
 11
0
 21
-89.94999694824219
  0
LINE
  5
7e5
100
AcDbEntity
  8
0
  6
DASHED
 62
     7
100
AcDbLine
 10
6
 20
-71.36827087402344
 11
6
 21
-87.36827087402344
  0
LINE
  5
7e6
100
AcDbEntity
  8
0
  6
CONTINUOUS
 62
     7
100
AcDbLine
 10
14.99997841698059
 20
-84.8681511491462
 11
12.4999649306279
 21
-87.3681646354989
  0
LINE
  5
7e7
100
AcDbEntity
  8
0
  6
CONTINUOUS
 62
     7
100
AcDbLine
 10
15
 20
-73.86827087402344
 11
15
 21
-84.86827087402344
  0
LINE
  5
7e8
100
AcDbEntity
  8
0
  6
CONTINUOUS
 62
     7
100
AcDbLine
 10
12.50005394477195
 20
-71.36823099558571
 11
15.00006743112464
 21
-73.86824448193841
  0
ARC
  5
7e9
100
AcDbEntity
  8
0
  6
CONTINUOUS
 62
     7
100
AcDbCircle
 10
-2.25
 20
0
 40
14.74998950958252
100
AcDbArc
 50
308.837836229522
 51
51.16216377047874
  0
CIRCLE
  5
7ea
100
AcDbEntity
  8
0
  6
CONTINUOUS
 62
     7
100
AcDbCircle
 10
0
 20
0
 40
6
  0
ARC
  5
7eb
100
AcDbEntity
  8
0
  6
CONTINUOUS
 62
     7
100
AcDbCircle
 10
-66.66668701171875
 20
11.25833129882813
 40
4.33333683013916
100
AcDbArc
 50
179.9999813306654
 51
239.9999146984265
  0
ARC
  5
7ec
100
AcDbEntity
  8
0
  6
CONTINUOUS
 62
     7
100
AcDbCircle
 10
-64.33334350585938
 20
11.25833129882813
 40
4.33333683013916
100
AcDbArc
 50
300.0000666322404
 51
360
  0
CIRCLE
  5
7ed
100
AcDbEntity
  8
0
  6
CONTINUOUS
 62
     7
100
AcDbCircle
 10
71.5025634765625
 20
0
 40
6
  0
CIRCLE
  5
7ee
100
AcDbEntity
  8
0
  6
CONTINUOUS
 62
     7
100
AcDbCircle
 10
71.5025634765625
 20
0
 40
14
  0
ARC
  5
7ef
100
AcDbEntity
  8
0
  6
CONTINUOUS
 62
     7
100
AcDbCircle
 10
-64.33334350585938
 20
-11.25833129882813
 40
4.333333015441895
100
AcDbArc
 50
0
 51
59.99989238662542
  0
ARC
  5
7f0
100
AcDbEntity
  8
0
  6
CONTINUOUS
 62
     7
100
AcDbCircle
 10
-74.0833740234375
 20
0
 40
14.08334922790527
100
AcDbArc
 50
327.7958083275523
 51
32.20413703093502
  0
ARC
  5
7f1
100
AcDbEntity
  8
0
  6
CONTINUOUS
 62
     7
100
AcDbCircle
 10
-56.91665649414063
 20
0
 40
14.08334922790527
100
AcDbArc
 50
147.7958269968863
 51
212.2041557002704
  0
ARC
  5
7f2
100
AcDbEntity
  8
0
  6
CONTINUOUS
 62
     7
100
AcDbCircle
 10
-66.66668701171875
 20
-11.25833129882813
 40
4.333333015441895
100
AcDbArc
 50
120.0000716411959
 51
179.9999640278213
  0
ARC
  5
7f3
100
AcDbEntity
  8
0
  6
CONTINUOUS
 62
     7
100
AcDbCircle
 10
-79.0625
 20
0
 40
7.9375
100
AcDbArc
 50
138.4201219458581
 51
221.5798607512985
  0
ARC
  5
7f4
100
AcDbEntity
  8
0
  6
CONTINUOUS
 62
     7
100
AcDbCircle
 10
-52.7503662109375
 20
-72.61827087402344
 40
18.24961280822754
100
AcDbArc
 50
158.2923660907135
 51
201.7076166064432
  0
ARC
  5
7f5
100
AcDbEntity
  8
0
  6
CONTINUOUS
 62
     7
100
AcDbCircle
 10
-78.2490234375
 20
-72.61827087402344
 40
18.2490119934082
100
AcDbArc
 50
338.291590977929
 51
21.70840902207176
  0
ARC
  5
7f6
100
AcDbEntity
  8
0
  6
CONTINUOUS
 62
     7
100
AcDbCircle
 10
-52.7503662109375
 20
-86.11827087402344
 40
18.24961280822754
100
AcDbArc
 50
158.2923660907135
 51
201.7076166064432
  0
ARC
  5
7f7
100
AcDbEntity
  8
0
  6
CONTINUOUS
 62
     7
100
AcDbCircle
 10
-78.24911499023438
 20
-86.1182861328125
 40
18.24911117553711
100
AcDbArc
 50
338.2917771005838
 51
21.70828437111938
  0
MTEXT
  5
7f8
100
AcDbEntity
  8
0
  6
CONTINUOUS
 62
     7
100
AcDbMText
 10
-38.03644573383339
 20
-7.609508597943471
 40
0.5
 41
24
 71
     7
 72
     1
  1
{\W0.843764;ＢＮ－６１０５－５０－Ｔ}
  0
MTEXT
  5
7f9
100
AcDbEntity
  8
0
  6
CONTINUOUS
 62
     7
100
AcDbMText
 10
-46.62789569795132
 20
-86.70928955078125
 40
0.5
 41
24
 71
     7
 72
     1
  1
{\W0.843764;ＢＮ－６１０５－５０－Ｔ}
  0
MTEXT
  5
7fa
100
AcDbEntity
  8
0
  6
CONTINUOUS
 62
     7
100
AcDbMText
 10
64.5048481374979
 20
-9.238494873046875
 40
0.5
 41
24
 71
     7
 72
     1
  1
{\W0.843764;ＢＮ－６１０５－５０－Ｔ}
  0
ENDBLK
  8
0
  5
7fb
100
AcDbEntity
100
AcDbBlockEnd
  0
BLOCK
  8
0
  5
7fc
100
AcDbEntity
100
AcDbBlockBegin
  2
KOZU0009
 70
    64
 10
0
 20
0
  0
LINE
  5
7fd
100
AcDbEntity
  8
0
  6
CONTINUOUS
 62
     3
100
AcDbLine
 10
-25.65569829991995
 20
-4.999998465199651
 11
-25.30576324462891
 21
-4.650062710037799
  0
LINE
  5
7fe
100
AcDbEntity
  8
0
  6
CONTINUOUS
 62
     3
100
AcDbLine
 10
-26.55372274626537
 20
-4.999998197567255
 11
-25.35372546335296
 21
-3.799998514657876
  0
LINE
  5
7ff
100
AcDbEntity
  8
0
  6
CONTINUOUS
 62
     3
100
AcDbLine
 10
-26.90576171875
 20
-4.45401136410203
 11
-26.25175004351429
 21
-3.799998380841659
  0
LINE
  5
800
100
AcDbEntity
  8
0
  6
CONTINUOUS
 62
     3
100
AcDbLine
 10
-25.83596295322936
 20
3.800001621246338
 11
-25.30576324462891
 21
4.330202390247271
  0
LINE
  5
801
100
AcDbEntity
  8
0
  6
CONTINUOUS
 62
     3
100
AcDbLine
 10
-26.73398766720665
 20
3.800001621246336
 11
-25.53399012190505
 21
5.000001566545425
  0
LINE
  5
802
100
AcDbEntity
  8
0
  6
CONTINUOUS
 62
     3
100
AcDbLine
 10
-26.90576171875
 20
4.52625373618304
 11
-26.43201430061877
 21
5.000002101810052
  0
ENDBLK
  8
0
  5
803
100
AcDbEntity
100
AcDbBlockEnd
  0
BLOCK
  8
0
  5
804
100
AcDbEntity
100
AcDbBlockBegin
  2
KOZU0010
 70
    64
 10
0
 20
0
  0
LINE
  5
805
100
AcDbEntity
  8
0
  6
CONTINUOUS
 62
     3
100
AcDbLine
 10
26.42973799014307
 20
-4.999995585813268
 11
26.90576171874987
 21
-4.523970905158063
  0
LINE
  5
806
100
AcDbEntity
  8
0
  6
CONTINUOUS
 62
     3
100
AcDbLine
 10
25.5317132761658
 20
-4.999995585813268
 11
26.73170484074724
 21
-3.800001621246294
  0
LINE
  5
807
100
AcDbEntity
  8
0
  6
CONTINUOUS
 62
     3
100
AcDbLine
 10
25.30576324462879
 20
-4.327919559222275
 11
25.83368012676996
 21
-3.800001621246294
  0
LINE
  5
808
100
AcDbEntity
  8
0
  6
CONTINUOUS
 62
     3
100
AcDbLine
 10
26.24946881918856
 20
3.79999998297858
 11
26.90576171874987
 21
4.456294195127009
  0
LINE
  5
809
100
AcDbEntity
  8
0
  6
CONTINUOUS
 62
     3
100
AcDbLine
 10
25.35144410521127
 20
3.799999982978578
 11
26.55144321406784
 21
5.000001491835763
  0
LINE
  5
80a
100
AcDbEntity
  8
0
  6
CONTINUOUS
 62
     3
100
AcDbLine
 10
25.30576324462879
 20
4.652345541062795
 11
25.65341850009055
 21
5.000001491835761
  0
ENDBLK
  8
0
  5
80b
100
AcDbEntity
100
AcDbBlockEnd
  0
ENDSEC
  0
SECTION
  2
ENTITIES
  0
LINE
  5
80c
100
AcDbEntity
  8
0
  6
PHANTOM
 62
     7
100
AcDbLine
 10
-120.0553588867188
 20
-138.4086151123047
 11
-120.0553588867188
 21
-341.4085998535156
  0
LINE
  5
80d
100
AcDbEntity
  8
0
  6
PHANTOM
 62
     7
100
AcDbLine
 10
388.1445922851563
 20
-138.4086151123047
 11
388.1445922851563
 21
-341.4085998535156
  0
LINE
  5
80e
100
AcDbEntity
  8
0
  6
PHANTOM
 62
     7
100
AcDbLine
 10
-120.0553894042969
 20
-138.4086151123047
 11
388.1445922851563
 21
-138.4086151123047
  0
LINE
  5
80f
100
AcDbEntity
  8
0
  6
PHANTOM
 62
     7
100
AcDbLine
 10
-120.0553894042969
 20
-341.4085998535156
 11
388.1445922851563
 21
-341.4085998535156
  0
LINE
  5
810
100
AcDbEntity
  8
0
  6
PHANTOM
 62
     7
100
AcDbLine
 10
134.0446166992188
 20
-138.4086151123047
 11
134.0446166992188
 21
-341.4085998535156
  0
LINE
  5
811
100
AcDbEntity
  8
0
  6
CONTINUOUS
 62
     7
100
AcDbLine
 10
447.3521118164063
 20
-247.1412658691406
 11
614.9164367675782
 21
-247.1412658691406
  0
LINE
  5
812
100
AcDbEntity
  8
0
  6
CONTINUOUS
 62
     7
100
AcDbLine
 10
447.3521118164063
 20
-284.7073333740235
 11
614.9164367675782
 21
-284.7073333740235
  0
LINE
  5
813
100
AcDbEntity
  8
0
  6
CONTINUOUS
 62
     7
100
AcDbLine
 10
541.9201034029005
 20
-231.1912658691406
 11
449.5521453857422
 21
-231.1912658691406
  0
LINE
  5
814
100
AcDbEntity
  8
0
  6
CONTINUOUS
 62
     7
100
AcDbLine
 10
449.5521453857422
 20
-221.8962860107422
 11
541.9201034029005
 21
-221.8962860107422
  0
LINE
  5
815
100
AcDbEntity
  8
0
  6
CONTINUOUS
 62
     7
100
AcDbLine
 10
449.5521453857422
 20
-212.6012725830078
 11
541.9201034029005
 21
-212.6012725830078
  0
LINE
  5
816
100
AcDbEntity
  8
0
  6
CONTINUOUS
 62
     7
100
AcDbLine
 10
447.3521118164063
 20
-247.1412658691406
 11
447.3521118164063
 21
-284.7073333740235
  0
LINE
  5
817
100
AcDbEntity
  8
0
  6
CONTINUOUS
 62
     7
100
AcDbLine
 10
614.9164367675782
 20
-247.1412658691406
 11
614.9164367675782
 21
-284.7073333740235
  0
ARC
  5
818
100
AcDbEntity
  8
0
  6
PHANTOM
 62
     7
100
AcDbCircle
 10
16.1875
 20
-195.1416931152344
 40
16.5
100
AcDbArc
 50
270.0000000000007
 51
90.00000000000003
  0
MTEXT
  5
819
100
AcDbEntity
  8
0
  6
CONTINUOUS
 62
     7
100
AcDbMText
 10
-17.78752565383911
 20
-156.1591491699219
 40
6
 41
120
 71
     7
 72
     1
  1
{\W0.848905;Ｔコネクタ}
  0
MTEXT
  5
81a
100
AcDbEntity
  8
0
  6
CONTINUOUS
 62
     7
100
AcDbMText
 10
238.5099902153015
 20
-155.2990875244141
 40
6
 41
120
 71
     7
 72
     1
  1
{\W0.848905;Ｙコネクタ}
  0
MTEXT
  5
81b
100
AcDbEntity
  8
0
  6
CONTINUOUS
 62
     7
100
AcDbMText
 10
-107.9478816986084
 20
-159.0993804931641
 40
8
 41
64
 71
     7
 72
     1
  1
{\W0.864328;＊８}
  0
MTEXT
  5
81c
100
AcDbEntity
  8
0
  6
CONTINUOUS
 62
     7
100
AcDbMText
 10
153.509973526001
 20
-159.9594421386719
 40
8
 41
64
 71
     7
 72
     1
  1
{\W0.864328;＊７}
  0
MTEXT
  5
81d
100
AcDbEntity
  8
0
  6
CONTINUOUS
 62
     7
100
AcDbMText
 10
454.3476926803589
 20
-269.3962860107422
 40
7
 41
84
 71
     7
 72
     1
  1
{\W0.855331;品　名}
  0
MTEXT
  5
81e
100
AcDbEntity
  8
0
  6
CONTINUOUS
 62
     7
100
AcDbMText
 10
454.3476926803589
 20
-280.2312927246094
 40
7
 41
84
 71
     7
 72
     1
  1
{\W0.855331;型　番}
  0
MTEXT
  5
81f
100
AcDbEntity
  8
0
  6
CONTINUOUS
 62
     7
100
AcDbMText
 10
489.3276792526245
 20
-280.2312927246094
 40
7
 41
476
 71
     7
 72
     1
  1
{\W0.842735;ＢＮ－６１０５－ＦＢ－５０－Ｂ－＊}
  0
MTEXT
  5
820
100
AcDbEntity
  8
0
  6
CONTINUOUS
 62
     7
100
AcDbMText
 10
489.3276792526245
 20
-269.3962860107422
 40
7
 41
196
 71
     7
 72
     1
  1
{\W0.846334;空気圧シリンダ}
  0
MTEXT
  5
821
100
AcDbEntity
  8
0
  6
CONTINUOUS
 62
     7
100
AcDbMText
 10
498.5046831276721
 20
-257.6611792013056
 40
7
 41
224
 71
     7
 72
     1
  1
{\W0.845552;日本精器株式会社}
  0
MTEXT
  5
822
100
AcDbEntity
  8
0
  6
CONTINUOUS
 62
     7
100
AcDbMText
 10
451.1054125785828
 20
-230.2312591552735
 40
6
 41
288
 71
     7
 72
     1
  1
{\W0.843764;周囲温度　　　：　常　温}
  0
MTEXT
  5
823
100
AcDbEntity
  8
0
  6
CONTINUOUS
 62
     7
100
AcDbMText
 10
451.1054125785828
 20
-220.936279296875
 40
6
 41
360
 71
     7
 72
     1
  1
{\W0.843063;耐圧力　　　　：　１．５ＭＰａ}
  0
MTEXT
  5
824
100
AcDbEntity
  8
0
  6
CONTINUOUS
 62
     7
100
AcDbMText
 10
451.1054125785828
 20
-211.6412658691406
 40
6
 41
360
 71
     7
 72
     1
  1
{\W0.843063;最高使用圧力　：　１．０ＭＰａ}
  0
MTEXT
  5
825
100
AcDbEntity
  8
0
  6
CONTINUOUS
 62
     7
100
AcDbMText
 10
177.8905600790446
 20
162.5470696559269
 40
8
 41
64
 71
     7
 72
     1
  1
{\W0.864328;＊１}
  0
MTEXT
  5
826
100
AcDbEntity
  8
0
  6
CONTINUOUS
 62
     7
100
AcDbMText
 10
176.5727505590908
 20
215.2594504540766
 40
8
 41
64
 71
     7
 72
     1
  1
{\W0.864328;＊２}
  0
MTEXT
  5
827
100
AcDbEntity
  8
0
  6
CONTINUOUS
 62
     7
100
AcDbMText
 10
-102.8028676711027
 20
157.2758315761119
 40
8
 41
64
 71
     7
 72
     1
  1
{\W0.864328;＊３}
  0
MTEXT
  5
828
100
AcDbEntity
  8
0
  6
CONTINUOUS
 62
     7
100
AcDbMText
 10
276.7262740755753
 20
159.9114506160194
 40
8
 41
64
 71
     7
 72
     1
  1
{\W0.864328;＊４}
  0
MTEXT
  5
829
100
AcDbEntity
  8
0
  6
CONTINUOUS
 62
     7
100
AcDbMText
 10
458.5839878291918
 20
158.5936410960657
 40
8
 41
64
 71
     7
 72
     1
  1
{\W0.864328;＊５}
  0
MTEXT
  5
82a
100
AcDbEntity
  8
0
  6
CONTINUOUS
 62
     7
100
AcDbMText
 10
175.2549410391371
 20
-28.53531073736578
 40
8
 41
64
 71
     7
 72
     1
  1
{\W0.864328;＊６}
  0
INSERT
  5
82b
100
AcDbEntity
  8
0
  6
CONTINUOUS
 62
     7
100
AcDbBlockReference
  2
KOZU0001
 10
153.0045471191406
 20
110.5160598754883
  0
INSERT
  5
82c
100
AcDbEntity
  8
0
  6
CONTINUOUS
 62
     7
100
AcDbBlockReference
  2
KOZU0002
 10
153.0045471191406
 20
250.5160675048828
  0
INSERT
  5
82d
100
AcDbEntity
  8
0
  6
CONTINUOUS
 62
     7
100
AcDbBlockReference
  2
KOZU0003
 10
-152.6749877929688
 20
110.5160598754883
  0
INSERT
  5
82e
100
AcDbEntity
  8
0
  6
CONTINUOUS
 62
     7
100
AcDbBlockReference
  2
KOZU0004
 10
333.6841430664063
 20
110.5160598754883
  0
INSERT
  5
82f
100
AcDbEntity
  8
0
  6
CONTINUOUS
 62
     7
100
AcDbBlockReference
  2
KOZU0005
 10
494.3637390136719
 20
110.5160598754883
  0
INSERT
  5
830
100
AcDbEntity
  8
0
  6
CONTINUOUS
 62
     7
100
AcDbBlockReference
  2
KOZU0006
 10
153.0045471191406
 20
-59.48393249511719
  0
INSERT
  5
831
100
AcDbEntity
  8
0
  6
CONTINUOUS
 62
     7
100
AcDbBlockReference
  2
KOZU0007
 10
255.9986877441406
 20
-195.1416931152344
  0
INSERT
  5
832
100
AcDbEntity
  8
0
  6
CONTINUOUS
 62
     7
100
AcDbBlockReference
  2
KOZU0008
 10
16.1875
 20
-195.1416931152344
  0
DIMENSION
  5
833
100
AcDbEntity
  8
0
  6
CONTINUOUS
 62
     7
100
AcDbDimension
  2
*D1
 70
     0
 10
16.1875
 20
-229.7003843905031
 11
-22.3125
 21
-229.7003843905031
  3
DIMSTYLE
100
AcDbAlignedDimension
 13
-60.8125
 23
-204.1416931152344
 14
16.1875
 24
-211.6416931152344
 50
0
100
AcDbRotatedDimension
1001
ACAD
1000
DSTYLE
1002
{
1070
     6
1000
_OPEN30
1070
     7
1000
_OPEN30
1070
    77
1070
     1
1070
   172
1070
     1
1070
    42
1040
0
1002
}
  0
DIMENSION
  5
834
100
AcDbEntity
  8
0
  6
CONTINUOUS
 62
     7
100
AcDbDimension
  2
*D2
 70
     0
 10
-43.8125
 20
-323.0638385160395
 11
-6.3125
 21
-323.0638385160395
  3
DIMSTYLE
100
AcDbAlignedDimension
 13
31.1875
 23
-280.0099487304688
 14
-43.8125
 24
-287.5099487304688
 50
0
100
AcDbRotatedDimension
1001
ACAD
1000
DSTYLE
1002
{
1070
     6
1000
_OPEN30
1070
     7
1000
_OPEN30
1070
    77
1070
     1
1070
   172
1070
     1
1070
    42
1040
0
1002
}
  0
DIMENSION
  5
835
100
AcDbEntity
  8
0
  6
CONTINUOUS
 62
     7
100
AcDbDimension
  2
*D3
 70
     0
 10
50.29208374023438
 20
-266.5099792480469
 11
50.29208374023438
 21
-254.487548828125
  3
DIMSTYLE
100
AcDbAlignedDimension
 13
28.6875
 23
-282.5099792480469
 14
28.6875
 24
-266.5099792480469
 50
90
100
AcDbRotatedDimension
1001
ACAD
1000
DSTYLE
1002
{
1070
     6
1000
_OPEN30
1070
     7
1000
_OPEN30
1070
    77
1070
     1
1070
   172
1070
     1
1070
    42
1040
0
1002
}
  0
LINE
  5
836
100
AcDbEntity
  8
0
  6
CONTINUOUS
 62
     7
100
AcDbLine
 10
18.67723014941712
 20
-200.6605383569347
 11
26.51362430250968
 21
-224.0624133960418
  0
LINE
  5
837
100
AcDbEntity
  8
0
  6
CONTINUOUS
 62
     7
100
AcDbLine
 10
18.67723014941712
 20
-200.6605383569347
 11
20.20338505853976
 21
-203.4482038479828
  0
LINE
  5
838
100
AcDbEntity
  8
0
  6
CONTINUOUS
 62
     7
100
AcDbLine
 10
18.67723014941712
 20
-200.6605383569347
 11
19.13755478346318
 21
-203.8051096994089
  0
MTEXT
  5
839
100
AcDbEntity
  8
0
  6
CONTINUOUS
 62
     7
100
AcDbMText
 10
33.29322654033142
 20
-224.062414499287
 40
5
 41
170
 71
     4
 72
     1
  1
{\W0.847392;\U+2205１２Ｈ１０}
  0
LINE
  5
83a
100
AcDbEntity
  8
0
  6
CONTINUOUS
 62
     7
100
AcDbLine
 10
18.67723014941712
 20
-200.6605383569347
 11
26.51362430250968
 21
-224.0624133960418
  0
LINE
  5
83b
100
AcDbEntity
  8
0
  6
CONTINUOUS
 62
     7
100
AcDbLine
 10
26.51362430250968
 20
-224.0624133960417
 11
31.86447745585876
 21
-224.0624133960417
  0
DIMENSION
  5
83c
100
AcDbEntity
  8
0
  6
CONTINUOUS
 62
     7
100
AcDbDimension
  2
*D4
 70
     0
 10
195.9986877441406
 20
-226.4843139648438
 11
190.4986877441406
 21
-226.4843139648438
  3
DIMSTYLE
100
AcDbAlignedDimension
 13
184.9986877441406
 23
-206.4000244140625
 14
195.9986877441406
 24
-208.1416931152344
 50
0
100
AcDbRotatedDimension
1001
ACAD
1000
DSTYLE
1002
{
1070
     6
1000
_OPEN30
1070
     7
1000
_OPEN30
1070
    77
1070
     1
1070
   172
1070
     1
1070
    42
1040
0
1002
}
  0
DIMENSION
  5
83d
100
AcDbEntity
  8
0
  6
CONTINUOUS
 62
     7
100
AcDbDimension
  2
*D5
 70
     0
 10
255.9986877441406
 20
-226.4843139648438
 11
225.9986877441406
 21
-226.4843139648438
  3
DIMSTYLE
100
AcDbAlignedDimension
 13
195.9986877441406
 23
-208.1416931152344
 14
255.9986877441406
 24
-213.4268798828125
 50
0
100
AcDbRotatedDimension
1001
ACAD
1000
DSTYLE
1002
{
1070
     6
1000
_OPEN30
1070
     7
1000
_OPEN30
1070
    77
1070
     1
1070
   172
1070
     1
1070
    75
1070
     1
1002
}
  0
DIMENSION
  5
83e
100
AcDbEntity
  8
0
  6
CONTINUOUS
 62
     7
100
AcDbDimension
  2
*D6
 70
     0
 10
255.9986877441406
 20
-237.7984619140625
 11
217.4986877441406
 21
-237.7984619140625
  3
DIMSTYLE
100
AcDbAlignedDimension
 13
178.9986877441406
 23
-204.1416931152344
 14
255.9986877441406
 24
-213.4268798828125
 50
0
100
AcDbRotatedDimension
1001
ACAD
1000
DSTYLE
1002
{
1070
     6
1000
_OPEN30
1070
     7
1000
_OPEN30
1070
    77
1070
     1
1070
   172
1070
     1
1070
    42
1040
0
1002
}
  0
DIMENSION
  5
83f
100
AcDbEntity
  8
0
  6
CONTINUOUS
 62
     7
100
AcDbDimension
  2
*D7
 70
     0
 10
228.9986877441406
 20
-326.7438354492188
 11
242.4986877441406
 21
-326.7438354492188
  3
DIMSTYLE
100
AcDbAlignedDimension
 13
255.9986877441406
 23
-315.5188598632813
 14
228.9986877441406
 24
-292.5099487304688
 50
0
100
AcDbRotatedDimension
1001
ACAD
1000
DSTYLE
1002
{
1070
     6
1000
_OPEN30
1070
     7
1000
_OPEN30
1070
    77
1070
     1
1070
   172
1070
     1
1070
    42
1040
0
1002
}
  0
DIMENSION
  5
840
100
AcDbEntity
  8
0
  6
CONTINUOUS
 62
     7
100
AcDbDimension
  2
*D8
 70
     0
 10
-22.99545288085938
 20
157.7503509521484
 11
-29.99545288085938
 21
157.7503509521484
  3
DIMSTYLE
100
AcDbAlignedDimension
 13
-36.99545288085938
 23
143.0160522460938
 14
-22.99545288085938
 24
145.0514526367188
 50
0
100
AcDbRotatedDimension
1001
ACAD
1000
DSTYLE
1002
{
1070
     6
1000
_OPEN30
1070
     7
1000
_OPEN30
1070
    77
1070
     1
1070
   172
1070
     1
1070
    42
1040
0
1002
}
  0
DIMENSION
  5
841
100
AcDbEntity
  8
0
  6
CONTINUOUS
 62
     7
100
AcDbDimension
  2
*D9
 70
     0
 10
139.0045471191406
 20
157.7503509521484
 11
146.0045471191406
 21
157.7503509521484
  3
DIMSTYLE
100
AcDbAlignedDimension
 13
153.0045471191406
 23
143.0160522460938
 14
139.0045471191406
 24
145.1939392089844
 50
0
100
AcDbRotatedDimension
1001
ACAD
1000
DSTYLE
1002
{
1070
     6
1000
_OPEN30
1070
     7
1000
_OPEN30
1070
    77
1070
     1
1070
   172
1070
     1
1070
    42
1040
0
1002
}
  0
LINE
  5
842
100
AcDbEntity
  8
0
  6
CONTINUOUS
 62
     7
100
AcDbLine
 10
-14.69860915374116
 20
135.3973884350312
 11
2.906850974185929
 21
157.0059677187708
  0
LINE
  5
843
100
AcDbEntity
  8
0
  6
CONTINUOUS
 62
     7
100
AcDbLine
 10
-14.69860915374116
 20
135.3973884350312
 11
-13.15853657895185
 21
138.1773891834126
  0
LINE
  5
844
100
AcDbEntity
  8
0
  6
CONTINUOUS
 62
     7
100
AcDbLine
 10
-14.69860915374116
 20
135.3973884350312
 11
-12.28714224739915
 21
137.4674258878897
  0
MTEXT
  5
845
100
AcDbEntity
  8
0
  6
CONTINUOUS
 62
     7
100
AcDbMText
 10
9.978302001953125
 20
157.0059814453125
 40
5
 41
140
 71
     4
 72
     1
  1
{\W0.846334;２－Ｒｃ３／８}
  0
LINE
  5
846
100
AcDbEntity
  8
0
  6
CONTINUOUS
 62
     7
100
AcDbLine
 10
-14.69860915374116
 20
135.3973884350312
 11
2.906850974185929
 21
157.0059677187708
  0
LINE
  5
847
100
AcDbEntity
  8
0
  6
CONTINUOUS
 62
     7
100
AcDbLine
 10
2.906850868459433
 20
157.0059587889099
 11
8.549551779007039
 21
157.0059740476985
  0
DIMENSION
  5
848
100
AcDbEntity
  8
0
  6
CONTINUOUS
 62
     7
100
AcDbDimension
  2
*D10
 70
     0
 10
196.0045623779297
 20
79.67092895507813
 11
190.5045623779297
 21
79.67092895507813
  3
DIMSTYLE
100
AcDbAlignedDimension
 13
185.0045623779297
 23
99.25772857666016
 14
196.0045623779297
 24
99.25772857666016
 50
0
100
AcDbRotatedDimension
1001
ACAD
1000
DSTYLE
1002
{
1070
     6
1000
_OPEN30
1070
     7
1000
_OPEN30
1070
    77
1070
     1
1070
   172
1070
     1
1070
    42
1040
0
1002
}
  0
DIMENSION
  5
849
100
AcDbEntity
  8
0
  6
CONTINUOUS
 62
     7
100
AcDbDimension
  2
*D11
 70
     0
 10
179.0045623779297
 20
57.10265350341797
 11
195.0045623779297
 21
57.10265350341797
  3
DIMSTYLE
100
AcDbAlignedDimension
 13
211.0045623779297
 23
103.0160598754883
 14
179.0045623779297
 24
101.5160675048828
 50
0
100
AcDbRotatedDimension
1001
ACAD
1000
DSTYLE
1002
{
1070
     6
1000
_OPEN30
1070
     7
1000
_OPEN30
1070
    77
1070
     1
1070
   172
1070
     1
1070
    42
1040
0
1002
}
  0
DIMENSION
  5
84a
100
AcDbEntity
  8
0
  6
CONTINUOUS
 62
     7
100
AcDbDimension
  2
*D12
 70
     0
 10
-36.99545288085938
 20
44.80033111572266
 11
58.00454711914063
 21
44.80033111572266
  3
DIMSTYLE
100
AcDbAlignedDimension
 13
153.0045471191406
 23
78.01605987548828
 14
-36.99545288085938
 24
78.01605987548828
 50
0
100
AcDbRotatedDimension
1001
ACAD
1000
DSTYLE
1002
{
1070
     6
1000
_OPEN30
1070
     7
1000
_OPEN30
1070
    77
1070
     1
1070
   172
1070
     1
1070
    75
1070
     1
1002
}
  0
DIMENSION
  5
84b
100
AcDbEntity
  8
0
  6
CONTINUOUS
 62
     7
100
AcDbDimension
  2
*D13
 70
     0
 10
292.7688552238777
 20
-292.5099487304688
 11
292.7688552238777
 21
-243.2916910496871
  3
DIMSTYLE
100
AcDbAlignedDimension
 13
270.9986877441406
 23
-276.5099792480469
 14
270.9986877441406
 24
-292.5099487304688
 50
90
100
AcDbRotatedDimension
1001
ACAD
1000
DSTYLE
1002
{
1070
     6
1000
_OPEN30
1070
     7
1000
_OPEN30
1070
    77
1070
     1
1070
   172
1070
     1
1070
    42
1040
0
1002
}
  0
LINE
  5
84c
100
AcDbEntity
  8
0
  6
CONTINUOUS
 62
     7
100
AcDbLine
 10
258.3225614519172
 20
-189.6428113565702
 11
268.126358849085
 21
-172.1574960921134
  0
LINE
  5
84d
100
AcDbEntity
  8
0
  6
CONTINUOUS
 62
     7
100
AcDbLine
 10
258.3225614519172
 20
-189.6428113565702
 11
259.3621358488477
 21
-186.6395609890739
  0
LINE
  5
84e
100
AcDbEntity
  8
0
  6
CONTINUOUS
 62
     7
100
AcDbLine
 10
258.3225614519172
 20
-189.6428113565702
 11
260.3425451232147
 21
-187.1892641969844
  0
MTEXT
  5
84f
100
AcDbEntity
  8
0
  6
CONTINUOUS
 62
     7
100
AcDbMText
 10
274.645297962759
 20
-172.1575080016146
 40
5
 41
210
 71
     4
 72
     1
  1
{\W0.845552;\U+2205１２Ｈ１０ｄ９}
  0
LINE
  5
850
100
AcDbEntity
  8
0
  6
CONTINUOUS
 62
     7
100
AcDbLine
 10
258.3225614519172
 20
-189.6428113565702
 11
268.126358849085
 21
-172.1574960921134
  0
LINE
  5
851
100
AcDbEntity
  8
0
  6
CONTINUOUS
 62
     7
100
AcDbLine
 10
268.126358849085
 20
-172.1574960921134
 11
273.2165565076808
 21
-172.1574960921134
  0
DIMENSION
  5
852
100
AcDbEntity
  8
0
  6
CONTINUOUS
 62
     7
100
AcDbDimension
  2
*D14
 70
     4
 11
276.3927001953125
 21
-214.1095886230469
 10
255.998678989375
 20
-195.1416742765503
  3
DIMSTYLE
100
AcDbRadialDimension
 15
266.9823667177311
 25
-205.3572801756617
1001
ACAD
1000
DSTYLE
1002
{
1070
     6
1000
_OPEN30
1070
     7
1000
_OPEN30
1070
    77
1070
     1
1070
   172
1070
     1
1002
}
  0
LINE
  5
853
100
AcDbEntity
  8
0
  6
CONTINUOUS
 62
     7
100
AcDbLine
 10
204.303893922456
 20
119.5794141756084
 11
211.0737170473279
 21
132.3253404667476
  0
LINE
  5
854
100
AcDbEntity
  8
0
  6
CONTINUOUS
 62
     7
100
AcDbLine
 10
204.303893922456
 20
119.5794141756084
 11
205.2748318860032
 21
122.6055515101592
  0
LINE
  5
855
100
AcDbEntity
  8
0
  6
CONTINUOUS
 62
     7
100
AcDbLine
 10
204.303893922456
 20
119.5794141756084
 11
206.2675007309427
 21
122.0783091310406
  0
MTEXT
  5
856
100
AcDbEntity
  8
0
  6
CONTINUOUS
 62
     7
100
AcDbMText
 10
217.512979891106
 20
132.3253357449026
 40
5
 41
140
 71
     4
 72
     1
  1
{\W0.846334;Ｍ１８ｘ１．５}
  0
LINE
  5
857
100
AcDbEntity
  8
0
  6
CONTINUOUS
 62
     7
100
AcDbLine
 10
204.303893922456
 20
119.5794141756084
 11
211.0737170473279
 21
132.3253404667476
  0
LINE
  5
858
100
AcDbEntity
  8
0
  6
CONTINUOUS
 62
     7
100
AcDbLine
 10
211.0737170473279
 20
132.3253404667476
 11
216.0842231772388
 21
132.3253404667476
  0
DIMENSION
  5
859
100
AcDbEntity
  8
0
  6
CONTINUOUS
 62
     7
100
AcDbDimension
  2
*D15
 70
     0
 10
170.974949427902
 20
120.5160598754883
 11
170.974949427902
 21
139.6805285594834
  3
DIMSTYLE
100
AcDbAlignedDimension
 13
174.2725067138672
 23
100.5160675048828
 14
174.2725067138672
 24
120.5160598754883
 50
90
100
AcDbRotatedDimension
1001
ACAD
1000
DSTYLE
1002
{
1070
     6
1000
_OPEN30
1070
     7
1000
_OPEN30
1070
    77
1070
     1
1070
   172
1070
     1
1070
    42
1040
0
1002
}
  0
LINE
  5
85a
100
AcDbEntity
  8
0
  6
CONTINUOUS
 62
     7
100
AcDbLine
 10
173.5686416064665
 20
112.1873914666996
 11
188.2339430656032
 21
147.2787544940245
  0
LINE
  5
85b
100
AcDbEntity
  8
0
  6
CONTINUOUS
 62
     7
100
AcDbLine
 10
173.5686416064665
 20
112.1873914666996
 11
174.2562556857984
 21
115.2901989977147
  0
LINE
  5
85c
100
AcDbEntity
  8
0
  6
CONTINUOUS
 62
     7
100
AcDbLine
 10
173.5686416064665
 20
112.1873914666996
 11
175.2933329237717
 21
114.8567860715926
  0
MTEXT
  5
85d
100
AcDbEntity
  8
0
  6
CONTINUOUS
 62
     7
100
AcDbMText
 10
194.6732695622982
 20
147.2787634476963
 40
5
 41
100
 71
     4
 72
     1
  1
{\W0.848905;二面幅１７}
  0
LINE
  5
85e
100
AcDbEntity
  8
0
  6
CONTINUOUS
 62
     7
100
AcDbLine
 10
173.5686416064665
 20
112.1873914666996
 11
188.2339430656032
 21
147.2787544940245
  0
LINE
  5
85f
100
AcDbEntity
  8
0
  6
CONTINUOUS
 62
     7
100
AcDbLine
 10
188.2339430656032
 20
147.2787544940245
 11
193.244512848431
 21
147.2787544940245
  0
DIMENSION
  5
860
100
AcDbEntity
  8
0
  6
CONTINUOUS
 62
     7
100
AcDbDimension
  2
*D16
 70
     0
 10
357.6841430664063
 20
57.10265350341797
 11
333.6841430664063
 21
57.10265350341797
  3
DIMSTYLE
100
AcDbAlignedDimension
 13
309.6841430664063
 23
78.26300048828125
 14
357.6841430664063
 24
77.96826171875
 50
0
100
AcDbRotatedDimension
1001
ACAD
1000
DSTYLE
1002
{
1070
     6
1000
_OPEN30
1070
     7
1000
_OPEN30
1070
    77
1070
     1
1070
   172
1070
     1
1070
    42
1040
0
1002
}
  0
DIMENSION
  5
861
100
AcDbEntity
  8
0
  6
CONTINUOUS
 62
     7
100
AcDbDimension
  2
*D17
 70
     0
 10
366.6841430664063
 20
44.80033111572266
 11
333.6841430664063
 21
44.80033111572266
  3
DIMSTYLE
100
AcDbAlignedDimension
 13
300.6841430664063
 23
81.98665618896484
 14
366.6841430664063
 24
80.56708526611328
 50
0
100
AcDbRotatedDimension
1001
ACAD
1000
DSTYLE
1002
{
1070
     6
1000
_OPEN30
1070
     7
1000
_OPEN30
1070
    77
1070
     1
1070
   172
1070
     1
1070
    42
1040
0
1002
}
  0
LINE
  5
862
100
AcDbEntity
  8
0
  6
CONTINUOUS
 62
     7
100
AcDbLine
 10
311.0421379413192
 20
137.8888324503931
 11
315.7751374254983
 21
158.8136437394677
  0
LINE
  5
863
100
AcDbEntity
  8
0
  6
CONTINUOUS
 62
     7
100
AcDbLine
 10
311.0421379413192
 20
137.8888324503931
 11
311.1840770409032
 21
141.0637467781552
  0
LINE
  5
864
100
AcDbEntity
  8
0
  6
CONTINUOUS
 62
     7
100
AcDbLine
 10
311.0421379413192
 20
137.8888324503931
 11
312.2803821105946
 21
140.8157726742233
  0
MTEXT
  5
865
100
AcDbEntity
  8
0
  6
CONTINUOUS
 62
     7
100
AcDbMText
 10
322.0027770996094
 20
158.8136444091797
 40
5
 41
180
 71
     4
 72
     1
  1
{\W0.84495;４－Ｍ８ｘ１．２５}
  0
LINE
  5
866
100
AcDbEntity
  8
0
  6
CONTINUOUS
 62
     7
100
AcDbLine
 10
311.0421379413192
 20
137.8888324503931
 11
315.7751374254983
 21
158.8136437394677
  0
LINE
  5
867
100
AcDbEntity
  8
0
  6
CONTINUOUS
 62
     7
100
AcDbLine
 10
315.775146484375
 20
158.8136444091797
 11
320.5740356445313
 21
158.8136444091797
  0
DIMENSION
  5
868
100
AcDbEntity
  8
0
  6
CONTINUOUS
 62
     7
100
AcDbDimension
  2
*D18
 70
     0
 10
-128.6749877929688
 20
56.82756805419922
 11
-152.6749877929688
 21
56.82756805419922
  3
DIMSTYLE
100
AcDbAlignedDimension
 13
-176.6749877929688
 23
77.96826171875
 14
-128.6749877929688
 24
78.26300048828125
 50
0
100
AcDbRotatedDimension
1001
ACAD
1000
DSTYLE
1002
{
1070
     6
1000
_OPEN30
1070
     7
1000
_OPEN30
1070
    77
1070
     1
1070
   172
1070
     1
1070
    42
1040
0
1002
}
  0
DIMENSION
  5
869
100
AcDbEntity
  8
0
  6
CONTINUOUS
 62
     7
100
AcDbDimension
  2
*D19
 70
     0
 10
-8.995452880859375
 20
57.10265350341797
 11
-22.99545288085938
 21
57.10265350341797
  3
DIMSTYLE
100
AcDbAlignedDimension
 13
-36.99545288085938
 23
78.01605987548828
 14
-8.995452880859375
 24
78.01605987548828
 50
0
100
AcDbRotatedDimension
1001
ACAD
1000
DSTYLE
1002
{
1070
     6
1000
_OPEN30
1070
     7
1000
_OPEN30
1070
    77
1070
     1
1070
   172
1070
     1
1070
    42
1040
0
1002
}
  0
DIMENSION
  5
86a
100
AcDbEntity
  8
0
  6
CONTINUOUS
 62
     7
100
AcDbDimension
  2
*D20
 70
     0
 10
153.0045471191406
 20
57.10265350341797
 11
139.0045471191406
 21
57.10265350341797
  3
DIMSTYLE
100
AcDbAlignedDimension
 13
125.0045471191406
 23
78.01605987548828
 14
153.0045471191406
 24
78.01605987548828
 50
0
100
AcDbRotatedDimension
1001
ACAD
1000
DSTYLE
1002
{
1070
     6
1000
_OPEN30
1070
     7
1000
_OPEN30
1070
    77
1070
     1
1070
   172
1070
     1
1070
    42
1040
0
1002
}
  0
DIMENSION
  5
86b
100
AcDbEntity
  8
0
  6
CONTINUOUS
 62
     7
100
AcDbDimension
  2
*D21
 70
     0
 10
176.0045623779297
 20
44.80033111572266
 11
164.5045471191406
 21
44.80033111572266
  3
DIMSTYLE
100
AcDbAlignedDimension
 13
153.0045471191406
 23
78.01605987548828
 14
176.0045623779297
 24
101.5160598754883
 50
0
100
AcDbRotatedDimension
1001
ACAD
1000
DSTYLE
1002
{
1070
     6
1000
_OPEN30
1070
     7
1000
_OPEN30
1070
    77
1070
     1
1070
   172
1070
     1
1070
    42
1040
0
1002
}
  0
DIMENSION
  5
86c
100
AcDbEntity
  8
0
  6
CONTINUOUS
 62
     7
100
AcDbDimension
  2
*D22
 70
     0
 10
211.0045623779297
 20
44.80033111572266
 11
193.5045623779297
 21
44.80033111572266
  3
DIMSTYLE
100
AcDbAlignedDimension
 13
176.0045623779297
 23
101.5160598754883
 14
211.0045623779297
 24
103.0160598754883
 50
0
100
AcDbRotatedDimension
1001
ACAD
1000
DSTYLE
1002
{
1070
     6
1000
_OPEN30
1070
     7
1000
_OPEN30
1070
    77
1070
     1
1070
   172
1070
     1
1070
    75
1070
     1
1002
}
  0
DIMENSION
  5
86d
100
AcDbEntity
  8
0
  6
CONTINUOUS
 62
     7
100
AcDbDimension
  2
*D23
 70
     0
 10
489.2875671386719
 20
133.4468688964844
 11
489.2875671386719
 21
145.0290679931641
 52
59.99988556404713
  3
DIMSTYLE
100
AcDbAlignedDimension
 13
494.3637545709275
 23
90.51601165521603
 14
494.3638868555339
 24
130.5160408229753
 50
90
100
AcDbRotatedDimension
1001
ACAD
1000
DSTYLE
1002
{
1070
     6
1000
_OPEN30
1070
     7
1000
_OPEN30
1070
    77
1070
     1
1070
   172
1070
     1
1070
    42
1040
0
1002
}
  0
DIMENSION
  5
86e
100
AcDbEntity
  8
0
  6
CONTINUOUS
 62
     7
100
AcDbDimension
  2
*D24
 70
     0
 10
164.0045471191406
 20
57.10265350341797
 11
158.5045471191406
 21
57.10265350341797
  3
DIMSTYLE
100
AcDbAlignedDimension
 13
153.0045471191406
 23
41.94333267211914
 14
164.0045471191406
 24
91.13364410400391
 50
0
100
AcDbRotatedDimension
1001
ACAD
1000
DSTYLE
1002
{
1070
     6
1000
_OPEN30
1070
     7
1000
_OPEN30
1070
    77
1070
     1
1070
   172
1070
     1
1070
    42
1040
0
1002
}
  0
DIMENSION
  5
86f
100
AcDbEntity
  8
0
  6
CONTINUOUS
 62
     7
100
AcDbDimension
  2
*D25
 70
     0
 10
378.6841430664063
 20
32.01763153076172
 11
333.6841430664063
 21
32.01763153076172
  3
DIMSTYLE
100
AcDbAlignedDimension
 13
288.6841430664063
 23
77.51605987548828
 14
378.6841430664063
 24
81.01605987548828
 50
0
100
AcDbRotatedDimension
1001
ACAD
1000
DSTYLE
1002
{
1070
     6
1000
_OPEN30
1070
     7
1000
_OPEN30
1070
    77
1070
     1
1070
   172
1070
     1
1070
    42
1040
0
1002
}
  0
DIMENSION
  5
870
100
AcDbEntity
  8
0
  6
CONTINUOUS
 62
     7
100
AcDbDimension
  2
*D26
 70
     0
 10
388.6841430664063
 20
20.37712097167969
 11
333.6841430664063
 21
20.37712097167969
  3
DIMSTYLE
100
AcDbAlignedDimension
 13
278.6841430664063
 23
79.51605987548828
 14
388.6841430664063
 24
79.51605987548828
 50
0
100
AcDbRotatedDimension
1001
ACAD
1000
DSTYLE
1002
{
1070
     6
1000
_OPEN30
1070
     7
1000
_OPEN30
1070
    77
1070
     1
1070
   172
1070
     1
1070
    42
1040
0
1002
}
  0
DIMENSION
  5
871
100
AcDbEntity
  8
0
  6
CONTINUOUS
 62
     7
100
AcDbDimension
  2
*D27
 70
     0
 10
406.6393432617188
 20
135.5160522460938
 11
406.6393432617188
 21
110.5160522460938
  3
DIMSTYLE
100
AcDbAlignedDimension
 13
383.1841430664063
 23
85.51605987548828
 14
383.1841430664063
 24
135.5160522460938
 50
90
100
AcDbRotatedDimension
1001
ACAD
1000
DSTYLE
1002
{
1070
     6
1000
_OPEN30
1070
     7
1000
_OPEN30
1070
    77
1070
     1
1070
   172
1070
     1
1070
    42
1040
0
1002
}
  0
DIMENSION
  5
872
100
AcDbEntity
  8
0
  6
CONTINUOUS
 62
     7
100
AcDbDimension
  2
*D28
 70
     0
 10
417.9959411621094
 20
143.5160522460938
 11
417.9959411621094
 21
110.5160522460938
  3
DIMSTYLE
100
AcDbAlignedDimension
 13
386.6841430664063
 23
77.51605987548828
 14
386.6841430664063
 24
143.5160522460938
 50
90
100
AcDbRotatedDimension
1001
ACAD
1000
DSTYLE
1002
{
1070
     6
1000
_OPEN30
1070
     7
1000
_OPEN30
1070
    77
1070
     1
1070
   172
1070
     1
1070
    42
1040
0
1002
}
  0
LINE
  5
873
100
AcDbEntity
  8
0
  6
CONTINUOUS
 62
     7
100
AcDbLine
 10
382.6765148642166
 20
82.7000049860271
 11
398.6152350038251
 21
55.62950393281508
  0
LINE
  5
874
100
AcDbEntity
  8
0
  6
CONTINUOUS
 62
     7
100
AcDbLine
 10
382.6765148642166
 20
82.7000049860271
 11
384.7478661240419
 21
80.28966649215538
  0
LINE
  5
875
100
AcDbEntity
  8
0
  6
CONTINUOUS
 62
     7
100
AcDbLine
 10
382.6765148642166
 20
82.7000049860271
 11
383.7792850825306
 21
79.71937996059712
  0
MTEXT
  5
876
100
AcDbEntity
  8
0
  6
CONTINUOUS
 62
     7
100
AcDbMText
 10
406.2051391601563
 20
55.62950134277344
 40
5
 41
130
 71
     4
 72
     1
  1
{\W0.851241;４－\U+2205９}
  0
LINE
  5
877
100
AcDbEntity
  8
0
  6
CONTINUOUS
 62
     7
100
AcDbLine
 10
382.6765148642166
 20
82.7000049860271
 11
398.6152350038251
 21
55.62950393281508
  0
LINE
  5
878
100
AcDbEntity
  8
0
  6
CONTINUOUS
 62
     7
100
AcDbLine
 10
398.615234375
 20
55.62950134277344
 11
404.7763977050781
 21
55.62950134277344
  0
LINE
  5
879
100
AcDbEntity
  8
0
  6
CONTINUOUS
 62
     7
100
AcDbLine
 10
191.0889982569848
 20
107.0492918769809
 11
224.9192974128345
 21
76.37896571920517
  0
LINE
  5
87a
100
AcDbEntity
  8
0
  6
CONTINUOUS
 62
     7
100
AcDbLine
 10
191.0889982569848
 20
107.0492918769809
 11
193.9832383485108
 21
105.7751749309224
  0
LINE
  5
87b
100
AcDbEntity
  8
0
  6
CONTINUOUS
 62
     7
100
AcDbLine
 10
191.0889982569848
 20
107.0492918769809
 11
192.6399201625705
 21
104.2934542652185
  0
MTEXT
  5
87c
100
AcDbEntity
  8
0
  6
CONTINUOUS
 62
     7
100
AcDbMText
 10
230.8674818797969
 20
76.37896571920514
 40
5
 41
100
 71
     4
 72
     1
  1
{\W0.848905;二面幅２７}
  0
LINE
  5
87d
100
AcDbEntity
  8
0
  6
CONTINUOUS
 62
     7
100
AcDbLine
 10
191.0889982569848
 20
107.0492918769809
 11
224.9192974128345
 21
76.37896571920517
  0
LINE
  5
87e
100
AcDbEntity
  8
0
  6
CONTINUOUS
 62
     7
100
AcDbLine
 10
224.9192974128344
 20
76.37896571920516
 11
229.7244818731212
 21
76.37896571920514
  0
DIMENSION
  5
87f
100
AcDbEntity
  8
0
  6
CONTINUOUS
 62
     7
100
AcDbDimension
  2
*D29
 70
     0
 10
-45.79545593261719
 20
57.10265350341797
 11
-60.98101005128132
 21
57.10265350341797
  3
DIMSTYLE
100
AcDbAlignedDimension
 13
-48.99545288085938
 23
77.51606750488281
 14
-45.79545593261719
 24
77.51606750488281
 50
0
100
AcDbRotatedDimension
1001
ACAD
1000
DSTYLE
1002
{
1070
    46
1040
2.286
1070
    77
1070
     1
1070
   172
1070
     1
1070
    42
1040
0
1002
}
  0
DIMENSION
  5
880
100
AcDbEntity
  8
0
  6
CONTINUOUS
 62
     7
100
AcDbDimension
  2
*D30
 70
     0
 10
-36.99545288085938
 20
44.80033111572266
 11
-42.99545288085938
 21
44.80033111572266
  3
DIMSTYLE
100
AcDbAlignedDimension
 13
-48.99545288085938
 23
77.51606750488281
 14
-36.99545288085938
 24
77.51606750488281
 50
0
100
AcDbRotatedDimension
1001
ACAD
1000
DSTYLE
1002
{
1070
    77
1070
     1
1070
   172
1070
     1
1070
    42
1040
0
1002
}
  0
DIMENSION
  5
881
100
AcDbEntity
  8
0
  6
CONTINUOUS
 62
     7
100
AcDbDimension
  2
*D31
 70
     0
 10
-48.99545288085938
 20
32.01763153076172
 11
81.00455474853516
 21
32.01763153076172
  3
DIMSTYLE
100
AcDbAlignedDimension
 13
211.0045623779297
 23
103.0160598754883
 14
-48.99545288085938
 24
77.51606750488281
 50
0
100
AcDbRotatedDimension
1001
ACAD
1000
DSTYLE
1002
{
1070
    77
1070
     1
1070
   172
1070
     1
1070
    42
1040
0
1002
}
  0
DIMENSION
  5
882
100
AcDbEntity
  8
0
  6
CONTINUOUS
 62
     7
100
AcDbDimension
  2
*D32
 70
     4
 11
51.088339550107
 21
-177.8841207277336
 10
16.18750000000003
 20
-195.1416931152344
  3
DIMSTYLE
100
AcDbRadialDimension
 15
28.22264926929398
 25
-183.85430271418
 40
8.727261065335881
1001
ACAD
1000
DSTYLE
1002
{
1070
    73
1070
     1
1070
    74
1070
     1
1002
}
  0
DIMENSION
  5
883
100
AcDbEntity
  8
0
  6
CONTINUOUS
 62
     7
100
AcDbDimension
  2
*D33
 70
     0
 10
16.1875
 20
-302.0883625145312
 11
2.6875
 21
-302.0883625145312
  3
DIMSTYLE
100
AcDbAlignedDimension
 13
-10.8125
 23
-288.5099487304688
 14
16.1875
 24
-282.5099639892578
 50
0
100
AcDbRotatedDimension
1001
ACAD
1000
DSTYLE
1002
{
1070
    77
1070
     1
1070
   172
1070
     1
1070
    42
1040
0
1002
}
  0
DIMENSION
  5
884
100
AcDbEntity
  8
0
  6
CONTINUOUS
 62
     7
100
AcDbDimension
  2
*D34
 70
     0
 10
16.1875
 20
-312.3966352984009
 11
-13.8125
 21
-312.3966352984009
  3
DIMSTYLE
100
AcDbAlignedDimension
 13
-43.8125
 23
-285.7681166531398
 14
16.1875
 24
-282.5099639892578
 50
0
100
AcDbRotatedDimension
1001
ACAD
1000
DSTYLE
1002
{
1070
    77
1070
     1
1070
   172
1070
     1
1070
    42
1040
0
1002
}
  0
DIMENSION
  5
885
100
AcDbEntity
  8
0
  6
CONTINUOUS
 62
     7
100
AcDbDimension
  2
*D35
 70
     0
 10
31.1875
 20
-312.3966352984009
 11
23.6875
 21
-312.3966352984009
  3
DIMSTYLE
100
AcDbAlignedDimension
 13
16.1875
 23
-282.5099639892578
 14
31.1875
 24
-280.0098226813612
 50
0
100
AcDbRotatedDimension
1001
ACAD
1000
DSTYLE
1002
{
1070
    77
1070
     1
1070
   172
1070
     1
1070
    75
1070
     1
1002
}
  0
DIMENSION
  5
886
100
AcDbEntity
  8
0
  6
CONTINUOUS
 62
     7
100
AcDbDimension
  2
*D36
 70
     0
 10
-43.8125
 20
-312.3966352984009
 11
-49.3125
 21
-312.3966352984009
  3
DIMSTYLE
100
AcDbAlignedDimension
 13
-54.8125
 23
-285.7682121848987
 14
-43.8125
 24
-285.7681166531398
 50
0
100
AcDbRotatedDimension
1001
ACAD
1000
DSTYLE
1002
{
1070
    77
1070
     1
1070
   172
1070
     1
1070
    76
1070
     1
1002
}
  0
DIMENSION
  5
887
100
AcDbEntity
  8
0
  6
CONTINUOUS
 62
     7
100
AcDbDimension
  2
*D37
 70
     0
 10
-28.87676450027669
 20
-181.1416931152344
 11
-28.87676450027669
 21
-171.7190302479446
  3
DIMSTYLE
100
AcDbAlignedDimension
 13
-42.8125
 23
-209.1416931152344
 14
-42.8125
 24
-181.1416931152344
 50
90
100
AcDbRotatedDimension
1001
ACAD
1000
DSTYLE
1002
{
1070
    77
1070
     1
1070
   172
1070
     1
1070
    42
1040
0
1002
}
  0
DIMENSION
  5
888
100
AcDbEntity
  8
0
  6
CONTINUOUS
 62
     7
100
AcDbDimension
  2
*D38
 70
     0
 10
206.298070570077
 20
-181.1416931152344
 11
206.298070570077
 21
-170.2039444575767
  3
DIMSTYLE
100
AcDbAlignedDimension
 13
196.9986877441406
 23
-209.1416931152344
 14
196.9986877441406
 24
-181.1416931152344
 50
90
100
AcDbRotatedDimension
1001
ACAD
1000
DSTYLE
1002
{
1070
    77
1070
     1
1070
   172
1070
     1
1070
    42
1040
0
1002
}
  0
DIMENSION
  5
889
100
AcDbEntity
  8
0
  6
CONTINUOUS
 62
     7
100
AcDbDimension
  2
*D39
 70
     0
 10
305.7712424874213
 20
-265.5099639892578
 11
305.7712424874213
 21
-284.5099563598633
  3
DIMSTYLE
100
AcDbAlignedDimension
 13
268.9986572265625
 23
-303.5099487304688
 14
268.9986877441406
 24
-265.5099639892578
 50
90
100
AcDbRotatedDimension
1001
ACAD
1000
DSTYLE
1002
{
1070
    77
1070
     1
1070
   172
1070
     1
1070
    42
1040
0
1002
}
  0
DIMENSION
  5
88a
100
AcDbEntity
  8
0
  6
CONTINUOUS
 62
     7
100
AcDbDimension
  2
*D40
 70
     0
 10
316.6651345190389
 20
-256.0099639892578
 11
316.6651345190389
 21
-284.5099563598633
  3
DIMSTYLE
100
AcDbAlignedDimension
 13
260.9986877441406
 23
-313.0099487304688
 14
260.9986877441406
 24
-256.0099639892578
 50
90
100
AcDbRotatedDimension
1001
ACAD
1000
DSTYLE
1002
{
1070
    77
1070
     1
1070
   172
1070
     1
1070
    42
1040
0
1002
}
  0
ENDSEC
  0
SECTION
  2
OBJECTS
  0
DICTIONARY
  5
88b
100
AcDbDictionary
  3
ACAD_GROUP
350
88c
  3
ACAD_MLINESTYLE
350
88d
  0
DICTIONARY
  5
88c
102
{ACAD_REACTORS
330
88b
102
}
100
AcDbDictionary
  0
DICTIONARY
  5
88d
102
{ACAD_REACTORS
330
88b
102
}
100
AcDbDictionary
  3
STANDARD
350
88e
  0
MLINESTYLE
  5
88e
102
{ACAD_REACTORS
330
88d
102
}
100
AcDbMlineStyle
  2
STANDARD
 70
     0
  3

 62
     0
 51
90
 52
90
 71
     2
 49
0.5
 62
   256
  6
BYLAYER
 49
-0.5
 62
   256
  6
BYLAYER
  0
ENDSEC
  0
EOF
