  0
SECTION
  2
HEADER
  9
$ACADVER
  1
AC1015
  9
$EXTMAX
 10
821.3706665039063
 20
565.1542053222656
 30
0
  9
$EXTMIN
 10
-618.8792114257813
 20
-486.5957946777344
 30
0
  9
$LIMMAX
 10
821.3706665039063
 20
565.1542053222656
  9
$LIMMIN
 10
-618.8792114257813
 20
-486.5957946777344
  9
$PLIMMAX
 10
821.3706665039063
 20
565.1542053222656
  9
$PLIMMIN
 10
-618.8792114257813
 20
-486.5957946777344
  9
$TEXTSIZE
 40
3.2
  9
$DIMSHO
 70
     0
  9
$DIMASZ
 40
1.0
  9
$DIMTAD
 70
     1
  9
$DIMTIH
 70
     0
  9
$DIMTOH
 70
     0
  9
$DIMEXE
 40
2.54
  9
$DIMEXO
 40
2.54
  9
$DIMTVP
 40
1.0
  9
$DIMSAH
 70
     1
  9
$DIMDLE
 40
0.0
  9
$DIMTXT
 40
4
  9
$DIMGAP
 40
2
  9
$DIMAUNIT
 70
     1
  9
$DIMDEC
 70
     1
  9
$HANDSEED
  5
     837
  9
$MEASUREMENT
 70
     1
  0
ENDSEC
  0
SECTION
  2
TABLES
  0
TABLE
  2
LTYPE
  5
25
100
AcDbSymbolTable
 70
    48
  0
LTYPE
  5
26
100
AcDbSymbolTableRecord
100
AcDbLinetypeTableRecord
  2
BYBLOCK
 70
    64
  3

 72
    65
 73
     0
 40
0.0
  0
LTYPE
  5
27
100
AcDbSymbolTableRecord
100
AcDbLinetypeTableRecord
  2
BYLAYER
 70
    64
  3

 72
    65
 73
     0
 40
0.0
  0
LTYPE
  5
28
100
AcDbSymbolTableRecord
100
AcDbLinetypeTableRecord
  2
CONTINUOUS
 70
    64
  3
Solid line
 72
    65
 73
     0
 40
0.0
  0
LTYPE
  5
29
100
AcDbSymbolTableRecord
100
AcDbLinetypeTableRecord
  2
DASHED
 70
    64
  3
Dashed __ __ __ __ __ __ __ __ __ __ __ __ __ _
 72
    65
 73
     2
 40
4.5
 49
3.0
 74
     0
 49
-1.5
 74
     0
  0
LTYPE
  5
2a
100
AcDbSymbolTableRecord
100
AcDbLinetypeTableRecord
  2
CENTER
 70
    64
  3
Center ____ _ ____ _ ____ _ ____ _ ____ _ ____
 72
    65
 73
     4
 74
     0
 40
12.0
 49
7.5
 74
     0
 49
-1.5
 74
     0
 49
1.5
 74
     0
 49
-1.5
 74
     0
  0
LTYPE
  5
2b
100
AcDbSymbolTableRecord
100
AcDbLinetypeTableRecord
  2
PHANTOM
 70
    64
  3
Phantom ______  __  __  ______  __  __  ______
 72
    65
 73
     6
 74
     0
 40
15.0
 49
7.5
 74
     0
 49
-1.5
 74
     0
 49
1.5
 74
     0
 49
-1.5
 74
     0
 49
1.5
 74
     0
 49
-1.5
 74
     0
  0
LTYPE
  5
2c
100
AcDbSymbolTableRecord
100
AcDbLinetypeTableRecord
  2
DOT
 70
    64
  3
Dot . . . . . . . . . . . . . . . . . . . . . .
 72
    65
 73
     2
 74
     0
 40
1.5
 49
0.0
 74
     0
 49
-1.5
 74
     0
  0
LTYPE
  5
2d
100
AcDbSymbolTableRecord
100
AcDbLinetypeTableRecord
  2
HIDDEN
 70
    64
  3
Hidden __ __ __ __ __ __ __ __ __ __ __ __ __ _
 72
    65
 73
     2
 74
     0
 40
4.5
 49
3.0
 74
     0
 49
-1.5
 74
     0
  0
LTYPE
  5
2e
100
AcDbSymbolTableRecord
100
AcDbLinetypeTableRecord
  2
BORDER
 70
    64
  3
Border __ __ . __ __ . __ __ . __ __ . __ __ .
 72
    65
 73
     6
 40
3.5
 49
1.0
 74
     0
 49
-0.5
 74
     0
 49
1.0
 74
     0
 49
-0.5
 74
     0
 49
0.0
 74
     0
 49
-0.5
 74
     0
  0
LTYPE
  5
2f
100
AcDbSymbolTableRecord
100
AcDbLinetypeTableRecord
  2
BORDER2
 70
    64
  3
Border (.5x) __.__.__.__.__.__.__.__.__.__.__.
 72
    65
 73
     6
 40
1.75
 49
0.5
 74
     0
 49
-0.25
 74
     0
 49
0.5
 74
     0
 49
-0.25
 74
     0
 49
0.0
 74
     0
 49
-0.25
 74
     0
  0
LTYPE
  5
30
100
AcDbSymbolTableRecord
100
AcDbLinetypeTableRecord
  2
BORDERX2
 70
    64
  3
Border (2x) ____  ____  .  ____  ____  .  ___
 72
    65
 73
     6
 40
7.0
 49
2.0
 74
     0
 49
-1.0
 74
     0
 49
2.0
 74
     0
 49
-1.0
 74
     0
 49
0.0
 74
     0
 49
-1.0
 74
     0
  0
LTYPE
  5
31
100
AcDbSymbolTableRecord
100
AcDbLinetypeTableRecord
  2
CENTER2
 70
    64
  3
Center (.5x) ___ _ ___ _ ___ _ ___ _ ___ _ ___
 72
    65
 73
     4
 40
6.0
 49
3.75
 74
     0
 49
-0.75
 74
     0
 49
0.75
 74
     0
 49
-0.75
 74
     0
  0
LTYPE
  5
32
100
AcDbSymbolTableRecord
100
AcDbLinetypeTableRecord
  2
CENTERX2
 70
    64
  3
Center (2x) ________  __  ________  __  _____
 72
    65
 73
     4
 40
24.0
 49
15.0
 74
     0
 49
-3.0
 74
     0
 49
3.0
 74
     0
 49
-3.0
 74
     0
  0
LTYPE
  5
33
100
AcDbSymbolTableRecord
100
AcDbLinetypeTableRecord
  2
DASHDOT
 70
    64
  3
Dash dot __ . __ . __ . __ . __ . __ . __ . __
 72
    65
 73
     4
 40
6.0
 49
3.0
 74
     0
 49
-1.5
 74
     0
 49
0.0
 74
     0
 49
-1.5
 74
     0
  0
LTYPE
  5
34
100
AcDbSymbolTableRecord
100
AcDbLinetypeTableRecord
  2
DASHDOT2
 70
    64
  3
Dash dot (.5x) _._._._._._._._._._._._._._._.
 72
    65
 73
     4
 40
3.0
 49
1.5
 74
     0
 49
-0.75
 74
     0
 49
0.0
 74
     0
 49
-0.75
 74
     0
  0
LTYPE
  5
35
100
AcDbSymbolTableRecord
100
AcDbLinetypeTableRecord
  2
DASHDOTX2
 70
    64
  3
Dash dot (2x) ____  .  ____  .  ____  .  ___
 72
    65
 73
     4
 40
12.0
 49
6.0
 74
     0
 49
-3.0
 74
     0
 49
0.0
 74
     0
 49
-3.0
 74
     0
  0
LTYPE
  5
36
100
AcDbSymbolTableRecord
100
AcDbLinetypeTableRecord
  2
DASHED2
 70
    64
  3
Dashed (.5x) _ _ _ _ _ _ _ _ _ _ _ _ _ _ _ _ _
 72
    65
 73
     2
 40
2.25
 49
1.5
 74
     0
 49
-0.75
 74
     0
  0
LTYPE
  5
37
100
AcDbSymbolTableRecord
100
AcDbLinetypeTableRecord
  2
DASHEDX2
 70
    64
  3
Dashed (2x) ____  ____  ____  ____  ____  ___
 72
    65
 73
     2
 40
9.0
 49
6.0
 74
     0
 49
-3.0
 74
     0
  0
LTYPE
  5
38
100
AcDbSymbolTableRecord
100
AcDbLinetypeTableRecord
  2
DIVIDE
 70
    64
  3
Divide ____ . . ____ . . ____ . . ____ . . ____
 72
    65
 73
     6
 40
7.5
 49
3.0
 74
     0
 49
-1.5
 74
     0
 49
0.0
 74
     0
 49
-1.5
 74
     0
 49
0.0
 74
     0
 49
-1.5
 74
     0
  0
LTYPE
  5
39
100
AcDbSymbolTableRecord
100
AcDbLinetypeTableRecord
  2
DIVIDE2
 70
    64
  3
Divide (.5x) __..__..__..__..__..__..__..__.._
 72
    65
 73
     6
 40
3.75
 49
1.5
 74
     0
 49
-0.75
 74
     0
 49
0.0
 74
     0
 49
-0.75
 74
     0
 49
0.0
 74
     0
 49
-0.75
 74
     0
  0
LTYPE
  5
3a
100
AcDbSymbolTableRecord
100
AcDbLinetypeTableRecord
  2
DIVIDEX2
 70
    64
  3
Divide (2x) ________  .  .  ________  .  .  _
 72
    65
 73
     6
 40
15.0
 49
6.0
 74
     0
 49
-3.0
 74
     0
 49
0.0
 74
     0
 49
-3.0
 74
     0
 49
0.0
 74
     0
 49
-3.0
 74
     0
  0
LTYPE
  5
3b
100
AcDbSymbolTableRecord
100
AcDbLinetypeTableRecord
  2
DOT2
 70
    64
  3
Dot (.5x) .....................................
 72
    65
 73
     2
 40
0.75
 49
0.0
 74
     0
 49
-0.75
 74
     0
  0
LTYPE
  5
3c
100
AcDbSymbolTableRecord
100
AcDbLinetypeTableRecord
  2
DOTX2
 70
    64
  3
Dot (2x) .  .  .  .  .  .  .  .  .  .  .  .  . 
 72
    65
 73
     2
 40
3.0
 49
0.0
 74
     0
 49
-3.0
 74
     0
  0
LTYPE
  5
3d
100
AcDbSymbolTableRecord
100
AcDbLinetypeTableRecord
  2
HIDDEN2
 70
    64
  3
Hidden (.5x) _ _ _ _ _ _ _ _ _ _ _ _ _ _ _ _ _
 72
    65
 73
     2
 40
2.25
 49
1.5
 74
     0
 49
-0.75
 74
     0
  0
LTYPE
  5
3e
100
AcDbSymbolTableRecord
100
AcDbLinetypeTableRecord
  2
HIDDENX2
 70
    64
  3
Hidden (2x) ____ ____ ____ ____ ____ ____ ____
 72
    65
 73
     2
 40
9.0
 49
6.0
 74
     0
 49
-3.0
 74
     0
  0
LTYPE
  5
3f
100
AcDbSymbolTableRecord
100
AcDbLinetypeTableRecord
  2
PHANTOM2
 70
    64
  3
Phantom (.5x) ___ _ _ ___ _ _ ___ _ _ ___ _ _
 72
    65
 73
     6
 40
7.5
 49
3.75
 74
     0
 49
-0.75
 74
     0
 49
0.75
 74
     0
 49
-0.75
 74
     0
 49
0.75
 74
     0
 49
-0.75
 74
     0
  0
LTYPE
  5
40
100
AcDbSymbolTableRecord
100
AcDbLinetypeTableRecord
  2
PHANTOMX2
 70
    64
  3
Phantom (2x) ____________    ____    ____   _
 72
    65
 73
     6
 40
30.0
 49
15.0
 74
     0
 49
-3.0
 74
     0
 49
3.0
 74
     0
 49
-3.0
 74
     0
 49
3.0
 74
     0
 49
-3.0
 74
     0
  0
LTYPE
  5
41
100
AcDbSymbolTableRecord
100
AcDbLinetypeTableRecord
  2
ACAD_ISO02W100
 70
     0
  3
ISO dash __ __ __ __ __ __ __ __ __ __ __ __ __
 72
    65
 73
     2
 40
15.0
 49
12.0
 74
     0
 49
-3.0
 74
     0
  0
LTYPE
  5
42
100
AcDbSymbolTableRecord
100
AcDbLinetypeTableRecord
  2
ACAD_ISO03W100
 70
     0
  3
ISO dash space __    __    __    __    __    __
 72
    65
 73
     2
 40
30.0
 49
12.0
 74
     0
 49
-18.0
 74
     0
  0
LTYPE
  5
43
100
AcDbSymbolTableRecord
100
AcDbLinetypeTableRecord
  2
ACAD_ISO04W100
 70
     0
  3
ISO long-dash dot ____ . ____ . ____ . ____ . _
 72
    65
 73
     4
 40
30.0
 49
24.0
 74
     0
 49
-3.0
 74
     0
 49
0.0
 74
     0
 49
-3.0
 74
     0
  0
LTYPE
  5
44
100
AcDbSymbolTableRecord
100
AcDbLinetypeTableRecord
  2
ACAD_ISO05W100
 70
     0
  3
ISO long-dash double-dot ____ .. ____ .. ____ .
 72
    65
 73
     6
 40
33.0
 49
24.0
 74
     0
 49
-3.0
 74
     0
 49
0.0
 74
     0
 49
-3.0
 74
     0
 49
0.0
 74
     0
 49
-3.0
 74
     0
  0
LTYPE
  5
45
100
AcDbSymbolTableRecord
100
AcDbLinetypeTableRecord
  2
ACAD_ISO06W100
 70
     0
  3
ISO long-dash triple-dot ____ ... ____ ... ____
 72
    65
 73
     8
 40
36.0
 49
24.0
 74
     0
 49
-3.0
 74
     0
 49
0.0
 74
     0
 49
-3.0
 74
     0
 49
0.0
 74
     0
 49
-3.0
 74
     0
 49
0.0
 74
     0
 49
-3.0
 74
     0
  0
LTYPE
  5
46
100
AcDbSymbolTableRecord
100
AcDbLinetypeTableRecord
  2
ACAD_ISO07W100
 70
     0
  3
ISO dot . . . . . . . . . . . . . . . . . . . .
 72
    65
 73
     2
 40
3.0
 49
0.0
 74
     0
 49
-3.0
 74
     0
  0
LTYPE
  5
47
100
AcDbSymbolTableRecord
100
AcDbLinetypeTableRecord
  2
ACAD_ISO08W100
 70
     0
  3
ISO long-dash short-dash ____ __ ____ __ ____ _
 72
    65
 73
     4
 40
36.0
 49
24.0
 74
     0
 49
-3.0
 74
     0
 49
6.0
 74
     0
 49
-3.0
 74
     0
  0
LTYPE
  5
48
100
AcDbSymbolTableRecord
100
AcDbLinetypeTableRecord
  2
ACAD_ISO09W100
 70
     0
  3
ISO long-dash double-short-dash ____ __ __ ____
 72
    65
 73
     6
 40
45.0
 49
24.0
 74
     0
 49
-3.0
 74
     0
 49
6.0
 74
     0
 49
-3.0
 74
     0
 49
6.0
 74
     0
 49
-3.0
 74
     0
  0
LTYPE
  5
49
100
AcDbSymbolTableRecord
100
AcDbLinetypeTableRecord
  2
ACAD_ISO10W100
 70
     0
  3
ISO dash dot __ . __ . __ . __ . __ . __ . __ .
 72
    65
 73
     4
 40
18.0
 49
12.0
 74
     0
 49
-3.0
 74
     0
 49
0.0
 74
     0
 49
-3.0
 74
     0
  0
LTYPE
  5
4a
100
AcDbSymbolTableRecord
100
AcDbLinetypeTableRecord
  2
ACAD_ISO11W100
 70
     0
  3
ISO double-dash dot __ __ . __ __ . __ __ . __ 
 72
    65
 73
     6
 40
33.0
 49
12.0
 74
     0
 49
-3.0
 74
     0
 49
12.0
 74
     0
 49
-3.0
 74
     0
 49
0.0
 74
     0
 49
-3.0
 74
     0
  0
LTYPE
  5
4b
100
AcDbSymbolTableRecord
100
AcDbLinetypeTableRecord
  2
ACAD_ISO12W100
 70
     0
  3
ISO dash double-dot __ . . __ . . __ . . __ . .
 72
    65
 73
     6
 40
21.0
 49
12.0
 74
     0
 49
-3.0
 74
     0
 49
0.0
 74
     0
 49
-3.0
 74
     0
 49
0.0
 74
     0
 49
-3.0
 74
     0
  0
LTYPE
  5
4c
100
AcDbSymbolTableRecord
100
AcDbLinetypeTableRecord
  2
ACAD_ISO13W100
 70
     0
  3
ISO double-dash double-dot __ __ . . __ __ . . 
 72
    65
 73
     8
 40
36.0
 49
12.0
 74
     0
 49
-3.0
 74
     0
 49
12.0
 74
     0
 49
-3.0
 74
     0
 49
0.0
 74
     0
 49
-3.0
 74
     0
 49
0.0
 74
     0
 49
-3.0
 74
     0
  0
LTYPE
  5
4d
100
AcDbSymbolTableRecord
100
AcDbLinetypeTableRecord
  2
ACAD_ISO14W100
 70
     0
  3
ISO dash triple-dot __ . . . __ . . . __ . . . 
 72
    65
 73
     8
 40
24.0
 49
12.0
 74
     0
 49
-3.0
 74
     0
 49
0.0
 74
     0
 49
-3.0
 74
     0
 49
0.0
 74
     0
 49
-3.0
 74
     0
 49
0.0
 74
     0
 49
-3.0
 74
     0
  0
LTYPE
  5
4e
100
AcDbSymbolTableRecord
100
AcDbLinetypeTableRecord
  2
ACAD_ISO15W100
 70
     0
  3
ISO double-dash triple-dot __ __ . . . __ __ . 
 72
    65
 73
    10
 40
39.0
 49
12.0
 74
     0
 49
-3.0
 74
     0
 49
12.0
 74
     0
 49
-3.0
 74
     0
 49
0.0
 74
     0
 49
-3.0
 74
     0
 49
0.0
 74
     0
 49
-3.0
 74
     0
 49
0.0
 74
     0
 49
-3.0
 74
     0
  0
LTYPE
  5
4f
100
AcDbSymbolTableRecord
100
AcDbLinetypeTableRecord
  2
FENCELINE1
 70
     0
  3
Fenceline circle ----0-----0----0-----0----0---
 72
    65
 73
     4
 40
1.45
 49
0.25
 74
     0
 49
-0.1
 74
     4
 75
   133
340
24
 46
0.1
 50
0.0
 44
-0.1
 45
0.0
 49
-0.1
 74
     0
 49
1.0
 74
     0
  0
LTYPE
  5
50
100
AcDbSymbolTableRecord
100
AcDbLinetypeTableRecord
  2
FENCELINE2
 70
     0
  3
Fenceline square ----[]-----[]----[]-----[]----
 72
    65
 73
     4
 40
1.45
 49
0.25
 74
     0
 49
-0.1
 74
     4
 75
   132
340
24
 46
0.1
 50
0.0
 44
-0.1
 45
0.0
 49
-0.1
 74
     0
 49
1.0
 74
     0
  0
LTYPE
  5
51
100
AcDbSymbolTableRecord
100
AcDbLinetypeTableRecord
  2
TRACKS
 70
     0
  3
Tracks -|-|-|-|-|-|-|-|-|-|-|-|-|-|-|-|-|-|-|-|
 72
    65
 73
     2
 40
0.3
 49
0.15
 74
     4
 75
   130
340
24
 46
0.25
 50
0.0
 44
0.0
 45
0.0
 49
0.15
 74
     0
  0
LTYPE
  5
52
100
AcDbSymbolTableRecord
100
AcDbLinetypeTableRecord
  2
BATTING
 70
     0
  3
Batting SSSSSSSSSSSSSSSSSSSSSSSSSSSSSSSSSSSSSSS
 72
    65
 73
     4
 40
0.4001000000000002
 49
0.0001
 74
     0
 49
-0.1
 74
     4
 75
   134
340
24
 46
0.1
 50
0.0
 44
-0.1
 45
0.0
 49
-0.2
 74
     4
 75
   134
340
24
 46
0.1
 50
180.0
 44
0.1
 45
0.0
 49
-0.1
 74
     0
  0
LTYPE
  5
53
100
AcDbSymbolTableRecord
100
AcDbLinetypeTableRecord
  2
HOT_WATER_SUPPLY
 70
     0
  3
Hot water supply ---- HW ---- HW ---- HW ----
 72
    65
 73
     3
 40
0.9
 49
0.5
 74
     0
 49
-0.2
 74
     2
 75
     1
340
23
 46
0.1
 50
0.0
 44
-0.1
 45
-0.05
  9
HW
 49
-0.2
 74
     0
  0
LTYPE
  5
54
100
AcDbSymbolTableRecord
100
AcDbLinetypeTableRecord
  2
GAS_LINE
 70
     0
  3
Gas line ----GAS----GAS----GAS----GAS----GAS---
 72
    65
 73
     3
 40
0.95
 49
0.5
 74
     0
 49
-0.2
 74
     2
 75
     1
340
23
 46
0.1
 50
0.0
 44
-0.1
 45
-0.05
  9
GAS
 49
-0.25
 74
     0
  0
LTYPE
  5
55
100
AcDbSymbolTableRecord
100
AcDbLinetypeTableRecord
  2
ZIGZAG
 70
     0
  3
Zig zag /\/\/\/\/\/\/\/\/\/\/\/\/\/\/\/\/\/\/\/
 72
    65
 73
     4
 40
0.8001000000000001
 49
0.0001
 74
     0
 49
-0.2
 74
     4
 75
   131
340
24
 46
0.2
 50
0.0
 44
-0.2
 45
0.0
 49
-0.4
 74
     4
 75
   131
340
24
 46
0.2
 50
180.0
 44
0.2
 45
0.0
 49
-0.2
 74
     0
  0
ENDTAB
  0
TABLE
  2
LAYER
  5
c8
100
AcDbSymbolTable
 70
     2
  0
LAYER
  5
c9
100
AcDbSymbolTableRecord
100
AcDbLayerTableRecord
  2
0
 70
     0
 62
     7
  6
CONTINUOUS
390
F
  0
LAYER
  5
ca
100
AcDbSymbolTableRecord
100
AcDbLayerTableRecord
  2
DEFPOINTS
 70
     0
 62
     7
  6
CONTINUOUS
290
0
390
F
  0
ENDTAB
  0
TABLE
  2
STYLE
  5
cb
100
AcDbSymbolTable
 70
     2
  0
STYLE
  5
      23
100
AcDbSymbolTableRecord
100
AcDbTextStyleTableRecord
  2
STANDARD
 70
     0
 40
0.0
 41
1.0
 50
0.0
 71
     0
 42
0.2
  3
txt
  4
BIGFONT
  0
STYLE
  5
24
100
AcDbSymbolTableRecord
100
AcDbTextStyleTableRecord
  2

 70
     1
 40
0.0
 41
1.0
 50
0.0
 71
     0
 42
0.2
  3
ltypeshp.shx
  4

  0
ENDTAB
  0
TABLE
  2
DIMSTYLE
  5
cc
100
AcDbSymbolTable
100
AcDbDimStyleTable
 70
     1
  0
DIMSTYLE
105
cd
100
AcDbSymbolTableRecord
100
AcDbDimStyleTableRecord
  2
DIMSTYLE
 70
     0
  3

  4

  5
_OPEN
  6
_OPEN
  7
_OPEN
 40
1
 41
1
 42
0.009999999776482582
 43
0.38
 44
2.54
 45
0
 46
0
 47
0
 48
0
140
4
141
0.09
142
0
143
25.4
144
1
145
0
146
1
147
2
 71
     0
 72
     0
 73
     0
 74
     0
 75
     0
 76
     0
 78
     0
170
     0
171
     2
 77
     0
172
     0
173
     1
174
     0
175
     0
176
     0
177
     0
178
     0
271
     1
275
     1
340
23
  0
ENDTAB
  0
TABLE
  2
APPID
  5
ce
100
AcDbSymbolTable
 70
     1
  0
APPID
  5
cf
100
AcDbSymbolTableRecord
100
AcDbRegAppTableRecord
  2
ACAD
 70
     0
  0
ENDTAB
  0
TABLE
  2
VIEW
  5
d0
100
AcDbSymbolTable
 70
     0
  0
ENDTAB
  0
TABLE
  2
UCS
  5
d1
100
AcDbSymbolTable
 70
     0
  0
ENDTAB
  0
TABLE
  2
BLOCK_RECORD
  5
d2
100
AcDbSymbolTable
 70
    54
  0
BLOCK_RECORD
  5
d3
100
AcDbSymbolTableRecord
100
AcDbBlockTableRecord
  2
*MODEL_SPACE
  0
BLOCK_RECORD
  5
d4
100
AcDbSymbolTableRecord
100
AcDbBlockTableRecord
  2
*PAPER_SPACE
  0
BLOCK_RECORD
  5
d5
100
AcDbSymbolTableRecord
100
AcDbBlockTableRecord
  2
_OPEN
  0
BLOCK_RECORD
  5
d6
100
AcDbSymbolTableRecord
100
AcDbBlockTableRecord
  2
_NONE
  0
BLOCK_RECORD
  5
d7
100
AcDbSymbolTableRecord
100
AcDbBlockTableRecord
  2
_OPEN30
  0
BLOCK_RECORD
  5
d8
100
AcDbSymbolTableRecord
100
AcDbBlockTableRecord
  2
KOZU0001
  0
BLOCK_RECORD
  5
d9
100
AcDbSymbolTableRecord
100
AcDbBlockTableRecord
  2
KOZU0002
  0
BLOCK_RECORD
  5
da
100
AcDbSymbolTableRecord
100
AcDbBlockTableRecord
  2
KOZU0003
  0
BLOCK_RECORD
  5
db
100
AcDbSymbolTableRecord
100
AcDbBlockTableRecord
  2
KOZU0004
  0
BLOCK_RECORD
  5
dc
100
AcDbSymbolTableRecord
100
AcDbBlockTableRecord
  2
KOZU0005
  0
BLOCK_RECORD
  5
dd
100
AcDbSymbolTableRecord
100
AcDbBlockTableRecord
  2
KOZU0006
  0
BLOCK_RECORD
  5
de
100
AcDbSymbolTableRecord
100
AcDbBlockTableRecord
  2
KOZU0007
  0
BLOCK_RECORD
  5
df
100
AcDbSymbolTableRecord
100
AcDbBlockTableRecord
  2
KOZU0008
  0
BLOCK_RECORD
  5
e0
100
AcDbSymbolTableRecord
100
AcDbBlockTableRecord
  2
KOZU0009
  0
BLOCK_RECORD
  5
e1
100
AcDbSymbolTableRecord
100
AcDbBlockTableRecord
  2
KOZU0010
  0
BLOCK_RECORD
  5
e2
100
AcDbSymbolTableRecord
100
AcDbBlockTableRecord
  2
*D1
  0
BLOCK_RECORD
  5
e3
100
AcDbSymbolTableRecord
100
AcDbBlockTableRecord
  2
*D2
  0
BLOCK_RECORD
  5
e4
100
AcDbSymbolTableRecord
100
AcDbBlockTableRecord
  2
*D3
  0
BLOCK_RECORD
  5
e5
100
AcDbSymbolTableRecord
100
AcDbBlockTableRecord
  2
*D4
  0
BLOCK_RECORD
  5
e6
100
AcDbSymbolTableRecord
100
AcDbBlockTableRecord
  2
*D5
  0
BLOCK_RECORD
  5
e7
100
AcDbSymbolTableRecord
100
AcDbBlockTableRecord
  2
*D6
  0
BLOCK_RECORD
  5
e8
100
AcDbSymbolTableRecord
100
AcDbBlockTableRecord
  2
*D7
  0
BLOCK_RECORD
  5
e9
100
AcDbSymbolTableRecord
100
AcDbBlockTableRecord
  2
*D8
  0
BLOCK_RECORD
  5
ea
100
AcDbSymbolTableRecord
100
AcDbBlockTableRecord
  2
*D9
  0
BLOCK_RECORD
  5
eb
100
AcDbSymbolTableRecord
100
AcDbBlockTableRecord
  2
*D10
  0
BLOCK_RECORD
  5
ec
100
AcDbSymbolTableRecord
100
AcDbBlockTableRecord
  2
*D11
  0
BLOCK_RECORD
  5
ed
100
AcDbSymbolTableRecord
100
AcDbBlockTableRecord
  2
*D12
  0
BLOCK_RECORD
  5
ee
100
AcDbSymbolTableRecord
100
AcDbBlockTableRecord
  2
*D13
  0
BLOCK_RECORD
  5
ef
100
AcDbSymbolTableRecord
100
AcDbBlockTableRecord
  2
*D14
  0
BLOCK_RECORD
  5
f0
100
AcDbSymbolTableRecord
100
AcDbBlockTableRecord
  2
*D15
  0
BLOCK_RECORD
  5
f1
100
AcDbSymbolTableRecord
100
AcDbBlockTableRecord
  2
*D16
  0
BLOCK_RECORD
  5
f2
100
AcDbSymbolTableRecord
100
AcDbBlockTableRecord
  2
*D17
  0
BLOCK_RECORD
  5
f3
100
AcDbSymbolTableRecord
100
AcDbBlockTableRecord
  2
*D18
  0
BLOCK_RECORD
  5
f4
100
AcDbSymbolTableRecord
100
AcDbBlockTableRecord
  2
*D19
  0
BLOCK_RECORD
  5
f5
100
AcDbSymbolTableRecord
100
AcDbBlockTableRecord
  2
*D20
  0
BLOCK_RECORD
  5
f6
100
AcDbSymbolTableRecord
100
AcDbBlockTableRecord
  2
*D21
  0
BLOCK_RECORD
  5
f7
100
AcDbSymbolTableRecord
100
AcDbBlockTableRecord
  2
*D22
  0
BLOCK_RECORD
  5
f8
100
AcDbSymbolTableRecord
100
AcDbBlockTableRecord
  2
*D23
  0
BLOCK_RECORD
  5
f9
100
AcDbSymbolTableRecord
100
AcDbBlockTableRecord
  2
*D24
  0
BLOCK_RECORD
  5
fa
100
AcDbSymbolTableRecord
100
AcDbBlockTableRecord
  2
*D25
  0
BLOCK_RECORD
  5
fb
100
AcDbSymbolTableRecord
100
AcDbBlockTableRecord
  2
*D26
  0
BLOCK_RECORD
  5
fc
100
AcDbSymbolTableRecord
100
AcDbBlockTableRecord
  2
*D27
  0
BLOCK_RECORD
  5
fd
100
AcDbSymbolTableRecord
100
AcDbBlockTableRecord
  2
*D28
  0
BLOCK_RECORD
  5
fe
100
AcDbSymbolTableRecord
100
AcDbBlockTableRecord
  2
*D29
  0
BLOCK_RECORD
  5
ff
100
AcDbSymbolTableRecord
100
AcDbBlockTableRecord
  2
*D30
  0
BLOCK_RECORD
  5
100
100
AcDbSymbolTableRecord
100
AcDbBlockTableRecord
  2
*D31
  0
BLOCK_RECORD
  5
101
100
AcDbSymbolTableRecord
100
AcDbBlockTableRecord
  2
*D32
  0
BLOCK_RECORD
  5
102
100
AcDbSymbolTableRecord
100
AcDbBlockTableRecord
  2
*D33
  0
BLOCK_RECORD
  5
103
100
AcDbSymbolTableRecord
100
AcDbBlockTableRecord
  2
*D34
  0
BLOCK_RECORD
  5
104
100
AcDbSymbolTableRecord
100
AcDbBlockTableRecord
  2
*D35
  0
BLOCK_RECORD
  5
105
100
AcDbSymbolTableRecord
100
AcDbBlockTableRecord
  2
*D36
  0
BLOCK_RECORD
  5
106
100
AcDbSymbolTableRecord
100
AcDbBlockTableRecord
  2
*D37
  0
BLOCK_RECORD
  5
107
100
AcDbSymbolTableRecord
100
AcDbBlockTableRecord
  2
*D38
  0
BLOCK_RECORD
  5
108
100
AcDbSymbolTableRecord
100
AcDbBlockTableRecord
  2
*D39
  0
ENDTAB
  0
TABLE
  2
VPORT
  5
109
100
AcDbSymbolTable
 70
     0
  0
ENDTAB
  0
ENDSEC
  0
SECTION
  2
BLOCKS
  0
BLOCK
  8
0
  5
10a
100
AcDbEntity
100
AcDbBlockBegin
  2
*MODEL_SPACE
 70
     0
 10
0
 20
0
  3
*MODEL_SPACE
  0
ENDBLK
  8
0
  5
10b
100
AcDbEntity
100
AcDbBlockEnd
  0
BLOCK
  8
0
  5
10c
 67
     1
100
AcDbEntity
100
AcDbBlockBegin
  2
*PAPER_SPACE
 70
     0
 10
0
 20
0
  3
*PAPER_SPACE
  0
ENDBLK
  8
0
  5
10d
 67
     1
100
AcDbEntity
100
AcDbBlockEnd
  0
BLOCK
  8
0
  5
10e
100
AcDbEntity
100
AcDbBlockBegin
  2
_OPEN
 70
    64
 10
0
 20
0
  3
_OPEN
  0
LINE
  5
10f
100
AcDbEntity
  8
0
  6
BYBLOCK
 62
     0
100
AcDbLine
 10
0
 20
0
 11
-3.12799995302215
 21
-0.5619999915596265
  0
LINE
  5
110
100
AcDbEntity
  8
0
  6
BYBLOCK
 62
     0
100
AcDbLine
 10
0
 20
0
 11
-3.127999953022157
 21
0.5619999915595884
  0
LINE
  5
111
100
AcDbEntity
  8
0
  6
BYBLOCK
 62
     0
100
AcDbLine
 10
0
 20
0
 11
-2.99999995494452
 21
0
  0
ENDBLK
  8
0
  5
112
100
AcDbEntity
100
AcDbBlockEnd
  0
BLOCK
  8
0
  5
113
100
AcDbEntity
100
AcDbBlockBegin
  2
_NONE
 70
    64
 10
0
 20
0
  3
_NONE
  0
CIRCLE
  5
114
100
AcDbEntity
  8
0
  6
BYBLOCK
 62
     0
100
AcDbCircle
 10
0
 20
0
 40
0.001
  0
ENDBLK
  8
0
  5
115
100
AcDbEntity
100
AcDbBlockEnd
  0
BLOCK
  8
0
  5
116
100
AcDbEntity
100
AcDbBlockBegin
  2
_OPEN30
 70
    64
 10
0
 20
0
  3
_OPEN30
  0
LINE
  5
117
100
AcDbEntity
  8
0
  6
BYBLOCK
 62
     0
100
AcDbLine
 10
0
 20
0
 11
-2.999999954944514
 21
-0.9999999849815249
  0
LINE
  5
118
100
AcDbEntity
  8
0
  6
BYBLOCK
 62
     0
100
AcDbLine
 10
0
 20
0
 11
-2.999999954944526
 21
0.9999999849814883
  0
LINE
  5
119
100
AcDbEntity
  8
0
  6
BYBLOCK
 62
     0
100
AcDbLine
 10
0
 20
0
 11
-2.99999995494452
 21
0
  0
ENDBLK
  8
0
  5
11a
100
AcDbEntity
100
AcDbBlockEnd
  0
BLOCK
  8
0
  5
11b
100
AcDbEntity
100
AcDbBlockBegin
  2
*D1
 70
    65
 10
0
 20
0
  0
LINE
  5
11c
100
AcDbEntity
  8
0
  6
CONTINUOUS
 62
     7
100
AcDbLine
 10
-195.7108764648438
 20
-278.2405395958367
 11
-195.7108764648437
 21
-244.2405395057258
  0
INSERT
  5
11d
100
AcDbEntity
  8
0
  6
CONTINUOUS
 62
     7
100
AcDbBlockReference
  2
_OPEN30
 10
-195.7108764648438
 20
-281.2405395507813
 41
1
 42
1
 43
1
 50
270.0000000000005
  0
INSERT
  5
11e
100
AcDbEntity
  8
0
  6
CONTINUOUS
 62
     7
100
AcDbBlockReference
  2
_OPEN30
 10
-195.7108764648438
 20
-241.2405395507813
 41
1
 42
1
 43
1
 50
90.00000000000019
  0
LINE
  5
11f
100
AcDbEntity
  8
0
  6
CONTINUOUS
 62
     7
100
AcDbLine
 10
-235.6230926513672
 20
-281.2405395507813
 11
-192.8538970947266
 21
-281.2405395507813
  0
LINE
  5
120
100
AcDbEntity
  8
0
  6
CONTINUOUS
 62
     7
100
AcDbLine
 10
-235.6230926513672
 20
-241.2405395507813
 11
-192.8538970947266
 21
-241.2405395507813
  0
MTEXT
  5
121
100
AcDbEntity
  8
0
  6
CONTINUOUS
 62
     7
100
AcDbMText
 10
-195.7108764648438
 20
-261.2405395507813
 40
6
 41
132
 71
     8
 72
     1
  1
{\W0.855331;\U+2205４０}
 11
0
 21
1
  0
POINT
  5
122
100
AcDbEntity
  8
DEFPOINTS
  6
CONTINUOUS
 62
     7
100
AcDbPoint
 10
-235.6230926513672
 20
-281.2405395507813
  0
POINT
  5
123
100
AcDbEntity
  8
DEFPOINTS
  6
CONTINUOUS
 62
     7
100
AcDbPoint
 10
-235.6230926513672
 20
-241.2405395507813
  0
POINT
  5
124
100
AcDbEntity
  8
DEFPOINTS
  6
CONTINUOUS
 62
     7
100
AcDbPoint
 10
-195.7108764648438
 20
-241.2405395507813
  0
ENDBLK
  8
0
  5
125
100
AcDbEntity
100
AcDbBlockEnd
  0
BLOCK
  8
0
  5
126
100
AcDbEntity
100
AcDbBlockBegin
  2
*D2
 70
    65
 10
0
 20
0
  0
LINE
  5
127
100
AcDbEntity
  8
0
  6
CONTINUOUS
 62
     7
100
AcDbLine
 10
-345.6230469200555
 20
-314.2017861620059
 11
-248.6231078651008
 21
-314.2017861620059
  0
INSERT
  5
128
100
AcDbEntity
  8
0
  6
CONTINUOUS
 62
     7
100
AcDbBlockReference
  2
_OPEN30
 10
-348.623046875
 20
-314.2017861620059
 41
1
 42
1
 43
1
 50
180.0000000000004
  0
INSERT
  5
129
100
AcDbEntity
  8
0
  6
CONTINUOUS
 62
     7
100
AcDbBlockReference
  2
_OPEN30
 10
-245.6231079101563
 20
-314.2017861620059
 41
1
 42
1
 43
1
  0
LINE
  5
12a
100
AcDbEntity
  8
0
  6
CONTINUOUS
 62
     7
100
AcDbLine
 10
-348.623046875
 20
-274.2405090332031
 11
-348.623046875
 21
-316.4877861620059
  0
LINE
  5
12b
100
AcDbEntity
  8
0
  6
CONTINUOUS
 62
     7
100
AcDbLine
 10
-245.6231079101563
 20
-284.4175415039063
 11
-245.6231079101563
 21
-316.4877861620059
  0
MTEXT
  5
12c
100
AcDbEntity
  8
0
  6
CONTINUOUS
 62
     7
100
AcDbMText
 10
-297.1230773925781
 20
-314.2017861620059
 40
6
 41
72
 71
     8
 72
     1
  1
{\W0.855331;１０３}
  0
POINT
  5
12d
100
AcDbEntity
  8
DEFPOINTS
  6
CONTINUOUS
 62
     7
100
AcDbPoint
 10
-348.623046875
 20
-274.2405090332031
  0
POINT
  5
12e
100
AcDbEntity
  8
DEFPOINTS
  6
CONTINUOUS
 62
     7
100
AcDbPoint
 10
-245.6231079101563
 20
-284.4175415039063
  0
POINT
  5
12f
100
AcDbEntity
  8
DEFPOINTS
  6
CONTINUOUS
 62
     7
100
AcDbPoint
 10
-245.6231079101563
 20
-314.2017861620059
  0
ENDBLK
  8
0
  5
130
100
AcDbEntity
100
AcDbBlockEnd
  0
BLOCK
  8
0
  5
131
100
AcDbEntity
100
AcDbBlockBegin
  2
*D3
 70
    65
 10
0
 20
0
  0
LINE
  5
132
100
AcDbEntity
  8
0
  6
CONTINUOUS
 62
     7
100
AcDbLine
 10
-195.7109375
 20
-398.4751892540398
 11
-195.7109375
 21
-374.4751891639289
  0
INSERT
  5
133
100
AcDbEntity
  8
0
  6
CONTINUOUS
 62
     7
100
AcDbBlockReference
  2
_OPEN30
 10
-195.7109375
 20
-401.4751892089844
 41
1
 42
1
 43
1
 50
270.0000000000005
  0
INSERT
  5
134
100
AcDbEntity
  8
0
  6
CONTINUOUS
 62
     7
100
AcDbBlockReference
  2
_OPEN30
 10
-195.7109375
 20
-371.4751892089844
 41
1
 42
1
 43
1
 50
90.00000000000019
  0
LINE
  5
135
100
AcDbEntity
  8
0
  6
CONTINUOUS
 62
     7
100
AcDbLine
 10
-224.6230926513672
 20
-401.4752197265625
 11
-192.8538970947266
 21
-401.4752197265625
  0
LINE
  5
136
100
AcDbEntity
  8
0
  6
CONTINUOUS
 62
     7
100
AcDbLine
 10
-224.6230926513672
 20
-371.4752197265625
 11
-192.8538970947266
 21
-371.4752197265625
  0
MTEXT
  5
137
100
AcDbEntity
  8
0
  6
CONTINUOUS
 62
     7
100
AcDbMText
 10
-197.2109375
 20
-397.6179695725441
 40
6
 41
48
 71
     7
 72
     1
  1
{\W0.864328;３０}
 11
0
 21
1
  0
MTEXT
  5
138
100
AcDbEntity
  8
0
  6
CONTINUOUS
 62
     7
100
AcDbMText
 10
-201.7109375
 20
-385.6179698109627
 40
3
 41
48
 71
     7
 72
     1
  1
{\W0.851241;－０．１}
 11
0
 21
1
  0
MTEXT
  5
139
100
AcDbEntity
  8
0
  6
CONTINUOUS
 62
     7
100
AcDbMText
 10
-197.2109375
 20
-385.6179698109627
 40
3
 41
48
 71
     7
 72
     1
  1
{\W0.851241;－０．３}
 11
0
 21
1
  0
POINT
  5
13a
100
AcDbEntity
  8
DEFPOINTS
  6
CONTINUOUS
 62
     7
100
AcDbPoint
 10
-224.6230926513672
 20
-401.4752197265625
  0
POINT
  5
13b
100
AcDbEntity
  8
DEFPOINTS
  6
CONTINUOUS
 62
     7
100
AcDbPoint
 10
-224.6230926513672
 20
-371.4752197265625
  0
POINT
  5
13c
100
AcDbEntity
  8
DEFPOINTS
  6
CONTINUOUS
 62
     7
100
AcDbPoint
 10
-195.7109375
 20
-371.4751892089844
  0
ENDBLK
  8
0
  5
13d
100
AcDbEntity
100
AcDbBlockEnd
  0
BLOCK
  8
0
  5
13e
100
AcDbEntity
100
AcDbBlockBegin
  2
*D4
 70
    65
 10
0
 20
0
  0
LINE
  5
13f
100
AcDbEntity
  8
0
  6
CONTINUOUS
 62
     7
100
AcDbLine
 10
-325.6231079552117
 20
-448.188232421875
 11
-227.6230926063117
 21
-448.188232421875
  0
INSERT
  5
140
100
AcDbEntity
  8
0
  6
CONTINUOUS
 62
     7
100
AcDbBlockReference
  2
_OPEN30
 10
-328.6231079101563
 20
-448.188232421875
 41
1
 42
1
 43
1
 50
180.0000000000004
  0
INSERT
  5
141
100
AcDbEntity
  8
0
  6
CONTINUOUS
 62
     7
100
AcDbBlockReference
  2
_OPEN30
 10
-224.6230926513672
 20
-448.188232421875
 41
1
 42
1
 43
1
  0
LINE
  5
142
100
AcDbEntity
  8
0
  6
CONTINUOUS
 62
     7
100
AcDbLine
 10
-328.623046875
 20
-404.9751892089844
 11
-328.623046875
 21
-451.0451965332031
  0
LINE
  5
143
100
AcDbEntity
  8
0
  6
CONTINUOUS
 62
     7
100
AcDbLine
 10
-224.6231079101563
 20
-401.4751892089844
 11
-224.6231079101563
 21
-451.0451965332031
  0
MTEXT
  5
144
100
AcDbEntity
  8
0
  6
CONTINUOUS
 62
     7
100
AcDbMText
 10
-276.623046875
 20
-448.188232421875
 40
6
 41
72
 71
     8
 72
     1
  1
{\W0.855331;１０４}
  0
POINT
  5
145
100
AcDbEntity
  8
DEFPOINTS
  6
CONTINUOUS
 62
     7
100
AcDbPoint
 10
-328.623046875
 20
-404.9751892089844
  0
POINT
  5
146
100
AcDbEntity
  8
DEFPOINTS
  6
CONTINUOUS
 62
     7
100
AcDbPoint
 10
-224.6231079101563
 20
-401.4751892089844
  0
POINT
  5
147
100
AcDbEntity
  8
DEFPOINTS
  6
CONTINUOUS
 62
     7
100
AcDbPoint
 10
-224.6230926513672
 20
-448.188232421875
  0
ENDBLK
  8
0
  5
148
100
AcDbEntity
100
AcDbBlockEnd
  0
BLOCK
  8
0
  5
149
100
AcDbEntity
100
AcDbBlockBegin
  2
*D5
 70
    65
 10
0
 20
0
  0
LINE
  5
14a
100
AcDbEntity
  8
0
  6
CONTINUOUS
 62
     7
100
AcDbLine
 10
-24.1114807579461
 20
-308.2164916992188
 11
-16.11148066783515
 21
-308.2164916992188
  0
INSERT
  5
14b
100
AcDbEntity
  8
0
  6
CONTINUOUS
 62
     7
100
AcDbBlockReference
  2
_OPEN30
 10
-27.11148071289063
 20
-308.2164916992188
 41
1
 42
1
 43
1
 50
180.0000000000004
  0
INSERT
  5
14c
100
AcDbEntity
  8
0
  6
CONTINUOUS
 62
     7
100
AcDbBlockReference
  2
_OPEN30
 10
-13.11148071289063
 20
-308.2164916992188
 41
1
 42
1
 43
1
  0
LINE
  5
14d
100
AcDbEntity
  8
0
  6
CONTINUOUS
 62
     7
100
AcDbLine
 10
-27.11146545410156
 20
-278.2405395507813
 11
-27.11146545410156
 21
-311.073486328125
  0
LINE
  5
14e
100
AcDbEntity
  8
0
  6
CONTINUOUS
 62
     7
100
AcDbLine
 10
-13.11148071289063
 20
-279.7405090332031
 11
-13.11148071289063
 21
-311.073486328125
  0
MTEXT
  5
14f
100
AcDbEntity
  8
0
  6
CONTINUOUS
 62
     7
100
AcDbMText
 10
-20.11146545410156
 20
-308.2164916992188
 40
6
 41
48
 71
     8
 72
     1
  1
{\W0.864328;１４}
  0
POINT
  5
150
100
AcDbEntity
  8
DEFPOINTS
  6
CONTINUOUS
 62
     7
100
AcDbPoint
 10
-27.11146545410156
 20
-278.2405395507813
  0
POINT
  5
151
100
AcDbEntity
  8
DEFPOINTS
  6
CONTINUOUS
 62
     7
100
AcDbPoint
 10
-13.11148071289063
 20
-279.7405090332031
  0
POINT
  5
152
100
AcDbEntity
  8
DEFPOINTS
  6
CONTINUOUS
 62
     7
100
AcDbPoint
 10
-13.11148071289063
 20
-308.2164916992188
  0
ENDBLK
  8
0
  5
153
100
AcDbEntity
100
AcDbBlockEnd
  0
BLOCK
  8
0
  5
154
100
AcDbEntity
100
AcDbBlockBegin
  2
*D6
 70
    65
 10
0
 20
0
  0
LINE
  5
155
100
AcDbEntity
  8
0
  6
CONTINUOUS
 62
     7
100
AcDbLine
 10
-10.1114807579461
 20
-308.2164916992188
 11
66.88851933216486
 21
-308.2164916992188
  0
INSERT
  5
156
100
AcDbEntity
  8
0
  6
CONTINUOUS
 62
     7
100
AcDbBlockReference
  2
_OPEN30
 10
-13.11148071289063
 20
-308.2164916992188
 41
1
 42
1
 43
1
 50
180.0000000000004
  0
INSERT
  5
157
100
AcDbEntity
  8
0
  6
CONTINUOUS
 62
     7
100
AcDbBlockReference
  2
_OPEN30
 10
69.88851928710938
 20
-308.2164916992188
 41
1
 42
1
 43
1
  0
LINE
  5
158
100
AcDbEntity
  8
0
  6
CONTINUOUS
 62
     7
100
AcDbLine
 10
69.88851928710938
 20
-286.0357666015625
 11
69.88851928710938
 21
-311.073486328125
  0
MTEXT
  5
159
100
AcDbEntity
  8
0
  6
CONTINUOUS
 62
     7
100
AcDbMText
 10
28.38851928710938
 20
-308.2164916992188
 40
6
 41
48
 71
     8
 72
     1
  1
{\W0.864328;８３}
  0
POINT
  5
15a
100
AcDbEntity
  8
DEFPOINTS
  6
CONTINUOUS
 62
     7
100
AcDbPoint
 10
-13.11148071289063
 20
-279.7405090332031
  0
POINT
  5
15b
100
AcDbEntity
  8
DEFPOINTS
  6
CONTINUOUS
 62
     7
100
AcDbPoint
 10
69.88851928710938
 20
-286.0357666015625
  0
POINT
  5
15c
100
AcDbEntity
  8
DEFPOINTS
  6
CONTINUOUS
 62
     7
100
AcDbPoint
 10
69.88851928710938
 20
-308.2164916992188
  0
ENDBLK
  8
0
  5
15d
100
AcDbEntity
100
AcDbBlockEnd
  0
BLOCK
  8
0
  5
15e
100
AcDbEntity
100
AcDbBlockBegin
  2
*D7
 70
    65
 10
0
 20
0
  0
LINE
  5
15f
100
AcDbEntity
  8
0
  6
CONTINUOUS
 62
     7
100
AcDbLine
 10
-30.1114807579461
 20
-322.8258666992188
 11
66.88851933216486
 21
-322.8258666992188
  0
INSERT
  5
160
100
AcDbEntity
  8
0
  6
CONTINUOUS
 62
     7
100
AcDbBlockReference
  2
_OPEN30
 10
-33.11148071289063
 20
-322.8258666992188
 41
1
 42
1
 43
1
 50
180.0000000000004
  0
INSERT
  5
161
100
AcDbEntity
  8
0
  6
CONTINUOUS
 62
     7
100
AcDbBlockReference
  2
_OPEN30
 10
69.88851928710938
 20
-322.8258666992188
 41
1
 42
1
 43
1
  0
LINE
  5
162
100
AcDbEntity
  8
0
  6
CONTINUOUS
 62
     7
100
AcDbLine
 10
-33.1114501953125
 20
-274.2405395507813
 11
-33.1114501953125
 21
-325.6828308105469
  0
LINE
  5
163
100
AcDbEntity
  8
0
  6
CONTINUOUS
 62
     7
100
AcDbLine
 10
69.88851928710938
 20
-286.0357666015625
 11
69.88851928710938
 21
-325.6828308105469
  0
MTEXT
  5
164
100
AcDbEntity
  8
0
  6
CONTINUOUS
 62
     7
100
AcDbMText
 10
18.38851928710938
 20
-322.8258666992188
 40
6
 41
72
 71
     8
 72
     1
  1
{\W0.855331;１０３}
  0
POINT
  5
165
100
AcDbEntity
  8
DEFPOINTS
  6
CONTINUOUS
 62
     7
100
AcDbPoint
 10
-33.1114501953125
 20
-274.2405395507813
  0
POINT
  5
166
100
AcDbEntity
  8
DEFPOINTS
  6
CONTINUOUS
 62
     7
100
AcDbPoint
 10
69.88851928710938
 20
-286.0357666015625
  0
POINT
  5
167
100
AcDbEntity
  8
DEFPOINTS
  6
CONTINUOUS
 62
     7
100
AcDbPoint
 10
69.88851928710938
 20
-322.8258666992188
  0
ENDBLK
  8
0
  5
168
100
AcDbEntity
100
AcDbBlockEnd
  0
BLOCK
  8
0
  5
169
100
AcDbEntity
100
AcDbBlockBegin
  2
*D8
 70
    65
 10
0
 20
0
  0
LINE
  5
16a
100
AcDbEntity
  8
0
  6
CONTINUOUS
 62
     7
100
AcDbLine
 10
85.91131865927616
 20
-274.8152035751573
 11
106.2283031230953
 21
-292.0279360271521
  0
LINE
  5
16b
100
AcDbEntity
  8
0
  6
CONTINUOUS
 62
     7
100
AcDbLine
 10
69.88853573979176
 20
-261.2404885833323
 11
83.62234644219586
 21
-272.8758848040258
  0
INSERT
  5
16c
100
AcDbEntity
  8
0
  6
CONTINUOUS
 62
     7
100
AcDbBlockReference
  2
_OPEN30
 10
85.91131485249022
 20
-274.8151174734962
 41
1
 42
1
 43
1
 50
319.7284575258278
  0
MTEXT
  5
16d
100
AcDbEntity
  8
0
  6
CONTINUOUS
 62
     7
100
AcDbMText
 10
100.0154876708984
 20
-286.7643432617188
 40
6
 41
72
 71
     8
 72
     1
  1
{\W0.855331;Ｒ２１}
 11
0.7626683296956897
 21
-0.646789779510458
  0
POINT
  5
16e
100
AcDbEntity
  8
DEFPOINTS
  6
CONTINUOUS
 62
     7
100
AcDbPoint
 10
69.88853573979176
 20
-261.2404885833323
  0
POINT
  5
16f
100
AcDbEntity
  8
DEFPOINTS
  6
CONTINUOUS
 62
     7
100
AcDbPoint
 10
85.91131485249022
 20
-274.8151174734962
  0
ENDBLK
  8
0
  5
170
100
AcDbEntity
100
AcDbBlockEnd
  0
BLOCK
  8
0
  5
171
100
AcDbEntity
100
AcDbBlockBegin
  2
*D9
 70
    65
 10
0
 20
0
  0
LINE
  5
172
100
AcDbEntity
  8
0
  6
CONTINUOUS
 62
     7
100
AcDbLine
 10
118.9596939086914
 20
-374.4751891639289
 11
118.9596939086914
 21
-398.4751892540398
  0
INSERT
  5
173
100
AcDbEntity
  8
0
  6
CONTINUOUS
 62
     7
100
AcDbBlockReference
  2
_OPEN30
 10
118.9596939086914
 20
-371.4751892089844
 41
1
 42
1
 43
1
 50
90.00000000000019
  0
INSERT
  5
174
100
AcDbEntity
  8
0
  6
CONTINUOUS
 62
     7
100
AcDbBlockReference
  2
_OPEN30
 10
118.9596939086914
 20
-401.4751892089844
 41
1
 42
1
 43
1
 50
270.0000000000005
  0
LINE
  5
175
100
AcDbEntity
  8
0
  6
CONTINUOUS
 62
     7
100
AcDbLine
 10
90.88851928710938
 20
-371.4752197265625
 11
121.8166961669922
 21
-371.4752197265625
  0
LINE
  5
176
100
AcDbEntity
  8
0
  6
CONTINUOUS
 62
     7
100
AcDbLine
 10
90.88851928710938
 20
-401.4752197265625
 11
121.8166961669922
 21
-401.4752197265625
  0
MTEXT
  5
177
100
AcDbEntity
  8
0
  6
CONTINUOUS
 62
     7
100
AcDbMText
 10
117.4596939086914
 20
-397.6179695725441
 40
6
 41
48
 71
     7
 72
     1
  1
{\W0.864328;３０}
 11
0
 21
1
  0
MTEXT
  5
178
100
AcDbEntity
  8
0
  6
CONTINUOUS
 62
     7
100
AcDbMText
 10
112.9596939086914
 20
-385.6179698109627
 40
3
 41
48
 71
     7
 72
     1
  1
{\W0.851241;＋０．３}
 11
0
 21
1
  0
MTEXT
  5
179
100
AcDbEntity
  8
0
  6
CONTINUOUS
 62
     7
100
AcDbMText
 10
117.4596939086914
 20
-385.6179698109627
 40
3
 41
48
 71
     7
 72
     1
  1
{\W0.851241;＋０．１}
 11
0
 21
1
  0
POINT
  5
17a
100
AcDbEntity
  8
DEFPOINTS
  6
CONTINUOUS
 62
     7
100
AcDbPoint
 10
90.88851928710938
 20
-371.4752197265625
  0
POINT
  5
17b
100
AcDbEntity
  8
DEFPOINTS
  6
CONTINUOUS
 62
     7
100
AcDbPoint
 10
90.88851928710938
 20
-401.4752197265625
  0
POINT
  5
17c
100
AcDbEntity
  8
DEFPOINTS
  6
CONTINUOUS
 62
     7
100
AcDbPoint
 10
118.9596939086914
 20
-401.4751892089844
  0
ENDBLK
  8
0
  5
17d
100
AcDbEntity
100
AcDbBlockEnd
  0
BLOCK
  8
0
  5
17e
100
AcDbEntity
100
AcDbBlockBegin
  2
*D10
 70
    65
 10
0
 20
0
  0
LINE
  5
17f
100
AcDbEntity
  8
0
  6
CONTINUOUS
 62
     7
100
AcDbLine
 10
66.88851933216486
 20
-450.6182861328125
 11
34.8885192420539
 21
-450.6182861328125
  0
INSERT
  5
180
100
AcDbEntity
  8
0
  6
CONTINUOUS
 62
     7
100
AcDbBlockReference
  2
_OPEN30
 10
69.88851928710938
 20
-450.6182861328125
 41
1
 42
1
 43
1
  0
INSERT
  5
181
100
AcDbEntity
  8
0
  6
CONTINUOUS
 62
     7
100
AcDbBlockReference
  2
_OPEN30
 10
31.88851928710938
 20
-450.6182861328125
 41
1
 42
1
 43
1
 50
180.0000000000004
  0
LINE
  5
182
100
AcDbEntity
  8
0
  6
CONTINUOUS
 62
     7
100
AcDbLine
 10
69.88851928710938
 20
-433.9078369140625
 11
69.88851928710938
 21
-453.4752807617188
  0
LINE
  5
183
100
AcDbEntity
  8
0
  6
CONTINUOUS
 62
     7
100
AcDbLine
 10
31.88851928710938
 20
-401.4751892089844
 11
31.88851928710938
 21
-453.4752807617188
  0
MTEXT
  5
184
100
AcDbEntity
  8
0
  6
CONTINUOUS
 62
     7
100
AcDbMText
 10
50.88851928710938
 20
-450.6182861328125
 40
6
 41
48
 71
     8
 72
     1
  1
{\W0.864328;３８}
  0
POINT
  5
185
100
AcDbEntity
  8
DEFPOINTS
  6
CONTINUOUS
 62
     7
100
AcDbPoint
 10
69.88851928710938
 20
-433.9078369140625
  0
POINT
  5
186
100
AcDbEntity
  8
DEFPOINTS
  6
CONTINUOUS
 62
     7
100
AcDbPoint
 10
31.88851928710938
 20
-401.4751892089844
  0
POINT
  5
187
100
AcDbEntity
  8
DEFPOINTS
  6
CONTINUOUS
 62
     7
100
AcDbPoint
 10
31.88851928710938
 20
-450.6182861328125
  0
ENDBLK
  8
0
  5
188
100
AcDbEntity
100
AcDbBlockEnd
  0
BLOCK
  8
0
  5
189
100
AcDbEntity
100
AcDbBlockBegin
  2
*D11
 70
    65
 10
0
 20
0
  0
LINE
  5
18a
100
AcDbEntity
  8
0
  6
CONTINUOUS
 62
     7
100
AcDbLine
 10
-280.7307739257813
 20
277.9095153808594
 11
-310.556396484375
 21
277.9095153808594
  0
LINE
  5
18b
100
AcDbEntity
  8
0
  6
CONTINUOUS
 62
     7
100
AcDbLine
 10
-277.7307739708367
 20
277.9095153808594
 11
-265.2307738807258
 21
277.9095153808594
  0
INSERT
  5
18c
100
AcDbEntity
  8
0
  6
CONTINUOUS
 62
     7
100
AcDbBlockReference
  2
_OPEN30
 10
-280.7307739257813
 20
277.9095153808594
 41
1
 42
1
 43
1
 50
180.0000000000004
  0
INSERT
  5
18d
100
AcDbEntity
  8
0
  6
CONTINUOUS
 62
     7
100
AcDbBlockReference
  2
_OPEN30
 10
-262.2307739257813
 20
277.9095153808594
 41
1
 42
1
 43
1
  0
LINE
  5
18e
100
AcDbEntity
  8
0
  6
CONTINUOUS
 62
     7
100
AcDbLine
 10
-280.7307739257813
 20
258.8626403808594
 11
-280.7307739257813
 21
280.7665100097656
  0
LINE
  5
18f
100
AcDbEntity
  8
0
  6
CONTINUOUS
 62
     7
100
AcDbLine
 10
-262.2307739257813
 20
262.7664489746094
 11
-262.2307739257813
 21
280.7665100097656
  0
MTEXT
  5
190
100
AcDbEntity
  8
0
  6
CONTINUOUS
 62
     7
100
AcDbMText
 10
-299.4136352539063
 20
277.9095153808594
 40
6
 41
96
 71
     8
 72
     1
  1
{\W0.851241;１８．５}
  0
POINT
  5
191
100
AcDbEntity
  8
DEFPOINTS
  6
CONTINUOUS
 62
     7
100
AcDbPoint
 10
-280.7307739257813
 20
258.8626403808594
  0
POINT
  5
192
100
AcDbEntity
  8
DEFPOINTS
  6
CONTINUOUS
 62
     7
100
AcDbPoint
 10
-262.2307739257813
 20
262.7664489746094
  0
POINT
  5
193
100
AcDbEntity
  8
DEFPOINTS
  6
CONTINUOUS
 62
     7
100
AcDbPoint
 10
-262.2307739257813
 20
277.9095153808594
  0
ENDBLK
  8
0
  5
194
100
AcDbEntity
100
AcDbBlockEnd
  0
BLOCK
  8
0
  5
195
100
AcDbEntity
100
AcDbBlockBegin
  2
*D12
 70
    65
 10
0
 20
0
  0
LINE
  5
196
100
AcDbEntity
  8
0
  6
CONTINUOUS
 62
     7
100
AcDbLine
 10
-23.23075866699219
 20
277.9095153808594
 11
-53.32544326782227
 21
277.9095153808594
  0
LINE
  5
197
100
AcDbEntity
  8
0
  6
CONTINUOUS
 62
     7
100
AcDbLine
 10
-7.730758621936708
 20
277.9095153808594
 11
-20.23075871204767
 21
277.9095153808594
  0
INSERT
  5
198
100
AcDbEntity
  8
0
  6
CONTINUOUS
 62
     7
100
AcDbBlockReference
  2
_OPEN30
 10
-4.730758666992188
 20
277.9095153808594
 41
1
 42
1
 43
1
  0
INSERT
  5
199
100
AcDbEntity
  8
0
  6
CONTINUOUS
 62
     7
100
AcDbBlockReference
  2
_OPEN30
 10
-23.23075866699219
 20
277.9095153808594
 41
1
 42
1
 43
1
 50
180.0000000000004
  0
LINE
  5
19a
100
AcDbEntity
  8
0
  6
CONTINUOUS
 62
     7
100
AcDbLine
 10
-4.730758666992188
 20
258.8626403808594
 11
-4.730758666992188
 21
280.7665100097656
  0
LINE
  5
19b
100
AcDbEntity
  8
0
  6
CONTINUOUS
 62
     7
100
AcDbLine
 10
-23.23075866699219
 20
262.7664489746094
 11
-23.23075866699219
 21
280.7665100097656
  0
MTEXT
  5
19c
100
AcDbEntity
  8
0
  6
CONTINUOUS
 62
     7
100
AcDbMText
 10
-42.18267822265625
 20
277.9095153808594
 40
6
 41
96
 71
     8
 72
     1
  1
{\W0.851241;１８．５}
  0
POINT
  5
19d
100
AcDbEntity
  8
DEFPOINTS
  6
CONTINUOUS
 62
     7
100
AcDbPoint
 10
-4.730758666992188
 20
258.8626403808594
  0
POINT
  5
19e
100
AcDbEntity
  8
DEFPOINTS
  6
CONTINUOUS
 62
     7
100
AcDbPoint
 10
-23.23075866699219
 20
262.7664489746094
  0
POINT
  5
19f
100
AcDbEntity
  8
DEFPOINTS
  6
CONTINUOUS
 62
     7
100
AcDbPoint
 10
-23.23075866699219
 20
277.9095153808594
  0
ENDBLK
  8
0
  5
1a0
100
AcDbEntity
100
AcDbBlockEnd
  0
BLOCK
  8
0
  5
1a1
100
AcDbEntity
100
AcDbBlockBegin
  2
*D13
 70
    65
 10
0
 20
0
  0
LINE
  5
1a2
100
AcDbEntity
  8
0
  6
CONTINUOUS
 62
     7
100
AcDbLine
 10
-277.7307739708367
 20
116.4606628417969
 11
-246.7308043983039
 21
116.4606628417969
  0
INSERT
  5
1a3
100
AcDbEntity
  8
0
  6
CONTINUOUS
 62
     7
100
AcDbBlockReference
  2
_OPEN30
 10
-280.7307739257813
 20
116.4606628417969
 41
1
 42
1
 43
1
 50
180.0000000000004
  0
INSERT
  5
1a4
100
AcDbEntity
  8
0
  6
CONTINUOUS
 62
     7
100
AcDbBlockReference
  2
_OPEN30
 10
-243.7308044433594
 20
116.4606628417969
 41
1
 42
1
 43
1
  0
LINE
  5
1a5
100
AcDbEntity
  8
0
  6
CONTINUOUS
 62
     7
100
AcDbLine
 10
-280.7307739257813
 20
142.2626190185547
 11
-280.7307739257813
 21
113.6036682128906
  0
LINE
  5
1a6
100
AcDbEntity
  8
0
  6
CONTINUOUS
 62
     7
100
AcDbLine
 10
-243.7308044433594
 20
142.2626190185547
 11
-243.7308044433594
 21
113.6036682128906
  0
MTEXT
  5
1a7
100
AcDbEntity
  8
0
  6
CONTINUOUS
 62
     7
100
AcDbMText
 10
-262.2307739257813
 20
116.4606628417969
 40
6
 41
48
 71
     8
 72
     1
  1
{\W0.864328;３７}
  0
POINT
  5
1a8
100
AcDbEntity
  8
DEFPOINTS
  6
CONTINUOUS
 62
     7
100
AcDbPoint
 10
-280.7307739257813
 20
142.2626190185547
  0
POINT
  5
1a9
100
AcDbEntity
  8
DEFPOINTS
  6
CONTINUOUS
 62
     7
100
AcDbPoint
 10
-243.7308044433594
 20
142.2626190185547
  0
POINT
  5
1aa
100
AcDbEntity
  8
DEFPOINTS
  6
CONTINUOUS
 62
     7
100
AcDbPoint
 10
-243.7308044433594
 20
116.4606628417969
  0
ENDBLK
  8
0
  5
1ab
100
AcDbEntity
100
AcDbBlockEnd
  0
BLOCK
  8
0
  5
1ac
100
AcDbEntity
100
AcDbBlockBegin
  2
*D14
 70
    65
 10
0
 20
0
  0
LINE
  5
1ad
100
AcDbEntity
  8
0
  6
CONTINUOUS
 62
     7
100
AcDbLine
 10
-38.73075871204767
 20
116.4606628417969
 11
-7.730758621936708
 21
116.4606628417969
  0
INSERT
  5
1ae
100
AcDbEntity
  8
0
  6
CONTINUOUS
 62
     7
100
AcDbBlockReference
  2
_OPEN30
 10
-41.73075866699219
 20
116.4606628417969
 41
1
 42
1
 43
1
 50
180.0000000000004
  0
INSERT
  5
1af
100
AcDbEntity
  8
0
  6
CONTINUOUS
 62
     7
100
AcDbBlockReference
  2
_OPEN30
 10
-4.730758666992188
 20
116.4606628417969
 41
1
 42
1
 43
1
  0
LINE
  5
1b0
100
AcDbEntity
  8
0
  6
CONTINUOUS
 62
     7
100
AcDbLine
 10
-41.73077392578125
 20
142.2626190185547
 11
-41.73077392578125
 21
113.6036682128906
  0
LINE
  5
1b1
100
AcDbEntity
  8
0
  6
CONTINUOUS
 62
     7
100
AcDbLine
 10
-4.730758666992188
 20
142.2626190185547
 11
-4.730758666992188
 21
113.6036682128906
  0
MTEXT
  5
1b2
100
AcDbEntity
  8
0
  6
CONTINUOUS
 62
     7
100
AcDbMText
 10
-23.23075866699219
 20
116.4606628417969
 40
6
 41
48
 71
     8
 72
     1
  1
{\W0.864328;３７}
  0
POINT
  5
1b3
100
AcDbEntity
  8
DEFPOINTS
  6
CONTINUOUS
 62
     7
100
AcDbPoint
 10
-41.73077392578125
 20
142.2626190185547
  0
POINT
  5
1b4
100
AcDbEntity
  8
DEFPOINTS
  6
CONTINUOUS
 62
     7
100
AcDbPoint
 10
-4.730758666992188
 20
142.2626190185547
  0
POINT
  5
1b5
100
AcDbEntity
  8
DEFPOINTS
  6
CONTINUOUS
 62
     7
100
AcDbPoint
 10
-4.730758666992188
 20
116.4606628417969
  0
ENDBLK
  8
0
  5
1b6
100
AcDbEntity
100
AcDbBlockEnd
  0
BLOCK
  8
0
  5
1b7
100
AcDbEntity
100
AcDbBlockBegin
  2
*D15
 70
    65
 10
0
 20
0
  0
LINE
  5
1b8
100
AcDbEntity
  8
0
  6
CONTINUOUS
 62
     7
100
AcDbLine
 10
-1.730758712047667
 20
116.4606628417969
 11
7.269241378063292
 21
116.4606628417969
  0
INSERT
  5
1b9
100
AcDbEntity
  8
0
  6
CONTINUOUS
 62
     7
100
AcDbBlockReference
  2
_OPEN30
 10
-4.730758666992188
 20
116.4606628417969
 41
1
 42
1
 43
1
 50
180.0000000000004
  0
INSERT
  5
1ba
100
AcDbEntity
  8
0
  6
CONTINUOUS
 62
     7
100
AcDbBlockReference
  2
_OPEN30
 10
10.26924133300781
 20
116.4606628417969
 41
1
 42
1
 43
1
  0
LINE
  5
1bb
100
AcDbEntity
  8
0
  6
CONTINUOUS
 62
     7
100
AcDbLine
 10
10.26924133300781
 20
176.1125946044922
 11
10.26924133300781
 21
113.6036682128906
  0
MTEXT
  5
1bc
100
AcDbEntity
  8
0
  6
CONTINUOUS
 62
     7
100
AcDbMText
 10
2.769241333007813
 20
116.4606628417969
 40
6
 41
48
 71
     8
 72
     1
  1
{\W0.864328;１５}
  0
POINT
  5
1bd
100
AcDbEntity
  8
DEFPOINTS
  6
CONTINUOUS
 62
     7
100
AcDbPoint
 10
-4.730758666992188
 20
142.2626190185547
  0
POINT
  5
1be
100
AcDbEntity
  8
DEFPOINTS
  6
CONTINUOUS
 62
     7
100
AcDbPoint
 10
10.26924133300781
 20
176.1125946044922
  0
POINT
  5
1bf
100
AcDbEntity
  8
DEFPOINTS
  6
CONTINUOUS
 62
     7
100
AcDbPoint
 10
10.26924133300781
 20
116.4606628417969
  0
ENDBLK
  8
0
  5
1c0
100
AcDbEntity
100
AcDbBlockEnd
  0
BLOCK
  8
0
  5
1c1
100
AcDbEntity
100
AcDbBlockBegin
  2
*D16
 70
    65
 10
0
 20
0
  0
LINE
  5
1c2
100
AcDbEntity
  8
0
  6
CONTINUOUS
 62
     7
100
AcDbLine
 10
64.26927952503596
 20
116.4606628417969
 11
33.26926417613593
 21
116.4606628417969
  0
INSERT
  5
1c3
100
AcDbEntity
  8
0
  6
CONTINUOUS
 62
     7
100
AcDbBlockReference
  2
_OPEN30
 10
67.26927947998047
 20
116.4606628417969
 41
1
 42
1
 43
1
  0
INSERT
  5
1c4
100
AcDbEntity
  8
0
  6
CONTINUOUS
 62
     7
100
AcDbBlockReference
  2
_OPEN30
 10
30.26926422119141
 20
116.4606628417969
 41
1
 42
1
 43
1
 50
180.0000000000004
  0
LINE
  5
1c5
100
AcDbEntity
  8
0
  6
CONTINUOUS
 62
     7
100
AcDbLine
 10
67.269287109375
 20
189.0626220703125
 11
67.269287109375
 21
113.6036682128906
  0
LINE
  5
1c6
100
AcDbEntity
  8
0
  6
CONTINUOUS
 62
     7
100
AcDbLine
 10
30.26925659179688
 20
187.5626220703125
 11
30.26925659179688
 21
113.6036682128906
  0
MTEXT
  5
1c7
100
AcDbEntity
  8
0
  6
CONTINUOUS
 62
     7
100
AcDbMText
 10
48.76927185058594
 20
116.4606628417969
 40
6
 41
48
 71
     8
 72
     1
  1
{\W0.864328;３７}
  0
POINT
  5
1c8
100
AcDbEntity
  8
DEFPOINTS
  6
CONTINUOUS
 62
     7
100
AcDbPoint
 10
67.269287109375
 20
189.0626220703125
  0
POINT
  5
1c9
100
AcDbEntity
  8
DEFPOINTS
  6
CONTINUOUS
 62
     7
100
AcDbPoint
 10
30.26925659179688
 20
187.5626220703125
  0
POINT
  5
1ca
100
AcDbEntity
  8
DEFPOINTS
  6
CONTINUOUS
 62
     7
100
AcDbPoint
 10
30.26926422119141
 20
116.4606628417969
  0
ENDBLK
  8
0
  5
1cb
100
AcDbEntity
100
AcDbBlockEnd
  0
BLOCK
  8
0
  5
1cc
100
AcDbEntity
100
AcDbBlockBegin
  2
*D17
 70
    65
 10
0
 20
0
  0
LINE
  5
1cd
100
AcDbEntity
  8
0
  6
CONTINUOUS
 62
     7
100
AcDbLine
 10
43.26922602916327
 20
154.4677734375
 11
51.26922611927423
 21
154.4677734375
  0
INSERT
  5
1ce
100
AcDbEntity
  8
0
  6
CONTINUOUS
 62
     7
100
AcDbBlockReference
  2
_OPEN30
 10
40.26922607421875
 20
154.4677734375
 41
1
 42
1
 43
1
 50
180.0000000000004
  0
INSERT
  5
1cf
100
AcDbEntity
  8
0
  6
CONTINUOUS
 62
     7
100
AcDbBlockReference
  2
_OPEN30
 10
54.26922607421875
 20
154.4677734375
 41
1
 42
1
 43
1
  0
LINE
  5
1d0
100
AcDbEntity
  8
0
  6
CONTINUOUS
 62
     7
100
AcDbLine
 10
40.26922607421875
 20
183.5626220703125
 11
40.26922607421875
 21
151.6107788085938
  0
LINE
  5
1d1
100
AcDbEntity
  8
0
  6
CONTINUOUS
 62
     7
100
AcDbLine
 10
54.26922607421875
 20
183.5626220703125
 11
54.26922607421875
 21
151.6107788085938
  0
MTEXT
  5
1d2
100
AcDbEntity
  8
0
  6
CONTINUOUS
 62
     7
100
AcDbMText
 10
47.26922607421875
 20
154.4677734375
 40
6
 41
48
 71
     8
 72
     1
  1
{\W0.864328;１４}
  0
POINT
  5
1d3
100
AcDbEntity
  8
DEFPOINTS
  6
CONTINUOUS
 62
     7
100
AcDbPoint
 10
40.26922607421875
 20
183.5626220703125
  0
POINT
  5
1d4
100
AcDbEntity
  8
DEFPOINTS
  6
CONTINUOUS
 62
     7
100
AcDbPoint
 10
54.26922607421875
 20
183.5626220703125
  0
POINT
  5
1d5
100
AcDbEntity
  8
DEFPOINTS
  6
CONTINUOUS
 62
     7
100
AcDbPoint
 10
54.26922607421875
 20
154.4677734375
  0
ENDBLK
  8
0
  5
1d6
100
AcDbEntity
100
AcDbBlockEnd
  0
BLOCK
  8
0
  5
1d7
100
AcDbEntity
100
AcDbBlockBegin
  2
*D18
 70
    65
 10
0
 20
0
  0
LINE
  5
1d8
100
AcDbEntity
  8
0
  6
CONTINUOUS
 62
     7
100
AcDbLine
 10
64.26927952503596
 20
101.2578125
 11
30.26927180553046
 21
101.2578125
  0
INSERT
  5
1d9
100
AcDbEntity
  8
0
  6
CONTINUOUS
 62
     7
100
AcDbBlockReference
  2
_OPEN30
 10
67.26927947998047
 20
101.2578125
 41
1
 42
1
 43
1
  0
INSERT
  5
1da
100
AcDbEntity
  8
0
  6
CONTINUOUS
 62
     7
100
AcDbBlockReference
  2
_OPEN30
 10
27.26927185058594
 20
101.2578125
 41
1
 42
1
 43
1
 50
180.0000000000004
  0
LINE
  5
1db
100
AcDbEntity
  8
0
  6
CONTINUOUS
 62
     7
100
AcDbLine
 10
67.269287109375
 20
189.0626220703125
 11
67.269287109375
 21
98.40081024169922
  0
LINE
  5
1dc
100
AcDbEntity
  8
0
  6
CONTINUOUS
 62
     7
100
AcDbLine
 10
27.26927185058594
 20
187.5626220703125
 11
27.26927185058594
 21
98.40081024169922
  0
MTEXT
  5
1dd
100
AcDbEntity
  8
0
  6
CONTINUOUS
 62
     7
100
AcDbMText
 10
47.26927185058594
 20
101.2578125
 40
6
 41
48
 71
     8
 72
     1
  1
{\W0.864328;４０}
  0
POINT
  5
1de
100
AcDbEntity
  8
DEFPOINTS
  6
CONTINUOUS
 62
     7
100
AcDbPoint
 10
67.269287109375
 20
189.0626220703125
  0
POINT
  5
1df
100
AcDbEntity
  8
DEFPOINTS
  6
CONTINUOUS
 62
     7
100
AcDbPoint
 10
27.26927185058594
 20
187.5626220703125
  0
POINT
  5
1e0
100
AcDbEntity
  8
DEFPOINTS
  6
CONTINUOUS
 62
     7
100
AcDbPoint
 10
27.26927185058594
 20
101.2578125
  0
ENDBLK
  8
0
  5
1e1
100
AcDbEntity
100
AcDbBlockEnd
  0
BLOCK
  8
0
  5
1e2
100
AcDbEntity
100
AcDbBlockBegin
  2
*D19
 70
    65
 10
0
 20
0
  0
LINE
  5
1e3
100
AcDbEntity
  8
0
  6
CONTINUOUS
 62
     7
100
AcDbLine
 10
24.26927189564142
 20
101.2578125
 11
-1.730758712047667
 21
101.2578125
  0
INSERT
  5
1e4
100
AcDbEntity
  8
0
  6
CONTINUOUS
 62
     7
100
AcDbBlockReference
  2
_OPEN30
 10
27.26927185058594
 20
101.2578125
 41
1
 42
1
 43
1
  0
INSERT
  5
1e5
100
AcDbEntity
  8
0
  6
CONTINUOUS
 62
     7
100
AcDbBlockReference
  2
_OPEN30
 10
-4.730758666992188
 20
101.2578125
 41
1
 42
1
 43
1
 50
180.0000000000004
  0
LINE
  5
1e6
100
AcDbEntity
  8
0
  6
CONTINUOUS
 62
     7
100
AcDbLine
 10
-4.730758666992188
 20
142.2626190185547
 11
-4.730758666992188
 21
98.40081024169922
  0
MTEXT
  5
1e7
100
AcDbEntity
  8
0
  6
CONTINUOUS
 62
     7
100
AcDbMText
 10
11.26925659179688
 20
101.2578125
 40
6
 41
48
 71
     8
 72
     1
  1
{\W0.864328;３２}
  0
POINT
  5
1e8
100
AcDbEntity
  8
DEFPOINTS
  6
CONTINUOUS
 62
     7
100
AcDbPoint
 10
27.26927185058594
 20
187.5626220703125
  0
POINT
  5
1e9
100
AcDbEntity
  8
DEFPOINTS
  6
CONTINUOUS
 62
     7
100
AcDbPoint
 10
-4.730758666992188
 20
142.2626190185547
  0
POINT
  5
1ea
100
AcDbEntity
  8
DEFPOINTS
  6
CONTINUOUS
 62
     7
100
AcDbPoint
 10
-4.730758666992188
 20
101.2578125
  0
ENDBLK
  8
0
  5
1eb
100
AcDbEntity
100
AcDbBlockEnd
  0
BLOCK
  8
0
  5
1ec
100
AcDbEntity
100
AcDbBlockBegin
  2
*D20
 70
    65
 10
0
 20
0
  0
LINE
  5
1ed
100
AcDbEntity
  8
0
  6
CONTINUOUS
 62
     7
100
AcDbLine
 10
-7.730758621936708
 20
101.2578125
 11
-277.7307739708367
 21
101.2578125
  0
INSERT
  5
1ee
100
AcDbEntity
  8
0
  6
CONTINUOUS
 62
     7
100
AcDbBlockReference
  2
_OPEN30
 10
-4.730758666992188
 20
101.2578125
 41
1
 42
1
 43
1
  0
INSERT
  5
1ef
100
AcDbEntity
  8
0
  6
CONTINUOUS
 62
     7
100
AcDbBlockReference
  2
_OPEN30
 10
-280.7307739257813
 20
101.2578125
 41
1
 42
1
 43
1
 50
180.0000000000004
  0
LINE
  5
1f0
100
AcDbEntity
  8
0
  6
CONTINUOUS
 62
     7
100
AcDbLine
 10
-280.7307739257813
 20
142.2626190185547
 11
-280.7307739257813
 21
98.40081024169922
  0
MTEXT
  5
1f1
100
AcDbEntity
  8
0
  6
CONTINUOUS
 62
     7
100
AcDbMText
 10
-142.7307739257813
 20
101.2578125
 40
6
 41
216
 71
     8
 72
     1
  1
{\W0.84495;１２６＋ストロ－ク}
  0
POINT
  5
1f2
100
AcDbEntity
  8
DEFPOINTS
  6
CONTINUOUS
 62
     7
100
AcDbPoint
 10
-4.730758666992188
 20
142.2626190185547
  0
POINT
  5
1f3
100
AcDbEntity
  8
DEFPOINTS
  6
CONTINUOUS
 62
     7
100
AcDbPoint
 10
-280.7307739257813
 20
142.2626190185547
  0
POINT
  5
1f4
100
AcDbEntity
  8
DEFPOINTS
  6
CONTINUOUS
 62
     7
100
AcDbPoint
 10
-280.7307739257813
 20
101.2578125
  0
ENDBLK
  8
0
  5
1f5
100
AcDbEntity
100
AcDbBlockEnd
  0
BLOCK
  8
0
  5
1f6
100
AcDbEntity
100
AcDbBlockBegin
  2
*D21
 70
    65
 10
0
 20
0
  0
LINE
  5
1f7
100
AcDbEntity
  8
0
  6
CONTINUOUS
 62
     7
100
AcDbLine
 10
19.09503173828125
 20
215.5626220703125
 11
19.09503173828125
 21
245.4415588378906
  0
LINE
  5
1f8
100
AcDbEntity
  8
0
  6
CONTINUOUS
 62
     7
100
AcDbLine
 10
19.09503173828124
 20
188.562622025257
 11
19.09503173828128
 21
212.562622115368
  0
INSERT
  5
1f9
100
AcDbEntity
  8
0
  6
CONTINUOUS
 62
     7
100
AcDbBlockReference
  2
_OPEN30
 10
19.09503173828125
 20
185.5626220703125
 41
1
 42
1
 43
1
 50
270.0000000000005
  0
INSERT
  5
1fa
100
AcDbEntity
  8
0
  6
CONTINUOUS
 62
     7
100
AcDbBlockReference
  2
_OPEN30
 10
19.09503173828125
 20
215.5626220703125
 41
1
 42
1
 43
1
 50
90.00000000000019
  0
LINE
  5
1fb
100
AcDbEntity
  8
0
  6
CONTINUOUS
 62
     7
100
AcDbLine
 10
23.80517578125
 20
185.5626220703125
 11
16.23802947998047
 21
185.5626220703125
  0
LINE
  5
1fc
100
AcDbEntity
  8
0
  6
CONTINUOUS
 62
     7
100
AcDbLine
 10
23.80517578125
 20
215.5626068115234
 11
16.23802947998047
 21
215.5626068115234
  0
MTEXT
  5
1fd
100
AcDbEntity
  8
0
  6
CONTINUOUS
 62
     7
100
AcDbMText
 10
19.09503173828125
 20
237.2987823486328
 40
6
 41
132
 71
     8
 72
     1
  1
{\W0.855331;\U+2205３０}
 11
0
 21
1
  0
POINT
  5
1fe
100
AcDbEntity
  8
DEFPOINTS
  6
CONTINUOUS
 62
     7
100
AcDbPoint
 10
23.80517578125
 20
185.5626220703125
  0
POINT
  5
1ff
100
AcDbEntity
  8
DEFPOINTS
  6
CONTINUOUS
 62
     7
100
AcDbPoint
 10
23.80517578125
 20
215.5626068115234
  0
POINT
  5
200
100
AcDbEntity
  8
DEFPOINTS
  6
CONTINUOUS
 62
     7
100
AcDbPoint
 10
19.09503173828125
 20
215.5626220703125
  0
ENDBLK
  8
0
  5
201
100
AcDbEntity
100
AcDbBlockEnd
  0
BLOCK
  8
0
  5
202
100
AcDbEntity
100
AcDbBlockBegin
  2
*D22
 70
    65
 10
0
 20
0
  0
LINE
  5
203
100
AcDbEntity
  8
0
  6
CONTINUOUS
 62
     7
100
AcDbLine
 10
486.1578063964844
 20
231.9096221923828
 11
486.1578063964844
 21
253.3205261230469
  0
LINE
  5
204
100
AcDbEntity
  8
0
  6
CONTINUOUS
 62
     7
100
AcDbLine
 10
486.1578063964844
 20
182.9096679236945
 11
486.1578063964844
 21
228.9096222374383
  0
INSERT
  5
205
100
AcDbEntity
  8
0
  6
CONTINUOUS
 62
     7
100
AcDbBlockReference
  2
_OPEN30
 10
486.1578063964844
 20
179.90966796875
 41
1
 42
1
 43
1
 50
270.0000000000005
  0
INSERT
  5
206
100
AcDbEntity
  8
0
  6
CONTINUOUS
 62
     7
100
AcDbBlockReference
  2
_OPEN30
 10
486.1578063964844
 20
231.9096221923828
 41
1
 42
1
 43
1
 50
90.00000000000019
  0
LINE
  5
207
100
AcDbEntity
  8
0
  6
CONTINUOUS
 62
     7
100
AcDbLine
 10
495.4192832597519
 20
174.5626700559297
 11
483.3008678225333
 21
181.5592259012724
  0
LINE
  5
208
100
AcDbEntity
  8
0
  6
CONTINUOUS
 62
     7
100
AcDbLine
 10
495.4192760701
 20
226.5626167453947
 11
483.3008342038697
 21
233.5591878495027
  0
MTEXT
  5
209
100
AcDbEntity
  8
0
  6
CONTINUOUS
 62
     7
100
AcDbMText
 10
486.1578063964844
 20
245.1777496337891
 40
6
 41
132
 71
     8
 72
     1
  1
{\W0.855331;\U+2205５２}
 11
0
 21
1
  0
POINT
  5
20a
100
AcDbEntity
  8
DEFPOINTS
  6
CONTINUOUS
 62
     7
100
AcDbPoint
 10
495.4192832597519
 20
174.5626700559297
  0
POINT
  5
20b
100
AcDbEntity
  8
DEFPOINTS
  6
CONTINUOUS
 62
     7
100
AcDbPoint
 10
495.4192760701
 20
226.5626167453947
  0
POINT
  5
20c
100
AcDbEntity
  8
DEFPOINTS
  6
CONTINUOUS
 62
     7
100
AcDbPoint
 10
486.1578063964844
 20
231.9096221923828
  0
ENDBLK
  8
0
  5
20d
100
AcDbEntity
100
AcDbBlockEnd
  0
BLOCK
  8
0
  5
20e
100
AcDbEntity
100
AcDbBlockBegin
  2
*D23
 70
    65
 10
0
 20
0
  0
LINE
  5
20f
100
AcDbEntity
  8
0
  6
CONTINUOUS
 62
     7
100
AcDbLine
 10
190.8442534949836
 20
116.4606628417969
 11
274.8442383263055
 21
116.4606628417969
  0
INSERT
  5
210
100
AcDbEntity
  8
0
  6
CONTINUOUS
 62
     7
100
AcDbBlockReference
  2
_OPEN30
 10
187.8442535400391
 20
116.4606628417969
 41
1
 42
1
 43
1
 50
180.0000000000004
  0
INSERT
  5
211
100
AcDbEntity
  8
0
  6
CONTINUOUS
 62
     7
100
AcDbBlockReference
  2
_OPEN30
 10
277.84423828125
 20
116.4606628417969
 41
1
 42
1
 43
1
  0
LINE
  5
212
100
AcDbEntity
  8
0
  6
CONTINUOUS
 62
     7
100
AcDbLine
 10
187.8442535400391
 20
145.0625915527344
 11
187.8442535400391
 21
113.6036682128906
  0
LINE
  5
213
100
AcDbEntity
  8
0
  6
CONTINUOUS
 62
     7
100
AcDbLine
 10
277.84423828125
 20
145.0625915527344
 11
277.84423828125
 21
113.6036682128906
  0
MTEXT
  5
214
100
AcDbEntity
  8
0
  6
CONTINUOUS
 62
     7
100
AcDbMText
 10
232.84423828125
 20
116.4606628417969
 40
6
 41
72
 71
     8
 72
     1
  1
{\W0.855331;□９０}
  0
POINT
  5
215
100
AcDbEntity
  8
DEFPOINTS
  6
CONTINUOUS
 62
     7
100
AcDbPoint
 10
187.8442535400391
 20
145.0625915527344
  0
POINT
  5
216
100
AcDbEntity
  8
DEFPOINTS
  6
CONTINUOUS
 62
     7
100
AcDbPoint
 10
277.84423828125
 20
145.0625915527344
  0
POINT
  5
217
100
AcDbEntity
  8
DEFPOINTS
  6
CONTINUOUS
 62
     7
100
AcDbPoint
 10
277.84423828125
 20
116.4606628417969
  0
ENDBLK
  8
0
  5
218
100
AcDbEntity
100
AcDbBlockEnd
  0
BLOCK
  8
0
  5
219
100
AcDbEntity
100
AcDbBlockBegin
  2
*D24
 70
    65
 10
0
 20
0
  0
LINE
  5
21a
100
AcDbEntity
  8
0
  6
CONTINUOUS
 62
     7
100
AcDbLine
 10
176.8442534949836
 20
101.2578125
 11
288.8442383263055
 21
101.2578125
  0
INSERT
  5
21b
100
AcDbEntity
  8
0
  6
CONTINUOUS
 62
     7
100
AcDbBlockReference
  2
_OPEN30
 10
173.8442535400391
 20
101.2578125
 41
1
 42
1
 43
1
 50
180.0000000000004
  0
INSERT
  5
21c
100
AcDbEntity
  8
0
  6
CONTINUOUS
 62
     7
100
AcDbBlockReference
  2
_OPEN30
 10
291.84423828125
 20
101.2578125
 41
1
 42
1
 43
1
  0
LINE
  5
21d
100
AcDbEntity
  8
0
  6
CONTINUOUS
 62
     7
100
AcDbLine
 10
173.8442535400391
 20
151.5625915527344
 11
173.8442535400391
 21
98.40081024169922
  0
LINE
  5
21e
100
AcDbEntity
  8
0
  6
CONTINUOUS
 62
     7
100
AcDbLine
 10
291.84423828125
 20
151.5625915527344
 11
291.84423828125
 21
98.40081024169922
  0
MTEXT
  5
21f
100
AcDbEntity
  8
0
  6
CONTINUOUS
 62
     7
100
AcDbMText
 10
232.84423828125
 20
101.2578125
 40
6
 41
96
 71
     8
 72
     1
  1
{\W0.851241;□１１８}
  0
POINT
  5
220
100
AcDbEntity
  8
DEFPOINTS
  6
CONTINUOUS
 62
     7
100
AcDbPoint
 10
173.8442535400391
 20
151.5625915527344
  0
POINT
  5
221
100
AcDbEntity
  8
DEFPOINTS
  6
CONTINUOUS
 62
     7
100
AcDbPoint
 10
291.84423828125
 20
151.5625915527344
  0
POINT
  5
222
100
AcDbEntity
  8
DEFPOINTS
  6
CONTINUOUS
 62
     7
100
AcDbPoint
 10
291.84423828125
 20
101.2578125
  0
ENDBLK
  8
0
  5
223
100
AcDbEntity
100
AcDbBlockEnd
  0
BLOCK
  8
0
  5
224
100
AcDbEntity
100
AcDbBlockBegin
  2
*D25
 70
    65
 10
0
 20
0
  0
LINE
  5
225
100
AcDbEntity
  8
0
  6
CONTINUOUS
 62
     7
100
AcDbLine
 10
64.26928715443049
 20
69.90793172770272
 11
-295.7307739708367
 21
69.90793172770273
  0
INSERT
  5
226
100
AcDbEntity
  8
0
  6
CONTINUOUS
 62
     7
100
AcDbBlockReference
  2
_OPEN30
 10
67.269287109375
 20
69.90793172770273
 41
1
 42
1
 43
1
  0
INSERT
  5
227
100
AcDbEntity
  8
0
  6
CONTINUOUS
 62
     7
100
AcDbBlockReference
  2
_OPEN30
 10
-298.7307739257813
 20
69.90793172770273
 41
1
 42
1
 43
1
 50
180.0000000000004
  0
LINE
  5
228
100
AcDbEntity
  8
0
  6
CONTINUOUS
 62
     7
100
AcDbLine
 10
67.269287109375
 20
189.0626220703125
 11
67.269287109375
 21
67.62193172770273
  0
LINE
  5
229
100
AcDbEntity
  8
0
  6
CONTINUOUS
 62
     7
100
AcDbLine
 10
-298.7307739257813
 20
138.5626220703125
 11
-298.7307739257813
 21
67.62193172770273
  0
MTEXT
  5
22a
100
AcDbEntity
  8
0
  6
CONTINUOUS
 62
     7
100
AcDbMText
 10
-115.7307434082031
 20
69.90793172770273
 40
6
 41
216
 71
     8
 72
     1
  1
{\W0.84495;２１６＋ストロ－ク}
  0
POINT
  5
22b
100
AcDbEntity
  8
DEFPOINTS
  6
CONTINUOUS
 62
     7
100
AcDbPoint
 10
67.269287109375
 20
189.0626220703125
  0
POINT
  5
22c
100
AcDbEntity
  8
DEFPOINTS
  6
CONTINUOUS
 62
     7
100
AcDbPoint
 10
-298.7307739257813
 20
138.5626220703125
  0
POINT
  5
22d
100
AcDbEntity
  8
DEFPOINTS
  6
CONTINUOUS
 62
     7
100
AcDbPoint
 10
-298.7307739257813
 20
69.90793172770273
  0
ENDBLK
  8
0
  5
22e
100
AcDbEntity
100
AcDbBlockEnd
  0
BLOCK
  8
0
  5
22f
100
AcDbEntity
100
AcDbBlockBegin
  2
*D26
 70
    65
 10
0
 20
0
  0
LINE
  5
230
100
AcDbEntity
  8
0
  6
CONTINUOUS
 62
     7
100
AcDbLine
 10
160.8442534949836
 20
85.10069274902344
 11
304.8442383263055
 21
85.10069274902342
  0
INSERT
  5
231
100
AcDbEntity
  8
0
  6
CONTINUOUS
 62
     7
100
AcDbBlockReference
  2
_OPEN30
 10
157.8442535400391
 20
85.10069274902344
 41
1
 42
1
 43
1
 50
180.0000000000004
  0
INSERT
  5
232
100
AcDbEntity
  8
0
  6
CONTINUOUS
 62
     7
100
AcDbBlockReference
  2
_OPEN30
 10
307.84423828125
 20
85.10069274902344
 41
1
 42
1
 43
1
  0
LINE
  5
233
100
AcDbEntity
  8
0
  6
CONTINUOUS
 62
     7
100
AcDbLine
 10
157.8442535400391
 20
147.5625915527344
 11
157.8442535400391
 21
82.24369049072266
  0
LINE
  5
234
100
AcDbEntity
  8
0
  6
CONTINUOUS
 62
     7
100
AcDbLine
 10
307.84423828125
 20
147.5625915527344
 11
307.84423828125
 21
82.24369049072266
  0
MTEXT
  5
235
100
AcDbEntity
  8
0
  6
CONTINUOUS
 62
     7
100
AcDbMText
 10
232.84423828125
 20
85.10069274902344
 40
6
 41
72
 71
     8
 72
     1
  1
{\W0.855331;１５０}
  0
POINT
  5
236
100
AcDbEntity
  8
DEFPOINTS
  6
CONTINUOUS
 62
     7
100
AcDbPoint
 10
157.8442535400391
 20
147.5625915527344
  0
POINT
  5
237
100
AcDbEntity
  8
DEFPOINTS
  6
CONTINUOUS
 62
     7
100
AcDbPoint
 10
307.84423828125
 20
147.5625915527344
  0
POINT
  5
238
100
AcDbEntity
  8
DEFPOINTS
  6
CONTINUOUS
 62
     7
100
AcDbPoint
 10
307.84423828125
 20
85.10069274902344
  0
ENDBLK
  8
0
  5
239
100
AcDbEntity
100
AcDbBlockEnd
  0
BLOCK
  8
0
  5
23a
100
AcDbEntity
100
AcDbBlockBegin
  2
*D27
 70
    65
 10
0
 20
0
  0
LINE
  5
23b
100
AcDbEntity
  8
0
  6
CONTINUOUS
 62
     7
100
AcDbLine
 10
145.8442534949836
 20
69.74758911132813
 11
319.8442383263055
 21
69.74758911132811
  0
INSERT
  5
23c
100
AcDbEntity
  8
0
  6
CONTINUOUS
 62
     7
100
AcDbBlockReference
  2
_OPEN30
 10
142.8442535400391
 20
69.74758911132813
 41
1
 42
1
 43
1
 50
180.0000000000004
  0
INSERT
  5
23d
100
AcDbEntity
  8
0
  6
CONTINUOUS
 62
     7
100
AcDbBlockReference
  2
_OPEN30
 10
322.84423828125
 20
69.74758911132813
 41
1
 42
1
 43
1
  0
LINE
  5
23e
100
AcDbEntity
  8
0
  6
CONTINUOUS
 62
     7
100
AcDbLine
 10
142.8442535400391
 20
138.5625915527344
 11
142.8442535400391
 21
66.89059448242188
  0
LINE
  5
23f
100
AcDbEntity
  8
0
  6
CONTINUOUS
 62
     7
100
AcDbLine
 10
322.84423828125
 20
138.5625915527344
 11
322.84423828125
 21
66.89059448242188
  0
MTEXT
  5
240
100
AcDbEntity
  8
0
  6
CONTINUOUS
 62
     7
100
AcDbMText
 10
232.84423828125
 20
69.74758911132813
 40
6
 41
72
 71
     8
 72
     1
  1
{\W0.855331;１８０}
  0
POINT
  5
241
100
AcDbEntity
  8
DEFPOINTS
  6
CONTINUOUS
 62
     7
100
AcDbPoint
 10
142.8442535400391
 20
138.5625915527344
  0
POINT
  5
242
100
AcDbEntity
  8
DEFPOINTS
  6
CONTINUOUS
 62
     7
100
AcDbPoint
 10
322.84423828125
 20
138.5625915527344
  0
POINT
  5
243
100
AcDbEntity
  8
DEFPOINTS
  6
CONTINUOUS
 62
     7
100
AcDbPoint
 10
322.84423828125
 20
69.74758911132813
  0
ENDBLK
  8
0
  5
244
100
AcDbEntity
100
AcDbBlockEnd
  0
BLOCK
  8
0
  5
245
100
AcDbEntity
100
AcDbBlockBegin
  2
*D28
 70
    65
 10
0
 20
0
  0
LINE
  5
246
100
AcDbEntity
  8
0
  6
CONTINUOUS
 62
     7
100
AcDbLine
 10
348.400146484375
 20
157.5625915076789
 11
348.400146484375
 21
243.5625915977899
  0
INSERT
  5
247
100
AcDbEntity
  8
0
  6
CONTINUOUS
 62
     7
100
AcDbBlockReference
  2
_OPEN30
 10
348.400146484375
 20
154.5625915527344
 41
1
 42
1
 43
1
 50
270.0000000000005
  0
INSERT
  5
248
100
AcDbEntity
  8
0
  6
CONTINUOUS
 62
     7
100
AcDbBlockReference
  2
_OPEN30
 10
348.400146484375
 20
246.5625915527344
 41
1
 42
1
 43
1
 50
90.00000000000019
  0
LINE
  5
249
100
AcDbEntity
  8
0
  6
CONTINUOUS
 62
     7
100
AcDbLine
 10
314.84423828125
 20
154.5625915527344
 11
351.2571411132813
 21
154.5625915527344
  0
LINE
  5
24a
100
AcDbEntity
  8
0
  6
CONTINUOUS
 62
     7
100
AcDbLine
 10
314.84423828125
 20
246.5625762939453
 11
351.2571411132813
 21
246.5625762939453
  0
MTEXT
  5
24b
100
AcDbEntity
  8
0
  6
CONTINUOUS
 62
     7
100
AcDbMText
 10
348.400146484375
 20
200.5625915527344
 40
6
 41
48
 71
     8
 72
     1
  1
{\W0.864328;９２}
 11
0
 21
1
  0
POINT
  5
24c
100
AcDbEntity
  8
DEFPOINTS
  6
CONTINUOUS
 62
     7
100
AcDbPoint
 10
314.84423828125
 20
154.5625915527344
  0
POINT
  5
24d
100
AcDbEntity
  8
DEFPOINTS
  6
CONTINUOUS
 62
     7
100
AcDbPoint
 10
314.84423828125
 20
246.5625762939453
  0
POINT
  5
24e
100
AcDbEntity
  8
DEFPOINTS
  6
CONTINUOUS
 62
     7
100
AcDbPoint
 10
348.400146484375
 20
246.5625915527344
  0
ENDBLK
  8
0
  5
24f
100
AcDbEntity
100
AcDbBlockEnd
  0
BLOCK
  8
0
  5
250
100
AcDbEntity
100
AcDbBlockBegin
  2
*D29
 70
    65
 10
0
 20
0
  0
LINE
  5
251
100
AcDbEntity
  8
0
  6
CONTINUOUS
 62
     7
100
AcDbLine
 10
366.2470703125
 20
141.5625915076789
 11
366.2470703125
 21
259.5625915977898
  0
INSERT
  5
252
100
AcDbEntity
  8
0
  6
CONTINUOUS
 62
     7
100
AcDbBlockReference
  2
_OPEN30
 10
366.2470703125
 20
138.5625915527344
 41
1
 42
1
 43
1
 50
270.0000000000005
  0
INSERT
  5
253
100
AcDbEntity
  8
0
  6
CONTINUOUS
 62
     7
100
AcDbBlockReference
  2
_OPEN30
 10
366.2470703125
 20
262.5625915527344
 41
1
 42
1
 43
1
 50
90.00000000000019
  0
LINE
  5
254
100
AcDbEntity
  8
0
  6
CONTINUOUS
 62
     7
100
AcDbLine
 10
322.84423828125
 20
138.5625915527344
 11
369.1040649414063
 21
138.5625915527344
  0
LINE
  5
255
100
AcDbEntity
  8
0
  6
CONTINUOUS
 62
     7
100
AcDbLine
 10
322.84423828125
 20
262.5625915527344
 11
369.1040649414063
 21
262.5625915527344
  0
MTEXT
  5
256
100
AcDbEntity
  8
0
  6
CONTINUOUS
 62
     7
100
AcDbMText
 10
366.2470703125
 20
200.5625915527344
 40
6
 41
72
 71
     8
 72
     1
  1
{\W0.855331;１２４}
 11
0
 21
1
  0
POINT
  5
257
100
AcDbEntity
  8
DEFPOINTS
  6
CONTINUOUS
 62
     7
100
AcDbPoint
 10
322.84423828125
 20
138.5625915527344
  0
POINT
  5
258
100
AcDbEntity
  8
DEFPOINTS
  6
CONTINUOUS
 62
     7
100
AcDbPoint
 10
322.84423828125
 20
262.5625915527344
  0
POINT
  5
259
100
AcDbEntity
  8
DEFPOINTS
  6
CONTINUOUS
 62
     7
100
AcDbPoint
 10
366.2470703125
 20
262.5625915527344
  0
ENDBLK
  8
0
  5
25a
100
AcDbEntity
100
AcDbBlockEnd
  0
BLOCK
  8
0
  5
25b
100
AcDbEntity
100
AcDbBlockBegin
  2
*D30
 70
    65
 10
0
 20
0
  0
LINE
  5
25c
100
AcDbEntity
  8
0
  6
CONTINUOUS
 62
     7
100
AcDbLine
 10
-231.3928796060052
 20
-243.1712118817246
 11
-217.1091789681333
 21
-225.0339858558335
  0
LINE
  5
25d
100
AcDbEntity
  8
0
  6
CONTINUOUS
 62
     7
100
AcDbLine
 10
-245.6231079101563
 20
-261.2405395507813
 11
-233.2489963134531
 21
-245.5280806727267
  0
INSERT
  5
25e
100
AcDbEntity
  8
0
  6
CONTINUOUS
 62
     7
100
AcDbBlockReference
  2
_OPEN
 10
-231.3928796060052
 20
-243.1712118817246
 41
1
 42
1
 43
1
 50
51.77832955172733
  0
MTEXT
  5
25f
100
AcDbEntity
  8
0
  6
CONTINUOUS
 62
     7
100
AcDbMText
 10
-222.1471438323277
 20
-231.4311170873661
 40
6
 41
72
 71
     8
 72
     1
  1
{\W0.855331;Ｒ２３}
 11
0.618408395357554
 21
0.7858568931754021
  0
POINT
  5
260
100
AcDbEntity
  8
DEFPOINTS
  6
CONTINUOUS
 62
     7
100
AcDbPoint
 10
-245.6231079101563
 20
-261.2405395507813
  0
POINT
  5
261
100
AcDbEntity
  8
DEFPOINTS
  6
CONTINUOUS
 62
     7
100
AcDbPoint
 10
-231.3928796060052
 20
-243.1712118817246
  0
ENDBLK
  8
0
  5
262
100
AcDbEntity
100
AcDbBlockEnd
  0
BLOCK
  8
0
  5
263
100
AcDbEntity
100
AcDbBlockBegin
  2
*D31
 70
    65
 10
0
 20
0
  0
LINE
  5
264
100
AcDbEntity
  8
0
  6
CONTINUOUS
 62
     7
100
AcDbLine
 10
-280.6230621788445
 20
-424.5177710035833
 11
-248.6231078651008
 21
-424.5177710035833
  0
INSERT
  5
265
100
AcDbEntity
  8
0
  6
CONTINUOUS
 62
     7
100
AcDbBlockReference
  2
_OPEN
 10
-283.6230621337891
 20
-424.5177710035833
 41
1
 42
1
 43
1
 50
180.0000000000004
  0
INSERT
  5
266
100
AcDbEntity
  8
0
  6
CONTINUOUS
 62
     7
100
AcDbBlockReference
  2
_OPEN
 10
-245.6231079101563
 20
-424.5177710035833
 41
1
 42
1
 43
1
  0
LINE
  5
267
100
AcDbEntity
  8
0
  6
CONTINUOUS
 62
     7
100
AcDbLine
 10
-283.6230621337891
 20
-406.4751892089844
 11
-283.6230621337891
 21
-426.8037710035833
  0
LINE
  5
268
100
AcDbEntity
  8
0
  6
CONTINUOUS
 62
     7
100
AcDbLine
 10
-245.6231079101563
 20
-401.4751892089844
 11
-245.6231079101563
 21
-426.8037710035833
  0
MTEXT
  5
269
100
AcDbEntity
  8
0
  6
CONTINUOUS
 62
     7
100
AcDbMText
 10
-264.6230850219727
 20
-424.5177710035833
 40
6
 41
48
 71
     8
 72
     1
  1
{\W0.864328;３８}
  0
POINT
  5
26a
100
AcDbEntity
  8
DEFPOINTS
  6
CONTINUOUS
 62
     7
100
AcDbPoint
 10
-283.6230621337891
 20
-406.4751892089844
  0
POINT
  5
26b
100
AcDbEntity
  8
DEFPOINTS
  6
CONTINUOUS
 62
     7
100
AcDbPoint
 10
-245.6231079101563
 20
-401.4751892089844
  0
POINT
  5
26c
100
AcDbEntity
  8
DEFPOINTS
  6
CONTINUOUS
 62
     7
100
AcDbPoint
 10
-245.6231079101563
 20
-424.5177710035833
  0
ENDBLK
  8
0
  5
26d
100
AcDbEntity
100
AcDbBlockEnd
  0
BLOCK
  8
0
  5
26e
100
AcDbEntity
100
AcDbBlockBegin
  2
*D32
 70
    65
 10
0
 20
0
  0
LINE
  5
26f
100
AcDbEntity
  8
0
  6
CONTINUOUS
 62
     7
100
AcDbLine
 10
-227.6231078651008
 20
-436.1344969403697
 11
-242.6231079552117
 21
-436.1344969403697
  0
INSERT
  5
270
100
AcDbEntity
  8
0
  6
CONTINUOUS
 62
     7
100
AcDbBlockReference
  2
_OPEN
 10
-224.6231079101563
 20
-436.1344969403697
 41
1
 42
1
 43
1
  0
INSERT
  5
271
100
AcDbEntity
  8
0
  6
CONTINUOUS
 62
     7
100
AcDbBlockReference
  2
_OPEN
 10
-245.6231079101563
 20
-436.1344969403697
 41
1
 42
1
 43
1
 50
180.0000000000004
  0
LINE
  5
272
100
AcDbEntity
  8
0
  6
CONTINUOUS
 62
     7
100
AcDbLine
 10
-224.6231079101563
 20
-401.4751892089844
 11
-224.6231079101563
 21
-438.4204969403697
  0
LINE
  5
273
100
AcDbEntity
  8
0
  6
CONTINUOUS
 62
     7
100
AcDbLine
 10
-245.6231079101563
 20
-401.4751892089844
 11
-245.6231079101563
 21
-438.4204969403697
  0
MTEXT
  5
274
100
AcDbEntity
  8
0
  6
CONTINUOUS
 62
     7
100
AcDbMText
 10
-235.1231079101563
 20
-436.1344969403697
 40
6
 41
48
 71
     8
 72
     1
  1
{\W0.864328;２１}
  0
POINT
  5
275
100
AcDbEntity
  8
DEFPOINTS
  6
CONTINUOUS
 62
     7
100
AcDbPoint
 10
-224.6231079101563
 20
-401.4751892089844
  0
POINT
  5
276
100
AcDbEntity
  8
DEFPOINTS
  6
CONTINUOUS
 62
     7
100
AcDbPoint
 10
-245.6231079101563
 20
-401.4751892089844
  0
POINT
  5
277
100
AcDbEntity
  8
DEFPOINTS
  6
CONTINUOUS
 62
     7
100
AcDbPoint
 10
-245.6231079101563
 20
-436.1344969403697
  0
ENDBLK
  8
0
  5
278
100
AcDbEntity
100
AcDbBlockEnd
  0
BLOCK
  8
0
  5
279
100
AcDbEntity
100
AcDbBlockBegin
  2
*D33
 70
    65
 10
0
 20
0
  0
LINE
  5
27a
100
AcDbEntity
  8
0
  6
CONTINUOUS
 62
     7
100
AcDbLine
 10
-248.6231078651008
 20
-436.1344969403697
 11
-325.6230621788445
 21
-436.1344969403697
  0
INSERT
  5
27b
100
AcDbEntity
  8
0
  6
CONTINUOUS
 62
     7
100
AcDbBlockReference
  2
_OPEN
 10
-245.6231079101563
 20
-436.1344969403697
 41
1
 42
1
 43
1
  0
INSERT
  5
27c
100
AcDbEntity
  8
0
  6
CONTINUOUS
 62
     7
100
AcDbBlockReference
  2
_OPEN
 10
-328.6230621337891
 20
-436.1344969403697
 41
1
 42
1
 43
1
 50
180.0000000000004
  0
LINE
  5
27d
100
AcDbEntity
  8
0
  6
CONTINUOUS
 62
     7
100
AcDbLine
 10
-328.6230621337891
 20
-404.4751892089844
 11
-328.6230621337891
 21
-438.4204969403697
  0
MTEXT
  5
27e
100
AcDbEntity
  8
0
  6
CONTINUOUS
 62
     7
100
AcDbMText
 10
-287.1230850219727
 20
-436.1344969403697
 40
6
 41
48
 71
     8
 72
     1
  1
{\W0.864328;８３}
  0
POINT
  5
27f
100
AcDbEntity
  8
DEFPOINTS
  6
CONTINUOUS
 62
     7
100
AcDbPoint
 10
-245.6231079101563
 20
-401.4751892089844
  0
POINT
  5
280
100
AcDbEntity
  8
DEFPOINTS
  6
CONTINUOUS
 62
     7
100
AcDbPoint
 10
-328.6230621337891
 20
-404.4751892089844
  0
POINT
  5
281
100
AcDbEntity
  8
DEFPOINTS
  6
CONTINUOUS
 62
     7
100
AcDbPoint
 10
-328.6230621337891
 20
-436.1344969403697
  0
ENDBLK
  8
0
  5
282
100
AcDbEntity
100
AcDbBlockEnd
  0
BLOCK
  8
0
  5
283
100
AcDbEntity
100
AcDbBlockBegin
  2
*D34
 70
    65
 10
0
 20
0
  0
LINE
  5
284
100
AcDbEntity
  8
0
  6
CONTINUOUS
 62
     7
100
AcDbLine
 10
-331.6230620887336
 20
-436.1344969403697
 11
-339.623184249157
 21
-436.1344969403697
  0
INSERT
  5
285
100
AcDbEntity
  8
0
  6
CONTINUOUS
 62
     7
100
AcDbBlockReference
  2
_OPEN
 10
-328.6230621337891
 20
-436.1344969403697
 41
1
 42
1
 43
1
  0
INSERT
  5
286
100
AcDbEntity
  8
0
  6
CONTINUOUS
 62
     7
100
AcDbBlockReference
  2
_OPEN
 10
-342.6231842041016
 20
-436.1344969403697
 41
1
 42
1
 43
1
 50
180.0000000000004
  0
LINE
  5
287
100
AcDbEntity
  8
0
  6
CONTINUOUS
 62
     7
100
AcDbLine
 10
-342.6231842041016
 20
-404.4751892089844
 11
-342.6231842041016
 21
-438.4204969403697
  0
MTEXT
  5
288
100
AcDbEntity
  8
0
  6
CONTINUOUS
 62
     7
100
AcDbMText
 10
-335.6231231689453
 20
-436.1344969403697
 40
6
 41
48
 71
     8
 72
     1
  1
{\W0.864328;１４}
  0
POINT
  5
289
100
AcDbEntity
  8
DEFPOINTS
  6
CONTINUOUS
 62
     7
100
AcDbPoint
 10
-328.6230621337891
 20
-404.4751892089844
  0
POINT
  5
28a
100
AcDbEntity
  8
DEFPOINTS
  6
CONTINUOUS
 62
     7
100
AcDbPoint
 10
-342.6231842041016
 20
-404.4751892089844
  0
POINT
  5
28b
100
AcDbEntity
  8
DEFPOINTS
  6
CONTINUOUS
 62
     7
100
AcDbPoint
 10
-342.6231842041016
 20
-436.1344969403697
  0
ENDBLK
  8
0
  5
28c
100
AcDbEntity
100
AcDbBlockEnd
  0
BLOCK
  8
0
  5
28d
100
AcDbEntity
100
AcDbBlockBegin
  2
*D35
 70
    65
 10
0
 20
0
  0
LINE
  5
28e
100
AcDbEntity
  8
0
  6
CONTINUOUS
 62
     7
100
AcDbLine
 10
-0.6231098955256726
 20
-241.2405242919922
 11
-0.6231098955256726
 21
-215.8863543998027
  0
LINE
  5
28f
100
AcDbEntity
  8
0
  6
CONTINUOUS
 62
     7
100
AcDbLine
 10
-0.6231098955256818
 20
-278.2405243370477
 11
-0.6231098955256466
 21
-244.2405242469367
  0
INSERT
  5
290
100
AcDbEntity
  8
0
  6
CONTINUOUS
 62
     7
100
AcDbBlockReference
  2
_OPEN
 10
-0.6231098955256726
 20
-281.2405242919922
 41
1
 42
1
 43
1
 50
270.0000000000005
  0
INSERT
  5
291
100
AcDbEntity
  8
0
  6
CONTINUOUS
 62
     7
100
AcDbBlockReference
  2
_OPEN
 10
-0.6231098955256726
 20
-241.2405242919922
 41
1
 42
1
 43
1
 50
90.00000000000019
  0
LINE
  5
292
100
AcDbEntity
  8
0
  6
CONTINUOUS
 62
     7
100
AcDbLine
 10
-11.61148071289063
 20
-281.2405242919922
 11
1.662890104474327
 21
-281.2405242919922
  0
LINE
  5
293
100
AcDbEntity
  8
0
  6
CONTINUOUS
 62
     7
100
AcDbLine
 10
-11.61148071289063
 20
-241.2405242919922
 11
1.662890104474327
 21
-241.2405242919922
  0
MTEXT
  5
294
100
AcDbEntity
  8
0
  6
CONTINUOUS
 62
     7
100
AcDbMText
 10
-0.6231098955256726
 20
-224.0291044245983
 40
6
 41
132
 71
     8
 72
     1
  1
{\W0.855331;\U+2205４０}
 11
0
 21
1
  0
POINT
  5
295
100
AcDbEntity
  8
DEFPOINTS
  6
CONTINUOUS
 62
     7
100
AcDbPoint
 10
-11.61148071289063
 20
-281.2405242919922
  0
POINT
  5
296
100
AcDbEntity
  8
DEFPOINTS
  6
CONTINUOUS
 62
     7
100
AcDbPoint
 10
-11.61148071289063
 20
-241.2405242919922
  0
POINT
  5
297
100
AcDbEntity
  8
DEFPOINTS
  6
CONTINUOUS
 62
     7
100
AcDbPoint
 10
-0.6231098955256726
 20
-241.2405242919922
  0
ENDBLK
  8
0
  5
298
100
AcDbEntity
100
AcDbBlockEnd
  0
BLOCK
  8
0
  5
299
100
AcDbEntity
100
AcDbBlockBegin
  2
*D36
 70
    65
 10
0
 20
0
  0
LINE
  5
29a
100
AcDbEntity
  8
0
  6
CONTINUOUS
 62
     7
100
AcDbLine
 10
131.4258026615582
 20
-412.9751892540398
 11
131.4258026615583
 21
-359.9751891639289
  0
INSERT
  5
29b
100
AcDbEntity
  8
0
  6
CONTINUOUS
 62
     7
100
AcDbBlockReference
  2
_OPEN
 10
131.4258026615582
 20
-415.9751892089844
 41
1
 42
1
 43
1
 50
270.0000000000005
  0
INSERT
  5
29c
100
AcDbEntity
  8
0
  6
CONTINUOUS
 62
     7
100
AcDbBlockReference
  2
_OPEN
 10
131.4258026615582
 20
-356.9751892089844
 41
1
 42
1
 43
1
 50
90.00000000000019
  0
LINE
  5
29d
100
AcDbEntity
  8
0
  6
CONTINUOUS
 62
     7
100
AcDbLine
 10
88.38842778856051
 20
-415.9751892089844
 11
133.7118026615582
 21
-415.9751892089844
  0
LINE
  5
29e
100
AcDbEntity
  8
0
  6
CONTINUOUS
 62
     7
100
AcDbLine
 10
88.38857407651027
 20
-356.9751892089844
 11
133.7118026615582
 21
-356.9751892089844
  0
MTEXT
  5
29f
100
AcDbEntity
  8
0
  6
CONTINUOUS
 62
     7
100
AcDbMText
 10
131.4258026615582
 20
-386.4751892089844
 40
6
 41
48
 71
     8
 72
     1
  1
{\W0.864328;５９}
 11
0
 21
1
  0
POINT
  5
2a0
100
AcDbEntity
  8
DEFPOINTS
  6
CONTINUOUS
 62
     7
100
AcDbPoint
 10
88.38842778856051
 20
-415.9751892089844
  0
POINT
  5
2a1
100
AcDbEntity
  8
DEFPOINTS
  6
CONTINUOUS
 62
     7
100
AcDbPoint
 10
88.38857407651027
 20
-356.9751892089844
  0
POINT
  5
2a2
100
AcDbEntity
  8
DEFPOINTS
  6
CONTINUOUS
 62
     7
100
AcDbPoint
 10
131.4258026615582
 20
-356.9751892089844
  0
ENDBLK
  8
0
  5
2a3
100
AcDbEntity
100
AcDbBlockEnd
  0
BLOCK
  8
0
  5
2a4
100
AcDbEntity
100
AcDbBlockBegin
  2
*D37
 70
    65
 10
0
 20
0
  0
LINE
  5
2a5
100
AcDbEntity
  8
0
  6
CONTINUOUS
 62
     7
100
AcDbLine
 10
144.76682681681
 20
-426.9751587364617
 11
144.76682681681
 21
-345.9751891639289
  0
INSERT
  5
2a6
100
AcDbEntity
  8
0
  6
CONTINUOUS
 62
     7
100
AcDbBlockReference
  2
_OPEN
 10
144.76682681681
 20
-429.9751586914063
 41
1
 42
1
 43
1
 50
270.0000000000005
  0
INSERT
  5
2a7
100
AcDbEntity
  8
0
  6
CONTINUOUS
 62
     7
100
AcDbBlockReference
  2
_OPEN
 10
144.76682681681
 20
-342.9751892089844
 41
1
 42
1
 43
1
 50
90.00000000000019
  0
LINE
  5
2a8
100
AcDbEntity
  8
0
  6
CONTINUOUS
 62
     7
100
AcDbLine
 10
78.38868244903436
 20
-429.9751586914063
 11
147.05282681681
 21
-429.9751586914063
  0
LINE
  5
2a9
100
AcDbEntity
  8
0
  6
CONTINUOUS
 62
     7
100
AcDbLine
 10
78.38855079761298
 20
-342.9751892089844
 11
147.05282681681
 21
-342.9751892089844
  0
MTEXT
  5
2aa
100
AcDbEntity
  8
0
  6
CONTINUOUS
 62
     7
100
AcDbMText
 10
144.76682681681
 20
-386.4751739501953
 40
6
 41
48
 71
     8
 72
     1
  1
{\W0.864328;８７}
 11
0
 21
1
  0
POINT
  5
2ab
100
AcDbEntity
  8
DEFPOINTS
  6
CONTINUOUS
 62
     7
100
AcDbPoint
 10
78.38868244903436
 20
-429.9751586914063
  0
POINT
  5
2ac
100
AcDbEntity
  8
DEFPOINTS
  6
CONTINUOUS
 62
     7
100
AcDbPoint
 10
78.38855079761298
 20
-342.9751892089844
  0
POINT
  5
2ad
100
AcDbEntity
  8
DEFPOINTS
  6
CONTINUOUS
 62
     7
100
AcDbPoint
 10
144.76682681681
 20
-342.9751892089844
  0
ENDBLK
  8
0
  5
2ae
100
AcDbEntity
100
AcDbBlockEnd
  0
BLOCK
  8
0
  5
2af
100
AcDbEntity
100
AcDbBlockBegin
  2
*D38
 70
    65
 10
0
 20
0
  0
LINE
  5
2b0
100
AcDbEntity
  8
0
  6
CONTINUOUS
 62
     7
100
AcDbLine
 10
-295.7307587120477
 20
84.78023251248214
 11
-283.7307586219367
 21
84.78023251248213
  0
INSERT
  5
2b1
100
AcDbEntity
  8
0
  6
CONTINUOUS
 62
     7
100
AcDbBlockReference
  2
_OPEN
 10
-298.7307586669922
 20
84.78023251248214
 41
1
 42
1
 43
1
 50
180.0000000000004
  0
INSERT
  5
2b2
100
AcDbEntity
  8
0
  6
CONTINUOUS
 62
     7
100
AcDbBlockReference
  2
_OPEN
 10
-280.7307586669922
 20
84.78023251248214
 41
1
 42
1
 43
1
  0
LINE
  5
2b3
100
AcDbEntity
  8
0
  6
CONTINUOUS
 62
     7
100
AcDbLine
 10
-298.7307586669922
 20
138.5626220703125
 11
-298.7307586669922
 21
82.49423251248214
  0
LINE
  5
2b4
100
AcDbEntity
  8
0
  6
CONTINUOUS
 62
     7
100
AcDbLine
 10
-280.7307586669922
 20
138.5626220703125
 11
-280.7307586669922
 21
82.49423251248214
  0
MTEXT
  5
2b5
100
AcDbEntity
  8
0
  6
CONTINUOUS
 62
     7
100
AcDbMText
 10
-289.7307586669922
 20
84.78023251248214
 40
6
 41
48
 71
     8
 72
     1
  1
{\W0.864328;１８}
  0
POINT
  5
2b6
100
AcDbEntity
  8
DEFPOINTS
  6
CONTINUOUS
 62
     7
100
AcDbPoint
 10
-298.7307586669922
 20
138.5626220703125
  0
POINT
  5
2b7
100
AcDbEntity
  8
DEFPOINTS
  6
CONTINUOUS
 62
     7
100
AcDbPoint
 10
-280.7307586669922
 20
138.5626220703125
  0
POINT
  5
2b8
100
AcDbEntity
  8
DEFPOINTS
  6
CONTINUOUS
 62
     7
100
AcDbPoint
 10
-280.7307586669922
 20
84.78023251248214
  0
ENDBLK
  8
0
  5
2b9
100
AcDbEntity
100
AcDbBlockEnd
  0
BLOCK
  8
0
  5
2ba
100
AcDbEntity
100
AcDbBlockBegin
  2
*D39
 70
    65
 10
0
 20
0
  0
LINE
  5
2bb
100
AcDbEntity
  8
0
  6
CONTINUOUS
 62
     7
100
AcDbLine
 10
-277.7307587120477
 20
84.78023251248214
 11
64.26927952503596
 21
84.78023251248213
  0
INSERT
  5
2bc
100
AcDbEntity
  8
0
  6
CONTINUOUS
 62
     7
100
AcDbBlockReference
  2
_OPEN
 10
-280.7307586669922
 20
84.78023251248214
 41
1
 42
1
 43
1
 50
180.0000000000004
  0
INSERT
  5
2bd
100
AcDbEntity
  8
0
  6
CONTINUOUS
 62
     7
100
AcDbBlockReference
  2
_OPEN
 10
67.26927947998047
 20
84.78023251248214
 41
1
 42
1
 43
1
  0
LINE
  5
2be
100
AcDbEntity
  8
0
  6
CONTINUOUS
 62
     7
100
AcDbLine
 10
67.26927947998047
 20
189.0626253364455
 11
67.26927947998047
 21
82.49423251248214
  0
MTEXT
  5
2bf
100
AcDbEntity
  8
0
  6
CONTINUOUS
 62
     7
100
AcDbMText
 10
-106.7307395935059
 20
84.78023251248214
 40
6
 41
216
 71
     8
 72
     1
  1
{\W0.84495;１９８＋ストロ－ク}
  0
POINT
  5
2c0
100
AcDbEntity
  8
DEFPOINTS
  6
CONTINUOUS
 62
     7
100
AcDbPoint
 10
-280.7307586669922
 20
138.5626220703125
  0
POINT
  5
2c1
100
AcDbEntity
  8
DEFPOINTS
  6
CONTINUOUS
 62
     7
100
AcDbPoint
 10
67.26927947998047
 20
189.0626253364455
  0
POINT
  5
2c2
100
AcDbEntity
  8
DEFPOINTS
  6
CONTINUOUS
 62
     7
100
AcDbPoint
 10
67.26927947998047
 20
84.78023251248214
  0
ENDBLK
  8
0
  5
2c3
100
AcDbEntity
100
AcDbBlockEnd
  0
BLOCK
  8
0
  5
2c4
100
AcDbEntity
100
AcDbBlockBegin
  2
KOZU0001
 70
    64
 10
0
 20
0
  0
POINT
  5
2c5
100
AcDbEntity
  8
0
  6
CONTINUOUS
 62
     7
100
AcDbPoint
 10
0
 20
0
  0
LINE
  5
2c6
100
AcDbEntity
  8
0
  6
CONTINUOUS
 62
   190
100
AcDbLine
 10
72.00013947576039
 20
11.50008422291221
 11
70.50015389455754
 21
13.00008029861592
  0
LINE
  5
2c7
100
AcDbEntity
  8
0
  6
CONTINUOUS
 62
   190
100
AcDbLine
 10
72.00003814697266
 20
11.5
 11
72.00003814697266
 21
-11.5
  0
LINE
  5
2c8
100
AcDbEntity
  8
0
  6
CONTINUOUS
 62
   190
100
AcDbLine
 10
59.00003051757813
 20
-13
 11
70.50003051757813
 21
-13
  0
LINE
  5
2c9
100
AcDbEntity
  8
0
  6
CONTINUOUS
 62
     7
100
AcDbLine
 10
59.00003051757813
 20
-12.18801879882813
 11
71.31204223632813
 21
-12.18801879882813
  0
LINE
  5
2ca
100
AcDbEntity
  8
0
  6
CONTINUOUS
 62
   190
100
AcDbLine
 10
70.50003051757813
 20
13
 11
70.50003051757813
 21
-13
  0
LINE
  5
2cb
100
AcDbEntity
  8
0
  6
CONTINUOUS
 62
   190
100
AcDbLine
 10
72.00002888215627
 20
-11.50000599874825
 11
70.50006488006434
 21
-12.99998049519004
  0
LINE
  5
2cc
100
AcDbEntity
  8
0
  6
CONTINUOUS
 62
   190
100
AcDbLine
 10
58.99998474121094
 20
13
 11
70.50003051757813
 21
13
  0
LINE
  5
2cd
100
AcDbEntity
  8
0
  6
CONTINUOUS
 62
     7
100
AcDbLine
 10
58.99998474121094
 20
12.18798828125
 11
71.31204223632813
 21
12.18798828125
  0
LINE
  5
2ce
100
AcDbEntity
  8
0
  6
CONTINUOUS
 62
     7
100
AcDbLine
 10
56.81494076820909
 20
20.78459223793822
 11
58.99998413258328
 21
16.99998618202788
  0
LINE
  5
2cf
100
AcDbEntity
  8
0
  6
CONTINUOUS
 62
     7
100
AcDbLine
 10
47.18502807617188
 20
20.78460693359375
 11
56.81493377685547
 21
20.78460693359375
  0
LINE
  5
2d0
100
AcDbEntity
  8
0
  6
CONTINUOUS
 62
     7
100
AcDbLine
 10
47.18502418638951
 20
20.78459404381
 11
44.99998082201532
 21
16.99998798789967
  0
LINE
  5
2d1
100
AcDbEntity
  8
0
  6
CONTINUOUS
 62
     7
100
AcDbLine
 10
44.99998474121094
 20
-17
 11
44.99998474121094
 21
17
  0
LINE
  5
2d2
100
AcDbEntity
  8
0
  6
CONTINUOUS
 62
     7
100
AcDbLine
 10
47.18502807617188
 20
10.39230346679688
 11
56.81493377685547
 21
10.39230346679688
  0
LINE
  5
2d3
100
AcDbEntity
  8
0
  6
CONTINUOUS
 62
     7
100
AcDbLine
 10
58.99998474121094
 20
-17
 11
58.99998474121094
 21
17
  0
LINE
  5
2d4
100
AcDbEntity
  8
0
  6
CONTINUOUS
 62
     7
100
AcDbLine
 10
47.18502807617188
 20
-10.39230346679688
 11
56.81493377685547
 21
-10.39230346679688
  0
LINE
  5
2d5
100
AcDbEntity
  8
0
  6
CONTINUOUS
 62
     7
100
AcDbLine
 10
47.18502127524279
 20
-20.78463096322543
 11
44.99997791086861
 21
-17.00002490731509
  0
LINE
  5
2d6
100
AcDbEntity
  8
0
  6
CONTINUOUS
 62
     7
100
AcDbLine
 10
47.18502807617188
 20
-20.78460693359375
 11
56.81493377685547
 21
-20.78460693359375
  0
LINE
  5
2d7
100
AcDbEntity
  8
0
  6
CONTINUOUS
 62
     7
100
AcDbLine
 10
56.81495296056281
 20
-20.78461689652907
 11
58.99999632493699
 21
-17.00001084061873
  0
LINE
  5
2d8
100
AcDbEntity
  8
0
  6
CONTINUOUS
 62
   190
100
AcDbLine
 10
32.00003051757813
 20
-13
 11
45.00003051757813
 21
-13
  0
LINE
  5
2d9
100
AcDbEntity
  8
0
  6
CONTINUOUS
 62
     7
100
AcDbLine
 10
35.00003433227539
 20
-12.18801879882813
 11
45.00003051757813
 21
-12.18801879882813
  0
LINE
  5
2da
100
AcDbEntity
  8
0
  6
CONTINUOUS
 62
     7
100
AcDbLine
 10
33.59356659959791
 20
-12.9999879650385
 11
35.00000553925399
 21
-12.18798005005519
  0
LINE
  5
2db
100
AcDbEntity
  8
0
  6
CONTINUOUS
 62
   190
100
AcDbLine
 10
35.00002288818359
 20
13
 11
35.00002288818359
 21
-13
  0
LINE
  5
2dc
100
AcDbEntity
  8
0
  6
CONTINUOUS
 62
   190
100
AcDbLine
 10
32.00003051757813
 20
13
 11
44.99998474121094
 21
13
  0
LINE
  5
2dd
100
AcDbEntity
  8
0
  6
CONTINUOUS
 62
     7
100
AcDbLine
 10
35.00003433227539
 20
12.18798828125
 11
44.99998474121094
 21
12.18798828125
  0
LINE
  5
2de
100
AcDbEntity
  8
0
  6
CONTINUOUS
 62
     7
100
AcDbLine
 10
33.59356653112706
 20
12.99997258765465
 11
34.99999886353368
 21
12.18796848736865
  0
LINE
  5
2df
100
AcDbEntity
  8
0
  6
CONTINUOUS
 62
   190
100
AcDbLine
 10
28.53590269750731
 20
14.99991267338859
 11
32.00001090435089
 21
12.99990883176892
  0
LINE
  5
2e0
100
AcDbEntity
  8
0
  6
CONTINUOUS
 62
   190
100
AcDbLine
 10
15
 20
15
 11
28.53593444824219
 21
15
  0
LINE
  5
2e1
100
AcDbEntity
  8
0
  6
CONTINUOUS
 62
   190
100
AcDbLine
 10
28.53594207763672
 20
15
 11
28.53594207763672
 21
6.538345336914063
  0
LINE
  5
2e2
100
AcDbEntity
  8
0
  6
CONTINUOUS
 62
   190
100
AcDbLine
 10
32.00003051757813
 20
13
 11
32.00003051757813
 21
-13
  0
LINE
  5
2e3
100
AcDbEntity
  8
0
  6
CONTINUOUS
 62
   190
100
AcDbLine
 10
19.00003051757813
 20
6.538330078125
 11
32.00003051757813
 21
6.538330078125
  0
LINE
  5
2e4
100
AcDbEntity
  8
0
  6
CONTINUOUS
 62
     7
100
AcDbLine
 10
19.00005351260213
 20
6.538368873717295
 11
32.00005227927884
 21
-6.538326362111784
  0
LINE
  5
2e5
100
AcDbEntity
  8
0
  6
CONTINUOUS
 62
   190
100
AcDbLine
 10
19.00003051757813
 20
6.538345336914063
 11
19.00003051757813
 21
-6.538345336914063
  0
LINE
  5
2e6
100
AcDbEntity
  8
0
  6
CONTINUOUS
 62
   190
100
AcDbLine
 10
19.00003051757813
 20
-6.538360595703125
 11
32.00003051757813
 21
-6.538360595703125
  0
LINE
  5
2e7
100
AcDbEntity
  8
0
  6
CONTINUOUS
 62
     7
100
AcDbLine
 10
19.00004668583355
 20
-6.538340570991404
 11
32.00004545251026
 21
6.538354664837675
  0
LINE
  5
2e8
100
AcDbEntity
  8
0
  6
CONTINUOUS
 62
   190
100
AcDbLine
 10
28.53594207763672
 20
-6.538345336914063
 11
28.53594207763672
 21
-15
  0
LINE
  5
2e9
100
AcDbEntity
  8
0
  6
CONTINUOUS
 62
   190
100
AcDbLine
 10
28.53593641846311
 20
-15.00004737374055
 11
32.00005123255614
 21
-13.00003971742356
  0
LINE
  5
2ea
100
AcDbEntity
  8
0
  6
CONTINUOUS
 62
   190
100
AcDbLine
 10
15.00003051757813
 20
-15
 11
28.53593444824219
 21
-15
  0
LINE
  5
2eb
100
AcDbEntity
  8
0
  6
CONTINUOUS
 62
     7
100
AcDbLine
 10
14.9999921463213
 20
-24.44997936371165
 11
13.96192516398544
 21
-25.4880459085351
  0
LINE
  5
2ec
100
AcDbEntity
  8
0
  6
CONTINUOUS
 62
     7
100
AcDbLine
 10
15
 20
24.41119384765625
 11
15
 21
-24.45002746582031
  0
LINE
  5
2ed
100
AcDbEntity
  8
0
  6
CONTINUOUS
 62
     7
100
AcDbLine
 10
14
 20
25.48666381835938
 11
14
 21
-25.48666381835938
  0
LINE
  5
2ee
100
AcDbEntity
  8
0
  6
CONTINUOUS
 62
     7
100
AcDbLine
 10
13.96193869621265
 20
-25.48806944849797
 11
5.308996433028845e-006
 21
-26.00000984711283
  0
LINE
  5
2ef
100
AcDbEntity
  8
0
  6
CONTINUOUS
 62
     7
100
AcDbLine
 10
14.00069845772465
 20
25.4866521181538
 11
15.00003072142505
 21
24.4112451077503
  0
LINE
  5
2f0
100
AcDbEntity
  8
0
  6
CONTINUOUS
 62
     7
100
AcDbLine
 10
-2.308934186623368e-006
 20
25.99994523300563
 11
14.00066761660513
 21
25.48658448676984
  0
LINE
  5
2f1
100
AcDbEntity
  8
0
  6
CENTER
 62
     3
100
AcDbLine
 10
-300.1448669433594
 20
0
 11
77.36559295654297
 21
0
  0
LINE
  5
2f2
100
AcDbEntity
  8
0
  6
CONTINUOUS
 62
     7
100
AcDbLine
 10
0
 20
58.30001831054688
 11
0
 21
-58.30000305175781
  0
LINE
  5
2f3
100
AcDbEntity
  8
0
  6
CONTINUOUS
 62
     7
100
AcDbLine
 10
-0.7000007629394531
 20
-59
 11
-36.30000305175781
 21
-59
  0
LINE
  5
2f4
100
AcDbEntity
  8
0
  6
CONTINUOUS
 62
     7
100
AcDbLine
 10
-37
 20
58.30001831054688
 11
-37
 21
-58.30000305175781
  0
LINE
  5
2f5
100
AcDbEntity
  8
0
  6
CONTINUOUS
 62
     7
100
AcDbLine
 10
-37
 20
-54.5
 11
-37.5
 21
-54.5
  0
LINE
  5
2f6
100
AcDbEntity
  8
0
  6
CONTINUOUS
 62
     7
100
AcDbLine
 10
-37.5
 20
-50.43499755859375
 11
-37.5
 21
-54.49998474121094
  0
LINE
  5
2f7
100
AcDbEntity
  8
0
  6
CONTINUOUS
 62
   134
100
AcDbLine
 10
-37.80000305160077
 20
-53.19999358587538
 11
-37.50000900813709
 21
-52.90001071932598
  0
LINE
  5
2f8
100
AcDbEntity
  8
0
  6
CONTINUOUS
 62
   104
100
AcDbLine
 10
-238.2000274658203
 20
-53.20001220703125
 11
-37.80002593994141
 21
-53.20001220703125
  0
LINE
  5
2f9
100
AcDbEntity
  8
0
  6
CONTINUOUS
 62
     7
100
AcDbLine
 10
-239.0000457763672
 20
-50.43499755859375
 11
-37.00000381469727
 21
-50.43499755859375
  0
LINE
  5
2fa
100
AcDbEntity
  8
0
  6
CENTER
 62
     3
100
AcDbLine
 10
-239.0000457763672
 20
-45
 11
-37
 21
-45
  0
LINE
  5
2fb
100
AcDbEntity
  8
0
  6
CONTINUOUS
 62
     7
100
AcDbLine
 10
-239.0000457763672
 20
-39.56500244140625
 11
-37.00000381469727
 21
-39.56500244140625
  0
LINE
  5
2fc
100
AcDbEntity
  8
0
  6
CONTINUOUS
 62
     7
100
AcDbLine
 10
-37.5
 20
39.56500244140625
 11
-37.5
 21
-39.56500244140625
  0
LINE
  5
2fd
100
AcDbEntity
  8
0
  6
CONTINUOUS
 62
     7
100
AcDbLine
 10
-0.7000007629394531
 20
59
 11
-36.30000305175781
 21
59
  0
LINE
  5
2fe
100
AcDbEntity
  8
0
  6
CONTINUOUS
 62
     7
100
AcDbLine
 10
-3.5
 20
59.30001831054688
 11
-3.5
 21
59
  0
LINE
  5
2ff
100
AcDbEntity
  8
0
  6
CONTINUOUS
 62
     7
100
AcDbLine
 10
-3.5
 20
59.29998779296875
 11
-33.5
 21
59.29998779296875
  0
LINE
  5
300
100
AcDbEntity
  8
0
  6
DASHED
 62
     7
100
AcDbLine
 10
-4.800003051757813
 20
59.29998779296875
 11
-4.800003051757813
 21
57.79998779296875
  0
LINE
  5
301
100
AcDbEntity
  8
0
  6
DASHED
 62
     7
100
AcDbLine
 10
-4.800004959106445
 20
57.79998779296875
 11
-32.19999694824219
 21
57.79998779296875
  0
LINE
  5
302
100
AcDbEntity
  8
0
  6
DASHED
 62
     7
100
AcDbLine
 10
-9.249958727442266
 20
56.19994571398523
 11
-7.649948369841628
 21
57.79995607158587
  0
LINE
  5
303
100
AcDbEntity
  8
0
  6
DASHED
 62
     7
100
AcDbLine
 10
-8.26745268663405
 20
44.29996356052873
 11
-7.747028887809018
 21
57.70294955009004
  0
LINE
  5
304
100
AcDbEntity
  8
0
  6
DASHED
 62
     7
100
AcDbLine
 10
-9.665211050099636
 20
44.29998231051025
 11
-9.249992224903448
 21
56.20002816170348
  0
LINE
  5
305
100
AcDbEntity
  8
0
  6
DASHED
 62
     7
100
AcDbLine
 10
-9.250000953674316
 20
56.19998168945313
 11
-27.75000381469727
 21
56.19998168945313
  0
LINE
  5
306
100
AcDbEntity
  8
0
  6
CENTER
 62
     3
100
AcDbLine
 10
-18.5
 20
62.20382690429688
 11
-18.5
 21
44
  0
LINE
  5
307
100
AcDbEntity
  8
0
  6
DASHED
 62
     7
100
AcDbLine
 10
-32.19999694824219
 20
59.29998779296875
 11
-32.19999694824219
 21
57.79998779296875
  0
LINE
  5
308
100
AcDbEntity
  8
0
  6
CONTINUOUS
 62
     7
100
AcDbLine
 10
-33.5
 20
59.30001831054688
 11
-33.5
 21
59
  0
LINE
  5
309
100
AcDbEntity
  8
0
  6
DASHED
 62
     7
100
AcDbLine
 10
-27.75006904630559
 20
56.19995785227759
 11
-29.35005782471979
 21
57.79994663069179
  0
LINE
  5
30a
100
AcDbEntity
  8
0
  6
DASHED
 62
     7
100
AcDbLine
 10
-28.7325593787616
 20
44.29998197310869
 11
-29.25298312769422
 21
57.70296796460727
  0
LINE
  5
30b
100
AcDbEntity
  8
0
  6
DASHED
 62
     7
100
AcDbLine
 10
-27.75000951937711
 20
56.19997808542492
 11
-27.33479175835887
 21
44.29996273324971
  0
LINE
  5
30c
100
AcDbEntity
  8
0
  6
CONTINUOUS
 62
     7
100
AcDbLine
 10
-37.5
 20
54.5
 11
-37.5
 21
50.43499755859375
  0
LINE
  5
30d
100
AcDbEntity
  8
0
  6
CONTINUOUS
 62
     7
100
AcDbLine
 10
-37
 20
54.5
 11
-37.5
 21
54.5
  0
LINE
  5
30e
100
AcDbEntity
  8
0
  6
CONTINUOUS
 62
   104
100
AcDbLine
 10
-37.8000246303852
 20
53.19997200628696
 11
-37.50002519202442
 21
52.89998374504144
  0
LINE
  5
30f
100
AcDbEntity
  8
0
  6
CONTINUOUS
 62
   104
100
AcDbLine
 10
-238.2000274658203
 20
53.19998168945313
 11
-37.80002593994141
 21
53.19998168945313
  0
LINE
  5
310
100
AcDbEntity
  8
0
  6
CONTINUOUS
 62
     7
100
AcDbLine
 10
-239.0000457763672
 20
50.43499755859375
 11
-37.00000381469727
 21
50.43499755859375
  0
LINE
  5
311
100
AcDbEntity
  8
0
  6
CENTER
 62
     3
100
AcDbLine
 10
-239.0000457763672
 20
45
 11
-37
 21
45
  0
LINE
  5
312
100
AcDbEntity
  8
0
  6
CONTINUOUS
 62
     7
100
AcDbLine
 10
-239.0000457763672
 20
39.56500244140625
 11
-37.00000381469727
 21
39.56500244140625
  0
LINE
  5
313
100
AcDbEntity
  8
0
  6
CONTINUOUS
 62
   134
100
AcDbLine
 10
-238.5000349511978
 20
-52.90001422983771
 11
-238.2000187508302
 21
-53.20002888755138
  0
LINE
  5
314
100
AcDbEntity
  8
0
  6
CONTINUOUS
 62
     7
100
AcDbLine
 10
-238.5000457763672
 20
-50.43499755859375
 11
-238.5000457763672
 21
-54.5
  0
LINE
  5
315
100
AcDbEntity
  8
0
  6
CONTINUOUS
 62
     7
100
AcDbLine
 10
-239.0000457763672
 20
-54.5
 11
-238.5000152587891
 21
-54.5
  0
LINE
  5
316
100
AcDbEntity
  8
0
  6
CONTINUOUS
 62
     7
100
AcDbLine
 10
-239.0000457763672
 20
58.30001831054688
 11
-239.0000457763672
 21
-58.30000305175781
  0
LINE
  5
317
100
AcDbEntity
  8
0
  6
CONTINUOUS
 62
     7
100
AcDbLine
 10
-275.2999877929688
 20
-59
 11
-239.7000274658203
 21
-59
  0
LINE
  5
318
100
AcDbEntity
  8
0
  6
CONTINUOUS
 62
     7
100
AcDbLine
 10
-276
 20
62
 11
-276
 21
-62
  0
LINE
  5
319
100
AcDbEntity
  8
0
  6
CONTINUOUS
 62
     7
100
AcDbLine
 10
-238.5000457763672
 20
39.56500244140625
 11
-238.5000457763672
 21
-39.56500244140625
  0
LINE
  5
31a
100
AcDbEntity
  8
0
  6
CONTINUOUS
 62
     7
100
AcDbLine
 10
-239.0000457763672
 20
54.5
 11
-238.5000152587891
 21
54.5
  0
LINE
  5
31b
100
AcDbEntity
  8
0
  6
CONTINUOUS
 62
     7
100
AcDbLine
 10
-238.5000457763672
 20
54.5
 11
-238.5000457763672
 21
50.43499755859375
  0
LINE
  5
31c
100
AcDbEntity
  8
0
  6
CONTINUOUS
 62
   134
100
AcDbLine
 10
-238.5001644262055
 20
52.90005738854346
 11
-238.2001698050798
 21
53.20005046712618
  0
LINE
  5
31d
100
AcDbEntity
  8
0
  6
CONTINUOUS
 62
     7
100
AcDbLine
 10
-275.2999877929688
 20
59
 11
-239.7000274658203
 21
59
  0
LINE
  5
31e
100
AcDbEntity
  8
0
  6
CONTINUOUS
 62
     7
100
AcDbLine
 10
-242.5000457763672
 20
59.30001831054688
 11
-242.5000457763672
 21
59
  0
LINE
  5
31f
100
AcDbEntity
  8
0
  6
CONTINUOUS
 62
     7
100
AcDbLine
 10
-272.5
 20
59.29998779296875
 11
-242.5000152587891
 21
59.29998779296875
  0
LINE
  5
320
100
AcDbEntity
  8
0
  6
DASHED
 62
     7
100
AcDbLine
 10
-243.8000335693359
 20
59.29998779296875
 11
-243.8000335693359
 21
57.79998779296875
  0
LINE
  5
321
100
AcDbEntity
  8
0
  6
CONTINUOUS
 62
     7
100
AcDbLine
 10
-272.5
 20
59.30001831054688
 11
-272.5
 21
59
  0
LINE
  5
322
100
AcDbEntity
  8
0
  6
DASHED
 62
     7
100
AcDbLine
 10
-271.2000122070313
 20
59.29998779296875
 11
-271.2000122070313
 21
57.79998779296875
  0
LINE
  5
323
100
AcDbEntity
  8
0
  6
DASHED
 62
     7
100
AcDbLine
 10
-271.2000122070313
 20
57.79998779296875
 11
-243.8000335693359
 21
57.79998779296875
  0
LINE
  5
324
100
AcDbEntity
  8
0
  6
DASHED
 62
     7
100
AcDbLine
 10
-267.7326199007586
 20
44.29993616303485
 11
-268.2530436995837
 21
57.70292215259617
  0
LINE
  5
325
100
AcDbEntity
  8
0
  6
DASHED
 62
     7
100
AcDbLine
 10
-266.75
 20
56.19998168945313
 11
-248.2500152587891
 21
56.19998168945313
  0
LINE
  5
326
100
AcDbEntity
  8
0
  6
DASHED
 62
     7
100
AcDbLine
 10
-266.3346625288453
 20
44.30000028732292
 11
-266.7498802898635
 21
56.20001563949813
  0
LINE
  5
327
100
AcDbEntity
  8
0
  6
DASHED
 62
     7
100
AcDbLine
 10
-266.7500557679819
 20
56.19999156975641
 11
-268.3500661255824
 21
57.80000192735704
  0
LINE
  5
328
100
AcDbEntity
  8
0
  6
DASHED
 62
     7
100
AcDbLine
 10
-248.2499602848092
 20
56.19992683219709
 11
-246.6499607168017
 21
57.79992640020451
  0
LINE
  5
329
100
AcDbEntity
  8
0
  6
DASHED
 62
     7
100
AcDbLine
 10
-247.2675042711056
 20
44.29999272587428
 11
-246.7470799301365
 21
57.70299396467217
  0
LINE
  5
32a
100
AcDbEntity
  8
0
  6
DASHED
 62
     7
100
AcDbLine
 10
-248.2499005870734
 20
56.20000718736172
 11
-248.6651178160027
 21
44.30000708469552
  0
LINE
  5
32b
100
AcDbEntity
  8
0
  6
CENTER
 62
     3
100
AcDbLine
 10
-257.5
 20
62.20382690429688
 11
-257.5
 21
44
  0
LINE
  5
32c
100
AcDbEntity
  8
0
  6
CONTINUOUS
 62
     7
100
AcDbLine
 10
-294
 20
62
 11
-294
 21
-62
  0
LINE
  5
32d
100
AcDbEntity
  8
0
  6
CONTINUOUS
 62
     7
100
AcDbLine
 10
-294
 20
62
 11
-276
 21
62
  0
LINE
  5
32e
100
AcDbEntity
  8
0
  6
CONTINUOUS
 62
     7
100
AcDbLine
 10
-294
 20
-62
 11
-276
 21
-62
  0
LINE
  5
32f
100
AcDbEntity
  8
0
  6
CENTER
 62
     3
100
AcDbLine
 10
-298.086669921875
 20
46
 11
-272.0163269042969
 21
46
  0
LINE
  5
330
100
AcDbEntity
  8
0
  6
DASHED
 62
     7
100
AcDbLine
 10
-294
 20
53
 11
-276
 21
53
  0
LINE
  5
331
100
AcDbEntity
  8
0
  6
DASHED
 62
     7
100
AcDbLine
 10
-294
 20
39
 11
-276
 21
39
  0
LINE
  5
332
100
AcDbEntity
  8
0
  6
DASHED
 62
     7
100
AcDbLine
 10
-294
 20
-39
 11
-276
 21
-39
  0
LINE
  5
333
100
AcDbEntity
  8
0
  6
CENTER
 62
     3
100
AcDbLine
 10
-298.086669921875
 20
-46
 11
-272.0163269042969
 21
-46
  0
LINE
  5
334
100
AcDbEntity
  8
0
  6
DASHED
 62
     7
100
AcDbLine
 10
-294
 20
-53
 11
-276
 21
-53
  0
ARC
  5
335
100
AcDbEntity
  8
0
  6
CONTINUOUS
 62
     7
100
AcDbCircle
 10
52.27085876464844
 20
15.58843994140625
 40
7.270877361297607
100
AcDbArc
 50
165.6147660130741
 51
225.6145764374301
  0
ARC
  5
336
100
AcDbEntity
  8
0
  6
CONTINUOUS
 62
     7
100
AcDbCircle
 10
51.72911071777344
 20
15.58843994140625
 40
7.270877361297607
100
AcDbArc
 50
314.385442231906
 51
14.38550025061802
  0
ARC
  5
337
100
AcDbEntity
  8
0
  6
CONTINUOUS
 62
     7
100
AcDbCircle
 10
33.19399261474609
 20
0
 40
25.80599784851074
100
AcDbArc
 50
336.2524158031069
 51
23.74763883840721
  0
ARC
  5
338
100
AcDbEntity
  8
0
  6
CONTINUOUS
 62
     7
100
AcDbCircle
 10
70.80597686767578
 20
0
 40
25.80599784851074
100
AcDbArc
 50
156.2523798309275
 51
203.7476028662292
  0
ARC
  5
339
100
AcDbEntity
  8
0
  6
CONTINUOUS
 62
     7
100
AcDbCircle
 10
51.72909545898438
 20
-15.58847045898438
 40
7.270890712738037
100
AcDbArc
 50
345.6145287776866
 51
45.61463973036478
  0
ARC
  5
33a
100
AcDbEntity
  8
0
  6
CONTINUOUS
 62
     7
100
AcDbCircle
 10
52.2708740234375
 20
-15.58847045898438
 40
7.270890712738037
100
AcDbArc
 50
134.3853789389699
 51
194.385312306731
  0
ARC
  5
33b
100
AcDbEntity
  8
0
  6
CONTINUOUS
 62
   190
100
AcDbCircle
 10
28.68753051757813
 20
0
 40
11.6875
100
AcDbArc
 50
145.9835455836501
 51
214.0164371135066
  0
ARC
  5
33c
100
AcDbEntity
  8
0
  6
CONTINUOUS
 62
     7
100
AcDbCircle
 10
-0.6999969482421875
 20
-58.30000305175781
 40
0.699999988079071
100
AcDbArc
 50
270.00001798609
 51
360
  0
ARC
  5
33d
100
AcDbEntity
  8
0
  6
CONTINUOUS
 62
     7
100
AcDbCircle
 10
-36.30000305175781
 20
-58.30000305175781
 40
0.699999988079071
100
AcDbArc
 50
179.9999813306651
 51
270.00001798609
  0
ARC
  5
33e
100
AcDbEntity
  8
0
  6
CONTINUOUS
 62
     7
100
AcDbCircle
 10
-0.6999969482421875
 20
58.30001831054688
 40
0.699999988079071
100
AcDbArc
 50
0
 51
89.99998201391065
  0
ARC
  5
33f
100
AcDbEntity
  8
0
  6
CONTINUOUS
 62
     7
100
AcDbCircle
 10
-36.30000305175781
 20
58.30001831054688
 40
0.699999988079071
100
AcDbArc
 50
89.99998201391077
 51
179.9999640278215
  0
ARC
  5
340
100
AcDbEntity
  8
0
  6
CONTINUOUS
 62
     7
100
AcDbCircle
 10
-239.7000579833984
 20
-58.30000305175781
 40
0.699999988079071
100
AcDbArc
 50
270.0000179860905
 51
360
  0
ARC
  5
341
100
AcDbEntity
  8
0
  6
CONTINUOUS
 62
     7
100
AcDbCircle
 10
-275.2999877929688
 20
-58.30000305175781
 40
0.699999988079071
100
AcDbArc
 50
179.9999813306651
 51
270.0000179860905
  0
ARC
  5
342
100
AcDbEntity
  8
0
  6
CONTINUOUS
 62
     7
100
AcDbCircle
 10
-239.7000579833984
 20
58.30001831054688
 40
0.699999988079071
100
AcDbArc
 50
0
 51
89.9999820139102
  0
ARC
  5
343
100
AcDbEntity
  8
0
  6
CONTINUOUS
 62
     7
100
AcDbCircle
 10
-275.2999877929688
 20
58.30001831054688
 40
0.699999988079071
100
AcDbArc
 50
89.9999820139102
 51
179.9999640278215
  0
MTEXT
  5
344
100
AcDbEntity
  8
0
  6
CONTINUOUS
 62
     7
100
AcDbMText
 10
-58.45356021821499
 20
-21.60000038146973
 40
0.5
 41
38
 71
     7
 72
     1
  1
{\W0.842478;ＢＮ－６１０５－ＦＢＣ－１００－Ｂ－＊}
  0
ENDBLK
  8
0
  5
345
100
AcDbEntity
100
AcDbBlockEnd
  0
BLOCK
  8
0
  5
346
100
AcDbEntity
100
AcDbBlockBegin
  2
KOZU0002
 70
    64
 10
0
 20
0
  0
POINT
  5
347
100
AcDbEntity
  8
0
  6
CONTINUOUS
 62
     7
100
AcDbPoint
 10
0
 20
0
  0
LINE
  5
348
100
AcDbEntity
  8
0
  6
CONTINUOUS
 62
     7
100
AcDbLine
 10
0
 20
58.30001831054688
 11
0
 21
-58.29998779296875
  0
LINE
  5
349
100
AcDbEntity
  8
0
  6
CONTINUOUS
 62
     7
100
AcDbLine
 10
-5.936820733243309e-006
 20
25.99992437109471
 11
14.00066398871858
 21
25.48656362485892
  0
LINE
  5
34a
100
AcDbEntity
  8
0
  6
CONTINUOUS
 62
     7
100
AcDbLine
 10
14
 20
25.48666381835938
 11
14
 21
-25.48666381835938
  0
LINE
  5
34b
100
AcDbEntity
  8
0
  6
CONTINUOUS
 62
     7
100
AcDbLine
 10
15
 20
24.41119384765625
 11
15
 21
-24.45001220703125
  0
LINE
  5
34c
100
AcDbEntity
  8
0
  6
CONTINUOUS
 62
     7
100
AcDbLine
 10
14.00071364285117
 20
25.48662456924877
 11
15.00002513257249
 21
24.41123991425553
  0
LINE
  5
34d
100
AcDbEntity
  8
0
  6
CONTINUOUS
 62
     7
100
AcDbLine
 10
13.96193755892983
 20
-25.48809048513273
 11
3.695196672870438e-006
 21
-26.00003090121998
  0
LINE
  5
34e
100
AcDbEntity
  8
0
  6
CONTINUOUS
 62
     7
100
AcDbLine
 10
14.99999619241336
 20
-24.4500049889964
 11
13.96195078926848
 21
-25.48804995463796
  0
LINE
  5
34f
100
AcDbEntity
  8
0
  6
CONTINUOUS
 62
   190
100
AcDbLine
 10
15.00003051757813
 20
-15
 11
17.00000190734863
 21
-15
  0
LINE
  5
350
100
AcDbEntity
  8
0
  6
CONTINUOUS
 62
     7
100
AcDbLine
 10
17.00001200437522
 20
-14.99997996091829
 11
19.00001198649382
 21
-13.49997993707643
  0
LINE
  5
351
100
AcDbEntity
  8
0
  6
CONTINUOUS
 62
     7
100
AcDbLine
 10
19.00000190734863
 20
-13.5
 11
31.1340503692627
 21
-13.5
  0
LINE
  5
352
100
AcDbEntity
  8
0
  6
CONTINUOUS
 62
   190
100
AcDbLine
 10
31.13405123951022
 20
-13.50000743616866
 11
32.00003699591206
 21
-13.00003031762198
  0
LINE
  5
353
100
AcDbEntity
  8
0
  6
CONTINUOUS
 62
   190
100
AcDbLine
 10
32.00003433227539
 20
13
 11
32.00003433227539
 21
-13
  0
LINE
  5
354
100
AcDbEntity
  8
0
  6
CONTINUOUS
 62
     7
100
AcDbLine
 10
33.59358274359066
 20
-13.00000066846481
 11
35.00002829049619
 21
-12.18798893878418
  0
LINE
  5
355
100
AcDbEntity
  8
0
  6
CONTINUOUS
 62
   190
100
AcDbLine
 10
35.00002288818359
 20
13
 11
35.00002288818359
 21
-13
  0
LINE
  5
356
100
AcDbEntity
  8
0
  6
CONTINUOUS
 62
   190
100
AcDbLine
 10
32.00003051757813
 20
-13
 11
45.00003051757813
 21
-13
  0
LINE
  5
357
100
AcDbEntity
  8
0
  6
CONTINUOUS
 62
     7
100
AcDbLine
 10
35.00003433227539
 20
-12.18798828125
 11
45.00003051757813
 21
-12.18798828125
  0
LINE
  5
358
100
AcDbEntity
  8
0
  6
CONTINUOUS
 62
   190
100
AcDbLine
 10
28.53594207763672
 20
13.5
 11
28.53594207763672
 21
-13.5
  0
LINE
  5
359
100
AcDbEntity
  8
0
  6
CONTINUOUS
 62
     7
100
AcDbLine
 10
45.57733917236328
 20
0
 11
58.42264175415039
 21
0
  0
LINE
  5
35a
100
AcDbEntity
  8
0
  6
CONTINUOUS
 62
     7
100
AcDbLine
 10
45.57733917236328
 20
18
 11
58.42262649536133
 21
18
  0
LINE
  5
35b
100
AcDbEntity
  8
0
  6
CONTINUOUS
 62
     7
100
AcDbLine
 10
45.57733093516963
 20
17.9999800702959
 11
44.99998412564005
 21
16.99998608055101
  0
LINE
  5
35c
100
AcDbEntity
  8
0
  6
CONTINUOUS
 62
     7
100
AcDbLine
 10
44.99998474121094
 20
-17
 11
44.99998474121094
 21
17
  0
LINE
  5
35d
100
AcDbEntity
  8
0
  6
CONTINUOUS
 62
     7
100
AcDbLine
 10
58.42263834519888
 20
17.99996314257656
 11
58.99998515472846
 21
16.99996915283166
  0
LINE
  5
35e
100
AcDbEntity
  8
0
  6
CONTINUOUS
 62
     7
100
AcDbLine
 10
58.99998474121094
 20
-17
 11
58.99998474121094
 21
17
  0
LINE
  5
35f
100
AcDbEntity
  8
0
  6
CONTINUOUS
 62
   190
100
AcDbLine
 10
58.99998474121094
 20
13
 11
70.50003051757813
 21
13
  0
LINE
  5
360
100
AcDbEntity
  8
0
  6
CONTINUOUS
 62
   190
100
AcDbLine
 10
72.00012598883492
 20
11.50010310474752
 11
70.50014040763206
 21
13.00009918045124
  0
LINE
  5
361
100
AcDbEntity
  8
0
  6
CONTINUOUS
 62
     7
100
AcDbLine
 10
58.99998474121094
 20
12.18798828125
 11
71.31204223632813
 21
12.18798828125
  0
LINE
  5
362
100
AcDbEntity
  8
0
  6
CONTINUOUS
 62
   190
100
AcDbLine
 10
70.50003051757813
 20
13
 11
70.50003051757813
 21
-13
  0
LINE
  5
363
100
AcDbEntity
  8
0
  6
CONTINUOUS
 62
   190
100
AcDbLine
 10
72.00003814697266
 20
11.5
 11
72.00003814697266
 21
-11.5
  0
LINE
  5
364
100
AcDbEntity
  8
0
  6
CONTINUOUS
 62
   190
100
AcDbLine
 10
72.00002079000853
 20
-11.50001948576809
 11
70.50005678791661
 21
-12.99999398220987
  0
LINE
  5
365
100
AcDbEntity
  8
0
  6
CONTINUOUS
 62
   190
100
AcDbLine
 10
59.00003051757813
 20
-13
 11
70.50003051757813
 21
-13
  0
LINE
  5
366
100
AcDbEntity
  8
0
  6
CONTINUOUS
 62
     7
100
AcDbLine
 10
59.00003051757813
 20
-12.18798828125
 11
71.31204223632813
 21
-12.18798828125
  0
LINE
  5
367
100
AcDbEntity
  8
0
  6
CONTINUOUS
 62
     7
100
AcDbLine
 10
45.57732432792017
 20
-17.99998388499322
 11
44.99996225960133
 21
-16.99996346625053
  0
LINE
  5
368
100
AcDbEntity
  8
0
  6
CONTINUOUS
 62
     7
100
AcDbLine
 10
45.57733917236328
 20
-18
 11
58.42264175415039
 21
-18
  0
LINE
  5
369
100
AcDbEntity
  8
0
  6
CONTINUOUS
 62
     7
100
AcDbLine
 10
58.42265486332251
 20
-17.99997267931985
 11
59.00000167285209
 21
-16.99997868957496
  0
LINE
  5
36a
100
AcDbEntity
  8
0
  6
CONTINUOUS
 62
     7
100
AcDbLine
 10
35.00003433227539
 20
12.18798828125
 11
44.99998474121094
 21
12.18798828125
  0
LINE
  5
36b
100
AcDbEntity
  8
0
  6
CONTINUOUS
 62
   190
100
AcDbLine
 10
32.00003051757813
 20
13
 11
44.99998474121094
 21
13
  0
LINE
  5
36c
100
AcDbEntity
  8
0
  6
CONTINUOUS
 62
     7
100
AcDbLine
 10
33.59356557745273
 20
12.99997093584229
 11
34.99999790985935
 21
12.18796683555629
  0
LINE
  5
36d
100
AcDbEntity
  8
0
  6
CONTINUOUS
 62
     7
100
AcDbLine
 10
19.00003814697266
 20
13.5
 11
31.13387298583984
 21
13.5
  0
LINE
  5
36e
100
AcDbEntity
  8
0
  6
CONTINUOUS
 62
   190
100
AcDbLine
 10
31.13386759610745
 20
13.49999453224743
 11
32.00001192649608
 21
12.99992586096514
  0
LINE
  5
36f
100
AcDbEntity
  8
0
  6
CONTINUOUS
 62
     7
100
AcDbLine
 10
17.00005129575798
 20
15.00005778074204
 11
19.00005127787658
 21
13.50005775690018
  0
LINE
  5
370
100
AcDbEntity
  8
0
  6
CONTINUOUS
 62
   190
100
AcDbLine
 10
15
 20
15
 11
17.00003814697266
 21
15
  0
LINE
  5
371
100
AcDbEntity
  8
0
  6
CENTER
 62
     3
100
AcDbLine
 10
-300.8203430175781
 20
0
 11
77.36559295654297
 21
0
  0
LINE
  5
372
100
AcDbEntity
  8
0
  6
CONTINUOUS
 62
     7
100
AcDbLine
 10
-0.7000007629394531
 20
59
 11
-36.30000305175781
 21
59
  0
LINE
  5
373
100
AcDbEntity
  8
0
  6
CONTINUOUS
 62
     7
100
AcDbLine
 10
-37
 20
58.30001831054688
 11
-37
 21
-58.29998779296875
  0
LINE
  5
374
100
AcDbEntity
  8
0
  6
CONTINUOUS
 62
     7
100
AcDbLine
 10
-0.7000007629394531
 20
-59
 11
-36.30000305175781
 21
-59
  0
LINE
  5
375
100
AcDbEntity
  8
0
  6
CONTINUOUS
 62
     7
100
AcDbLine
 10
-29.50001833477029
 20
-19.99999729749106
 11
-33.50002264958545
 21
-15.9999929826759
  0
LINE
  5
376
100
AcDbEntity
  8
0
  6
CONTINUOUS
 62
     7
100
AcDbLine
 10
-29.5
 20
-20
 11
-7.499984741210938
 21
-20
  0
LINE
  5
377
100
AcDbEntity
  8
0
  6
CONTINUOUS
 62
     7
100
AcDbLine
 10
-3.499956570984081
 20
-16.00000838729527
 11
-7.499953299351321
 21
-20.00002028854397
  0
LINE
  5
378
100
AcDbEntity
  8
0
  6
CONTINUOUS
 62
     7
100
AcDbLine
 10
-3.5
 20
16
 11
-3.5
 21
-16
  0
LINE
  5
379
100
AcDbEntity
  8
0
  6
CONTINUOUS
 62
     7
100
AcDbLine
 10
-7.500006067229698
 20
19.99999122834488
 11
-3.500001752414537
 21
15.99998691352971
  0
LINE
  5
37a
100
AcDbEntity
  8
0
  6
CONTINUOUS
 62
     7
100
AcDbLine
 10
-29.5
 20
20
 11
-7.5
 21
20
  0
LINE
  5
37b
100
AcDbEntity
  8
0
  6
CONTINUOUS
 62
     7
100
AcDbLine
 10
-33.49996870161935
 20
15.99998219308268
 11
-29.49996438680419
 21
19.99998650789784
  0
LINE
  5
37c
100
AcDbEntity
  8
0
  6
CONTINUOUS
 62
     7
100
AcDbLine
 10
-33.5
 20
16
 11
-33.5
 21
-16
  0
LINE
  5
37d
100
AcDbEntity
  8
0
  6
CENTER
 62
     3
100
AcDbLine
 10
-18.5
 20
20
 11
-18.5
 21
-20
  0
LINE
  5
37e
100
AcDbEntity
  8
0
  6
CENTER
 62
     3
100
AcDbLine
 10
-9.699996948242188
 20
14
 11
-5.300003051757813
 21
14
  0
LINE
  5
37f
100
AcDbEntity
  8
0
  6
CENTER
 62
     3
100
AcDbLine
 10
-7.5
 20
16.20001220703125
 11
-7.5
 21
11.79998779296875
  0
LINE
  5
380
100
AcDbEntity
  8
0
  6
CENTER
 62
     3
100
AcDbLine
 10
-29.5
 20
-11.79998779296875
 11
-29.5
 21
-16.20001220703125
  0
LINE
  5
381
100
AcDbEntity
  8
0
  6
CENTER
 62
     3
100
AcDbLine
 10
-31.70001220703125
 20
-14
 11
-27.29998779296875
 21
-14
  0
LINE
  5
382
100
AcDbEntity
  8
0
  6
CONTINUOUS
 62
     7
100
AcDbLine
 10
-37
 20
-54.5
 11
-37.5
 21
-54.5
  0
LINE
  5
383
100
AcDbEntity
  8
0
  6
CONTINUOUS
 62
     7
100
AcDbLine
 10
-37.5
 20
-50.43499755859375
 11
-37.5
 21
-54.5
  0
LINE
  5
384
100
AcDbEntity
  8
0
  6
CONTINUOUS
 62
   134
100
AcDbLine
 10
-37.80003407230939
 20
-53.20002730277631
 11
-37.5000346339486
 21
-52.9000390415308
  0
LINE
  5
385
100
AcDbEntity
  8
0
  6
CONTINUOUS
 62
   104
100
AcDbLine
 10
-238.2000274658203
 20
-53.20001220703125
 11
-37.80002593994141
 21
-53.20001220703125
  0
LINE
  5
386
100
AcDbEntity
  8
0
  6
CONTINUOUS
 62
     7
100
AcDbLine
 10
-239.0000457763672
 20
-50.43499755859375
 11
-37.00000381469727
 21
-50.43499755859375
  0
LINE
  5
387
100
AcDbEntity
  8
0
  6
CENTER
 62
     3
100
AcDbLine
 10
-239.0000457763672
 20
-45
 11
-37
 21
-45
  0
LINE
  5
388
100
AcDbEntity
  8
0
  6
CONTINUOUS
 62
     7
100
AcDbLine
 10
-239.0000457763672
 20
-39.56500244140625
 11
-37.00000381469727
 21
-39.56500244140625
  0
LINE
  5
389
100
AcDbEntity
  8
0
  6
CONTINUOUS
 62
     7
100
AcDbLine
 10
-37.5
 20
39.56500244140625
 11
-37.5
 21
-39.56500244140625
  0
LINE
  5
38a
100
AcDbEntity
  8
0
  6
CONTINUOUS
 62
     7
100
AcDbLine
 10
-37.5
 20
54.5
 11
-37.5
 21
50.43499755859375
  0
LINE
  5
38b
100
AcDbEntity
  8
0
  6
CONTINUOUS
 62
     7
100
AcDbLine
 10
-37
 20
54.5
 11
-37.5
 21
54.5
  0
LINE
  5
38c
100
AcDbEntity
  8
0
  6
CONTINUOUS
 62
   104
100
AcDbLine
 10
-37.80003339716838
 20
53.19998481876559
 11
-37.5000339588076
 21
52.89999655752007
  0
LINE
  5
38d
100
AcDbEntity
  8
0
  6
CONTINUOUS
 62
   104
100
AcDbLine
 10
-238.2000274658203
 20
53.19998168945313
 11
-37.80002593994141
 21
53.19998168945313
  0
LINE
  5
38e
100
AcDbEntity
  8
0
  6
CONTINUOUS
 62
     7
100
AcDbLine
 10
-239.0000457763672
 20
50.43499755859375
 11
-37.00000381469727
 21
50.43499755859375
  0
LINE
  5
38f
100
AcDbEntity
  8
0
  6
CENTER
 62
     3
100
AcDbLine
 10
-239.0000457763672
 20
45
 11
-37
 21
45
  0
LINE
  5
390
100
AcDbEntity
  8
0
  6
CONTINUOUS
 62
     7
100
AcDbLine
 10
-239.0000457763672
 20
39.56500244140625
 11
-37.00000381469727
 21
39.56500244140625
  0
LINE
  5
391
100
AcDbEntity
  8
0
  6
CONTINUOUS
 62
   134
100
AcDbLine
 10
-238.5000781094042
 20
52.90007896750797
 11
-238.2000942778995
 21
53.2000612565252
  0
LINE
  5
392
100
AcDbEntity
  8
0
  6
CONTINUOUS
 62
     7
100
AcDbLine
 10
-238.5000305175781
 20
54.5
 11
-238.5000305175781
 21
50.43499755859375
  0
LINE
  5
393
100
AcDbEntity
  8
0
  6
CONTINUOUS
 62
     7
100
AcDbLine
 10
-239.0000457763672
 20
54.5
 11
-238.5000152587891
 21
54.5
  0
LINE
  5
394
100
AcDbEntity
  8
0
  6
CONTINUOUS
 62
     7
100
AcDbLine
 10
-239.0000305175781
 20
58.30001831054688
 11
-239.0000305175781
 21
-58.29998779296875
  0
LINE
  5
395
100
AcDbEntity
  8
0
  6
CONTINUOUS
 62
     7
100
AcDbLine
 10
-275.2999877929688
 20
59
 11
-239.7000274658203
 21
59
  0
LINE
  5
396
100
AcDbEntity
  8
0
  6
CONTINUOUS
 62
     7
100
AcDbLine
 10
-238.5000305175781
 20
39.56500244140625
 11
-238.5000305175781
 21
-39.56500244140625
  0
LINE
  5
397
100
AcDbEntity
  8
0
  6
CONTINUOUS
 62
     7
100
AcDbLine
 10
-276
 20
90
 11
-276
 21
-90
  0
LINE
  5
398
100
AcDbEntity
  8
0
  6
CONTINUOUS
 62
     7
100
AcDbLine
 10
-272.5
 20
16
 11
-272.5
 21
-16
  0
LINE
  5
399
100
AcDbEntity
  8
0
  6
CONTINUOUS
 62
     7
100
AcDbLine
 10
-272.5000026277659
 20
15.99999568007422
 11
-268.4999983129508
 21
19.99999999488938
  0
LINE
  5
39a
100
AcDbEntity
  8
0
  6
CONTINUOUS
 62
     7
100
AcDbLine
 10
-268.5
 20
20
 11
-246.5000152587891
 21
20
  0
LINE
  5
39b
100
AcDbEntity
  8
0
  6
CONTINUOUS
 62
     7
100
AcDbLine
 10
-246.5000177398403
 20
19.99999999488938
 11
-242.5000134250251
 21
15.99999568007422
  0
LINE
  5
39c
100
AcDbEntity
  8
0
  6
CENTER
 62
     3
100
AcDbLine
 10
-248.7000122070313
 20
14
 11
-244.3000183105469
 21
14
  0
LINE
  5
39d
100
AcDbEntity
  8
0
  6
CENTER
 62
     3
100
AcDbLine
 10
-246.5000152587891
 20
16.20001220703125
 11
-246.5000152587891
 21
11.79998779296875
  0
LINE
  5
39e
100
AcDbEntity
  8
0
  6
CONTINUOUS
 62
     7
100
AcDbLine
 10
-242.5000152587891
 20
16
 11
-242.5000152587891
 21
-16
  0
LINE
  5
39f
100
AcDbEntity
  8
0
  6
CONTINUOUS
 62
     7
100
AcDbLine
 10
-242.5000262380584
 20
-16.00002402389684
 11
-246.5000013872801
 21
-20.00001434591819
  0
LINE
  5
3a0
100
AcDbEntity
  8
0
  6
CONTINUOUS
 62
     7
100
AcDbLine
 10
-268.5
 20
-20
 11
-246.5
 21
-20
  0
LINE
  5
3a1
100
AcDbEntity
  8
0
  6
CONTINUOUS
 62
     7
100
AcDbLine
 10
-268.5000306817304
 20
-19.99998920529615
 11
-272.5000134173591
 21
-16.00000646966743
  0
LINE
  5
3a2
100
AcDbEntity
  8
0
  6
CENTER
 62
     3
100
AcDbLine
 10
-268.5
 20
-11.79998779296875
 11
-268.5
 21
-16.20001220703125
  0
LINE
  5
3a3
100
AcDbEntity
  8
0
  6
CENTER
 62
     3
100
AcDbLine
 10
-270.7000122070313
 20
-14
 11
-266.2999877929688
 21
-14
  0
LINE
  5
3a4
100
AcDbEntity
  8
0
  6
CENTER
 62
     3
100
AcDbLine
 10
-257.5
 20
20
 11
-257.5
 21
-20
  0
LINE
  5
3a5
100
AcDbEntity
  8
0
  6
CONTINUOUS
 62
     7
100
AcDbLine
 10
-238.5000305175781
 20
-50.43499755859375
 11
-238.5000305175781
 21
-54.5
  0
LINE
  5
3a6
100
AcDbEntity
  8
0
  6
CONTINUOUS
 62
   134
100
AcDbLine
 10
-238.5000457407633
 20
-52.90002501945865
 11
-238.2000295403956
 21
-53.20003967717233
  0
LINE
  5
3a7
100
AcDbEntity
  8
0
  6
CONTINUOUS
 62
     7
100
AcDbLine
 10
-239.0000457763672
 20
-54.5
 11
-238.5000152587891
 21
-54.5
  0
LINE
  5
3a8
100
AcDbEntity
  8
0
  6
CONTINUOUS
 62
     7
100
AcDbLine
 10
-275.2999877929688
 20
-59
 11
-239.7000274658203
 21
-59
  0
LINE
  5
3a9
100
AcDbEntity
  8
0
  6
CONTINUOUS
 62
     7
100
AcDbLine
 10
-294
 20
90
 11
-294
 21
-90
  0
LINE
  5
3aa
100
AcDbEntity
  8
0
  6
CONTINUOUS
 62
     7
100
AcDbLine
 10
-294
 20
-90
 11
-276
 21
-90
  0
LINE
  5
3ab
100
AcDbEntity
  8
0
  6
CONTINUOUS
 62
     7
100
AcDbLine
 10
-294
 20
90
 11
-276
 21
90
  0
LINE
  5
3ac
100
AcDbEntity
  8
0
  6
CENTER
 62
     3
100
AcDbLine
 10
-298.4911499023438
 20
75
 11
-271.4141540527344
 21
75
  0
LINE
  5
3ad
100
AcDbEntity
  8
0
  6
DASHED
 62
     7
100
AcDbLine
 10
-294
 20
82
 11
-276
 21
82
  0
LINE
  5
3ae
100
AcDbEntity
  8
0
  6
DASHED
 62
     7
100
AcDbLine
 10
-294
 20
68
 11
-276
 21
68
  0
LINE
  5
3af
100
AcDbEntity
  8
0
  6
DASHED
 62
     7
100
AcDbLine
 10
-294
 20
-68
 11
-276
 21
-68
  0
LINE
  5
3b0
100
AcDbEntity
  8
0
  6
CENTER
 62
     3
100
AcDbLine
 10
-298.4911499023438
 20
-75
 11
-271.4141540527344
 21
-75
  0
LINE
  5
3b1
100
AcDbEntity
  8
0
  6
DASHED
 62
     7
100
AcDbLine
 10
-294
 20
-82
 11
-276
 21
-82
  0
ARC
  5
3b2
100
AcDbEntity
  8
0
  6
CONTINUOUS
 62
     7
100
AcDbCircle
 10
115.4362182617188
 20
9
 40
70.43623352050781
100
AcDbArc
 50
172.65897233054
 51
187.3410103666167
  0
ARC
  5
3b3
100
AcDbEntity
  8
0
  6
CONTINUOUS
 62
     7
100
AcDbCircle
 10
-11.43624877929688
 20
9
 40
70.43623352050781
100
AcDbArc
 50
352.6590083027194
 51
7.341046338794686
  0
ARC
  5
3b4
100
AcDbEntity
  8
0
  6
CONTINUOUS
 62
     7
100
AcDbCircle
 10
-11.43624877929688
 20
-9
 40
70.43623352050781
100
AcDbArc
 50
352.6590083027194
 51
7.341046338794684
  0
ARC
  5
3b5
100
AcDbEntity
  8
0
  6
CONTINUOUS
 62
     7
100
AcDbCircle
 10
115.4362182617188
 20
-9
 40
70.43623352050781
100
AcDbArc
 50
172.65897233054
 51
187.3410103666167
  0
ARC
  5
3b6
100
AcDbEntity
  8
0
  6
CONTINUOUS
 62
     7
100
AcDbCircle
 10
-0.7000007629394531
 20
58.30001831054688
 40
0.699999988079071
100
AcDbArc
 50
0
 51
89.99998201391065
  0
ARC
  5
3b7
100
AcDbEntity
  8
0
  6
CONTINUOUS
 62
     7
100
AcDbCircle
 10
-36.30000305175781
 20
58.30001831054688
 40
0.699999988079071
100
AcDbArc
 50
89.99998201391077
 51
179.9999640278215
  0
ARC
  5
3b8
100
AcDbEntity
  8
0
  6
CONTINUOUS
 62
     7
100
AcDbCircle
 10
-0.7000007629394531
 20
-58.29998779296875
 40
0.699999988079071
100
AcDbArc
 50
270.00001798609
 51
360
  0
ARC
  5
3b9
100
AcDbEntity
  8
0
  6
CONTINUOUS
 62
     7
100
AcDbCircle
 10
-36.30000305175781
 20
-58.29998779296875
 40
0.699999988079071
100
AcDbArc
 50
179.9999813306651
 51
270.00001798609
  0
CIRCLE
  5
3ba
100
AcDbEntity
  8
0
  6
CONTINUOUS
 62
     7
100
AcDbCircle
 10
-18.5
 20
0
 40
13.69999694824219
  0
CIRCLE
  5
3bb
100
AcDbEntity
  8
0
  6
CONTINUOUS
 62
     7
100
AcDbCircle
 10
-18.5
 20
0
 40
10.5
  0
CIRCLE
  5
3bc
100
AcDbEntity
  8
0
  6
CONTINUOUS
 62
     7
100
AcDbCircle
 10
-18.5
 20
0
 40
9.300000190734863
  0
CIRCLE
  5
3bd
100
AcDbEntity
  8
0
  6
CONTINUOUS
 62
     7
100
AcDbCircle
 10
-7.5
 20
14
 40
2.200000047683716
  0
CIRCLE
  5
3be
100
AcDbEntity
  8
0
  6
CONTINUOUS
 62
     7
100
AcDbCircle
 10
-29.5
 20
-14
 40
2.200000047683716
  0
ARC
  5
3bf
100
AcDbEntity
  8
0
  6
CONTINUOUS
 62
     7
100
AcDbCircle
 10
-239.7000427246094
 20
58.30001831054688
 40
0.699999988079071
100
AcDbArc
 50
0
 51
89.9999820139102
  0
ARC
  5
3c0
100
AcDbEntity
  8
0
  6
CONTINUOUS
 62
     7
100
AcDbCircle
 10
-275.2999877929688
 20
58.30001831054688
 40
0.699999988079071
100
AcDbArc
 50
89.9999820139102
 51
179.9999640278215
  0
CIRCLE
  5
3c1
100
AcDbEntity
  8
0
  6
CONTINUOUS
 62
     7
100
AcDbCircle
 10
-246.5000152587891
 20
14
 40
2.200000047683716
  0
CIRCLE
  5
3c2
100
AcDbEntity
  8
0
  6
CONTINUOUS
 62
     7
100
AcDbCircle
 10
-268.5
 20
-14
 40
2.200000047683716
  0
CIRCLE
  5
3c3
100
AcDbEntity
  8
0
  6
CONTINUOUS
 62
     7
100
AcDbCircle
 10
-257.5
 20
0
 40
13.69999694824219
  0
CIRCLE
  5
3c4
100
AcDbEntity
  8
0
  6
CONTINUOUS
 62
     7
100
AcDbCircle
 10
-257.5
 20
0
 40
10.5
  0
CIRCLE
  5
3c5
100
AcDbEntity
  8
0
  6
CONTINUOUS
 62
     7
100
AcDbCircle
 10
-257.5
 20
0
 40
9.300000190734863
  0
ARC
  5
3c6
100
AcDbEntity
  8
0
  6
CONTINUOUS
 62
     7
100
AcDbCircle
 10
-239.7000427246094
 20
-58.29998779296875
 40
0.699999988079071
100
AcDbArc
 50
270.0000179860905
 51
360
  0
ARC
  5
3c7
100
AcDbEntity
  8
0
  6
CONTINUOUS
 62
     7
100
AcDbCircle
 10
-275.2999877929688
 20
-58.29998779296875
 40
0.699999988079071
100
AcDbArc
 50
179.9999813306651
 51
270.0000179860905
  0
MTEXT
  5
3c8
100
AcDbEntity
  8
0
  6
CONTINUOUS
 62
     7
100
AcDbMText
 10
-62.65356098115444
 20
-22.64999961853027
 40
0.5
 41
38
 71
     7
 72
     1
  1
{\W0.842478;ＢＮ－６１０５－ＦＢＣ－１００－Ｂ－＊}
  0
ENDBLK
  8
0
  5
3c9
100
AcDbEntity
100
AcDbBlockEnd
  0
BLOCK
  8
0
  5
3ca
100
AcDbEntity
100
AcDbBlockBegin
  2
KOZU0003
 70
    64
 10
0
 20
0
  0
POINT
  5
3cb
100
AcDbEntity
  8
0
  6
CONTINUOUS
 62
     7
100
AcDbPoint
 10
0
 20
0
  0
LINE
  5
3cc
100
AcDbEntity
  8
0
  6
CENTER
 62
     3
100
AcDbLine
 10
94.32499694824219
 20
0
 11
-94.67499542236328
 21
0
  0
LINE
  5
3cd
100
AcDbEntity
  8
0
  6
CENTER
 62
     3
100
AcDbLine
 10
0
 20
66.12991333007813
 11
0
 21
-64.44438171386719
  0
LINE
  5
3ce
100
AcDbEntity
  8
0
  6
DASHED
 62
     7
100
AcDbLine
 10
49
 20
59
 11
-49
 21
59
  0
LINE
  5
3cf
100
AcDbEntity
  8
0
  6
DASHED
 62
     7
100
AcDbLine
 10
-20
 20
59.30001831054688
 11
-20
 21
59
  0
LINE
  5
3d0
100
AcDbEntity
  8
0
  6
DASHED
 62
     7
100
AcDbLine
 10
20
 20
59.30001831054688
 11
-20
 21
59.30001831054688
  0
LINE
  5
3d1
100
AcDbEntity
  8
0
  6
DASHED
 62
     7
100
AcDbLine
 10
20
 20
59.30001831054688
 11
20
 21
59
  0
LINE
  5
3d2
100
AcDbEntity
  8
0
  6
DASHED
 62
     7
100
AcDbLine
 10
59
 20
49
 11
59
 21
-49
  0
LINE
  5
3d3
100
AcDbEntity
  8
0
  6
DASHED
 62
     7
100
AcDbLine
 10
49
 20
-59
 11
-49
 21
-59
  0
LINE
  5
3d4
100
AcDbEntity
  8
0
  6
DASHED
 62
     7
100
AcDbLine
 10
-59
 20
49
 11
-59
 21
-49
  0
LINE
  5
3d5
100
AcDbEntity
  8
0
  6
DASHED
 62
     7
100
AcDbLine
 10
-13.699951171875
 20
59.30001831054688
 11
-13.699951171875
 21
57.80001831054688
  0
LINE
  5
3d6
100
AcDbEntity
  8
0
  6
DASHED
 62
     7
100
AcDbLine
 10
13.699951171875
 20
57.80001831054688
 11
-13.699951171875
 21
57.80001831054688
  0
LINE
  5
3d7
100
AcDbEntity
  8
0
  6
DASHED
 62
     7
100
AcDbLine
 10
-10.2325176433114
 20
44.29998940481693
 11
-10.75294139224402
 21
57.70297539631552
  0
LINE
  5
3d8
100
AcDbEntity
  8
0
  6
DASHED
 62
     7
100
AcDbLine
 10
-9.25004504418802
 20
56.20005900471403
 11
-10.85003382260222
 21
57.80004778312823
  0
LINE
  5
3d9
100
AcDbEntity
  8
0
  6
DASHED
 62
     7
100
AcDbLine
 10
9.25
 20
56.19998168945313
 11
-9.25
 21
56.19998168945313
  0
LINE
  5
3da
100
AcDbEntity
  8
0
  6
DASHED
 62
     7
100
AcDbLine
 10
-9.249961679571005
 20
56.19999712833218
 11
-8.834744982730722
 21
44.30001227517499
  0
LINE
  5
3db
100
AcDbEntity
  8
0
  6
DASHED
 62
     7
100
AcDbLine
 10
8.83496663270031
 20
44.30001980939385
 11
9.250182797451616
 21
56.19998941304203
  0
LINE
  5
3dc
100
AcDbEntity
  8
0
  6
DASHED
 62
     7
100
AcDbLine
 10
13.699951171875
 20
59.30001831054688
 11
13.699951171875
 21
57.80001831054688
  0
LINE
  5
3dd
100
AcDbEntity
  8
0
  6
DASHED
 62
     7
100
AcDbLine
 10
10.23265395115228
 20
44.30002989130249
 11
10.7530759738677
 21
57.70297013896585
  0
LINE
  5
3de
100
AcDbEntity
  8
0
  6
DASHED
 62
     7
100
AcDbLine
 10
9.249972214433797
 20
56.2000455177225
 11
10.849960992848
 21
57.8000342961367
  0
LINE
  5
3df
100
AcDbEntity
  8
0
  6
CENTER
 62
     3
100
AcDbLine
 10
45
 20
56.50003051757813
 11
45
 21
33.50003051757813
  0
LINE
  5
3e0
100
AcDbEntity
  8
0
  6
CENTER
 62
     3
100
AcDbLine
 10
56.5
 20
45.00003051757813
 11
33.5
 21
45.00003051757813
  0
LINE
  5
3e1
100
AcDbEntity
  8
0
  6
DASHED
 62
     7
100
AcDbLine
 10
-57.5
 20
8.25
 11
-59
 21
8.25
  0
LINE
  5
3e2
100
AcDbEntity
  8
0
  6
DASHED
 62
     7
100
AcDbLine
 10
-57.5
 20
8.25
 11
-57.5
 21
-8.25
  0
LINE
  5
3e3
100
AcDbEntity
  8
0
  6
DASHED
 62
     7
100
AcDbLine
 10
-47.5
 20
5
 11
-57.5
 21
5
  0
LINE
  5
3e4
100
AcDbEntity
  8
0
  6
DASHED
 62
     7
100
AcDbLine
 10
-57.5
 20
-8.25
 11
-59
 21
-8.25
  0
LINE
  5
3e5
100
AcDbEntity
  8
0
  6
DASHED
 62
     7
100
AcDbLine
 10
-47.5
 20
-5
 11
-57.5
 21
-5
  0
LINE
  5
3e6
100
AcDbEntity
  8
0
  6
DASHED
 62
     7
100
AcDbLine
 10
-47.5
 20
-3.593994140625
 11
-47.5
 21
-5
  0
LINE
  5
3e7
100
AcDbEntity
  8
0
  6
DASHED
 62
     7
100
AcDbLine
 10
-40.5
 20
-3.593994140625
 11
-47.5
 21
-3.593994140625
  0
LINE
  5
3e8
100
AcDbEntity
  8
0
  6
DASHED
 62
     7
100
AcDbLine
 10
-41.5
 20
-4
 11
-47.5
 21
-4
  0
LINE
  5
3e9
100
AcDbEntity
  8
0
  6
DASHED
 62
     7
100
AcDbLine
 10
-34.71810913085938
 20
1.25
 11
-40.5
 21
1.25
  0
LINE
  5
3ea
100
AcDbEntity
  8
0
  6
DASHED
 62
     7
100
AcDbLine
 10
-34.71774291992188
 20
-1.25
 11
-40.5
 21
-1.25
  0
LINE
  5
3eb
100
AcDbEntity
  8
0
  6
DASHED
 62
     7
100
AcDbLine
 10
-40.5
 20
-1.25
 11
-40.5
 21
-3.593994140625
  0
LINE
  5
3ec
100
AcDbEntity
  8
0
  6
DASHED
 62
     7
100
AcDbLine
 10
-40.79675580164552
 20
-3.593988916723776
 11
-41.50000500409608
 21
-4.000010040353358
  0
LINE
  5
3ed
100
AcDbEntity
  8
0
  6
DASHED
 62
     7
100
AcDbLine
 10
-40.5
 20
3.593994140625
 11
-40.5
 21
1.25
  0
LINE
  5
3ee
100
AcDbEntity
  8
0
  6
CONTINUOUS
 62
     7
100
AcDbLine
 10
-40.79675580164552
 20
3.593988916723776
 11
-41.50000500409608
 21
4.000010040353358
  0
LINE
  5
3ef
100
AcDbEntity
  8
0
  6
DASHED
 62
     7
100
AcDbLine
 10
-40.5
 20
3.593994140625
 11
-47.5
 21
3.593994140625
  0
LINE
  5
3f0
100
AcDbEntity
  8
0
  6
DASHED
 62
     7
100
AcDbLine
 10
-41.5
 20
4
 11
-47.5
 21
4
  0
LINE
  5
3f1
100
AcDbEntity
  8
0
  6
DASHED
 62
     7
100
AcDbLine
 10
-47.5
 20
5
 11
-47.5
 21
3.593994140625
  0
LINE
  5
3f2
100
AcDbEntity
  8
0
  6
DASHED
 62
     7
100
AcDbLine
 10
-41.5
 20
-3.593994140625
 11
-41.5
 21
-4
  0
LINE
  5
3f3
100
AcDbEntity
  8
0
  6
DASHED
 62
     7
100
AcDbLine
 10
-41.5
 20
4
 11
-41.5
 21
3.593994140625
  0
LINE
  5
3f4
100
AcDbEntity
  8
0
  6
CONTINUOUS
 62
     7
100
AcDbLine
 10
90
 20
61.5
 11
90
 21
-61.5
  0
LINE
  5
3f5
100
AcDbEntity
  8
0
  6
CONTINUOUS
 62
     7
100
AcDbLine
 10
-90
 20
61.5
 11
-90
 21
-61.5
  0
LINE
  5
3f6
100
AcDbEntity
  8
0
  6
CENTER
 62
     3
100
AcDbLine
 10
-75
 20
56
 11
-75
 21
36
  0
LINE
  5
3f7
100
AcDbEntity
  8
0
  6
CONTINUOUS
 62
     7
100
AcDbLine
 10
89.49999237060547
 20
-62
 11
-89.5
 21
-62
  0
LINE
  5
3f8
100
AcDbEntity
  8
0
  6
CONTINUOUS
 62
     7
100
AcDbLine
 10
89.5
 20
62
 11
-89.49999237060547
 21
62
  0
LINE
  5
3f9
100
AcDbEntity
  8
0
  6
CENTER
 62
     3
100
AcDbLine
 10
-65
 20
46
 11
-85
 21
46
  0
LINE
  5
3fa
100
AcDbEntity
  8
0
  6
CENTER
 62
     3
100
AcDbLine
 10
-75
 20
-56
 11
-75
 21
-36
  0
LINE
  5
3fb
100
AcDbEntity
  8
0
  6
CENTER
 62
     3
100
AcDbLine
 10
-65
 20
-46
 11
-85
 21
-46
  0
LINE
  5
3fc
100
AcDbEntity
  8
0
  6
CENTER
 62
     3
100
AcDbLine
 10
65
 20
-46
 11
85
 21
-46
  0
LINE
  5
3fd
100
AcDbEntity
  8
0
  6
CENTER
 62
     3
100
AcDbLine
 10
75
 20
-56
 11
75
 21
-36
  0
LINE
  5
3fe
100
AcDbEntity
  8
0
  6
CENTER
 62
     3
100
AcDbLine
 10
75
 20
56
 11
75
 21
36
  0
LINE
  5
3ff
100
AcDbEntity
  8
0
  6
CENTER
 62
     3
100
AcDbLine
 10
65
 20
46
 11
85
 21
46
  0
LINE
  5
400
100
AcDbEntity
  8
0
  6
CONTINUOUS
 62
     7
100
AcDbLine
 10
-89.99999477447534
 20
61.49999764271034
 11
-89.49998772342499
 21
61.99999706513128
  0
LINE
  5
401
100
AcDbEntity
  8
0
  6
CONTINUOUS
 62
     7
100
AcDbLine
 10
89.5000007863494
 20
62.00000079337653
 11
89.99999997700215
 21
61.50000160272379
  0
LINE
  5
402
100
AcDbEntity
  8
0
  6
CONTINUOUS
 62
     7
100
AcDbLine
 10
89.99999477447534
 20
-61.49999764271034
 11
89.49998772342499
 21
-61.99999706513128
  0
LINE
  5
403
100
AcDbEntity
  8
0
  6
CONTINUOUS
 62
     7
100
AcDbLine
 10
-89.5000007863494
 20
-62.00000079337653
 11
-89.99999997700215
 21
-61.50000160272379
  0
LINE
  5
404
100
AcDbEntity
  8
0
  6
CENTER
 62
     3
100
AcDbLine
 10
-44.99996948242188
 20
56.50003051757813
 11
-44.99996948242188
 21
33.50003051757813
  0
LINE
  5
405
100
AcDbEntity
  8
0
  6
CENTER
 62
     3
100
AcDbLine
 10
-33.49996948242188
 20
45.00003051757813
 11
-56.49996948242188
 21
45.00003051757813
  0
LINE
  5
406
100
AcDbEntity
  8
0
  6
CENTER
 62
     3
100
AcDbLine
 10
-44.99996948242188
 20
-33.49996948242188
 11
-44.99996948242188
 21
-56.49996948242188
  0
LINE
  5
407
100
AcDbEntity
  8
0
  6
CENTER
 62
     3
100
AcDbLine
 10
-33.49996948242188
 20
-44.99996948242188
 11
-56.49996948242188
 21
-44.99996948242188
  0
LINE
  5
408
100
AcDbEntity
  8
0
  6
CENTER
 62
     3
100
AcDbLine
 10
45
 20
-33.49996948242188
 11
45
 21
-56.49996948242188
  0
LINE
  5
409
100
AcDbEntity
  8
0
  6
CENTER
 62
     3
100
AcDbLine
 10
56.5
 20
-44.99996948242188
 11
33.5
 21
-44.99996948242188
  0
LINE
  5
40a
100
AcDbEntity
  8
0
  6
CONTINUOUS
 62
     7
100
AcDbLine
 10
42.64999429996009
 20
-49.07028458322115
 11
40.29999720865126
 21
-44.99996702996735
  0
LINE
  5
40b
100
AcDbEntity
  8
0
  6
CONTINUOUS
 62
     7
100
AcDbLine
 10
40.29998519252283
 20
-44.99996344599866
 11
42.64998880611788
 21
-40.92964084872258
  0
LINE
  5
40c
100
AcDbEntity
  8
0
  6
CONTINUOUS
 62
     7
100
AcDbLine
 10
42.65000152587891
 20
-40.92964553833008
 11
47.34999847412109
 21
-40.92964553833008
  0
LINE
  5
40d
100
AcDbEntity
  8
0
  6
CONTINUOUS
 62
     7
100
AcDbLine
 10
47.34999918656699
 20
-40.92964337244932
 11
49.70000117560747
 21
-44.9999669076627
  0
LINE
  5
40e
100
AcDbEntity
  8
0
  6
CONTINUOUS
 62
     7
100
AcDbLine
 10
49.70000122387486
 20
-44.99996769798464
 11
47.34999777177164
 21
-49.07028598366382
  0
LINE
  5
40f
100
AcDbEntity
  8
0
  6
CONTINUOUS
 62
     7
100
AcDbLine
 10
47.34999847412109
 20
-49.07028579711914
 11
42.64999771118164
 21
-49.07028579711914
  0
LINE
  5
410
100
AcDbEntity
  8
0
  6
CONTINUOUS
 62
     7
100
AcDbLine
 10
42.64999712789405
 20
40.9297138863893
 11
40.29999812923771
 21
45.00003474326848
  0
LINE
  5
411
100
AcDbEntity
  8
0
  6
CONTINUOUS
 62
     7
100
AcDbLine
 10
40.29998688796846
 20
45.00003834558318
 11
42.64999050156351
 21
49.07036094285927
  0
LINE
  5
412
100
AcDbEntity
  8
0
  6
CONTINUOUS
 62
     7
100
AcDbLine
 10
42.65000152587891
 20
49.07035446166992
 11
47.34999847412109
 21
49.07035446166992
  0
LINE
  5
413
100
AcDbEntity
  8
0
  6
CONTINUOUS
 62
     7
100
AcDbLine
 10
47.3500000518275
 20
49.07035898032508
 11
49.70000299454217
 21
45.00003379329926
  0
LINE
  5
414
100
AcDbEntity
  8
0
  6
CONTINUOUS
 62
     7
100
AcDbLine
 10
49.69999894950307
 20
45.00003664898295
 11
47.34999549739985
 21
40.92971836330376
  0
LINE
  5
415
100
AcDbEntity
  8
0
  6
CONTINUOUS
 62
     7
100
AcDbLine
 10
47.34999847412109
 20
40.92971420288086
 11
42.64999771118164
 21
40.92971420288086
  0
LINE
  5
416
100
AcDbEntity
  8
0
  6
CONTINUOUS
 62
     7
100
AcDbLine
 10
-47.34997102955276
 20
40.92970998846869
 11
-49.69997193555662
 21
45.00003414897326
  0
LINE
  5
417
100
AcDbEntity
  8
0
  6
CONTINUOUS
 62
     7
100
AcDbLine
 10
-49.69998510252058
 20
45.00003825226528
 11
-47.34998148892553
 21
49.07036084954136
  0
LINE
  5
418
100
AcDbEntity
  8
0
  6
CONTINUOUS
 62
     7
100
AcDbLine
 10
-47.34996795654297
 20
49.07035446166992
 11
-42.64997100830078
 21
49.07035446166992
  0
LINE
  5
419
100
AcDbEntity
  8
0
  6
CONTINUOUS
 62
     7
100
AcDbLine
 10
-42.64997129064322
 20
49.07035572522572
 11
-40.29996930160274
 21
45.00003219001234
  0
LINE
  5
41a
100
AcDbEntity
  8
0
  6
CONTINUOUS
 62
     7
100
AcDbLine
 10
-40.29997038539806
 20
45.00003398210701
 11
-42.64997383750128
 21
40.92971569642782
  0
LINE
  5
41b
100
AcDbEntity
  8
0
  6
CONTINUOUS
 62
     7
100
AcDbLine
 10
-42.64997100830078
 20
40.92971420288086
 11
-47.34997177124023
 21
40.92971420288086
  0
LINE
  5
41c
100
AcDbEntity
  8
0
  6
CONTINUOUS
 62
     7
100
AcDbLine
 10
-47.34997646297317
 20
-49.07028778300281
 11
-49.69997546162951
 21
-44.99996692612363
  0
LINE
  5
41d
100
AcDbEntity
  8
0
  6
CONTINUOUS
 62
     7
100
AcDbLine
 10
-49.69998609982901
 20
-44.99996614480349
 11
-47.34998248623396
 21
-40.9296435475274
  0
LINE
  5
41e
100
AcDbEntity
  8
0
  6
CONTINUOUS
 62
     7
100
AcDbLine
 10
-47.34996795654297
 20
-40.92964553833008
 11
-42.64997100830078
 21
-40.92964553833008
  0
LINE
  5
41f
100
AcDbEntity
  8
0
  6
CONTINUOUS
 62
     7
100
AcDbLine
 10
-42.64997193460259
 20
-40.92964319615582
 11
-40.29996946872501
 21
-44.99996755727542
  0
LINE
  5
420
100
AcDbEntity
  8
0
  6
CONTINUOUS
 62
     7
100
AcDbLine
 10
-40.29997128687982
 20
-44.99996632886003
 11
-42.64997473898305
 21
-49.07028461453921
  0
LINE
  5
421
100
AcDbEntity
  8
0
  6
CONTINUOUS
 62
     7
100
AcDbLine
 10
-42.64997100830078
 20
-49.07028579711914
 11
-47.34997177124023
 21
-49.07028579711914
  0
LINE
  5
422
100
AcDbEntity
  8
0
  6
DASHED
 62
     1
100
AcDbLine
 10
-39.10576629638672
 20
0.9599986076354981
 11
-39.10576629638672
 21
-0.9599986076354981
  0
LINE
  5
423
100
AcDbEntity
  8
0
  6
DASHED
 62
     1
100
AcDbLine
 10
-44.10575807092015
 20
1.999999584720662
 11
-39.10575587077011
 21
0.9599967393604727
  0
LINE
  5
424
100
AcDbEntity
  8
0
  6
DASHED
 62
     1
100
AcDbLine
 10
-44.10575858655037
 20
-1.999999019824485
 11
-39.10575605515428
 21
-0.9599977669910151
  0
LINE
  5
425
100
AcDbEntity
  8
0
  6
DASHED
 62
     1
100
AcDbLine
 10
-44.10576629638672
 20
3.500000476837158
 11
-44.10576629638672
 21
-3.499999523162842
  0
LINE
  5
426
100
AcDbEntity
  8
0
  6
DASHED
 62
     1
100
AcDbLine
 10
-44.60576629638672
 20
-3.999999523162842
 11
-44.60576629638672
 21
4.000000476837158
  0
LINE
  5
427
100
AcDbEntity
  8
0
  6
DASHED
 62
     1
100
AcDbLine
 10
-44.10576488548013
 20
3.500002271549707
 11
-44.60576536161168
 21
4.000002874121936
  0
LINE
  5
428
100
AcDbEntity
  8
0
  6
DASHED
 62
     1
100
AcDbLine
 10
-48.10576629638672
 20
4.000000476837158
 11
-44.60576629638672
 21
4.000000476837158
  0
LINE
  5
429
100
AcDbEntity
  8
0
  6
DASHED
 62
     1
100
AcDbLine
 10
-49.60576629638672
 20
3.594000339508057
 11
-44.19976043701172
 21
3.594000339508057
  0
LINE
  5
42a
100
AcDbEntity
  8
0
  6
DASHED
 62
     1
100
AcDbLine
 10
-48.10576629638672
 20
4.000000476837158
 11
-48.10576629638672
 21
-3.999999046325684
  0
LINE
  5
42b
100
AcDbEntity
  8
0
  6
DASHED
 62
     1
100
AcDbLine
 10
-49.60576629638672
 20
4.900002002716065
 11
-49.60576629638672
 21
-4.899998664855957
  0
LINE
  5
42c
100
AcDbEntity
  8
0
  6
DASHED
 62
     1
100
AcDbLine
 10
-50.30576324462891
 20
4.900000095367432
 11
-49.60576629638672
 21
4.900000095367432
  0
LINE
  5
42d
100
AcDbEntity
  8
0
  6
DASHED
 62
     1
100
AcDbLine
 10
-50.30576324462891
 20
5.000001430511475
 11
-50.30576324462891
 21
-4.999998569488525
  0
LINE
  5
42e
100
AcDbEntity
  8
0
  6
DASHED
 62
     1
100
AcDbLine
 10
-51.90576171875
 20
5.000000476837158
 11
-50.30576324462891
 21
5.000000476837158
  0
LINE
  5
42f
100
AcDbEntity
  8
0
  6
DASHED
 62
     1
100
AcDbLine
 10
-51.90576171875
 20
5.000002384185791
 11
-51.90576171875
 21
-4.999998092651367
  0
LINE
  5
430
100
AcDbEntity
  8
0
  6
DASHED
 62
     1
100
AcDbLine
 10
-51.90576171875
 20
3.799999713897705
 11
-50.30576324462891
 21
3.799999713897705
  0
LINE
  5
431
100
AcDbEntity
  8
0
  6
DASHED
 62
     1
100
AcDbLine
 10
-51.90576171875
 20
-3.799999952316284
 11
-50.30576324462891
 21
-3.799999952316284
  0
LINE
  5
432
100
AcDbEntity
  8
0
  6
DASHED
 62
     1
100
AcDbLine
 10
-51.90576171875
 20
-5
 11
-50.30576324462891
 21
-5
  0
LINE
  5
433
100
AcDbEntity
  8
0
  6
DASHED
 62
     1
100
AcDbLine
 10
-50.30576324462891
 20
-4.900000095367432
 11
-49.60576629638672
 21
-4.900000095367432
  0
LINE
  5
434
100
AcDbEntity
  8
0
  6
DASHED
 62
     1
100
AcDbLine
 10
-52.60576629638672
 20
-4.900000095367432
 11
-51.90576171875
 21
-4.900000095367432
  0
LINE
  5
435
100
AcDbEntity
  8
0
  6
DASHED
 62
     1
100
AcDbLine
 10
-49.60576629638672
 20
-3.594000101089478
 11
-44.19976043701172
 21
-3.594000101089478
  0
LINE
  5
436
100
AcDbEntity
  8
0
  6
DASHED
 62
     1
100
AcDbLine
 10
-48.10576629638672
 20
-4
 11
-44.60576629638672
 21
-4
  0
LINE
  5
437
100
AcDbEntity
  8
0
  6
DASHED
 62
     1
100
AcDbLine
 10
-44.60577014527908
 20
-3.999998063707988
 11
-44.10576954270685
 21
-3.499997587576438
  0
LINE
  5
438
100
AcDbEntity
  8
0
  6
DASHED
 62
     1
100
AcDbLine
 10
-52.60576629638672
 20
4.900000095367432
 11
-51.90576171875
 21
4.900000095367432
  0
LINE
  5
439
100
AcDbEntity
  8
0
  6
DASHED
 62
     1
100
AcDbLine
 10
-52.60576629638672
 20
4.900002002716065
 11
-52.60576629638672
 21
-4.899998188018799
  0
LINE
  5
43a
100
AcDbEntity
  8
0
  6
DASHED
 62
     7
100
AcDbLine
 10
-54.60575866699219
 20
-5.000007629394531
 11
-54.60575866699219
 21
5
  0
LINE
  5
43b
100
AcDbEntity
  8
0
  6
DASHED
 62
     7
100
AcDbLine
 10
-55.10575866699219
 20
-5
 11
-55.10575866699219
 21
5
  0
LINE
  5
43c
100
AcDbEntity
  8
0
  6
DASHED
 62
     7
100
AcDbLine
 10
-55.10575866699219
 20
5
 11
-54.60575866699219
 21
5
  0
LINE
  5
43d
100
AcDbEntity
  8
0
  6
DASHED
 62
     7
100
AcDbLine
 10
-55.10575866699219
 20
-5
 11
-54.60575866699219
 21
-5
  0
ARC
  5
43e
100
AcDbEntity
  8
0
  6
DASHED
 62
     7
100
AcDbCircle
 10
-49
 20
49
 40
10
100
AcDbArc
 50
90.000036655424
 51
180.0000186693354
  0
ARC
  5
43f
100
AcDbEntity
  8
0
  6
DASHED
 62
     7
100
AcDbCircle
 10
49
 20
49
 40
10
100
AcDbArc
 50
0
 51
90.000036655424
  0
ARC
  5
440
100
AcDbEntity
  8
0
  6
DASHED
 62
     7
100
AcDbCircle
 10
49
 20
-49
 40
10
100
AcDbArc
 50
270.00001798609
 51
5.46415133601103e-005
  0
ARC
  5
441
100
AcDbEntity
  8
0
  6
DASHED
 62
     7
100
AcDbCircle
 10
-49
 20
-49
 40
10
100
AcDbArc
 50
180.0000186693354
 51
270.0000006832461
  0
CIRCLE
  5
442
100
AcDbEntity
  8
0
  6
CONTINUOUS
 62
     7
100
AcDbCircle
 10
0
 20
0
 40
26
  0
CIRCLE
  5
443
100
AcDbEntity
  8
0
  6
CONTINUOUS
 62
     7
100
AcDbCircle
 10
0
 20
0
 40
25.44999694824219
  0
CIRCLE
  5
444
100
AcDbEntity
  8
0
  6
CONTINUOUS
 62
     7
100
AcDbCircle
 10
-75
 20
46
 40
7
  0
CIRCLE
  5
445
100
AcDbEntity
  8
0
  6
CONTINUOUS
 62
     7
100
AcDbCircle
 10
-75
 20
-46
 40
7
  0
CIRCLE
  5
446
100
AcDbEntity
  8
0
  6
CONTINUOUS
 62
     7
100
AcDbCircle
 10
75
 20
-46
 40
7
  0
CIRCLE
  5
447
100
AcDbEntity
  8
0
  6
CONTINUOUS
 62
     7
100
AcDbCircle
 10
75
 20
46
 40
7
  0
CIRCLE
  5
448
100
AcDbEntity
  8
0
  6
CONTINUOUS
 62
     7
100
AcDbCircle
 10
45
 20
45.00003051757813
 40
11.5
  0
CIRCLE
  5
449
100
AcDbEntity
  8
0
  6
CONTINUOUS
 62
     7
100
AcDbCircle
 10
-44.99996948242188
 20
45.00003051757813
 40
11.5
  0
CIRCLE
  5
44a
100
AcDbEntity
  8
0
  6
CONTINUOUS
 62
     7
100
AcDbCircle
 10
-44.99996948242188
 20
-44.99996948242188
 40
11.5
  0
CIRCLE
  5
44b
100
AcDbEntity
  8
0
  6
CONTINUOUS
 62
     7
100
AcDbCircle
 10
45
 20
-44.99996948242188
 40
11.5
  0
CIRCLE
  5
44c
100
AcDbEntity
  8
0
  6
CONTINUOUS
 62
     7
100
AcDbCircle
 10
45
 20
-44.99996566772461
 40
10.5
  0
CIRCLE
  5
44d
100
AcDbEntity
  8
0
  6
CONTINUOUS
 62
     7
100
AcDbCircle
 10
45
 20
45.00003433227539
 40
10.5
  0
CIRCLE
  5
44e
100
AcDbEntity
  8
0
  6
CONTINUOUS
 62
     7
100
AcDbCircle
 10
-44.99996948242188
 20
45.00003433227539
 40
10.5
  0
CIRCLE
  5
44f
100
AcDbEntity
  8
0
  6
CONTINUOUS
 62
     7
100
AcDbCircle
 10
-44.99996948242188
 20
-44.99996566772461
 40
10.5
  0
MTEXT
  5
450
100
AcDbEntity
  8
0
  6
CONTINUOUS
 62
     7
100
AcDbMText
 10
8.746437683701515
 20
-48.20000076293945
 40
0.5
 41
38
 71
     7
 72
     1
  1
{\W0.842478;ＢＮ－６１０５－ＦＢＣ－１００－Ｂ－＊}
  0
INSERT
  5
451
100
AcDbEntity
  8
0
  6
CONTINUOUS
 62
     3
100
AcDbBlockReference
  2
KOZU0009
 10
0
 20
0
  0
ENDBLK
  8
0
  5
452
100
AcDbEntity
100
AcDbBlockEnd
  0
BLOCK
  8
0
  5
453
100
AcDbEntity
100
AcDbBlockBegin
  2
KOZU0004
 70
    64
 10
0
 20
0
  0
POINT
  5
454
100
AcDbEntity
  8
0
  6
CONTINUOUS
 62
     7
100
AcDbPoint
 10
0
 20
0
  0
LINE
  5
455
100
AcDbEntity
  8
0
  6
CENTER
 62
     3
100
AcDbLine
 10
0
 20
66.12991333007813
 11
0
 21
-64.44438171386719
  0
LINE
  5
456
100
AcDbEntity
  8
0
  6
CENTER
 62
     3
100
AcDbLine
 10
-93.97499847412109
 20
0
 11
94.32499694824219
 21
0
  0
LINE
  5
457
100
AcDbEntity
  8
0
  6
CONTINUOUS
 62
     7
100
AcDbLine
 10
-59
 20
49
 11
-59
 21
-49
  0
LINE
  5
458
100
AcDbEntity
  8
0
  6
CONTINUOUS
 62
     7
100
AcDbLine
 10
-49
 20
59
 11
49
 21
59
  0
LINE
  5
459
100
AcDbEntity
  8
0
  6
CONTINUOUS
 62
     7
100
AcDbLine
 10
58.99998474121094
 20
49
 11
58.99998474121094
 21
-49
  0
LINE
  5
45a
100
AcDbEntity
  8
0
  6
CONTINUOUS
 62
     7
100
AcDbLine
 10
-49
 20
-59
 11
49
 21
-59
  0
LINE
  5
45b
100
AcDbEntity
  8
0
  6
CONTINUOUS
 62
     7
100
AcDbLine
 10
-20
 20
59.29998779296875
 11
-20
 21
59
  0
LINE
  5
45c
100
AcDbEntity
  8
0
  6
CONTINUOUS
 62
     7
100
AcDbLine
 10
-20
 20
59.29998779296875
 11
20
 21
59.29998779296875
  0
LINE
  5
45d
100
AcDbEntity
  8
0
  6
CONTINUOUS
 62
     7
100
AcDbLine
 10
20
 20
59.29998779296875
 11
20
 21
59
  0
LINE
  5
45e
100
AcDbEntity
  8
0
  6
DASHED
 62
     7
100
AcDbLine
 10
13.699951171875
 20
59.29998779296875
 11
13.699951171875
 21
57.79998779296875
  0
LINE
  5
45f
100
AcDbEntity
  8
0
  6
DASHED
 62
     7
100
AcDbLine
 10
-13.699951171875
 20
57.79998779296875
 11
13.699951171875
 21
57.79998779296875
  0
LINE
  5
460
100
AcDbEntity
  8
0
  6
DASHED
 62
     7
100
AcDbLine
 10
9.250112479145638
 20
56.20007788650216
 11
10.8500796783734
 21
57.80004508572992
  0
LINE
  5
461
100
AcDbEntity
  8
0
  6
DASHED
 62
     7
100
AcDbLine
 10
-9.25
 20
56.19998168945313
 11
9.25
 21
56.19998168945313
  0
LINE
  5
462
100
AcDbEntity
  8
0
  6
DASHED
 62
     7
100
AcDbLine
 10
9.25002363070135
 20
56.19999496672072
 11
8.834806933861067
 21
44.30001011356352
  0
LINE
  5
463
100
AcDbEntity
  8
0
  6
DASHED
 62
     7
100
AcDbLine
 10
10.23255993430425
 20
44.29997249241502
 11
10.75298368323687
 21
57.7029584839136
  0
LINE
  5
464
100
AcDbEntity
  8
0
  6
DASHED
 62
     7
100
AcDbLine
 10
-13.699951171875
 20
59.29998779296875
 11
-13.699951171875
 21
57.79998779296875
  0
LINE
  5
465
100
AcDbEntity
  8
0
  6
DASHED
 62
     7
100
AcDbLine
 10
-9.249985701425317
 20
56.20001045154454
 11
-10.84998526943274
 21
57.80001001955196
  0
LINE
  5
466
100
AcDbEntity
  8
0
  6
DASHED
 62
     7
100
AcDbLine
 10
-10.23262572338574
 20
44.3000157170694
 11
-10.75304893017423
 21
57.70298645933139
  0
LINE
  5
467
100
AcDbEntity
  8
0
  6
DASHED
 62
     7
100
AcDbLine
 10
-8.83491886690102
 20
44.29999093989832
 11
-9.250135563741305
 21
56.19997579305551
  0
LINE
  5
468
100
AcDbEntity
  8
0
  6
CONTINUOUS
 62
     7
100
AcDbLine
 10
-31
 20
53.5
 11
-31
 21
42
  0
LINE
  5
469
100
AcDbEntity
  8
0
  6
CONTINUOUS
 62
     7
100
AcDbLine
 10
-28.5
 20
56
 11
28.5
 21
56
  0
LINE
  5
46a
100
AcDbEntity
  8
0
  6
CONTINUOUS
 62
     7
100
AcDbLine
 10
31
 20
53.5
 11
31
 21
42
  0
LINE
  5
46b
100
AcDbEntity
  8
0
  6
CONTINUOUS
 62
     7
100
AcDbLine
 10
-28.5
 20
46
 11
28.5
 21
46
  0
LINE
  5
46c
100
AcDbEntity
  8
0
  6
CONTINUOUS
 62
     7
100
AcDbLine
 10
-15
 20
46
 11
-15
 21
42
  0
LINE
  5
46d
100
AcDbEntity
  8
0
  6
CONTINUOUS
 62
     7
100
AcDbLine
 10
-10.00000674094044
 20
36.9999900101716
 11
-15.0000121344594
 21
41.99999540369055
  0
LINE
  5
46e
100
AcDbEntity
  8
0
  6
CONTINUOUS
 62
     7
100
AcDbLine
 10
-15
 20
42
 11
15
 21
42
  0
LINE
  5
46f
100
AcDbEntity
  8
0
  6
CONTINUOUS
 62
     7
100
AcDbLine
 10
-10
 20
37
 11
10
 21
37
  0
LINE
  5
470
100
AcDbEntity
  8
0
  6
CONTINUOUS
 62
     7
100
AcDbLine
 10
15
 20
46
 11
15
 21
42
  0
LINE
  5
471
100
AcDbEntity
  8
0
  6
CONTINUOUS
 62
     7
100
AcDbLine
 10
10.0000080896396
 20
36.99997787187922
 11
15.00001348315855
 21
41.99998326539818
  0
LINE
  5
472
100
AcDbEntity
  8
0
  6
CONTINUOUS
 62
     7
100
AcDbLine
 10
42
 20
31
 11
45.5
 21
31
  0
LINE
  5
473
100
AcDbEntity
  8
0
  6
CONTINUOUS
 62
     7
100
AcDbLine
 10
55.99998474121094
 20
20.5
 11
55.99998474121094
 21
-20.5
  0
LINE
  5
474
100
AcDbEntity
  8
0
  6
CONTINUOUS
 62
     7
100
AcDbLine
 10
-45.5
 20
31
 11
-42
 21
31
  0
LINE
  5
475
100
AcDbEntity
  8
0
  6
CONTINUOUS
 62
     7
100
AcDbLine
 10
-56
 20
20.5
 11
-56
 21
-20.5
  0
LINE
  5
476
100
AcDbEntity
  8
0
  6
CONTINUOUS
 62
     7
100
AcDbLine
 10
-45.00001768523804
 20
38.00002340185118
 11
-51.00001711319603
 21
41.53592113270099
  0
LINE
  5
477
100
AcDbEntity
  8
0
  6
CONTINUOUS
 62
     7
100
AcDbLine
 10
-50.99999311985688
 20
48.46411011293414
 11
-44.99998711897012
 21
52.00001171731829
  0
LINE
  5
478
100
AcDbEntity
  8
0
  6
CONTINUOUS
 62
     7
100
AcDbLine
 10
-51
 20
48.46414184570313
 11
-51
 21
41.53591918945313
  0
LINE
  5
479
100
AcDbEntity
  8
0
  6
CONTINUOUS
 62
     7
100
AcDbLine
 10
-45.00001334414655
 20
52.00002493124957
 11
-39.00001062972417
 21
48.4641252636326
  0
LINE
  5
47a
100
AcDbEntity
  8
0
  6
CONTINUOUS
 62
     7
100
AcDbLine
 10
-39
 20
48.46414184570313
 11
-39
 21
41.53591918945313
  0
LINE
  5
47b
100
AcDbEntity
  8
0
  6
CONTINUOUS
 62
     7
100
AcDbLine
 10
-38.99996964719222
 20
41.5359447749256
 11
-44.99997564807899
 21
38.00004317054145
  0
LINE
  5
47c
100
AcDbEntity
  8
0
  6
CENTER
 62
     3
100
AcDbLine
 10
-55.5
 20
45.00003051757813
 11
-34.5
 21
45.00003051757813
  0
LINE
  5
47d
100
AcDbEntity
  8
0
  6
CENTER
 62
     3
100
AcDbLine
 10
-45
 20
55.5
 11
-45
 21
34.5
  0
LINE
  5
47e
100
AcDbEntity
  8
0
  6
CONTINUOUS
 62
     7
100
AcDbLine
 10
-33.1928071058253
 20
31.07142354199289
 11
-21.91434955658547
 21
19.79296599275306
  0
LINE
  5
47f
100
AcDbEntity
  8
0
  6
CONTINUOUS
 62
     7
100
AcDbLine
 10
-31.07144958874527
 20
33.19280263825935
 11
-19.79297855251392
 21
21.914331602028
  0
LINE
  5
480
100
AcDbEntity
  8
0
  6
CONTINUOUS
 62
     7
100
AcDbLine
 10
-10
 20
37
 11
-10
 21
25.92295837402344
  0
LINE
  5
481
100
AcDbEntity
  8
0
  6
CONTINUOUS
 62
     7
100
AcDbLine
 10
10
 20
37
 11
10
 21
25.92295837402344
  0
LINE
  5
482
100
AcDbEntity
  8
0
  6
CENTER
 62
     3
100
AcDbLine
 10
44.99998474121094
 20
55.5
 11
44.99998474121094
 21
34.5
  0
LINE
  5
483
100
AcDbEntity
  8
0
  6
CONTINUOUS
 62
     7
100
AcDbLine
 10
44.99996470078942
 20
52.00003378438448
 11
50.99996412874742
 21
48.46413605353467
  0
LINE
  5
484
100
AcDbEntity
  8
0
  6
CONTINUOUS
 62
     7
100
AcDbLine
 10
50.99998474121094
 20
48.46414184570313
 11
50.99998474121094
 21
41.53591918945313
  0
LINE
  5
485
100
AcDbEntity
  8
0
  6
CONTINUOUS
 62
     7
100
AcDbLine
 10
38.99996209538567
 20
48.46410994505245
 11
44.99996809627243
 21
52.00001154943659
  0
LINE
  5
486
100
AcDbEntity
  8
0
  6
CENTER
 62
     3
100
AcDbLine
 10
34.5
 20
45.00003051757813
 11
55.49998474121094
 21
45.00003051757813
  0
LINE
  5
487
100
AcDbEntity
  8
0
  6
CONTINUOUS
 62
     7
100
AcDbLine
 10
38.99998474121094
 20
48.46414184570313
 11
38.99998474121094
 21
41.53591918945313
  0
LINE
  5
488
100
AcDbEntity
  8
0
  6
CONTINUOUS
 62
     7
100
AcDbLine
 10
44.99998955656375
 20
38.00002169054525
 11
38.99999012860575
 21
41.53591942139505
  0
LINE
  5
489
100
AcDbEntity
  8
0
  6
CONTINUOUS
 62
     7
100
AcDbLine
 10
50.99999815703697
 20
41.53592324502542
 11
44.99999215615021
 21
38.00002164064127
  0
LINE
  5
48a
100
AcDbEntity
  8
0
  6
CONTINUOUS
 62
     7
100
AcDbLine
 10
31.07143020119495
 20
33.19276807784357
 11
19.79296051366275
 21
21.91429839031138
  0
LINE
  5
48b
100
AcDbEntity
  8
0
  6
CONTINUOUS
 62
     7
100
AcDbLine
 10
33.19277439987085
 20
31.07146703754055
 11
21.91430471233865
 21
19.79299735000835
  0
LINE
  5
48c
100
AcDbEntity
  8
0
  6
DASHED
 62
     7
100
AcDbLine
 10
57.49998474121094
 20
8.25
 11
58.99998474121094
 21
8.25
  0
LINE
  5
48d
100
AcDbEntity
  8
0
  6
DASHED
 62
     7
100
AcDbLine
 10
57.49998474121094
 20
8.25
 11
57.49998474121094
 21
-8.25
  0
LINE
  5
48e
100
AcDbEntity
  8
0
  6
DASHED
 62
     7
100
AcDbLine
 10
47.5
 20
5
 11
57.49998474121094
 21
5
  0
LINE
  5
48f
100
AcDbEntity
  8
0
  6
CONTINUOUS
 62
     7
100
AcDbLine
 10
53
 20
6.5
 11
27.39982604980469
 21
6.5
  0
LINE
  5
490
100
AcDbEntity
  8
0
  6
CONTINUOUS
 62
     7
100
AcDbLine
 10
52
 20
1.5
 11
29.49153137207031
 21
1.5
  0
LINE
  5
491
100
AcDbEntity
  8
0
  6
DASHED
 62
     7
100
AcDbLine
 10
34.71810913085938
 20
1.25
 11
40.5
 21
1.25
  0
LINE
  5
492
100
AcDbEntity
  8
0
  6
DASHED
 62
     7
100
AcDbLine
 10
34.71774291992188
 20
-1.25
 11
40.5
 21
-1.25
  0
LINE
  5
493
100
AcDbEntity
  8
0
  6
DASHED
 62
     7
100
AcDbLine
 10
40.5
 20
3.593994140625
 11
40.5
 21
1.25
  0
LINE
  5
494
100
AcDbEntity
  8
0
  6
CONTINUOUS
 62
     7
100
AcDbLine
 10
40.79679081371228
 20
3.593989309201781
 11
41.50001358716504
 21
3.999995174042095
  0
LINE
  5
495
100
AcDbEntity
  8
0
  6
DASHED
 62
     7
100
AcDbLine
 10
41.5
 20
4
 11
41.5
 21
3.593994140625
  0
LINE
  5
496
100
AcDbEntity
  8
0
  6
DASHED
 62
     7
100
AcDbLine
 10
40.5
 20
3.593994140625
 11
47.5
 21
3.593994140625
  0
LINE
  5
497
100
AcDbEntity
  8
0
  6
DASHED
 62
     7
100
AcDbLine
 10
41.5
 20
4
 11
47.5
 21
4
  0
LINE
  5
498
100
AcDbEntity
  8
0
  6
DASHED
 62
     7
100
AcDbLine
 10
47.5
 20
5
 11
47.5
 21
3.593994140625
  0
LINE
  5
499
100
AcDbEntity
  8
0
  6
DASHED
 62
     7
100
AcDbLine
 10
57.49998474121094
 20
-8.25
 11
58.99998474121094
 21
-8.25
  0
LINE
  5
49a
100
AcDbEntity
  8
0
  6
DASHED
 62
     7
100
AcDbLine
 10
47.5
 20
-5
 11
57.49998474121094
 21
-5
  0
LINE
  5
49b
100
AcDbEntity
  8
0
  6
CONTINUOUS
 62
     7
100
AcDbLine
 10
53
 20
-6.5
 11
27.39982604980469
 21
-6.5
  0
LINE
  5
49c
100
AcDbEntity
  8
0
  6
CONTINUOUS
 62
     7
100
AcDbLine
 10
52
 20
-1.5
 11
29.49153137207031
 21
-1.5
  0
LINE
  5
49d
100
AcDbEntity
  8
0
  6
DASHED
 62
     7
100
AcDbLine
 10
47.5
 20
-3.593994140625
 11
47.5
 21
-5
  0
LINE
  5
49e
100
AcDbEntity
  8
0
  6
DASHED
 62
     7
100
AcDbLine
 10
40.5
 20
-3.593994140625
 11
47.5
 21
-3.593994140625
  0
LINE
  5
49f
100
AcDbEntity
  8
0
  6
DASHED
 62
     7
100
AcDbLine
 10
41.5
 20
-4
 11
47.5
 21
-4
  0
LINE
  5
4a0
100
AcDbEntity
  8
0
  6
DASHED
 62
     7
100
AcDbLine
 10
41.5
 20
-3.593994140625
 11
41.5
 21
-4
  0
LINE
  5
4a1
100
AcDbEntity
  8
0
  6
DASHED
 62
     7
100
AcDbLine
 10
40.5
 20
-1.25
 11
40.5
 21
-3.593994140625
  0
LINE
  5
4a2
100
AcDbEntity
  8
0
  6
DASHED
 62
     7
100
AcDbLine
 10
40.79678018635295
 20
-3.594038233905478
 11
41.49998974530681
 21
-4.000036469351157
  0
LINE
  5
4a3
100
AcDbEntity
  8
0
  6
CONTINUOUS
 62
     7
100
AcDbLine
 10
31.0714343315861
 20
-33.19281789541851
 11
19.79296329535476
 21
-21.91434685918717
  0
LINE
  5
4a4
100
AcDbEntity
  8
0
  6
CONTINUOUS
 62
     7
100
AcDbLine
 10
33.19276672914442
 20
-31.07147470826698
 11
21.91430513380714
 21
-19.7930131129297
  0
LINE
  5
4a5
100
AcDbEntity
  8
0
  6
CONTINUOUS
 62
     7
100
AcDbLine
 10
18.00442504882813
 20
10.392333984375
 11
18.00442504882813
 21
-10.39228820800781
  0
LINE
  5
4a6
100
AcDbEntity
  8
0
  6
CONTINUOUS
 62
     7
100
AcDbLine
 10
0.004420378679002468
 20
-20.79998879952985
 11
18.00443527684599
 21
-10.39228192573057
  0
LINE
  5
4a7
100
AcDbEntity
  8
0
  6
CONTINUOUS
 62
     7
100
AcDbLine
 10
-17.99555274791826
 20
-10.39230635300228
 11
0.00444563824294697
 21
-20.80000367946968
  0
LINE
  5
4a8
100
AcDbEntity
  8
0
  6
CONTINUOUS
 62
     7
100
AcDbLine
 10
-17.99557495117188
 20
10.392333984375
 11
-17.99557495117188
 21
-10.39228820800781
  0
LINE
  5
4a9
100
AcDbEntity
  8
0
  6
CONTINUOUS
 62
     7
100
AcDbLine
 10
0.004436967314255469
 20
20.80003391761167
 11
-17.99555151164349
 21
10.3923423195434
  0
LINE
  5
4aa
100
AcDbEntity
  8
0
  6
CONTINUOUS
 62
     7
100
AcDbLine
 10
18.00445437150975
 20
10.39231494974212
 11
0.004449380546223125
 21
20.80001609514227
  0
LINE
  5
4ab
100
AcDbEntity
  8
0
  6
CONTINUOUS
 62
     7
100
AcDbLine
 10
42
 20
-31
 11
45.5
 21
-31
  0
LINE
  5
4ac
100
AcDbEntity
  8
0
  6
CONTINUOUS
 62
     7
100
AcDbLine
 10
31
 20
-42
 11
31
 21
-45.5
  0
LINE
  5
4ad
100
AcDbEntity
  8
0
  6
CONTINUOUS
 62
     7
100
AcDbLine
 10
-20.5
 20
-56
 11
20.5
 21
-56
  0
LINE
  5
4ae
100
AcDbEntity
  8
0
  6
CONTINUOUS
 62
     7
100
AcDbLine
 10
44.9999801283882
 20
-51.99996107833093
 11
38.99998727335896
 21
-48.46406722101548
  0
LINE
  5
4af
100
AcDbEntity
  8
0
  6
CONTINUOUS
 62
     7
100
AcDbLine
 10
38.99998474121094
 20
-41.53587341308594
 11
38.99998474121094
 21
-48.46406555175781
  0
LINE
  5
4b0
100
AcDbEntity
  8
0
  6
CENTER
 62
     3
100
AcDbLine
 10
34.5
 20
-44.99996948242188
 11
55.49998474121094
 21
-44.99996948242188
  0
LINE
  5
4b1
100
AcDbEntity
  8
0
  6
CENTER
 62
     3
100
AcDbLine
 10
44.99998474121094
 20
-34.5
 11
44.99998474121094
 21
-55.5
  0
LINE
  5
4b2
100
AcDbEntity
  8
0
  6
CONTINUOUS
 62
     7
100
AcDbLine
 10
51.00000004390017
 20
-48.46406175415292
 11
44.99999404301342
 21
-51.99996335853707
  0
LINE
  5
4b3
100
AcDbEntity
  8
0
  6
CONTINUOUS
 62
     7
100
AcDbLine
 10
50.99998474121094
 20
-41.53587341308594
 11
50.99998474121094
 21
-48.46406555175781
  0
LINE
  5
4b4
100
AcDbEntity
  8
0
  6
CONTINUOUS
 62
     7
100
AcDbLine
 10
44.9999903524603
 20
-37.99997962024268
 11
50.9999897804183
 21
-41.53587735109248
  0
LINE
  5
4b5
100
AcDbEntity
  8
0
  6
CONTINUOUS
 62
     7
100
AcDbLine
 10
38.99998736881316
 20
-41.53585463029191
 11
44.99999336969992
 21
-37.99995302590776
  0
LINE
  5
4b6
100
AcDbEntity
  8
0
  6
CONTINUOUS
 62
     7
100
AcDbLine
 10
1.25
 20
-29.53704833984375
 11
1.25
 21
-52
  0
LINE
  5
4b7
100
AcDbEntity
  8
0
  6
CONTINUOUS
 62
     7
100
AcDbLine
 10
-1.25
 20
-29.53704833984375
 11
-1.25
 21
-52
  0
LINE
  5
4b8
100
AcDbEntity
  8
0
  6
CONTINUOUS
 62
     7
100
AcDbLine
 10
-31
 20
-42
 11
-31
 21
-45.5
  0
LINE
  5
4b9
100
AcDbEntity
  8
0
  6
CONTINUOUS
 62
     7
100
AcDbLine
 10
-33.19276672914442
 20
-31.07147470826698
 11
-21.91429704161222
 21
-19.79300502073478
  0
LINE
  5
4ba
100
AcDbEntity
  8
0
  6
CONTINUOUS
 62
     7
100
AcDbLine
 10
-31.07144419394866
 20
-33.19279724346274
 11
-19.79297450641646
 21
-21.91432755593054
  0
LINE
  5
4bb
100
AcDbEntity
  8
0
  6
CONTINUOUS
 62
     7
100
AcDbLine
 10
-45.00000751414012
 20
-37.99998454085437
 11
-39.00000479971774
 21
-41.53588420847134
  0
LINE
  5
4bc
100
AcDbEntity
  8
0
  6
CONTINUOUS
 62
     7
100
AcDbLine
 10
-39
 20
-41.53587341308594
 11
-39
 21
-48.46406555175781
  0
LINE
  5
4bd
100
AcDbEntity
  8
0
  6
CONTINUOUS
 62
     7
100
AcDbLine
 10
-38.99998243144103
 20
-48.46407543717644
 11
-44.99998843232778
 21
-51.99997704156058
  0
LINE
  5
4be
100
AcDbEntity
  8
0
  6
CONTINUOUS
 62
     7
100
AcDbLine
 10
-45.00001728421952
 20
-52.00000279610966
 11
-51.0000199986419
 21
-48.46410312849268
  0
LINE
  5
4bf
100
AcDbEntity
  8
0
  6
CONTINUOUS
 62
     7
100
AcDbLine
 10
-51
 20
-41.53587341308594
 11
-51
 21
-48.46406555175781
  0
LINE
  5
4c0
100
AcDbEntity
  8
0
  6
CONTINUOUS
 62
     7
100
AcDbLine
 10
-50.99999171718547
 20
-41.5358740646281
 11
-44.99998571629871
 21
-37.99997246024395
  0
LINE
  5
4c1
100
AcDbEntity
  8
0
  6
CENTER
 62
     3
100
AcDbLine
 10
-55.5
 20
-44.99996948242188
 11
-34.5
 21
-44.99996948242188
  0
LINE
  5
4c2
100
AcDbEntity
  8
0
  6
CENTER
 62
     3
100
AcDbLine
 10
-45
 20
-34.5
 11
-45
 21
-55.5
  0
LINE
  5
4c3
100
AcDbEntity
  8
0
  6
CONTINUOUS
 62
     7
100
AcDbLine
 10
-45.5
 20
-31
 11
-42
 21
-31
  0
LINE
  5
4c4
100
AcDbEntity
  8
0
  6
CONTINUOUS
 62
     7
100
AcDbLine
 10
-52
 20
-1.5
 11
-29.49153137207031
 21
-1.5
  0
LINE
  5
4c5
100
AcDbEntity
  8
0
  6
CONTINUOUS
 62
     7
100
AcDbLine
 10
-53
 20
-6.5
 11
-27.39982604980469
 21
-6.5
  0
LINE
  5
4c6
100
AcDbEntity
  8
0
  6
CONTINUOUS
 62
     7
100
AcDbLine
 10
-52
 20
1.5
 11
-29.49153137207031
 21
1.5
  0
LINE
  5
4c7
100
AcDbEntity
  8
0
  6
CONTINUOUS
 62
     7
100
AcDbLine
 10
-53
 20
6.5
 11
-27.39982604980469
 21
6.5
  0
LINE
  5
4c8
100
AcDbEntity
  8
0
  6
CONTINUOUS
 62
     7
100
AcDbLine
 10
89.49999237060547
 20
-62
 11
-89.5
 21
-62
  0
LINE
  5
4c9
100
AcDbEntity
  8
0
  6
CONTINUOUS
 62
     7
100
AcDbLine
 10
-90
 20
61.5
 11
-90
 21
-61.5
  0
LINE
  5
4ca
100
AcDbEntity
  8
0
  6
CONTINUOUS
 62
     7
100
AcDbLine
 10
89.5
 20
62
 11
-89.49999237060547
 21
62
  0
LINE
  5
4cb
100
AcDbEntity
  8
0
  6
CENTER
 62
     3
100
AcDbLine
 10
-75
 20
56
 11
-75
 21
36
  0
LINE
  5
4cc
100
AcDbEntity
  8
0
  6
CENTER
 62
     3
100
AcDbLine
 10
-65
 20
46
 11
-85
 21
46
  0
LINE
  5
4cd
100
AcDbEntity
  8
0
  6
CONTINUOUS
 62
     7
100
AcDbLine
 10
90
 20
61.5
 11
90
 21
-61.5
  0
LINE
  5
4ce
100
AcDbEntity
  8
0
  6
CENTER
 62
     3
100
AcDbLine
 10
65
 20
46
 11
85
 21
46
  0
LINE
  5
4cf
100
AcDbEntity
  8
0
  6
CENTER
 62
     3
100
AcDbLine
 10
75
 20
56
 11
75
 21
36
  0
LINE
  5
4d0
100
AcDbEntity
  8
0
  6
CENTER
 62
     3
100
AcDbLine
 10
65
 20
-46
 11
85
 21
-46
  0
LINE
  5
4d1
100
AcDbEntity
  8
0
  6
CENTER
 62
     3
100
AcDbLine
 10
75
 20
-56
 11
75
 21
-36
  0
LINE
  5
4d2
100
AcDbEntity
  8
0
  6
CENTER
 62
     3
100
AcDbLine
 10
-75
 20
-56
 11
-75
 21
-36
  0
LINE
  5
4d3
100
AcDbEntity
  8
0
  6
CENTER
 62
     3
100
AcDbLine
 10
-65
 20
-46
 11
-85
 21
-46
  0
LINE
  5
4d4
100
AcDbEntity
  8
0
  6
CONTINUOUS
 62
     7
100
AcDbLine
 10
-89.99999477451488
 20
61.49999764265246
 11
-89.49998772346483
 21
61.99999706507373
  0
LINE
  5
4d5
100
AcDbEntity
  8
0
  6
CONTINUOUS
 62
     7
100
AcDbLine
 10
89.5000007863494
 20
62.00000079337653
 11
89.99999997700215
 21
61.50000160272379
  0
LINE
  5
4d6
100
AcDbEntity
  8
0
  6
CONTINUOUS
 62
     7
100
AcDbLine
 10
89.99999477451488
 20
-61.49999764265246
 11
89.49998772346483
 21
-61.99999706507373
  0
LINE
  5
4d7
100
AcDbEntity
  8
0
  6
CONTINUOUS
 62
     7
100
AcDbLine
 10
-89.5000007863494
 20
-62.00000079337653
 11
-89.99999997700215
 21
-61.50000160272379
  0
LINE
  5
4d8
100
AcDbEntity
  8
0
  6
DASHED
 62
     1
100
AcDbLine
 10
39.10576629638673
 20
-0.959998397112061
 11
39.10576629638673
 21
0.9599988181589351
  0
LINE
  5
4d9
100
AcDbEntity
  8
0
  6
DASHED
 62
     1
100
AcDbLine
 10
44.10575776892857
 20
-2.000000129174972
 11
39.10575572581465
 21
-0.9599965288354495
  0
LINE
  5
4da
100
AcDbEntity
  8
0
  6
DASHED
 62
     1
100
AcDbLine
 10
44.1057588885418
 20
1.99999847537005
 11
39.10575620010994
 21
0.9599979775159868
  0
LINE
  5
4db
100
AcDbEntity
  8
0
  6
DASHED
 62
     1
100
AcDbLine
 10
44.10576629638668
 20
-3.500001021292734
 11
44.10576629638668
 21
3.499998978707266
  0
LINE
  5
4dc
100
AcDbEntity
  8
0
  6
DASHED
 62
     1
100
AcDbLine
 10
44.60576629638668
 20
3.999998903209365
 11
44.60576629638668
 21
-4.000001096790635
  0
LINE
  5
4dd
100
AcDbEntity
  8
0
  6
DASHED
 62
     1
100
AcDbLine
 10
44.10576435699444
 20
-3.500002816005029
 11
44.605764757628
 21
-4.000003494075227
  0
LINE
  5
4de
100
AcDbEntity
  8
0
  6
DASHED
 62
     1
100
AcDbLine
 10
48.10576569240344
 20
-4.000000476837113
 11
44.60576569240344
 21
-4.000000476837113
  0
LINE
  5
4df
100
AcDbEntity
  8
0
  6
DASHED
 62
     1
100
AcDbLine
 10
49.60576575370775
 20
-3.594000339508016
 11
44.19975989433275
 21
-3.594000339508016
  0
LINE
  5
4e0
100
AcDbEntity
  8
0
  6
DASHED
 62
     1
100
AcDbLine
 10
48.10576629638663
 20
-4.000001625275944
 11
48.10576629638663
 21
3.999997897886898
  0
LINE
  5
4e1
100
AcDbEntity
  8
0
  6
DASHED
 62
     1
100
AcDbLine
 10
49.60576629638662
 20
-4.900003377648554
 11
49.60576629638662
 21
4.899997289923467
  0
LINE
  5
4e2
100
AcDbEntity
  8
0
  6
DASHED
 62
     1
100
AcDbLine
 10
50.30576250474946
 20
-4.900000095367377
 11
49.60576555650727
 21
-4.900000095367377
  0
LINE
  5
4e3
100
AcDbEntity
  8
0
  6
DASHED
 62
     1
100
AcDbLine
 10
50.30576324462879
 20
-5.000002911140565
 11
50.30576324462879
 21
4.999997088859435
  0
LINE
  5
4e4
100
AcDbEntity
  8
0
  6
DASHED
 62
     1
100
AcDbLine
 10
51.90576096377092
 20
-5.000000476837101
 11
50.30576248964982
 21
-5.000000476837101
  0
LINE
  5
4e5
100
AcDbEntity
  8
0
  6
DASHED
 62
     1
100
AcDbLine
 10
51.90576171874987
 20
-5.000004106407936
 11
51.90576171874987
 21
4.999996370429223
  0
LINE
  5
4e6
100
AcDbEntity
  8
0
  6
DASHED
 62
     1
100
AcDbLine
 10
51.90576114496599
 20
-3.799999713897662
 11
50.3057626708449
 21
-3.799999713897662
  0
LINE
  5
4e7
100
AcDbEntity
  8
0
  6
DASHED
 62
     1
100
AcDbLine
 10
51.90576229253404
 20
3.799999952316241
 11
50.30576381841295
 21
3.799999952316241
  0
LINE
  5
4e8
100
AcDbEntity
  8
0
  6
DASHED
 62
     1
100
AcDbLine
 10
51.90576247372901
 20
4.999999999999943
 11
50.30576399960792
 21
4.999999999999943
  0
LINE
  5
4e9
100
AcDbEntity
  8
0
  6
DASHED
 62
     1
100
AcDbLine
 10
50.30576398450835
 20
4.900000095367377
 11
49.60576703626617
 21
4.900000095367377
  0
LINE
  5
4ea
100
AcDbEntity
  8
0
  6
DASHED
 62
     1
100
AcDbLine
 10
52.60576703626617
 20
4.900000095367377
 11
51.90576245862945
 21
4.900000095367377
  0
LINE
  5
4eb
100
AcDbEntity
  8
0
  6
DASHED
 62
     1
100
AcDbLine
 10
49.60576683906565
 20
3.594000101089437
 11
44.19976097969065
 21
3.594000101089437
  0
LINE
  5
4ec
100
AcDbEntity
  8
0
  6
DASHED
 62
     1
100
AcDbLine
 10
48.10576690036993
 20
3.999999999999955
 11
44.60576690036993
 21
3.999999999999955
  0
LINE
  5
4ed
100
AcDbEntity
  8
0
  6
DASHED
 62
     1
100
AcDbLine
 10
44.60577074926196
 20
3.999997443753884
 11
44.10577007119176
 21
3.499997043120331
  0
LINE
  5
4ee
100
AcDbEntity
  8
0
  6
DASHED
 62
     1
100
AcDbLine
 10
52.60576555650727
 20
-4.900000095367377
 11
51.90576097887055
 21
-4.900000095367377
  0
LINE
  5
4ef
100
AcDbEntity
  8
0
  6
DASHED
 62
     1
100
AcDbLine
 10
52.60576629638658
 20
-4.900003830635962
 11
52.60576629638658
 21
4.899996360098902
  0
LINE
  5
4f0
100
AcDbEntity
  8
0
  6
DASHED
 62
     7
100
AcDbLine
 10
54.60575866699203
 20
5.000005499484181
 11
54.60575866699203
 21
-5.00000212991035
  0
LINE
  5
4f1
100
AcDbEntity
  8
0
  6
DASHED
 62
     7
100
AcDbLine
 10
55.10575866699202
 20
4.999997794591748
 11
55.10575866699202
 21
-5.000002205408252
  0
LINE
  5
4f2
100
AcDbEntity
  8
0
  6
DASHED
 62
     7
100
AcDbLine
 10
55.10575791201318
 20
-4.999999999999943
 11
54.60575791201318
 21
-4.999999999999943
  0
LINE
  5
4f3
100
AcDbEntity
  8
0
  6
DASHED
 62
     7
100
AcDbLine
 10
55.1057594219712
 20
4.999999999999943
 11
54.6057594219712
 21
4.999999999999943
  0
ARC
  5
4f4
100
AcDbEntity
  8
0
  6
CONTINUOUS
 62
     7
100
AcDbCircle
 10
-49
 20
49
 40
10
100
AcDbArc
 50
89.99998201391064
 51
180.0000186693354
  0
ARC
  5
4f5
100
AcDbEntity
  8
0
  6
CONTINUOUS
 62
     7
100
AcDbCircle
 10
49
 20
49
 40
10
100
AcDbArc
 50
0
 51
89.99998201391064
  0
ARC
  5
4f6
100
AcDbEntity
  8
0
  6
CONTINUOUS
 62
     7
100
AcDbCircle
 10
49
 20
-49
 40
10
100
AcDbArc
 50
270.00001798609
 51
360
  0
ARC
  5
4f7
100
AcDbEntity
  8
0
  6
CONTINUOUS
 62
     7
100
AcDbCircle
 10
-49
 20
-49
 40
10
100
AcDbArc
 50
179.9999813306653
 51
270.00001798609
  0
ARC
  5
4f8
100
AcDbEntity
  8
0
  6
CONTINUOUS
 62
     7
100
AcDbCircle
 10
-28.5
 20
53.5
 40
2.5
100
AcDbArc
 50
90.00000250447816
 51
180.000005008957
  0
ARC
  5
4f9
100
AcDbEntity
  8
0
  6
CONTINUOUS
 62
     7
100
AcDbCircle
 10
28.5
 20
53.5
 40
2.5
100
AcDbArc
 50
0
 51
90.00000250447816
  0
ARC
  5
4fa
100
AcDbEntity
  8
0
  6
CONTINUOUS
 62
     7
100
AcDbCircle
 10
28.5
 20
43.5
 40
2.5
100
AcDbArc
 50
0
 51
90.00000250447816
  0
ARC
  5
4fb
100
AcDbEntity
  8
0
  6
CONTINUOUS
 62
     7
100
AcDbCircle
 10
-28.5
 20
43.5
 40
2.5
100
AcDbArc
 50
89.99998201391064
 51
180.000005008957
  0
ARC
  5
4fc
100
AcDbEntity
  8
0
  6
CONTINUOUS
 62
     7
100
AcDbCircle
 10
-42
 20
42
 40
11
100
AcDbArc
 50
270.00001798609
 51
360
  0
ARC
  5
4fd
100
AcDbEntity
  8
0
  6
CONTINUOUS
 62
     7
100
AcDbCircle
 10
42
 20
42
 40
11
100
AcDbArc
 50
179.9999949910437
 51
270.00001798609
  0
ARC
  5
4fe
100
AcDbEntity
  8
0
  6
CONTINUOUS
 62
     7
100
AcDbCircle
 10
45.5
 20
28.5
 40
2.5
100
AcDbArc
 50
344.5081986415901
 51
89.99998201391064
  0
ARC
  5
4ff
100
AcDbEntity
  8
0
  6
CONTINUOUS
 62
     7
100
AcDbCircle
 10
51.76383972167969
 20
26.76385498046875
 40
4
100
AcDbArc
 50
164.508234386397
 51
285.4917713058053
  0
ARC
  5
500
100
AcDbEntity
  8
0
  6
CONTINUOUS
 62
     7
100
AcDbCircle
 10
53.49998474121094
 20
20.5
 40
2.5
100
AcDbArc
 50
0
 51
105.4918209383616
  0
ARC
  5
501
100
AcDbEntity
  8
0
  6
CONTINUOUS
 62
     7
100
AcDbCircle
 10
-45.5
 20
28.5
 40
2.5
100
AcDbArc
 50
89.99998201391064
 51
195.491761971138
  0
ARC
  5
502
100
AcDbEntity
  8
0
  6
CONTINUOUS
 62
     7
100
AcDbCircle
 10
-51.76383972167969
 20
26.76385498046875
 40
4
100
AcDbArc
 50
254.5081927220173
 51
15.49179111312686
  0
ARC
  5
503
100
AcDbEntity
  8
0
  6
CONTINUOUS
 62
     7
100
AcDbCircle
 10
-53.5
 20
20.5
 40
2.5
100
AcDbArc
 50
74.50819773097295
 51
180.000005008957
  0
CIRCLE
  5
504
100
AcDbEntity
  8
0
  6
CONTINUOUS
 62
     7
100
AcDbCircle
 10
-45
 20
45
 40
10.5
  0
CIRCLE
  5
505
100
AcDbEntity
  8
0
  6
CONTINUOUS
 62
     7
100
AcDbCircle
 10
-45
 20
45.00003051757813
 40
9
  0
CIRCLE
  5
506
100
AcDbEntity
  8
0
  6
CONTINUOUS
 62
     7
100
AcDbCircle
 10
-45
 20
45.00003051757813
 40
7.25
  0
CIRCLE
  5
507
100
AcDbEntity
  8
0
  6
CONTINUOUS
 62
     7
100
AcDbCircle
 10
-45
 20
45.00003051757813
 40
6
  0
CIRCLE
  5
508
100
AcDbEntity
  8
0
  6
CONTINUOUS
 62
     7
100
AcDbCircle
 10
-45
 20
45.00003051757813
 40
5.053000450134277
  0
ARC
  5
509
100
AcDbEntity
  8
0
  6
CONTINUOUS
 62
     7
100
AcDbCircle
 10
-28.24302673339844
 20
36.02122497558594
 40
4
100
AcDbArc
 50
156.5102604532305
 51
224.9999960159124
  0
ARC
  5
50a
100
AcDbEntity
  8
0
  6
CONTINUOUS
 62
     7
100
AcDbCircle
 10
-36.02119445800781
 20
28.2430419921875
 40
4
100
AcDbArc
 50
45.00000125223906
 51
113.4898768337982
  0
ARC
  5
50b
100
AcDbEntity
  8
0
  6
CONTINUOUS
 62
     7
100
AcDbCircle
 10
-16.96455383300781
 20
24.74275207519531
 40
4
100
AcDbArc
 50
224.999999658378
 51
304.435991045313
  0
ARC
  5
50c
100
AcDbEntity
  8
0
  6
CONTINUOUS
 62
     7
100
AcDbCircle
 10
-24.74273681640625
 20
16.96458435058594
 40
4
100
AcDbArc
 50
325.5639449785077
 51
45.0000012522391
  0
ARC
  5
50d
100
AcDbEntity
  8
0
  6
CONTINUOUS
 62
     7
100
AcDbCircle
 10
0
 20
0
 40
38
100
AcDbArc
 50
143.5112493305373
 51
165.846568973126
  0
ARC
  5
50e
100
AcDbEntity
  8
0
  6
CONTINUOUS
 62
     7
100
AcDbCircle
 10
0
 20
0
 40
38
100
AcDbArc
 50
108.3168554809707
 51
128.1484053587511
  0
ARC
  5
50f
100
AcDbEntity
  8
0
  6
CONTINUOUS
 62
     7
100
AcDbCircle
 10
-13
 20
25.92295837402344
 40
3
100
AcDbArc
 50
296.6331180506933
 51
360
  0
CIRCLE
  5
510
100
AcDbEntity
  8
0
  6
CONTINUOUS
 62
     7
100
AcDbCircle
 10
0
 20
0
 40
26
  0
CIRCLE
  5
511
100
AcDbEntity
  8
0
  6
CONTINUOUS
 62
     7
100
AcDbCircle
 10
0
 20
0
 40
25.44999694824219
  0
ARC
  5
512
100
AcDbEntity
  8
0
  6
CONTINUOUS
 62
     7
100
AcDbCircle
 10
13
 20
25.92295837402344
 40
3
100
AcDbArc
 50
179.9999949910437
 51
243.3668837705409
  0
ARC
  5
513
100
AcDbEntity
  8
0
  6
CONTINUOUS
 62
     7
100
AcDbCircle
 10
0
 20
0
 40
38
100
AcDbArc
 50
51.46080696174838
 51
72.62780567133342
  0
CIRCLE
  5
514
100
AcDbEntity
  8
0
  6
CONTINUOUS
 62
     7
100
AcDbCircle
 10
45
 20
45
 40
10.5
  0
CIRCLE
  5
515
100
AcDbEntity
  8
0
  6
CONTINUOUS
 62
     7
100
AcDbCircle
 10
44.99998474121094
 20
45.00003051757813
 40
9
  0
CIRCLE
  5
516
100
AcDbEntity
  8
0
  6
CONTINUOUS
 62
     7
100
AcDbCircle
 10
44.99998474121094
 20
45.00003051757813
 40
7.25
  0
CIRCLE
  5
517
100
AcDbEntity
  8
0
  6
CONTINUOUS
 62
     7
100
AcDbCircle
 10
44.99998474121094
 20
45.00003051757813
 40
6
  0
CIRCLE
  5
518
100
AcDbEntity
  8
0
  6
CONTINUOUS
 62
     7
100
AcDbCircle
 10
44.99998474121094
 20
45.00003051757813
 40
5.053000450134277
  0
ARC
  5
519
100
AcDbEntity
  8
0
  6
CONTINUOUS
 62
     7
100
AcDbCircle
 10
36.02119445800781
 20
28.2430419921875
 40
4
100
AcDbArc
 50
66.51012134496891
 51
135.0000003416227
  0
ARC
  5
51a
100
AcDbEntity
  8
0
  6
CONTINUOUS
 62
     7
100
AcDbCircle
 10
28.24302673339844
 20
36.02122497558594
 40
4
100
AcDbArc
 50
314.9999987477617
 51
23.4897445557259
  0
ARC
  5
51b
100
AcDbEntity
  8
0
  6
CONTINUOUS
 62
     7
100
AcDbCircle
 10
24.74273681640625
 20
16.96458435058594
 40
4
100
AcDbArc
 50
135.0000003416227
 51
214.4360566153555
  0
ARC
  5
51c
100
AcDbEntity
  8
0
  6
CONTINUOUS
 62
     7
100
AcDbCircle
 10
16.96455383300781
 20
24.74275207519531
 40
4
100
AcDbArc
 50
235.5640073608267
 51
314.9999987477617
  0
ARC
  5
51d
100
AcDbEntity
  8
0
  6
CONTINUOUS
 62
     7
100
AcDbCircle
 10
0
 20
0
 40
38
100
AcDbArc
 50
14.60273953981216
 51
37.1169998933714
  0
ARC
  5
51e
100
AcDbEntity
  8
0
  6
CONTINUOUS
 62
     7
100
AcDbCircle
 10
53
 20
9.5
 40
3
100
AcDbArc
 50
269.9999906653333
 51
359.9999931698116
  0
ARC
  5
51f
100
AcDbEntity
  8
0
  6
CONTINUOUS
 62
     7
100
AcDbCircle
 10
27.39982604980469
 20
9.5
 40
3
100
AcDbArc
 50
199.1223390065457
 51
269.9999974955226
  0
ARC
  5
520
100
AcDbEntity
  8
0
  6
CONTINUOUS
 62
     7
100
AcDbCircle
 10
29.49153137207031
 20
5.5
 40
4
100
AcDbArc
 50
190.5639753727363
 51
269.9999974955226
  0
ARC
  5
521
100
AcDbEntity
  8
0
  6
CONTINUOUS
 62
     7
100
AcDbCircle
 10
52
 20
5.5
 40
4
100
AcDbArc
 50
269.9999906653334
 51
359.9999931698116
  0
ARC
  5
522
100
AcDbEntity
  8
0
  6
CONTINUOUS
 62
     7
100
AcDbCircle
 10
52
 20
-5.5
 40
4
100
AcDbArc
 50
359.9999590188657
 51
89.99996152334315
  0
ARC
  5
523
100
AcDbEntity
  8
0
  6
CONTINUOUS
 62
     7
100
AcDbCircle
 10
53
 20
-9.5
 40
3
100
AcDbArc
 50
359.9999590188657
 51
89.99996152334319
  0
ARC
  5
524
100
AcDbEntity
  8
0
  6
CONTINUOUS
 62
     7
100
AcDbCircle
 10
29.49153137207031
 20
-5.5
 40
4
100
AcDbArc
 50
90.00000250447816
 51
169.4360246272644
  0
ARC
  5
525
100
AcDbEntity
  8
0
  6
CONTINUOUS
 62
     7
100
AcDbCircle
 10
27.39982604980469
 20
-9.5
 40
3
100
AcDbArc
 50
90.00000250447815
 51
160.877660993455
  0
ARC
  5
526
100
AcDbEntity
  8
0
  6
CONTINUOUS
 62
     7
100
AcDbCircle
 10
0
 20
0
 40
38
100
AcDbArc
 50
322.9836429440495
 51
345.8178771696563
  0
ARC
  5
527
100
AcDbEntity
  8
0
  6
CONTINUOUS
 62
     7
100
AcDbCircle
 10
53.49998474121094
 20
-20.5
 40
2.5
100
AcDbArc
 50
254.5081790616391
 51
360
  0
ARC
  5
528
100
AcDbEntity
  8
0
  6
CONTINUOUS
 62
     7
100
AcDbCircle
 10
51.76383972167969
 20
-26.76385498046875
 40
4
100
AcDbArc
 50
74.50821139135128
 51
195.4917483107597
  0
ARC
  5
529
100
AcDbEntity
  8
0
  6
CONTINUOUS
 62
     7
100
AcDbCircle
 10
24.74273681640625
 20
-16.96458435058594
 40
4
100
AcDbArc
 50
145.5639397421796
 51
224.9999960159124
  0
ARC
  5
52a
100
AcDbEntity
  8
0
  6
CONTINUOUS
 62
     7
100
AcDbCircle
 10
16.96455383300781
 20
-24.74275207519531
 40
4
100
AcDbArc
 50
45.0000012522391
 51
124.4359926391741
  0
CIRCLE
  5
52b
100
AcDbEntity
  8
0
  6
CONTINUOUS
 62
     7
100
AcDbCircle
 10
0
 20
0
 40
17
  0
CIRCLE
  5
52c
100
AcDbEntity
  8
0
  6
CONTINUOUS
 62
     7
100
AcDbCircle
 10
0
 20
0
 40
12.99999904632568
  0
CIRCLE
  5
52d
100
AcDbEntity
  8
0
  6
CONTINUOUS
 62
     7
100
AcDbCircle
 10
0
 20
0
 40
12.18800067901611
  0
ARC
  5
52e
100
AcDbEntity
  8
0
  6
CONTINUOUS
 62
     7
100
AcDbCircle
 10
28.24302673339844
 20
-36.02122497558594
 40
4
100
AcDbArc
 50
336.5102554442748
 51
45.0000012522391
  0
ARC
  5
52f
100
AcDbEntity
  8
0
  6
CONTINUOUS
 62
     7
100
AcDbCircle
 10
36.02119445800781
 20
-28.2430419921875
 40
4
100
AcDbArc
 50
224.999999658378
 51
293.4898786550318
  0
ARC
  5
530
100
AcDbEntity
  8
0
  6
CONTINUOUS
 62
     7
100
AcDbCircle
 10
45.5
 20
-28.5
 40
2.5
100
AcDbArc
 50
270.00001798609
 51
15.49180135841065
  0
ARC
  5
531
100
AcDbEntity
  8
0
  6
CONTINUOUS
 62
     7
100
AcDbCircle
 10
42
 20
-42
 40
11
100
AcDbArc
 50
89.99998201391067
 51
179.9999640278213
  0
ARC
  5
532
100
AcDbEntity
  8
0
  6
CONTINUOUS
 62
     7
100
AcDbCircle
 10
28.5
 20
-45.5
 40
2.5
100
AcDbArc
 50
254.5081790616389
 51
360
  0
ARC
  5
533
100
AcDbEntity
  8
0
  6
CONTINUOUS
 62
     7
100
AcDbCircle
 10
26.76383972167969
 20
-51.76385498046875
 40
4
100
AcDbArc
 50
74.50821139135128
 51
195.4917483107597
  0
ARC
  5
534
100
AcDbEntity
  8
0
  6
CONTINUOUS
 62
     7
100
AcDbCircle
 10
20.5
 20
-53.5
 40
2.5
100
AcDbArc
 50
270.00001798609
 51
15.49180135841067
  0
CIRCLE
  5
535
100
AcDbEntity
  8
0
  6
CONTINUOUS
 62
     7
100
AcDbCircle
 10
45
 20
-45
 40
10.5
  0
CIRCLE
  5
536
100
AcDbEntity
  8
0
  6
CONTINUOUS
 62
     7
100
AcDbCircle
 10
44.99998474121094
 20
-44.99996948242188
 40
9
  0
CIRCLE
  5
537
100
AcDbEntity
  8
0
  6
CONTINUOUS
 62
     7
100
AcDbCircle
 10
44.99998474121094
 20
-44.99996948242188
 40
7.25
  0
CIRCLE
  5
538
100
AcDbEntity
  8
0
  6
CONTINUOUS
 62
     7
100
AcDbCircle
 10
44.99998474121094
 20
-44.99996948242188
 40
6
  0
CIRCLE
  5
539
100
AcDbEntity
  8
0
  6
CONTINUOUS
 62
     7
100
AcDbCircle
 10
44.99998474121094
 20
-44.99996948242188
 40
5.053000450134277
  0
ARC
  5
53a
100
AcDbEntity
  8
0
  6
CONTINUOUS
 62
     7
100
AcDbCircle
 10
5.25
 20
-29.53704833984375
 40
4
100
AcDbArc
 50
100.0786569645057
 51
180.000005008957
  0
ARC
  5
53b
100
AcDbEntity
  8
0
  6
CONTINUOUS
 62
     7
100
AcDbCircle
 10
0
 20
0
 40
38
100
AcDbArc
 50
277.1856433703211
 51
305.8288681076592
  0
ARC
  5
53c
100
AcDbEntity
  8
0
  6
CONTINUOUS
 62
     7
100
AcDbCircle
 10
5.25
 20
-52
 40
4
100
AcDbArc
 50
179.9999949910437
 51
269.9999974955226
  0
ARC
  5
53d
100
AcDbEntity
  8
0
  6
CONTINUOUS
 62
     7
100
AcDbCircle
 10
-5.25
 20
-52
 40
4
100
AcDbArc
 50
269.9999974955226
 51
360
  0
ARC
  5
53e
100
AcDbEntity
  8
0
  6
CONTINUOUS
 62
     7
100
AcDbCircle
 10
-5.25
 20
-29.53704833984375
 40
4
100
AcDbArc
 50
0
 51
79.9213412142615
  0
ARC
  5
53f
100
AcDbEntity
  8
0
  6
CONTINUOUS
 62
     7
100
AcDbCircle
 10
0
 20
0
 40
38
100
AcDbArc
 50
232.9696556272457
 51
262.5811621322706
  0
ARC
  5
540
100
AcDbEntity
  8
0
  6
CONTINUOUS
 62
     7
100
AcDbCircle
 10
-20.5
 20
-53.5
 40
2.5
100
AcDbArc
 50
164.5082207260186
 51
270.0000006832461
  0
ARC
  5
541
100
AcDbEntity
  8
0
  6
CONTINUOUS
 62
     7
100
AcDbCircle
 10
-26.76383972167969
 20
-51.76385498046875
 40
4
100
AcDbArc
 50
344.5082088868738
 51
105.4918072779834
  0
ARC
  5
542
100
AcDbEntity
  8
0
  6
CONTINUOUS
 62
     7
100
AcDbCircle
 10
-28.5
 20
-45.5
 40
2.5
100
AcDbArc
 50
179.9999949910437
 51
285.4918022690277
  0
ARC
  5
543
100
AcDbEntity
  8
0
  6
CONTINUOUS
 62
     7
100
AcDbCircle
 10
-42
 20
-42
 40
11
100
AcDbArc
 50
0
 51
89.99998201391067
  0
ARC
  5
544
100
AcDbEntity
  8
0
  6
CONTINUOUS
 62
     7
100
AcDbCircle
 10
-28.24302673339844
 20
-36.02122497558594
 40
4
100
AcDbArc
 50
135.0000003416226
 51
203.4897495646829
  0
ARC
  5
545
100
AcDbEntity
  8
0
  6
CONTINUOUS
 62
     7
100
AcDbCircle
 10
-36.02119445800781
 20
-28.2430419921875
 40
4
100
AcDbArc
 50
246.5101231662025
 51
314.9999987477617
  0
CIRCLE
  5
546
100
AcDbEntity
  8
0
  6
CONTINUOUS
 62
     7
100
AcDbCircle
 10
-45
 20
-45
 40
10.5
  0
CIRCLE
  5
547
100
AcDbEntity
  8
0
  6
CONTINUOUS
 62
     7
100
AcDbCircle
 10
-45
 20
-44.99996948242188
 40
9
  0
CIRCLE
  5
548
100
AcDbEntity
  8
0
  6
CONTINUOUS
 62
     7
100
AcDbCircle
 10
-45
 20
-44.99996948242188
 40
7.25
  0
CIRCLE
  5
549
100
AcDbEntity
  8
0
  6
CONTINUOUS
 62
     7
100
AcDbCircle
 10
-45
 20
-44.99996948242188
 40
6
  0
CIRCLE
  5
54a
100
AcDbEntity
  8
0
  6
CONTINUOUS
 62
     7
100
AcDbCircle
 10
-45
 20
-44.99996948242188
 40
5.053000450134277
  0
ARC
  5
54b
100
AcDbEntity
  8
0
  6
CONTINUOUS
 62
     7
100
AcDbCircle
 10
-45.5
 20
-28.5
 40
2.5
100
AcDbArc
 50
164.5082207260186
 51
269.9999733624893
  0
ARC
  5
54c
100
AcDbEntity
  8
0
  6
CONTINUOUS
 62
     7
100
AcDbCircle
 10
-51.76383972167969
 20
-26.76385498046875
 40
4
100
AcDbArc
 50
344.5082088868738
 51
105.4918072779834
  0
ARC
  5
54d
100
AcDbEntity
  8
0
  6
CONTINUOUS
 62
     7
100
AcDbCircle
 10
-16.96455383300781
 20
-24.74275207519531
 40
4
100
AcDbArc
 50
55.56400895468769
 51
135.0000003416227
  0
ARC
  5
54e
100
AcDbEntity
  8
0
  6
CONTINUOUS
 62
     7
100
AcDbCircle
 10
-24.74273681640625
 20
-16.96458435058594
 40
4
100
AcDbArc
 50
314.9999987477617
 51
34.436055021493
  0
ARC
  5
54f
100
AcDbEntity
  8
0
  6
CONTINUOUS
 62
     7
100
AcDbCircle
 10
0
 20
0
 40
38
100
AcDbArc
 50
192.968010715284
 51
216.828689184455
  0
ARC
  5
550
100
AcDbEntity
  8
0
  6
CONTINUOUS
 62
     7
100
AcDbCircle
 10
-53.5
 20
-20.5
 40
2.5
100
AcDbArc
 50
179.9999949910437
 51
285.4918022690277
  0
ARC
  5
551
100
AcDbEntity
  8
0
  6
CONTINUOUS
 62
     7
100
AcDbCircle
 10
-53
 20
-9.5
 40
3
100
AcDbArc
 50
90.0000025044782
 51
180.000005008957
  0
ARC
  5
552
100
AcDbEntity
  8
0
  6
CONTINUOUS
 62
     7
100
AcDbCircle
 10
-52
 20
-5.5
 40
4
100
AcDbArc
 50
90.00000250447816
 51
180.000005008957
  0
ARC
  5
553
100
AcDbEntity
  8
0
  6
CONTINUOUS
 62
     7
100
AcDbCircle
 10
-52
 20
5.5
 40
4
100
AcDbArc
 50
179.9999949910437
 51
269.9999974955226
  0
ARC
  5
554
100
AcDbEntity
  8
0
  6
CONTINUOUS
 62
     7
100
AcDbCircle
 10
-27.39982604980469
 20
-9.5
 40
3
100
AcDbArc
 50
19.12233377021756
 51
90.00000250447815
  0
ARC
  5
555
100
AcDbEntity
  8
0
  6
CONTINUOUS
 62
     7
100
AcDbCircle
 10
-29.49153137207031
 20
-5.5
 40
4
100
AcDbArc
 50
10.56397782037099
 51
90.00000250447816
  0
ARC
  5
556
100
AcDbEntity
  8
0
  6
CONTINUOUS
 62
     7
100
AcDbCircle
 10
-29.49153137207031
 20
5.5
 40
4
100
AcDbArc
 50
269.9999974955226
 51
349.4360221796297
  0
ARC
  5
557
100
AcDbEntity
  8
0
  6
CONTINUOUS
 62
     7
100
AcDbCircle
 10
-27.39982604980469
 20
9.5
 40
3
100
AcDbArc
 50
269.9999974955226
 51
340.8776662297832
  0
ARC
  5
558
100
AcDbEntity
  8
0
  6
CONTINUOUS
 62
     7
100
AcDbCircle
 10
-53
 20
9.5
 40
3
100
AcDbArc
 50
179.9999949910437
 51
269.9999974955225
  0
CIRCLE
  5
559
100
AcDbEntity
  8
0
  6
CONTINUOUS
 62
     7
100
AcDbCircle
 10
-75
 20
46
 40
7
  0
CIRCLE
  5
55a
100
AcDbEntity
  8
0
  6
CONTINUOUS
 62
     7
100
AcDbCircle
 10
75
 20
46
 40
7
  0
CIRCLE
  5
55b
100
AcDbEntity
  8
0
  6
CONTINUOUS
 62
     7
100
AcDbCircle
 10
75
 20
-46
 40
7
  0
CIRCLE
  5
55c
100
AcDbEntity
  8
0
  6
CONTINUOUS
 62
     7
100
AcDbCircle
 10
-75
 20
-46
 40
7
  0
MTEXT
  5
55d
100
AcDbEntity
  8
0
  6
CONTINUOUS
 62
     7
100
AcDbMText
 10
9.446437492966652
 20
-47.14999771118164
 40
0.5
 41
38
 71
     7
 72
     1
  1
{\W0.842478;ＢＮ－６１０５－ＦＢＣ－１００－Ｂ－＊}
  0
INSERT
  5
55e
100
AcDbEntity
  8
0
  6
CONTINUOUS
 62
     3
100
AcDbBlockReference
  2
KOZU0010
 10
0
 20
0
  0
ENDBLK
  8
0
  5
55f
100
AcDbEntity
100
AcDbBlockEnd
  0
BLOCK
  8
0
  5
560
100
AcDbEntity
100
AcDbBlockBegin
  2
KOZU0005
 70
    64
 10
0
 20
0
  0
POINT
  5
561
100
AcDbEntity
  8
0
  6
CONTINUOUS
 62
     7
100
AcDbPoint
 10
0
 20
0
  0
LINE
  5
562
100
AcDbEntity
  8
0
  6
CENTER
 62
     3
100
AcDbLine
 10
299.9499816894531
 20
0
 11
-77.3656005859375
 21
0
  0
LINE
  5
563
100
AcDbEntity
  8
0
  6
CONTINUOUS
 62
   190
100
AcDbLine
 10
-72
 20
11.5
 11
-72
 21
-11.5
  0
LINE
  5
564
100
AcDbEntity
  8
0
  6
CONTINUOUS
 62
     7
100
AcDbLine
 10
-47.18499755859375
 20
20.78460693359375
 11
-56.81494140625
 21
20.78460693359375
  0
LINE
  5
565
100
AcDbEntity
  8
0
  6
CONTINUOUS
 62
     7
100
AcDbLine
 10
-56.81493848672955
 20
20.78457330139334
 11
-58.99996659231447
 21
16.99999367448081
  0
LINE
  5
566
100
AcDbEntity
  8
0
  6
CONTINUOUS
 62
     7
100
AcDbLine
 10
-58.99996948242188
 20
-17
 11
-58.99996948242188
 21
17
  0
LINE
  5
567
100
AcDbEntity
  8
0
  6
CONTINUOUS
 62
     7
100
AcDbLine
 10
-47.18499755859375
 20
10.39230346679688
 11
-56.81494140625
 21
10.39230346679688
  0
LINE
  5
568
100
AcDbEntity
  8
0
  6
CONTINUOUS
 62
     7
100
AcDbLine
 10
-44.99996948242188
 20
-17
 11
-44.99996948242188
 21
17
  0
LINE
  5
569
100
AcDbEntity
  8
0
  6
CONTINUOUS
 62
     7
100
AcDbLine
 10
-47.18499762045001
 20
20.78457854783156
 11
-44.9999504413785
 21
16.99996588467178
  0
LINE
  5
56a
100
AcDbEntity
  8
0
  6
CONTINUOUS
 62
     7
100
AcDbLine
 10
-59
 20
-12.18801879882813
 11
-71.31201171875
 21
-12.18801879882813
  0
LINE
  5
56b
100
AcDbEntity
  8
0
  6
CONTINUOUS
 62
   190
100
AcDbLine
 10
-59
 20
-13
 11
-70.5
 21
-13
  0
LINE
  5
56c
100
AcDbEntity
  8
0
  6
CONTINUOUS
 62
   190
100
AcDbLine
 10
-70.5
 20
13
 11
-70.5
 21
-13
  0
LINE
  5
56d
100
AcDbEntity
  8
0
  6
CONTINUOUS
 62
   190
100
AcDbLine
 10
-71.99992098595988
 20
-11.49993047197316
 11
-70.49996777342344
 21
-12.99989417878398
  0
LINE
  5
56e
100
AcDbEntity
  8
0
  6
CONTINUOUS
 62
     7
100
AcDbLine
 10
-58.99996948242188
 20
12.18798828125
 11
-71.31201171875
 21
12.18798828125
  0
LINE
  5
56f
100
AcDbEntity
  8
0
  6
CONTINUOUS
 62
   190
100
AcDbLine
 10
-58.99996948242188
 20
13
 11
-70.5
 21
13
  0
LINE
  5
570
100
AcDbEntity
  8
0
  6
CONTINUOUS
 62
   190
100
AcDbLine
 10
-72.00010710690526
 20
11.500062643839
 11
-70.50012152570238
 21
13.00005871954271
  0
LINE
  5
571
100
AcDbEntity
  8
0
  6
CONTINUOUS
 62
     7
100
AcDbLine
 10
-47.18499755859375
 20
-10.39230346679688
 11
-56.81494140625
 21
-10.39230346679688
  0
LINE
  5
572
100
AcDbEntity
  8
0
  6
CONTINUOUS
 62
     7
100
AcDbLine
 10
-56.81499297819039
 20
-20.78466202488257
 11
-59.00004111093622
 21
-17.00004770991042
  0
LINE
  5
573
100
AcDbEntity
  8
0
  6
CONTINUOUS
 62
     7
100
AcDbLine
 10
-47.18499755859375
 20
-20.78460693359375
 11
-56.81494140625
 21
-20.78460693359375
  0
LINE
  5
574
100
AcDbEntity
  8
0
  6
CONTINUOUS
 62
     7
100
AcDbLine
 10
-47.18500640893153
 20
-20.78463954629439
 11
-44.99994778576807
 21
-17.00000706138625
  0
LINE
  5
575
100
AcDbEntity
  8
0
  6
CONTINUOUS
 62
   190
100
AcDbLine
 10
-32
 20
-13
 11
-45
 21
-13
  0
LINE
  5
576
100
AcDbEntity
  8
0
  6
CONTINUOUS
 62
     7
100
AcDbLine
 10
-35
 20
-12.18801879882813
 11
-45
 21
-12.18801879882813
  0
LINE
  5
577
100
AcDbEntity
  8
0
  6
CONTINUOUS
 62
   190
100
AcDbLine
 10
-35
 20
13
 11
-35
 21
-13
  0
LINE
  5
578
100
AcDbEntity
  8
0
  6
CONTINUOUS
 62
     7
100
AcDbLine
 10
-33.59360181707724
 20
-13.00003370471206
 11
-35.00002093498497
 21
-12.18803723382069
  0
LINE
  5
579
100
AcDbEntity
  8
0
  6
CONTINUOUS
 62
   190
100
AcDbLine
 10
-32
 20
13
 11
-44.99996948242188
 21
13
  0
LINE
  5
57a
100
AcDbEntity
  8
0
  6
CONTINUOUS
 62
     7
100
AcDbLine
 10
-35
 20
12.18798828125
 11
-44.99996948242188
 21
12.18798828125
  0
LINE
  5
57b
100
AcDbEntity
  8
0
  6
CONTINUOUS
 62
     7
100
AcDbLine
 10
-33.59353914845493
 20
12.99998619463155
 11
-34.99998469536045
 21
12.18797446495092
  0
LINE
  5
57c
100
AcDbEntity
  8
0
  6
CONTINUOUS
 62
   190
100
AcDbLine
 10
-28.53588294422982
 20
14.99993949486439
 11
-31.99998454382395
 21
12.99993946794204
  0
LINE
  5
57d
100
AcDbEntity
  8
0
  6
CONTINUOUS
 62
   190
100
AcDbLine
 10
-28.53594970703125
 20
15
 11
-28.53594970703125
 21
6.538345336914063
  0
LINE
  5
57e
100
AcDbEntity
  8
0
  6
CONTINUOUS
 62
   190
100
AcDbLine
 10
-32
 20
13
 11
-32
 21
-13
  0
LINE
  5
57f
100
AcDbEntity
  8
0
  6
CONTINUOUS
 62
   190
100
AcDbLine
 10
-15
 20
15
 11
-28.53591918945313
 21
15
  0
LINE
  5
580
100
AcDbEntity
  8
0
  6
CONTINUOUS
 62
   190
100
AcDbLine
 10
-19
 20
6.538330078125
 11
-32
 21
6.538330078125
  0
LINE
  5
581
100
AcDbEntity
  8
0
  6
CONTINUOUS
 62
     7
100
AcDbLine
 10
-19.00001554291762
 20
-6.538298852734024
 11
-32.0000089306881
 21
6.538390972454735
  0
LINE
  5
582
100
AcDbEntity
  8
0
  6
CONTINUOUS
 62
     7
100
AcDbLine
 10
-19.00004533317348
 20
6.538339226264847
 11
-32.00004409985019
 21
-6.538356009564232
  0
LINE
  5
583
100
AcDbEntity
  8
0
  6
CONTINUOUS
 62
   190
100
AcDbLine
 10
-19
 20
6.538345336914063
 11
-19
 21
-6.538345336914063
  0
LINE
  5
584
100
AcDbEntity
  8
0
  6
CONTINUOUS
 62
   190
100
AcDbLine
 10
-19
 20
-6.538360595703125
 11
-32
 21
-6.538360595703125
  0
LINE
  5
585
100
AcDbEntity
  8
0
  6
CONTINUOUS
 62
   190
100
AcDbLine
 10
-28.53594970703125
 20
-6.538345336914063
 11
-28.53594970703125
 21
-15
  0
LINE
  5
586
100
AcDbEntity
  8
0
  6
CONTINUOUS
 62
   190
100
AcDbLine
 10
-28.5359146893661
 20
-15.00005551420777
 11
-32.00004271795803
 21
-13.00004022849616
  0
LINE
  5
587
100
AcDbEntity
  8
0
  6
CONTINUOUS
 62
   190
100
AcDbLine
 10
-15
 20
-15
 11
-28.53591918945313
 21
-15
  0
LINE
  5
588
100
AcDbEntity
  8
0
  6
CONTINUOUS
 62
     7
100
AcDbLine
 10
-14.99988829651527
 20
-24.44984314507538
 11
-13.96181052458392
 21
-25.48792047948977
  0
LINE
  5
589
100
AcDbEntity
  8
0
  6
CONTINUOUS
 62
     7
100
AcDbLine
 10
-15
 20
24.41119384765625
 11
-15
 21
-24.45002746582031
  0
LINE
  5
58a
100
AcDbEntity
  8
0
  6
CONTINUOUS
 62
     7
100
AcDbLine
 10
-14
 20
25.48666381835938
 11
-14
 21
-25.48666381835938
  0
LINE
  5
58b
100
AcDbEntity
  8
0
  6
CONTINUOUS
 62
     7
100
AcDbLine
 10
-13.96193265398138
 20
-25.48808684772108
 11
-1.649349847809845e-006
 21
-26.00002715897402
  0
LINE
  5
58c
100
AcDbEntity
  8
0
  6
CONTINUOUS
 62
     7
100
AcDbLine
 10
2.474132930641027e-006
 20
25.9999147009769
 11
-14.00065982713539
 21
25.48655423429926
  0
LINE
  5
58d
100
AcDbEntity
  8
0
  6
CONTINUOUS
 62
     7
100
AcDbLine
 10
-14.00063856177762
 20
25.48663811910067
 11
-14.99997082547802
 21
24.41123110869716
  0
LINE
  5
58e
100
AcDbEntity
  8
0
  6
CONTINUOUS
 62
     7
100
AcDbLine
 10
0
 20
58.30001831054688
 11
0
 21
-58.30000305175781
  0
LINE
  5
58f
100
AcDbEntity
  8
0
  6
CONTINUOUS
 62
     7
100
AcDbLine
 10
0.70001220703125
 20
59
 11
36.30001831054688
 21
59
  0
LINE
  5
590
100
AcDbEntity
  8
0
  6
CONTINUOUS
 62
     7
100
AcDbLine
 10
3.5
 20
59.29998779296875
 11
33.5
 21
59.29998779296875
  0
LINE
  5
591
100
AcDbEntity
  8
0
  6
CONTINUOUS
 62
     7
100
AcDbLine
 10
33.5
 20
59.30001831054688
 11
33.5
 21
59
  0
LINE
  5
592
100
AcDbEntity
  8
0
  6
CONTINUOUS
 62
     7
100
AcDbLine
 10
37
 20
58.30001831054688
 11
37
 21
-58.30000305175781
  0
LINE
  5
593
100
AcDbEntity
  8
0
  6
DASHED
 62
     7
100
AcDbLine
 10
32.20001220703125
 20
59.29998779296875
 11
32.20001220703125
 21
57.79998779296875
  0
LINE
  5
594
100
AcDbEntity
  8
0
  6
DASHED
 62
     7
100
AcDbLine
 10
4.800018310546875
 20
57.79998779296875
 11
32.20001220703125
 21
57.79998779296875
  0
LINE
  5
595
100
AcDbEntity
  8
0
  6
DASHED
 62
     7
100
AcDbLine
 10
4.800018310546875
 20
59.29998779296875
 11
4.800018310546875
 21
57.79998779296875
  0
LINE
  5
596
100
AcDbEntity
  8
0
  6
CONTINUOUS
 62
     7
100
AcDbLine
 10
3.5
 20
59.30001831054688
 11
3.5
 21
59
  0
LINE
  5
597
100
AcDbEntity
  8
0
  6
DASHED
 62
     7
100
AcDbLine
 10
8.267528692013752
 20
44.29999705231234
 11
7.747104301152183
 21
57.70299828917297
  0
LINE
  5
598
100
AcDbEntity
  8
0
  6
DASHED
 62
     7
100
AcDbLine
 10
9.249880502891433
 20
56.19988906862083
 11
7.649875540087404
 21
57.79989403142486
  0
LINE
  5
599
100
AcDbEntity
  8
0
  6
DASHED
 62
     7
100
AcDbLine
 10
9.665146350769993
 20
44.29994951685853
 11
9.249926993484829
 21
56.20001061756076
  0
LINE
  5
59a
100
AcDbEntity
  8
0
  6
DASHED
 62
     7
100
AcDbLine
 10
9.25
 20
56.19998168945313
 11
27.75
 21
56.19998168945313
  0
LINE
  5
59b
100
AcDbEntity
  8
0
  6
CENTER
 62
     3
100
AcDbLine
 10
18.5
 20
62.20382690429688
 11
18.5
 21
44.09999847412109
  0
LINE
  5
59c
100
AcDbEntity
  8
0
  6
DASHED
 62
     7
100
AcDbLine
 10
27.75004746711916
 20
56.19993627309115
 11
29.35003624553336
 21
57.79992505150536
  0
LINE
  5
59d
100
AcDbEntity
  8
0
  6
DASHED
 62
     7
100
AcDbLine
 10
28.7325485353236
 20
44.29999766443537
 11
29.25297228425621
 21
57.70298365593394
  0
LINE
  5
59e
100
AcDbEntity
  8
0
  6
DASHED
 62
     7
100
AcDbLine
 10
27.74998070438044
 20
56.19991801854459
 11
27.33476400754016
 21
44.2999331653874
  0
LINE
  5
59f
100
AcDbEntity
  8
0
  6
CONTINUOUS
 62
     7
100
AcDbLine
 10
0.70001220703125
 20
-59
 11
36.30001831054688
 21
-59
  0
LINE
  5
5a0
100
AcDbEntity
  8
0
  6
CONTINUOUS
 62
     7
100
AcDbLine
 10
37.5
 20
-50.43499755859375
 11
37.5
 21
-54.49998474121094
  0
LINE
  5
5a1
100
AcDbEntity
  8
0
  6
CONTINUOUS
 62
     7
100
AcDbLine
 10
37
 20
-54.5
 11
37.5
 21
-54.5
  0
LINE
  5
5a2
100
AcDbEntity
  8
0
  6
CONTINUOUS
 62
   134
100
AcDbLine
 10
37.80000507400882
 20
-53.19995919400932
 11
37.50001642544224
 21
-52.89998172215602
  0
LINE
  5
5a3
100
AcDbEntity
  8
0
  6
CONTINUOUS
 62
   104
100
AcDbLine
 10
238.2000122070313
 20
-53.20001220703125
 11
37.800048828125
 21
-53.20001220703125
  0
LINE
  5
5a4
100
AcDbEntity
  8
0
  6
CONTINUOUS
 62
     7
100
AcDbLine
 10
239.0000610351563
 20
-50.43499755859375
 11
37
 21
-50.43499755859375
  0
LINE
  5
5a5
100
AcDbEntity
  8
0
  6
CENTER
 62
     3
100
AcDbLine
 10
239.0000610351563
 20
-45
 11
37
 21
-45
  0
LINE
  5
5a6
100
AcDbEntity
  8
0
  6
CONTINUOUS
 62
     7
100
AcDbLine
 10
239.0000610351563
 20
-39.56500244140625
 11
37
 21
-39.56500244140625
  0
LINE
  5
5a7
100
AcDbEntity
  8
0
  6
CONTINUOUS
 62
     7
100
AcDbLine
 10
37.5
 20
39.56500244140625
 11
37.5
 21
-39.56500244140625
  0
LINE
  5
5a8
100
AcDbEntity
  8
0
  6
CONTINUOUS
 62
     7
100
AcDbLine
 10
37
 20
54.5
 11
37.5
 21
54.5
  0
LINE
  5
5a9
100
AcDbEntity
  8
0
  6
CONTINUOUS
 62
     7
100
AcDbLine
 10
37.5
 20
54.5
 11
37.5
 21
50.43499755859375
  0
LINE
  5
5aa
100
AcDbEntity
  8
0
  6
CONTINUOUS
 62
   104
100
AcDbLine
 10
238.2000122070313
 20
53.19998168945313
 11
37.800048828125
 21
53.19998168945313
  0
LINE
  5
5ab
100
AcDbEntity
  8
0
  6
CONTINUOUS
 62
   104
100
AcDbLine
 10
37.80003474584241
 20
53.1999834700413
 11
37.50005688707005
 21
52.90001678758023
  0
LINE
  5
5ac
100
AcDbEntity
  8
0
  6
CONTINUOUS
 62
     7
100
AcDbLine
 10
239.0000610351563
 20
50.43499755859375
 11
37
 21
50.43499755859375
  0
LINE
  5
5ad
100
AcDbEntity
  8
0
  6
CENTER
 62
     3
100
AcDbLine
 10
239.0000610351563
 20
45
 11
37
 21
45
  0
LINE
  5
5ae
100
AcDbEntity
  8
0
  6
CONTINUOUS
 62
     7
100
AcDbLine
 10
239.0000610351563
 20
39.56500244140625
 11
37
 21
39.56500244140625
  0
LINE
  5
5af
100
AcDbEntity
  8
0
  6
CONTINUOUS
 62
   134
100
AcDbLine
 10
238.5002615320174
 20
52.90026239106427
 11
238.2002884901336
 21
53.20023389051603
  0
LINE
  5
5b0
100
AcDbEntity
  8
0
  6
CONTINUOUS
 62
     7
100
AcDbLine
 10
238.5000610351563
 20
54.5
 11
238.5000610351563
 21
50.43499755859375
  0
LINE
  5
5b1
100
AcDbEntity
  8
0
  6
CONTINUOUS
 62
     7
100
AcDbLine
 10
239.0000610351563
 20
54.5
 11
238.5
 21
54.5
  0
LINE
  5
5b2
100
AcDbEntity
  8
0
  6
CONTINUOUS
 62
     7
100
AcDbLine
 10
275.2999877929688
 20
59
 11
239.7000122070313
 21
59
  0
LINE
  5
5b3
100
AcDbEntity
  8
0
  6
CONTINUOUS
 62
     7
100
AcDbLine
 10
239.0000610351563
 20
58.30001831054688
 11
239.0000610351563
 21
-58.30000305175781
  0
LINE
  5
5b4
100
AcDbEntity
  8
0
  6
CONTINUOUS
 62
     7
100
AcDbLine
 10
242.5000610351563
 20
59.30001831054688
 11
242.5000610351563
 21
59
  0
LINE
  5
5b5
100
AcDbEntity
  8
0
  6
CONTINUOUS
 62
     7
100
AcDbLine
 10
272.5
 20
59.29998779296875
 11
242.5
 21
59.29998779296875
  0
LINE
  5
5b6
100
AcDbEntity
  8
0
  6
CONTINUOUS
 62
     7
100
AcDbLine
 10
272.5000610351563
 20
59.30001831054688
 11
272.5000610351563
 21
59
  0
LINE
  5
5b7
100
AcDbEntity
  8
0
  6
CONTINUOUS
 62
     7
100
AcDbLine
 10
276.0000610351563
 20
62
 11
276.0000610351563
 21
-62
  0
LINE
  5
5b8
100
AcDbEntity
  8
0
  6
DASHED
 62
     7
100
AcDbLine
 10
271.2000122070313
 20
59.29998779296875
 11
271.2000122070313
 21
57.79998779296875
  0
LINE
  5
5b9
100
AcDbEntity
  8
0
  6
DASHED
 62
     7
100
AcDbLine
 10
271.2000122070313
 20
57.79998779296875
 11
243.800048828125
 21
57.79998779296875
  0
LINE
  5
5ba
100
AcDbEntity
  8
0
  6
DASHED
 62
     7
100
AcDbLine
 10
266.7500449783886
 20
56.20000235934963
 11
268.3500553359892
 21
57.80001271695026
  0
LINE
  5
5bb
100
AcDbEntity
  8
0
  6
DASHED
 62
     7
100
AcDbLine
 10
267.7327717817152
 20
44.29991499537015
 11
268.2531955805403
 21
57.70290098493146
  0
LINE
  5
5bc
100
AcDbEntity
  8
0
  6
DASHED
 62
     7
100
AcDbLine
 10
266.3346020628982
 20
44.30001766518782
 11
266.7498198239165
 21
56.20003301736303
  0
LINE
  5
5bd
100
AcDbEntity
  8
0
  6
DASHED
 62
     7
100
AcDbLine
 10
266.75
 20
56.19998168945313
 11
248.25
 21
56.19998168945313
  0
LINE
  5
5be
100
AcDbEntity
  8
0
  6
CENTER
 62
     3
100
AcDbLine
 10
257.5000610351563
 20
62.20382690429688
 11
257.5000610351563
 21
43.75
  0
LINE
  5
5bf
100
AcDbEntity
  8
0
  6
DASHED
 62
     7
100
AcDbLine
 10
243.800048828125
 20
59.29998779296875
 11
243.800048828125
 21
57.79998779296875
  0
LINE
  5
5c0
100
AcDbEntity
  8
0
  6
DASHED
 62
     7
100
AcDbLine
 10
248.2499063368431
 20
56.19985130504456
 11
246.6498959792424
 21
57.7998616626452
  0
LINE
  5
5c1
100
AcDbEntity
  8
0
  6
DASHED
 62
     7
100
AcDbLine
 10
247.2676110022008
 20
44.29999687012965
 11
246.7471860691952
 21
57.70301335622686
  0
LINE
  5
5c2
100
AcDbEntity
  8
0
  6
DASHED
 62
     7
100
AcDbLine
 10
248.2498243395284
 20
56.20000452691684
 11
248.6650426326356
 21
44.29997392523261
  0
LINE
  5
5c3
100
AcDbEntity
  8
0
  6
CONTINUOUS
 62
     7
100
AcDbLine
 10
238.5000610351563
 20
39.56500244140625
 11
238.5000610351563
 21
-39.56500244140625
  0
LINE
  5
5c4
100
AcDbEntity
  8
0
  6
CONTINUOUS
 62
     7
100
AcDbLine
 10
275.2999877929688
 20
-59
 11
239.7000122070313
 21
-59
  0
LINE
  5
5c5
100
AcDbEntity
  8
0
  6
CONTINUOUS
 62
     7
100
AcDbLine
 10
239.0000610351563
 20
-54.5
 11
238.5
 21
-54.5
  0
LINE
  5
5c6
100
AcDbEntity
  8
0
  6
CONTINUOUS
 62
     7
100
AcDbLine
 10
238.5000610351563
 20
-50.43499755859375
 11
238.5000610351563
 21
-54.5
  0
LINE
  5
5c7
100
AcDbEntity
  8
0
  6
CONTINUOUS
 62
   134
100
AcDbLine
 10
238.5000565302178
 20
-52.9000789674525
 11
238.2000187506083
 21
-53.20011520429713
  0
LINE
  5
5c8
100
AcDbEntity
  8
0
  6
CENTER
 62
     3
100
AcDbLine
 10
18.5
 20
7.847639083862305
 11
18.5
 21
-8.050000190734863
  0
LINE
  5
5c9
100
AcDbEntity
  8
0
  6
CENTER
 62
     3
100
AcDbLine
 10
257.5000610351563
 20
7.675220012664795
 11
257.5000610351563
 21
-7.842478752136231
  0
LINE
  5
5ca
100
AcDbEntity
  8
0
  6
CONTINUOUS
 62
     7
100
AcDbLine
 10
294.0000610351563
 20
-62
 11
276.0000610351563
 21
-62
  0
LINE
  5
5cb
100
AcDbEntity
  8
0
  6
DASHED
 62
     7
100
AcDbLine
 10
294.0000610351563
 20
-53
 11
276.0000610351563
 21
-53
  0
LINE
  5
5cc
100
AcDbEntity
  8
0
  6
CENTER
 62
     3
100
AcDbLine
 10
298.0867309570313
 20
-46
 11
272.0163879394531
 21
-46
  0
LINE
  5
5cd
100
AcDbEntity
  8
0
  6
DASHED
 62
     7
100
AcDbLine
 10
294.0000610351563
 20
-39
 11
276.0000610351563
 21
-39
  0
LINE
  5
5ce
100
AcDbEntity
  8
0
  6
CONTINUOUS
 62
     7
100
AcDbLine
 10
294.0000610351563
 20
-62.00000381469727
 11
294.0000610351563
 21
61.99999618530273
  0
LINE
  5
5cf
100
AcDbEntity
  8
0
  6
DASHED
 62
     7
100
AcDbLine
 10
294.0000610351563
 20
39
 11
276.0000610351563
 21
39
  0
LINE
  5
5d0
100
AcDbEntity
  8
0
  6
CENTER
 62
     3
100
AcDbLine
 10
298.0867309570313
 20
46
 11
272.0163879394531
 21
46
  0
LINE
  5
5d1
100
AcDbEntity
  8
0
  6
DASHED
 62
     7
100
AcDbLine
 10
294.0000610351563
 20
53
 11
276.0000610351563
 21
53
  0
LINE
  5
5d2
100
AcDbEntity
  8
0
  6
CONTINUOUS
 62
     7
100
AcDbLine
 10
294.0000610351563
 20
62
 11
276.0000610351563
 21
62
  0
LINE
  5
5d3
100
AcDbEntity
  8
0
  6
CONTINUOUS
 62
     7
100
AcDbLine
 10
258.6500549316406
 20
1.991859436035156
 11
256.3500671386719
 21
1.991859436035156
  0
LINE
  5
5d4
100
AcDbEntity
  8
0
  6
CONTINUOUS
 62
     7
100
AcDbLine
 10
256.3500676464499
 20
1.991872642766694
 11
255.2000711045605
 21
8.693663303915855e-006
  0
LINE
  5
5d5
100
AcDbEntity
  8
0
  6
CONTINUOUS
 62
     7
100
AcDbLine
 10
254.1845800534163
 20
3.74270619002148
 11
254.6975805211254
 21
2.854163543435476
  0
LINE
  5
5d6
100
AcDbEntity
  8
0
  6
CONTINUOUS
 62
     7
100
AcDbLine
 10
252.60107421875
 20
1
 11
253.6270751953125
 21
1
  0
LINE
  5
5d7
100
AcDbEntity
  8
0
  6
CONTINUOUS
 62
     7
100
AcDbLine
 10
252.60107421875
 20
-1
 11
253.6270751953125
 21
-1
  0
LINE
  5
5d8
100
AcDbEntity
  8
0
  6
CONTINUOUS
 62
     7
100
AcDbLine
 10
254.184546185772
 20
-3.742675807860877
 11
254.6975466315453
 21
-2.854132873308132
  0
LINE
  5
5d9
100
AcDbEntity
  8
0
  6
CONTINUOUS
 62
     7
100
AcDbLine
 10
255.916589556406
 20
-4.742671403663053
 11
256.4295900021793
 21
-3.854128469110307
  0
LINE
  5
5da
100
AcDbEntity
  8
0
  6
CONTINUOUS
 62
     7
100
AcDbLine
 10
259.0836125813584
 20
-4.742623157695817
 11
258.5706118752306
 21
-3.854080098156757
  0
LINE
  5
5db
100
AcDbEntity
  8
0
  6
CONTINUOUS
 62
     7
100
AcDbLine
 10
256.3500671386719
 20
-1.991859436035156
 11
258.6500549316406
 21
-1.991859436035156
  0
LINE
  5
5dc
100
AcDbEntity
  8
0
  6
CONTINUOUS
 62
     7
100
AcDbLine
 10
258.6500245189362
 20
-1.991847668802635
 11
259.8000134314641
 21
3.06578270681257e-006
  0
LINE
  5
5dd
100
AcDbEntity
  8
0
  6
CONTINUOUS
 62
     7
100
AcDbLine
 10
255.200071141916
 20
-1.37651770728553e-005
 11
256.3500638691246
 21
-1.991871107021439
  0
LINE
  5
5de
100
AcDbEntity
  8
0
  6
CONTINUOUS
 62
     7
100
AcDbLine
 10
258.6500368256936
 20
1.9918499562921
 11
259.8000333675829
 21
-1.399281129010888e-005
  0
LINE
  5
5df
100
AcDbEntity
  8
0
  6
CONTINUOUS
 62
     7
100
AcDbLine
 10
255.916621179964
 20
4.742665618380514
 11
256.4296217668824
 21
3.854122765317982
  0
LINE
  5
5e0
100
AcDbEntity
  8
0
  6
CONTINUOUS
 62
     7
100
AcDbLine
 10
259.0835514995107
 20
4.742678061652001
 11
258.5705510537374
 21
3.854135127099255
  0
LINE
  5
5e1
100
AcDbEntity
  8
0
  6
CONTINUOUS
 62
     7
100
AcDbLine
 10
260.8155551955047
 20
3.742670133348483
 11
260.3025547497314
 21
2.854127198795737
  0
LINE
  5
5e2
100
AcDbEntity
  8
0
  6
CONTINUOUS
 62
     7
100
AcDbLine
 10
262.3990783691406
 20
1.000015258789063
 11
261.3730773925781
 21
1.000015258789063
  0
LINE
  5
5e3
100
AcDbEntity
  8
0
  6
CONTINUOUS
 62
     7
100
AcDbLine
 10
262.3990783691406
 20
-0.9999542236328125
 11
261.3730773925781
 21
-0.9999542236328125
  0
LINE
  5
5e4
100
AcDbEntity
  8
0
  6
CONTINUOUS
 62
     7
100
AcDbLine
 10
260.8156385523523
 20
-3.742637240735917
 11
260.3026380846431
 21
-2.854094594149913
  0
LINE
  5
5e5
100
AcDbEntity
  8
0
  6
CONTINUOUS
 62
     7
100
AcDbLine
 10
19.64999389648438
 20
1.991859436035156
 11
17.35000610351563
 21
1.991859436035156
  0
LINE
  5
5e6
100
AcDbEntity
  8
0
  6
CONTINUOUS
 62
     7
100
AcDbLine
 10
17.35000661129366
 20
1.991872642766707
 11
16.2000100694043
 21
8.693663315462175e-006
  0
LINE
  5
5e7
100
AcDbEntity
  8
0
  6
CONTINUOUS
 62
     7
100
AcDbLine
 10
15.18451901826
 20
3.742706190021486
 11
15.69751948596915
 21
2.854163543435482
  0
LINE
  5
5e8
100
AcDbEntity
  8
0
  6
CONTINUOUS
 62
     7
100
AcDbLine
 10
13.60101318359375
 20
1
 11
14.62701416015625
 21
1
  0
LINE
  5
5e9
100
AcDbEntity
  8
0
  6
CONTINUOUS
 62
     7
100
AcDbLine
 10
13.60101318359375
 20
-1
 11
14.62701416015625
 21
-1
  0
LINE
  5
5ea
100
AcDbEntity
  8
0
  6
CONTINUOUS
 62
     7
100
AcDbLine
 10
15.18448515061582
 20
-3.7426758078609
 11
15.69748559638911
 21
-2.85413287330815
  0
LINE
  5
5eb
100
AcDbEntity
  8
0
  6
CONTINUOUS
 62
     7
100
AcDbLine
 10
16.91652852124977
 20
-4.742671403663064
 11
17.42952896702305
 21
-3.854128469110314
  0
LINE
  5
5ec
100
AcDbEntity
  8
0
  6
CONTINUOUS
 62
     7
100
AcDbLine
 10
20.08355154620202
 20
-4.742623157695823
 11
19.57055084007424
 21
-3.854080098156754
  0
LINE
  5
5ed
100
AcDbEntity
  8
0
  6
CONTINUOUS
 62
     7
100
AcDbLine
 10
17.35000610351563
 20
-1.991859436035156
 11
19.64999389648438
 21
-1.991859436035156
  0
LINE
  5
5ee
100
AcDbEntity
  8
0
  6
CONTINUOUS
 62
     7
100
AcDbLine
 10
19.64996348378001
 20
-1.991847668802621
 11
20.7999523963079
 21
3.065782721023425e-006
  0
LINE
  5
5ef
100
AcDbEntity
  8
0
  6
CONTINUOUS
 62
     7
100
AcDbLine
 10
16.20001010675973
 20
-1.376517705331537e-005
 11
17.35000283396836
 21
-1.991871107021421
  0
LINE
  5
5f0
100
AcDbEntity
  8
0
  6
CONTINUOUS
 62
     7
100
AcDbLine
 10
19.64997579053734
 20
1.991849956292103
 11
20.7999723324267
 21
-1.399281128833252e-005
  0
LINE
  5
5f1
100
AcDbEntity
  8
0
  6
CONTINUOUS
 62
     7
100
AcDbLine
 10
16.91656014480768
 20
4.74266561838053
 11
17.42956073172615
 21
3.854122765317992
  0
LINE
  5
5f2
100
AcDbEntity
  8
0
  6
CONTINUOUS
 62
     7
100
AcDbLine
 10
20.08349046435449
 20
4.742678061652005
 11
19.5704900185812
 21
3.854135127099256
  0
LINE
  5
5f3
100
AcDbEntity
  8
0
  6
CONTINUOUS
 62
     7
100
AcDbLine
 10
21.81549416034837
 20
3.742670133348515
 11
21.30249371457509
 21
2.854127198795766
  0
LINE
  5
5f4
100
AcDbEntity
  8
0
  6
CONTINUOUS
 62
     7
100
AcDbLine
 10
23.39901733398438
 20
1.000015258789063
 11
22.37301635742188
 21
1.000015258789063
  0
LINE
  5
5f5
100
AcDbEntity
  8
0
  6
CONTINUOUS
 62
     7
100
AcDbLine
 10
23.39901733398438
 20
-0.9999542236328125
 11
22.37301635742188
 21
-0.9999542236328125
  0
LINE
  5
5f6
100
AcDbEntity
  8
0
  6
CONTINUOUS
 62
     7
100
AcDbLine
 10
21.81557751719598
 20
-3.742637240735897
 11
21.30257704948683
 21
-2.854094594149894
  0
ARC
  5
5f7
100
AcDbEntity
  8
0
  6
CONTINUOUS
 62
     7
100
AcDbCircle
 10
-51.72909545898438
 20
15.58843994140625
 40
7.270877361297607
100
AcDbArc
 50
165.6144654847506
 51
225.6145217959167
  0
ARC
  5
5f8
100
AcDbEntity
  8
0
  6
CONTINUOUS
 62
     7
100
AcDbCircle
 10
-52.27084350585938
 20
15.58843994140625
 40
7.270877361297607
100
AcDbArc
 50
314.3853875903926
 51
14.38519801474726
  0
ARC
  5
5f9
100
AcDbEntity
  8
0
  6
CONTINUOUS
 62
     7
100
AcDbCircle
 10
-33.1939697265625
 20
0
 40
25.80599784851074
100
AcDbArc
 50
156.2523251894141
 51
203.7475482247158
  0
ARC
  5
5fa
100
AcDbEntity
  8
0
  6
CONTINUOUS
 62
     7
100
AcDbCircle
 10
-70.80596923828125
 20
0
 40
25.80599784851074
100
AcDbArc
 50
336.2523611615935
 51
23.74758419689386
  0
ARC
  5
5fb
100
AcDbEntity
  8
0
  6
CONTINUOUS
 62
     7
100
AcDbCircle
 10
-51.72906494140625
 20
-15.58847045898438
 40
7.270890712738037
100
AcDbArc
 50
134.3853242974566
 51
194.3854352501361
  0
ARC
  5
5fc
100
AcDbEntity
  8
0
  6
CONTINUOUS
 62
     7
100
AcDbCircle
 10
-52.2708740234375
 20
-15.58847045898438
 40
7.270890712738037
100
AcDbArc
 50
345.6146517210917
 51
45.61458508885144
  0
ARC
  5
5fd
100
AcDbEntity
  8
0
  6
CONTINUOUS
 62
   190
100
AcDbCircle
 10
-28.6875
 20
0
 40
11.6875
100
AcDbArc
 50
325.9835269143161
 51
34.01641844417119
  0
ARC
  5
5fe
100
AcDbEntity
  8
0
  6
CONTINUOUS
 62
     7
100
AcDbCircle
 10
0.70001220703125
 20
58.30001831054688
 40
0.699999988079071
100
AcDbArc
 50
89.99998201391065
 51
179.9999640278215
  0
ARC
  5
5ff
100
AcDbEntity
  8
0
  6
CONTINUOUS
 62
     7
100
AcDbCircle
 10
36.30001831054688
 20
58.30001831054688
 40
0.699999988079071
100
AcDbArc
 50
0
 51
89.99998201391077
  0
ARC
  5
600
100
AcDbEntity
  8
0
  6
CONTINUOUS
 62
     7
100
AcDbCircle
 10
0.70001220703125
 20
-58.30000305175781
 40
0.699999988079071
100
AcDbArc
 50
179.9999640278215
 51
269.9999460417327
  0
ARC
  5
601
100
AcDbEntity
  8
0
  6
CONTINUOUS
 62
     7
100
AcDbCircle
 10
36.30001831054688
 20
-58.30000305175781
 40
0.699999988079071
100
AcDbArc
 50
269.9999633445766
 51
360
  0
ARC
  5
602
100
AcDbEntity
  8
0
  6
CONTINUOUS
 62
     7
100
AcDbCircle
 10
239.7000732421875
 20
58.30001831054688
 40
0.699999988079071
100
AcDbArc
 50
89.9999820139102
 51
179.9999640278215
  0
ARC
  5
603
100
AcDbEntity
  8
0
  6
CONTINUOUS
 62
     7
100
AcDbCircle
 10
275.2999877929688
 20
58.30001831054688
 40
0.699999988079071
100
AcDbArc
 50
0
 51
89.9999820139102
  0
ARC
  5
604
100
AcDbEntity
  8
0
  6
CONTINUOUS
 62
     7
100
AcDbCircle
 10
275.2999877929688
 20
-58.30000305175781
 40
0.699999988079071
100
AcDbArc
 50
269.9999633445772
 51
360
  0
ARC
  5
605
100
AcDbEntity
  8
0
  6
CONTINUOUS
 62
     7
100
AcDbCircle
 10
239.7000732421875
 20
-58.30000305175781
 40
0.699999988079071
100
AcDbArc
 50
179.9999640278215
 51
269.9999460417336
  0
CIRCLE
  5
606
100
AcDbEntity
  8
0
  6
CONTINUOUS
 62
     7
100
AcDbCircle
 10
257.5000610351563
 20
1.1444091796875e-005
 40
1.991851329803467
  0
CIRCLE
  5
607
100
AcDbEntity
  8
0
  6
CONTINUOUS
 62
     7
100
AcDbCircle
 10
257.5000610351563
 20
0
 40
2.299999952316284
  0
CIRCLE
  5
608
100
AcDbEntity
  8
0
  6
CONTINUOUS
 62
     7
100
AcDbCircle
 10
257.5000610351563
 20
0
 40
5.5
  0
CIRCLE
  5
609
100
AcDbEntity
  8
0
  6
CONTINUOUS
 62
     7
100
AcDbCircle
 10
257.5000610351563
 20
0
 40
5
  0
ARC
  5
60a
100
AcDbEntity
  8
0
  6
CONTINUOUS
 62
     7
100
AcDbCircle
 10
257.5000610351563
 20
0
 40
4
100
AcDbArc
 50
134.4775591720083
 51
165.5225174781439
  0
ARC
  5
60b
100
AcDbEntity
  8
0
  6
CONTINUOUS
 62
     7
100
AcDbCircle
 10
257.5000610351563
 20
0
 40
4
100
AcDbArc
 50
194.4774825218568
 51
225.5225227902623
  0
ARC
  5
60c
100
AcDbEntity
  8
0
  6
CONTINUOUS
 62
     7
100
AcDbCircle
 10
257.5000610351563
 20
0
 40
4
100
AcDbArc
 50
254.4775115122658
 51
285.5229342712648
  0
CIRCLE
  5
60d
100
AcDbEntity
  8
0
  6
CONTINUOUS
 62
     7
100
AcDbCircle
 10
257.5000610351563
 20
0
 40
2.5
  0
ARC
  5
60e
100
AcDbEntity
  8
0
  6
CONTINUOUS
 62
     7
100
AcDbCircle
 10
257.5000610351563
 20
0
 40
4
100
AcDbArc
 50
74.47796731370656
 51
105.5229392802201
  0
ARC
  5
60f
100
AcDbEntity
  8
0
  6
CONTINUOUS
 62
     7
100
AcDbCircle
 10
257.5000610351563
 20
0
 40
4
100
AcDbArc
 50
14.47771463460244
 51
45.52311861058136
  0
ARC
  5
610
100
AcDbEntity
  8
0
  6
CONTINUOUS
 62
     7
100
AcDbCircle
 10
257.5000610351563
 20
0
 40
4
100
AcDbArc
 50
314.4775780687151
 51
345.5231323088554
  0
CIRCLE
  5
611
100
AcDbEntity
  8
0
  6
CONTINUOUS
 62
     7
100
AcDbCircle
 10
18.5
 20
1.1444091796875e-005
 40
1.991851329803467
  0
CIRCLE
  5
612
100
AcDbEntity
  8
0
  6
CONTINUOUS
 62
     7
100
AcDbCircle
 10
18.5
 20
0
 40
2.299999952316284
  0
CIRCLE
  5
613
100
AcDbEntity
  8
0
  6
CONTINUOUS
 62
     7
100
AcDbCircle
 10
18.5
 20
0
 40
5.5
  0
CIRCLE
  5
614
100
AcDbEntity
  8
0
  6
CONTINUOUS
 62
     7
100
AcDbCircle
 10
18.5
 20
0
 40
5
  0
ARC
  5
615
100
AcDbEntity
  8
0
  6
CONTINUOUS
 62
     7
100
AcDbCircle
 10
18.5
 20
0
 40
4
100
AcDbArc
 50
134.4775591720084
 51
165.5225174781439
  0
ARC
  5
616
100
AcDbEntity
  8
0
  6
CONTINUOUS
 62
     7
100
AcDbCircle
 10
18.5
 20
0
 40
4
100
AcDbArc
 50
194.4774825218568
 51
225.5225227902624
  0
ARC
  5
617
100
AcDbEntity
  8
0
  6
CONTINUOUS
 62
     7
100
AcDbCircle
 10
18.5
 20
0
 40
4
100
AcDbArc
 50
254.4775115122656
 51
285.5229342712647
  0
CIRCLE
  5
618
100
AcDbEntity
  8
0
  6
CONTINUOUS
 62
     7
100
AcDbCircle
 10
18.5
 20
0
 40
2.5
  0
ARC
  5
619
100
AcDbEntity
  8
0
  6
CONTINUOUS
 62
     7
100
AcDbCircle
 10
18.5
 20
0
 40
4
100
AcDbArc
 50
74.47796731370647
 51
105.5229392802203
  0
ARC
  5
61a
100
AcDbEntity
  8
0
  6
CONTINUOUS
 62
     7
100
AcDbCircle
 10
18.5
 20
0
 40
4
100
AcDbArc
 50
14.47771463460237
 51
45.52311861058121
  0
ARC
  5
61b
100
AcDbEntity
  8
0
  6
CONTINUOUS
 62
     7
100
AcDbCircle
 10
18.5
 20
0
 40
4
100
AcDbArc
 50
314.4775780687149
 51
345.5231323088554
  0
MTEXT
  5
61c
100
AcDbEntity
  8
0
  6
CONTINUOUS
 62
     7
100
AcDbMText
 10
51.79643596708775
 20
-21.60000038146973
 40
0.5
 41
38
 71
     7
 72
     1
  1
{\W0.842478;ＢＮ－６１０５－ＦＢＣ－１００－Ｂ－＊}
  0
ENDBLK
  8
0
  5
61d
100
AcDbEntity
100
AcDbBlockEnd
  0
BLOCK
  8
0
  5
61e
100
AcDbEntity
100
AcDbBlockBegin
  2
KOZU0006
 70
    64
 10
0
 20
0
  0
POINT
  5
61f
100
AcDbEntity
  8
0
  6
CONTINUOUS
 62
     7
100
AcDbPoint
 10
0
 20
0
  0
LINE
  5
620
100
AcDbEntity
  8
0
  6
CONTINUOUS
 62
     7
100
AcDbLine
 10
45.57733917236328
 20
0
 11
58.42264175415039
 21
0
  0
LINE
  5
621
100
AcDbEntity
  8
0
  6
CONTINUOUS
 62
     7
100
AcDbLine
 10
0
 20
-58.30001831054688
 11
0
 21
58.29998779296875
  0
LINE
  5
622
100
AcDbEntity
  8
0
  6
CONTINUOUS
 62
     7
100
AcDbLine
 10
13.96192700566767
 20
25.48808896345745
 11
-7.334582415974289e-006
 21
26.00002939701708
  0
LINE
  5
623
100
AcDbEntity
  8
0
  6
CONTINUOUS
 62
     7
100
AcDbLine
 10
15
 20
-24.41119384765625
 11
15
 21
24.45001220703125
  0
LINE
  5
624
100
AcDbEntity
  8
0
  6
CONTINUOUS
 62
     7
100
AcDbLine
 10
14
 20
-25.48666381835938
 11
14
 21
25.48666381835938
  0
LINE
  5
625
100
AcDbEntity
  8
0
  6
CONTINUOUS
 62
     7
100
AcDbLine
 10
15.00001608572834
 20
24.449993187883
 11
13.96196697366002
 21
25.48804186244645
  0
LINE
  5
626
100
AcDbEntity
  8
0
  6
CONTINUOUS
 62
   190
100
AcDbLine
 10
15.00003051757813
 20
15
 11
17.00000190734863
 21
15
  0
LINE
  5
627
100
AcDbEntity
  8
0
  6
CONTINUOUS
 62
     7
100
AcDbLine
 10
17.00002726316423
 20
14.99997566938369
 11
19.00002686381311
 21
13.49997593164413
  0
LINE
  5
628
100
AcDbEntity
  8
0
  6
CONTINUOUS
 62
     7
100
AcDbLine
 10
19.00000190734863
 20
13.5
 11
31.1340503692627
 21
13.5
  0
LINE
  5
629
100
AcDbEntity
  8
0
  6
CONTINUOUS
 62
     7
100
AcDbLine
 10
-1.387240991779226e-005
 20
-25.99995520015398
 11
14.00065557661246
 21
-25.48659447139058
  0
LINE
  5
62a
100
AcDbEntity
  8
0
  6
CONTINUOUS
 62
     7
100
AcDbLine
 10
14.00070679831421
 20
-25.48664034068155
 11
15.00001439291445
 21
-24.41125987732773
  0
LINE
  5
62b
100
AcDbEntity
  8
0
  6
CONTINUOUS
 62
   190
100
AcDbLine
 10
15
 20
-15
 11
17.00003814697266
 21
-15
  0
LINE
  5
62c
100
AcDbEntity
  8
0
  6
CONTINUOUS
 62
     7
100
AcDbLine
 10
17.00003451108976
 20
-15.00003699064214
 11
19.00003449320837
 21
-13.50003696680029
  0
LINE
  5
62d
100
AcDbEntity
  8
0
  6
CONTINUOUS
 62
     7
100
AcDbLine
 10
19.00003814697266
 20
-13.5
 11
31.13387298583984
 21
-13.5
  0
LINE
  5
62e
100
AcDbEntity
  8
0
  6
CONTINUOUS
 62
   190
100
AcDbLine
 10
28.53594207763672
 20
-13.5
 11
28.53594207763672
 21
13.5
  0
LINE
  5
62f
100
AcDbEntity
  8
0
  6
CONTINUOUS
 62
   190
100
AcDbLine
 10
32.00003051757813
 20
-13
 11
32.00003051757813
 21
13
  0
LINE
  5
630
100
AcDbEntity
  8
0
  6
CONTINUOUS
 62
   190
100
AcDbLine
 10
31.13404837848724
 20
13.50000248073158
 11
32.00003083126434
 21
13.00002726953355
  0
LINE
  5
631
100
AcDbEntity
  8
0
  6
CONTINUOUS
 62
     7
100
AcDbLine
 10
33.59357918442964
 20
12.99999831851442
 11
35.00002803495989
 21
12.18798468148512
  0
LINE
  5
632
100
AcDbEntity
  8
0
  6
CONTINUOUS
 62
   190
100
AcDbLine
 10
32.00003051757813
 20
13
 11
45.00003051757813
 21
13
  0
LINE
  5
633
100
AcDbEntity
  8
0
  6
CONTINUOUS
 62
   190
100
AcDbLine
 10
35.00002288818359
 20
-13
 11
35.00002288818359
 21
13
  0
LINE
  5
634
100
AcDbEntity
  8
0
  6
CONTINUOUS
 62
     7
100
AcDbLine
 10
35.00003433227539
 20
12.18798828125
 11
45.00003051757813
 21
12.18798828125
  0
LINE
  5
635
100
AcDbEntity
  8
0
  6
CONTINUOUS
 62
     7
100
AcDbLine
 10
35.00003433227539
 20
-12.18798828125
 11
44.99998474121094
 21
-12.18798828125
  0
LINE
  5
636
100
AcDbEntity
  8
0
  6
CONTINUOUS
 62
     7
100
AcDbLine
 10
33.59357123102785
 20
-12.9999654693326
 11
35.0000068670592
 21
-12.18795946169795
  0
LINE
  5
637
100
AcDbEntity
  8
0
  6
CONTINUOUS
 62
   190
100
AcDbLine
 10
32.00003051757813
 20
-13
 11
44.99998474121094
 21
-13
  0
LINE
  5
638
100
AcDbEntity
  8
0
  6
CONTINUOUS
 62
   190
100
AcDbLine
 10
31.13386568875879
 20
-13.49999122862271
 11
32.00000671552269
 21
-12.99992446468907
  0
LINE
  5
639
100
AcDbEntity
  8
0
  6
CONTINUOUS
 62
     7
100
AcDbLine
 10
45.57731669852554
 20
-17.99997067049432
 11
44.9999679816473
 21
-16.9999733771247
  0
LINE
  5
63a
100
AcDbEntity
  8
0
  6
CONTINUOUS
 62
     7
100
AcDbLine
 10
58.42262979636535
 20
-17.9999703201959
 11
58.99997851324358
 21
-16.99997302682628
  0
LINE
  5
63b
100
AcDbEntity
  8
0
  6
CONTINUOUS
 62
     7
100
AcDbLine
 10
45.57733917236328
 20
-18
 11
58.42262649536133
 21
-18
  0
LINE
  5
63c
100
AcDbEntity
  8
0
  6
CONTINUOUS
 62
     7
100
AcDbLine
 10
44.99998474121094
 20
17
 11
44.99998474121094
 21
-17
  0
LINE
  5
63d
100
AcDbEntity
  8
0
  6
CONTINUOUS
 62
     7
100
AcDbLine
 10
58.99998474121094
 20
17
 11
58.99998474121094
 21
-17
  0
LINE
  5
63e
100
AcDbEntity
  8
0
  6
CONTINUOUS
 62
     7
100
AcDbLine
 10
45.57733917236328
 20
18
 11
58.42264175415039
 21
18
  0
LINE
  5
63f
100
AcDbEntity
  8
0
  6
CONTINUOUS
 62
     7
100
AcDbLine
 10
58.42262873998474
 20
17.99999503808404
 11
58.9999784105373
 21
16.99999609290205
  0
LINE
  5
640
100
AcDbEntity
  8
0
  6
CONTINUOUS
 62
     7
100
AcDbLine
 10
45.5773371682882
 20
17.99999849576819
 11
44.99997128527203
 21
16.99997146977604
  0
LINE
  5
641
100
AcDbEntity
  8
0
  6
CONTINUOUS
 62
   190
100
AcDbLine
 10
59.00003051757813
 20
13
 11
70.50003051757813
 21
13
  0
LINE
  5
642
100
AcDbEntity
  8
0
  6
CONTINUOUS
 62
   190
100
AcDbLine
 10
72.00006394834367
 20
11.50000869602389
 11
70.50009994625174
 21
12.99998319246568
  0
LINE
  5
643
100
AcDbEntity
  8
0
  6
CONTINUOUS
 62
     7
100
AcDbLine
 10
59.00003051757813
 20
12.18798828125
 11
71.31204223632813
 21
12.18798828125
  0
LINE
  5
644
100
AcDbEntity
  8
0
  6
CONTINUOUS
 62
   190
100
AcDbLine
 10
70.50003051757813
 20
-13
 11
70.50003051757813
 21
13
  0
LINE
  5
645
100
AcDbEntity
  8
0
  6
CONTINUOUS
 62
   190
100
AcDbLine
 10
72.00003814697266
 20
-11.5
 11
72.00003814697266
 21
11.5
  0
LINE
  5
646
100
AcDbEntity
  8
0
  6
CONTINUOUS
 62
     7
100
AcDbLine
 10
58.99998474121094
 20
-12.18798828125
 11
71.31204223632813
 21
-12.18798828125
  0
LINE
  5
647
100
AcDbEntity
  8
0
  6
CONTINUOUS
 62
   190
100
AcDbLine
 10
58.99998474121094
 20
-13
 11
70.50003051757813
 21
-13
  0
LINE
  5
648
100
AcDbEntity
  8
0
  6
CONTINUOUS
 62
   190
100
AcDbLine
 10
72.00009901483301
 20
-11.50009771004527
 11
70.50011073624127
 21
-13.00009648315673
  0
LINE
  5
649
100
AcDbEntity
  8
0
  6
CENTER
 62
     3
100
AcDbLine
 10
-301
 20
0
 11
77.36559295654297
 21
0
  0
LINE
  5
64a
100
AcDbEntity
  8
0
  6
CONTINUOUS
 62
     7
100
AcDbLine
 10
-0.7000007629394531
 20
59
 11
-36.30000305175781
 21
59
  0
LINE
  5
64b
100
AcDbEntity
  8
0
  6
CONTINUOUS
 62
     7
100
AcDbLine
 10
-37
 20
-58.30001831054688
 11
-37
 21
58.29998779296875
  0
LINE
  5
64c
100
AcDbEntity
  8
0
  6
CONTINUOUS
 62
     7
100
AcDbLine
 10
-37
 20
54.5
 11
-37.5
 21
54.5
  0
LINE
  5
64d
100
AcDbEntity
  8
0
  6
CONTINUOUS
 62
     7
100
AcDbLine
 10
-37.5
 20
50.43499755859375
 11
-37.5
 21
54.5
  0
LINE
  5
64e
100
AcDbEntity
  8
0
  6
CONTINUOUS
 62
   134
100
AcDbLine
 10
-37.8000293515483
 20
53.20001044412485
 11
-37.5000299131875
 21
52.90002218287933
  0
LINE
  5
64f
100
AcDbEntity
  8
0
  6
CONTINUOUS
 62
   104
100
AcDbLine
 10
-238.2000274658203
 20
53.20001220703125
 11
-37.80002593994141
 21
53.20001220703125
  0
LINE
  5
650
100
AcDbEntity
  8
0
  6
CONTINUOUS
 62
     7
100
AcDbLine
 10
-239.0000457763672
 20
50.43499755859375
 11
-37.00000381469727
 21
50.43499755859375
  0
LINE
  5
651
100
AcDbEntity
  8
0
  6
CENTER
 62
     3
100
AcDbLine
 10
-239.0000457763672
 20
45
 11
-37
 21
45
  0
LINE
  5
652
100
AcDbEntity
  8
0
  6
CONTINUOUS
 62
     7
100
AcDbLine
 10
-239.0000457763672
 20
39.56500244140625
 11
-37.00000381469727
 21
39.56500244140625
  0
LINE
  5
653
100
AcDbEntity
  8
0
  6
CONTINUOUS
 62
     7
100
AcDbLine
 10
-37.5
 20
-39.56500244140625
 11
-37.5
 21
39.56500244140625
  0
LINE
  5
654
100
AcDbEntity
  8
0
  6
CONTINUOUS
 62
     7
100
AcDbLine
 10
-0.7000007629394531
 20
-59
 11
-36.30000305175781
 21
-59
  0
LINE
  5
655
100
AcDbEntity
  8
0
  6
CONTINUOUS
 62
     7
100
AcDbLine
 10
-37
 20
-54.5
 11
-37.5
 21
-54.5
  0
LINE
  5
656
100
AcDbEntity
  8
0
  6
CONTINUOUS
 62
     7
100
AcDbLine
 10
-37.5
 20
-54.5
 11
-37.5
 21
-50.43499755859375
  0
LINE
  5
657
100
AcDbEntity
  8
0
  6
CONTINUOUS
 62
   104
100
AcDbLine
 10
-238.2000274658203
 20
-53.19998168945313
 11
-37.80002593994141
 21
-53.19998168945313
  0
LINE
  5
658
100
AcDbEntity
  8
0
  6
CONTINUOUS
 62
   104
100
AcDbLine
 10
-37.80002328171118
 20
-53.19997335501123
 11
-37.50002654079894
 21
-52.89998779111377
  0
LINE
  5
659
100
AcDbEntity
  8
0
  6
CONTINUOUS
 62
     7
100
AcDbLine
 10
-239.0000457763672
 20
-50.43499755859375
 11
-37.00000381469727
 21
-50.43499755859375
  0
LINE
  5
65a
100
AcDbEntity
  8
0
  6
CENTER
 62
     3
100
AcDbLine
 10
-239.0000457763672
 20
-45
 11
-37
 21
-45
  0
LINE
  5
65b
100
AcDbEntity
  8
0
  6
CONTINUOUS
 62
     7
100
AcDbLine
 10
-239.0000457763672
 20
-39.56500244140625
 11
-37.00000381469727
 21
-39.56500244140625
  0
LINE
  5
65c
100
AcDbEntity
  8
0
  6
CONTINUOUS
 62
     7
100
AcDbLine
 10
-238.5000457763672
 20
-54.5
 11
-238.5000457763672
 21
-50.43499755859375
  0
LINE
  5
65d
100
AcDbEntity
  8
0
  6
CONTINUOUS
 62
     7
100
AcDbLine
 10
-239.0000457763672
 20
-58.30001831054688
 11
-239.0000457763672
 21
58.29998779296875
  0
LINE
  5
65e
100
AcDbEntity
  8
0
  6
CONTINUOUS
 62
     7
100
AcDbLine
 10
-239.0000457763672
 20
-54.5
 11
-238.5000152587891
 21
-54.5
  0
LINE
  5
65f
100
AcDbEntity
  8
0
  6
CONTINUOUS
 62
   134
100
AcDbLine
 10
-238.5000565302178
 20
-52.9000789674525
 11
-238.200083488334
 21
-53.20005046690426
  0
LINE
  5
660
100
AcDbEntity
  8
0
  6
CONTINUOUS
 62
     7
100
AcDbLine
 10
-238.5000457763672
 20
-39.56500244140625
 11
-238.5000457763672
 21
39.56500244140625
  0
LINE
  5
661
100
AcDbEntity
  8
0
  6
CONTINUOUS
 62
     7
100
AcDbLine
 10
-275.2999877929688
 20
-59
 11
-239.7000274658203
 21
-59
  0
LINE
  5
662
100
AcDbEntity
  8
0
  6
CONTINUOUS
 62
     7
100
AcDbLine
 10
-276
 20
-90
 11
-276
 21
90
  0
LINE
  5
663
100
AcDbEntity
  8
0
  6
CONTINUOUS
 62
     7
100
AcDbLine
 10
-275.2999877929688
 20
59
 11
-239.7000274658203
 21
59
  0
LINE
  5
664
100
AcDbEntity
  8
0
  6
CONTINUOUS
 62
     7
100
AcDbLine
 10
-238.5000457763672
 20
50.43499755859375
 11
-238.5000457763672
 21
54.5
  0
LINE
  5
665
100
AcDbEntity
  8
0
  6
CONTINUOUS
 62
     7
100
AcDbLine
 10
-239.0000457763672
 20
54.5
 11
-238.5000152587891
 21
54.5
  0
LINE
  5
666
100
AcDbEntity
  8
0
  6
CONTINUOUS
 62
   134
100
AcDbLine
 10
-238.500132057509
 20
52.90002501968057
 11
-238.2001158571414
 21
53.20003967739424
  0
LINE
  5
667
100
AcDbEntity
  8
0
  6
CONTINUOUS
 62
     7
100
AcDbLine
 10
-294
 20
90
 11
-276
 21
90
  0
LINE
  5
668
100
AcDbEntity
  8
0
  6
DASHED
 62
     7
100
AcDbLine
 10
-294
 20
82
 11
-276
 21
82
  0
LINE
  5
669
100
AcDbEntity
  8
0
  6
CENTER
 62
     3
100
AcDbLine
 10
-298.4911499023438
 20
75
 11
-271.4141540527344
 21
75
  0
LINE
  5
66a
100
AcDbEntity
  8
0
  6
DASHED
 62
     7
100
AcDbLine
 10
-294
 20
68
 11
-276
 21
68
  0
LINE
  5
66b
100
AcDbEntity
  8
0
  6
CONTINUOUS
 62
     7
100
AcDbLine
 10
-294
 20
90
 11
-294
 21
-90
  0
LINE
  5
66c
100
AcDbEntity
  8
0
  6
DASHED
 62
     7
100
AcDbLine
 10
-294
 20
-68
 11
-276
 21
-68
  0
LINE
  5
66d
100
AcDbEntity
  8
0
  6
CENTER
 62
     3
100
AcDbLine
 10
-298.4911499023438
 20
-75
 11
-271.4141540527344
 21
-75
  0
LINE
  5
66e
100
AcDbEntity
  8
0
  6
DASHED
 62
     7
100
AcDbLine
 10
-294
 20
-82
 11
-276
 21
-82
  0
LINE
  5
66f
100
AcDbEntity
  8
0
  6
CONTINUOUS
 62
     7
100
AcDbLine
 10
-294
 20
-90
 11
-276
 21
-90
  0
ARC
  5
670
100
AcDbEntity
  8
0
  6
CONTINUOUS
 62
     7
100
AcDbCircle
 10
-11.43624877929688
 20
-9
 40
70.43623352050781
100
AcDbArc
 50
352.6588990196927
 51
7.340937055767965
  0
ARC
  5
671
100
AcDbEntity
  8
0
  6
CONTINUOUS
 62
     7
100
AcDbCircle
 10
115.4362182617188
 20
-9
 40
70.43623352050781
100
AcDbArc
 50
172.6589176890266
 51
187.3409557251033
  0
ARC
  5
672
100
AcDbEntity
  8
0
  6
CONTINUOUS
 62
     7
100
AcDbCircle
 10
-11.43624877929688
 20
9
 40
70.43623352050781
100
AcDbArc
 50
352.6588990196927
 51
7.340937055767963
  0
ARC
  5
673
100
AcDbEntity
  8
0
  6
CONTINUOUS
 62
     7
100
AcDbCircle
 10
115.4362182617188
 20
9
 40
70.43623352050781
100
AcDbArc
 50
172.6589176890266
 51
187.3409557251033
  0
ARC
  5
674
100
AcDbEntity
  8
0
  6
CONTINUOUS
 62
     7
100
AcDbCircle
 10
-0.6999969482421875
 20
58.29998779296875
 40
0.699999988079071
100
AcDbArc
 50
359.9999453584874
 51
89.9999273723973
  0
ARC
  5
675
100
AcDbEntity
  8
0
  6
CONTINUOUS
 62
     7
100
AcDbCircle
 10
-36.30000305175781
 20
58.29998779296875
 40
0.699999988079071
100
AcDbArc
 50
89.99992737239741
 51
179.9999640278215
  0
ARC
  5
676
100
AcDbEntity
  8
0
  6
CONTINUOUS
 62
     7
100
AcDbCircle
 10
-0.6999969482421875
 20
-58.30001831054688
 40
0.699999988079071
100
AcDbArc
 50
269.9999633445767
 51
359.9999453584874
  0
ARC
  5
677
100
AcDbEntity
  8
0
  6
CONTINUOUS
 62
     7
100
AcDbCircle
 10
-36.30000305175781
 20
-58.30001831054688
 40
0.699999988079071
100
AcDbArc
 50
179.9999813306651
 51
269.9999633445766
  0
ARC
  5
678
100
AcDbEntity
  8
0
  6
CONTINUOUS
 62
     7
100
AcDbCircle
 10
-239.7000579833984
 20
-58.30001831054688
 40
0.699999988079071
100
AcDbArc
 50
269.9999633445772
 51
359.9999453584874
  0
ARC
  5
679
100
AcDbEntity
  8
0
  6
CONTINUOUS
 62
     7
100
AcDbCircle
 10
-275.2999877929688
 20
-58.30001831054688
 40
0.699999988079071
100
AcDbArc
 50
179.9999813306651
 51
269.9999633445772
  0
ARC
  5
67a
100
AcDbEntity
  8
0
  6
CONTINUOUS
 62
     7
100
AcDbCircle
 10
-275.2999877929688
 20
58.29998779296875
 40
0.699999988079071
100
AcDbArc
 50
89.99992737239684
 51
179.9999640278215
  0
ARC
  5
67b
100
AcDbEntity
  8
0
  6
CONTINUOUS
 62
     7
100
AcDbCircle
 10
-239.7000579833984
 20
58.29998779296875
 40
0.699999988079071
100
AcDbArc
 50
359.9999453584874
 51
89.99992737239684
  0
MTEXT
  5
67c
100
AcDbEntity
  8
0
  6
CONTINUOUS
 62
     7
100
AcDbMText
 10
-62.65356098115444
 20
-21.60000038146973
 40
0.5
 41
38
 71
     7
 72
     1
  1
{\W0.842478;ＢＮ－６１０５－ＦＢＣ－１００－Ｂ－＊}
  0
ENDBLK
  8
0
  5
67d
100
AcDbEntity
100
AcDbBlockEnd
  0
BLOCK
  8
0
  5
67e
100
AcDbEntity
100
AcDbBlockBegin
  2
KOZU0007
 70
    64
 10
0
 20
0
  0
POINT
  5
67f
100
AcDbEntity
  8
0
  6
CONTINUOUS
 62
     7
100
AcDbPoint
 10
0
 20
0
  0
LINE
  5
680
100
AcDbEntity
  8
0
  6
CENTER
 62
     3
100
AcDbLine
 10
-123.6330413818359
 20
0
 11
27.25881958007813
 21
0
  0
LINE
  5
681
100
AcDbEntity
  8
0
  6
CENTER
 62
     3
100
AcDbLine
 10
0
 20
-24.79521179199219
 11
0
 21
26.01583862304688
  0
LINE
  5
682
100
AcDbEntity
  8
0
  6
CONTINUOUS
 62
     7
100
AcDbLine
 10
-58
 20
21
 11
0
 21
21
  0
LINE
  5
683
100
AcDbEntity
  8
0
  6
CONTINUOUS
 62
     7
100
AcDbLine
 10
-59.99998474121094
 20
-19.99998474121094
 11
-59.99998474121094
 21
20.00001525878906
  0
LINE
  5
684
100
AcDbEntity
  8
0
  6
CONTINUOUS
 62
     7
100
AcDbLine
 10
-57.99999210839749
 20
20.99999508374886
 11
-59.99999277750608
 21
19.99999474919456
  0
LINE
  5
685
100
AcDbEntity
  8
0
  6
CONTINUOUS
 62
     7
100
AcDbLine
 10
-58
 20
-20.99998474121094
 11
-58
 21
21
  0
LINE
  5
686
100
AcDbEntity
  8
0
  6
CONTINUOUS
 62
     7
100
AcDbLine
 10
-58.00001946142152
 20
9.000059662849854
 11
-40.00002537725955
 21
21.00005614877292
  0
LINE
  5
687
100
AcDbEntity
  8
0
  6
CONTINUOUS
 62
     7
100
AcDbLine
 10
-58
 20
-20.99996948242188
 11
0
 21
-20.99996948242188
  0
LINE
  5
688
100
AcDbEntity
  8
0
  6
CONTINUOUS
 62
     7
100
AcDbLine
 10
-57.99995069098696
 20
-8.99996338424485
 11
-39.99996295486488
 21
-20.99995563814117
  0
LINE
  5
689
100
AcDbEntity
  8
0
  6
CONTINUOUS
 62
     7
100
AcDbLine
 10
-58.00000234430436
 20
-20.99998996579542
 11
-60.00000301341296
 21
-19.99998963124112
  0
LINE
  5
68a
100
AcDbEntity
  8
0
  6
CONTINUOUS
 62
     7
100
AcDbLine
 10
-81.5
 20
-20
 11
-60
 21
-20
  0
LINE
  5
68b
100
AcDbEntity
  8
0
  6
CONTINUOUS
 62
     7
100
AcDbLine
 10
-81.5
 20
-19.99998474121094
 11
-81.5
 21
20.00001525878906
  0
LINE
  5
68c
100
AcDbEntity
  8
0
  6
CONTINUOUS
 62
     7
100
AcDbLine
 10
-81.5
 20
20
 11
-60
 21
20
  0
LINE
  5
68d
100
AcDbEntity
  8
0
  6
CONTINUOUS
 62
     7
100
AcDbLine
 10
-81.50004593639457
 20
-20.00001851838197
 11
-83.00004382444558
 21
-18.5000131703309
  0
LINE
  5
68e
100
AcDbEntity
  8
0
  6
CONTINUOUS
 62
     7
100
AcDbLine
 10
-83
 20
-18.49996948242188
 11
-83
 21
18.50001525878906
  0
LINE
  5
68f
100
AcDbEntity
  8
0
  6
CONTINUOUS
 62
     7
100
AcDbLine
 10
-83.00000037104172
 20
18.49998897813941
 11
-81.49998423337061
 21
19.99999765575683
  0
LINE
  5
690
100
AcDbEntity
  8
0
  6
CONTINUOUS
 62
     7
100
AcDbLine
 10
-85.18504172108754
 20
20.78461886348238
 11
-82.99999835671335
 21
17.00001280757204
  0
LINE
  5
691
100
AcDbEntity
  8
0
  6
CONTINUOUS
 62
     7
100
AcDbLine
 10
-94.81496429443359
 20
20.78460693359375
 11
-85.18505859375
 21
20.78460693359375
  0
LINE
  5
692
100
AcDbEntity
  8
0
  6
CONTINUOUS
 62
     7
100
AcDbLine
 10
-94.81496429443359
 20
10.39230346679688
 11
-85.18505859375
 21
10.39230346679688
  0
LINE
  5
693
100
AcDbEntity
  8
0
  6
CONTINUOUS
 62
     7
100
AcDbLine
 10
-94.81496429443359
 20
-10.39230346679688
 11
-85.18505859375
 21
-10.39230346679688
  0
LINE
  5
694
100
AcDbEntity
  8
0
  6
CONTINUOUS
 62
     7
100
AcDbLine
 10
-85.18506307605367
 20
-20.78463296318475
 11
-83.00000445289021
 21
-17.00000047827661
  0
LINE
  5
695
100
AcDbEntity
  8
0
  6
CONTINUOUS
 62
     7
100
AcDbLine
 10
-94.81496429443359
 20
-20.78460693359375
 11
-85.18505859375
 21
-20.78460693359375
  0
LINE
  5
696
100
AcDbEntity
  8
0
  6
CONTINUOUS
 62
     7
100
AcDbLine
 10
-94.81497214707319
 20
-20.78459303053103
 11
-97.00002314084202
 21
-16.99997376012179
  0
LINE
  5
697
100
AcDbEntity
  8
0
  6
CONTINUOUS
 62
     7
100
AcDbLine
 10
-96.99998474121094
 20
-17
 11
-96.99998474121094
 21
17.00001525878906
  0
LINE
  5
698
100
AcDbEntity
  8
0
  6
CONTINUOUS
 62
     7
100
AcDbLine
 10
-94.81497010278284
 20
20.78462708892346
 11
-97.00001346715702
 21
17.00002103301312
  0
LINE
  5
699
100
AcDbEntity
  8
0
  6
CONTINUOUS
 62
   190
100
AcDbLine
 10
-103
 20
-12.99996948242188
 11
-97
 21
-12.99996948242188
  0
LINE
  5
69a
100
AcDbEntity
  8
0
  6
CONTINUOUS
 62
   190
100
AcDbLine
 10
-99.99998474121094
 20
13.00001525878906
 11
-99.99998474121094
 21
-12.99998474121094
  0
LINE
  5
69b
100
AcDbEntity
  8
0
  6
CONTINUOUS
 62
     7
100
AcDbLine
 10
-100
 20
-12.18798828125
 11
-97
 21
-12.18798828125
  0
LINE
  5
69c
100
AcDbEntity
  8
0
  6
CONTINUOUS
 62
     7
100
AcDbLine
 10
-101.4064541641721
 20
-12.99995254903853
 11
-100.0000086172666
 21
-12.18794081935791
  0
LINE
  5
69d
100
AcDbEntity
  8
0
  6
CONTINUOUS
 62
   190
100
AcDbLine
 10
-102.9999847412109
 20
13.00001525878906
 11
-102.9999847412109
 21
-12.99998474121094
  0
LINE
  5
69e
100
AcDbEntity
  8
0
  6
CONTINUOUS
 62
   190
100
AcDbLine
 10
-106.4641156796181
 20
-14.99998820270032
 11
-103.0000140800239
 21
-12.99998817577797
  0
LINE
  5
69f
100
AcDbEntity
  8
0
  6
CONTINUOUS
 62
   190
100
AcDbLine
 10
-103
 20
13
 11
-97
 21
13
  0
LINE
  5
6a0
100
AcDbEntity
  8
0
  6
CONTINUOUS
 62
     7
100
AcDbLine
 10
-100
 20
12.18801879882813
 11
-97
 21
12.18801879882813
  0
LINE
  5
6a1
100
AcDbEntity
  8
0
  6
CONTINUOUS
 62
     7
100
AcDbLine
 10
-101.4064367241508
 20
13.00004379119647
 11
-100.0000043917441
 21
12.18803969091047
  0
LINE
  5
6a2
100
AcDbEntity
  8
0
  6
CONTINUOUS
 62
   190
100
AcDbLine
 10
-106.4640908840855
 20
15.00003114982174
 11
-102.9999892844914
 21
13.00003112289939
  0
LINE
  5
6a3
100
AcDbEntity
  8
0
  6
CONTINUOUS
 62
   190
100
AcDbLine
 10
-124.7089920043945
 20
15
 11
-106.4640960693359
 21
15
  0
LINE
  5
6a4
100
AcDbEntity
  8
0
  6
CONTINUOUS
 62
   190
100
AcDbLine
 10
-106.4640960693359
 20
15.00001525878906
 11
-106.4640960693359
 21
6.538360595703125
  0
LINE
  5
6a5
100
AcDbEntity
  8
0
  6
CONTINUOUS
 62
   190
100
AcDbLine
 10
-116
 20
6.538360595703125
 11
-103
 21
6.538360595703125
  0
LINE
  5
6a6
100
AcDbEntity
  8
0
  6
CONTINUOUS
 62
     7
100
AcDbLine
 10
-115.9999762378166
 20
-6.538304556913296
 11
-102.9999774711398
 21
6.538390678915782
  0
LINE
  5
6a7
100
AcDbEntity
  8
0
  6
CONTINUOUS
 62
     7
100
AcDbLine
 10
-116.0000408798936
 20
6.538337115957482
 11
-103.0000421132169
 21
-6.538358119871596
  0
LINE
  5
6a8
100
AcDbEntity
  8
0
  6
CONTINUOUS
 62
   190
100
AcDbLine
 10
-116
 20
-6.538330078125
 11
-103
 21
-6.538330078125
  0
LINE
  5
6a9
100
AcDbEntity
  8
0
  6
CONTINUOUS
 62
   190
100
AcDbLine
 10
-106.4640960693359
 20
-6.538330078125
 11
-106.4640960693359
 21
-14.99998474121094
  0
LINE
  5
6aa
100
AcDbEntity
  8
0
  6
CONTINUOUS
 62
   190
100
AcDbLine
 10
-122.5570907592773
 20
-15
 11
-106.4640960693359
 21
-15
  0
LINE
  5
6ab
100
AcDbEntity
  8
0
  6
CONTINUOUS
 62
   190
100
AcDbLine
 10
-115.9999847412109
 20
6.538360595703125
 11
-115.9999847412109
 21
-6.538330078125
  0
LWPOLYLINE
  5
6ac
100
AcDbEntity
  8
0
  6
CONTINUOUS
 62
     7
100
AcDbPolyline
 90
    10
 70
     0
 10
-124.9478650855674
 20
18.32983014481496
 10
-124.3645000174777
 20
10.19703840019504
 10
-126.8151655408025
 20
9.419710610400371
 10
-121.7421236945794
 20
8.580516695700259
 10
-124.1927892179043
 20
7.803188905905587
 10
-123.0260590817248
 20
-8.462394583334238
 10
-125.4767246050496
 20
-9.23972237312891
 10
-120.4036827588266
 20
-10.07891628782902
 10
-122.8543482821514
 20
-10.85624407762369
 10
-122.2709832140617
 20
-18.98903582224361
  0
LINE
  5
6ad
100
AcDbEntity
  8
0
  6
CONTINUOUS
 62
     7
100
AcDbLine
 10
143.6847589809209
 20
-8.5000421988249
 11
142.1847572996449
 21
-10.00004375366024
  0
LINE
  5
6ae
100
AcDbEntity
  8
0
  6
CONTINUOUS
 62
     7
100
AcDbLine
 10
143.6847076416016
 20
8.500015258789063
 11
143.6847076416016
 21
-8.499984741210938
  0
LINE
  5
6af
100
AcDbEntity
  8
0
  6
CONTINUOUS
 62
     7
100
AcDbLine
 10
142.1847257738035
 20
9.999988610010121
 11
143.6847165390461
 21
8.499997718327776
  0
LINE
  5
6b0
100
AcDbEntity
  8
0
  6
CONTINUOUS
 62
     7
100
AcDbLine
 10
142.1847076416016
 20
10.00001525878906
 11
142.1847076416016
 21
-9.999984741210938
  0
LINE
  5
6b1
100
AcDbEntity
  8
0
  6
CONTINUOUS
 62
     7
100
AcDbLine
 10
129.6847076416016
 20
10
 11
142.1847076416016
 21
10
  0
LINE
  5
6b2
100
AcDbEntity
  8
0
  6
CONTINUOUS
 62
     7
100
AcDbLine
 10
129.6847076416016
 20
-10
 11
142.1847076416016
 21
-10
  0
LINE
  5
6b3
100
AcDbEntity
  8
0
  6
CENTER
 62
     3
100
AcDbLine
 10
51.68470764160156
 20
0
 11
148.6847076416016
 21
0
  0
LINE
  5
6b4
100
AcDbEntity
  8
0
  6
CENTER
 62
     3
100
AcDbLine
 10
135.1847076416016
 20
5.3592529296875
 11
135.1847076416016
 21
-5.210113525390625
  0
LINE
  5
6b5
100
AcDbEntity
  8
0
  6
CONTINUOUS
 62
     7
100
AcDbLine
 10
127.1847100568625
 20
21.00000110795521
 11
129.684701858662
 21
18.50000909542217
  0
LINE
  5
6b6
100
AcDbEntity
  8
0
  6
CONTINUOUS
 62
     7
100
AcDbLine
 10
129.6847076416016
 20
18.50001525878906
 11
129.6847076416016
 21
-18.49998474121094
  0
LINE
  5
6b7
100
AcDbEntity
  8
0
  6
CONTINUOUS
 62
     7
100
AcDbLine
 10
127.1847076416016
 20
21.00001525878906
 11
127.1847076416016
 21
-20.99998474121094
  0
LINE
  5
6b8
100
AcDbEntity
  8
0
  6
CONTINUOUS
 62
     7
100
AcDbLine
 10
129.684759641989
 20
-18.50004700101035
 11
127.1847622346591
 21
-21.00004419760622
  0
LINE
  5
6b9
100
AcDbEntity
  8
0
  6
CONTINUOUS
 62
     7
100
AcDbLine
 10
73.18470764160156
 20
-21
 11
127.1847076416016
 21
-21
  0
LINE
  5
6ba
100
AcDbEntity
  8
0
  6
CONTINUOUS
 62
     7
100
AcDbLine
 10
115.1847076416016
 20
21.00001525878906
 11
115.1847076416016
 21
-20.99998474121094
  0
LINE
  5
6bb
100
AcDbEntity
  8
0
  6
CONTINUOUS
 62
     7
100
AcDbLine
 10
85.18470764160156
 20
-10
 11
115.1847076416016
 21
-10
  0
LINE
  5
6bc
100
AcDbEntity
  8
0
  6
CONTINUOUS
 62
     7
100
AcDbLine
 10
85.18470764160156
 20
10
 11
115.1847076416016
 21
10
  0
LINE
  5
6bd
100
AcDbEntity
  8
0
  6
CONTINUOUS
 62
     7
100
AcDbLine
 10
73.18470764160156
 20
21
 11
127.1847076416016
 21
21
  0
LINE
  5
6be
100
AcDbEntity
  8
0
  6
CENTER
 62
     3
100
AcDbLine
 10
100.1847076416016
 20
26.00001525878906
 11
100.1847076416016
 21
-25.99998474121094
  0
LINE
  5
6bf
100
AcDbEntity
  8
0
  6
CONTINUOUS
 62
     7
100
AcDbLine
 10
85.18470764160156
 20
21.00001525878906
 11
85.18470764160156
 21
-20.99998474121094
  0
LINE
  5
6c0
100
AcDbEntity
  8
0
  6
CONTINUOUS
 62
     7
100
AcDbLine
 10
73.18470764160156
 20
21.00001525878906
 11
73.18470764160156
 21
-20.99998474121094
  0
LINE
  5
6c1
100
AcDbEntity
  8
0
  6
CONTINUOUS
 62
     7
100
AcDbLine
 10
73.18474174823372
 20
20.99997178931967
 11
70.68474455163785
 21
18.49997438198979
  0
LINE
  5
6c2
100
AcDbEntity
  8
0
  6
CONTINUOUS
 62
     7
100
AcDbLine
 10
70.68470764160156
 20
18.50001525878906
 11
70.68470764160156
 21
-18.49998474121094
  0
LINE
  5
6c3
100
AcDbEntity
  8
0
  6
CONTINUOUS
 62
     7
100
AcDbLine
 10
58.18475030787664
 20
9.999978173163747
 11
56.6847487530413
 21
8.499976491887722
  0
LINE
  5
6c4
100
AcDbEntity
  8
0
  6
CONTINUOUS
 62
     7
100
AcDbLine
 10
56.68470764160156
 20
8.500015258789063
 11
56.68470764160156
 21
-8.499984741210938
  0
LINE
  5
6c5
100
AcDbEntity
  8
0
  6
CONTINUOUS
 62
     7
100
AcDbLine
 10
58.18470764160156
 20
10.00001525878906
 11
58.18470764160156
 21
-9.999984741210938
  0
LINE
  5
6c6
100
AcDbEntity
  8
0
  6
CONTINUOUS
 62
     7
100
AcDbLine
 10
58.18470764160156
 20
10
 11
70.68470764160156
 21
10
  0
LINE
  5
6c7
100
AcDbEntity
  8
0
  6
CENTER
 62
     3
100
AcDbLine
 10
65.18470764160156
 20
5.262283325195313
 11
65.18470764160156
 21
-5.113143920898438
  0
LINE
  5
6c8
100
AcDbEntity
  8
0
  6
CONTINUOUS
 62
     7
100
AcDbLine
 10
56.68470631116355
 20
-8.499993292909032
 11
58.1846972028459
 21
-9.999984058151611
  0
LINE
  5
6c9
100
AcDbEntity
  8
0
  6
CONTINUOUS
 62
     7
100
AcDbLine
 10
58.18470764160156
 20
-10
 11
70.68470764160156
 21
-10
  0
LINE
  5
6ca
100
AcDbEntity
  8
0
  6
CONTINUOUS
 62
     7
100
AcDbLine
 10
70.68469486050181
 20
-18.49998730550173
 11
73.18468687303484
 21
-20.99997910730121
  0
LINE
  5
6cb
100
AcDbEntity
  8
0
  6
CONTINUOUS
 62
     7
100
AcDbLine
 10
-96.42263031005859
 20
-125.2346496582031
 11
-83.57737731933594
 21
-125.2346496582031
  0
LINE
  5
6cc
100
AcDbEntity
  8
0
  6
CONTINUOUS
 62
     7
100
AcDbLine
 10
21
 20
-110.2346496582031
 11
21
 21
-98.23464965820313
  0
LINE
  5
6cd
100
AcDbEntity
  8
0
  6
CONTINUOUS
 62
     7
100
AcDbLine
 10
18.50005771959638
 20
-95.7346525883986
 11
21.00004962676264
 21
-98.23464449556485
  0
LINE
  5
6ce
100
AcDbEntity
  8
0
  6
CONTINUOUS
 62
     7
100
AcDbLine
 10
-58
 20
-98.23464965820313
 11
21
 21
-98.23464965820313
  0
LINE
  5
6cf
100
AcDbEntity
  8
0
  6
CONTINUOUS
 62
     7
100
AcDbLine
 10
-18.5
 20
-95.73464965820313
 11
18.5
 21
-95.73464965820313
  0
LINE
  5
6d0
100
AcDbEntity
  8
0
  6
CONTINUOUS
 62
     7
100
AcDbLine
 10
10
 20
-95.73464965820313
 11
10
 21
-83.23468017578125
  0
LINE
  5
6d1
100
AcDbEntity
  8
0
  6
CENTER
 62
     3
100
AcDbLine
 10
-11.67736434936523
 20
-90.23464965820313
 11
11.76799774169922
 21
-90.23464965820313
  0
LINE
  5
6d2
100
AcDbEntity
  8
0
  6
CONTINUOUS
 62
     7
100
AcDbLine
 10
8.500017716198727
 20
-81.73463586389474
 11
10.00000835500153
 21
-83.23462688201684
  0
LINE
  5
6d3
100
AcDbEntity
  8
0
  6
CONTINUOUS
 62
     7
100
AcDbLine
 10
-8.500015258789063
 20
-81.73464965820313
 11
8.499984741210938
 21
-81.73464965820313
  0
LINE
  5
6d4
100
AcDbEntity
  8
0
  6
CONTINUOUS
 62
     7
100
AcDbLine
 10
-10.00001525878906
 20
-83.23464965820313
 11
9.999984741210938
 21
-83.23464965820313
  0
LINE
  5
6d5
100
AcDbEntity
  8
0
  6
CENTER
 62
     3
100
AcDbLine
 10
0
 20
-172.6672973632813
 11
0
 21
-77.83380126953125
  0
LINE
  5
6d6
100
AcDbEntity
  8
0
  6
CONTINUOUS
 62
     7
100
AcDbLine
 10
-9.999999732095894
 20
-83.23472955173887
 11
-8.499987134784618
 21
-81.73471733375234
  0
LINE
  5
6d7
100
AcDbEntity
  8
0
  6
CONTINUOUS
 62
     7
100
AcDbLine
 10
-10
 20
-95.73464965820313
 11
-10
 21
-83.234619140625
  0
LINE
  5
6d8
100
AcDbEntity
  8
0
  6
CONTINUOUS
 62
     7
100
AcDbLine
 10
-21.00006311375417
 20
-98.23458785020046
 11
-18.50006041699469
 21
-95.73458515344098
  0
LINE
  5
6d9
100
AcDbEntity
  8
0
  6
CONTINUOUS
 62
     7
100
AcDbLine
 10
-58.00001854831746
 20
-110.2346174367356
 11
-40.00001176807569
 21
-98.23461248675906
  0
LINE
  5
6da
100
AcDbEntity
  8
0
  6
CONTINUOUS
 62
     7
100
AcDbLine
 10
-58
 20
-152.2346496582031
 11
-58
 21
-98.23464965820313
  0
LINE
  5
6db
100
AcDbEntity
  8
0
  6
CONTINUOUS
 62
     7
100
AcDbLine
 10
-38
 20
-110.2346496582031
 11
21
 21
-110.2346496582031
  0
LINE
  5
6dc
100
AcDbEntity
  8
0
  6
CONTINUOUS
 62
     7
100
AcDbLine
 10
10
 20
-140.2346801757813
 11
10
 21
-110.2346496582031
  0
LINE
  5
6dd
100
AcDbEntity
  8
0
  6
CONTINUOUS
 62
     7
100
AcDbLine
 10
-10
 20
-140.2346496582031
 11
-10
 21
-110.2346496582031
  0
LINE
  5
6de
100
AcDbEntity
  8
0
  6
CENTER
 62
     3
100
AcDbLine
 10
-123.633056640625
 20
-125.2346496582031
 11
27.66275787353516
 21
-125.2346496582031
  0
LINE
  5
6df
100
AcDbEntity
  8
0
  6
CONTINUOUS
 62
     7
100
AcDbLine
 10
-38
 20
-112.2346496582031
 11
-38
 21
-110.2346496582031
  0
LINE
  5
6e0
100
AcDbEntity
  8
0
  6
CONTINUOUS
 62
     7
100
AcDbLine
 10
-40
 20
-136.2346496582031
 11
-40
 21
-114.2346496582031
  0
LINE
  5
6e1
100
AcDbEntity
  8
0
  6
CONTINUOUS
 62
     7
100
AcDbLine
 10
-38
 20
-140.2346496582031
 11
-38
 21
-138.2346496582031
  0
LINE
  5
6e2
100
AcDbEntity
  8
0
  6
CONTINUOUS
 62
     7
100
AcDbLine
 10
-38
 20
-140.2346496582031
 11
21
 21
-140.2346496582031
  0
LINE
  5
6e3
100
AcDbEntity
  8
0
  6
CONTINUOUS
 62
     7
100
AcDbLine
 10
21
 20
-152.2346496582031
 11
21
 21
-140.2346496582031
  0
LINE
  5
6e4
100
AcDbEntity
  8
0
  6
CONTINUOUS
 62
     7
100
AcDbLine
 10
20.99995791522028
 20
-152.234600244434
 11
18.4999552184608
 21
-154.7346029411934
  0
LINE
  5
6e5
100
AcDbEntity
  8
0
  6
CONTINUOUS
 62
     7
100
AcDbLine
 10
-58
 20
-152.2346496582031
 11
21
 21
-152.2346496582031
  0
LINE
  5
6e6
100
AcDbEntity
  8
0
  6
CONTINUOUS
 62
     7
100
AcDbLine
 10
-18.5
 20
-154.7346496582031
 11
18.5
 21
-154.7346496582031
  0
LINE
  5
6e7
100
AcDbEntity
  8
0
  6
CONTINUOUS
 62
     7
100
AcDbLine
 10
10
 20
-167.2346496582031
 11
10
 21
-154.7346496582031
  0
LINE
  5
6e8
100
AcDbEntity
  8
0
  6
CENTER
 62
     3
100
AcDbLine
 10
-12.27852630615234
 20
-160.234619140625
 11
12.06858062744141
 21
-160.234619140625
  0
LINE
  5
6e9
100
AcDbEntity
  8
0
  6
CONTINUOUS
 62
     7
100
AcDbLine
 10
8.500082979295726
 20
-168.7346993232475
 11
10.00009545016543
 21
-167.2346869788194
  0
LINE
  5
6ea
100
AcDbEntity
  8
0
  6
CONTINUOUS
 62
     7
100
AcDbLine
 10
-8.500015258789063
 20
-168.734619140625
 11
8.499984741210938
 21
-168.734619140625
  0
LINE
  5
6eb
100
AcDbEntity
  8
0
  6
CONTINUOUS
 62
     7
100
AcDbLine
 10
-10.00001525878906
 20
-167.234619140625
 11
9.999984741210938
 21
-167.234619140625
  0
LINE
  5
6ec
100
AcDbEntity
  8
0
  6
CONTINUOUS
 62
     7
100
AcDbLine
 10
-10.00002323024843
 20
-167.234664556691
 11
-8.500010885820316
 21
-168.7346770275607
  0
LINE
  5
6ed
100
AcDbEntity
  8
0
  6
CONTINUOUS
 62
     7
100
AcDbLine
 10
-10
 20
-167.2346496582031
 11
-10
 21
-154.7346496582031
  0
LINE
  5
6ee
100
AcDbEntity
  8
0
  6
CONTINUOUS
 62
     7
100
AcDbLine
 10
-20.99993633603384
 20
-152.2346218236204
 11
-18.49994442886758
 21
-154.7346137307866
  0
LINE
  5
6ef
100
AcDbEntity
  8
0
  6
CONTINUOUS
 62
     7
100
AcDbLine
 10
-57.99998248466042
 20
-140.2346387882019
 11
-39.99998840049845
 21
-152.234635274125
  0
LINE
  5
6f0
100
AcDbEntity
  8
0
  6
CONTINUOUS
 62
     7
100
AcDbLine
 10
-57.99997846052166
 20
-146.2346421827278
 11
-59.99999277750609
 21
-145.2346350242356
  0
LINE
  5
6f1
100
AcDbEntity
  8
0
  6
CONTINUOUS
 62
     7
100
AcDbLine
 10
-59.99998474121094
 20
-145.2346496582031
 11
-59.99998474121094
 21
-105.2346496582031
  0
LINE
  5
6f2
100
AcDbEntity
  8
0
  6
CONTINUOUS
 62
     7
100
AcDbLine
 10
-57.99999893233542
 20
-104.2346486032611
 11
-59.999999601444
 21
-105.2346489378154
  0
LINE
  5
6f3
100
AcDbEntity
  8
0
  6
CONTINUOUS
 62
     7
100
AcDbLine
 10
-81.5
 20
-105.2346496582031
 11
-60
 21
-105.2346496582031
  0
LINE
  5
6f4
100
AcDbEntity
  8
0
  6
CONTINUOUS
 62
     7
100
AcDbLine
 10
-81.5
 20
-145.2346496582031
 11
-60
 21
-145.2346496582031
  0
LINE
  5
6f5
100
AcDbEntity
  8
0
  6
CONTINUOUS
 62
     7
100
AcDbLine
 10
-81.50009300796879
 20
-145.2347137184057
 11
-83.0001016855862
 21
-143.7346975807346
  0
LINE
  5
6f6
100
AcDbEntity
  8
0
  6
CONTINUOUS
 62
     7
100
AcDbLine
 10
-81.5
 20
-145.2346496582031
 11
-81.5
 21
-105.2346496582031
  0
LINE
  5
6f7
100
AcDbEntity
  8
0
  6
CONTINUOUS
 62
     7
100
AcDbLine
 10
-83
 20
-143.7346496582031
 11
-83
 21
-106.7346496582031
  0
LINE
  5
6f8
100
AcDbEntity
  8
0
  6
CONTINUOUS
 62
     7
100
AcDbLine
 10
-82.99999214587359
 20
-106.7346752019414
 11
-81.49997600820247
 21
-105.2346665243239
  0
LINE
  5
6f9
100
AcDbEntity
  8
0
  6
CONTINUOUS
 62
     7
100
AcDbLine
 10
-96.42263031005859
 20
-107.2346496582031
 11
-83.57736968994141
 21
-107.2346496582031
  0
LINE
  5
6fa
100
AcDbEntity
  8
0
  6
CONTINUOUS
 62
     7
100
AcDbLine
 10
-83.57736716905532
 20
-107.2346412120647
 11
-83.00002035952575
 21
-108.2346352018096
  0
LINE
  5
6fb
100
AcDbEntity
  8
0
  6
CONTINUOUS
 62
     7
100
AcDbLine
 10
-83.57736578036206
 20
-143.2346654404653
 11
-83.00001897083247
 21
-142.2346714507204
  0
LINE
  5
6fc
100
AcDbEntity
  8
0
  6
CONTINUOUS
 62
     7
100
AcDbLine
 10
-96.42265319824219
 20
-143.2346496582031
 11
-83.57735443115234
 21
-143.2346496582031
  0
LINE
  5
6fd
100
AcDbEntity
  8
0
  6
CONTINUOUS
 62
     7
100
AcDbLine
 10
-96.42260402553134
 20
-143.2346494068156
 11
-96.99995083506093
 21
-142.2346554170707
  0
LINE
  5
6fe
100
AcDbEntity
  8
0
  6
CONTINUOUS
 62
     7
100
AcDbLine
 10
-96.99998474121094
 20
-142.2346496582031
 11
-96.99998474121094
 21
-108.2346496582031
  0
LINE
  5
6ff
100
AcDbEntity
  8
0
  6
CONTINUOUS
 62
     7
100
AcDbLine
 10
-96.42265063239731
 20
-107.2346471547968
 11
-97.00001270071616
 21
-108.2346675735395
  0
LINE
  5
700
100
AcDbEntity
  8
0
  6
CONTINUOUS
 62
   190
100
AcDbLine
 10
-103
 20
-112.2346496582031
 11
-97
 21
-112.2346496582031
  0
LINE
  5
701
100
AcDbEntity
  8
0
  6
CONTINUOUS
 62
     7
100
AcDbLine
 10
-100
 20
-113.0466613769531
 11
-97
 21
-113.0466613769531
  0
LINE
  5
702
100
AcDbEntity
  8
0
  6
CONTINUOUS
 62
     7
100
AcDbLine
 10
-101.4064316502871
 20
-112.234686945745
 11
-100.0000125323794
 21
-113.0466834166363
  0
LINE
  5
703
100
AcDbEntity
  8
0
  6
CONTINUOUS
 62
   190
100
AcDbLine
 10
-99.99998474121094
 20
-112.2346496582031
 11
-99.99998474121094
 21
-138.2346496582031
  0
LINE
  5
704
100
AcDbEntity
  8
0
  6
CONTINUOUS
 62
     7
100
AcDbLine
 10
-100
 20
-137.4226379394531
 11
-97
 21
-137.4226379394531
  0
LINE
  5
705
100
AcDbEntity
  8
0
  6
CONTINUOUS
 62
     7
100
AcDbLine
 10
-101.4064405753743
 20
-138.2346240579241
 11
-99.99999502846879
 21
-137.4226123282435
  0
LINE
  5
706
100
AcDbEntity
  8
0
  6
CONTINUOUS
 62
   190
100
AcDbLine
 10
-103
 20
-138.2346496582031
 11
-97
 21
-138.2346496582031
  0
LINE
  5
707
100
AcDbEntity
  8
0
  6
CONTINUOUS
 62
   190
100
AcDbLine
 10
-102.9999847412109
 20
-112.2346496582031
 11
-102.9999847412109
 21
-138.2346496582031
  0
LINE
  5
708
100
AcDbEntity
  8
0
  6
CONTINUOUS
 62
   190
100
AcDbLine
 10
-103.8660562717615
 20
-138.7346375881662
 11
-103.000030871863
 21
-138.2346375814357
  0
LINE
  5
709
100
AcDbEntity
  8
0
  6
CONTINUOUS
 62
     7
100
AcDbLine
 10
-116
 20
-138.7346496582031
 11
-103.8660354614258
 21
-138.7346496582031
  0
LINE
  5
70a
100
AcDbEntity
  8
0
  6
CONTINUOUS
 62
   190
100
AcDbLine
 10
-106.4640960693359
 20
-111.7346496582031
 11
-106.4640960693359
 21
-138.7346496582031
  0
LINE
  5
70b
100
AcDbEntity
  8
0
  6
CONTINUOUS
 62
   190
100
AcDbLine
 10
-103.8660213920549
 20
-111.7345826844175
 11
-103.0000158139047
 21
-112.2345712470561
  0
LINE
  5
70c
100
AcDbEntity
  8
0
  6
CONTINUOUS
 62
     7
100
AcDbLine
 10
-115.9999771118164
 20
-111.7346496582031
 11
-103.8660125732422
 21
-111.7346496582031
  0
LINE
  5
70d
100
AcDbEntity
  8
0
  6
CONTINUOUS
 62
     7
100
AcDbLine
 10
-118.0000470904675
 20
-110.2347245454783
 11
-116.0000471083489
 21
-111.7347245693202
  0
LINE
  5
70e
100
AcDbEntity
  8
0
  6
CONTINUOUS
 62
   190
100
AcDbLine
 10
-124.7089920043945
 20
-110.2346496582031
 11
-117.9999771118164
 21
-110.2346496582031
  0
LWPOLYLINE
  5
70f
100
AcDbEntity
  8
0
  6
CONTINUOUS
 62
     7
100
AcDbPolyline
 90
    10
 70
     0
 10
-124.9478366123285
 20
-106.904804246255
 10
-124.3644718171657
 20
-115.0375921859536
 10
-126.8151373404906
 20
-115.8149199757483
 10
-121.7420954942675
 20
-116.6541138904484
 10
-124.1927610175923
 20
-117.4314416802431
 10
-123.0260314272668
 20
-133.6970175596403
 10
-125.4766969505917
 20
-134.474345349435
 10
-120.4036551043686
 20
-135.3135392641351
 10
-122.8543206276934
 20
-136.0908670539298
 10
-122.2709558325307
 20
-144.2236549936284
  0
LINE
  5
710
100
AcDbEntity
  8
0
  6
CONTINUOUS
 62
     7
100
AcDbLine
 10
-117.9999670477547
 20
-140.2346876859661
 11
-115.9999670656361
 21
-138.7346876621242
  0
LINE
  5
711
100
AcDbEntity
  8
0
  6
CONTINUOUS
 62
   190
100
AcDbLine
 10
-122.5570907592773
 20
-140.2346496582031
 11
-118
 21
-140.2346496582031
  0
CIRCLE
  5
712
100
AcDbEntity
  8
0
  6
CONTINUOUS
 62
     7
100
AcDbCircle
 10
0
 20
0
 40
10
  0
CIRCLE
  5
713
100
AcDbEntity
  8
0
  6
CONTINUOUS
 62
     7
100
AcDbCircle
 10
0
 20
0
 40
18.5
  0
CIRCLE
  5
714
100
AcDbEntity
  8
0
  6
CONTINUOUS
 62
     7
100
AcDbCircle
 10
0
 20
0
 40
21
  0
ARC
  5
715
100
AcDbEntity
  8
0
  6
CONTINUOUS
 62
     7
100
AcDbCircle
 10
-90.27085876464844
 20
15.58843994140625
 40
7.270877361297607
100
AcDbArc
 50
314.3854422319059
 51
14.38541658080071
  0
ARC
  5
716
100
AcDbEntity
  8
0
  6
CONTINUOUS
 62
     7
100
AcDbCircle
 10
-108.8059844970703
 20
0
 40
25.80599784851074
100
AcDbArc
 50
336.2524158031069
 51
23.74763883840722
  0
ARC
  5
717
100
AcDbEntity
  8
0
  6
CONTINUOUS
 62
     7
100
AcDbCircle
 10
-90.27085876464844
 20
-15.58843994140625
 40
7.270890712738037
100
AcDbArc
 50
345.6147763720441
 51
45.61463973036478
  0
ARC
  5
718
100
AcDbEntity
  8
0
  6
CONTINUOUS
 62
     7
100
AcDbCircle
 10
-89.72911071777344
 20
-15.58843994140625
 40
7.270890712738037
100
AcDbArc
 50
134.3853789389699
 51
194.385312306731
  0
ARC
  5
719
100
AcDbEntity
  8
0
  6
CONTINUOUS
 62
     7
100
AcDbCircle
 10
-71.19401550292969
 20
0
 40
25.80599784851074
100
AcDbArc
 50
156.2523798309275
 51
203.7476028662292
  0
ARC
  5
71a
100
AcDbEntity
  8
0
  6
CONTINUOUS
 62
     7
100
AcDbCircle
 10
-89.72911071777344
 20
15.58843994140625
 40
7.270877361297607
100
AcDbArc
 50
165.614602088534
 51
225.6145764374302
  0
ARC
  5
71b
100
AcDbEntity
  8
0
  6
CONTINUOUS
 62
   190
100
AcDbCircle
 10
-106.3124847412109
 20
0
 40
11.6875
100
AcDbArc
 50
145.9835455836501
 51
214.0164371135066
  0
CIRCLE
  5
71c
100
AcDbEntity
  8
0
  6
CONTINUOUS
 62
     7
100
AcDbCircle
 10
135.1847076416016
 20
0
 40
2.5
  0
CIRCLE
  5
71d
100
AcDbEntity
  8
0
  6
CONTINUOUS
 62
     7
100
AcDbCircle
 10
65.18470764160156
 20
0
 40
2.5
  0
ARC
  5
71e
100
AcDbEntity
  8
0
  6
CONTINUOUS
 62
     7
100
AcDbCircle
 10
-38
 20
-114.2346496582031
 40
2
100
AcDbArc
 50
89.99998201391055
 51
179.9999640278211
  0
ARC
  5
71f
100
AcDbEntity
  8
0
  6
CONTINUOUS
 62
     7
100
AcDbCircle
 10
-38
 20
-136.2346496582031
 40
2
100
AcDbArc
 50
179.9999813306655
 51
270.0000179860901
  0
ARC
  5
720
100
AcDbEntity
  8
0
  6
CONTINUOUS
 62
     7
100
AcDbCircle
 10
-153.4334564208984
 20
-116.2346496582031
 40
70.43345642089844
100
AcDbArc
 50
352.6587214347742
 51
7.341333206739821
  0
ARC
  5
721
100
AcDbEntity
  8
0
  6
CONTINUOUS
 62
     7
100
AcDbCircle
 10
-153.4348297119141
 20
-134.2347412109375
 40
70.43484497070313
100
AcDbArc
 50
352.6589400008277
 51
7.341264904848125
  0
ARC
  5
722
100
AcDbEntity
  8
0
  6
CONTINUOUS
 62
     7
100
AcDbCircle
 10
-26.56517028808594
 20
-134.2347412109375
 40
70.43484497070313
100
AcDbArc
 50
172.6587537644866
 51
187.3410786685084
  0
ARC
  5
723
100
AcDbEntity
  8
0
  6
CONTINUOUS
 62
     7
100
AcDbCircle
 10
-26.56654357910156
 20
-116.2346496582031
 40
70.43345642089844
100
AcDbArc
 50
172.6586854625949
 51
187.3412972345619
  0
MTEXT
  5
724
100
AcDbEntity
  8
0
  6
CONTINUOUS
 62
     7
100
AcDbMText
 10
-43.0583831452489
 20
-11.32168009440103
 40
0.5
 41
26
 71
     7
 72
     1
  1
{\W0.843493;ＢＮ－６１０５－１００－Ｙ}
  0
MTEXT
  5
725
100
AcDbEntity
  8
0
  6
CONTINUOUS
 62
     7
100
AcDbMText
 10
90.82143749296665
 20
-15.64999771118164
 40
0.5
 41
26
 71
     7
 72
     1
  1
{\W0.843493;ＢＮ－６１０５－１００－Ｙ}
  0
MTEXT
  5
726
100
AcDbEntity
  8
0
  6
CONTINUOUS
 62
     7
100
AcDbMText
 10
-74.02856098115444
 20
-137.4499969482422
 40
0.5
 41
26
 71
     7
 72
     1
  1
{\W0.843493;ＢＮ－６１０５－１００－Ｙ}
  0
ENDBLK
  8
0
  5
727
100
AcDbEntity
100
AcDbBlockEnd
  0
BLOCK
  8
0
  5
728
100
AcDbEntity
100
AcDbBlockBegin
  2
KOZU0008
 70
    64
 10
0
 20
0
  0
POINT
  5
729
100
AcDbEntity
  8
0
  6
CONTINUOUS
 62
     7
100
AcDbPoint
 10
0
 20
0
  0
LINE
  5
72a
100
AcDbEntity
  8
0
  6
CENTER
 62
     3
100
AcDbLine
 10
-126.9262237548828
 20
0
 11
29.04000854492188
 21
0
  0
LINE
  5
72b
100
AcDbEntity
  8
0
  6
CENTER
 62
     3
100
AcDbLine
 10
0
 20
-23.177001953125
 11
0
 21
23.82789611816406
  0
LINE
  5
72c
100
AcDbEntity
  8
0
  6
CONTINUOUS
 62
     7
100
AcDbLine
 10
9.999949252640963
 20
19.99995590928369
 11
20.9999507924048
 21
8.999955296750597
  0
LINE
  5
72d
100
AcDbEntity
  8
0
  6
CONTINUOUS
 62
     7
100
AcDbLine
 10
21
 20
-8.999984741210938
 11
21
 21
9.000015258789063
  0
LINE
  5
72e
100
AcDbEntity
  8
0
  6
CONTINUOUS
 62
     7
100
AcDbLine
 10
9.999982970119943
 20
-19.99995186318766
 11
20.9999737202901
 21
-8.999962040247326
  0
LINE
  5
72f
100
AcDbEntity
  8
0
  6
CONTINUOUS
 62
     7
100
AcDbLine
 10
-81.50001525878906
 20
-20
 11
10
 21
-20
  0
LINE
  5
730
100
AcDbEntity
  8
0
  6
CONTINUOUS
 62
     7
100
AcDbLine
 10
-81.50001525878906
 20
20
 11
10
 21
20
  0
LINE
  5
731
100
AcDbEntity
  8
0
  6
CONTINUOUS
 62
     7
100
AcDbLine
 10
-38.00001525878906
 20
13.228759765625
 11
16.771240234375
 21
13.228759765625
  0
LINE
  5
732
100
AcDbEntity
  8
0
  6
CONTINUOUS
 62
     7
100
AcDbLine
 10
5.9791225397009
 20
8.015597477551317
 11
16.77121559047616
 21
13.22877166273787
  0
LINE
  5
733
100
AcDbEntity
  8
0
  6
CONTINUOUS
 62
     7
100
AcDbLine
 10
5.97916749223816
 20
-8.015609660090364
 11
16.77126054301342
 21
-13.22878384527691
  0
LINE
  5
734
100
AcDbEntity
  8
0
  6
CONTINUOUS
 62
     7
100
AcDbLine
 10
-38.00001525878906
 20
-13.228759765625
 11
16.771240234375
 21
-13.228759765625
  0
LINE
  5
735
100
AcDbEntity
  8
0
  6
CONTINUOUS
 62
     7
100
AcDbLine
 10
-38.00003130248605
 20
-13.22875136356314
 11
-9.995570285687554
 21
0.2989427135695113
  0
LINE
  5
736
100
AcDbEntity
  8
0
  6
CONTINUOUS
 62
     7
100
AcDbLine
 10
-37.99998634994878
 20
13.22873918102409
 11
-9.995525333150294
 21
-0.2989548961085582
  0
LINE
  5
737
100
AcDbEntity
  8
0
  6
CONTINUOUS
 62
     7
100
AcDbLine
 10
-37.99995422363281
 20
-13.22874450683594
 11
-37.99995422363281
 21
13.22877502441406
  0
LINE
  5
738
100
AcDbEntity
  8
0
  6
CONTINUOUS
 62
     7
100
AcDbLine
 10
-81.49995422363281
 20
-19.99998474121094
 11
-81.49995422363281
 21
20.00001525878906
  0
LINE
  5
739
100
AcDbEntity
  8
0
  6
CONTINUOUS
 62
     7
100
AcDbLine
 10
-83.00003813455092
 20
18.50001595221637
 11
-81.50004357611991
 21
20.000003050701
  0
LINE
  5
73a
100
AcDbEntity
  8
0
  6
CONTINUOUS
 62
     7
100
AcDbLine
 10
-82.99995422363281
 20
-18.49996948242188
 11
-82.99995422363281
 21
18.50001525878906
  0
LINE
  5
73b
100
AcDbEntity
  8
0
  6
CONTINUOUS
 62
     7
100
AcDbLine
 10
-81.50010527930483
 20
-20.00007786099711
 11
-83.00009237778946
 21
-18.50008330256608
  0
LINE
  5
73c
100
AcDbEntity
  8
0
  6
CONTINUOUS
 62
     7
100
AcDbLine
 10
-85.18504502471227
 20
-20.78461695613372
 11
-83.00000166033807
 21
-17.00001090022338
  0
LINE
  5
73d
100
AcDbEntity
  8
0
  6
CONTINUOUS
 62
     7
100
AcDbLine
 10
-94.81495666503906
 20
-20.78460693359375
 11
-85.18507385253906
 21
-20.78460693359375
  0
LINE
  5
73e
100
AcDbEntity
  8
0
  6
CONTINUOUS
 62
     7
100
AcDbLine
 10
-94.81498433942691
 20
-20.78461768912188
 11
-97.00003533319574
 21
-16.99999841871264
  0
LINE
  5
73f
100
AcDbEntity
  8
0
  6
CONTINUOUS
 62
     7
100
AcDbLine
 10
-97.00007629394531
 20
-17
 11
-97.00007629394531
 21
17.00001525878906
  0
LINE
  5
740
100
AcDbEntity
  8
0
  6
CONTINUOUS
 62
     7
100
AcDbLine
 10
-94.81495666503906
 20
-10.39230346679688
 11
-85.18507385253906
 21
-10.39230346679688
  0
LINE
  5
741
100
AcDbEntity
  8
0
  6
CONTINUOUS
 62
     7
100
AcDbLine
 10
-85.18507387213131
 20
20.78461351556728
 11
-83.0000228783625
 21
16.99999424515805
  0
LINE
  5
742
100
AcDbEntity
  8
0
  6
CONTINUOUS
 62
     7
100
AcDbLine
 10
-94.81495666503906
 20
20.78460693359375
 11
-85.18507385253906
 21
20.78460693359375
  0
LINE
  5
743
100
AcDbEntity
  8
0
  6
CONTINUOUS
 62
     7
100
AcDbLine
 10
-94.81493911082595
 20
20.78457395704444
 11
-96.99996721641087
 21
16.99999433013191
  0
LINE
  5
744
100
AcDbEntity
  8
0
  6
CONTINUOUS
 62
     7
100
AcDbLine
 10
-94.81495666503906
 20
10.39230346679688
 11
-85.18507385253906
 21
10.39230346679688
  0
LINE
  5
745
100
AcDbEntity
  8
0
  6
CONTINUOUS
 62
   190
100
AcDbLine
 10
-103.0000152587891
 20
-12.99996948242188
 11
-97.00001525878906
 21
-12.99996948242188
  0
LINE
  5
746
100
AcDbEntity
  8
0
  6
CONTINUOUS
 62
     7
100
AcDbLine
 10
-100.0000152587891
 20
-12.18798828125
 11
-97.00001525878906
 21
-12.18798828125
  0
LINE
  5
747
100
AcDbEntity
  8
0
  6
CONTINUOUS
 62
     7
100
AcDbLine
 10
-101.4064444904871
 20
-12.99999982192987
 11
-99.99999894358159
 21
-12.18798809224924
  0
LINE
  5
748
100
AcDbEntity
  8
0
  6
CONTINUOUS
 62
   190
100
AcDbLine
 10
-99.99995422363281
 20
13.00001525878906
 11
-99.99995422363281
 21
-12.99998474121094
  0
LINE
  5
749
100
AcDbEntity
  8
0
  6
CONTINUOUS
 62
   190
100
AcDbLine
 10
-103.0000152587891
 20
13
 11
-97.00001525878906
 21
13
  0
LINE
  5
74a
100
AcDbEntity
  8
0
  6
CONTINUOUS
 62
     7
100
AcDbLine
 10
-100.0000152587891
 20
12.18801879882813
 11
-97.00001525878906
 21
12.18801879882813
  0
LINE
  5
74b
100
AcDbEntity
  8
0
  6
CONTINUOUS
 62
     7
100
AcDbLine
 10
-101.4064196949546
 20
13.00004276905129
 11
-100.0000005770468
 21
12.18804629815993
  0
LINE
  5
74c
100
AcDbEntity
  8
0
  6
CONTINUOUS
 62
   190
100
AcDbLine
 10
-106.4641208538972
 20
15.00010131089698
 11
-103.0000192543031
 21
13.00010128397463
  0
LINE
  5
74d
100
AcDbEntity
  8
0
  6
CONTINUOUS
 62
   190
100
AcDbLine
 10
-124.7089996337891
 20
15
 11
-106.4641265869141
 21
15
  0
LINE
  5
74e
100
AcDbEntity
  8
0
  6
CONTINUOUS
 62
   190
100
AcDbLine
 10
-102.9999542236328
 20
13.00001525878906
 11
-102.9999542236328
 21
-12.99998474121094
  0
LINE
  5
74f
100
AcDbEntity
  8
0
  6
CONTINUOUS
 62
   190
100
AcDbLine
 10
-106.4640655517578
 20
15.00001525878906
 11
-106.4640655517578
 21
6.538360595703125
  0
LINE
  5
750
100
AcDbEntity
  8
0
  6
CONTINUOUS
 62
   190
100
AcDbLine
 10
-116.0000152587891
 20
6.538360595703125
 11
-103.0000152587891
 21
6.538360595703125
  0
LINE
  5
751
100
AcDbEntity
  8
0
  6
CONTINUOUS
 62
     7
100
AcDbLine
 10
-116.0000031958159
 20
-6.538310031021794
 11
-103.0000044291392
 21
6.538385204807284
  0
LINE
  5
752
100
AcDbEntity
  8
0
  6
CONTINUOUS
 62
     7
100
AcDbLine
 10
-116.0000193642687
 20
6.538315473396203
 11
-103.000020597592
 21
-6.538379762432875
  0
LINE
  5
753
100
AcDbEntity
  8
0
  6
CONTINUOUS
 62
   190
100
AcDbLine
 10
-116.0000152587891
 20
-6.538330078125
 11
-103.0000152587891
 21
-6.538330078125
  0
LINE
  5
754
100
AcDbEntity
  8
0
  6
CONTINUOUS
 62
   190
100
AcDbLine
 10
-106.4640655517578
 20
-6.538330078125
 11
-106.4640655517578
 21
-14.99998474121094
  0
LINE
  5
755
100
AcDbEntity
  8
0
  6
CONTINUOUS
 62
   190
100
AcDbLine
 10
-106.46412712371
 20
-14.99996838095197
 11
-103.0000255241159
 21
-12.99996835402962
  0
LINE
  5
756
100
AcDbEntity
  8
0
  6
CONTINUOUS
 62
   190
100
AcDbLine
 10
-122.5570831298828
 20
-15
 11
-106.4641265869141
 21
-15
  0
LINE
  5
757
100
AcDbEntity
  8
0
  6
CONTINUOUS
 62
   190
100
AcDbLine
 10
-115.9999542236328
 20
6.538360595703125
 11
-115.9999542236328
 21
-6.538330078125
  0
LWPOLYLINE
  5
758
100
AcDbEntity
  8
0
  6
CONTINUOUS
 62
     7
100
AcDbPolyline
 90
    10
 70
     0
 10
-124.9478835803762
 20
18.32987471216269
 10
-124.3645182393595
 20
10.19707916262148
 10
-126.8151837626843
 20
9.419751372826807
 10
-121.7421419164612
 20
8.580557458126695
 10
-124.1928074397861
 20
7.803229668332023
 10
-123.0260767577527
 20
-8.462361430750402
 10
-125.4767422810775
 20
-9.239689220545074
 10
-120.4037004348545
 20
-10.07888313524519
 10
-122.8543659581793
 20
-10.85621092503986
 10
-122.2710006171626
 20
-18.98900647458107
  0
LINE
  5
759
100
AcDbEntity
  8
0
  6
CENTER
 62
     3
100
AcDbLine
 10
100.1847229003906
 20
26.00001525878906
 11
100.1847229003906
 21
-25.99998474121094
  0
LINE
  5
75a
100
AcDbEntity
  8
0
  6
CENTER
 62
     3
100
AcDbLine
 10
73.51663208007813
 20
0
 11
127.4065093994141
 21
0
  0
LINE
  5
75b
100
AcDbEntity
  8
0
  6
CONTINUOUS
 62
     7
100
AcDbLine
 10
85.18472290039063
 20
13.22877502441406
 11
85.18472290039063
 21
-13.22874450683594
  0
LINE
  5
75c
100
AcDbEntity
  8
0
  6
CONTINUOUS
 62
     7
100
AcDbLine
 10
115.1847229003906
 20
13.22877502441406
 11
115.1847229003906
 21
-13.22874450683594
  0
LINE
  5
75d
100
AcDbEntity
  8
0
  6
DASHED
 62
     7
100
AcDbLine
 10
85.1846923828125
 20
10
 11
115.1846923828125
 21
10
  0
LINE
  5
75e
100
AcDbEntity
  8
0
  6
DASHED
 62
     7
100
AcDbLine
 10
85.1846923828125
 20
-10
 11
115.1846923828125
 21
-10
  0
LINE
  5
75f
100
AcDbEntity
  8
0
  6
CONTINUOUS
 62
     7
100
AcDbLine
 10
101.6348677890274
 20
19.94734835718844
 11
100.1847086115912
 21
20.7845980062441
  0
LINE
  5
760
100
AcDbEntity
  8
0
  6
CONTINUOUS
 62
     7
100
AcDbLine
 10
100.1847205924669
 20
20.78463092981107
 11
98.73456141503066
 21
19.94738128075539
  0
LINE
  5
761
100
AcDbEntity
  8
0
  6
CONTINUOUS
 62
     7
100
AcDbLine
 10
83.63488139234731
 20
11.22957843776334
 11
82.18472221491109
 21
10.39232878870767
  0
LINE
  5
762
100
AcDbEntity
  8
0
  6
CONTINUOUS
 62
     7
100
AcDbLine
 10
82.18472290039063
 20
10.39231872558594
 11
82.18472290039063
 21
8.717819213867188
  0
LINE
  5
763
100
AcDbEntity
  8
0
  6
CONTINUOUS
 62
     7
100
AcDbLine
 10
82.18472290039063
 20
-8.717788696289063
 11
82.18472290039063
 21
-10.39227294921875
  0
LINE
  5
764
100
AcDbEntity
  8
0
  6
CONTINUOUS
 62
     7
100
AcDbLine
 10
82.18467395437587
 20
-10.39238582578593
 11
83.63480585494035
 21
-11.22962168461159
  0
LINE
  5
765
100
AcDbEntity
  8
0
  6
CONTINUOUS
 62
     7
100
AcDbLine
 10
118.1847135963967
 20
10.39229205044394
 11
116.734541204461
 21
11.22954932889316
  0
LINE
  5
766
100
AcDbEntity
  8
0
  6
CONTINUOUS
 62
     7
100
AcDbLine
 10
118.1847839355469
 20
8.717819213867188
 11
118.1847839355469
 21
10.39231872558594
  0
LINE
  5
767
100
AcDbEntity
  8
0
  6
CONTINUOUS
 62
     7
100
AcDbLine
 10
118.1847839355469
 20
-10.39230346679688
 11
118.1847839355469
 21
-8.717803955078125
  0
LINE
  5
768
100
AcDbEntity
  8
0
  6
CONTINUOUS
 62
     7
100
AcDbLine
 10
116.7345292035023
 20
-11.22953580933478
 11
118.1846624656527
 21
-10.39230230884442
  0
LINE
  5
769
100
AcDbEntity
  8
0
  6
CONTINUOUS
 62
     7
100
AcDbLine
 10
100.1846577115516
 20
-20.78459340543768
 11
101.6348174027104
 21
-19.94734464617641
  0
LINE
  5
76a
100
AcDbEntity
  8
0
  6
CONTINUOUS
 62
     7
100
AcDbLine
 10
98.73450347803191
 20
-19.94745507794337
 11
100.1846485930882
 21
-20.78469856617598
  0
LINE
  5
76b
100
AcDbEntity
  8
0
  6
CONTINUOUS
 62
     7
100
AcDbLine
 10
-96.42262268066406
 20
-125.2346496582031
 11
-83.57740783691406
 21
-125.2346496582031
  0
LINE
  5
76c
100
AcDbEntity
  8
0
  6
CENTER
 62
     3
100
AcDbLine
 10
-126.9262237548828
 20
-125.2346496582031
 11
29.04000854492188
 21
-125.2346496582031
  0
LINE
  5
76d
100
AcDbEntity
  8
0
  6
CONTINUOUS
 62
     7
100
AcDbLine
 10
21
 20
-140.2346496582031
 11
21
 21
-110.2346496582031
  0
LINE
  5
76e
100
AcDbEntity
  8
0
  6
CONTINUOUS
 62
     7
100
AcDbLine
 10
-38.00001525878906
 20
-110.2346496582031
 11
21
 21
-110.2346496582031
  0
LINE
  5
76f
100
AcDbEntity
  8
0
  6
CONTINUOUS
 62
     7
100
AcDbLine
 10
-38.00001525878906
 20
-140.2346496582031
 11
21
 21
-140.2346496582031
  0
LINE
  5
770
100
AcDbEntity
  8
0
  6
DASHED
 62
     7
100
AcDbLine
 10
10
 20
-140.2346496582031
 11
10
 21
-110.2346496582031
  0
LINE
  5
771
100
AcDbEntity
  8
0
  6
CENTER
 62
     3
100
AcDbLine
 10
0
 20
-146.9768371582031
 11
0
 21
-103.4734802246094
  0
LINE
  5
772
100
AcDbEntity
  8
0
  6
DASHED
 62
     7
100
AcDbLine
 10
-10.00001525878906
 20
-140.2346496582031
 11
-10.00001525878906
 21
-110.2346496582031
  0
LINE
  5
773
100
AcDbEntity
  8
0
  6
CONTINUOUS
 62
     7
100
AcDbLine
 10
-37.99995422363281
 20
-110.2346496582031
 11
-37.99995422363281
 21
-105.2346496582031
  0
LINE
  5
774
100
AcDbEntity
  8
0
  6
CONTINUOUS
 62
     7
100
AcDbLine
 10
-81.50001525878906
 20
-105.2346496582031
 11
-38.00001525878906
 21
-105.2346496582031
  0
LINE
  5
775
100
AcDbEntity
  8
0
  6
CONTINUOUS
 62
     7
100
AcDbLine
 10
-37.99995422363281
 20
-145.2346496582031
 11
-37.99995422363281
 21
-140.2346496582031
  0
LINE
  5
776
100
AcDbEntity
  8
0
  6
CONTINUOUS
 62
     7
100
AcDbLine
 10
-81.50001525878906
 20
-145.2346496582031
 11
-38.00001525878906
 21
-145.2346496582031
  0
LINE
  5
777
100
AcDbEntity
  8
0
  6
CONTINUOUS
 62
     7
100
AcDbLine
 10
-81.50024406243483
 20
-145.2347784555894
 11
-83.00024195048586
 21
-143.7347731075384
  0
LINE
  5
778
100
AcDbEntity
  8
0
  6
CONTINUOUS
 62
     7
100
AcDbLine
 10
-83.00002316587695
 20
-106.7346441817837
 11
-81.50000702820583
 21
-105.2346355041663
  0
LINE
  5
779
100
AcDbEntity
  8
0
  6
CONTINUOUS
 62
     7
100
AcDbLine
 10
-81.49995422363281
 20
-145.2346496582031
 11
-81.49995422363281
 21
-105.2346496582031
  0
LINE
  5
77a
100
AcDbEntity
  8
0
  6
CONTINUOUS
 62
     7
100
AcDbLine
 10
-82.99995422363281
 20
-143.7346496582031
 11
-82.99995422363281
 21
-106.7346496582031
  0
LINE
  5
77b
100
AcDbEntity
  8
0
  6
CONTINUOUS
 62
     7
100
AcDbLine
 10
-83.57733512883262
 20
-143.2346655178023
 11
-83.0000035780923
 21
-142.2346979570552
  0
LINE
  5
77c
100
AcDbEntity
  8
0
  6
CONTINUOUS
 62
     7
100
AcDbLine
 10
-96.42268371582031
 20
-143.2346496582031
 11
-83.57734680175781
 21
-143.2346496582031
  0
LINE
  5
77d
100
AcDbEntity
  8
0
  6
CONTINUOUS
 62
     7
100
AcDbLine
 10
-96.42260606982173
 20
-143.2346153484232
 11
-96.99994524995667
 21
-142.2346345731772
  0
LINE
  5
77e
100
AcDbEntity
  8
0
  6
CONTINUOUS
 62
     7
100
AcDbLine
 10
-97.00007629394531
 20
-142.2346496582031
 11
-97.00007629394531
 21
-108.2346496582031
  0
LINE
  5
77f
100
AcDbEntity
  8
0
  6
CONTINUOUS
 62
     7
100
AcDbLine
 10
-83.57733604015674
 20
-107.2346188349534
 11
-82.99998160123253
 21
-108.2346260391972
  0
LINE
  5
780
100
AcDbEntity
  8
0
  6
CONTINUOUS
 62
     7
100
AcDbLine
 10
-96.42262268066406
 20
-107.2346496582031
 11
-83.57740783691406
 21
-107.2346496582031
  0
LINE
  5
781
100
AcDbEntity
  8
0
  6
CONTINUOUS
 62
     7
100
AcDbLine
 10
-96.42258173065645
 20
-107.234581219244
 11
-96.99994379897528
 21
-108.2346016379867
  0
LINE
  5
782
100
AcDbEntity
  8
0
  6
CONTINUOUS
 62
   190
100
AcDbLine
 10
-103.0000152587891
 20
-112.2346496582031
 11
-97.00001525878906
 21
-112.2346496582031
  0
LINE
  5
783
100
AcDbEntity
  8
0
  6
CONTINUOUS
 62
     7
100
AcDbLine
 10
-100.0000152587891
 20
-113.0466613769531
 11
-97.00001525878906
 21
-113.0466613769531
  0
LINE
  5
784
100
AcDbEntity
  8
0
  6
CONTINUOUS
 62
     7
100
AcDbLine
 10
-101.4064011327086
 20
-112.2346340877494
 11
-99.99998201480085
 21
-113.0466305586407
  0
LINE
  5
785
100
AcDbEntity
  8
0
  6
CONTINUOUS
 62
   190
100
AcDbLine
 10
-99.99995422363281
 20
-112.2346496582031
 11
-99.99995422363281
 21
-138.2346496582031
  0
LINE
  5
786
100
AcDbEntity
  8
0
  6
CONTINUOUS
 62
   190
100
AcDbLine
 10
-103.0000152587891
 20
-138.2346496582031
 11
-97.00001525878906
 21
-138.2346496582031
  0
LINE
  5
787
100
AcDbEntity
  8
0
  6
CONTINUOUS
 62
     7
100
AcDbLine
 10
-100.0000152587891
 20
-137.4226379394531
 11
-97.00001525878906
 21
-137.4226379394531
  0
LINE
  5
788
100
AcDbEntity
  8
0
  6
CONTINUOUS
 62
     7
100
AcDbLine
 10
-101.4064670043721
 20
-138.2346393167134
 11
-100.0000214574666
 21
-137.4226275870327
  0
LINE
  5
789
100
AcDbEntity
  8
0
  6
CONTINUOUS
 62
   190
100
AcDbLine
 10
-103.866078886062
 20
-138.7346594542049
 11
-103.0000534861634
 21
-138.2346594474744
  0
LINE
  5
78a
100
AcDbEntity
  8
0
  6
CONTINUOUS
 62
   190
100
AcDbLine
 10
-102.9999542236328
 20
-112.2346496582031
 11
-102.9999542236328
 21
-138.2346496582031
  0
LINE
  5
78b
100
AcDbEntity
  8
0
  6
CONTINUOUS
 62
   190
100
AcDbLine
 10
-103.8659390386259
 20
-111.7345773731966
 11
-102.9999400677252
 21
-112.2345621211379
  0
LINE
  5
78c
100
AcDbEntity
  8
0
  6
CONTINUOUS
 62
     7
100
AcDbLine
 10
-116.0000152587891
 20
-111.7346496582031
 11
-103.8660430908203
 21
-111.7346496582031
  0
LINE
  5
78d
100
AcDbEntity
  8
0
  6
CONTINUOUS
 62
   190
100
AcDbLine
 10
-106.4640655517578
 20
-111.7346496582031
 11
-106.4640655517578
 21
-138.7346496582031
  0
LINE
  5
78e
100
AcDbEntity
  8
0
  6
CONTINUOUS
 62
     7
100
AcDbLine
 10
-116.0000152587891
 20
-138.7346496582031
 11
-103.8660430908203
 21
-138.7346496582031
  0
LINE
  5
78f
100
AcDbEntity
  8
0
  6
CONTINUOUS
 62
     7
100
AcDbLine
 10
-117.9999845953627
 20
-140.2346388578413
 11
-115.9999846132441
 21
-138.7346388339994
  0
LINE
  5
790
100
AcDbEntity
  8
0
  6
CONTINUOUS
 62
   190
100
AcDbLine
 10
-122.5570831298828
 20
-140.2346496582031
 11
-118.0000152587891
 21
-140.2346496582031
  0
LWPOLYLINE
  5
791
100
AcDbEntity
  8
0
  6
CONTINUOUS
 62
     7
100
AcDbPolyline
 90
    10
 70
     0
 10
-124.9478039895424
 20
-106.9048325022097
 10
-124.3644397402336
 20
-115.0376128320657
 10
-126.8151052635584
 20
-115.8149406218604
 10
-121.7420634173353
 20
-116.6541345365605
 10
-124.1927289406602
 20
-117.4314623263552
 10
-123.0260004420425
 20
-133.6970229860671
 10
-125.4766659653674
 20
-134.4743507758618
 10
-120.4036241191443
 20
-135.3135446905619
 10
-122.8542896424691
 20
-136.0908724803566
 10
-122.2709253931603
 20
-144.2236528102126
  0
LINE
  5
792
100
AcDbEntity
  8
0
  6
CONTINUOUS
 62
     7
100
AcDbLine
 10
-118.0000806598042
 20
-110.2347947359076
 11
-116.0000806776856
 21
-111.7347947597495
  0
LINE
  5
793
100
AcDbEntity
  8
0
  6
CONTINUOUS
 62
   190
100
AcDbLine
 10
-124.7089996337891
 20
-110.2346496582031
 11
-118.0000152587891
 21
-110.2346496582031
  0
CIRCLE
  5
794
100
AcDbEntity
  8
0
  6
CONTINUOUS
 62
     7
100
AcDbCircle
 10
0
 20
0
 40
10
  0
ARC
  5
795
100
AcDbEntity
  8
0
  6
CONTINUOUS
 62
     7
100
AcDbCircle
 10
-89.72908020019531
 20
-15.58843994140625
 40
7.270890712738037
100
AcDbArc
 50
134.3853789389699
 51
194.385312306731
  0
ARC
  5
796
100
AcDbEntity
  8
0
  6
CONTINUOUS
 62
     7
100
AcDbCircle
 10
-90.27095031738281
 20
-15.58843994140625
 40
7.270890712738037
100
AcDbArc
 50
345.6147763720441
 51
45.61463973036478
  0
ARC
  5
797
100
AcDbEntity
  8
0
  6
CONTINUOUS
 62
     7
100
AcDbCircle
 10
-108.8059844970703
 20
0
 40
25.80599784851074
100
AcDbArc
 50
336.2524158031069
 51
23.74763883840722
  0
ARC
  5
798
100
AcDbEntity
  8
0
  6
CONTINUOUS
 62
     7
100
AcDbCircle
 10
-90.27082824707031
 20
15.58843994140625
 40
7.270877361297607
100
AcDbArc
 50
314.3854422319059
 51
14.38541658080071
  0
ARC
  5
799
100
AcDbEntity
  8
0
  6
CONTINUOUS
 62
     7
100
AcDbCircle
 10
-89.72920227050781
 20
15.58843994140625
 40
7.270877361297607
100
AcDbArc
 50
165.614602088534
 51
225.6145764374302
  0
ARC
  5
79a
100
AcDbEntity
  8
0
  6
CONTINUOUS
 62
     7
100
AcDbCircle
 10
-71.19404602050781
 20
0
 40
25.80599784851074
100
AcDbArc
 50
156.2523798309275
 51
203.7476028662292
  0
ARC
  5
79b
100
AcDbEntity
  8
0
  6
CONTINUOUS
 62
   190
100
AcDbCircle
 10
-106.3124542236328
 20
0
 40
11.6875
100
AcDbArc
 50
145.9835455836501
 51
214.0164371135066
  0
CIRCLE
  5
79c
100
AcDbEntity
  8
0
  6
CONTINUOUS
 62
     7
100
AcDbCircle
 10
100.1847229003906
 20
0
 40
20
  0
ARC
  5
79d
100
AcDbEntity
  8
0
  6
CONTINUOUS
 62
     7
100
AcDbCircle
 10
-153.4348907470703
 20
-134.2347412109375
 40
70.43484497070313
100
AcDbArc
 50
352.6589400008277
 51
7.341264904848125
  0
ARC
  5
79e
100
AcDbEntity
  8
0
  6
CONTINUOUS
 62
     7
100
AcDbCircle
 10
-26.56513977050781
 20
-134.2347412109375
 40
70.43484497070313
100
AcDbArc
 50
172.6587537644866
 51
187.3410786685084
  0
ARC
  5
79f
100
AcDbEntity
  8
0
  6
CONTINUOUS
 62
     7
100
AcDbCircle
 10
-153.4334259033203
 20
-116.2346496582031
 40
70.43345642089844
100
AcDbArc
 50
352.6587214347742
 51
7.341333206739821
  0
ARC
  5
7a0
100
AcDbEntity
  8
0
  6
CONTINUOUS
 62
     7
100
AcDbCircle
 10
-26.56660461425781
 20
-116.2346496582031
 40
70.43345642089844
100
AcDbArc
 50
172.6586854625949
 51
187.3412972345619
  0
MTEXT
  5
7a1
100
AcDbEntity
  8
0
  6
CONTINUOUS
 62
     7
100
AcDbMText
 10
-64.92856250703335
 20
-11.80000305175781
 40
0.5
 41
26
 71
     7
 72
     1
  1
{\W0.843493;ＢＮ－６１０５－１００－Ｔ}
  0
MTEXT
  5
7a2
100
AcDbEntity
  8
0
  6
CONTINUOUS
 62
     7
100
AcDbMText
 10
90.64798320829868
 20
-14.42035293579102
 40
0.5
 41
26
 71
     7
 72
     1
  1
{\W0.843493;ＢＮ－６１０５－１００－Ｔ}
  0
MTEXT
  5
7a3
100
AcDbEntity
  8
0
  6
CONTINUOUS
 62
     7
100
AcDbMText
 10
-63.52856098115444
 20
-137.1000061035156
 40
0.5
 41
26
 71
     7
 72
     1
  1
{\W0.843493;ＢＮ－６１０５－１００－Ｔ}
  0
ENDBLK
  8
0
  5
7a4
100
AcDbEntity
100
AcDbBlockEnd
  0
BLOCK
  8
0
  5
7a5
100
AcDbEntity
100
AcDbBlockBegin
  2
KOZU0009
 70
    64
 10
0
 20
0
  0
LINE
  5
7a6
100
AcDbEntity
  8
0
  6
CONTINUOUS
 62
     3
100
AcDbLine
 10
-50.80039024816234
 20
-4.999998422078047
 11
-50.30576324462891
 21
-4.505370429289613
  0
LINE
  5
7a7
100
AcDbEntity
  8
0
  6
CONTINUOUS
 62
     3
100
AcDbLine
 10
-51.69841469450776
 20
-4.999998154445652
 11
-50.4984174331561
 21
-3.799998493097068
  0
LINE
  5
7a8
100
AcDbEntity
  8
0
  6
CONTINUOUS
 62
     3
100
AcDbLine
 10
-51.90576171875
 20
-4.309319083353856
 11
-51.39644201331743
 21
-3.799998359280853
  0
LINE
  5
7a9
100
AcDbEntity
  8
0
  6
CONTINUOUS
 62
     3
100
AcDbLine
 10
-50.98065494459323
 20
3.800001621246338
 11
-50.30576324462891
 21
4.474894670995408
  0
LINE
  5
7aa
100
AcDbEntity
  8
0
  6
CONTINUOUS
 62
     3
100
AcDbLine
 10
-51.87867965857051
 20
3.800001621246341
 11
-50.6786820270259
 21
5.000001652788605
  0
LINE
  5
7ab
100
AcDbEntity
  8
0
  6
CONTINUOUS
 62
     3
100
AcDbLine
 10
-51.90576171875
 20
4.670946016931165
 11
-51.57670620573963
 21
5.00000218805323
  0
ENDBLK
  8
0
  5
7ac
100
AcDbEntity
100
AcDbBlockEnd
  0
BLOCK
  8
0
  5
7ad
100
AcDbEntity
100
AcDbBlockBegin
  2
KOZU0010
 70
    64
 10
0
 20
0
  0
LINE
  5
7ae
100
AcDbEntity
  8
0
  6
CONTINUOUS
 62
     3
100
AcDbLine
 10
51.57442998150701
 20
-4.999995585813267
 11
51.90576171874987
 21
-4.668663185906265
  0
LINE
  5
7af
100
AcDbEntity
  8
0
  6
CONTINUOUS
 62
     3
100
AcDbLine
 10
50.67640526752973
 20
-4.999995585813267
 11
51.87639683211117
 21
-3.800001621246292
  0
LINE
  5
7b0
100
AcDbEntity
  8
0
  6
CONTINUOUS
 62
     3
100
AcDbLine
 10
50.30576324462879
 20
-4.472611839970487
 11
50.97837211813389
 21
-3.800001621246292
  0
LINE
  5
7b1
100
AcDbEntity
  8
0
  6
CONTINUOUS
 62
     3
100
AcDbLine
 10
51.39416081055253
 20
3.799999982978576
 11
51.90576171874987
 21
4.311601914378759
  0
LINE
  5
7b2
100
AcDbEntity
  8
0
  6
CONTINUOUS
 62
     3
100
AcDbLine
 10
50.49613609657525
 20
3.79999998297858
 11
51.69613520543181
 21
5.000001491835757
  0
LINE
  5
7b3
100
AcDbEntity
  8
0
  6
CONTINUOUS
 62
     3
100
AcDbLine
 10
50.30576324462879
 20
4.507653260314541
 11
50.79811049145454
 21
5.000001491835761
  0
ENDBLK
  8
0
  5
7b4
100
AcDbEntity
100
AcDbBlockEnd
  0
ENDSEC
  0
SECTION
  2
ENTITIES
  0
LINE
  5
7b5
100
AcDbEntity
  8
0
  6
PHANTOM
 62
     7
100
AcDbLine
 10
-400.0182495117188
 20
-468.0499877929688
 11
239.5749359130859
 21
-468.0499877929688
  0
LINE
  5
7b6
100
AcDbEntity
  8
0
  6
PHANTOM
 62
     7
100
AcDbLine
 10
-87.579345703125
 20
-168.0395965576172
 11
-87.579345703125
 21
-468.0499572753906
  0
LINE
  5
7b7
100
AcDbEntity
  8
0
  6
PHANTOM
 62
     7
100
AcDbLine
 10
239.5749359130859
 20
-168.0395965576172
 11
239.5749359130859
 21
-468.0499572753906
  0
LINE
  5
7b8
100
AcDbEntity
  8
0
  6
PHANTOM
 62
     7
100
AcDbLine
 10
-400.0181884765625
 20
-168.0395965576172
 11
-400.0181884765625
 21
-468.0499572753906
  0
LINE
  5
7b9
100
AcDbEntity
  8
0
  6
PHANTOM
 62
     7
100
AcDbLine
 10
-400.0182495117188
 20
-168.0395812988281
 11
239.5749359130859
 21
-168.0395812988281
  0
LINE
  5
7ba
100
AcDbEntity
  8
0
  6
CONTINUOUS
 62
     7
100
AcDbLine
 10
315.5973510742188
 20
-369.40087890625
 11
524.1151916503907
 21
-369.40087890625
  0
LINE
  5
7bb
100
AcDbEntity
  8
0
  6
CONTINUOUS
 62
     7
100
AcDbLine
 10
315.5973510742188
 20
-369.4008453369141
 11
315.5973510742188
 21
-414.8557739257813
  0
LINE
  5
7bc
100
AcDbEntity
  8
0
  6
CONTINUOUS
 62
     7
100
AcDbLine
 10
315.5973510742188
 20
-414.8557739257813
 11
524.1151916503907
 21
-414.8557739257813
  0
LINE
  5
7bd
100
AcDbEntity
  8
0
  6
CONTINUOUS
 62
     7
100
AcDbLine
 10
318.2593658447266
 20
-326.1899597167969
 11
439.0520416259766
 21
-326.1899597167969
  0
LINE
  5
7be
100
AcDbEntity
  8
0
  6
CONTINUOUS
 62
     7
100
AcDbLine
 10
318.2593658447266
 20
-338.5616027832031
 11
439.0520416259766
 21
-338.5616027832031
  0
LINE
  5
7bf
100
AcDbEntity
  8
0
  6
CONTINUOUS
 62
     7
100
AcDbLine
 10
438.8067504882813
 20
-350.9332458496094
 11
318.2593658447266
 21
-350.9332458496094
  0
LINE
  5
7c0
100
AcDbEntity
  8
0
  6
CONTINUOUS
 62
     7
100
AcDbLine
 10
524.1151916503907
 20
-369.4008453369141
 11
524.1151916503907
 21
-414.8557739257813
  0
ARC
  5
7c1
100
AcDbEntity
  8
0
  6
PHANTOM
 62
     7
100
AcDbCircle
 10
-245.6231079101563
 20
-261.2405395507813
 40
23
100
AcDbArc
 50
270.0000000000005
 51
90.00000000000019
  0
MTEXT
  5
7c2
100
AcDbEntity
  8
0
  6
CONTINUOUS
 62
     7
100
AcDbMText
 10
-272.7679498195648
 20
-188.5504455566406
 40
8
 41
160
 71
     7
 72
     1
  1
{\W0.848905;Ｔコネクタ}
  0
MTEXT
  5
7c3
100
AcDbEntity
  8
0
  6
CONTINUOUS
 62
     7
100
AcDbMText
 10
50.85558533668518
 20
-189.2190856933594
 40
8
 41
160
 71
     7
 72
     1
  1
{\W0.848905;Ｙコネクタ}
  0
MTEXT
  5
7c4
100
AcDbEntity
  8
0
  6
CONTINUOUS
 62
     7
100
AcDbMText
 10
-368.4593117237091
 20
-197.580078125
 40
10
 41
80
 71
     7
 72
     1
  1
{\W0.864328;＊８}
  0
MTEXT
  5
7c5
100
AcDbEntity
  8
0
  6
CONTINUOUS
 62
     7
100
AcDbMText
 10
-58.20857930183411
 20
-196.9114379882813
 40
10
 41
80
 71
     7
 72
     1
  1
{\W0.864328;＊７}
  0
MTEXT
  5
7c6
100
AcDbEntity
  8
0
  6
CONTINUOUS
 62
     7
100
AcDbMText
 10
33.06379429322701
 20
272.0778307653357
 40
10
 41
80
 71
     7
 72
     1
  1
{\W0.864328;＊１}
  0
MTEXT
  5
7c7
100
AcDbEntity
  8
0
  6
CONTINUOUS
 62
     7
100
AcDbMText
 10
27.41486430168152
 20
369.6061401367188
 40
10
 41
80
 71
     7
 72
     1
  1
{\W0.864328;＊２}
  0
MTEXT
  5
7c8
100
AcDbEntity
  8
0
  6
CONTINUOUS
 62
     7
100
AcDbMText
 10
-377.4855568408966
 20
277.7109375
 40
10
 41
80
 71
     7
 72
     1
  1
{\W0.864328;＊３}
  0
MTEXT
  5
7c9
100
AcDbEntity
  8
0
  6
CONTINUOUS
 62
     7
100
AcDbMText
 10
335.6446311473846
 20
273.6341552734375
 40
10
 41
80
 71
     7
 72
     1
  1
{\W0.864328;＊４}
  0
MTEXT
  5
7ca
100
AcDbEntity
  8
0
  6
CONTINUOUS
 62
     7
100
AcDbMText
 10
483.8883140087128
 20
275.1946105957031
 40
10
 41
80
 71
     7
 72
     1
  1
{\W0.864328;＊５}
  0
MTEXT
  5
7cb
100
AcDbEntity
  8
0
  6
CONTINUOUS
 62
     7
100
AcDbMText
 10
26.67355418205261
 20
1.509532928466797
 40
10
 41
80
 71
     7
 72
     1
  1
{\W0.864328;＊６}
  0
MTEXT
  5
7cc
100
AcDbEntity
  8
0
  6
CONTINUOUS
 62
     7
100
AcDbMText
 10
324.2298592567444
 20
-409.2047912597656
 40
8
 41
96
 71
     7
 72
     1
  1
{\W0.855331;型　番}
  0
MTEXT
  5
7cd
100
AcDbEntity
  8
0
  6
CONTINUOUS
 62
     7
100
AcDbMText
 10
324.2298592567444
 20
-396.0944213867188
 40
8
 41
96
 71
     7
 72
     1
  1
{\W0.855331;品　名}
  0
MTEXT
  5
7ce
100
AcDbEntity
  8
0
  6
CONTINUOUS
 62
     7
100
AcDbMText
 10
366.5556221961975
 20
-396.0944213867188
 40
8
 41
224
 71
     7
 72
     1
  1
{\W0.846334;空気圧シリンダ}
  0
MTEXT
  5
7cf
100
AcDbEntity
  8
0
  6
CONTINUOUS
 62
     7
100
AcDbMText
 10
366.5556221961975
 20
-409.2047912597656
 40
8
 41
608
 71
     7
 72
     1
  1
{\W0.842478;ＢＮ－６１０５－ＦＢＣ－１００－Ｂ－＊}
  0
MTEXT
  5
7d0
100
AcDbEntity
  8
0
  6
CONTINUOUS
 62
     7
100
AcDbMText
 10
378.8142708778381
 20
-382.4433166503906
 40
8
 41
256
 71
     7
 72
     1
  1
{\W0.845552;日本精器株式会社}
  0
MTEXT
  5
7d1
100
AcDbEntity
  8
0
  6
CONTINUOUS
 62
     7
100
AcDbMText
 10
320.3217838287354
 20
-348.7474243164062
 40
8
 41
384
 71
     7
 72
     1
  1
{\W0.843764;周囲温度　　　：　常　温}
  0
MTEXT
  5
7d2
100
AcDbEntity
  8
0
  6
CONTINUOUS
 62
     7
100
AcDbMText
 10
320.3217838287354
 20
-336.3757141113281
 40
8
 41
480
 71
     7
 72
     1
  1
{\W0.843063;耐圧力　　　　：　１．５ＭＰａ}
  0
MTEXT
  5
7d3
100
AcDbEntity
  8
0
  6
CONTINUOUS
 62
     7
100
AcDbMText
 10
320.3217838287354
 20
-324.0041381835937
 40
8
 41
480
 71
     7
 72
     1
  1
{\W0.843063;最高使用圧力　：　１．０ＭＰａ}
  0
INSERT
  5
7d4
100
AcDbEntity
  8
0
  6
CONTINUOUS
 62
     7
100
AcDbBlockReference
  2
KOZU0001
 10
-4.730758666992188
 20
200.5626220703125
  0
INSERT
  5
7d5
100
AcDbEntity
  8
0
  6
CONTINUOUS
 62
     7
100
AcDbBlockReference
  2
KOZU0002
 10
-4.730758666992188
 20
421.4266967773438
  0
INSERT
  5
7d6
100
AcDbEntity
  8
0
  6
CONTINUOUS
 62
     7
100
AcDbBlockReference
  2
KOZU0003
 10
-467.8057250976563
 20
200.5625762939453
  0
INSERT
  5
7d7
100
AcDbEntity
  8
0
  6
CONTINUOUS
 62
     7
100
AcDbBlockReference
  2
KOZU0004
 10
232.8442535400391
 20
200.5625915527344
  0
INSERT
  5
7d8
100
AcDbEntity
  8
0
  6
CONTINUOUS
 62
     7
100
AcDbBlockReference
  2
KOZU0005
 10
495.4192504882813
 20
200.5626068115234
  0
INSERT
  5
7d9
100
AcDbEntity
  8
0
  6
CONTINUOUS
 62
     7
100
AcDbBlockReference
  2
KOZU0006
 10
-4.730758666992188
 20
-45.30145263671875
  0
INSERT
  5
7da
100
AcDbEntity
  8
0
  6
CONTINUOUS
 62
     7
100
AcDbBlockReference
  2
KOZU0007
 10
69.88851928710938
 20
-261.2405395507813
  0
INSERT
  5
7db
100
AcDbEntity
  8
0
  6
CONTINUOUS
 62
     7
100
AcDbBlockReference
  2
KOZU0008
 10
-245.6231079101563
 20
-261.2405395507813
  0
LINE
  5
7dc
100
AcDbEntity
  8
0
  6
CONTINUOUS
 62
     7
100
AcDbLine
 10
60.26926439077337
 20
213.5626264897976
 11
70.98354993601151
 21
232.120281089726
  0
LINE
  5
7dd
100
AcDbEntity
  8
0
  6
CONTINUOUS
 62
     7
100
AcDbLine
 10
60.26926439077337
 20
213.5626264897976
 11
60.90324131464443
 21
216.6607021763535
  0
LINE
  5
7de
100
AcDbEntity
  8
0
  6
CONTINUOUS
 62
     7
100
AcDbLine
 10
60.26926439077337
 20
213.5626264897976
 11
62.63529134180379
 21
215.6607008847197
  0
MTEXT
  5
7df
100
AcDbEntity
  8
0
  6
CONTINUOUS
 62
     7
100
AcDbMText
 10
76.39166259765625
 20
232.1202850341797
 40
6
 41
168
 71
     4
 72
     1
  1
{\W0.846334;Ｍ２６ｘ１．５}
  0
LINE
  5
7e0
100
AcDbEntity
  8
0
  6
CONTINUOUS
 62
     7
100
AcDbLine
 10
60.26926439077337
 20
213.5626264897976
 11
70.98354993601151
 21
232.120281089726
  0
LINE
  5
7e1
100
AcDbEntity
  8
0
  6
CONTINUOUS
 62
     7
100
AcDbLine
 10
70.98355102539063
 20
232.1202850341797
 11
74.67716217041016
 21
232.1202850341797
  0
DIMENSION
  5
7e2
100
AcDbEntity
  8
0
  6
CONTINUOUS
 62
     7
100
AcDbDimension
  2
*D1
 70
     0
 10
-195.7108764648438
 20
-241.2405395507813
 11
-195.7108764648438
 21
-261.2405395507813
  3
DIMSTYLE
100
AcDbAlignedDimension
 13
-235.6230926513672
 23
-281.2405395507813
 14
-235.6230926513672
 24
-241.2405395507813
 50
90
100
AcDbRotatedDimension
1001
ACAD
1000
DSTYLE
1002
{
1070
     6
1000
_OPEN30
1070
     7
1000
_OPEN30
1070
    77
1070
     1
1070
   172
1070
     1
1070
    42
1040
0
1002
}
  0
LINE
  5
7e3
100
AcDbEntity
  8
0
  6
CONTINUOUS
 62
     7
100
AcDbLine
 10
73.37778750365307
 20
-251.8691323498638
 11
86.10938121565334
 21
-217.6745256861792
  0
LINE
  5
7e4
100
AcDbEntity
  8
0
  6
CONTINUOUS
 62
     7
100
AcDbLine
 10
73.37778750365307
 20
-251.8691323498638
 11
73.94255207590852
 21
-248.7416303635263
  0
LINE
  5
7e5
100
AcDbEntity
  8
0
  6
CONTINUOUS
 62
     7
100
AcDbLine
 10
73.37778750365307
 20
-251.8691323498638
 11
74.99590865960043
 21
-249.1338240269694
  0
MTEXT
  5
7e6
100
AcDbEntity
  8
0
  6
CONTINUOUS
 62
     7
100
AcDbMText
 10
97.57878112792969
 20
-217.6745300292969
 40
6
 41
252
 71
     4
 72
     1
  1
{\W0.845552;\U+2205２０Ｈ１０ｄ９}
  0
LINE
  5
7e7
100
AcDbEntity
  8
0
  6
CONTINUOUS
 62
     7
100
AcDbLine
 10
73.37778750365307
 20
-251.8691323498638
 11
86.10938121565334
 21
-217.6745256861792
  0
LINE
  5
7e8
100
AcDbEntity
  8
0
  6
CONTINUOUS
 62
     7
100
AcDbLine
 10
86.109375
 20
-217.6745300292969
 11
95.86428070068359
 21
-217.6745300292969
  0
DIMENSION
  5
7e9
100
AcDbEntity
  8
0
  6
CONTINUOUS
 62
     7
100
AcDbDimension
  2
*D2
 70
     0
 10
-245.6231079101563
 20
-314.2017861620059
 11
-297.1230773925781
 21
-314.2017861620059
  3
DIMSTYLE
100
AcDbAlignedDimension
 13
-348.623046875
 23
-274.2405090332031
 14
-245.6231079101563
 24
-284.4175415039063
 50
0
100
AcDbRotatedDimension
1001
ACAD
1000
DSTYLE
1002
{
1070
     6
1000
_OPEN30
1070
     7
1000
_OPEN30
1070
    77
1070
     1
1070
   172
1070
     1
1070
    42
1040
0
1002
}
  0
DIMENSION
  5
7ea
100
AcDbEntity
  8
0
  6
CONTINUOUS
 62
     7
100
AcDbDimension
  2
*D3
 70
     0
 10
-195.7109375
 20
-371.4751892089844
 11
-195.7109375
 21
-386.4752197265625
  3
DIMSTYLE
100
AcDbAlignedDimension
 13
-224.6230926513672
 23
-401.4752197265625
 14
-224.6230926513672
 24
-371.4752197265625
 50
90
100
AcDbRotatedDimension
1001
ACAD
1000
DSTYLE
1002
{
1070
     6
1000
_OPEN30
1070
     7
1000
_OPEN30
1070
    77
1070
     1
1070
   172
1070
     1
1070
    42
1040
0
1002
}
  0
DIMENSION
  5
7eb
100
AcDbEntity
  8
0
  6
CONTINUOUS
 62
     7
100
AcDbDimension
  2
*D4
 70
     0
 10
-224.6231079101563
 20
-448.188232421875
 11
-276.623046875
 21
-448.188232421875
  3
DIMSTYLE
100
AcDbAlignedDimension
 13
-328.623046875
 23
-404.9751892089844
 14
-224.6231079101563
 24
-401.4751892089844
 50
0
100
AcDbRotatedDimension
1001
ACAD
1000
DSTYLE
1002
{
1070
     6
1000
_OPEN30
1070
     7
1000
_OPEN30
1070
    77
1070
     1
1070
   172
1070
     1
1070
    42
1040
0
1002
}
  0
DIMENSION
  5
7ec
100
AcDbEntity
  8
0
  6
CONTINUOUS
 62
     7
100
AcDbDimension
  2
*D5
 70
     0
 10
-13.11148071289063
 20
-308.2164916992188
 11
-20.11146545410156
 21
-308.2164916992188
  3
DIMSTYLE
100
AcDbAlignedDimension
 13
-27.11146545410156
 23
-278.2405395507813
 14
-13.11148071289063
 24
-279.7405090332031
 50
0
100
AcDbRotatedDimension
1001
ACAD
1000
DSTYLE
1002
{
1070
     6
1000
_OPEN30
1070
     7
1000
_OPEN30
1070
    77
1070
     1
1070
   172
1070
     1
1070
    42
1040
0
1002
}
  0
DIMENSION
  5
7ed
100
AcDbEntity
  8
0
  6
CONTINUOUS
 62
     7
100
AcDbDimension
  2
*D6
 70
     0
 10
69.88851928710938
 20
-308.2164916992188
 11
28.38851928710938
 21
-308.2164916992188
  3
DIMSTYLE
100
AcDbAlignedDimension
 13
-13.11148071289063
 23
-279.7405090332031
 14
69.88851928710938
 24
-286.0357666015625
 50
0
100
AcDbRotatedDimension
1001
ACAD
1000
DSTYLE
1002
{
1070
     6
1000
_OPEN30
1070
     7
1000
_OPEN30
1070
    77
1070
     1
1070
   172
1070
     1
1070
    75
1070
     1
1002
}
  0
LINE
  5
7ee
100
AcDbEntity
  8
0
  6
CONTINUOUS
 62
     7
100
AcDbLine
 10
-240.8449348267579
 20
-269.8537658690948
 11
-211.6631604897372
 21
-304.9467907816843
  0
LINE
  5
7ef
100
AcDbEntity
  8
0
  6
CONTINUOUS
 62
     7
100
AcDbLine
 10
-240.8449348267579
 20
-269.8537658690948
 11
-238.4128454957464
 21
-271.8995344734583
  0
LINE
  5
7f0
100
AcDbEntity
  8
0
  6
CONTINUOUS
 62
     7
100
AcDbLine
 10
-240.8449348267579
 20
-269.8537658690948
 11
-239.2770816496123
 21
-272.6181942207679
  0
MTEXT
  5
7f1
100
AcDbEntity
  8
0
  6
CONTINUOUS
 62
     7
100
AcDbMText
 10
-200.1937455690803
 20
-304.9468067423945
 40
6
 41
204
 71
     4
 72
     1
  1
{\W0.847392;\U+2205２０Ｈ１０}
  0
LINE
  5
7f2
100
AcDbEntity
  8
0
  6
CONTINUOUS
 62
     7
100
AcDbLine
 10
-240.8449348267579
 20
-269.8537658690948
 11
-211.6631604897372
 21
-304.9467907816843
  0
LINE
  5
7f3
100
AcDbEntity
  8
0
  6
CONTINUOUS
 62
     7
100
AcDbLine
 10
-211.6631604897372
 20
-304.9467907816843
 11
-201.9082383669319
 21
-304.9467907816843
  0
DIMENSION
  5
7f4
100
AcDbEntity
  8
0
  6
CONTINUOUS
 62
     7
100
AcDbDimension
  2
*D7
 70
     0
 10
69.88851928710938
 20
-322.8258666992188
 11
18.38851928710938
 21
-322.8258666992188
  3
DIMSTYLE
100
AcDbAlignedDimension
 13
-33.1114501953125
 23
-274.2405395507813
 14
69.88851928710938
 24
-286.0357666015625
 50
0
100
AcDbRotatedDimension
1001
ACAD
1000
DSTYLE
1002
{
1070
     6
1000
_OPEN30
1070
     7
1000
_OPEN30
1070
    77
1070
     1
1070
   172
1070
     1
1070
    42
1040
0
1002
}
  0
DIMENSION
  5
7f5
100
AcDbEntity
  8
0
  6
CONTINUOUS
 62
     7
100
AcDbDimension
  2
*D8
 70
     4
 11
100.0154876708984
 21
-286.7643432617188
 10
69.88853573979176
 20
-261.2404885833323
  3
DIMSTYLE
100
AcDbRadialDimension
 15
85.91131485249024
 25
-274.8151174734962
1001
ACAD
1000
DSTYLE
1002
{
1070
     6
1000
_OPEN30
1070
     7
1000
_OPEN30
1070
    77
1070
     1
1070
   172
1070
     1
1002
}
  0
DIMENSION
  5
7f6
100
AcDbEntity
  8
0
  6
CONTINUOUS
 62
     7
100
AcDbDimension
  2
*D9
 70
     0
 10
118.9596939086914
 20
-401.4752197265625
 11
118.9596939086914
 21
-386.4752197265625
  3
DIMSTYLE
100
AcDbAlignedDimension
 13
90.88851928710938
 23
-371.4752197265625
 14
90.88851928710938
 24
-401.4752197265625
 50
90
100
AcDbRotatedDimension
1001
ACAD
1000
DSTYLE
1002
{
1070
     6
1000
_OPEN30
1070
     7
1000
_OPEN30
1070
    77
1070
     1
1070
   172
1070
     1
1070
    42
1040
0
1002
}
  0
DIMENSION
  5
7f7
100
AcDbEntity
  8
0
  6
CONTINUOUS
 62
     7
100
AcDbDimension
  2
*D10
 70
     0
 10
31.88851928710938
 20
-450.6182861328125
 11
50.88851928710938
 21
-450.6182861328125
  3
DIMSTYLE
100
AcDbAlignedDimension
 13
69.88851928710938
 23
-433.9078369140625
 14
31.88851928710938
 24
-401.4751892089844
 50
0
100
AcDbRotatedDimension
1001
ACAD
1000
DSTYLE
1002
{
1070
     6
1000
_OPEN30
1070
     7
1000
_OPEN30
1070
    77
1070
     1
1070
   172
1070
     1
1070
    42
1040
0
1002
}
  0
DIMENSION
  5
7f8
100
AcDbEntity
  8
0
  6
CONTINUOUS
 62
     7
100
AcDbDimension
  2
*D11
 70
     0
 10
-262.2307739257813
 20
277.9095153808594
 11
-299.4136352539063
 21
277.9095153808594
  3
DIMSTYLE
100
AcDbAlignedDimension
 13
-280.7307739257813
 23
258.8626403808594
 14
-262.2307739257813
 24
262.7664489746094
 50
0
100
AcDbRotatedDimension
1001
ACAD
1000
DSTYLE
1002
{
1070
     6
1000
_OPEN30
1070
     7
1000
_OPEN30
1070
    77
1070
     1
1070
   172
1070
     1
1070
    42
1040
0
1002
}
  0
DIMENSION
  5
7f9
100
AcDbEntity
  8
0
  6
CONTINUOUS
 62
     7
100
AcDbDimension
  2
*D12
 70
     0
 10
-23.23075866699219
 20
277.9095153808594
 11
-42.18267822265625
 21
277.9095153808594
  3
DIMSTYLE
100
AcDbAlignedDimension
 13
-4.730758666992188
 23
258.8626403808594
 14
-23.23075866699219
 24
262.7664489746094
 50
0
100
AcDbRotatedDimension
1001
ACAD
1000
DSTYLE
1002
{
1070
     6
1000
_OPEN30
1070
     7
1000
_OPEN30
1070
    77
1070
     1
1070
   172
1070
     1
1070
    42
1040
0
1002
}
  0
LINE
  5
7fa
100
AcDbEntity
  8
0
  6
CONTINUOUS
 62
     7
100
AcDbLine
 10
-251.7755505353598
 20
251.6576755542499
 11
-234.1854951226686
 21
277.9381439372668
  0
LINE
  5
7fb
100
AcDbEntity
  8
0
  6
CONTINUOUS
 62
     7
100
AcDbLine
 10
-251.7755505353598
 20
251.6576755542499
 11
-250.5027148347963
 21
254.5697395947529
  0
LINE
  5
7fc
100
AcDbEntity
  8
0
  6
CONTINUOUS
 62
     7
100
AcDbLine
 10
-251.7755505353598
 20
251.6576755542499
 11
-249.5686359819037
 21
253.9445414992417
  0
MTEXT
  5
7fd
100
AcDbEntity
  8
0
  6
CONTINUOUS
 62
     7
100
AcDbMText
 10
-229.0390319824219
 20
277.9381408691406
 40
6
 41
168
 71
     4
 72
     1
  1
{\W0.846334;２－Ｒｃ１／２}
  0
LINE
  5
7fe
100
AcDbEntity
  8
0
  6
CONTINUOUS
 62
     7
100
AcDbLine
 10
-251.7755505353598
 20
251.6576755542499
 11
-234.1854951226686
 21
277.9381439372668
  0
LINE
  5
7ff
100
AcDbEntity
  8
0
  6
CONTINUOUS
 62
     7
100
AcDbLine
 10
-234.1854858398438
 20
277.9381408691406
 11
-230.7535247802734
 21
277.9381408691406
  0
DIMENSION
  5
800
100
AcDbEntity
  8
0
  6
CONTINUOUS
 62
     7
100
AcDbDimension
  2
*D13
 70
     0
 10
-243.7308044433594
 20
116.4606628417969
 11
-262.2307739257813
 21
116.4606628417969
  3
DIMSTYLE
100
AcDbAlignedDimension
 13
-280.7307739257813
 23
142.2626190185547
 14
-243.7308044433594
 24
142.2626190185547
 50
0
100
AcDbRotatedDimension
1001
ACAD
1000
DSTYLE
1002
{
1070
     6
1000
_OPEN30
1070
     7
1000
_OPEN30
1070
    77
1070
     1
1070
   172
1070
     1
1070
    42
1040
0
1002
}
  0
DIMENSION
  5
801
100
AcDbEntity
  8
0
  6
CONTINUOUS
 62
     7
100
AcDbDimension
  2
*D14
 70
     0
 10
-4.730758666992188
 20
116.4606628417969
 11
-23.23075866699219
 21
116.4606628417969
  3
DIMSTYLE
100
AcDbAlignedDimension
 13
-41.73077392578125
 23
142.2626190185547
 14
-4.730758666992188
 24
142.2626190185547
 50
0
100
AcDbRotatedDimension
1001
ACAD
1000
DSTYLE
1002
{
1070
     6
1000
_OPEN30
1070
     7
1000
_OPEN30
1070
    77
1070
     1
1070
   172
1070
     1
1070
    42
1040
0
1002
}
  0
DIMENSION
  5
802
100
AcDbEntity
  8
0
  6
CONTINUOUS
 62
     7
100
AcDbDimension
  2
*D15
 70
     0
 10
10.26924133300781
 20
116.4606628417969
 11
2.769241333007813
 21
116.4606628417969
  3
DIMSTYLE
100
AcDbAlignedDimension
 13
-4.730758666992188
 23
142.2626190185547
 14
10.26924133300781
 24
176.1125946044922
 50
0
100
AcDbRotatedDimension
1001
ACAD
1000
DSTYLE
1002
{
1070
     6
1000
_OPEN30
1070
     7
1000
_OPEN30
1070
    77
1070
     1
1070
   172
1070
     1
1070
    75
1070
     1
1002
}
  0
DIMENSION
  5
803
100
AcDbEntity
  8
0
  6
CONTINUOUS
 62
     7
100
AcDbDimension
  2
*D16
 70
     0
 10
30.26926422119141
 20
116.4606628417969
 11
48.76927185058594
 21
116.4606628417969
  3
DIMSTYLE
100
AcDbAlignedDimension
 13
67.269287109375
 23
189.0626220703125
 14
30.26925659179688
 24
187.5626220703125
 50
0
100
AcDbRotatedDimension
1001
ACAD
1000
DSTYLE
1002
{
1070
     6
1000
_OPEN30
1070
     7
1000
_OPEN30
1070
    77
1070
     1
1070
   172
1070
     1
1070
    42
1040
0
1002
}
  0
DIMENSION
  5
804
100
AcDbEntity
  8
0
  6
CONTINUOUS
 62
     7
100
AcDbDimension
  2
*D17
 70
     0
 10
54.26922607421875
 20
154.4677734375
 11
47.26922607421875
 21
154.4677734375
  3
DIMSTYLE
100
AcDbAlignedDimension
 13
40.26922607421875
 23
183.5626220703125
 14
54.26922607421875
 24
183.5626220703125
 50
0
100
AcDbRotatedDimension
1001
ACAD
1000
DSTYLE
1002
{
1070
     6
1000
_OPEN30
1070
     7
1000
_OPEN30
1070
    77
1070
     1
1070
   172
1070
     1
1070
    42
1040
0
1002
}
  0
DIMENSION
  5
805
100
AcDbEntity
  8
0
  6
CONTINUOUS
 62
     7
100
AcDbDimension
  2
*D18
 70
     0
 10
27.26927185058594
 20
101.2578125
 11
47.26927185058594
 21
101.2578125
  3
DIMSTYLE
100
AcDbAlignedDimension
 13
67.269287109375
 23
189.0626220703125
 14
27.26927185058594
 24
187.5626220703125
 50
0
100
AcDbRotatedDimension
1001
ACAD
1000
DSTYLE
1002
{
1070
     6
1000
_OPEN30
1070
     7
1000
_OPEN30
1070
    77
1070
     1
1070
   172
1070
     1
1070
    42
1040
0
1002
}
  0
DIMENSION
  5
806
100
AcDbEntity
  8
0
  6
CONTINUOUS
 62
     7
100
AcDbDimension
  2
*D19
 70
     0
 10
-4.730758666992188
 20
101.2578125
 11
11.26925659179688
 21
101.2578125
  3
DIMSTYLE
100
AcDbAlignedDimension
 13
27.26927185058594
 23
187.5626220703125
 14
-4.730758666992188
 24
142.2626190185547
 50
0
100
AcDbRotatedDimension
1001
ACAD
1000
DSTYLE
1002
{
1070
     6
1000
_OPEN30
1070
     7
1000
_OPEN30
1070
    77
1070
     1
1070
   172
1070
     1
1070
    75
1070
     1
1002
}
  0
DIMENSION
  5
807
100
AcDbEntity
  8
0
  6
CONTINUOUS
 62
     7
100
AcDbDimension
  2
*D20
 70
     0
 10
-280.7307739257813
 20
101.2578125
 11
-142.7307739257813
 21
101.2578125
  3
DIMSTYLE
100
AcDbAlignedDimension
 13
-4.730758666992188
 23
142.2626190185547
 14
-280.7307739257813
 24
142.2626190185547
 50
0
100
AcDbRotatedDimension
1001
ACAD
1000
DSTYLE
1002
{
1070
     6
1000
_OPEN30
1070
     7
1000
_OPEN30
1070
    77
1070
     1
1070
   172
1070
     1
1070
    75
1070
     1
1002
}
  0
DIMENSION
  5
808
100
AcDbEntity
  8
0
  6
CONTINUOUS
 62
     7
100
AcDbDimension
  2
*D21
 70
     0
 10
19.09503173828125
 20
215.5626068115234
 11
19.09503173828125
 21
237.2987823486328
  3
DIMSTYLE
100
AcDbAlignedDimension
 13
23.80517578125
 23
185.5626220703125
 14
23.80517578125
 24
215.5626068115234
 50
90
100
AcDbRotatedDimension
1001
ACAD
1000
DSTYLE
1002
{
1070
     6
1000
_OPEN30
1070
     7
1000
_OPEN30
1070
    77
1070
     1
1070
   172
1070
     1
1070
    42
1040
0
1002
}
  0
LINE
  5
809
100
AcDbEntity
  8
0
  6
CONTINUOUS
 62
     7
100
AcDbLine
 10
23.16366457248804
 20
201.4439033744688
 11
42.74402505330388
 21
246.7045016973445
  0
LINE
  5
80a
100
AcDbEntity
  8
0
  6
CONTINUOUS
 62
     7
100
AcDbLine
 10
23.16366457248804
 20
201.4439033744688
 11
23.88983977429037
 21
204.5379132763448
  0
LINE
  5
80b
100
AcDbEntity
  8
0
  6
CONTINUOUS
 62
     7
100
AcDbLine
 10
23.16366457248804
 20
201.4439033744688
 11
24.92144288472041
 21
204.0916275107158
  0
MTEXT
  5
80c
100
AcDbEntity
  8
0
  6
CONTINUOUS
 62
     7
100
AcDbMText
 10
48.08410263061523
 20
246.7044830322266
 40
6
 41
120
 71
     4
 72
     1
  1
{\W0.848905;二面巾２７}
  0
LINE
  5
80d
100
AcDbEntity
  8
0
  6
CONTINUOUS
 62
     7
100
AcDbLine
 10
23.16366457248804
 20
201.4439033744688
 11
42.74402505330388
 21
246.7045016973445
  0
LINE
  5
80e
100
AcDbEntity
  8
0
  6
CONTINUOUS
 62
     7
100
AcDbLine
 10
42.74402236938477
 20
246.7044830322266
 11
46.36960220336914
 21
246.7044830322266
  0
DIMENSION
  5
80f
100
AcDbEntity
  8
0
  6
CONTINUOUS
 62
     7
100
AcDbDimension
  2
*D22
 70
     0
 10
486.1578063964844
 20
231.9096221923828
 11
486.1578063964844
 21
245.1777496337891
 52
60.00049443497926
  3
DIMSTYLE
100
AcDbAlignedDimension
 13
495.4192832597519
 23
174.5626700559297
 14
495.4192760701
 24
226.5626167453947
 50
90
100
AcDbRotatedDimension
1001
ACAD
1000
DSTYLE
1002
{
1070
     6
1000
_OPEN30
1070
     7
1000
_OPEN30
1070
    77
1070
     1
1070
   172
1070
     1
1070
    42
1040
0
1002
}
  0
LINE
  5
810
100
AcDbEntity
  8
0
  6
CONTINUOUS
 62
     7
100
AcDbLine
 10
276.1649012080291
 20
251.1043033169379
 11
268.0013889747677
 21
280.5992811519744
  0
LINE
  5
811
100
AcDbEntity
  8
0
  6
CONTINUOUS
 62
     7
100
AcDbLine
 10
276.1649012080291
 20
251.1043033169379
 11
274.7888775911989
 21
253.9690522941687
  0
LINE
  5
812
100
AcDbEntity
  8
0
  6
CONTINUOUS
 62
     7
100
AcDbLine
 10
276.1649012080291
 20
251.1043033169379
 11
275.8721509908233
 21
254.2688767490051
  0
MTEXT
  5
813
100
AcDbEntity
  8
0
  6
CONTINUOUS
 62
     7
100
AcDbMText
 10
257.925537109375
 20
280.5992736816406
 40
6
 41
240
 71
     6
 72
     1
  1
{\W0.844473;４－Ｍ１２ｘ１．７５}
  0
LINE
  5
814
100
AcDbEntity
  8
0
  6
CONTINUOUS
 62
     7
100
AcDbLine
 10
276.1649012080291
 20
251.1043033169379
 11
268.0013889747677
 21
280.5992811519744
  0
LINE
  5
815
100
AcDbEntity
  8
0
  6
CONTINUOUS
 62
     7
100
AcDbLine
 10
268.0013732910156
 20
280.5992736816406
 11
259.6400451660156
 21
280.5992736816406
  0
DIMENSION
  5
816
100
AcDbEntity
  8
0
  6
CONTINUOUS
 62
     7
100
AcDbDimension
  2
*D23
 70
     0
 10
277.84423828125
 20
116.4606628417969
 11
232.84423828125
 21
116.4606628417969
  3
DIMSTYLE
100
AcDbAlignedDimension
 13
187.8442535400391
 23
145.0625915527344
 14
277.84423828125
 24
145.0625915527344
 50
0
100
AcDbRotatedDimension
1001
ACAD
1000
DSTYLE
1002
{
1070
     6
1000
_OPEN30
1070
     7
1000
_OPEN30
1070
    77
1070
     1
1070
   172
1070
     1
1070
    42
1040
0
1002
}
  0
DIMENSION
  5
817
100
AcDbEntity
  8
0
  6
CONTINUOUS
 62
     7
100
AcDbDimension
  2
*D24
 70
     0
 10
291.84423828125
 20
101.2578125
 11
232.84423828125
 21
101.2578125
  3
DIMSTYLE
100
AcDbAlignedDimension
 13
173.8442535400391
 23
151.5625915527344
 14
291.84423828125
 24
151.5625915527344
 50
0
100
AcDbRotatedDimension
1001
ACAD
1000
DSTYLE
1002
{
1070
     6
1000
_OPEN30
1070
     7
1000
_OPEN30
1070
    77
1070
     1
1070
   172
1070
     1
1070
    42
1040
0
1002
}
  0
DIMENSION
  5
818
100
AcDbEntity
  8
0
  6
CONTINUOUS
 62
     7
100
AcDbDimension
  2
*D25
 70
     0
 10
-298.7307739257813
 20
69.90793172770273
 11
-115.7307434082031
 21
69.90793172770273
  3
DIMSTYLE
100
AcDbAlignedDimension
 13
67.269287109375
 23
189.0626220703125
 14
-298.7307739257813
 24
138.5626220703125
 50
0
100
AcDbRotatedDimension
1001
ACAD
1000
DSTYLE
1002
{
1070
     6
1000
_OPEN30
1070
     7
1000
_OPEN30
1070
    77
1070
     1
1070
   172
1070
     1
1070
    42
1040
0
1002
}
  0
DIMENSION
  5
819
100
AcDbEntity
  8
0
  6
CONTINUOUS
 62
     7
100
AcDbDimension
  2
*D26
 70
     0
 10
307.84423828125
 20
85.10069274902344
 11
232.84423828125
 21
85.10069274902344
  3
DIMSTYLE
100
AcDbAlignedDimension
 13
157.8442535400391
 23
147.5625915527344
 14
307.84423828125
 24
147.5625915527344
 50
0
100
AcDbRotatedDimension
1001
ACAD
1000
DSTYLE
1002
{
1070
     6
1000
_OPEN30
1070
     7
1000
_OPEN30
1070
    77
1070
     1
1070
   172
1070
     1
1070
    42
1040
0
1002
}
  0
DIMENSION
  5
81a
100
AcDbEntity
  8
0
  6
CONTINUOUS
 62
     7
100
AcDbDimension
  2
*D27
 70
     0
 10
322.84423828125
 20
69.74758911132813
 11
232.84423828125
 21
69.74758911132813
  3
DIMSTYLE
100
AcDbAlignedDimension
 13
142.8442535400391
 23
138.5625915527344
 14
322.84423828125
 24
138.5625915527344
 50
0
100
AcDbRotatedDimension
1001
ACAD
1000
DSTYLE
1002
{
1070
     6
1000
_OPEN30
1070
     7
1000
_OPEN30
1070
    77
1070
     1
1070
   172
1070
     1
1070
    42
1040
0
1002
}
  0
DIMENSION
  5
81b
100
AcDbEntity
  8
0
  6
CONTINUOUS
 62
     7
100
AcDbDimension
  2
*D28
 70
     0
 10
348.400146484375
 20
246.5625915527344
 11
348.400146484375
 21
200.5625915527344
  3
DIMSTYLE
100
AcDbAlignedDimension
 13
314.84423828125
 23
154.5625915527344
 14
314.84423828125
 24
246.5625762939453
 50
90
100
AcDbRotatedDimension
1001
ACAD
1000
DSTYLE
1002
{
1070
     6
1000
_OPEN30
1070
     7
1000
_OPEN30
1070
    77
1070
     1
1070
   172
1070
     1
1070
    42
1040
0
1002
}
  0
DIMENSION
  5
81c
100
AcDbEntity
  8
0
  6
CONTINUOUS
 62
     7
100
AcDbDimension
  2
*D29
 70
     0
 10
366.2470703125
 20
262.5625915527344
 11
366.2470703125
 21
200.5625915527344
  3
DIMSTYLE
100
AcDbAlignedDimension
 13
322.84423828125
 23
138.5625915527344
 14
322.84423828125
 24
262.5625915527344
 50
90
100
AcDbRotatedDimension
1001
ACAD
1000
DSTYLE
1002
{
1070
     6
1000
_OPEN30
1070
     7
1000
_OPEN30
1070
    77
1070
     1
1070
   172
1070
     1
1070
    42
1040
0
1002
}
  0
LINE
  5
81d
100
AcDbEntity
  8
0
  6
CONTINUOUS
 62
     7
100
AcDbLine
 10
313.049533286218
 20
149.3722228238499
 11
340.5062903447849
 21
109.5599154321975
  0
LINE
  5
81e
100
AcDbEntity
  8
0
  6
CONTINUOUS
 62
     7
100
AcDbLine
 10
313.049533286218
 20
149.3722228238499
 11
315.288047268298
 21
147.1162789307861
  0
LINE
  5
81f
100
AcDbEntity
  8
0
  6
CONTINUOUS
 62
     7
100
AcDbLine
 10
313.049533286218
 20
149.3722228238499
 11
314.3627560384855
 21
146.4781472029397
  0
MTEXT
  5
820
100
AcDbEntity
  8
0
  6
CONTINUOUS
 62
     7
100
AcDbMText
 10
354.2347106933594
 20
109.5599136352539
 40
6
 41
180
 71
     4
 72
     1
  1
{\W0.848905;４－\U+2205１４}
  0
LINE
  5
821
100
AcDbEntity
  8
0
  6
CONTINUOUS
 62
     7
100
AcDbLine
 10
313.049533286218
 20
149.3722228238499
 11
340.5062903447849
 21
109.5599154321975
  0
LINE
  5
822
100
AcDbEntity
  8
0
  6
CONTINUOUS
 62
     7
100
AcDbLine
 10
340.5062866210938
 20
109.5599136352539
 11
352.5202026367188
 21
109.5599136352539
  0
LINE
  5
823
100
AcDbEntity
  8
0
  6
CONTINUOUS
 62
     7
100
AcDbLine
 10
49.13479273180964
 20
196.0567017763659
 11
78.5237958318765
 21
167.3845036299592
  0
LINE
  5
824
100
AcDbEntity
  8
0
  6
CONTINUOUS
 62
     7
100
AcDbLine
 10
49.13479273180964
 20
196.0567017763659
 11
51.98046238627894
 21
194.6775121892305
  0
LINE
  5
825
100
AcDbEntity
  8
0
  6
CONTINUOUS
 62
     7
100
AcDbLine
 10
49.13479273180964
 20
196.0567017763659
 11
50.58381470310386
 21
193.245948313976
  0
MTEXT
  5
826
100
AcDbEntity
  8
0
  6
CONTINUOUS
 62
     7
100
AcDbMText
 10
85.69184536847818
 20
167.3845036299592
 40
6
 41
120
 71
     4
 72
     1
  1
{\W0.848905;二面幅３６}
  0
LINE
  5
827
100
AcDbEntity
  8
0
  6
CONTINUOUS
 62
     7
100
AcDbLine
 10
49.13479273180964
 20
196.0567017763659
 11
78.5237958318765
 21
167.3845036299592
  0
LINE
  5
828
100
AcDbEntity
  8
0
  6
CONTINUOUS
 62
     7
100
AcDbLine
 10
78.5237958318765
 20
167.3845036299592
 11
84.54884536180246
 21
167.3845036299592
  0
DIMENSION
  5
829
100
AcDbEntity
  8
0
  6
CONTINUOUS
 62
     7
100
AcDbDimension
  2
*D30
 70
     4
 11
-222.1471438323277
 21
-231.4311170873661
 10
-245.6231079101563
 20
-261.2405395507813
  3
DIMSTYLE
100
AcDbRadialDimension
 15
-231.3928796060052
 25
-243.1712118817246
1001
ACAD
1000
DSTYLE
1002
{
1070
    77
1070
     1
1070
   172
1070
     1
1002
}
  0
DIMENSION
  5
82a
100
AcDbEntity
  8
0
  6
CONTINUOUS
 62
     7
100
AcDbDimension
  2
*D31
 70
     0
 10
-245.6231079101563
 20
-424.5177710035833
 11
-264.6230850219727
 21
-424.5177710035833
  3
DIMSTYLE
100
AcDbAlignedDimension
 13
-283.6230621337891
 23
-406.4751892089844
 14
-245.6231079101563
 24
-401.4751892089844
 50
0
100
AcDbRotatedDimension
1001
ACAD
1000
DSTYLE
1002
{
1070
    77
1070
     1
1070
   172
1070
     1
1070
    42
1040
0
1002
}
  0
DIMENSION
  5
82b
100
AcDbEntity
  8
0
  6
CONTINUOUS
 62
     7
100
AcDbDimension
  2
*D32
 70
     0
 10
-245.6231079101563
 20
-436.1344969403697
 11
-235.1231079101563
 21
-436.1344969403697
  3
DIMSTYLE
100
AcDbAlignedDimension
 13
-224.6231079101563
 23
-401.4751892089844
 14
-245.6231079101563
 24
-401.4751892089844
 50
0
100
AcDbRotatedDimension
1001
ACAD
1000
DSTYLE
1002
{
1070
    77
1070
     1
1070
   172
1070
     1
1070
    42
1040
0
1002
}
  0
DIMENSION
  5
82c
100
AcDbEntity
  8
0
  6
CONTINUOUS
 62
     7
100
AcDbDimension
  2
*D33
 70
     0
 10
-328.6230621337891
 20
-436.1344969403697
 11
-287.1230850219727
 21
-436.1344969403697
  3
DIMSTYLE
100
AcDbAlignedDimension
 13
-245.6231079101563
 23
-401.4751892089844
 14
-328.6230621337891
 24
-404.4751892089844
 50
0
100
AcDbRotatedDimension
1001
ACAD
1000
DSTYLE
1002
{
1070
    77
1070
     1
1070
   172
1070
     1
1070
    75
1070
     1
1002
}
  0
DIMENSION
  5
82d
100
AcDbEntity
  8
0
  6
CONTINUOUS
 62
     7
100
AcDbDimension
  2
*D34
 70
     0
 10
-342.6231842041016
 20
-436.1344969403697
 11
-335.6231231689453
 21
-436.1344969403697
  3
DIMSTYLE
100
AcDbAlignedDimension
 13
-328.6230621337891
 23
-404.4751892089844
 14
-342.6231842041016
 24
-404.4751892089844
 50
0
100
AcDbRotatedDimension
1001
ACAD
1000
DSTYLE
1002
{
1070
    77
1070
     1
1070
   172
1070
     1
1070
    75
1070
     1
1002
}
  0
DIMENSION
  5
82e
100
AcDbEntity
  8
0
  6
CONTINUOUS
 62
     7
100
AcDbDimension
  2
*D35
 70
     0
 10
-0.6231098955256726
 20
-241.2405242919922
 11
-0.6231098955256726
 21
-224.0291044245983
  3
DIMSTYLE
100
AcDbAlignedDimension
 13
-11.61148071289063
 23
-281.2405242919922
 14
-11.61148071289063
 24
-241.2405242919922
 50
90
100
AcDbRotatedDimension
1001
ACAD
1000
DSTYLE
1002
{
1070
    77
1070
     1
1070
   172
1070
     1
1070
    42
1040
0
1002
}
  0
DIMENSION
  5
82f
100
AcDbEntity
  8
0
  6
CONTINUOUS
 62
     7
100
AcDbDimension
  2
*D36
 70
     0
 10
131.4258026615582
 20
-356.9751892089844
 11
131.4258026615582
 21
-386.4751892089844
  3
DIMSTYLE
100
AcDbAlignedDimension
 13
88.38842778856051
 23
-415.9751892089844
 14
88.38857407651027
 24
-356.9751892089844
 50
90
100
AcDbRotatedDimension
1001
ACAD
1000
DSTYLE
1002
{
1070
    77
1070
     1
1070
   172
1070
     1
1070
    42
1040
0
1002
}
  0
DIMENSION
  5
830
100
AcDbEntity
  8
0
  6
CONTINUOUS
 62
     7
100
AcDbDimension
  2
*D37
 70
     0
 10
144.76682681681
 20
-342.9751892089844
 11
144.76682681681
 21
-386.4751739501953
  3
DIMSTYLE
100
AcDbAlignedDimension
 13
78.38868244903436
 23
-429.9751586914063
 14
78.38855079761298
 24
-342.9751892089844
 50
90
100
AcDbRotatedDimension
1001
ACAD
1000
DSTYLE
1002
{
1070
    77
1070
     1
1070
   172
1070
     1
1070
    42
1040
0
1002
}
  0
DIMENSION
  5
831
100
AcDbEntity
  8
0
  6
CONTINUOUS
 62
     7
100
AcDbDimension
  2
*D38
 70
     0
 10
-280.7307586669922
 20
84.78023251248214
 11
-289.7307586669922
 21
84.78023251248214
  3
DIMSTYLE
100
AcDbAlignedDimension
 13
-298.7307586669922
 23
138.5626220703125
 14
-280.7307586669922
 24
138.5626220703125
 50
0
100
AcDbRotatedDimension
1001
ACAD
1000
DSTYLE
1002
{
1070
    77
1070
     1
1070
   172
1070
     1
1070
    42
1040
0
1002
}
  0
DIMENSION
  5
832
100
AcDbEntity
  8
0
  6
CONTINUOUS
 62
     7
100
AcDbDimension
  2
*D39
 70
     0
 10
67.26927947998047
 20
84.78023251248214
 11
-106.7307395935059
 21
84.78023251248214
  3
DIMSTYLE
100
AcDbAlignedDimension
 13
-280.7307586669922
 23
138.5626220703125
 14
67.26927947998047
 24
189.0626253364455
 50
0
100
AcDbRotatedDimension
1001
ACAD
1000
DSTYLE
1002
{
1070
    77
1070
     1
1070
   172
1070
     1
1070
    75
1070
     1
1002
}
  0
ENDSEC
  0
SECTION
  2
OBJECTS
  0
DICTIONARY
  5
833
100
AcDbDictionary
  3
ACAD_GROUP
350
834
  3
ACAD_MLINESTYLE
350
835
  0
DICTIONARY
  5
834
102
{ACAD_REACTORS
330
833
102
}
100
AcDbDictionary
  0
DICTIONARY
  5
835
102
{ACAD_REACTORS
330
833
102
}
100
AcDbDictionary
  3
STANDARD
350
836
  0
MLINESTYLE
  5
836
102
{ACAD_REACTORS
330
835
102
}
100
AcDbMlineStyle
  2
STANDARD
 70
     0
  3

 62
     0
 51
90
 52
90
 71
     2
 49
0.5
 62
   256
  6
BYLAYER
 49
-0.5
 62
   256
  6
BYLAYER
  0
ENDSEC
  0
EOF
