  0
SECTION
  2
HEADER
  9
$ACADVER
  1
AC1015
  9
$ACADMAINTVER
 70
     6
  9
$DWGCODEPAGE
  3
ANSI_932
  9
$INSBASE
 10
0.0
 20
0.0
 30
0.0
  9
$EXTMIN
 10
-234.6091848141841
 20
-169.5077421504725
 30
0.0
  9
$EXTMAX
 10
234.6091848141841
 20
181.5077421504724
 30
0.0
  9
$LIMMIN
 10
-234.6091848141841
 20
-169.5077421504725
  9
$LIMMAX
 10
234.6091848141841
 20
181.5077421504724
  9
$ORTHOMODE
 70
     0
  9
$REGENMODE
 70
     1
  9
$FILLMODE
 70
     1
  9
$QTEXTMODE
 70
     0
  9
$MIRRTEXT
 70
     1
  9
$LTSCALE
 40
1.0
  9
$ATTMODE
 70
     1
  9
$TEXTSIZE
 40
2.5
  9
$TRACEWID
 40
1.0
  9
$TEXTSTYLE
  7
Standard
  9
$CLAYER
  8
0
  9
$CELTYPE
  6
ByLayer
  9
$CECOLOR
 62
   256
  9
$CELTSCALE
 40
1.0
  9
$DISPSILH
 70
     0
  9
$DIMSCALE
 40
1.0
  9
$DIMASZ
 40
2.5
  9
$DIMEXO
 40
0.625
  9
$DIMDLI
 40
3.75
  9
$DIMRND
 40
0.0
  9
$DIMDLE
 40
0.0
  9
$DIMEXE
 40
1.25
  9
$DIMTP
 40
0.0
  9
$DIMTM
 40
0.0
  9
$DIMTXT
 40
2.5
  9
$DIMCEN
 40
2.5
  9
$DIMTSZ
 40
0.0
  9
$DIMTOL
 70
     0
  9
$DIMLIM
 70
     0
  9
$DIMTIH
 70
     0
  9
$DIMTOH
 70
     0
  9
$DIMSE1
 70
     0
  9
$DIMSE2
 70
     0
  9
$DIMTAD
 70
     1
  9
$DIMZIN
 70
     8
  9
$DIMBLK
  1
Closed
  9
$DIMASO
 70
     1
  9
$DIMSHO
 70
     1
  9
$DIMPOST
  1

  9
$DIMAPOST
  1

  9
$DIMALT
 70
     0
  9
$DIMALTD
 70
     3
  9
$DIMALTF
 40
0.039370079
  9
$DIMLFAC
 40
1.0
  9
$DIMTOFL
 70
     1
  9
$DIMTVP
 40
0.0
  9
$DIMTIX
 70
     0
  9
$DIMSOXD
 70
     0
  9
$DIMSAH
 70
     0
  9
$DIMBLK1
  1

  9
$DIMBLK2
  1

  9
$DIMSTYLE
  2
DIMSTYLE_FULLSCALE
  9
$DIMCLRD
 70
     0
  9
$DIMCLRE
 70
     0
  9
$DIMCLRT
 70
     0
  9
$DIMTFAC
 40
1.0
  9
$DIMGAP
 40
0.625
  9
$DIMJUST
 70
     0
  9
$DIMSD1
 70
     0
  9
$DIMSD2
 70
     0
  9
$DIMTOLJ
 70
     0
  9
$DIMTZIN
 70
     8
  9
$DIMALTZ
 70
     0
  9
$DIMALTTZ
 70
     0
  9
$DIMUPT
 70
     0
  9
$DIMDEC
 70
     2
  9
$DIMTDEC
 70
     2
  9
$DIMALTU
 70
     2
  9
$DIMALTTD
 70
     3
  9
$DIMTXSTY
  7
Standard
  9
$DIMAUNIT
 70
     0
  9
$DIMADEC
 70
     0
  9
$DIMALTRND
 40
0.0
  9
$DIMAZIN
 70
     0
  9
$DIMDSEP
 70
    44
  9
$DIMATFIT
 70
     3
  9
$DIMFRAC
 70
     0
  9
$DIMLDRBLK
  1
Closed
  9
$DIMLUNIT
 70
     2
  9
$DIMLWD
 70
    -2
  9
$DIMLWE
 70
    -2
  9
$DIMTMOVE
 70
     0
  9
$LUNITS
 70
     2
  9
$LUPREC
 70
     4
  9
$SKETCHINC
 40
1.0
  9
$FILLETRAD
 40
10.0
  9
$AUNITS
 70
     0
  9
$AUPREC
 70
     0
  9
$MENU
  1
.
  9
$ELEVATION
 40
0.0
  9
$PELEVATION
 40
0.0
  9
$THICKNESS
 40
0.0
  9
$LIMCHECK
 70
     0
  9
$CHAMFERA
 40
0.0
  9
$CHAMFERB
 40
0.0
  9
$CHAMFERC
 40
0.0
  9
$CHAMFERD
 40
0.0
  9
$SKPOLY
 70
     0
  9
$TDCREATE
 40
2459195.669680185
  9
$TDUCREATE
 40
2459195.294680185
  9
$TDUPDATE
 40
2459195.669680729
  9
$TDUUPDATE
 40
2459195.294680729
  9
$TDINDWG
 40
0.0000000116
  9
$TDUSRTIMER
 40
0.0000000116
  9
$USRTIMER
 70
     1
  9
$ANGBASE
 50
0.0
  9
$ANGDIR
 70
     0
  9
$PDMODE
 70
     0
  9
$PDSIZE
 40
0.0
  9
$PLINEWID
 40
0.0
  9
$SPLFRAME
 70
     0
  9
$SPLINETYPE
 70
     6
  9
$SPLINESEGS
 70
     8
  9
$HANDSEED
  5
506
  9
$SURFTAB1
 70
     6
  9
$SURFTAB2
 70
     6
  9
$SURFTYPE
 70
     6
  9
$SURFU
 70
     6
  9
$SURFV
 70
     6
  9
$UCSBASE
  2

  9
$UCSNAME
  2

  9
$UCSORG
 10
0.0
 20
0.0
 30
0.0
  9
$UCSXDIR
 10
1.0
 20
0.0
 30
0.0
  9
$UCSYDIR
 10
0.0
 20
1.0
 30
0.0
  9
$UCSORTHOREF
  2

  9
$UCSORTHOVIEW
 70
     0
  9
$UCSORGTOP
 10
0.0
 20
0.0
 30
0.0
  9
$UCSORGBOTTOM
 10
0.0
 20
0.0
 30
0.0
  9
$UCSORGLEFT
 10
0.0
 20
0.0
 30
0.0
  9
$UCSORGRIGHT
 10
0.0
 20
0.0
 30
0.0
  9
$UCSORGFRONT
 10
0.0
 20
0.0
 30
0.0
  9
$UCSORGBACK
 10
0.0
 20
0.0
 30
0.0
  9
$PUCSBASE
  2

  9
$PUCSNAME
  2

  9
$PUCSORG
 10
0.0
 20
0.0
 30
0.0
  9
$PUCSXDIR
 10
1.0
 20
0.0
 30
0.0
  9
$PUCSYDIR
 10
0.0
 20
1.0
 30
0.0
  9
$PUCSORTHOREF
  2

  9
$PUCSORTHOVIEW
 70
     0
  9
$PUCSORGTOP
 10
0.0
 20
0.0
 30
0.0
  9
$PUCSORGBOTTOM
 10
0.0
 20
0.0
 30
0.0
  9
$PUCSORGLEFT
 10
0.0
 20
0.0
 30
0.0
  9
$PUCSORGRIGHT
 10
0.0
 20
0.0
 30
0.0
  9
$PUCSORGFRONT
 10
0.0
 20
0.0
 30
0.0
  9
$PUCSORGBACK
 10
0.0
 20
0.0
 30
0.0
  9
$USERI1
 70
     0
  9
$USERI2
 70
     0
  9
$USERI3
 70
     0
  9
$USERI4
 70
     0
  9
$USERI5
 70
     0
  9
$USERR1
 40
0.0
  9
$USERR2
 40
0.0
  9
$USERR3
 40
0.0
  9
$USERR4
 40
0.0
  9
$USERR5
 40
0.0
  9
$WORLDVIEW
 70
     1
  9
$SHADEDGE
 70
     3
  9
$SHADEDIF
 70
    70
  9
$TILEMODE
 70
     1
  9
$MAXACTVP
 70
    64
  9
$PINSBASE
 10
0.0
 20
0.0
 30
0.0
  9
$PLIMCHECK
 70
     0
  9
$PEXTMIN
 10
1.000000000000000E+20
 20
1.000000000000000E+20
 30
1.000000000000000E+20
  9
$PEXTMAX
 10
-1.000000000000000E+20
 20
-1.000000000000000E+20
 30
-1.000000000000000E+20
  9
$PLIMMIN
 10
-234.6091848141841
 20
-169.5077421504725
  9
$PLIMMAX
 10
234.6091848141841
 20
181.5077421504724
  9
$UNITMODE
 70
     0
  9
$VISRETAIN
 70
     1
  9
$PLINEGEN
 70
     0
  9
$PSLTSCALE
 70
     1
  9
$TREEDEPTH
 70
  3020
  9
$CMLSTYLE
  2
Standard
  9
$CMLJUST
 70
     0
  9
$CMLSCALE
 40
20.0
  9
$PROXYGRAPHICS
 70
     1
  9
$MEASUREMENT
 70
     1
  9
$CELWEIGHT
370
    -1
  9
$ENDCAPS
280
     0
  9
$JOINSTYLE
280
     0
  9
$LWDISPLAY
290
     0
  9
$INSUNITS
 70
     4
  9
$HYPERLINKBASE
  1

  9
$STYLESHEET
  1

  9
$XEDIT
290
     1
  9
$CEPSNTYPE
380
     0
  9
$PSTYLEMODE
290
     1
  9
$FINGERPRINTGUID
  2
{2d126845-09d9-4548-8404-ce8696a41b30}
  9
$VERSIONGUID
  2
{FAEB1C32-E019-11D5-929B-00C0DF256EC4}
  9
$EXTNAMES
290
     1
  9
$PSVPSCALE
 40
0.0
  9
$OLESTARTUP
290
     0
  0
ENDSEC
  0
SECTION
  2
CLASSES
  0
CLASS
  1
ACDBDICTIONARYWDFLT
  2
AcDbDictionaryWithDefault
  3
ObjectDBX Classes
 90
        0
280
     0
281
     0
  0
CLASS
  1
VISUALSTYLE
  2
AcDbVisualStyle
  3
ObjectDBX Classes
 90
     4095
280
     0
281
     0
  0
CLASS
  1
MATERIAL
  2
AcDbMaterial
  3
ObjectDBX Classes
 90
     1153
280
     0
281
     0
  0
CLASS
  1
SCALE
  2
AcDbScale
  3
ObjectDBX Classes
 90
     1153
280
     0
281
     0
  0
CLASS
  1
TABLESTYLE
  2
AcDbTableStyle
  3
ObjectDBX Classes
 90
     4095
280
     0
281
     0
  0
CLASS
  1
MLEADERSTYLE
  2
AcDbMLeaderStyle
  3
ACDB_MLEADERSTYLE_CLASS
 90
     4095
280
     0
281
     0
  0
CLASS
  1
SUN
  2
AcDbSun
  3
SCENEOE
 90
     1153
280
     0
281
     0
  0
CLASS
  1
DICTIONARYVAR
  2
AcDbDictionaryVar
  3
ObjectDBX Classes
 90
        0
280
     0
281
     0
  0
CLASS
  1
ACDBPLACEHOLDER
  2
AcDbPlaceHolder
  3
ObjectDBX Classes
 90
        0
280
     0
281
     0
  0
CLASS
  1
LAYOUT
  2
AcDbLayout
  3
ObjectDBX Classes
 90
        0
280
     0
281
     0
  0
ENDSEC
  0
SECTION
  2
TABLES
  0
TABLE
  2
VPORT
  5
8
102
{ACAD_XDICTIONARY
360
4C4
102
}
330
0
100
AcDbSymbolTable
 70
     1
  0
VPORT
  5
29
330
8
100
AcDbSymbolTableRecord
100
AcDbViewportTableRecord
  2
*Active
 70
     0
 10
0.0
 20
0.0
 11
1.0
 21
1.0
 12
344.1869158878504
 22
148.5
 13
0.0
 23
0.0
 14
10.0
 24
10.0
 15
10.0
 25
10.0
 16
0.0
 26
0.0
 36
1.0
 17
0.0
 27
0.0
 37
0.0
 40
297.0
 41
1.972972972850329
 42
50.0
 43
0.0
 44
0.0
 50
0.0
 51
0.0
 71
     0
 72
   100
 73
     1
 74
     3
 75
     0
 76
     0
 77
     0
 78
     0
281
     0
 65
     1
110
0.0
120
0.0
130
0.0
111
1.0
121
0.0
131
0.0
112
0.0
122
1.0
132
0.0
 79
     0
146
0.0
  0
ENDTAB
  0
TABLE
  2
LTYPE
  5
5
330
0
100
AcDbSymbolTable
 70
     5
  0
LTYPE
  5
14
330
5
100
AcDbSymbolTableRecord
100
AcDbLinetypeTableRecord
  2
ByBlock
 70
     0
  3

 72
    65
 73
     0
 40
0.0
  0
LTYPE
  5
15
330
5
100
AcDbSymbolTableRecord
100
AcDbLinetypeTableRecord
  2
ByLayer
 70
     0
  3

 72
    65
 73
     0
 40
0.0
  0
LTYPE
  5
16
330
5
100
AcDbSymbolTableRecord
100
AcDbLinetypeTableRecord
  2
Continuous
 70
     0
  3
Solid line
 72
    65
 73
     0
 40
0.0
  0
LTYPE
  5
6E
330
5
100
AcDbSymbolTableRecord
100
AcDbLinetypeTableRecord
  2
CONTINOUS
 70
     0
  3
______________________________
 72
    65
 73
     0
 40
0.0
  0
LTYPE
  5
6F
330
5
100
AcDbSymbolTableRecord
100
AcDbLinetypeTableRecord
  2
DASHED
 70
     0
  3
__ __ __ __ __ __ __ __ __ __ __ __ __ __ __ __
 72
    65
 73
     2
 40
4.5
 49
3.0
 74
     0
 49
-1.5
 74
     0
  0
LTYPE
  5
70
330
5
100
AcDbSymbolTableRecord
100
AcDbLinetypeTableRecord
  2
PHANTOM
 70
     0
  3
______  __  __  ______  __  __  _____
 72
    65
 73
     6
 40
15.0
 49
7.5
 74
     0
 49
-1.5
 74
     0
 49
1.5
 74
     0
 49
-1.5
 74
     0
 49
1.5
 74
     0
 49
-1.5
 74
     0
  0
LTYPE
  5
71
330
5
100
AcDbSymbolTableRecord
100
AcDbLinetypeTableRecord
  2
CENTER
 70
     0
  3
____ _ ____ _ ____ _ ____ _ ____ _ ____
 72
    65
 73
     4
 40
12.0
 49
7.5
 74
     0
 49
-1.5
 74
     0
 49
1.5
 74
     0
 49
-1.5
 74
     0
  0
ENDTAB
  0
TABLE
  2
LAYER
  5
2
330
0
100
AcDbSymbolTable
 70
     3
  0
LAYER
  5
10
330
2
100
AcDbSymbolTableRecord
100
AcDbLayerTableRecord
  2
0
 70
     0
 62
     7
  6
Continuous
370
    -3
390
F
  0
LAYER
  5
2CD
330
2
100
AcDbSymbolTableRecord
100
AcDbLayerTableRecord
  2
Defpoints
 70
     0
 62
     7
  6
Continuous
290
     0
370
    -3
390
F
  0
LAYER
  5
4B5
330
2
100
AcDbSymbolTableRecord
100
AcDbLayerTableRecord
  2
VIEW0001
 70
     0
 62
     7
  6
Continuous
370
    -3
390
F
  0
ENDTAB
  0
TABLE
  2
STYLE
  5
3
330
0
100
AcDbSymbolTable
 70
     1
  0
STYLE
  5
11
330
3
100
AcDbSymbolTableRecord
100
AcDbTextStyleTableRecord
  2
Standard
 70
     0
 40
0.0
 41
1.0
 50
0.0
 71
     0
 42
2.5
  3
ROMANS
  4
EXTFONT
  0
ENDTAB
  0
TABLE
  2
VIEW
  5
6
330
0
100
AcDbSymbolTable
 70
     0
  0
ENDTAB
  0
TABLE
  2
UCS
  5
7
330
0
100
AcDbSymbolTable
 70
     0
  0
ENDTAB
  0
TABLE
  2
APPID
  5
9
330
0
100
AcDbSymbolTable
 70
     7
  0
APPID
  5
12
330
9
100
AcDbSymbolTableRecord
100
AcDbRegAppTableRecord
  2
ACAD
 70
     0
  0
APPID
  5
272
330
9
100
AcDbSymbolTableRecord
100
AcDbRegAppTableRecord
  2
ACAD_DSTYLE_DIMJAG
 70
     0
  0
APPID
  5
4C6
330
9
100
AcDbSymbolTableRecord
100
AcDbRegAppTableRecord
  2
ACAD_DSTYLE_DIMJOGGED_JOGANGLE_SYMBOL
 70
     0
  0
APPID
  5
4C7
330
9
100
AcDbSymbolTableRecord
100
AcDbRegAppTableRecord
  2
ACAD_DSTYLE_DIM_LINETYPE
 70
     0
  0
APPID
  5
4C8
330
9
100
AcDbSymbolTableRecord
100
AcDbRegAppTableRecord
  2
ACAD_DSTYLE_DIM_EXT1_LINETYPE
 70
     0
  0
APPID
  5
4C9
330
9
100
AcDbSymbolTableRecord
100
AcDbRegAppTableRecord
  2
ACAD_DSTYLE_DIM_EXT2_LINETYPE
 70
     0
  0
APPID
  5
502
330
9
100
AcDbSymbolTableRecord
100
AcDbRegAppTableRecord
  2
ACAD_MLEADERVER
 70
     0
  0
ENDTAB
  0
TABLE
  2
DIMSTYLE
  5
A
330
0
100
AcDbSymbolTable
 70
     2
100
AcDbDimStyleTable
  0
DIMSTYLE
105
27
330
A
100
AcDbSymbolTableRecord
100
AcDbDimStyleTableRecord
  2
ISO-25
 70
     0
 41
2.5
 42
0.625
 43
3.75
 44
1.25
 73
     0
 74
     0
 77
     1
 78
     8
140
2.5
141
2.5
143
0.03937007874016
147
0.625
171
     3
172
     1
178
     0
271
     2
272
     2
274
     3
278
    44
283
     0
284
     8
340
11
  0
DIMSTYLE
105
26A
102
{ACAD_REACTORS
330
2C6
330
2DA
330
2E7
330
2F4
330
301
330
30E
330
31B
330
328
330
335
330
342
330
34E
330
35C
330
372
330
37E
330
394
330
3A6
330
3CE
330
3DC
330
3E9
330
3F6
330
403
330
410
330
41D
330
42B
330
439
330
446
330
453
330
472
330
47E
330
494
330
4A1
102
}
330
A
100
AcDbSymbolTableRecord
100
AcDbDimStyleTableRecord
  2
DIMSTYLE_FULLSCALE
 70
     0
 41
2.5
 42
0.625
 43
3.75
 44
1.25
 73
     0
 74
     0
 77
     1
 78
     8
140
2.5
141
2.5
143
0.039370079
147
0.625
171
     3
172
     1
178
     0
271
     2
272
     2
274
     3
278
    44
283
     0
284
     8
340
11
341
26B
342
26B
1001
ACAD_DSTYLE_DIMJAG
1070
   388
1040
1.5
1001
ACAD_DSTYLE_DIMJOGGED_JOGANGLE_SYMBOL
1070
   384
1040
1.570796326794897
1001
ACAD_DSTYLE_DIM_LINETYPE
1070
   380
1005
14
1001
ACAD_DSTYLE_DIM_EXT1_LINETYPE
1070
   381
1005
14
1001
ACAD_DSTYLE_DIM_EXT2_LINETYPE
1070
   382
1005
14
  0
ENDTAB
  0
TABLE
  2
BLOCK_RECORD
  5
1
330
0
100
AcDbSymbolTable
 70
    48
  0
BLOCK_RECORD
  5
1F
330
1
100
AcDbSymbolTableRecord
100
AcDbBlockTableRecord
  2
*Model_Space
340
22
  0
BLOCK_RECORD
  5
1B
330
1
100
AcDbSymbolTableRecord
100
AcDbBlockTableRecord
  2
*Paper_Space
340
1E
  0
BLOCK_RECORD
  5
23
330
1
100
AcDbSymbolTableRecord
100
AcDbBlockTableRecord
  2
*Paper_Space0
340
26
  0
BLOCK_RECORD
  5
72
330
1
100
AcDbSymbolTableRecord
100
AcDbBlockTableRecord
  2
USER0001
340
0
102
{BLKREFS
331
2BE
331
2BF
102
}
  0
BLOCK_RECORD
  5
75
330
1
100
AcDbSymbolTableRecord
100
AcDbBlockTableRecord
  2
DTL0001
340
0
102
{BLKREFS
331
2C0
102
}
  0
BLOCK_RECORD
  5
78
330
1
100
AcDbSymbolTableRecord
100
AcDbBlockTableRecord
  2
DTL0002
340
0
102
{BLKREFS
331
2C1
102
}
  0
BLOCK_RECORD
  5
7B
330
1
100
AcDbSymbolTableRecord
100
AcDbBlockTableRecord
  2
DTL0003
340
0
102
{BLKREFS
331
2C2
102
}
  0
BLOCK_RECORD
  5
7E
330
1
100
AcDbSymbolTableRecord
100
AcDbBlockTableRecord
  2
DTL0004
340
0
102
{BLKREFS
331
2C3
102
}
  0
BLOCK_RECORD
  5
81
330
1
100
AcDbSymbolTableRecord
100
AcDbBlockTableRecord
  2
DTL0005
340
0
102
{BLKREFS
331
2C4
102
}
  0
BLOCK_RECORD
  5
84
330
1
100
AcDbSymbolTableRecord
100
AcDbBlockTableRecord
  2
DTL0006
340
0
102
{BLKREFS
331
2C5
102
}
  0
BLOCK_RECORD
  5
26B
330
1
100
AcDbSymbolTableRecord
100
AcDbBlockTableRecord
  2
_Closed
340
0
  0
BLOCK_RECORD
  5
2C7
330
1
100
AcDbSymbolTableRecord
100
AcDbBlockTableRecord
  2
_Open
340
0
102
{BLKREFS
331
2D5
331
2D4
331
2E2
331
2E1
331
2EF
331
2EE
331
2FC
331
2FB
331
309
331
308
331
316
331
315
331
323
331
322
331
330
331
32F
331
33D
331
33C
331
349
331
348
331
357
331
356
331
364
331
363
331
379
331
378
331
0
331
0
331
0
331
0
331
3AE
331
3AD
331
3D7
331
3D6
331
3E4
331
3E3
331
3F1
331
3F0
331
3FE
331
3FD
331
40B
331
40A
331
418
331
417
331
426
331
425
331
434
331
433
331
441
331
440
331
44E
331
44D
331
45B
331
45A
331
479
331
478
331
486
331
485
331
49C
331
49B
331
0
331
0
102
}
  0
BLOCK_RECORD
  5
2CE
330
1
100
AcDbSymbolTableRecord
100
AcDbBlockTableRecord
  2
*D10
340
0
  0
BLOCK_RECORD
  5
2DB
330
1
100
AcDbSymbolTableRecord
100
AcDbBlockTableRecord
  2
*D11
340
0
  0
BLOCK_RECORD
  5
2E8
330
1
100
AcDbSymbolTableRecord
100
AcDbBlockTableRecord
  2
*D12
340
0
  0
BLOCK_RECORD
  5
2F5
330
1
100
AcDbSymbolTableRecord
100
AcDbBlockTableRecord
  2
*D13
340
0
  0
BLOCK_RECORD
  5
302
330
1
100
AcDbSymbolTableRecord
100
AcDbBlockTableRecord
  2
*D14
340
0
  0
BLOCK_RECORD
  5
30F
330
1
100
AcDbSymbolTableRecord
100
AcDbBlockTableRecord
  2
*D15
340
0
  0
BLOCK_RECORD
  5
31C
330
1
100
AcDbSymbolTableRecord
100
AcDbBlockTableRecord
  2
*D16
340
0
  0
BLOCK_RECORD
  5
329
330
1
100
AcDbSymbolTableRecord
100
AcDbBlockTableRecord
  2
*D17
340
0
  0
BLOCK_RECORD
  5
336
330
1
100
AcDbSymbolTableRecord
100
AcDbBlockTableRecord
  2
*D18
340
0
  0
BLOCK_RECORD
  5
343
330
1
100
AcDbSymbolTableRecord
100
AcDbBlockTableRecord
  2
*D19
340
0
  0
BLOCK_RECORD
  5
34F
330
1
100
AcDbSymbolTableRecord
100
AcDbBlockTableRecord
  2
*D20
340
0
  0
BLOCK_RECORD
  5
35D
330
1
100
AcDbSymbolTableRecord
100
AcDbBlockTableRecord
  2
*D21
340
0
  0
BLOCK_RECORD
  5
369
330
1
100
AcDbSymbolTableRecord
100
AcDbBlockTableRecord
  2
SYM0001
340
0
102
{BLKREFS
331
36F
102
}
  0
BLOCK_RECORD
  5
373
330
1
100
AcDbSymbolTableRecord
100
AcDbBlockTableRecord
  2
*D23
340
0
  0
BLOCK_RECORD
  5
37F
330
1
100
AcDbSymbolTableRecord
100
AcDbBlockTableRecord
  2
*D24
340
0
  0
BLOCK_RECORD
  5
395
330
1
100
AcDbSymbolTableRecord
100
AcDbBlockTableRecord
  2
*D25
340
0
  0
BLOCK_RECORD
  5
3A7
330
1
100
AcDbSymbolTableRecord
100
AcDbBlockTableRecord
  2
*D26
340
0
  0
BLOCK_RECORD
  5
3B3
330
1
100
AcDbSymbolTableRecord
100
AcDbBlockTableRecord
  2
SYM0002
340
0
102
{BLKREFS
331
3B9
102
}
  0
BLOCK_RECORD
  5
3BC
330
1
100
AcDbSymbolTableRecord
100
AcDbBlockTableRecord
  2
SYM0003
340
0
102
{BLKREFS
331
3C2
102
}
  0
BLOCK_RECORD
  5
3C5
330
1
100
AcDbSymbolTableRecord
100
AcDbBlockTableRecord
  2
SYM0004
340
0
102
{BLKREFS
331
3CB
102
}
  0
BLOCK_RECORD
  5
3CF
330
1
100
AcDbSymbolTableRecord
100
AcDbBlockTableRecord
  2
*D30
340
0
  0
BLOCK_RECORD
  5
3DD
330
1
100
AcDbSymbolTableRecord
100
AcDbBlockTableRecord
  2
*D31
340
0
  0
BLOCK_RECORD
  5
3EA
330
1
100
AcDbSymbolTableRecord
100
AcDbBlockTableRecord
  2
*D32
340
0
  0
BLOCK_RECORD
  5
3F7
330
1
100
AcDbSymbolTableRecord
100
AcDbBlockTableRecord
  2
*D33
340
0
  0
BLOCK_RECORD
  5
404
330
1
100
AcDbSymbolTableRecord
100
AcDbBlockTableRecord
  2
*D34
340
0
  0
BLOCK_RECORD
  5
411
330
1
100
AcDbSymbolTableRecord
100
AcDbBlockTableRecord
  2
*D35
340
0
  0
BLOCK_RECORD
  5
41E
330
1
100
AcDbSymbolTableRecord
100
AcDbBlockTableRecord
  2
*D36
340
0
  0
BLOCK_RECORD
  5
42C
330
1
100
AcDbSymbolTableRecord
100
AcDbBlockTableRecord
  2
*D37
340
0
  0
BLOCK_RECORD
  5
43A
330
1
100
AcDbSymbolTableRecord
100
AcDbBlockTableRecord
  2
*D38
340
0
  0
BLOCK_RECORD
  5
447
330
1
100
AcDbSymbolTableRecord
100
AcDbBlockTableRecord
  2
*D39
340
0
  0
BLOCK_RECORD
  5
454
330
1
100
AcDbSymbolTableRecord
100
AcDbBlockTableRecord
  2
*D40
340
0
  0
BLOCK_RECORD
  5
460
330
1
100
AcDbSymbolTableRecord
100
AcDbBlockTableRecord
  2
SYM0005
340
0
102
{BLKREFS
331
466
102
}
  0
BLOCK_RECORD
  5
469
330
1
100
AcDbSymbolTableRecord
100
AcDbBlockTableRecord
  2
SYM0006
340
0
102
{BLKREFS
331
46F
102
}
  0
BLOCK_RECORD
  5
473
330
1
100
AcDbSymbolTableRecord
100
AcDbBlockTableRecord
  2
*D43
340
0
  0
BLOCK_RECORD
  5
47F
330
1
100
AcDbSymbolTableRecord
100
AcDbBlockTableRecord
  2
*D44
340
0
  0
BLOCK_RECORD
  5
48B
330
1
100
AcDbSymbolTableRecord
100
AcDbBlockTableRecord
  2
SYM0007
340
0
102
{BLKREFS
331
491
102
}
  0
BLOCK_RECORD
  5
495
330
1
100
AcDbSymbolTableRecord
100
AcDbBlockTableRecord
  2
*D46
340
0
  0
BLOCK_RECORD
  5
4A2
330
1
100
AcDbSymbolTableRecord
100
AcDbBlockTableRecord
  2
*D47
340
0
  0
ENDTAB
  0
ENDSEC
  0
SECTION
  2
BLOCKS
  0
BLOCK
  5
20
330
1F
100
AcDbEntity
  8
0
100
AcDbBlockBegin
  2
*Model_Space
 70
     0
 10
0.0
 20
0.0
 30
0.0
  3
*Model_Space
  1

  0
ENDBLK
  5
21
330
1F
100
AcDbEntity
  8
0
100
AcDbBlockEnd
  0
BLOCK
  5
1C
330
1B
100
AcDbEntity
 67
     1
  8
0
100
AcDbBlockBegin
  2
*Paper_Space
 70
     0
 10
0.0
 20
0.0
 30
0.0
  3
*Paper_Space
  1

  0
ENDBLK
  5
1D
330
1B
100
AcDbEntity
 67
     1
  8
0
100
AcDbBlockEnd
  0
BLOCK
  5
24
330
23
100
AcDbEntity
  8
0
100
AcDbBlockBegin
  2
*Paper_Space0
 70
     0
 10
0.0
 20
0.0
 30
0.0
  3
*Paper_Space0
  1

  0
ENDBLK
  5
25
330
23
100
AcDbEntity
  8
0
100
AcDbBlockEnd
  0
BLOCK
  5
73
330
72
100
AcDbEntity
  8
0
100
AcDbBlockBegin
  2
USER0001
 70
     0
 10
0.0
 20
0.0
 30
0.0
  3
USER0001
  1

  0
POINT
  5
87
330
72
100
AcDbEntity
  8
0
 62
     0
100
AcDbPoint
 10
0.0
 20
0.0
 30
0.0
  0
POINT
  5
88
330
72
100
AcDbEntity
  8
0
 62
     0
100
AcDbPoint
 10
-4.0
 20
4.0
 30
0.0
  0
POINT
  5
89
330
72
100
AcDbEntity
  8
0
 62
     0
100
AcDbPoint
 10
4.0
 20
4.0
 30
0.0
  0
POINT
  5
8A
330
72
100
AcDbEntity
  8
0
 62
     0
100
AcDbPoint
 10
-1.0
 20
8.0
 30
0.0
  0
POINT
  5
8B
330
72
100
AcDbEntity
  8
0
 62
     0
100
AcDbPoint
 10
1.0
 20
8.0
 30
0.0
  0
POINT
  5
8C
330
72
100
AcDbEntity
  8
0
 62
     0
100
AcDbPoint
 10
-1.0
 20
4.0
 30
0.0
  0
POINT
  5
8D
330
72
100
AcDbEntity
  8
0
 62
     0
100
AcDbPoint
 10
1.0
 20
4.0
 30
0.0
  0
LINE
  5
8E
330
72
100
AcDbEntity
  8
0
  6
Continuous
 62
     0
100
AcDbLine
 10
-1.0
 20
8.0
 30
0.0
 11
-1.0
 21
4.0
 31
0.0
  0
LINE
  5
8F
330
72
100
AcDbEntity
  8
0
  6
Continuous
 62
     0
100
AcDbLine
 10
1.0
 20
8.0
 30
0.0
 11
1.0
 21
4.0
 31
0.0
  0
LINE
  5
90
330
72
100
AcDbEntity
  8
0
  6
Continuous
 62
     0
100
AcDbLine
 10
-0.000002209412966
 20
0.000021884178721
 30
0.0
 11
3.999985524523556
 21
4.000009618115243
 31
0.0
  0
LINE
  5
91
330
72
100
AcDbEntity
  8
0
  6
Continuous
 62
     0
100
AcDbLine
 10
-3.999990431334826
 20
4.000010106100582
 30
0.0
 11
-0.000002209412966
 21
0.000021884178721
 31
0.0
  0
LINE
  5
92
330
72
100
AcDbEntity
  8
0
  6
Continuous
 62
     0
100
AcDbLine
 10
-4.0
 20
4.0
 30
0.0
 11
-1.0
 21
4.0
 31
0.0
  0
LINE
  5
93
330
72
100
AcDbEntity
  8
0
  6
Continuous
 62
     0
100
AcDbLine
 10
-1.0
 20
8.0
 30
0.0
 11
1.0
 21
8.0
 31
0.0
  0
LINE
  5
94
330
72
100
AcDbEntity
  8
0
  6
Continuous
 62
     0
100
AcDbLine
 10
1.0
 20
4.0
 30
0.0
 11
4.0
 21
4.0
 31
0.0
  0
ENDBLK
  5
74
330
72
100
AcDbEntity
  8
0
100
AcDbBlockEnd
  0
BLOCK
  5
76
330
75
100
AcDbEntity
  8
0
100
AcDbBlockBegin
  2
DTL0001
 70
     0
 10
0.0
 20
0.0
 30
0.0
  3
DTL0001
  1

  0
POINT
  5
95
330
75
100
AcDbEntity
  8
0
 62
     0
100
AcDbPoint
 10
0.0
 20
0.0
 30
0.0
  0
LINE
  5
96
330
75
100
AcDbEntity
  8
0
  6
CENTER
 62
     4
100
AcDbLine
 10
-27.5
 20
3.501496154451274
 30
0.0
 11
-27.5
 21
-102.9099219388803
 31
0.0
  0
LINE
  5
97
330
75
100
AcDbEntity
  8
0
  6
CENTER
 62
     4
100
AcDbLine
 10
0.0
 20
3.501496154451274
 30
0.0
 11
0.0
 21
-89.4680018872477
 31
0.0
  0
LINE
  5
98
330
75
100
AcDbEntity
  8
0
  6
CENTER
 62
     4
100
AcDbLine
 10
-24.5
 20
-17.43255634307862
 30
0.0
 11
-24.5
 21
-30.70210285186768
 31
0.0
  0
LINE
  5
99
330
75
100
AcDbEntity
  8
0
  6
CENTER
 62
     4
100
AcDbLine
 10
27.5
 20
3.501496154451274
 30
0.0
 11
27.5
 21
-102.9099219388803
 31
0.0
  0
LINE
  5
9A
330
75
100
AcDbEntity
  8
0
  6
DASHED
 62
     0
100
AcDbLine
 10
-36.49999929200673
 20
-19.17938804581363
 30
0.0
 11
-42.49190283938743
 21
-18.97014617300517
 31
0.0
  0
LINE
  5
9B
330
75
100
AcDbEntity
  8
0
  6
DASHED
 62
     0
100
AcDbLine
 10
-35.50000159680636
 20
-28.20434045768535
 30
0.0
 11
-41.92883745352984
 21
-28.42884034223824
 31
0.0
  0
LINE
  5
9C
330
75
100
AcDbEntity
  8
0
  6
CENTER
 62
     4
100
AcDbLine
 10
-24.5
 20
-57.36434192657471
 30
0.0
 11
-24.5
 21
-70.62472171783448
 31
0.0
  0
LINE
  5
9D
330
75
100
AcDbEntity
  8
0
  6
DASHED
 62
     0
100
AcDbLine
 10
-42.49999998913975
 20
-68.99999965585491
 30
0.0
 11
-41.92883803641249
 21
-68.42883770312764
 31
0.0
  0
LINE
  5
9E
330
75
100
AcDbEntity
  8
0
  6
DASHED
 62
     0
100
AcDbLine
 10
-42.49999998913984
 20
-58.99999965841019
 30
0.0
 11
-41.92883668771342
 21
-59.57116295983661
 31
0.0
  0
LINE
  5
9F
330
75
100
AcDbEntity
  8
0
  6
DASHED
 62
     0
100
AcDbLine
 10
-36.50000171410478
 20
-59.17938946989412
 30
0.0
 11
-35.50000045565416
 21
-59.79566544406814
 31
0.0
  0
LINE
  5
A0
330
75
100
AcDbEntity
  8
0
  6
DASHED
 62
     0
100
AcDbLine
 10
-36.5
 20
-59.17938823699951
 30
0.0
 11
-36.5
 21
-68.82061214447022
 31
0.0
  0
LINE
  5
A1
330
75
100
AcDbEntity
  8
0
  6
DASHED
 62
     0
100
AcDbLine
 10
-36.50000182191167
 20
-59.17938815346798
 30
0.0
 11
-42.49190536929236
 21
-58.97014628065952
 31
0.0
  0
LINE
  5
A2
330
75
100
AcDbEntity
  8
0
  6
DASHED
 62
     0
100
AcDbLine
 10
-41.92884445190401
 20
-28.42883614741244
 30
0.0
 11
-41.92884445190401
 21
-19.57116250239291
 31
0.0
  0
LINE
  5
A3
330
75
100
AcDbEntity
  8
0
  6
DASHED
 62
     0
100
AcDbLine
 10
-36.50000136990122
 20
-68.82061302432228
 30
0.0
 11
-42.47972438409211
 21
-69.02942954355883
 31
0.0
  0
LINE
  5
A4
330
75
100
AcDbEntity
  8
0
  6
DASHED
 62
     0
100
AcDbLine
 10
-36.49999537012041
 20
-28.82061459041893
 30
0.0
 11
-35.49999532949243
 21
-28.2043393667588
 31
0.0
  0
LINE
  5
A5
330
75
100
AcDbEntity
  8
0
  6
DASHED
 62
     0
100
AcDbLine
 10
-36.5
 20
-19.17939014434815
 30
0.0
 11
-36.5
 21
-28.82061023712158
 31
0.0
  0
LINE
  5
A6
330
75
100
AcDbEntity
  8
0
  6
Continuous
 62
     0
100
AcDbLine
 10
-11.05000019073486
 20
-74.7229024887085
 30
0.0
 11
-11.05000019073486
 21
-87.00000019073487
 31
0.0
  0
LINE
  5
A7
330
75
100
AcDbEntity
  8
0
  6
Continuous
 62
     0
100
AcDbLine
 10
-12.0
 20
-75.30842227935791
 30
0.0
 11
-12.0
 21
-87.00000019073487
 31
0.0
  0
LINE
  5
A8
330
75
100
AcDbEntity
  8
0
  6
Continuous
 62
     0
100
AcDbLine
 10
-12.0
 20
-12.00000019073487
 30
0.0
 11
-12.0
 21
-26.69158191680908
 31
0.0
  0
LINE
  5
A9
330
75
100
AcDbEntity
  8
0
  6
Continuous
 62
     0
100
AcDbLine
 10
-11.05000019073486
 20
-34.72290058135987
 30
0.0
 11
-11.05000019073486
 21
-67.27709789276123
 31
0.0
  0
LINE
  5
AA
330
75
100
AcDbEntity
  8
0
  6
Continuous
 62
     0
100
AcDbLine
 10
-11.05000019073486
 20
-12.00000019073487
 30
0.0
 11
-11.05000019073486
 21
-27.27709980010987
 31
0.0
  0
LINE
  5
AB
330
75
100
AcDbEntity
  8
0
  6
CENTER
 62
     4
100
AcDbLine
 10
14.0
 20
-64.9932710647583
 30
0.0
 11
14.0
 21
-77.00672931671143
 31
0.0
  0
LINE
  5
AC
330
75
100
AcDbEntity
  8
0
  6
CENTER
 62
     4
100
AcDbLine
 10
19.5
 20
-70.94327182769776
 30
0.0
 11
7.836284637451172
 21
-70.94327182769776
 31
0.0
  0
LINE
  5
AD
330
75
100
AcDbEntity
  8
0
  6
Continuous
 62
     0
100
AcDbLine
 10
-2.299999952316284
 20
-12.00000019073487
 30
0.0
 11
-2.299999952316284
 21
-87.00000019073487
 31
0.0
  0
LINE
  5
AE
330
75
100
AcDbEntity
  8
0
  6
DASHED
 62
     0
100
AcDbLine
 10
-42.49999998913981
 20
-18.99999967118676
 30
0.0
 11
-41.92883668771339
 21
-19.57116297261317
 31
0.0
  0
LINE
  5
AF
330
75
100
AcDbEntity
  8
0
  6
CENTER
 62
     4
100
AcDbLine
 10
-8.5
 20
-71.00000019073487
 30
0.0
 11
-20.16371536254883
 21
-71.00000019073487
 31
0.0
  0
LINE
  5
B0
330
75
100
AcDbEntity
  8
0
  6
CENTER
 62
     4
100
AcDbLine
 10
-14.0
 20
-25.05000324249268
 30
0.0
 11
-14.0
 21
-37.8156702041626
 31
0.0
  0
LINE
  5
B1
330
75
100
AcDbEntity
  8
0
  6
Continuous
 62
     0
100
AcDbLine
 10
-5.699999809265137
 20
-12.00000019073487
 30
0.0
 11
-5.699999809265137
 21
-87.00000019073487
 31
0.0
  0
LINE
  5
B2
330
75
100
AcDbEntity
  8
0
  6
CENTER
 62
     4
100
AcDbLine
 10
-14.0
 20
-65.04999942779541
 30
0.0
 11
-14.0
 21
-77.06345767974854
 31
0.0
  0
LINE
  5
B3
330
75
100
AcDbEntity
  8
0
  6
Continuous
 62
     0
100
AcDbLine
 10
-12.0
 20
-35.30842227935791
 30
0.0
 11
-12.0
 21
-66.69157810211182
 31
0.0
  0
LINE
  5
B4
330
75
100
AcDbEntity
  8
0
  6
DASHED
 62
     0
100
AcDbLine
 10
-35.50000093451135
 20
-19.79566418403864
 30
0.0
 11
-41.92883679123483
 21
-19.57116429948575
 31
0.0
  0
LINE
  5
B5
330
75
100
AcDbEntity
  8
0
  6
Continuous
 62
     0
100
AcDbLine
 10
21.5
 20
-10.00000019073487
 30
0.0
 11
21.5
 21
-12.00000019073487
 31
0.0
  0
LINE
  5
B6
330
75
100
AcDbEntity
  8
0
  6
Continuous
 62
     0
100
AcDbLine
 10
33.5
 20
-10.00000019073487
 30
0.0
 11
33.5
 21
-12.00000019073487
 31
0.0
  0
LINE
  5
B7
330
75
100
AcDbEntity
  8
0
  6
DASHED
 62
     0
100
AcDbLine
 10
-36.49999995430181
 20
-28.82061659591037
 30
0.0
 11
-42.47972296849269
 21
-29.02943311514692
 31
0.0
  0
LINE
  5
B8
330
75
100
AcDbEntity
  8
0
  6
CENTER
 62
     4
100
AcDbLine
 10
14.0
 20
-24.9932710647583
 30
0.0
 11
14.0
 21
-37.00672931671143
 31
0.0
  0
LINE
  5
B9
330
75
100
AcDbEntity
  8
0
  6
CENTER
 62
     4
100
AcDbLine
 10
19.5
 20
-30.94327182769776
 30
0.0
 11
7.836284637451172
 21
-30.94327182769776
 31
0.0
  0
LINE
  5
BA
330
75
100
AcDbEntity
  8
0
  6
Continuous
 62
     0
100
AcDbLine
 10
2.299999952316284
 20
-12.00000019073487
 30
0.0
 11
2.299999952316284
 21
-87.00000019073487
 31
0.0
  0
LINE
  5
BB
330
75
100
AcDbEntity
  8
0
  6
Continuous
 62
     0
100
AcDbLine
 10
11.0
 20
-16.69999713897705
 30
0.0
 11
11.0
 21
-16.69999713897705
 31
0.0
  0
LINE
  5
BC
330
75
100
AcDbEntity
  8
0
  6
PHANTOM
 62
     0
100
AcDbLine
 10
-21.5
 20
-101.0000001907349
 30
0.0
 11
-33.5
 21
-101.0000001907349
 31
0.0
  0
LINE
  5
BD
330
75
100
AcDbEntity
  8
0
  6
PHANTOM
 62
     0
100
AcDbLine
 10
21.5
 20
-87.00000019073487
 30
0.0
 11
21.5
 21
-101.0000001907349
 31
0.0
  0
LINE
  5
BE
330
75
100
AcDbEntity
  8
0
  6
PHANTOM
 62
     0
100
AcDbLine
 10
33.5
 20
-101.0000001907349
 30
0.0
 11
21.5
 21
-101.0000001907349
 31
0.0
  0
LINE
  5
BF
330
75
100
AcDbEntity
  8
0
  6
PHANTOM
 62
     0
100
AcDbLine
 10
33.5
 20
-87.00000019073487
 30
0.0
 11
33.5
 21
-101.0000001907349
 31
0.0
  0
LINE
  5
C0
330
75
100
AcDbEntity
  8
0
  6
Continuous
 62
     0
100
AcDbLine
 10
-5.0
 20
-10.00000019073487
 30
0.0
 11
-5.0
 21
-12.00000019073487
 31
0.0
  0
LINE
  5
C1
330
75
100
AcDbEntity
  8
0
  6
Continuous
 62
     0
100
AcDbLine
 10
5.0
 20
-10.00000019073487
 30
0.0
 11
5.0
 21
-12.00000019073487
 31
0.0
  0
LINE
  5
C2
330
75
100
AcDbEntity
  8
0
  6
Continuous
 62
     0
100
AcDbLine
 10
-21.5
 20
-10.00000019073487
 30
0.0
 11
-21.5
 21
-12.00000019073487
 31
0.0
  0
LINE
  5
C3
330
75
100
AcDbEntity
  8
0
  6
Continuous
 62
     0
100
AcDbLine
 10
-33.5
 20
-10.00000019073487
 30
0.0
 11
-33.5
 21
-12.00000019073487
 31
0.0
  0
LINE
  5
C4
330
75
100
AcDbEntity
  8
0
  6
Continuous
 62
     0
100
AcDbLine
 10
-36.00000106976014
 20
-9.500000190096133
 30
0.0
 11
-35.50000053040824
 21
-10.00000072944803
 31
0.0
  0
LINE
  5
C5
330
75
100
AcDbEntity
  8
0
  6
Continuous
 62
     0
100
AcDbLine
 10
-35.49999918170918
 20
-0.000000678004128
 30
0.0
 11
-35.99999972106107
 21
-0.500001217356022
 31
0.0
  0
LINE
  5
C6
330
75
100
AcDbEntity
  8
0
  6
Continuous
 62
     0
100
AcDbLine
 10
-35.5
 20
-10.00000019073487
 30
0.0
 11
35.50000106912137
 21
-10.00000019073487
 31
0.0
  0
LINE
  5
C7
330
75
100
AcDbEntity
  8
0
  6
Continuous
 62
     0
100
AcDbLine
 10
-35.5
 20
0.0
 30
0.0
 11
35.5
 21
0.0
 31
0.0
  0
LINE
  5
C8
330
75
100
AcDbEntity
  8
0
  6
Continuous
 62
     0
100
AcDbLine
 10
-36.0
 20
-0.5
 30
0.0
 11
-36.0
 21
-9.500000190734866
 31
0.0
  0
LINE
  5
C9
330
75
100
AcDbEntity
  8
0
  6
Continuous
 62
     0
100
AcDbLine
 10
36.00000106976017
 20
-9.500000190096038
 30
0.0
 11
35.50000053040828
 21
-10.00000072944793
 31
0.0
  0
LINE
  5
CA
330
75
100
AcDbEntity
  8
0
  6
Continuous
 62
     0
100
AcDbLine
 10
35.49999918170921
 20
-0.000000678004195
 30
0.0
 11
35.9999997210611
 21
-0.50000121735609
 31
0.0
  0
LINE
  5
CB
330
75
100
AcDbEntity
  8
0
  6
PHANTOM
 62
     0
100
AcDbLine
 10
-21.5
 20
-87.00000019073487
 30
0.0
 11
-21.5
 21
-101.0000001907349
 31
0.0
  0
LINE
  5
CC
330
75
100
AcDbEntity
  8
0
  6
Continuous
 62
     0
100
AcDbLine
 10
42.5
 20
-87.00000019073487
 30
0.0
 11
42.5
 21
-12.00000019073487
 31
0.0
  0
LINE
  5
CD
330
75
100
AcDbEntity
  8
0
  6
Continuous
 62
     0
100
AcDbLine
 10
-42.5
 20
-87.00000019073487
 30
0.0
 11
-42.5
 21
-12.00000019073487
 31
0.0
  0
LINE
  5
CE
330
75
100
AcDbEntity
  8
0
  6
Continuous
 62
     0
100
AcDbLine
 10
42.5
 20
-87.00000019073487
 30
0.0
 11
-42.5
 21
-87.00000019073487
 31
0.0
  0
LINE
  5
CF
330
75
100
AcDbEntity
  8
0
  6
Continuous
 62
     0
100
AcDbLine
 10
42.5
 20
-12.00000019073487
 30
0.0
 11
-42.5
 21
-12.00000019073487
 31
0.0
  0
LINE
  5
D0
330
75
100
AcDbEntity
  8
0
  6
CENTER
 62
     4
100
AcDbLine
 10
-7.714970111846924
 20
-31.00000019073487
 30
0.0
 11
-20.84771347045898
 21
-31.00000019073487
 31
0.0
  0
LINE
  5
D1
330
75
100
AcDbEntity
  8
0
  6
CENTER
 62
     4
100
AcDbLine
 10
-17.68408871337999
 20
-24.00000019073487
 30
0.0
 11
-45.11640089407354
 21
-24.00000019073487
 31
0.0
  0
LINE
  5
D2
330
75
100
AcDbEntity
  8
0
  6
DASHED
 62
     0
100
AcDbLine
 10
-41.92884063720675
 20
-68.42883805476147
 30
0.0
 11
-41.92884063720675
 21
-59.57116440974194
 31
0.0
  0
LINE
  5
D3
330
75
100
AcDbEntity
  8
0
  6
DASHED
 62
     0
100
AcDbLine
 10
-36.49999933865249
 20
-68.82061282707177
 30
0.0
 11
-35.49999808020188
 21
-68.20433685289775
 31
0.0
  0
LINE
  5
D4
330
75
100
AcDbEntity
  8
0
  6
DASHED
 62
     0
100
AcDbLine
 10
-35.5
 20
-59.79566402435303
 30
0.0
 11
-35.5
 21
-68.20433826446533
 31
0.0
  0
LINE
  5
D5
330
75
100
AcDbEntity
  8
0
  6
CENTER
 62
     4
100
AcDbLine
 10
-17.64447349381231
 20
-64.00000019073487
 30
0.0
 11
-44.97409796324939
 21
-64.00000019073487
 31
0.0
  0
LINE
  5
D6
330
75
100
AcDbEntity
  8
0
  6
DASHED
 62
     0
100
AcDbLine
 10
-35.4999996520429
 20
-59.79566442482407
 30
0.0
 11
-41.92883550876638
 21
-59.57116454027118
 31
0.0
  0
LINE
  5
D7
330
75
100
AcDbEntity
  8
0
  6
DASHED
 62
     0
100
AcDbLine
 10
-35.49999920003249
 20
-68.20433675296638
 30
0.0
 11
-41.92883886912943
 21
-68.42883677065028
 31
0.0
  0
LINE
  5
D8
330
75
100
AcDbEntity
  8
0
  6
DASHED
 62
     0
100
AcDbLine
 10
-42.49999998913988
 20
-28.99999966863138
 30
0.0
 11
-41.92883803641261
 21
-28.42883771590411
 31
0.0
  0
LINE
  5
D9
330
75
100
AcDbEntity
  8
0
  6
DASHED
 62
     0
100
AcDbLine
 10
-36.50000558823498
 20
-19.17939017118798
 30
0.0
 11
-35.50000108225733
 21
-19.79566814673237
 31
0.0
  0
LINE
  5
DA
330
75
100
AcDbEntity
  8
0
  6
DASHED
 62
     0
100
AcDbLine
 10
-35.5
 20
-19.7956621170044
 30
0.0
 11
-35.5
 21
-28.20433826446533
 31
0.0
  0
LINE
  5
DB
330
75
100
AcDbEntity
  8
0
  6
Continuous
 62
     0
100
AcDbLine
 10
36.0
 20
-0.5
 30
0.0
 11
36.0
 21
-9.500000190734866
 31
0.0
  0
LINE
  5
DC
330
75
100
AcDbEntity
  8
0
  6
Continuous
 62
     0
100
AcDbLine
 10
11.05000019073486
 20
-12.00000019073487
 30
0.0
 11
11.05000019073486
 21
-27.27709980010987
 31
0.0
  0
LINE
  5
DD
330
75
100
AcDbEntity
  8
0
  6
Continuous
 62
     0
100
AcDbLine
 10
12.0
 20
-35.30842227935791
 30
0.0
 11
12.0
 21
-66.69157810211182
 31
0.0
  0
LINE
  5
DE
330
75
100
AcDbEntity
  8
0
  6
Continuous
 62
     0
100
AcDbLine
 10
12.0
 20
-12.00000019073487
 30
0.0
 11
12.0
 21
-26.69158191680908
 31
0.0
  0
LINE
  5
DF
330
75
100
AcDbEntity
  8
0
  6
Continuous
 62
     0
100
AcDbLine
 10
12.0
 20
-75.30842227935791
 30
0.0
 11
12.0
 21
-87.00000019073487
 31
0.0
  0
LINE
  5
E0
330
75
100
AcDbEntity
  8
0
  6
Continuous
 62
     0
100
AcDbLine
 10
11.05000019073486
 20
-74.7229024887085
 30
0.0
 11
11.05000019073486
 21
-87.00000019073487
 31
0.0
  0
LINE
  5
E1
330
75
100
AcDbEntity
  8
0
  6
Continuous
 62
     0
100
AcDbLine
 10
11.05000019073486
 20
-34.72290058135987
 30
0.0
 11
11.05000019073486
 21
-67.27709789276123
 31
0.0
  0
LINE
  5
E2
330
75
100
AcDbEntity
  8
0
  6
Continuous
 62
     0
100
AcDbLine
 10
5.699999809265137
 20
-12.00000019073487
 30
0.0
 11
5.699999809265137
 21
-87.00000019073487
 31
0.0
  0
LINE
  5
E3
330
75
100
AcDbEntity
  8
0
  6
PHANTOM
 62
     0
100
AcDbLine
 10
-33.5
 20
-87.00000019073487
 30
0.0
 11
-33.5
 21
-101.0000001907349
 31
0.0
  0
CIRCLE
  5
E4
330
75
100
AcDbEntity
  8
0
  6
Continuous
 62
     0
100
AcDbCircle
 10
14.0
 20
-71.00000019073487
 30
0.0
 40
2.599999904632568
  0
CIRCLE
  5
E5
330
75
100
AcDbEntity
  8
0
  6
Continuous
 62
     0
100
AcDbCircle
 10
-14.0
 20
-71.00000019073487
 30
0.0
 40
2.599999904632568
  0
CIRCLE
  5
E6
330
75
100
AcDbEntity
  8
0
  6
Continuous
 62
     0
100
AcDbCircle
 10
-14.0
 20
-31.00000019073487
 30
0.0
 40
2.599999904632568
  0
CIRCLE
  5
E7
330
75
100
AcDbEntity
  8
0
  6
Continuous
 62
     0
100
AcDbCircle
 10
-14.0
 20
-31.00000019073487
 30
0.0
 40
4.75
  0
CIRCLE
  5
E8
330
75
100
AcDbEntity
  8
0
  6
Continuous
 62
     4
100
AcDbCircle
 10
-24.5
 20
-64.00000019073487
 30
0.0
 40
4.849999904632568
  0
CIRCLE
  5
E9
330
75
100
AcDbEntity
  8
0
  6
Continuous
 62
     0
100
AcDbCircle
 10
-24.5
 20
-24.00000019073487
 30
0.0
 40
4.300000190734863
  0
CIRCLE
  5
EA
330
75
100
AcDbEntity
  8
0
  6
Continuous
 62
     4
100
AcDbCircle
 10
-24.5
 20
-24.00000019073487
 30
0.0
 40
4.849999904632568
  0
CIRCLE
  5
EB
330
75
100
AcDbEntity
  8
0
  6
Continuous
 62
     0
100
AcDbCircle
 10
-24.5
 20
-64.00000019073487
 30
0.0
 40
4.300000190734863
  0
CIRCLE
  5
EC
330
75
100
AcDbEntity
  8
0
  6
Continuous
 62
     0
100
AcDbCircle
 10
14.0
 20
-31.00000019073487
 30
0.0
 40
2.599999904632568
  0
CIRCLE
  5
ED
330
75
100
AcDbEntity
  8
0
  6
Continuous
 62
     0
100
AcDbCircle
 10
-14.0
 20
-71.00000019073487
 30
0.0
 40
4.75
  0
CIRCLE
  5
EE
330
75
100
AcDbEntity
  8
0
  6
Continuous
 62
     0
100
AcDbCircle
 10
14.0
 20
-71.00000019073487
 30
0.0
 40
4.75
  0
CIRCLE
  5
EF
330
75
100
AcDbEntity
  8
0
  6
Continuous
 62
     0
100
AcDbCircle
 10
14.0
 20
-31.00000019073487
 30
0.0
 40
4.75
  0
MTEXT
  5
F0
330
75
100
AcDbEntity
  8
0
 62
     0
100
AcDbMText
 10
6.995633641582464
 20
-8.671621756374979
 30
0.0
 40
0.5
 41
0.0
 71
     7
 72
     1
  1
{\W0.833333;ＢＮ－６ＡＫ03-20}
 73
     1
 44
1.0
  0
ENDBLK
  5
77
330
75
100
AcDbEntity
  8
0
100
AcDbBlockEnd
  0
BLOCK
  5
79
330
78
100
AcDbEntity
  8
0
100
AcDbBlockBegin
  2
DTL0002
 70
     0
 10
0.0
 20
0.0
 30
0.0
  3
DTL0002
  1

  0
POINT
  5
F1
330
78
100
AcDbEntity
  8
0
 62
     0
100
AcDbPoint
 10
0.0
 20
0.0
 30
0.0
  0
LINE
  5
F2
330
78
100
AcDbEntity
  8
0
  6
DASHED
 62
     0
100
AcDbLine
 10
-28.70433600669623
 20
-12.00000093451134
 30
0.0
 11
-28.92883589124912
 21
-18.42883679123482
 31
0.0
  0
LINE
  5
F3
330
78
100
AcDbEntity
  8
0
  6
DASHED
 62
     0
100
AcDbLine
 10
-35.50000159680634
 20
-15.7043402669505
 30
0.0
 11
-41.92883745352982
 21
-15.92884015150339
 31
0.0
  0
LINE
  5
F4
330
78
100
AcDbEntity
  8
0
  6
Continuous
 62
     0
100
AcDbLine
 10
35.0
 20
15.0
 30
0.0
 11
-35.0
 21
15.0
 31
0.0
  0
LINE
  5
F5
330
78
100
AcDbEntity
  8
0
  6
Continuous
 62
     0
100
AcDbLine
 10
36.0
 20
14.0
 30
0.0
 11
36.0
 21
-14.0
 31
0.0
  0
LINE
  5
F6
330
78
100
AcDbEntity
  8
0
  6
Continuous
 62
     0
100
AcDbLine
 10
-36.0
 20
14.0
 30
0.0
 11
-36.0
 21
-14.0
 31
0.0
  0
LINE
  5
F7
330
78
100
AcDbEntity
  8
0
  6
Continuous
 62
     0
100
AcDbLine
 10
-35.99999972106093
 20
14.00000026616227
 30
0.0
 11
-34.99999999105629
 21
14.99999999616691
 31
0.0
  0
LINE
  5
F8
330
78
100
AcDbEntity
  8
0
  6
Continuous
 62
     0
100
AcDbLine
 10
35.0
 20
-15.0
 30
0.0
 11
-35.0
 21
-15.0
 31
0.0
  0
LINE
  5
F9
330
78
100
AcDbEntity
  8
0
  6
Continuous
 62
     0
100
AcDbLine
 10
34.99999999105655
 20
14.9999999961669
 30
0.0
 11
35.99999972106119
 21
14.00000026616226
 31
0.0
  0
LINE
  5
FA
330
78
100
AcDbEntity
  8
0
  6
Continuous
 62
     0
100
AcDbLine
 10
0.866025388240814
 20
1.5
 30
0.0
 11
-0.866025388240814
 21
1.5
 31
0.0
  0
LINE
  5
FB
330
78
100
AcDbEntity
  8
0
  6
Continuous
 62
     0
100
AcDbLine
 10
35.99999972106124
 20
-14.0000002661626
 30
0.0
 11
34.9999999910566
 21
-14.99999999616724
 31
0.0
  0
LINE
  5
FC
330
78
100
AcDbEntity
  8
0
  6
Continuous
 62
     0
100
AcDbLine
 10
0.866025388240814
 20
-1.5
 30
0.0
 11
-0.866025388240814
 21
-1.5
 31
0.0
  0
LINE
  5
FD
330
78
100
AcDbEntity
  8
0
  6
Continuous
 62
     0
100
AcDbLine
 10
0.866025399898541
 20
1.499999993269369
 30
0.0
 11
1.732050799797074
 21
0.000000026922303
 31
0.0
  0
LINE
  5
FE
330
78
100
AcDbEntity
  8
0
  6
Continuous
 62
     0
100
AcDbLine
 10
-34.99999999105643
 20
-14.99999999616702
 30
0.0
 11
-35.99999972106107
 21
-14.00000026616238
 31
0.0
  0
LINE
  5
FF
330
78
100
AcDbEntity
  8
0
  6
Continuous
 62
     0
100
AcDbLine
 10
-1.732050799797024
 20
-0.000000026922389
 30
0.0
 11
-0.866025399898492
 21
-1.499999993269455
 31
0.0
  0
LINE
  5
100
330
78
100
AcDbEntity
  8
0
  6
DASHED
 62
     0
100
AcDbLine
 10
-35.50000093451133
 20
-7.295663993303766
 30
0.0
 11
-41.92883679123481
 21
-7.071164108750876
 31
0.0
  0
LINE
  5
101
330
78
100
AcDbEntity
  8
0
  6
CENTER
 62
     4
100
AcDbLine
 10
-34.02335889834029
 20
-11.5
 30
0.0
 11
-45.99790313002529
 21
-11.5
 31
0.0
  0
LINE
  5
102
330
78
100
AcDbEntity
  8
0
  6
DASHED
 62
     0
100
AcDbLine
 10
-36.49999929200666
 20
-6.679387855078744
 30
0.0
 11
-42.49190283938736
 21
-6.470145982270282
 31
0.0
  0
LINE
  5
103
330
78
100
AcDbEntity
  8
0
  6
DASHED
 62
     0
100
AcDbLine
 10
-36.49999995430179
 20
-16.32061640517553
 30
0.0
 11
-42.47972296849267
 21
-16.52943292441208
 31
0.0
  0
LINE
  5
104
330
78
100
AcDbEntity
  8
0
  6
DASHED
 62
     0
100
AcDbLine
 10
-20.29565973304953
 20
-12.00000159680642
 30
0.0
 11
-20.07115984849663
 21
-18.4288374535299
 31
0.0
  0
LINE
  5
105
330
78
100
AcDbEntity
  8
0
  6
Continuous
 62
     0
100
AcDbLine
 10
19.3000003144119
 20
17.0
 30
0.0
 11
5.699999809265137
 21
17.0
 31
0.0
  0
LINE
  5
106
330
78
100
AcDbEntity
  8
0
  6
Continuous
 62
     0
100
AcDbLine
 10
2.299999952316284
 20
16.5
 30
0.0
 11
2.299999952316284
 21
17.0
 31
0.0
  0
LINE
  5
107
330
78
100
AcDbEntity
  8
0
  6
Continuous
 62
     0
100
AcDbLine
 10
39.5
 20
0.0
 30
0.0
 11
39.5
 21
7.0
 31
0.0
  0
LINE
  5
108
330
78
100
AcDbEntity
  8
0
  6
Continuous
 62
     0
100
AcDbLine
 10
5.699999809265137
 20
16.5
 30
0.0
 11
5.699999809265137
 21
17.0
 31
0.0
  0
LINE
  5
109
330
78
100
AcDbEntity
  8
0
  6
DASHED
 62
     0
100
AcDbLine
 10
1.850000023841858
 20
13.89999961853027
 30
0.0
 11
1.850000023841858
 21
15.0
 31
0.0
  0
LINE
  5
10A
330
78
100
AcDbEntity
  8
0
  6
Continuous
 62
     0
100
AcDbLine
 10
1.850000390989692
 20
15.99999983594851
 30
0.0
 11
2.300000171777898
 21
16.49999956564991
 31
0.0
  0
LINE
  5
10B
330
78
100
AcDbEntity
  8
0
  6
DASHED
 62
     0
100
AcDbLine
 10
21.50000026424602
 20
14.80000005016598
 30
0.0
 11
21.70000021024694
 21
14.99999999616691
 31
0.0
  0
LINE
  5
10C
330
78
100
AcDbEntity
  8
0
  6
Continuous
 62
     0
100
AcDbLine
 10
2.299999952316284
 20
17.0
 30
0.0
 11
-2.299999952316284
 21
17.0
 31
0.0
  0
LINE
  5
10D
330
78
100
AcDbEntity
  8
0
  6
DASHED
 62
     0
100
AcDbLine
 10
6.150000095367432
 20
13.89999961853027
 30
0.0
 11
6.150000095367432
 21
15.0
 31
0.0
  0
LINE
  5
10E
330
78
100
AcDbEntity
  8
0
  6
Continuous
 62
     0
100
AcDbLine
 10
36.20000076293945
 20
17.0
 30
0.0
 11
23.70000076293945
 21
17.0
 31
0.0
  0
LINE
  5
10F
330
78
100
AcDbEntity
  8
0
  6
Continuous
 62
     0
100
AcDbLine
 10
6.149999516130105
 20
15.99999983594853
 30
0.0
 11
5.699999097367397
 21
16.50000027451045
 31
0.0
  0
LINE
  5
110
330
78
100
AcDbEntity
  8
0
  6
Continuous
 62
     0
100
AcDbLine
 10
42.5
 20
10.0
 30
0.0
 11
42.5
 21
15.69999980926514
 31
0.0
  0
LINE
  5
111
330
78
100
AcDbEntity
  8
0
  6
Continuous
 62
     0
100
AcDbLine
 10
41.5
 20
16.70000076293945
 30
0.0
 11
36.5
 21
16.70000076293945
 31
0.0
  0
LINE
  5
112
330
78
100
AcDbEntity
  8
0
  6
DASHED
 62
     0
100
AcDbLine
 10
4.449999809265137
 20
12.19999980926514
 30
0.0
 11
3.549999952316284
 21
12.19999980926514
 31
0.0
  0
LINE
  5
113
330
78
100
AcDbEntity
  8
0
  6
Continuous
 62
     0
100
AcDbLine
 10
42.5
 20
-18.0
 30
0.0
 11
42.5
 21
-3.0
 31
0.0
  0
LINE
  5
114
330
78
100
AcDbEntity
  8
0
  6
CENTER
 62
     4
100
AcDbLine
 10
42.5
 20
0.0
 30
0.0
 11
-42.5
 21
0.0
 31
0.0
  0
LINE
  5
115
330
78
100
AcDbEntity
  8
0
  6
Continuous
 62
     0
100
AcDbLine
 10
12.00000046897831
 20
-19.00000060205959
 30
0.0
 11
10.10000030761993
 21
-17.1000004407012
 31
0.0
  0
LINE
  5
116
330
78
100
AcDbEntity
  8
0
  6
DASHED
 62
     0
100
AcDbLine
 10
21.5000002642461
 20
14.80000005016584
 30
0.0
 11
21.30000031824517
 21
14.99999999616676
 31
0.0
  0
LINE
  5
117
330
78
100
AcDbEntity
  8
0
  6
Continuous
 62
     0
100
AcDbLine
 10
36.49999958606355
 20
16.69999953717464
 30
0.0
 11
36.19999966706215
 21
16.99999945617603
 31
0.0
  0
LINE
  5
118
330
78
100
AcDbEntity
  8
0
  6
Continuous
 62
     0
100
AcDbLine
 10
41.5
 20
-19.0
 30
0.0
 11
12.0
 21
-19.0
 31
0.0
  0
LINE
  5
119
330
78
100
AcDbEntity
  8
0
  6
Continuous
 62
     0
100
AcDbLine
 10
2.300000812410569
 20
-16.60000022284297
 30
0.0
 11
1.85000039364786
 21
-16.09999978428104
 31
0.0
  0
LINE
  5
11A
330
78
100
AcDbEntity
  8
0
  6
Continuous
 62
     0
100
AcDbLine
 10
42.50000133783925
 20
10.00000134614365
 30
0.0
 11
39.50000079912618
 21
7.000000807430581
 31
0.0
  0
LINE
  5
11B
330
78
100
AcDbEntity
  8
0
  6
Continuous
 62
     0
100
AcDbLine
 10
42.49999998913999
 20
-3.000000538713206
 30
0.0
 11
39.49999945042697
 21
-0.000000000000181
 31
0.0
  0
LINE
  5
11C
330
78
100
AcDbEntity
  8
0
  6
Continuous
 62
     0
100
AcDbLine
 10
6.149999194484495
 20
-16.10000013871106
 30
0.0
 11
5.699999094709038
 21
-16.60000022284272
 31
0.0
  0
LINE
  5
11D
330
78
100
AcDbEntity
  8
0
  6
Continuous
 62
     0
100
AcDbLine
 10
10.10000038146973
 20
-17.10000038146973
 30
0.0
 11
5.699999809265137
 21
-17.10000038146973
 31
0.0
  0
LINE
  5
11E
330
78
100
AcDbEntity
  8
0
  6
DASHED
 62
     0
100
AcDbLine
 10
4.449999809265137
 20
-12.30000019073486
 30
0.0
 11
3.549999952316284
 21
-12.30000019073486
 31
0.0
  0
LINE
  5
11F
330
78
100
AcDbEntity
  8
0
  6
Continuous
 62
     0
100
AcDbLine
 10
1.850000023841858
 20
-16.10000038146973
 30
0.0
 11
1.850000023841858
 21
-15.0
 31
0.0
  0
LINE
  5
120
330
78
100
AcDbEntity
  8
0
  6
Continuous
 62
     0
100
AcDbLine
 10
6.150000095367432
 20
-16.10000038146973
 30
0.0
 11
6.150000095367432
 21
-15.0
 31
0.0
  0
LINE
  5
121
330
78
100
AcDbEntity
  8
0
  6
Continuous
 62
     0
100
AcDbLine
 10
2.299999952316284
 20
-17.10000038146973
 30
0.0
 11
2.299999952316284
 21
-16.60000038146973
 31
0.0
  0
LINE
  5
122
330
78
100
AcDbEntity
  8
0
  6
Continuous
 62
     0
100
AcDbLine
 10
5.699999809265137
 20
-17.10000038146973
 30
0.0
 11
5.699999809265137
 21
-16.60000038146973
 31
0.0
  0
LINE
  5
123
330
78
100
AcDbEntity
  8
0
  6
Continuous
 62
     0
100
AcDbLine
 10
2.299999952316284
 20
-17.10000038146973
 30
0.0
 11
0.0
 21
-17.10000038146973
 31
0.0
  0
LINE
  5
124
330
78
100
AcDbEntity
  8
0
  6
DASHED
 62
     0
100
AcDbLine
 10
-4.449999809265137
 20
12.19999980926514
 30
0.0
 11
-3.549999952316284
 21
12.19999980926514
 31
0.0
  0
LINE
  5
125
330
78
100
AcDbEntity
  8
0
  6
Continuous
 62
     0
100
AcDbLine
 10
-42.5
 20
10.0
 30
0.0
 11
-42.5
 21
15.69999980926514
 31
0.0
  0
LINE
  5
126
330
78
100
AcDbEntity
  8
0
  6
Continuous
 62
     0
100
AcDbLine
 10
-1.850000390989722
 20
15.99999983594849
 30
0.0
 11
-2.300000171777929
 21
16.49999956564989
 31
0.0
  0
LINE
  5
127
330
78
100
AcDbEntity
  8
0
  6
DASHED
 62
     0
100
AcDbLine
 10
-1.850000023841858
 20
13.89999961853027
 30
0.0
 11
-1.850000023841858
 21
15.0
 31
0.0
  0
LINE
  5
128
330
78
100
AcDbEntity
  8
0
  6
Continuous
 62
     0
100
AcDbLine
 10
-5.699999809265137
 20
16.5
 30
0.0
 11
-5.699999809265137
 21
17.0
 31
0.0
  0
LINE
  5
129
330
78
100
AcDbEntity
  8
0
  6
Continuous
 62
     0
100
AcDbLine
 10
-39.5
 20
0.0
 30
0.0
 11
-39.5
 21
7.0
 31
0.0
  0
LINE
  5
12A
330
78
100
AcDbEntity
  8
0
  6
Continuous
 62
     0
100
AcDbLine
 10
-2.299999952316284
 20
16.5
 30
0.0
 11
-2.299999952316284
 21
17.0
 31
0.0
  0
LINE
  5
12B
330
78
100
AcDbEntity
  8
0
  6
Continuous
 62
     0
100
AcDbLine
 10
-19.3000003144117
 20
17.0
 30
0.0
 11
-5.699999809265137
 21
17.0
 31
0.0
  0
LINE
  5
12C
330
78
100
AcDbEntity
  8
0
  6
DASHED
 62
     0
100
AcDbLine
 10
-21.50000026424578
 20
14.80000005016589
 30
0.0
 11
-21.70000021024671
 21
14.99999999616682
 31
0.0
  0
LINE
  5
12D
330
78
100
AcDbEntity
  8
0
  6
DASHED
 62
     0
100
AcDbLine
 10
-6.150000095367432
 20
13.89999961853027
 30
0.0
 11
-6.150000095367432
 21
15.0
 31
0.0
  0
LINE
  5
12E
330
78
100
AcDbEntity
  8
0
  6
Continuous
 62
     0
100
AcDbLine
 10
-6.149999516130351
 20
15.9999998359486
 30
0.0
 11
-5.699999097367643
 21
16.50000027451053
 31
0.0
  0
LINE
  5
12F
330
78
100
AcDbEntity
  8
0
  6
Continuous
 62
     0
100
AcDbLine
 10
-41.5
 20
16.70000076293945
 30
0.0
 11
-36.5
 21
16.70000076293945
 31
0.0
  0
LINE
  5
130
330
78
100
AcDbEntity
  8
0
  6
Continuous
 62
     0
100
AcDbLine
 10
-42.5
 20
-18.0
 30
0.0
 11
-42.5
 21
-3.0
 31
0.0
  0
LINE
  5
131
330
78
100
AcDbEntity
  8
0
  6
Continuous
 62
     0
100
AcDbLine
 10
-12.00000046897813
 20
-19.00000060205963
 30
0.0
 11
-10.10000030761974
 21
-17.10000044070124
 31
0.0
  0
LINE
  5
132
330
78
100
AcDbEntity
  8
0
  6
DASHED
 62
     0
100
AcDbLine
 10
-21.5000002642458
 20
14.80000005016599
 30
0.0
 11
-21.30000031824488
 21
14.99999999616692
 31
0.0
  0
LINE
  5
133
330
78
100
AcDbEntity
  8
0
  6
Continuous
 62
     0
100
AcDbLine
 10
-36.49999958606325
 20
16.6999995371748
 30
0.0
 11
-36.19999966706185
 21
16.99999945617619
 31
0.0
  0
LINE
  5
134
330
78
100
AcDbEntity
  8
0
  6
Continuous
 62
     0
100
AcDbLine
 10
-41.5
 20
-19.0
 30
0.0
 11
-12.0
 21
-19.0
 31
0.0
  0
LINE
  5
135
330
78
100
AcDbEntity
  8
0
  6
Continuous
 62
     0
100
AcDbLine
 10
-2.300000812410629
 20
-16.60000022284298
 30
0.0
 11
-1.850000393647922
 21
-16.09999978428105
 31
0.0
  0
LINE
  5
136
330
78
100
AcDbEntity
  8
0
  6
Continuous
 62
     0
100
AcDbLine
 10
-42.50000133783904
 20
10.00000134614374
 30
0.0
 11
-39.50000079912597
 21
7.000000807430673
 31
0.0
  0
LINE
  5
137
330
78
100
AcDbEntity
  8
0
  6
Continuous
 62
     0
100
AcDbLine
 10
-42.49999998913979
 20
-3.000000538713209
 30
0.0
 11
-39.49999945042671
 21
-0.000000000000139
 31
0.0
  0
LINE
  5
138
330
78
100
AcDbEntity
  8
0
  6
Continuous
 62
     0
100
AcDbLine
 10
-6.149999194484702
 20
-16.10000013871133
 30
0.0
 11
-5.699999094709245
 21
-16.60000022284299
 31
0.0
  0
LINE
  5
139
330
78
100
AcDbEntity
  8
0
  6
Continuous
 62
     0
100
AcDbLine
 10
-10.10000038146973
 20
-17.10000038146973
 30
0.0
 11
-5.699999809265137
 21
-17.10000038146973
 31
0.0
  0
LINE
  5
13A
330
78
100
AcDbEntity
  8
0
  6
DASHED
 62
     0
100
AcDbLine
 10
-4.449999809265137
 20
-12.30000019073486
 30
0.0
 11
-3.549999952316284
 21
-12.30000019073486
 31
0.0
  0
LINE
  5
13B
330
78
100
AcDbEntity
  8
0
  6
Continuous
 62
     0
100
AcDbLine
 10
-1.850000023841858
 20
-16.10000038146973
 30
0.0
 11
-1.850000023841858
 21
-15.0
 31
0.0
  0
LINE
  5
13C
330
78
100
AcDbEntity
  8
0
  6
Continuous
 62
     0
100
AcDbLine
 10
-6.150000095367432
 20
-16.10000038146973
 30
0.0
 11
-6.150000095367432
 21
-15.0
 31
0.0
  0
LINE
  5
13D
330
78
100
AcDbEntity
  8
0
  6
Continuous
 62
     0
100
AcDbLine
 10
-2.299999952316284
 20
-17.10000038146973
 30
0.0
 11
-2.299999952316284
 21
-16.60000038146973
 31
0.0
  0
LINE
  5
13E
330
78
100
AcDbEntity
  8
0
  6
Continuous
 62
     0
100
AcDbLine
 10
-5.699999809265137
 20
-17.10000038146973
 30
0.0
 11
-5.699999809265137
 21
-16.60000038146973
 31
0.0
  0
LINE
  5
13F
330
78
100
AcDbEntity
  8
0
  6
Continuous
 62
     0
100
AcDbLine
 10
-2.299999952316284
 20
-17.10000038146973
 30
0.0
 11
0.0
 21
-17.10000038146973
 31
0.0
  0
LINE
  5
140
330
78
100
AcDbEntity
  8
0
  6
Continuous
 62
     0
100
AcDbLine
 10
-23.70000076293945
 20
17.0
 30
0.0
 11
-36.20000076293945
 21
17.0
 31
0.0
  0
LINE
  5
141
330
78
100
AcDbEntity
  8
0
  6
CENTER
 62
     4
100
AcDbLine
 10
0.0
 20
-19.0
 30
0.0
 11
0.0
 21
19.55454635620117
 31
0.0
  0
LINE
  5
142
330
78
100
AcDbEntity
  8
0
  6
CENTER
 62
     4
100
AcDbLine
 10
-4.0
 20
-19.0
 30
0.0
 11
-4.0
 21
-10.65368175506592
 31
0.0
  0
LINE
  5
143
330
78
100
AcDbEntity
  8
0
  6
CENTER
 62
     4
100
AcDbLine
 10
4.0
 20
-19.0
 30
0.0
 11
4.0
 21
-10.65368175506592
 31
0.0
  0
LINE
  5
144
330
78
100
AcDbEntity
  8
0
  6
CENTER
 62
     4
100
AcDbLine
 10
-4.0
 20
10.15898513793945
 30
0.0
 11
-4.0
 21
19.55454635620117
 31
0.0
  0
LINE
  5
145
330
78
100
AcDbEntity
  8
0
  6
CENTER
 62
     4
100
AcDbLine
 10
4.0
 20
10.15898513793945
 30
0.0
 11
4.0
 21
19.55454635620117
 31
0.0
  0
LINE
  5
146
330
78
100
AcDbEntity
  8
0
  6
Continuous
 62
     0
100
AcDbLine
 10
6.150000095367432
 20
15.0
 30
0.0
 11
6.150000095367432
 21
16.0
 31
0.0
  0
LINE
  5
147
330
78
100
AcDbEntity
  8
0
  6
Continuous
 62
     0
100
AcDbLine
 10
1.850000023841858
 20
15.0
 30
0.0
 11
1.850000023841858
 21
16.0
 31
0.0
  0
LINE
  5
148
330
78
100
AcDbEntity
  8
0
  6
Continuous
 62
     0
100
AcDbLine
 10
-1.850000023841858
 20
15.0
 30
0.0
 11
-1.850000023841858
 21
16.0
 31
0.0
  0
LINE
  5
149
330
78
100
AcDbEntity
  8
0
  6
Continuous
 62
     0
100
AcDbLine
 10
-6.150000095367432
 20
15.0
 30
0.0
 11
-6.150000095367432
 21
16.0
 31
0.0
  0
LINE
  5
14A
330
78
100
AcDbEntity
  8
0
  6
Continuous
 62
     0
100
AcDbLine
 10
21.70000021024694
 20
14.99999999616691
 30
0.0
 11
23.69999967025622
 21
16.99999945617619
 31
0.0
  0
LINE
  5
14B
330
78
100
AcDbEntity
  8
0
  6
Continuous
 62
     0
100
AcDbLine
 10
21.30000031824517
 20
14.99999999616676
 30
0.0
 11
19.30000018388632
 21
17.00000013052562
 31
0.0
  0
LINE
  5
14C
330
78
100
AcDbEntity
  8
0
  6
Continuous
 62
     0
100
AcDbLine
 10
-21.30000031824488
 20
14.99999999616692
 30
0.0
 11
-19.30000018388602
 21
17.00000013052577
 31
0.0
  0
LINE
  5
14D
330
78
100
AcDbEntity
  8
0
  6
Continuous
 62
     0
100
AcDbLine
 10
-21.70000021024671
 20
14.99999999616682
 30
0.0
 11
-23.69999967025599
 21
16.9999994561761
 31
0.0
  0
LINE
  5
14E
330
78
100
AcDbEntity
  8
0
  6
DASHED
 62
     0
100
AcDbLine
 10
-6.150000095367432
 20
-15.0
 30
0.0
 11
-6.150000095367432
 21
-14.0
 31
0.0
  0
LINE
  5
14F
330
78
100
AcDbEntity
  8
0
  6
DASHED
 62
     0
100
AcDbLine
 10
-1.850000023841858
 20
-15.0
 30
0.0
 11
-1.850000023841858
 21
-14.0
 31
0.0
  0
LINE
  5
150
330
78
100
AcDbEntity
  8
0
  6
DASHED
 62
     0
100
AcDbLine
 10
1.850000023841858
 20
-15.0
 30
0.0
 11
1.850000023841858
 21
-14.0
 31
0.0
  0
LINE
  5
151
330
78
100
AcDbEntity
  8
0
  6
DASHED
 62
     0
100
AcDbLine
 10
6.150000095367432
 20
-15.0
 30
0.0
 11
6.150000095367432
 21
-14.0
 31
0.0
  0
LINE
  5
152
330
78
100
AcDbEntity
  8
0
  6
Continuous
 62
     0
100
AcDbLine
 10
-26.63397407531738
 20
1.5
 30
0.0
 11
-28.36602592468262
 21
1.5
 31
0.0
  0
LINE
  5
153
330
78
100
AcDbEntity
  8
0
  6
Continuous
 62
     0
100
AcDbLine
 10
26.63397440844647
 20
1.499999408417954
 30
0.0
 11
25.76794942578046
 21
0.000000164738799
 31
0.0
  0
LINE
  5
154
330
78
100
AcDbEntity
  8
0
  6
Continuous
 62
     0
100
AcDbLine
 10
29.23205060814212
 20
-0.000000611773759
 30
0.0
 11
28.36602562547611
 21
-1.499999855452916
 31
0.0
  0
LINE
  5
155
330
78
100
AcDbEntity
  8
0
  6
Continuous
 62
     0
100
AcDbLine
 10
25.76794942578049
 20
-0.000000164738935
 30
0.0
 11
26.6339744084465
 21
-1.499999408418093
 31
0.0
  0
LINE
  5
156
330
78
100
AcDbEntity
  8
0
  6
Continuous
 62
     0
100
AcDbLine
 10
28.36602562547608
 20
1.499999855452835
 30
0.0
 11
29.23205060814209
 21
0.000000611773677
 31
0.0
  0
LINE
  5
157
330
78
100
AcDbEntity
  8
0
  6
Continuous
 62
     0
100
AcDbLine
 10
28.36602592468262
 20
-1.5
 30
0.0
 11
26.63397407531738
 21
-1.5
 31
0.0
  0
LINE
  5
158
330
78
100
AcDbEntity
  8
0
  6
Continuous
 62
     0
100
AcDbLine
 10
28.36602592468262
 20
1.5
 30
0.0
 11
26.63397407531738
 21
1.5
 31
0.0
  0
LINE
  5
159
330
78
100
AcDbEntity
  8
0
  6
Continuous
 62
     0
100
AcDbLine
 10
1.732050799797202
 20
-0.000000026922394
 30
0.0
 11
0.86602539989867
 21
-1.49999999326946
 31
0.0
  0
LINE
  5
15A
330
78
100
AcDbEntity
  8
0
  6
Continuous
 62
     0
100
AcDbLine
 10
-0.866025399898324
 20
1.499999993269326
 30
0.0
 11
-1.732050799796857
 21
0.00000002692226
 31
0.0
  0
LINE
  5
15B
330
78
100
AcDbEntity
  8
0
  6
Continuous
 62
     0
100
AcDbLine
 10
-28.36602562547585
 20
1.499999855452753
 30
0.0
 11
-29.23205060814186
 21
0.000000611773597
 31
0.0
  0
LINE
  5
15C
330
78
100
AcDbEntity
  8
0
  6
Continuous
 62
     0
100
AcDbLine
 10
-25.76794942578049
 20
-0.000000164738838
 30
0.0
 11
-26.6339744084465
 21
-1.499999408417995
 31
0.0
  0
LINE
  5
15D
330
78
100
AcDbEntity
  8
0
  6
Continuous
 62
     0
100
AcDbLine
 10
-29.23205060814199
 20
-0.000000611773766
 30
0.0
 11
-28.36602562547597
 21
-1.499999855452923
 31
0.0
  0
LINE
  5
15E
330
78
100
AcDbEntity
  8
0
  6
Continuous
 62
     0
100
AcDbLine
 10
-26.6339744084464
 20
1.499999408418004
 30
0.0
 11
-25.76794942578039
 21
0.000000164738847
 31
0.0
  0
LINE
  5
15F
330
78
100
AcDbEntity
  8
0
  6
Continuous
 62
     0
100
AcDbLine
 10
-26.63397407531738
 20
-1.5
 30
0.0
 11
-28.36602592468262
 21
-1.5
 31
0.0
  0
LINE
  5
160
330
78
100
AcDbEntity
  8
0
  6
CENTER
 62
     4
100
AcDbLine
 10
33.80133056640625
 20
9.0
 30
0.0
 11
26.13643264770508
 21
9.0
 31
0.0
  0
LINE
  5
161
330
78
100
AcDbEntity
  8
0
  6
CENTER
 62
     4
100
AcDbLine
 10
30.0
 20
12.95722675323486
 30
0.0
 11
30.0
 21
5.292330265045166
 31
0.0
  0
LINE
  5
162
330
78
100
AcDbEntity
  8
0
  6
CENTER
 62
     4
100
AcDbLine
 10
33.80133056640625
 20
-9.0
 30
0.0
 11
26.37596130371094
 21
-9.0
 31
0.0
  0
LINE
  5
163
330
78
100
AcDbEntity
  8
0
  6
CENTER
 62
     4
100
AcDbLine
 10
30.0
 20
-5.486431121826172
 30
0.0
 11
30.0
 21
-13.03156471252441
 31
0.0
  0
LINE
  5
164
330
78
100
AcDbEntity
  8
0
  6
CENTER
 62
     4
100
AcDbLine
 10
-25.84115028381348
 20
9.0
 30
0.0
 11
-34.22463226318359
 21
9.0
 31
0.0
  0
LINE
  5
165
330
78
100
AcDbEntity
  8
0
  6
CENTER
 62
     4
100
AcDbLine
 10
-30.0
 20
13.07699108123779
 30
0.0
 11
-30.0
 21
5.172566413879395
 31
0.0
  0
LINE
  5
166
330
78
100
AcDbEntity
  8
0
  6
CENTER
 62
     4
100
AcDbLine
 10
-25.96091461181641
 20
-9.0
 30
0.0
 11
-34.34439468383789
 21
-9.0
 31
0.0
  0
LINE
  5
167
330
78
100
AcDbEntity
  8
0
  6
CENTER
 62
     4
100
AcDbLine
 10
-30.0
 20
-5.3666672706604
 30
0.0
 11
-30.0
 21
-13.15132808685303
 31
0.0
  0
LINE
  5
168
330
78
100
AcDbEntity
  8
0
  6
CENTER
 62
     4
100
AcDbLine
 10
27.5
 20
6.729498386383057
 30
0.0
 11
27.5
 21
-6.68407154083252
 31
0.0
  0
LINE
  5
169
330
78
100
AcDbEntity
  8
0
  6
CENTER
 62
     4
100
AcDbLine
 10
-27.5
 20
6.489970207214355
 30
0.0
 11
-27.5
 21
-6.68407154083252
 31
0.0
  0
LINE
  5
16A
330
78
100
AcDbEntity
  8
0
  6
CENTER
 62
     4
100
AcDbLine
 10
-24.5
 20
-22.02115701445632
 30
0.0
 11
-24.5
 21
-10.49069600914862
 31
0.0
  0
LINE
  5
16B
330
78
100
AcDbEntity
  8
0
  6
DASHED
 62
     0
100
AcDbLine
 10
-29.32061214492125
 20
-12.99999929200673
 30
0.0
 11
-29.52985401772971
 21
-18.99190283938742
 31
0.0
  0
LINE
  5
16C
330
78
100
AcDbEntity
  8
0
  6
DASHED
 62
     0
100
AcDbLine
 10
-19.67938359482456
 20
-12.99999995430181
 30
0.0
 11
-19.47056707558801
 21
-18.97972296849269
 31
0.0
  0
ARC
  5
16D
330
78
100
AcDbEntity
  8
0
  6
DASHED
 62
     0
100
AcDbCircle
 10
4.449999809265137
 20
13.89999961853027
 30
0.0
 40
1.700000047683716
100
AcDbArc
 50
270.0
 51
0.000002504478167
  0
ARC
  5
16E
330
78
100
AcDbEntity
  8
0
  6
Continuous
 62
     0
100
AcDbCircle
 10
41.5
 20
15.69999980926514
 30
0.0
 40
1.0
100
AcDbArc
 50
0.000002504478142
 51
90.00000500895631
  0
ARC
  5
16F
330
78
100
AcDbEntity
  8
0
  6
DASHED
 62
     0
100
AcDbCircle
 10
3.549999952316284
 20
13.89999961853027
 30
0.0
 40
1.700000047683716
100
AcDbArc
 50
179.9999974955218
 51
270.0
  0
ARC
  5
170
330
78
100
AcDbEntity
  8
0
  6
Continuous
 62
     0
100
AcDbCircle
 10
41.5
 20
-18.0
 30
0.0
 40
1.0
100
AcDbArc
 50
270.0
 51
0.000002504478167
  0
ARC
  5
171
330
78
100
AcDbEntity
  8
0
  6
DASHED
 62
     0
100
AcDbCircle
 10
4.449999809265137
 20
-14.0
 30
0.0
 40
1.700000047683716
100
AcDbArc
 50
0.000002504478142
 51
90.00000500895631
  0
ARC
  5
172
330
78
100
AcDbEntity
  8
0
  6
DASHED
 62
     0
100
AcDbCircle
 10
3.549999952316284
 20
-14.0
 30
0.0
 40
1.700000047683716
100
AcDbArc
 50
90.00000500895631
 51
180.0000006832453
  0
ARC
  5
173
330
78
100
AcDbEntity
  8
0
  6
DASHED
 62
     0
100
AcDbCircle
 10
-4.449999809265137
 20
13.89999961853027
 30
0.0
 40
1.700000047683716
100
AcDbArc
 50
179.9999974955218
 51
270.0
  0
ARC
  5
174
330
78
100
AcDbEntity
  8
0
  6
Continuous
 62
     0
100
AcDbCircle
 10
-41.5
 20
15.69999980926514
 30
0.0
 40
1.0
100
AcDbArc
 50
89.99999499104366
 51
179.9999974955218
  0
ARC
  5
175
330
78
100
AcDbEntity
  8
0
  6
DASHED
 62
     0
100
AcDbCircle
 10
-3.549999952316284
 20
13.89999961853027
 30
0.0
 40
1.700000047683716
100
AcDbArc
 50
270.0
 51
0.000002504478167
  0
ARC
  5
176
330
78
100
AcDbEntity
  8
0
  6
Continuous
 62
     0
100
AcDbCircle
 10
-41.5
 20
-18.0
 30
0.0
 40
1.0
100
AcDbArc
 50
179.9999974955218
 51
270.0
  0
ARC
  5
177
330
78
100
AcDbEntity
  8
0
  6
DASHED
 62
     0
100
AcDbCircle
 10
-4.449999809265137
 20
-14.0
 30
0.0
 40
1.700000047683716
100
AcDbArc
 50
89.99999499104366
 51
179.9999974955218
  0
ARC
  5
178
330
78
100
AcDbEntity
  8
0
  6
DASHED
 62
     0
100
AcDbCircle
 10
-3.549999952316284
 20
-14.0
 30
0.0
 40
1.700000047683716
100
AcDbArc
 50
0.000002504478142
 51
90.00000500895631
  0
CIRCLE
  5
179
330
78
100
AcDbEntity
  8
0
  6
Continuous
 62
     0
100
AcDbCircle
 10
0.0
 20
0.0
 30
0.0
 40
4.75
  0
CIRCLE
  5
17A
330
78
100
AcDbEntity
  8
0
  6
Continuous
 62
     0
100
AcDbCircle
 10
27.5
 20
0.0
 30
0.0
 40
4.75
  0
CIRCLE
  5
17B
330
78
100
AcDbEntity
  8
0
  6
Continuous
 62
     0
100
AcDbCircle
 10
-27.5
 20
0.0
 30
0.0
 40
4.75
  0
CIRCLE
  5
17C
330
78
100
AcDbEntity
  8
0
  6
Continuous
 62
     4
100
AcDbCircle
 10
30.0
 20
9.0
 30
0.0
 40
2.5
  0
CIRCLE
  5
17D
330
78
100
AcDbEntity
  8
0
  6
Continuous
 62
     4
100
AcDbCircle
 10
30.0
 20
-9.0
 30
0.0
 40
2.5
  0
CIRCLE
  5
17E
330
78
100
AcDbEntity
  8
0
  6
Continuous
 62
     4
100
AcDbCircle
 10
-30.0
 20
9.0
 30
0.0
 40
2.5
  0
CIRCLE
  5
17F
330
78
100
AcDbEntity
  8
0
  6
Continuous
 62
     4
100
AcDbCircle
 10
-30.0
 20
-9.0
 30
0.0
 40
2.5
  0
CIRCLE
  5
180
330
78
100
AcDbEntity
  8
0
  6
Continuous
 62
     0
100
AcDbCircle
 10
30.0
 20
9.0
 30
0.0
 40
2.099999904632568
  0
CIRCLE
  5
181
330
78
100
AcDbEntity
  8
0
  6
Continuous
 62
     0
100
AcDbCircle
 10
30.0
 20
-9.0
 30
0.0
 40
2.099999904632568
  0
CIRCLE
  5
182
330
78
100
AcDbEntity
  8
0
  6
Continuous
 62
     0
100
AcDbCircle
 10
-30.0
 20
9.0
 30
0.0
 40
2.099999904632568
  0
CIRCLE
  5
183
330
78
100
AcDbEntity
  8
0
  6
Continuous
 62
     0
100
AcDbCircle
 10
-30.0
 20
-9.0
 30
0.0
 40
2.099999904632568
  0
CIRCLE
  5
184
330
78
100
AcDbEntity
  8
0
  6
Continuous
 62
     0
100
AcDbCircle
 10
27.5
 20
0.0
 30
0.0
 40
4.25
  0
CIRCLE
  5
185
330
78
100
AcDbEntity
  8
0
  6
Continuous
 62
     0
100
AcDbCircle
 10
0.0
 20
0.0
 30
0.0
 40
4.25
  0
CIRCLE
  5
186
330
78
100
AcDbEntity
  8
0
  6
Continuous
 62
     0
100
AcDbCircle
 10
-27.5
 20
0.0
 30
0.0
 40
4.25
  0
MTEXT
  5
187
330
78
100
AcDbEntity
  8
0
 62
     0
100
AcDbMText
 10
6.629350462502365
 20
0.591909892910698
 30
0.0
 40
0.5
 41
0.0
 71
     7
 72
     1
  1
{\W0.833333;ＢＮ－６ＡＫ０３-20}
 73
     1
 44
1.0
  0
ENDBLK
  5
7A
330
78
100
AcDbEntity
  8
0
100
AcDbBlockEnd
  0
BLOCK
  5
7C
330
7B
100
AcDbEntity
  8
0
100
AcDbBlockBegin
  2
DTL0003
 70
     0
 10
0.0
 20
0.0
 30
0.0
  3
DTL0003
  1

  0
POINT
  5
188
330
7B
100
AcDbEntity
  8
0
 62
     0
100
AcDbPoint
 10
0.0
 20
0.0
 30
0.0
  0
LINE
  5
189
330
7B
100
AcDbEntity
  8
0
  6
Continuous
 62
     0
100
AcDbLine
 10
15.4999999999999
 20
-10.00000019073487
 30
0.0
 11
15.99999999999997
 21
-9.50000019073481
 31
0.0
  0
LINE
  5
18A
330
7B
100
AcDbEntity
  8
0
  6
Continuous
 62
     0
100
AcDbLine
 10
15.5
 20
0.0
 30
0.0
 11
-13.5
 21
0.0
 31
0.0
  0
LINE
  5
18B
330
7B
100
AcDbEntity
  8
0
  6
Continuous
 62
     0
100
AcDbLine
 10
15.50000000000002
 20
-0.00000000000018
 30
0.0
 11
15.99999999999995
 21
-0.500000000000104
 31
0.0
  0
LINE
  5
18C
330
7B
100
AcDbEntity
  8
0
  6
Continuous
 62
     0
100
AcDbLine
 10
15.5
 20
-10.00000019073487
 30
0.0
 11
-13.5
 21
-10.00000019073487
 31
0.0
  0
LINE
  5
18D
330
7B
100
AcDbEntity
  8
0
  6
Continuous
 62
     0
100
AcDbLine
 10
-6.0
 20
-12.00000019073487
 30
0.0
 11
-6.0
 21
-10.00000019073487
 31
0.0
  0
LINE
  5
18E
330
7B
100
AcDbEntity
  8
0
  6
Continuous
 62
     0
100
AcDbLine
 10
-14.0
 20
-0.5
 30
0.0
 11
-14.0
 21
-9.500000190734923
 31
0.0
  0
LINE
  5
18F
330
7B
100
AcDbEntity
  8
0
  6
Continuous
 62
     0
100
AcDbLine
 10
16.0
 20
-0.5
 30
0.0
 11
16.0
 21
-9.500000190734866
 31
0.0
  0
LINE
  5
190
330
7B
100
AcDbEntity
  8
0
  6
Continuous
 62
     0
100
AcDbLine
 10
19.0
 20
-12.00000019073487
 30
0.0
 11
-17.0
 21
-12.00000019073487
 31
0.0
  0
LINE
  5
191
330
7B
100
AcDbEntity
  8
0
  6
Continuous
 62
     0
100
AcDbLine
 10
19.0
 20
-87.00000019073487
 30
0.0
 11
-17.0
 21
-87.00000019073487
 31
0.0
  0
LINE
  5
192
330
7B
100
AcDbEntity
  8
0
  6
Continuous
 62
     0
100
AcDbLine
 10
6.0
 20
-12.00000019073487
 30
0.0
 11
6.0
 21
-10.00000019073487
 31
0.0
  0
LINE
  5
193
330
7B
100
AcDbEntity
  8
0
  6
CENTER
 62
     4
100
AcDbLine
 10
0.0
 20
3.501496154451274
 30
0.0
 11
0.0
 21
-89.4680018872477
 31
0.0
  0
LINE
  5
194
330
7B
100
AcDbEntity
  8
0
  6
Continuous
 62
     0
100
AcDbLine
 10
-17.0
 20
-87.00000019073487
 30
0.0
 11
-17.0
 21
-12.00000019073487
 31
0.0
  0
LINE
  5
195
330
7B
100
AcDbEntity
  8
0
  6
Continuous
 62
     0
100
AcDbLine
 10
19.0
 20
-87.00000019073487
 30
0.0
 11
19.0
 21
-12.00000019073487
 31
0.0
  0
LINE
  5
196
330
7B
100
AcDbEntity
  8
0
  6
CENTER
 62
     4
100
AcDbLine
 10
11.5
 20
-15.63028551404075
 30
0.0
 11
11.5
 21
-32.00091392471894
 31
0.0
  0
LINE
  5
197
330
7B
100
AcDbEntity
  8
0
  6
Continuous
 62
     0
100
AcDbLine
 10
-13.50000000000009
 20
-0.000000000000005
 30
0.0
 11
-14.00000000000009
 21
-0.500000000000009
 31
0.0
  0
LINE
  5
198
330
7B
100
AcDbEntity
  8
0
  6
Continuous
 62
     0
100
AcDbLine
 10
-13.49999999999999
 20
-10.00000019073503
 30
0.0
 11
-14.00000000000003
 21
-9.500000190735053
 31
0.0
  0
LINE
  5
199
330
7B
100
AcDbEntity
  8
0
  6
Continuous
 62
     0
100
AcDbLine
 10
-16.69999999999999
 20
-87.00000019073487
 30
0.0
 11
-16.69999999999999
 21
-12.00000019073487
 31
0.0
  0
LINE
  5
19A
330
7B
100
AcDbEntity
  8
0
  6
Continuous
 62
     0
100
AcDbLine
 10
3.0
 20
-87.00000019073487
 30
0.0
 11
3.0
 21
-12.00000019073487
 31
0.0
  0
LINE
  5
19B
330
7B
100
AcDbEntity
  8
0
  6
Continuous
 62
     0
100
AcDbLine
 10
0.0
 20
-87.00000019073487
 30
0.0
 11
0.0
 21
-12.00000019073487
 31
0.0
  0
LINE
  5
19C
330
7B
100
AcDbEntity
  8
0
  6
Continuous
 62
     0
100
AcDbLine
 10
-7.0
 20
-87.00000019073487
 30
0.0
 11
-7.0
 21
-12.00000019073487
 31
0.0
  0
LINE
  5
19D
330
7B
100
AcDbEntity
  8
0
  6
Continuous
 62
     0
100
AcDbLine
 10
-10.0
 20
-87.00000019073487
 30
0.0
 11
-10.0
 21
-12.00000019073487
 31
0.0
  0
LINE
  5
19E
330
7B
100
AcDbEntity
  8
0
  6
CENTER
 62
     4
100
AcDbLine
 10
3.178247825711139
 20
-64.00000019073487
 30
0.0
 11
19.82175217428886
 21
-64.00000019073487
 31
0.0
  0
LINE
  5
19F
330
7B
100
AcDbEntity
  8
0
  6
CENTER
 62
     4
100
AcDbLine
 10
3.178247825711139
 20
-24.00000019073487
 30
0.0
 11
19.82175217428886
 21
-24.00000019073487
 31
0.0
  0
LINE
  5
1A0
330
7B
100
AcDbEntity
  8
0
  6
CENTER
 62
     4
100
AcDbLine
 10
11.5
 20
-56.56172124664324
 30
0.0
 11
11.5
 21
-72.48555507729715
 31
0.0
  0
CIRCLE
  5
1A1
330
7B
100
AcDbEntity
  8
0
  6
Continuous
 62
     4
100
AcDbCircle
 10
11.5
 20
-63.93267078399658
 30
0.0
 40
4.849999904632568
  0
CIRCLE
  5
1A2
330
7B
100
AcDbEntity
  8
0
  6
Continuous
 62
     0
100
AcDbCircle
 10
11.5
 20
-63.93267078399658
 30
0.0
 40
4.300000190734863
  0
CIRCLE
  5
1A3
330
7B
100
AcDbEntity
  8
0
  6
Continuous
 62
     4
100
AcDbCircle
 10
11.5
 20
-23.93267078399658
 30
0.0
 40
4.849999904632568
  0
CIRCLE
  5
1A4
330
7B
100
AcDbEntity
  8
0
  6
Continuous
 62
     0
100
AcDbCircle
 10
11.5
 20
-23.93267078399658
 30
0.0
 40
4.300000190734863
  0
MTEXT
  5
1A5
330
7B
100
AcDbEntity
  8
0
 62
     0
100
AcDbMText
 10
1.769417402244092
 20
-9.14697978504237
 30
0.0
 40
0.5
 41
0.0
 71
     7
 72
     1
  1
{\W0.833333;ＢＮ－６ＡＫ０３-20}
 73
     1
 44
1.0
  0
ENDBLK
  5
7D
330
7B
100
AcDbEntity
  8
0
100
AcDbBlockEnd
  0
BLOCK
  5
7F
330
7E
100
AcDbEntity
  8
0
100
AcDbBlockBegin
  2
DTL0004
 70
     0
 10
0.0
 20
0.0
 30
0.0
  3
DTL0004
  1

  0
POINT
  5
1A6
330
7E
100
AcDbEntity
  8
0
 62
     0
100
AcDbPoint
 10
0.0
 20
0.0
 30
0.0
  0
POINT
  5
1A7
330
7E
100
AcDbEntity
  8
0
 62
     0
100
AcDbPoint
 10
0.0
 20
0.0
 30
0.0
  0
LINE
  5
1A8
330
7E
100
AcDbEntity
  8
0
  6
Continuous
 62
     0
100
AcDbLine
 10
-19.0
 20
-87.00000019073487
 30
0.0
 11
-19.0
 21
-12.00000019073487
 31
0.0
  0
LINE
  5
1A9
330
7E
100
AcDbEntity
  8
0
  6
Continuous
 62
     0
100
AcDbLine
 10
-19.0
 20
-87.00000019073487
 30
0.0
 11
17.0
 21
-87.00000019073487
 31
0.0
  0
LINE
  5
1AA
330
7E
100
AcDbEntity
  8
0
  6
Continuous
 62
     0
100
AcDbLine
 10
17.0
 20
-87.00000019073487
 30
0.0
 11
17.0
 21
-12.00000019073487
 31
0.0
  0
LINE
  5
1AB
330
7E
100
AcDbEntity
  8
0
  6
Continuous
 62
     0
100
AcDbLine
 10
-6.0
 20
-12.00000019073487
 30
0.0
 11
-6.0
 21
-10.00000019073487
 31
0.0
  0
LINE
  5
1AC
330
7E
100
AcDbEntity
  8
0
  6
Continuous
 62
     0
100
AcDbLine
 10
-19.0
 20
-12.00000019073487
 30
0.0
 11
17.0
 21
-12.00000019073487
 31
0.0
  0
LINE
  5
1AD
330
7E
100
AcDbEntity
  8
0
  6
CENTER
 62
     4
100
AcDbLine
 10
0.0
 20
3.501496154451274
 30
0.0
 11
0.0
 21
-89.4680018872477
 31
0.0
  0
LINE
  5
1AE
330
7E
100
AcDbEntity
  8
0
  6
Continuous
 62
     0
100
AcDbLine
 10
6.0
 20
-12.00000019073487
 30
0.0
 11
6.0
 21
-10.00000019073487
 31
0.0
  0
LINE
  5
1AF
330
7E
100
AcDbEntity
  8
0
  6
Continuous
 62
     0
100
AcDbLine
 10
-16.0
 20
-0.5
 30
0.0
 11
-16.0
 21
-9.500000190734866
 31
0.0
  0
LINE
  5
1B0
330
7E
100
AcDbEntity
  8
0
  6
Continuous
 62
     0
100
AcDbLine
 10
14.0
 20
-0.5
 30
0.0
 11
14.0
 21
-9.500000190734923
 31
0.0
  0
LINE
  5
1B1
330
7E
100
AcDbEntity
  8
0
  6
Continuous
 62
     0
100
AcDbLine
 10
-15.5
 20
-10.00000019073487
 30
0.0
 11
13.5
 21
-10.00000019073487
 31
0.0
  0
LINE
  5
1B2
330
7E
100
AcDbEntity
  8
0
  6
Continuous
 62
     0
100
AcDbLine
 10
-15.5
 20
0.0
 30
0.0
 11
13.5
 21
0.0
 31
0.0
  0
LINE
  5
1B3
330
7E
100
AcDbEntity
  8
0
  6
Continuous
 62
     0
100
AcDbLine
 10
-15.5
 20
-0.000000000000009
 30
0.0
 11
-16.0
 21
-0.500000000000013
 31
0.0
  0
LINE
  5
1B4
330
7E
100
AcDbEntity
  8
0
  6
Continuous
 62
     0
100
AcDbLine
 10
-15.49999999999995
 20
-10.00000019073488
 30
0.0
 11
-15.99999999999995
 21
-9.500000190734877
 31
0.0
  0
LINE
  5
1B5
330
7E
100
AcDbEntity
  8
0
  6
Continuous
 62
     0
100
AcDbLine
 10
13.50000000000007
 20
-0.000000000000028
 30
0.0
 11
14.00000000000007
 21
-0.500000000000031
 31
0.0
  0
LINE
  5
1B6
330
7E
100
AcDbEntity
  8
0
  6
Continuous
 62
     0
100
AcDbLine
 10
13.49999999999998
 20
-10.0000001907349
 30
0.0
 11
13.99999999999998
 21
-9.500000190734962
 31
0.0
  0
LINE
  5
1B7
330
7E
100
AcDbEntity
  8
0
  6
Continuous
 62
     0
100
AcDbLine
 10
16.69999999999999
 20
-87.00000019073487
 30
0.0
 11
16.69999999999999
 21
-12.00000019073487
 31
0.0
  0
LINE
  5
1B8
330
7E
100
AcDbEntity
  8
0
  6
Continuous
 62
     0
100
AcDbLine
 10
-3.0
 20
-87.00000019073487
 30
0.0
 11
-3.0
 21
-12.00000019073487
 31
0.0
  0
LINE
  5
1B9
330
7E
100
AcDbEntity
  8
0
  6
Continuous
 62
     0
100
AcDbLine
 10
0.0
 20
-87.00000019073487
 30
0.0
 11
0.0
 21
-12.00000019073487
 31
0.0
  0
LINE
  5
1BA
330
7E
100
AcDbEntity
  8
0
  6
Continuous
 62
     0
100
AcDbLine
 10
7.0
 20
-87.00000019073487
 30
0.0
 11
7.0
 21
-12.00000019073487
 31
0.0
  0
LINE
  5
1BB
330
7E
100
AcDbEntity
  8
0
  6
Continuous
 62
     0
100
AcDbLine
 10
10.0
 20
-87.00000019073487
 30
0.0
 11
10.0
 21
-12.00000019073487
 31
0.0
  0
MTEXT
  5
1BC
330
7E
100
AcDbEntity
  8
0
 62
     0
100
AcDbMText
 10
-7.662363382569859
 20
-9.030999536026385
 30
0.0
 40
0.5
 41
0.0
 71
     7
 72
     1
  1
{\W0.833333;ＢＮ－６ＡＫ０３-20}
 73
     1
 44
1.0
  0
ENDBLK
  5
80
330
7E
100
AcDbEntity
  8
0
100
AcDbBlockEnd
  0
BLOCK
  5
82
330
81
100
AcDbEntity
  8
0
100
AcDbBlockBegin
  2
DTL0005
 70
     0
 10
0.0
 20
0.0
 30
0.0
  3
DTL0005
  1

  0
POINT
  5
1BD
330
81
100
AcDbEntity
  8
0
 62
     0
100
AcDbPoint
 10
0.0
 20
0.0
 30
0.0
  0
POINT
  5
1BE
330
81
100
AcDbEntity
  8
0
 62
     0
100
AcDbPoint
 10
0.0
 20
0.0
 30
0.0
  0
LINE
  5
1BF
330
81
100
AcDbEntity
  8
0
  6
CENTER
 62
     4
100
AcDbLine
 10
-9.317937850952148
 20
-71.00000305175782
 30
0.0
 11
-19.29999923706055
 21
-71.00000305175782
 31
0.0
  0
LINE
  5
1C0
330
81
100
AcDbEntity
  8
0
  6
CENTER
 62
     4
100
AcDbLine
 10
9.317937850952148
 20
-71.00000305175782
 30
0.0
 11
19.29999923706055
 21
-71.00000305175782
 31
0.0
  0
LINE
  5
1C1
330
81
100
AcDbEntity
  8
0
  6
CENTER
 62
     4
100
AcDbLine
 10
14.0
 20
-25.58272857666016
 30
0.0
 11
14.0
 21
-36.07486267089844
 31
0.0
  0
LINE
  5
1C2
330
81
100
AcDbEntity
  8
0
  6
CENTER
 62
     4
100
AcDbLine
 10
14.0
 20
-65.96801872253418
 30
0.0
 11
14.0
 21
-75.76836318969727
 31
0.0
  0
LINE
  5
1C3
330
81
100
AcDbEntity
  8
0
  6
CENTER
 62
     4
100
AcDbLine
 10
9.08734130859375
 20
-31.00000305175782
 30
0.0
 11
19.29999923706055
 21
-31.00000305175782
 31
0.0
  0
LINE
  5
1C4
330
81
100
AcDbEntity
  8
0
  6
CENTER
 62
     4
100
AcDbLine
 10
32.0
 20
-68.85047264099121
 30
0.0
 11
32.0
 21
-77.26723785400391
 31
0.0
  0
LINE
  5
1C5
330
81
100
AcDbEntity
  8
0
  6
Continuous
 62
     0
100
AcDbLine
 10
5.0
 20
-10.00000305175782
 30
0.0
 11
5.0
 21
-12.00000305175782
 31
0.0
  0
LINE
  5
1C6
330
81
100
AcDbEntity
  8
0
  6
CENTER
 62
     4
100
AcDbLine
 10
28.11153411865234
 20
-73.00000305175782
 30
0.0
 11
35.83650970458984
 21
-73.00000305175782
 31
0.0
  0
LINE
  5
1C7
330
81
100
AcDbEntity
  8
0
  6
Continuous
 62
     0
100
AcDbLine
 10
36.0
 20
-0.5
 30
0.0
 11
36.0
 21
-9.500003051757815
 31
0.0
  0
LINE
  5
1C8
330
81
100
AcDbEntity
  8
0
  6
Continuous
 62
     0
100
AcDbLine
 10
42.5
 20
-87.00000305175782
 30
0.0
 11
42.5
 21
-12.00000305175782
 31
0.0
  0
LINE
  5
1C9
330
81
100
AcDbEntity
  8
0
  6
CENTER
 62
     4
100
AcDbLine
 10
-28.11153411865234
 20
-73.00000305175782
 30
0.0
 11
-35.83650970458984
 21
-73.00000305175782
 31
0.0
  0
LINE
  5
1CA
330
81
100
AcDbEntity
  8
0
  6
Continuous
 62
     0
100
AcDbLine
 10
-36.0
 20
-0.5
 30
0.0
 11
-36.0
 21
-9.500003051757815
 31
0.0
  0
LINE
  5
1CB
330
81
100
AcDbEntity
  8
0
  6
Continuous
 62
     0
100
AcDbLine
 10
-35.5
 20
0.0
 30
0.0
 11
35.5
 21
0.0
 31
0.0
  0
LINE
  5
1CC
330
81
100
AcDbEntity
  8
0
  6
Continuous
 62
     0
100
AcDbLine
 10
-36.00000106976032
 20
-9.500000376718717
 30
0.0
 11
-35.50000053040834
 21
-10.00000091607069
 31
0.0
  0
LINE
  5
1CD
330
81
100
AcDbEntity
  8
0
  6
Continuous
 62
     0
100
AcDbLine
 10
-42.5
 20
-87.00000305175782
 30
0.0
 11
-42.5
 21
-12.00000305175782
 31
0.0
  0
LINE
  5
1CE
330
81
100
AcDbEntity
  8
0
  6
Continuous
 62
     0
100
AcDbLine
 10
-19.29999923706055
 20
-12.00000305175782
 30
0.0
 11
-19.29999923706055
 21
-87.00000305175782
 31
0.0
  0
LINE
  5
1CF
330
81
100
AcDbEntity
  8
0
  6
CENTER
 62
     4
100
AcDbLine
 10
-35.72121429443359
 20
-23.00000305175782
 30
0.0
 11
-28.11153411865234
 21
-23.00000305175782
 31
0.0
  0
LINE
  5
1D0
330
81
100
AcDbEntity
  8
0
  6
Continuous
 62
     0
100
AcDbLine
 10
-5.699999809265137
 20
-12.00000305175782
 30
0.0
 11
-5.699999809265137
 21
-87.00000305175782
 31
0.0
  0
LINE
  5
1D1
330
81
100
AcDbEntity
  8
0
  6
Continuous
 62
     0
100
AcDbLine
 10
-21.5
 20
-12.00000305175782
 30
0.0
 11
-21.5
 21
-87.00000305175782
 31
0.0
  0
LINE
  5
1D2
330
81
100
AcDbEntity
  8
0
  6
CENTER
 62
     4
100
AcDbLine
 10
-32.0
 20
-19.12603302001953
 30
0.0
 11
-32.0
 21
-26.85100860595703
 31
0.0
  0
LINE
  5
1D3
330
81
100
AcDbEntity
  8
0
  6
Continuous
 62
     0
100
AcDbLine
 10
36.00000106976067
 20
-9.500000376719134
 30
0.0
 11
35.50000053040878
 21
-10.00000091607103
 31
0.0
  0
LINE
  5
1D4
330
81
100
AcDbEntity
  8
0
  6
Continuous
 62
     0
100
AcDbLine
 10
-35.49999783300945
 20
-0.000004910724783
 30
0.0
 11
-35.99999837236139
 21
-0.500005450076721
 31
0.0
  0
LINE
  5
1D5
330
81
100
AcDbEntity
  8
0
  6
Continuous
 62
     0
100
AcDbLine
 10
-23.70000076293945
 20
-12.00000305175782
 30
0.0
 11
-23.70000076293945
 21
-87.00000305175782
 31
0.0
  0
LINE
  5
1D6
330
81
100
AcDbEntity
  8
0
  6
Continuous
 62
     0
100
AcDbLine
 10
-33.5
 20
-10.00000305175782
 30
0.0
 11
-33.5
 21
-12.00000305175782
 31
0.0
  0
LINE
  5
1D7
330
81
100
AcDbEntity
  8
0
  6
Continuous
 62
     0
100
AcDbLine
 10
-2.299999952316284
 20
-12.00000305175782
 30
0.0
 11
-2.299999952316284
 21
-87.00000305175782
 31
0.0
  0
LINE
  5
1D8
330
81
100
AcDbEntity
  8
0
  6
Continuous
 62
     0
100
AcDbLine
 10
-36.20000076293945
 20
-12.00000305175782
 30
0.0
 11
-36.20000076293945
 21
-87.00000305175782
 31
0.0
  0
LINE
  5
1D9
330
81
100
AcDbEntity
  8
0
  6
Continuous
 62
     0
100
AcDbLine
 10
42.5
 20
-87.00000305175782
 30
0.0
 11
-42.5
 21
-87.00000305175782
 31
0.0
  0
LINE
  5
1DA
330
81
100
AcDbEntity
  8
0
  6
Continuous
 62
     0
100
AcDbLine
 10
-5.0
 20
-10.00000305175782
 30
0.0
 11
-5.0
 21
-12.00000305175782
 31
0.0
  0
LINE
  5
1DB
330
81
100
AcDbEntity
  8
0
  6
CENTER
 62
     4
100
AcDbLine
 10
-9.08734130859375
 20
-31.00000305175782
 30
0.0
 11
-19.29999923706055
 21
-31.00000305175782
 31
0.0
  0
LINE
  5
1DC
330
81
100
AcDbEntity
  8
0
  6
Continuous
 62
     0
100
AcDbLine
 10
-21.5
 20
-10.00000305175782
 30
0.0
 11
-21.5
 21
-12.00000305175782
 31
0.0
  0
LINE
  5
1DD
330
81
100
AcDbEntity
  8
0
  6
CENTER
 62
     4
100
AcDbLine
 10
-27.5
 20
-89.46800474827064
 30
0.0
 11
-27.5
 21
3.501493293428325
 31
0.0
  0
LINE
  5
1DE
330
81
100
AcDbEntity
  8
0
  6
CENTER
 62
     4
100
AcDbLine
 10
-14.0
 20
-65.96801872253418
 30
0.0
 11
-14.0
 21
-75.76836318969727
 31
0.0
  0
LINE
  5
1DF
330
81
100
AcDbEntity
  8
0
  6
CENTER
 62
     4
100
AcDbLine
 10
-14.0
 20
-25.58272857666016
 30
0.0
 11
-14.0
 21
-36.07486267089844
 31
0.0
  0
LINE
  5
1E0
330
81
100
AcDbEntity
  8
0
  6
CENTER
 62
     4
100
AcDbLine
 10
-32.0
 20
-68.85047264099121
 30
0.0
 11
-32.0
 21
-77.26723785400391
 31
0.0
  0
LINE
  5
1E1
330
81
100
AcDbEntity
  8
0
  6
Continuous
 62
     0
100
AcDbLine
 10
42.5
 20
-12.00000305175782
 30
0.0
 11
-42.5
 21
-12.00000305175782
 31
0.0
  0
LINE
  5
1E2
330
81
100
AcDbEntity
  8
0
  6
CENTER
 62
     4
100
AcDbLine
 10
27.5
 20
-89.46800474827064
 30
0.0
 11
27.5
 21
3.501493293428325
 31
0.0
  0
LINE
  5
1E3
330
81
100
AcDbEntity
  8
0
  6
Continuous
 62
     0
100
AcDbLine
 10
-36.5
 20
-12.00000305175782
 30
0.0
 11
-36.5
 21
-87.00000305175782
 31
0.0
  0
LINE
  5
1E4
330
81
100
AcDbEntity
  8
0
  6
Continuous
 62
     0
100
AcDbLine
 10
23.70000076293945
 20
-12.00000305175782
 30
0.0
 11
23.70000076293945
 21
-87.00000305175782
 31
0.0
  0
LINE
  5
1E5
330
81
100
AcDbEntity
  8
0
  6
CENTER
 62
     4
100
AcDbLine
 10
32.0
 20
-19.12603302001953
 30
0.0
 11
32.0
 21
-26.85100860595703
 31
0.0
  0
LINE
  5
1E6
330
81
100
AcDbEntity
  8
0
  6
Continuous
 62
     0
100
AcDbLine
 10
36.5
 20
-12.00000305175782
 30
0.0
 11
36.5
 21
-87.00000305175782
 31
0.0
  0
LINE
  5
1E7
330
81
100
AcDbEntity
  8
0
  6
CENTER
 62
     4
100
AcDbLine
 10
0.0
 20
-89.46800474827064
 30
0.0
 11
0.0
 21
3.501493293428322
 31
0.0
  0
LINE
  5
1E8
330
81
100
AcDbEntity
  8
0
  6
Continuous
 62
     0
100
AcDbLine
 10
35.49999783300996
 20
-0.000004910724247
 30
0.0
 11
35.99999837236184
 21
-0.500005450076141
 31
0.0
  0
LINE
  5
1E9
330
81
100
AcDbEntity
  8
0
  6
Continuous
 62
     0
100
AcDbLine
 10
21.5
 20
-10.00000305175782
 30
0.0
 11
21.5
 21
-12.00000305175782
 31
0.0
  0
LINE
  5
1EA
330
81
100
AcDbEntity
  8
0
  6
Continuous
 62
     0
100
AcDbLine
 10
33.5
 20
-10.00000305175782
 30
0.0
 11
33.5
 21
-12.00000305175782
 31
0.0
  0
LINE
  5
1EB
330
81
100
AcDbEntity
  8
0
  6
Continuous
 62
     0
100
AcDbLine
 10
21.5
 20
-12.00000305175782
 30
0.0
 11
21.5
 21
-87.00000305175782
 31
0.0
  0
LINE
  5
1EC
330
81
100
AcDbEntity
  8
0
  6
Continuous
 62
     0
100
AcDbLine
 10
36.20000076293945
 20
-12.00000305175782
 30
0.0
 11
36.20000076293945
 21
-87.00000305175782
 31
0.0
  0
LINE
  5
1ED
330
81
100
AcDbEntity
  8
0
  6
CENTER
 62
     4
100
AcDbLine
 10
35.72121429443359
 20
-23.00000305175782
 30
0.0
 11
28.11153411865234
 21
-23.00000305175782
 31
0.0
  0
LINE
  5
1EE
330
81
100
AcDbEntity
  8
0
  6
Continuous
 62
     0
100
AcDbLine
 10
2.299999952316284
 20
-12.00000305175782
 30
0.0
 11
2.299999952316284
 21
-87.00000305175782
 31
0.0
  0
LINE
  5
1EF
330
81
100
AcDbEntity
  8
0
  6
Continuous
 62
     0
100
AcDbLine
 10
19.29999923706055
 20
-12.00000305175782
 30
0.0
 11
19.29999923706055
 21
-87.00000305175782
 31
0.0
  0
LINE
  5
1F0
330
81
100
AcDbEntity
  8
0
  6
Continuous
 62
     0
100
AcDbLine
 10
5.699999809265137
 20
-12.00000305175782
 30
0.0
 11
5.699999809265137
 21
-87.00000305175782
 31
0.0
  0
LINE
  5
1F1
330
81
100
AcDbEntity
  8
0
  6
Continuous
 62
     0
100
AcDbLine
 10
-35.5
 20
-10.00000305175782
 30
0.0
 11
35.5
 21
-10.00000305175782
 31
0.0
  0
CIRCLE
  5
1F2
330
81
100
AcDbEntity
  8
0
  6
Continuous
 62
     0
100
AcDbCircle
 10
-14.0
 20
-31.00000305175782
 30
0.0
 40
2.599999904632568
  0
CIRCLE
  5
1F3
330
81
100
AcDbEntity
  8
0
  6
Continuous
 62
     4
100
AcDbCircle
 10
-14.0
 20
-31.00000305175782
 30
0.0
 40
3.0
  0
CIRCLE
  5
1F4
330
81
100
AcDbEntity
  8
0
  6
Continuous
 62
     4
100
AcDbCircle
 10
-14.0
 20
-71.00000305175782
 30
0.0
 40
3.0
  0
CIRCLE
  5
1F5
330
81
100
AcDbEntity
  8
0
  6
Continuous
 62
     4
100
AcDbCircle
 10
-32.0
 20
-73.00000305175782
 30
0.0
 40
2.5
  0
CIRCLE
  5
1F6
330
81
100
AcDbEntity
  8
0
  6
Continuous
 62
     0
100
AcDbCircle
 10
-32.0
 20
-23.00000305175782
 30
0.0
 40
2.150000095367432
  0
CIRCLE
  5
1F7
330
81
100
AcDbEntity
  8
0
  6
Continuous
 62
     0
100
AcDbCircle
 10
-14.0
 20
-71.00000305175782
 30
0.0
 40
2.599999904632568
  0
CIRCLE
  5
1F8
330
81
100
AcDbEntity
  8
0
  6
Continuous
 62
     4
100
AcDbCircle
 10
-32.0
 20
-23.00000305175782
 30
0.0
 40
2.5
  0
CIRCLE
  5
1F9
330
81
100
AcDbEntity
  8
0
  6
Continuous
 62
     0
100
AcDbCircle
 10
-32.0
 20
-73.00000305175782
 30
0.0
 40
2.150000095367432
  0
CIRCLE
  5
1FA
330
81
100
AcDbEntity
  8
0
  6
Continuous
 62
     4
100
AcDbCircle
 10
14.0
 20
-31.00000305175782
 30
0.0
 40
3.0
  0
CIRCLE
  5
1FB
330
81
100
AcDbEntity
  8
0
  6
Continuous
 62
     0
100
AcDbCircle
 10
14.0
 20
-31.00000305175782
 30
0.0
 40
2.599999904632568
  0
CIRCLE
  5
1FC
330
81
100
AcDbEntity
  8
0
  6
Continuous
 62
     4
100
AcDbCircle
 10
32.0
 20
-73.00000305175782
 30
0.0
 40
2.5
  0
CIRCLE
  5
1FD
330
81
100
AcDbEntity
  8
0
  6
Continuous
 62
     0
100
AcDbCircle
 10
32.0
 20
-73.00000305175782
 30
0.0
 40
2.150000095367432
  0
CIRCLE
  5
1FE
330
81
100
AcDbEntity
  8
0
  6
Continuous
 62
     4
100
AcDbCircle
 10
32.0
 20
-23.00000305175782
 30
0.0
 40
2.5
  0
CIRCLE
  5
1FF
330
81
100
AcDbEntity
  8
0
  6
Continuous
 62
     0
100
AcDbCircle
 10
14.0
 20
-71.00000305175782
 30
0.0
 40
2.599999904632568
  0
CIRCLE
  5
200
330
81
100
AcDbEntity
  8
0
  6
Continuous
 62
     4
100
AcDbCircle
 10
14.0
 20
-71.00000305175782
 30
0.0
 40
3.0
  0
CIRCLE
  5
201
330
81
100
AcDbEntity
  8
0
  6
Continuous
 62
     0
100
AcDbCircle
 10
32.0
 20
-23.00000305175782
 30
0.0
 40
2.150000095367432
  0
MTEXT
  5
202
330
81
100
AcDbEntity
  8
0
 62
     0
100
AcDbMText
 10
10.74034991868401
 20
-8.819273104355704
 30
0.0
 40
0.5
 41
0.0
 71
     7
 72
     1
  1
{\W0.833333;ＢＮ－６ＡＫ０３-20}
 73
     1
 44
1.0
  0
ENDBLK
  5
83
330
81
100
AcDbEntity
  8
0
100
AcDbBlockEnd
  0
BLOCK
  5
85
330
84
100
AcDbEntity
  8
0
100
AcDbBlockBegin
  2
DTL0006
 70
     0
 10
0.0
 20
0.0
 30
0.0
  3
DTL0006
  1

  0
POINT
  5
203
330
84
100
AcDbEntity
  8
0
 62
     0
100
AcDbPoint
 10
0.0
 20
0.0
 30
0.0
  0
POINT
  5
204
330
84
100
AcDbEntity
  8
0
 62
     0
100
AcDbPoint
 10
0.0
 20
0.0
 30
0.0
  0
LINE
  5
205
330
84
100
AcDbEntity
  8
0
  6
Continuous
 62
     0
100
AcDbLine
 10
42.50000133783908
 20
-10.00000134614384
 30
0.0
 11
39.50000079912601
 21
-7.000000807430776
 31
0.0
  0
LINE
  5
206
330
84
100
AcDbEntity
  8
0
  6
Continuous
 62
     0
100
AcDbLine
 10
2.299999952316284
 20
17.10000038146973
 30
0.0
 11
2.299999952316284
 21
16.60000038146973
 31
0.0
  0
LINE
  5
207
330
84
100
AcDbEntity
  8
0
  6
Continuous
 62
     0
100
AcDbLine
 10
36.49999958606353
 20
-16.69999953717505
 30
0.0
 11
36.19999966706214
 21
-16.99999945617644
 31
0.0
  0
LINE
  5
208
330
84
100
AcDbEntity
  8
0
  6
Continuous
 62
     0
100
AcDbLine
 10
6.150000095367432
 20
16.10000038146973
 30
0.0
 11
6.150000095367432
 21
14.0
 31
0.0
  0
LINE
  5
209
330
84
100
AcDbEntity
  8
0
  6
Continuous
 62
     0
100
AcDbLine
 10
10.10000038146973
 20
17.10000038146973
 30
0.0
 11
5.699999809265137
 21
17.10000038146973
 31
0.0
  0
LINE
  5
20A
330
84
100
AcDbEntity
  8
0
  6
Continuous
 62
     0
100
AcDbLine
 10
-19.30000031441193
 20
-17.0
 30
0.0
 11
-5.699999809265137
 21
-17.0
 31
0.0
  0
LINE
  5
20B
330
84
100
AcDbEntity
  8
0
  6
Continuous
 62
     0
100
AcDbLine
 10
-39.5
 20
0.0
 30
0.0
 11
-39.5
 21
-7.0
 31
0.0
  0
LINE
  5
20C
330
84
100
AcDbEntity
  8
0
  6
Continuous
 62
     0
100
AcDbLine
 10
2.299999952316284
 20
17.10000038146973
 30
0.0
 11
0.0
 21
17.10000038146973
 31
0.0
  0
LINE
  5
20D
330
84
100
AcDbEntity
  8
0
  6
Continuous
 62
     0
100
AcDbLine
 10
-42.5
 20
18.0
 30
0.0
 11
-42.5
 21
3.0
 31
0.0
  0
LINE
  5
20E
330
84
100
AcDbEntity
  8
0
  6
Continuous
 62
     0
100
AcDbLine
 10
-21.50000026424574
 20
-14.80000005016622
 30
0.0
 11
-23.69999967025595
 21
-16.99999945617642
 31
0.0
  0
LINE
  5
20F
330
84
100
AcDbEntity
  8
0
  6
Continuous
 62
     0
100
AcDbLine
 10
-1.850000023841858
 20
-13.89999961853027
 30
0.0
 11
-1.850000023841858
 21
-16.0
 31
0.0
  0
LINE
  5
210
330
84
100
AcDbEntity
  8
0
  6
Continuous
 62
     0
100
AcDbLine
 10
-42.5
 20
-10.0
 30
0.0
 11
-42.5
 21
-15.69999980926514
 31
0.0
  0
LINE
  5
211
330
84
100
AcDbEntity
  8
0
  6
Continuous
 62
     0
100
AcDbLine
 10
-41.5
 20
-16.70000076293945
 30
0.0
 11
-36.5
 21
-16.70000076293945
 31
0.0
  0
LINE
  5
212
330
84
100
AcDbEntity
  8
0
  6
Continuous
 62
     0
100
AcDbLine
 10
42.5
 20
18.0
 30
0.0
 11
42.5
 21
3.0
 31
0.0
  0
LINE
  5
213
330
84
100
AcDbEntity
  8
0
  6
Continuous
 62
     0
100
AcDbLine
 10
-1.850000390989734
 20
-15.99999983594829
 30
0.0
 11
-2.300000171777939
 21
-16.49999956564969
 31
0.0
  0
LINE
  5
214
330
84
100
AcDbEntity
  8
0
  6
Continuous
 62
     0
100
AcDbLine
 10
-5.699999809265137
 20
-16.5
 30
0.0
 11
-5.699999809265137
 21
-17.0
 31
0.0
  0
LINE
  5
215
330
84
100
AcDbEntity
  8
0
  6
Continuous
 62
     0
100
AcDbLine
 10
12.0000004689785
 20
19.00000060205937
 30
0.0
 11
10.10000030762011
 21
17.10000044070098
 31
0.0
  0
LINE
  5
216
330
84
100
AcDbEntity
  8
0
  6
Continuous
 62
     0
100
AcDbLine
 10
-6.149999516130141
 20
-15.99999983594849
 30
0.0
 11
-5.699999097367432
 21
-16.50000027451041
 31
0.0
  0
LINE
  5
217
330
84
100
AcDbEntity
  8
0
  6
Continuous
 62
     0
100
AcDbLine
 10
5.699999809265137
 20
-16.5
 30
0.0
 11
5.699999809265137
 21
-17.0
 31
0.0
  0
LINE
  5
218
330
84
100
AcDbEntity
  8
0
  6
Continuous
 62
     0
100
AcDbLine
 10
-4.449999809265137
 20
-12.19999980926514
 30
0.0
 11
-3.549999952316284
 21
-12.19999980926514
 31
0.0
  0
LINE
  5
219
330
84
100
AcDbEntity
  8
0
  6
Continuous
 62
     0
100
AcDbLine
 10
4.449999809265137
 20
12.30000019073486
 30
0.0
 11
3.549999952316284
 21
12.30000019073486
 31
0.0
  0
LINE
  5
21A
330
84
100
AcDbEntity
  8
0
  6
Continuous
 62
     0
100
AcDbLine
 10
21.50000026424594
 20
-14.80000005016608
 30
0.0
 11
23.69999967025614
 21
-16.99999945617628
 31
0.0
  0
LINE
  5
21B
330
84
100
AcDbEntity
  8
0
  6
Continuous
 62
     0
100
AcDbLine
 10
39.5
 20
0.0
 30
0.0
 11
39.5
 21
-7.0
 31
0.0
  0
LINE
  5
21C
330
84
100
AcDbEntity
  8
0
  6
Continuous
 62
     0
100
AcDbLine
 10
19.30000031441226
 20
-17.0
 30
0.0
 11
5.699999809265137
 21
-17.0
 31
0.0
  0
LINE
  5
21D
330
84
100
AcDbEntity
  8
0
  6
Continuous
 62
     0
100
AcDbLine
 10
6.150000095367432
 20
-13.89999961853027
 30
0.0
 11
6.150000095367432
 21
-16.0
 31
0.0
  0
LINE
  5
21E
330
84
100
AcDbEntity
  8
0
  6
Continuous
 62
     0
100
AcDbLine
 10
2.299999952316284
 20
-16.5
 30
0.0
 11
2.299999952316284
 21
-17.0
 31
0.0
  0
LINE
  5
21F
330
84
100
AcDbEntity
  8
0
  6
CENTER
 62
     4
100
AcDbLine
 10
42.5
 20
0.0
 30
0.0
 11
-42.5
 21
0.0
 31
0.0
  0
LINE
  5
220
330
84
100
AcDbEntity
  8
0
  6
Continuous
 62
     0
100
AcDbLine
 10
1.850000390989674
 20
-15.99999983594853
 30
0.0
 11
2.300000171777882
 21
-16.49999956564994
 31
0.0
  0
LINE
  5
221
330
84
100
AcDbEntity
  8
0
  6
Continuous
 62
     0
100
AcDbLine
 10
42.5
 20
-10.0
 30
0.0
 11
42.5
 21
-15.69999980926514
 31
0.0
  0
LINE
  5
222
330
84
100
AcDbEntity
  8
0
  6
Continuous
 62
     0
100
AcDbLine
 10
36.20000076293945
 20
-17.0
 30
0.0
 11
23.70000076293945
 21
-17.0
 31
0.0
  0
LINE
  5
223
330
84
100
AcDbEntity
  8
0
  6
Continuous
 62
     0
100
AcDbLine
 10
2.299999952316284
 20
-17.0
 30
0.0
 11
-2.299999952316284
 21
-17.0
 31
0.0
  0
LINE
  5
224
330
84
100
AcDbEntity
  8
0
  6
Continuous
 62
     0
100
AcDbLine
 10
1.850000023841858
 20
-13.89999961853027
 30
0.0
 11
1.850000023841858
 21
-16.0
 31
0.0
  0
LINE
  5
225
330
84
100
AcDbEntity
  8
0
  6
Continuous
 62
     0
100
AcDbLine
 10
4.449999809265137
 20
-12.19999980926514
 30
0.0
 11
3.549999952316284
 21
-12.19999980926514
 31
0.0
  0
LINE
  5
226
330
84
100
AcDbEntity
  8
0
  6
Continuous
 62
     0
100
AcDbLine
 10
41.5
 20
-16.70000076293945
 30
0.0
 11
36.5
 21
-16.70000076293945
 31
0.0
  0
LINE
  5
227
330
84
100
AcDbEntity
  8
0
  6
Continuous
 62
     0
100
AcDbLine
 10
1.850000023841858
 20
16.10000038146973
 30
0.0
 11
1.850000023841858
 21
14.0
 31
0.0
  0
LINE
  5
228
330
84
100
AcDbEntity
  8
0
  6
Continuous
 62
     0
100
AcDbLine
 10
2.300000812410492
 20
16.60000022284317
 30
0.0
 11
1.850000393647784
 21
16.09999978428124
 31
0.0
  0
LINE
  5
229
330
84
100
AcDbEntity
  8
0
  6
Continuous
 62
     0
100
AcDbLine
 10
41.5
 20
19.0
 30
0.0
 11
12.0
 21
19.0
 31
0.0
  0
LINE
  5
22A
330
84
100
AcDbEntity
  8
0
  6
Continuous
 62
     0
100
AcDbLine
 10
6.14999919448465
 20
16.10000013871133
 30
0.0
 11
5.699999094709193
 21
16.60000022284299
 31
0.0
  0
LINE
  5
22B
330
84
100
AcDbEntity
  8
0
  6
Continuous
 62
     0
100
AcDbLine
 10
42.49999998914003
 20
3.000000538712946
 30
0.0
 11
39.49999945042696
 21
-0.000000000000121
 31
0.0
  0
LINE
  5
22C
330
84
100
AcDbEntity
  8
0
  6
Continuous
 62
     0
100
AcDbLine
 10
-6.150000095367432
 20
-13.89999961853027
 30
0.0
 11
-6.150000095367432
 21
-16.0
 31
0.0
  0
LINE
  5
22D
330
84
100
AcDbEntity
  8
0
  6
Continuous
 62
     0
100
AcDbLine
 10
-2.299999952316284
 20
-16.5
 30
0.0
 11
-2.299999952316284
 21
-17.0
 31
0.0
  0
LINE
  5
22E
330
84
100
AcDbEntity
  8
0
  6
Continuous
 62
     0
100
AcDbLine
 10
5.699999809265137
 20
17.10000038146973
 30
0.0
 11
5.699999809265137
 21
16.60000038146973
 31
0.0
  0
LINE
  5
22F
330
84
100
AcDbEntity
  8
0
  6
Continuous
 62
     0
100
AcDbLine
 10
-12.00000046897826
 20
19.00000060205947
 30
0.0
 11
-10.10000030761987
 21
17.10000044070108
 31
0.0
  0
LINE
  5
230
330
84
100
AcDbEntity
  8
0
  6
Continuous
 62
     0
100
AcDbLine
 10
6.149999516130028
 20
-15.99999983594838
 30
0.0
 11
5.69999909736732
 21
-16.5000002745103
 31
0.0
  0
LINE
  5
231
330
84
100
AcDbEntity
  8
0
  6
Continuous
 62
     0
100
AcDbLine
 10
21.50000026424606
 20
-14.80000005016622
 30
0.0
 11
19.30000018388628
 21
-17.000000130526
 31
0.0
  0
LINE
  5
232
330
84
100
AcDbEntity
  8
0
  6
Continuous
 62
     0
100
AcDbLine
 10
-21.50000026424592
 20
-14.80000005016613
 30
0.0
 11
-19.30000018388614
 21
-17.00000013052591
 31
0.0
  0
LINE
  5
233
330
84
100
AcDbEntity
  8
0
  6
Continuous
 62
     0
100
AcDbLine
 10
-36.49999958606328
 20
-16.69999953717495
 30
0.0
 11
-36.19999966706189
 21
-16.99999945617634
 31
0.0
  0
LINE
  5
234
330
84
100
AcDbEntity
  8
0
  6
Continuous
 62
     0
100
AcDbLine
 10
-41.5
 20
19.0
 30
0.0
 11
-12.0
 21
19.0
 31
0.0
  0
LINE
  5
235
330
84
100
AcDbEntity
  8
0
  6
Continuous
 62
     0
100
AcDbLine
 10
-2.300000812410647
 20
16.60000022284295
 30
0.0
 11
-1.850000393647938
 21
16.09999978428103
 31
0.0
  0
LINE
  5
236
330
84
100
AcDbEntity
  8
0
  6
Continuous
 62
     0
100
AcDbLine
 10
-42.50000133783891
 20
-10.00000134614395
 30
0.0
 11
-39.50000079912584
 21
-7.000000807430883
 31
0.0
  0
LINE
  5
237
330
84
100
AcDbEntity
  8
0
  6
Continuous
 62
     0
100
AcDbLine
 10
-42.49999998913982
 20
3.000000538713067
 30
0.0
 11
-39.49999945042675
 21
0.0
 31
0.0
  0
LINE
  5
238
330
84
100
AcDbEntity
  8
0
  6
Continuous
 62
     0
100
AcDbLine
 10
-6.149999194484786
 20
16.1000001387115
 30
0.0
 11
-5.699999094709328
 21
16.60000022284316
 31
0.0
  0
LINE
  5
239
330
84
100
AcDbEntity
  8
0
  6
Continuous
 62
     0
100
AcDbLine
 10
-10.10000038146973
 20
17.10000038146973
 30
0.0
 11
-5.699999809265137
 21
17.10000038146973
 31
0.0
  0
LINE
  5
23A
330
84
100
AcDbEntity
  8
0
  6
Continuous
 62
     0
100
AcDbLine
 10
-4.449999809265137
 20
12.30000019073486
 30
0.0
 11
-3.549999952316284
 21
12.30000019073486
 31
0.0
  0
LINE
  5
23B
330
84
100
AcDbEntity
  8
0
  6
Continuous
 62
     0
100
AcDbLine
 10
-1.850000023841858
 20
16.10000038146973
 30
0.0
 11
-1.850000023841858
 21
14.0
 31
0.0
  0
LINE
  5
23C
330
84
100
AcDbEntity
  8
0
  6
Continuous
 62
     0
100
AcDbLine
 10
-6.150000095367432
 20
16.10000038146973
 30
0.0
 11
-6.150000095367432
 21
14.0
 31
0.0
  0
LINE
  5
23D
330
84
100
AcDbEntity
  8
0
  6
Continuous
 62
     0
100
AcDbLine
 10
-2.299999952316284
 20
17.10000038146973
 30
0.0
 11
-2.299999952316284
 21
16.60000038146973
 31
0.0
  0
LINE
  5
23E
330
84
100
AcDbEntity
  8
0
  6
Continuous
 62
     0
100
AcDbLine
 10
-5.699999809265137
 20
17.10000038146973
 30
0.0
 11
-5.699999809265137
 21
16.60000038146973
 31
0.0
  0
LINE
  5
23F
330
84
100
AcDbEntity
  8
0
  6
Continuous
 62
     0
100
AcDbLine
 10
-2.299999952316284
 20
17.10000038146973
 30
0.0
 11
0.0
 21
17.10000038146973
 31
0.0
  0
LINE
  5
240
330
84
100
AcDbEntity
  8
0
  6
Continuous
 62
     0
100
AcDbLine
 10
-23.70000076293945
 20
-17.0
 30
0.0
 11
-36.20000076293945
 21
-17.0
 31
0.0
  0
LINE
  5
241
330
84
100
AcDbEntity
  8
0
  6
CENTER
 62
     4
100
AcDbLine
 10
0.0
 20
18.59207153320312
 30
0.0
 11
0.0
 21
-18.03403472900391
 31
0.0
  0
LINE
  5
242
330
84
100
AcDbEntity
  8
0
  6
CENTER
 62
     4
100
AcDbLine
 10
-22.18886375427246
 20
-13.0
 30
0.0
 11
-29.5
 21
-13.0
 31
0.0
  0
LINE
  5
243
330
84
100
AcDbEntity
  8
0
  6
CENTER
 62
     4
100
AcDbLine
 10
-26.0
 20
-8.948488235473633
 30
0.0
 11
-26.0
 21
-17.0
 31
0.0
  0
LINE
  5
244
330
84
100
AcDbEntity
  8
0
  6
CENTER
 62
     4
100
AcDbLine
 10
29.5
 20
-13.0
 30
0.0
 11
22.10317039489746
 21
-13.0
 31
0.0
  0
LINE
  5
245
330
84
100
AcDbEntity
  8
0
  6
CENTER
 62
     4
100
AcDbLine
 10
26.0
 20
-8.948488235473633
 30
0.0
 11
26.0
 21
-17.0
 31
0.0
  0
LINE
  5
246
330
84
100
AcDbEntity
  8
0
  6
CENTER
 62
     4
100
AcDbLine
 10
30.19498443603516
 20
13.0
 30
0.0
 11
21.96120834350586
 21
13.0
 31
0.0
  0
LINE
  5
247
330
84
100
AcDbEntity
  8
0
  6
CENTER
 62
     4
100
AcDbLine
 10
26.0
 20
17.45637893676758
 30
0.0
 11
26.0
 21
8.654755592346191
 31
0.0
  0
LINE
  5
248
330
84
100
AcDbEntity
  8
0
  6
CENTER
 62
     4
100
AcDbLine
 10
-26.0
 20
17.31441497802734
 30
0.0
 11
-26.0
 21
8.796717643737793
 31
0.0
  0
LINE
  5
249
330
84
100
AcDbEntity
  8
0
  6
CENTER
 62
     4
100
AcDbLine
 10
-21.80501556396484
 20
12.94443273544312
 30
0.0
 11
-30.03879165649414
 21
12.94443273544312
 31
0.0
  0
LINE
  5
24A
330
84
100
AcDbEntity
  8
0
  6
CENTER
 62
     4
100
AcDbLine
 10
-27.5
 20
8.1951904296875
 30
0.0
 11
-27.5
 21
-8.619873046875
 31
0.0
  0
LINE
  5
24B
330
84
100
AcDbEntity
  8
0
  6
CENTER
 62
     4
100
AcDbLine
 10
27.5
 20
8.938678741455078
 30
0.0
 11
27.5
 21
-7.812795639038086
 31
0.0
  0
LINE
  5
24C
330
84
100
AcDbEntity
  8
0
  6
CENTER
 62
     4
100
AcDbLine
 10
-4.0
 20
18.0
 30
0.0
 11
-4.0
 21
11.0
 31
0.0
  0
LINE
  5
24D
330
84
100
AcDbEntity
  8
0
  6
CENTER
 62
     4
100
AcDbLine
 10
4.0
 20
18.0
 30
0.0
 11
4.0
 21
11.0
 31
0.0
  0
LINE
  5
24E
330
84
100
AcDbEntity
  8
0
  6
CENTER
 62
     4
100
AcDbLine
 10
4.0
 20
-10.93595123291016
 30
0.0
 11
4.0
 21
-17.0
 31
0.0
  0
LINE
  5
24F
330
84
100
AcDbEntity
  8
0
  6
CENTER
 62
     4
100
AcDbLine
 10
-4.0
 20
-10.79399013519287
 30
0.0
 11
-4.0
 21
-17.0
 31
0.0
  0
ARC
  5
250
330
84
100
AcDbEntity
  8
0
  6
Continuous
 62
     0
100
AcDbCircle
 10
4.449999809265137
 20
-13.89999961853027
 30
0.0
 40
1.700000047683716
100
AcDbArc
 50
0.000002504478142
 51
90.00000500895631
  0
ARC
  5
251
330
84
100
AcDbEntity
  8
0
  6
Continuous
 62
     0
100
AcDbCircle
 10
41.5
 20
-15.69999980926514
 30
0.0
 40
1.0
100
AcDbArc
 50
270.0000000000001
 51
0.000002504478167
  0
ARC
  5
252
330
84
100
AcDbEntity
  8
0
  6
Continuous
 62
     0
100
AcDbCircle
 10
3.549999952316284
 20
-13.89999961853027
 30
0.0
 40
1.700000047683716
100
AcDbArc
 50
89.99999499104366
 51
179.9999974955218
  0
ARC
  5
253
330
84
100
AcDbEntity
  8
0
  6
Continuous
 62
     0
100
AcDbCircle
 10
41.5
 20
18.0
 30
0.0
 40
1.0
100
AcDbArc
 50
0.000002504478142
 51
90.00000500895631
  0
ARC
  5
254
330
84
100
AcDbEntity
  8
0
  6
Continuous
 62
     0
100
AcDbCircle
 10
4.449999809265137
 20
14.0
 30
0.0
 40
1.700000047683716
100
AcDbArc
 50
270.0000000000001
 51
0.000002504478167
  0
ARC
  5
255
330
84
100
AcDbEntity
  8
0
  6
Continuous
 62
     0
100
AcDbCircle
 10
3.549999952316284
 20
14.0
 30
0.0
 40
1.700000047683716
100
AcDbArc
 50
179.9999974955218
 51
270.0000000000001
  0
ARC
  5
256
330
84
100
AcDbEntity
  8
0
  6
Continuous
 62
     0
100
AcDbCircle
 10
-4.449999809265137
 20
-13.89999961853027
 30
0.0
 40
1.700000047683716
100
AcDbArc
 50
89.99999499104366
 51
179.9999974955218
  0
ARC
  5
257
330
84
100
AcDbEntity
  8
0
  6
Continuous
 62
     0
100
AcDbCircle
 10
-41.5
 20
-15.69999980926514
 30
0.0
 40
1.0
100
AcDbArc
 50
179.9999974955218
 51
269.9999999999999
  0
ARC
  5
258
330
84
100
AcDbEntity
  8
0
  6
Continuous
 62
     0
100
AcDbCircle
 10
-3.549999952316284
 20
-13.89999961853027
 30
0.0
 40
1.700000047683716
100
AcDbArc
 50
0.000002504478142
 51
90.00000500895631
  0
ARC
  5
259
330
84
100
AcDbEntity
  8
0
  6
Continuous
 62
     0
100
AcDbCircle
 10
-41.5
 20
18.0
 30
0.0
 40
1.0
100
AcDbArc
 50
89.99999499104366
 51
179.9999974955218
  0
ARC
  5
25A
330
84
100
AcDbEntity
  8
0
  6
Continuous
 62
     0
100
AcDbCircle
 10
-4.449999809265137
 20
14.0
 30
0.0
 40
1.700000047683716
100
AcDbArc
 50
179.9999974955218
 51
269.9999999999999
  0
ARC
  5
25B
330
84
100
AcDbEntity
  8
0
  6
Continuous
 62
     0
100
AcDbCircle
 10
-3.549999952316284
 20
14.0
 30
0.0
 40
1.700000047683716
100
AcDbArc
 50
270.0
 51
0.000002504478167
  0
CIRCLE
  5
25C
330
84
100
AcDbEntity
  8
0
  6
Continuous
 62
     0
100
AcDbCircle
 10
0.0
 20
0.0
 30
0.0
 40
10.0
  0
CIRCLE
  5
25D
330
84
100
AcDbEntity
  8
0
  6
Continuous
 62
     4
100
AcDbCircle
 10
26.0
 20
13.0
 30
0.0
 40
2.5
  0
CIRCLE
  5
25E
330
84
100
AcDbEntity
  8
0
  6
Continuous
 62
     4
100
AcDbCircle
 10
26.0
 20
-13.0
 30
0.0
 40
2.5
  0
CIRCLE
  5
25F
330
84
100
AcDbEntity
  8
0
  6
Continuous
 62
     4
100
AcDbCircle
 10
-26.0
 20
13.0
 30
0.0
 40
2.5
  0
CIRCLE
  5
260
330
84
100
AcDbEntity
  8
0
  6
Continuous
 62
     4
100
AcDbCircle
 10
-26.0
 20
-13.0
 30
0.0
 40
2.5
  0
CIRCLE
  5
261
330
84
100
AcDbEntity
  8
0
  6
Continuous
 62
     0
100
AcDbCircle
 10
-26.0
 20
-13.0
 30
0.0
 40
2.150000095367432
  0
CIRCLE
  5
262
330
84
100
AcDbEntity
  8
0
  6
Continuous
 62
     0
100
AcDbCircle
 10
-26.0
 20
13.0
 30
0.0
 40
2.150000095367432
  0
CIRCLE
  5
263
330
84
100
AcDbEntity
  8
0
  6
Continuous
 62
     0
100
AcDbCircle
 10
26.0
 20
13.0
 30
0.0
 40
2.150000095367432
  0
CIRCLE
  5
264
330
84
100
AcDbEntity
  8
0
  6
Continuous
 62
     0
100
AcDbCircle
 10
26.0
 20
-13.0
 30
0.0
 40
2.150000095367432
  0
CIRCLE
  5
265
330
84
100
AcDbEntity
  8
0
  6
Continuous
 62
     0
100
AcDbCircle
 10
27.5
 20
0.5
 30
0.0
 40
6.550000190734863
  0
CIRCLE
  5
266
330
84
100
AcDbEntity
  8
0
  6
Continuous
 62
     0
100
AcDbCircle
 10
-27.5
 20
0.0
 30
0.0
 40
6.550000190734863
  0
CIRCLE
  5
267
330
84
100
AcDbEntity
  8
0
  6
Continuous
 62
     0
100
AcDbCircle
 10
-27.5
 20
0.0
 30
0.0
 40
6.0
  0
CIRCLE
  5
268
330
84
100
AcDbEntity
  8
0
  6
Continuous
 62
     0
100
AcDbCircle
 10
27.5
 20
0.5
 30
0.0
 40
6.0
  0
MTEXT
  5
269
330
84
100
AcDbEntity
  8
0
 62
     0
100
AcDbMText
 10
1.371651617092027
 20
0.807484415741872
 30
0.0
 40
0.5
 41
0.0
 71
     7
 72
     1
  1
{\W0.833333;ＢＮ－６ＡＫ０３-20}
 73
     1
 44
1.0
  0
ENDBLK
  5
86
330
84
100
AcDbEntity
  8
0
100
AcDbBlockEnd
  0
BLOCK
  5
26C
330
26B
100
AcDbEntity
  8
0
100
AcDbBlockBegin
  2
_Closed
 70
     0
 10
0.0
 20
0.0
 30
0.0
  3
_Closed
  1

  0
LINE
  5
26E
330
26B
100
AcDbEntity
  8
0
  6
ByBlock
 62
     0
370
    -2
100
AcDbLine
 10
-1.0
 20
0.166667
 30
0.0
 11
0.0
 21
0.0
 31
0.0
  0
LINE
  5
26F
330
26B
100
AcDbEntity
  8
0
  6
ByBlock
 62
     0
370
    -2
100
AcDbLine
 10
0.0
 20
0.0
 30
0.0
 11
-1.0
 21
-0.166667
 31
0.0
  0
LINE
  5
270
330
26B
100
AcDbEntity
  8
0
  6
ByBlock
 62
     0
370
    -2
100
AcDbLine
 10
-1.0
 20
0.166667
 30
0.0
 11
-1.0
 21
-0.166667
 31
0.0
  0
LINE
  5
271
330
26B
100
AcDbEntity
  8
0
  6
ByBlock
 62
     0
370
    -2
100
AcDbLine
 10
0.0
 20
0.0
 30
0.0
 11
-1.0
 21
0.0
 31
0.0
  0
ENDBLK
  5
26D
330
26B
100
AcDbEntity
  8
0
100
AcDbBlockEnd
  0
BLOCK
  5
2C8
330
2C7
100
AcDbEntity
  8
0
100
AcDbBlockBegin
  2
_Open
 70
     0
 10
0.0
 20
0.0
 30
0.0
  3
_Open
  1

  0
LINE
  5
2CA
330
2C7
100
AcDbEntity
  8
0
  6
ByBlock
 62
     0
370
    -2
100
AcDbLine
 10
-1.0
 20
0.166667
 30
0.0
 11
0.0
 21
0.0
 31
0.0
  0
LINE
  5
2CB
330
2C7
100
AcDbEntity
  8
0
  6
ByBlock
 62
     0
370
    -2
100
AcDbLine
 10
-1.0
 20
-0.166667
 30
0.0
 11
0.0
 21
0.0
 31
0.0
  0
LINE
  5
2CC
330
2C7
100
AcDbEntity
  8
0
  6
ByBlock
 62
     0
370
    -2
100
AcDbLine
 10
0.0
 20
0.0
 30
0.0
 11
-1.0
 21
0.0
 31
0.0
  0
ENDBLK
  5
2C9
330
2C7
100
AcDbEntity
  8
0
100
AcDbBlockEnd
  0
BLOCK
  5
2CF
330
2CE
100
AcDbEntity
  8
0
100
AcDbBlockBegin
  2
*D10
 70
     1
 10
0.0
 20
0.0
 30
0.0
  3
*D10
  1

  0
LINE
  5
2D1
330
2CE
100
AcDbEntity
  8
0
  6
ByBlock
 62
     0
370
    -2
100
AcDbLine
 10
-48.0474619662582
 20
95.86348723787779
 30
0.0
 11
-48.0474619662582
 21
117.2247238101434
 31
0.0
  0
LINE
  5
2D2
330
2CE
100
AcDbEntity
  8
0
  6
ByBlock
 62
     0
370
    -2
100
AcDbLine
 10
-103.0474619662582
 20
95.86348723787779
 30
0.0
 11
-103.0474619662582
 21
117.2247238101434
 31
0.0
  0
LINE
  5
2D3
330
2CE
100
AcDbEntity
  8
0
  6
ByBlock
 62
     0
370
    -2
100
AcDbLine
 10
-51.16146196625819
 20
114.938743585534
 30
0.0
 11
-99.93346196625819
 21
114.938743585534
 31
0.0
  0
INSERT
  5
2D4
330
2CE
100
AcDbEntity
  8
0
 62
     0
370
    -2
100
AcDbBlockReference
  2
_Open
 10
-48.0474619662582
 20
114.938743585534
 30
0.0
 41
3.114
 42
3.114
 43
3.114
  0
INSERT
  5
2D5
330
2CE
100
AcDbEntity
  8
0
 62
     0
370
    -2
100
AcDbBlockReference
  2
_Open
 10
-103.0474619662582
 20
114.938743585534
 30
0.0
 41
3.114
 42
3.114
 43
3.114
 50
180.0
  0
MTEXT
  5
2D6
330
2CE
100
AcDbEntity
  8
0
 62
     0
100
AcDbMText
 10
-75.54546196625819
 20
117.938743585534
 30
0.0
 40
4.0
 41
0.0
 71
     5
 72
     1
  1
55
 73
     1
 44
1.0
  0
POINT
  5
2D7
330
2CE
100
AcDbEntity
  8
Defpoints
 62
     0
100
AcDbPoint
 10
-48.0474619662582
 20
95.86348723787779
 30
0.0
  0
POINT
  5
2D8
330
2CE
100
AcDbEntity
  8
Defpoints
 62
     0
100
AcDbPoint
 10
-103.0474619662582
 20
95.86348723787779
 30
0.0
  0
POINT
  5
2D9
330
2CE
100
AcDbEntity
  8
Defpoints
 62
     0
100
AcDbPoint
 10
-103.0474619662582
 20
114.938743585534
 30
0.0
  0
ENDBLK
  5
2D0
330
2CE
100
AcDbEntity
  8
0
100
AcDbBlockEnd
  0
BLOCK
  5
2DC
330
2DB
100
AcDbEntity
  8
0
100
AcDbBlockBegin
  2
*D11
 70
     1
 10
0.0
 20
0.0
 30
0.0
  3
*D11
  1

  0
LINE
  5
2DE
330
2DB
100
AcDbEntity
  8
0
  6
ByBlock
 62
     0
370
    -2
100
AcDbLine
 10
-105.5474619662582
 20
102.9151229800653
 30
0.0
 11
-105.5474619662582
 21
125.2247238101434
 31
0.0
  0
LINE
  5
2DF
330
2DB
100
AcDbEntity
  8
0
  6
ByBlock
 62
     0
370
    -2
100
AcDbLine
 10
-45.5474619662582
 20
101.8573837222528
 30
0.0
 11
-45.5474619662582
 21
125.2247238101434
 31
0.0
  0
LINE
  5
2E0
330
2DB
100
AcDbEntity
  8
0
  6
ByBlock
 62
     0
370
    -2
100
AcDbLine
 10
-102.4334619662582
 20
122.9387130679559
 30
0.0
 11
-48.66146196625819
 21
122.9387130679559
 31
0.0
  0
INSERT
  5
2E1
330
2DB
100
AcDbEntity
  8
0
 62
     0
370
    -2
100
AcDbBlockReference
  2
_Open
 10
-105.5474619662582
 20
122.9387130679559
 30
0.0
 41
3.114
 42
3.114
 43
3.114
 50
180.0
  0
INSERT
  5
2E2
330
2DB
100
AcDbEntity
  8
0
 62
     0
370
    -2
100
AcDbBlockReference
  2
_Open
 10
-45.5474619662582
 20
122.9387130679559
 30
0.0
 41
3.114
 42
3.114
 43
3.114
 50
360.0
  0
MTEXT
  5
2E3
330
2DB
100
AcDbEntity
  8
0
 62
     0
100
AcDbMText
 10
-75.54646196625819
 20
125.9387130679559
 30
0.0
 40
4.0
 41
0.0
 71
     5
 72
     1
  1
60
 73
     1
 44
1.0
  0
POINT
  5
2E4
330
2DB
100
AcDbEntity
  8
Defpoints
 62
     0
100
AcDbPoint
 10
-105.5474619662582
 20
102.9151229800653
 30
0.0
  0
POINT
  5
2E5
330
2DB
100
AcDbEntity
  8
Defpoints
 62
     0
100
AcDbPoint
 10
-45.5474619662582
 20
101.8573837222528
 30
0.0
  0
POINT
  5
2E6
330
2DB
100
AcDbEntity
  8
Defpoints
 62
     0
100
AcDbPoint
 10
-45.5474619662582
 20
122.9387130679559
 30
0.0
  0
ENDBLK
  5
2DD
330
2DB
100
AcDbEntity
  8
0
100
AcDbBlockEnd
  0
BLOCK
  5
2E9
330
2E8
100
AcDbEntity
  8
0
100
AcDbBlockBegin
  2
*D12
 70
     1
 10
0.0
 20
0.0
 30
0.0
  3
*D12
  1

  0
LINE
  5
2EB
330
2E8
100
AcDbEntity
  8
0
  6
ByBlock
 62
     0
370
    -2
100
AcDbLine
 10
-39.5474619662582
 20
103.938743585534
 30
0.0
 11
-39.5474619662582
 21
133.2247238101434
 31
0.0
  0
LINE
  5
2EC
330
2E8
100
AcDbEntity
  8
0
  6
ByBlock
 62
     0
370
    -2
100
AcDbLine
 10
-111.5474619662582
 20
103.938743585534
 30
0.0
 11
-111.5474619662582
 21
133.2247238101434
 31
0.0
  0
LINE
  5
2ED
330
2E8
100
AcDbEntity
  8
0
  6
ByBlock
 62
     0
370
    -2
100
AcDbLine
 10
-42.66146196625819
 20
130.9387130679559
 30
0.0
 11
-108.4334619662582
 21
130.9387130679559
 31
0.0
  0
INSERT
  5
2EE
330
2E8
100
AcDbEntity
  8
0
 62
     0
370
    -2
100
AcDbBlockReference
  2
_Open
 10
-39.5474619662582
 20
130.9387130679559
 30
0.0
 41
3.114
 42
3.114
 43
3.114
  0
INSERT
  5
2EF
330
2E8
100
AcDbEntity
  8
0
 62
     0
370
    -2
100
AcDbBlockReference
  2
_Open
 10
-111.5474619662582
 20
130.9387130679559
 30
0.0
 41
3.114
 42
3.114
 43
3.114
 50
180.0
  0
MTEXT
  5
2F0
330
2E8
100
AcDbEntity
  8
0
 62
     0
100
AcDbMText
 10
-75.54546196625819
 20
133.9387130679559
 30
0.0
 40
4.0
 41
0.0
 71
     5
 72
     1
  1
72
 73
     1
 44
1.0
  0
POINT
  5
2F1
330
2E8
100
AcDbEntity
  8
Defpoints
 62
     0
100
AcDbPoint
 10
-39.5474619662582
 20
103.938743585534
 30
0.0
  0
POINT
  5
2F2
330
2E8
100
AcDbEntity
  8
Defpoints
 62
     0
100
AcDbPoint
 10
-111.5474619662582
 20
103.938743585534
 30
0.0
  0
POINT
  5
2F3
330
2E8
100
AcDbEntity
  8
Defpoints
 62
     0
100
AcDbPoint
 10
-111.5474619662582
 20
130.9387130679559
 30
0.0
  0
ENDBLK
  5
2EA
330
2E8
100
AcDbEntity
  8
0
100
AcDbBlockEnd
  0
BLOCK
  5
2F6
330
2F5
100
AcDbEntity
  8
0
100
AcDbBlockBegin
  2
*D13
 70
     1
 10
0.0
 20
0.0
 30
0.0
  3
*D13
  1

  0
LINE
  5
2F8
330
2F5
100
AcDbEntity
  8
0
  6
ByBlock
 62
     0
370
    -2
100
AcDbLine
 10
-118.0474772250473
 20
105.6387252749872
 30
0.0
 11
-118.0474772250473
 21
141.2247238101434
 31
0.0
  0
LINE
  5
2F9
330
2F5
100
AcDbEntity
  8
0
  6
ByBlock
 62
     0
370
    -2
100
AcDbLine
 10
-33.0474619662582
 20
105.6387252749872
 30
0.0
 11
-33.0474619662582
 21
141.2247238101434
 31
0.0
  0
LINE
  5
2FA
330
2F5
100
AcDbEntity
  8
0
  6
ByBlock
 62
     0
370
    -2
100
AcDbLine
 10
-114.9334772250473
 20
138.9387130679559
 30
0.0
 11
-36.16146196625819
 21
138.9387130679559
 31
0.0
  0
INSERT
  5
2FB
330
2F5
100
AcDbEntity
  8
0
 62
     0
370
    -2
100
AcDbBlockReference
  2
_Open
 10
-118.0474772250473
 20
138.9387130679559
 30
0.0
 41
3.114
 42
3.114
 43
3.114
 50
180.0
  0
INSERT
  5
2FC
330
2F5
100
AcDbEntity
  8
0
 62
     0
370
    -2
100
AcDbBlockReference
  2
_Open
 10
-33.0474619662582
 20
138.9387130679559
 30
0.0
 41
3.114
 42
3.114
 43
3.114
  0
MTEXT
  5
2FD
330
2F5
100
AcDbEntity
  8
0
 62
     0
100
AcDbMText
 10
-75.54646196625819
 20
141.9387130679559
 30
0.0
 40
4.0
 41
0.0
 71
     5
 72
     1
  1
85
 73
     1
 44
1.0
  0
POINT
  5
2FE
330
2F5
100
AcDbEntity
  8
Defpoints
 62
     0
100
AcDbPoint
 10
-118.0474772250473
 20
105.6387252749872
 30
0.0
  0
POINT
  5
2FF
330
2F5
100
AcDbEntity
  8
Defpoints
 62
     0
100
AcDbPoint
 10
-33.0474619662582
 20
105.6387252749872
 30
0.0
  0
POINT
  5
300
330
2F5
100
AcDbEntity
  8
Defpoints
 62
     0
100
AcDbPoint
 10
-33.0474619662582
 20
138.9387130679559
 30
0.0
  0
ENDBLK
  5
2F7
330
2F5
100
AcDbEntity
  8
0
100
AcDbBlockEnd
  0
BLOCK
  5
303
330
302
100
AcDbEntity
  8
0
100
AcDbBlockBegin
  2
*D14
 70
     1
 10
0.0
 20
0.0
 30
0.0
  3
*D14
  1

  0
LINE
  5
305
330
302
100
AcDbEntity
  8
0
  6
ByBlock
 62
     0
370
    -2
100
AcDbLine
 10
-49.5474619662582
 20
-142.6036758480597
 30
0.0
 11
-49.5474619662582
 21
-157.3462671566535
 31
0.0
  0
LINE
  5
306
330
302
100
AcDbEntity
  8
0
  6
ByBlock
 62
     0
370
    -2
100
AcDbLine
 10
-101.5474619662582
 20
-142.6036758480597
 30
0.0
 11
-101.5474619662582
 21
-157.3462671566535
 31
0.0
  0
LINE
  5
307
330
302
100
AcDbEntity
  8
0
  6
ByBlock
 62
     0
370
    -2
100
AcDbLine
 10
-52.66146196625819
 20
-155.060256414466
 30
0.0
 11
-98.43346196625819
 21
-155.060256414466
 31
0.0
  0
INSERT
  5
308
330
302
100
AcDbEntity
  8
0
 62
     0
370
    -2
100
AcDbBlockReference
  2
_Open
 10
-49.5474619662582
 20
-155.060256414466
 30
0.0
 41
3.114
 42
3.114
 43
3.114
  0
INSERT
  5
309
330
302
100
AcDbEntity
  8
0
 62
     0
370
    -2
100
AcDbBlockReference
  2
_Open
 10
-101.5474619662582
 20
-155.060256414466
 30
0.0
 41
3.114
 42
3.114
 43
3.114
 50
180.0
  0
MTEXT
  5
30A
330
302
100
AcDbEntity
  8
0
 62
     0
100
AcDbMText
 10
-75.54546196625819
 20
-152.060256414466
 30
0.0
 40
4.0
 41
0.0
 71
     5
 72
     1
  1
52
 73
     1
 44
1.0
  0
POINT
  5
30B
330
302
100
AcDbEntity
  8
Defpoints
 62
     0
100
AcDbPoint
 10
-49.5474619662582
 20
-142.6036758480597
 30
0.0
  0
POINT
  5
30C
330
302
100
AcDbEntity
  8
Defpoints
 62
     0
100
AcDbPoint
 10
-101.5474619662582
 20
-142.6036758480597
 30
0.0
  0
POINT
  5
30D
330
302
100
AcDbEntity
  8
Defpoints
 62
     0
100
AcDbPoint
 10
-101.5474619662582
 20
-155.061256414466
 30
0.0
  0
ENDBLK
  5
304
330
302
100
AcDbEntity
  8
0
100
AcDbBlockEnd
  0
BLOCK
  5
310
330
30F
100
AcDbEntity
  8
0
100
AcDbBlockBegin
  2
*D15
 70
     1
 10
0.0
 20
0.0
 30
0.0
  3
*D15
  1

  0
LINE
  5
312
330
30F
100
AcDbEntity
  8
0
  6
ByBlock
 62
     0
370
    -2
100
AcDbLine
 10
106.4525380337418
 20
-51.82961655240541
 30
0.0
 11
106.4525380337418
 21
-81.13635077957784
 31
0.0
  0
LINE
  5
313
330
30F
100
AcDbEntity
  8
0
  6
ByBlock
 62
     0
370
    -2
100
AcDbLine
 10
134.4525380337418
 20
-51.82961655240541
 30
0.0
 11
134.4525380337418
 21
-81.13635077957784
 31
0.0
  0
LINE
  5
314
330
30F
100
AcDbEntity
  8
0
  6
ByBlock
 62
     0
370
    -2
100
AcDbLine
 10
109.5665380337418
 20
-78.85035077957784
 30
0.0
 11
131.3385380337418
 21
-78.85035077957784
 31
0.0
  0
INSERT
  5
315
330
30F
100
AcDbEntity
  8
0
 62
     0
370
    -2
100
AcDbBlockReference
  2
_Open
 10
106.4525380337418
 20
-78.85035077957784
 30
0.0
 41
3.114
 42
3.114
 43
3.114
 50
180.0
  0
INSERT
  5
316
330
30F
100
AcDbEntity
  8
0
 62
     0
370
    -2
100
AcDbBlockReference
  2
_Open
 10
134.4525380337418
 20
-78.85035077957784
 30
0.0
 41
3.114
 42
3.114
 43
3.114
  0
MTEXT
  5
317
330
30F
100
AcDbEntity
  8
0
 62
     0
100
AcDbMText
 10
120.4535380337418
 20
-75.85035077957784
 30
0.0
 40
4.0
 41
0.0
 71
     5
 72
     1
  1
28
 73
     1
 44
1.0
  0
POINT
  5
318
330
30F
100
AcDbEntity
  8
Defpoints
 62
     0
100
AcDbPoint
 10
106.4525380337418
 20
-51.82961655240541
 30
0.0
  0
POINT
  5
319
330
30F
100
AcDbEntity
  8
Defpoints
 62
     0
100
AcDbPoint
 10
134.4525380337418
 20
-51.82961655240541
 30
0.0
  0
POINT
  5
31A
330
30F
100
AcDbEntity
  8
Defpoints
 62
     0
100
AcDbPoint
 10
134.4525380337418
 20
-78.85135077957784
 30
0.0
  0
ENDBLK
  5
311
330
30F
100
AcDbEntity
  8
0
100
AcDbBlockEnd
  0
BLOCK
  5
31D
330
31C
100
AcDbEntity
  8
0
100
AcDbBlockBegin
  2
*D16
 70
     1
 10
0.0
 20
0.0
 30
0.0
  3
*D16
  1

  0
LINE
  5
31F
330
31C
100
AcDbEntity
  8
0
  6
ByBlock
 62
     0
370
    -2
100
AcDbLine
 10
88.4525380337418
 20
-53.32849121671205
 30
0.0
 11
88.4525380337418
 21
-90.67767267659072
 31
0.0
  0
LINE
  5
320
330
31C
100
AcDbEntity
  8
0
  6
ByBlock
 62
     0
370
    -2
100
AcDbLine
 10
152.4525380337418
 20
-53.32849121671205
 30
0.0
 11
152.4525380337418
 21
-90.67767267659073
 31
0.0
  0
LINE
  5
321
330
31C
100
AcDbEntity
  8
0
  6
ByBlock
 62
     0
370
    -2
100
AcDbLine
 10
91.56653803374181
 20
-88.39167267659072
 30
0.0
 11
149.3385380337418
 21
-88.39167267659073
 31
0.0
  0
INSERT
  5
322
330
31C
100
AcDbEntity
  8
0
 62
     0
370
    -2
100
AcDbBlockReference
  2
_Open
 10
88.4525380337418
 20
-88.39167267659072
 30
0.0
 41
3.114
 42
3.114
 43
3.114
 50
180.0
  0
INSERT
  5
323
330
31C
100
AcDbEntity
  8
0
 62
     0
370
    -2
100
AcDbBlockReference
  2
_Open
 10
152.4525380337418
 20
-88.39167267659073
 30
0.0
 41
3.114
 42
3.114
 43
3.114
 50
360.0
  0
MTEXT
  5
324
330
31C
100
AcDbEntity
  8
0
 62
     0
100
AcDbMText
 10
120.4535380337418
 20
-85.39167267659073
 30
0.0
 40
4.0
 41
0.0
 71
     5
 72
     1
  1
64
 73
     1
 44
1.0
  0
POINT
  5
325
330
31C
100
AcDbEntity
  8
Defpoints
 62
     0
100
AcDbPoint
 10
88.4525380337418
 20
-53.32849121671205
 30
0.0
  0
POINT
  5
326
330
31C
100
AcDbEntity
  8
Defpoints
 62
     0
100
AcDbPoint
 10
152.4525380337418
 20
-53.32849121671205
 30
0.0
  0
POINT
  5
327
330
31C
100
AcDbEntity
  8
Defpoints
 62
     0
100
AcDbPoint
 10
152.4525380337418
 20
-88.39267267659073
 30
0.0
  0
ENDBLK
  5
31E
330
31C
100
AcDbEntity
  8
0
100
AcDbBlockEnd
  0
BLOCK
  5
32A
330
329
100
AcDbEntity
  8
0
100
AcDbBlockBegin
  2
*D17
 70
     1
 10
0.0
 20
0.0
 30
0.0
  3
*D17
  1

  0
LINE
  5
32C
330
329
100
AcDbEntity
  8
0
  6
ByBlock
 62
     0
370
    -2
100
AcDbLine
 10
-39.34746284301991
 20
106.938743585534
 30
0.0
 11
2.928740256478437
 21
106.9387435855341
 31
0.0
  0
LINE
  5
32D
330
329
100
AcDbEntity
  8
0
  6
ByBlock
 62
     0
370
    -2
100
AcDbLine
 10
-34.0474619662582
 20
70.93874358553404
 30
0.0
 11
2.928740256478451
 21
70.93874358553406
 31
0.0
  0
LINE
  5
32E
330
329
100
AcDbEntity
  8
0
  6
ByBlock
 62
     0
370
    -2
100
AcDbLine
 10
0.642740256478437
 20
103.8247435855341
 30
0.0
 11
0.642740256478448
 21
74.05274358553406
 31
0.0
  0
INSERT
  5
32F
330
329
100
AcDbEntity
  8
0
 62
     0
370
    -2
100
AcDbBlockReference
  2
_Open
 10
0.642740256478436
 20
106.9387435855341
 30
0.0
 41
3.114
 42
3.114
 43
3.114
 50
90.00000000000001
  0
INSERT
  5
330
330
329
100
AcDbEntity
  8
0
 62
     0
370
    -2
100
AcDbBlockReference
  2
_Open
 10
0.642740256478449
 20
70.93874358553406
 30
0.0
 41
3.114
 42
3.114
 43
3.114
 50
270.0
  0
MTEXT
  5
331
330
329
100
AcDbEntity
  8
0
 62
     0
100
AcDbMText
 10
-2.357259743521558
 20
88.93974358553405
 30
0.0
 40
4.0
 41
0.0
 71
     5
 72
     1
  1
36
 11
-3.824101529264426E-16
 21
1.0
 31
0.0
 73
     1
 44
1.0
  0
POINT
  5
332
330
329
100
AcDbEntity
  8
Defpoints
 62
     0
100
AcDbPoint
 10
-39.34746284301991
 20
106.938743585534
 30
0.0
  0
POINT
  5
333
330
329
100
AcDbEntity
  8
Defpoints
 62
     0
100
AcDbPoint
 10
-34.0474619662582
 20
70.93874358553404
 30
0.0
  0
POINT
  5
334
330
329
100
AcDbEntity
  8
Defpoints
 62
     0
100
AcDbPoint
 10
0.641740256478442
 20
70.93874358553404
 30
0.0
  0
ENDBLK
  5
32B
330
329
100
AcDbEntity
  8
0
100
AcDbBlockEnd
  0
BLOCK
  5
337
330
336
100
AcDbEntity
  8
0
100
AcDbBlockBegin
  2
*D18
 70
     1
 10
0.0
 20
0.0
 30
0.0
  3
*D18
  1

  0
LINE
  5
339
330
336
100
AcDbEntity
  8
0
  6
ByBlock
 62
     0
370
    -2
100
AcDbLine
 10
-33.0474619662582
 20
89.93874358553404
 30
0.0
 11
-5.551794799432118
 21
89.93874358553404
 31
0.0
  0
LINE
  5
33A
330
336
100
AcDbEntity
  8
0
  6
ByBlock
 62
     0
370
    -2
100
AcDbLine
 10
-39.34746120331874
 20
106.938743585534
 30
0.0
 11
-5.551794799432114
 21
106.938743585534
 31
0.0
  0
LINE
  5
33B
330
336
100
AcDbEntity
  8
0
  6
ByBlock
 62
     0
370
    -2
100
AcDbLine
 10
-7.837794799432118
 20
93.05274358553405
 30
0.0
 11
-7.837794799432117
 21
103.824743585534
 31
0.0
  0
INSERT
  5
33C
330
336
100
AcDbEntity
  8
0
 62
     0
370
    -2
100
AcDbBlockReference
  2
_Open
 10
-7.837794799432119
 20
89.93874358553404
 30
0.0
 41
3.114
 42
3.114
 43
3.114
 50
270.0
  0
INSERT
  5
33D
330
336
100
AcDbEntity
  8
0
 62
     0
370
    -2
100
AcDbBlockReference
  2
_Open
 10
-7.837794799432116
 20
106.938743585534
 30
0.0
 41
3.114
 42
3.114
 43
3.114
 50
89.99999999999999
  0
MTEXT
  5
33E
330
336
100
AcDbEntity
  8
0
 62
     0
100
AcDbMText
 10
-10.83779479943212
 20
98.43974358553405
 30
0.0
 40
4.0
 41
0.0
 71
     5
 72
     1
  1
17
 11
2.089831575765001E-16
 21
1.0
 31
0.0
 73
     1
 44
1.0
  0
POINT
  5
33F
330
336
100
AcDbEntity
  8
Defpoints
 62
     0
100
AcDbPoint
 10
-33.0474619662582
 20
89.93874358553404
 30
0.0
  0
POINT
  5
340
330
336
100
AcDbEntity
  8
Defpoints
 62
     0
100
AcDbPoint
 10
-39.34746120331874
 20
106.938743585534
 30
0.0
  0
POINT
  5
341
330
336
100
AcDbEntity
  8
Defpoints
 62
     0
100
AcDbPoint
 10
-7.837794799432118
 20
106.938743585534
 30
0.0
  0
ENDBLK
  5
338
330
336
100
AcDbEntity
  8
0
100
AcDbBlockEnd
  0
BLOCK
  5
344
330
343
100
AcDbEntity
  8
0
100
AcDbBlockBegin
  2
*D19
 70
     1
 10
0.0
 20
0.0
 30
0.0
  3
*D19
  1

  0
LINE
  5
346
330
343
100
AcDbEntity
  8
0
  6
ByBlock
 62
     0
370
    -2
100
AcDbLine
 10
-34.0474619662582
 20
70.93874358553404
 30
0.0
 11
-5.550794799432112
 21
70.93874358553406
 31
0.0
  0
LINE
  5
347
330
343
100
AcDbEntity
  8
0
  6
ByBlock
 62
     0
370
    -2
100
AcDbLine
 10
-7.83679479943212
 20
86.82474358553405
 30
0.0
 11
-7.836794799432115
 21
74.05274358553406
 31
0.0
  0
INSERT
  5
348
330
343
100
AcDbEntity
  8
0
 62
     0
370
    -2
100
AcDbBlockReference
  2
_Open
 10
-7.836794799432121
 20
89.93874358553406
 30
0.0
 41
3.114
 42
3.114
 43
3.114
 50
90.00000000000001
  0
INSERT
  5
349
330
343
100
AcDbEntity
  8
0
 62
     0
370
    -2
100
AcDbBlockReference
  2
_Open
 10
-7.836794799432114
 20
70.93874358553406
 30
0.0
 41
3.114
 42
3.114
 43
3.114
 50
270.0
  0
MTEXT
  5
34A
330
343
100
AcDbEntity
  8
0
 62
     0
100
AcDbMText
 10
-10.83679479943212
 20
80.43974358553405
 30
0.0
 40
4.0
 41
0.0
 71
     5
 72
     1
  1
19
 11
-3.739698609263683E-16
 21
1.0
 31
0.0
 73
     1
 44
1.0
  0
POINT
  5
34B
330
343
100
AcDbEntity
  8
Defpoints
 62
     0
100
AcDbPoint
 10
-33.0474619662582
 20
89.93874358553404
 30
0.0
  0
POINT
  5
34C
330
343
100
AcDbEntity
  8
Defpoints
 62
     0
100
AcDbPoint
 10
-34.0474619662582
 20
70.93874358553404
 30
0.0
  0
POINT
  5
34D
330
343
100
AcDbEntity
  8
Defpoints
 62
     0
100
AcDbPoint
 10
-7.837794799432118
 20
70.93874358553404
 30
0.0
  0
ENDBLK
  5
345
330
343
100
AcDbEntity
  8
0
100
AcDbBlockEnd
  0
BLOCK
  5
350
330
34F
100
AcDbEntity
  8
0
100
AcDbBlockBegin
  2
*D20
 70
     1
 10
0.0
 20
0.0
 30
0.0
  3
*D20
  1

  0
LINE
  5
352
330
34F
100
AcDbEntity
  8
0
  6
ByBlock
 62
     0
370
    -2
100
AcDbLine
 10
-41.74613139985195
 20
98.93874358553404
 30
0.0
 11
-22.96815404322794
 21
98.93874358553404
 31
0.0
  0
LINE
  5
353
330
34F
100
AcDbEntity
  8
0
  6
ByBlock
 62
     0
370
    -2
100
AcDbLine
 10
-41.74613139985195
 20
80.93874358553404
 30
0.0
 11
-22.96815404322793
 21
80.93874358553404
 31
0.0
  0
LINE
  5
354
330
34F
100
AcDbEntity
  8
0
  6
ByBlock
 62
     0
370
    -2
100
AcDbLine
 10
-25.25415404322794
 20
98.93874358553404
 30
0.0
 11
-25.25415404322795
 21
115.3615546845827
 31
0.0
  0
LINE
  5
355
330
34F
100
AcDbEntity
  8
0
  6
ByBlock
 62
     0
370
    -2
100
AcDbLine
 10
-25.25415404322794
 20
95.82474358553404
 30
0.0
 11
-25.25415404322793
 21
84.05274358553405
 31
0.0
  0
INSERT
  5
356
330
34F
100
AcDbEntity
  8
0
 62
     0
370
    -2
100
AcDbBlockReference
  2
_Open
 10
-25.25415404322794
 20
98.93874358553404
 30
0.0
 41
3.114
 42
3.114
 43
3.114
 50
90.00000000000001
  0
INSERT
  5
357
330
34F
100
AcDbEntity
  8
0
 62
     0
370
    -2
100
AcDbBlockReference
  2
_Open
 10
-25.25415404322793
 20
80.93874358553404
 30
0.0
 41
3.114
 42
3.114
 43
3.114
 50
270.0
  0
MTEXT
  5
358
330
34F
100
AcDbEntity
  8
0
 62
     0
100
AcDbMText
 10
-28.25415404322795
 20
111.4091737322018
 30
0.0
 40
4.0
 41
0.0
 71
     5
 72
     1
  1
18
 11
-3.947459643111667E-16
 21
1.0
 31
0.0
 73
     1
 44
1.0
  0
POINT
  5
359
330
34F
100
AcDbEntity
  8
Defpoints
 62
     0
100
AcDbPoint
 10
-41.74613139985195
 20
98.93874358553404
 30
0.0
  0
POINT
  5
35A
330
34F
100
AcDbEntity
  8
Defpoints
 62
     0
100
AcDbPoint
 10
-41.74613139985195
 20
80.93874358553404
 30
0.0
  0
POINT
  5
35B
330
34F
100
AcDbEntity
  8
Defpoints
 62
     0
100
AcDbPoint
 10
-25.25515404322795
 20
80.93874358553404
 30
0.0
  0
ENDBLK
  5
351
330
34F
100
AcDbEntity
  8
0
100
AcDbBlockEnd
  0
BLOCK
  5
35E
330
35D
100
AcDbEntity
  8
0
100
AcDbBlockBegin
  2
*D21
 70
     1
 10
0.0
 20
0.0
 30
0.0
  3
*D21
  1

  0
LINE
  5
360
330
35D
100
AcDbEntity
  8
0
  6
ByBlock
 62
     0
370
    -2
100
AcDbLine
 10
-40.54746197903472
 20
104.938743585534
 30
0.0
 11
-14.10111040992738
 21
104.9387435855341
 31
0.0
  0
LINE
  5
361
330
35D
100
AcDbEntity
  8
0
  6
ByBlock
 62
     0
370
    -2
100
AcDbLine
 10
-40.54746197903478
 20
74.93874358553398
 30
0.0
 11
-14.10111040992737
 21
74.938743585534
 31
0.0
  0
LINE
  5
362
330
35D
100
AcDbEntity
  8
0
  6
ByBlock
 62
     0
370
    -2
100
AcDbLine
 10
-16.38711040992738
 20
101.8247435855341
 30
0.0
 11
-16.38711040992737
 21
78.052743585534
 31
0.0
  0
INSERT
  5
363
330
35D
100
AcDbEntity
  8
0
 62
     0
370
    -2
100
AcDbBlockReference
  2
_Open
 10
-16.38711040992738
 20
104.9387435855341
 30
0.0
 41
3.114
 42
3.114
 43
3.114
 50
90.00000000000001
  0
INSERT
  5
364
330
35D
100
AcDbEntity
  8
0
 62
     0
370
    -2
100
AcDbBlockReference
  2
_Open
 10
-16.38711040992737
 20
74.938743585534
 30
0.0
 41
3.114
 42
3.114
 43
3.114
 50
270.0
  0
MTEXT
  5
365
330
35D
100
AcDbEntity
  8
0
 62
     0
100
AcDbMText
 10
-19.38711040992738
 20
95.14620698084187
 30
0.0
 40
4.0
 41
0.0
 71
     5
 72
     1
  1
30
 11
-3.552713678800493E-16
 21
1.0
 31
0.0
 73
     1
 44
1.0
  0
POINT
  5
366
330
35D
100
AcDbEntity
  8
Defpoints
 62
     0
100
AcDbPoint
 10
-40.54746197903472
 20
104.938743585534
 30
0.0
  0
POINT
  5
367
330
35D
100
AcDbEntity
  8
Defpoints
 62
     0
100
AcDbPoint
 10
-40.54746197903478
 20
74.93874358553398
 30
0.0
  0
POINT
  5
368
330
35D
100
AcDbEntity
  8
Defpoints
 62
     0
100
AcDbPoint
 10
-16.38811040992738
 20
74.93874358553398
 30
0.0
  0
ENDBLK
  5
35F
330
35D
100
AcDbEntity
  8
0
100
AcDbBlockEnd
  0
BLOCK
  5
370
330
369
100
AcDbEntity
  8
0
100
AcDbBlockBegin
  2
SYM0001
 70
     0
 10
0.0
 20
0.0
 30
0.0
  3
SYM0001
  1

  0
LINE
  5
36A
330
369
100
AcDbEntity
  8
0
  6
Continuous
 62
     7
100
AcDbLine
 10
0.0
 20
0.0
 30
0.0
 11
7.33340060401553
 21
-19.11346213141377
 31
0.0
  0
LINE
  5
36B
330
369
100
AcDbEntity
  8
0
  6
Continuous
 62
     7
100
AcDbLine
 10
0.0
 20
0.0
 30
0.0
 11
1.858323634774216
 21
-2.558638948597505
 31
0.0
  0
LINE
  5
36C
330
369
100
AcDbEntity
  8
0
  6
Continuous
 62
     7
100
AcDbLine
 10
0.0
 20
0.0
 30
0.0
 11
0.330036002050413
 21
-3.145008145965804
 31
0.0
  0
LINE
  5
36D
330
369
100
AcDbEntity
  8
0
  6
Continuous
 62
     7
100
AcDbLine
 10
7.33340060401553
 20
-19.11346213141377
 30
0.0
 11
60.82031424998898
 21
-19.11346213141377
 31
0.0
  0
MTEXT
  5
36E
330
369
100
AcDbEntity
  8
0
 62
     7
100
AcDbMText
 10
11.24859852041178
 20
-18.11346213141372
 30
0.0
 40
4.0
 41
0.0
 71
     7
 72
     1
  1
{\W0.833333;4-M5×０．８（通し）}
 73
     1
 44
1.0
  0
ENDBLK
  5
371
330
369
100
AcDbEntity
  8
0
100
AcDbBlockEnd
  0
BLOCK
  5
374
330
373
100
AcDbEntity
  8
0
100
AcDbBlockBegin
  2
*D23
 70
     1
 10
0.0
 20
0.0
 30
0.0
  3
*D23
  1

  0
LINE
  5
376
330
373
100
AcDbEntity
  8
0
  6
ByBlock
 62
     0
370
    -2
100
AcDbLine
 10
-40.0474634625532
 20
23.93874377626891
 30
0.0
 11
-17.35762129949675
 21
23.93874377626892
 31
0.0
  0
LINE
  5
377
330
373
100
AcDbEntity
  8
0
  6
ByBlock
 62
     0
370
    -2
100
AcDbLine
 10
-19.64362129949675
 20
20.82474377626892
 30
0.0
 11
-19.64362129949675
 21
17.05274358553405
 31
0.0
  0
INSERT
  5
378
330
373
100
AcDbEntity
  8
0
 62
     0
370
    -2
100
AcDbBlockReference
  2
_Open
 10
-19.64362129949675
 20
23.93874377626892
 30
0.0
 41
3.114
 42
3.114
 43
3.114
 50
90.00000000000001
  0
INSERT
  5
379
330
373
100
AcDbEntity
  8
0
 62
     0
370
    -2
100
AcDbBlockReference
  2
_Open
 10
-19.64362129949675
 20
13.93874358553405
 30
0.0
 41
3.114
 42
3.114
 43
3.114
 50
270.0
  0
MTEXT
  5
37A
330
373
100
AcDbEntity
  8
0
 62
     0
100
AcDbMText
 10
-22.64362129949675
 20
18.83974368090148
 30
0.0
 40
4.0
 41
0.0
 71
     5
 72
     1
  1
10
 11
-3.552713611037863E-16
 21
1.0
 31
0.0
 73
     1
 44
1.0
  0
POINT
  5
37B
330
373
100
AcDbEntity
  8
Defpoints
 62
     0
100
AcDbPoint
 10
-40.0474634625532
 20
23.93874377626891
 30
0.0
  0
POINT
  5
37C
330
373
100
AcDbEntity
  8
Defpoints
 62
     0
100
AcDbPoint
 10
-40.04746089713683
 20
13.93874358553404
 30
0.0
  0
POINT
  5
37D
330
373
100
AcDbEntity
  8
Defpoints
 62
     0
100
AcDbPoint
 10
-19.64462129949675
 20
13.93874358553404
 30
0.0
  0
ENDBLK
  5
375
330
373
100
AcDbEntity
  8
0
100
AcDbBlockEnd
  0
BLOCK
  5
380
330
37F
100
AcDbEntity
  8
0
100
AcDbBlockBegin
  2
*D24
 70
     1
 10
0.0
 20
0.0
 30
0.0
  3
*D24
  1

  0
MTEXT
  5
389
330
37F
100
AcDbEntity
  8
0
 62
     0
100
AcDbMText
 10
-22.64462129949675
 20
3.377410252200709
 30
0.0
 40
4.0
 41
0.0
 71
     5
 72
     1
  1
2
 11
0.0
 21
1.0
 31
0.0
 73
     1
 44
1.0
  0
POINT
  5
38A
330
37F
100
AcDbEntity
  8
Defpoints
 62
     0
100
AcDbPoint
 10
-33.0474619662582
 20
11.93874358553404
 30
0.0
  0
POINT
  5
38B
330
37F
100
AcDbEntity
  8
Defpoints
 62
     0
100
AcDbPoint
 10
-40.04746089713683
 20
13.93874358553404
 30
0.0
  0
POINT
  5
38C
330
37F
100
AcDbEntity
  8
Defpoints
 62
     0
100
AcDbPoint
 10
-19.64462129949675
 20
13.93874358553404
 30
0.0
  0
LINE
  5
38D
330
37F
100
AcDbEntity
  8
0
  6
Continuous
 62
     7
100
AcDbLine
 10
-40.04746089713683
 20
13.93874358553404
 30
0.0
 11
-17.35862129949675
 21
13.93874358553404
 31
0.0
  0
LINE
  5
38E
330
37F
100
AcDbEntity
  8
0
  6
Continuous
 62
     7
100
AcDbLine
 10
-19.64462129949675
 20
5.588743585534045
 30
0.0
 11
-19.64462129949675
 21
20.28874358553404
 31
0.0
  0
LINE
  5
38F
330
37F
100
AcDbEntity
  8
0
  6
Continuous
 62
     7
100
AcDbLine
 10
-19.64462129949675
 20
11.93874358553404
 30
0.0
 11
-19.09562129949675
 21
8.824743585534044
 31
0.0
  0
LINE
  5
390
330
37F
100
AcDbEntity
  8
0
  6
Continuous
 62
     7
100
AcDbLine
 10
-19.64462129949675
 20
11.93874358553404
 30
0.0
 11
-20.19362129949675
 21
8.824743585534044
 31
0.0
  0
LINE
  5
391
330
37F
100
AcDbEntity
  8
0
  6
Continuous
 62
     7
100
AcDbLine
 10
-19.64462129949675
 20
13.93874358553404
 30
0.0
 11
-20.19362129949675
 21
17.05274358553405
 31
0.0
  0
LINE
  5
392
330
37F
100
AcDbEntity
  8
0
  6
Continuous
 62
     7
100
AcDbLine
 10
-19.64462129949675
 20
13.93874358553404
 30
0.0
 11
-19.09562129949675
 21
17.05274358553405
 31
0.0
  0
LINE
  5
393
330
37F
100
AcDbEntity
  8
0
  6
Continuous
 62
     7
100
AcDbLine
 10
-19.64462129949675
 20
11.93874358553404
 30
0.0
 11
-19.64462129949675
 21
4.956425909363933
 31
0.0
  0
ENDBLK
  5
381
330
37F
100
AcDbEntity
  8
0
100
AcDbBlockEnd
  0
BLOCK
  5
396
330
395
100
AcDbEntity
  8
0
100
AcDbBlockBegin
  2
*D25
 70
     1
 10
0.0
 20
0.0
 30
0.0
  3
*D25
  1

  0
MTEXT
  5
39C
330
395
100
AcDbEntity
  8
0
 62
     0
100
AcDbMText
 10
-23.69124034711579
 20
-20.56025641446595
 30
0.0
 40
4.0
 41
0.0
 71
     5
 72
     1
  1
\A1;L{\H0.5x;\S^ 1;}(35+ストローク)
 11
-3.789561257387201E-16
 21
1.0
 31
0.0
 73
     1
 44
1.0
  0
POINT
  5
39D
330
395
100
AcDbEntity
  8
Defpoints
 62
     0
100
AcDbPoint
 10
-33.0474619662582
 20
11.93874358553404
 30
0.0
  0
POINT
  5
39E
330
395
100
AcDbEntity
  8
Defpoints
 62
     0
100
AcDbPoint
 10
-33.0474619662582
 20
-63.06125641446596
 30
0.0
  0
POINT
  5
39F
330
395
100
AcDbEntity
  8
Defpoints
 62
     0
100
AcDbPoint
 10
-19.64462129949675
 20
-63.06125641446596
 30
0.0
  0
LINE
  5
3A0
330
395
100
AcDbEntity
  8
0
  6
Continuous
 62
     7
100
AcDbLine
 10
-33.0474619662582
 20
11.93874358553404
 30
0.0
 11
-17.35862129949675
 21
11.93874358553404
 31
0.0
  0
LINE
  5
3A1
330
395
100
AcDbEntity
  8
0
  6
Continuous
 62
     7
100
AcDbLine
 10
-19.64462129949675
 20
11.93874358553404
 30
0.0
 11
-19.64462129949675
 21
-63.06125641446596
 31
0.0
  0
LINE
  5
3A2
330
395
100
AcDbEntity
  8
0
  6
Continuous
 62
     7
100
AcDbLine
 10
-19.64462129949675
 20
11.93874358553404
 30
0.0
 11
-19.09562129949675
 21
8.824743585534044
 31
0.0
  0
LINE
  5
3A3
330
395
100
AcDbEntity
  8
0
  6
Continuous
 62
     7
100
AcDbLine
 10
-19.64462129949675
 20
11.93874358553404
 30
0.0
 11
-20.19362129949675
 21
8.824743585534044
 31
0.0
  0
LINE
  5
3A4
330
395
100
AcDbEntity
  8
0
  6
Continuous
 62
     7
100
AcDbLine
 10
-19.64462129949675
 20
-63.06125641446596
 30
0.0
 11
-20.19362129949675
 21
-59.94725641446596
 31
0.0
  0
LINE
  5
3A5
330
395
100
AcDbEntity
  8
0
  6
Continuous
 62
     7
100
AcDbLine
 10
-19.64462129949675
 20
-63.06125641446596
 30
0.0
 11
-19.09562129949675
 21
-59.94725641446596
 31
0.0
  0
ENDBLK
  5
397
330
395
100
AcDbEntity
  8
0
100
AcDbBlockEnd
  0
BLOCK
  5
3A8
330
3A7
100
AcDbEntity
  8
0
100
AcDbBlockBegin
  2
*D26
 70
     1
 10
0.0
 20
0.0
 30
0.0
  3
*D26
  1

  0
LINE
  5
3AA
330
3A7
100
AcDbEntity
  8
0
  6
ByBlock
 62
     0
370
    -2
100
AcDbLine
 10
-33.0474619662582
 20
-63.06125641446596
 30
0.0
 11
-17.35762129949675
 21
-63.06125641446595
 31
0.0
  0
LINE
  5
3AB
330
3A7
100
AcDbEntity
  8
0
  6
ByBlock
 62
     0
370
    -2
100
AcDbLine
 10
-42.0474619662582
 20
-77.06125641446596
 30
0.0
 11
-17.35762129949674
 21
-77.06125641446594
 31
0.0
  0
LINE
  5
3AC
330
3A7
100
AcDbEntity
  8
0
  6
ByBlock
 62
     0
370
    -2
100
AcDbLine
 10
-19.64362129949675
 20
-66.17525641446595
 30
0.0
 11
-19.64362129949674
 21
-73.94725641446594
 31
0.0
  0
INSERT
  5
3AD
330
3A7
100
AcDbEntity
  8
0
 62
     0
370
    -2
100
AcDbBlockReference
  2
_Open
 10
-19.64362129949675
 20
-63.06125641446595
 30
0.0
 41
3.114
 42
3.114
 43
3.114
 50
90.00000000000004
  0
INSERT
  5
3AE
330
3A7
100
AcDbEntity
  8
0
 62
     0
370
    -2
100
AcDbBlockReference
  2
_Open
 10
-19.64362129949674
 20
-77.06125641446594
 30
0.0
 41
3.114
 42
3.114
 43
3.114
 50
270.0
  0
MTEXT
  5
3AF
330
3A7
100
AcDbEntity
  8
0
 62
     0
100
AcDbMText
 10
-22.64362129949675
 20
-70.3747691235732
 30
0.0
 40
4.0
 41
0.0
 71
     5
 72
     1
  1
\A1;L{\H0.5x;\S^ 2;}
 11
-5.075305255429285E-16
 21
1.0
 31
0.0
 73
     1
 44
1.0
  0
POINT
  5
3B0
330
3A7
100
AcDbEntity
  8
Defpoints
 62
     0
100
AcDbPoint
 10
-33.0474619662582
 20
-63.06125641446596
 30
0.0
  0
POINT
  5
3B1
330
3A7
100
AcDbEntity
  8
Defpoints
 62
     0
100
AcDbPoint
 10
-42.0474619662582
 20
-77.06125641446596
 30
0.0
  0
POINT
  5
3B2
330
3A7
100
AcDbEntity
  8
Defpoints
 62
     0
100
AcDbPoint
 10
-19.64462129949675
 20
-77.06125641446596
 30
0.0
  0
ENDBLK
  5
3A9
330
3A7
100
AcDbEntity
  8
0
100
AcDbBlockEnd
  0
BLOCK
  5
3BA
330
3B3
100
AcDbEntity
  8
0
100
AcDbBlockBegin
  2
SYM0002
 70
     0
 10
0.0
 20
0.0
 30
0.0
  3
SYM0002
  1

  0
LINE
  5
3B4
330
3B3
100
AcDbEntity
  8
0
  6
Continuous
 62
     7
100
AcDbLine
 10
0.0
 20
0.0
 30
0.0
 11
11.5672982829594
 21
8.647239536531245
 31
0.0
  0
LINE
  5
3B5
330
3B3
100
AcDbEntity
  8
0
  6
Continuous
 62
     7
100
AcDbLine
 10
0.0
 20
0.0
 30
0.0
 11
1.956433907328886
 21
2.484424755772352
 31
0.0
  0
LINE
  5
3B6
330
3B3
100
AcDbEntity
  8
0
  6
Continuous
 62
     7
100
AcDbLine
 10
0.0
 20
0.0
 30
0.0
 11
2.936533842390446
 21
1.173357998794984
 31
0.0
  0
LINE
  5
3B7
330
3B3
100
AcDbEntity
  8
0
  6
Continuous
 62
     7
100
AcDbLine
 10
11.5672982829594
 20
8.647239536531245
 30
0.0
 11
41.85439913077587
 21
8.647239536531245
 31
0.0
  0
MTEXT
  5
3B8
330
3B3
100
AcDbEntity
  8
0
 62
     7
100
AcDbMText
 10
13.24385685137116
 20
9.647239536531295
 30
0.0
 40
4.0
 41
0.0
 71
     7
 72
     1
  1
{\W0.833333;2-Rc1/8}
 73
     1
 44
1.0
  0
ENDBLK
  5
3BB
330
3B3
100
AcDbEntity
  8
0
100
AcDbBlockEnd
  0
BLOCK
  5
3C3
330
3BC
100
AcDbEntity
  8
0
100
AcDbBlockBegin
  2
SYM0003
 70
     0
 10
0.0
 20
0.0
 30
0.0
  3
SYM0003
  1

  0
LINE
  5
3BD
330
3BC
100
AcDbEntity
  8
0
  6
Continuous
 62
     7
100
AcDbLine
 10
0.0
 20
0.0
 30
0.0
 11
-20.34030567039994
 21
15.35837632033792
 31
0.0
  0
LINE
  5
3BE
330
3BC
100
AcDbEntity
  8
0
  6
Continuous
 62
     7
100
AcDbLine
 10
0.0
 20
0.0
 30
0.0
 11
-2.930866047835835
 21
1.187444403112713
 31
0.0
  0
LINE
  5
3BF
330
3BC
100
AcDbEntity
  8
0
  6
Continuous
 62
     7
100
AcDbLine
 10
0.0
 20
0.0
 30
0.0
 11
-1.944482251102826
 21
2.493790042482869
 31
0.0
  0
LINE
  5
3C0
330
3BC
100
AcDbEntity
  8
0
  6
Continuous
 62
     7
100
AcDbLine
 10
-20.34030567039996
 20
15.35837632033792
 30
0.0
 11
-54.97116416422396
 21
15.35837632033792
 31
0.0
  0
MTEXT
  5
3C1
330
3BC
100
AcDbEntity
  8
0
 62
     7
100
AcDbMText
 10
-25.25659188783608
 20
16.35837632033792
 30
0.0
 40
4.0
 41
0.0
 71
     9
 72
     1
  1
{\W0.833333;2-Rc1/8}
 73
     1
 44
1.0
  0
ENDBLK
  5
3C4
330
3BC
100
AcDbEntity
  8
0
100
AcDbBlockEnd
  0
BLOCK
  5
3CC
330
3C5
100
AcDbEntity
  8
0
100
AcDbBlockBegin
  2
SYM0004
 70
     0
 10
0.0
 20
0.0
 30
0.0
  3
SYM0004
  1

  0
LINE
  5
3C6
330
3C5
100
AcDbEntity
  8
0
  6
Continuous
 62
     7
100
AcDbLine
 10
0.0
 20
0.0
 30
0.0
 11
-24.78078412858032
 21
-50.89612223036283
 31
0.0
  0
LINE
  5
3C7
330
3C5
100
AcDbEntity
  8
0
  6
Continuous
 62
     7
100
AcDbLine
 10
0.0
 20
0.0
 30
0.0
 11
-0.601275843825206
 21
-3.104588114464285
 31
0.0
  0
LINE
  5
3C8
330
3C5
100
AcDbEntity
  8
0
  6
Continuous
 62
     7
100
AcDbLine
 10
0.0
 20
0.0
 30
0.0
 11
-2.073014212528776
 21
-2.388014253620433
 31
0.0
  0
LINE
  5
3C9
330
3C5
100
AcDbEntity
  8
0
  6
Continuous
 62
     7
100
AcDbLine
 10
-24.78078412858029
 20
-50.89612223036281
 30
0.0
 11
-94.59090144658627
 21
-50.89612223036281
 31
0.0
  0
MTEXT
  5
3CA
102
{ACAD_XDICTIONARY
360
4C2
102
}
330
3C5
100
AcDbEntity
  8
0
 62
     7
100
AcDbMText
 10
-29.44775678795263
 20
-48.89612223036283
 30
0.0
 40
4.0
 41
63.56556192398072
 71
     9
 72
     1
  1
{\W0.83333x;4-\U+22055.2}{\fＭＳ Ｐゴシック|b0|i0|c0|p0;\W0.83333x;\U+3000\U+8CAB\U+901A}\P{\W0.83333x;4-\U+22059.5}{\fＭＳ Ｐゴシック|b0|i0|c0|p0;\W0.83333x;\U+30B6\U+30B0\U+30EA\U+3000\U+6DF1\U+3055\U+FF15\U+FF0E\U+FF15}
 73
     1
 44
0.7875
  0
ENDBLK
  5
3CD
330
3C5
100
AcDbEntity
  8
0
100
AcDbBlockEnd
  0
BLOCK
  5
3D0
330
3CF
100
AcDbEntity
  8
0
100
AcDbBlockBegin
  2
*D30
 70
     1
 10
0.0
 20
0.0
 30
0.0
  3
*D30
  1

  0
LINE
  5
3D2
330
3CF
100
AcDbEntity
  8
0
  6
ByBlock
 62
     0
370
    -2
100
AcDbLine
 10
-187.0474619662582
 20
-65.52925811097879
 30
0.0
 11
-187.0474619662582
 21
-87.89975150746434
 31
0.0
  0
LINE
  5
3D3
330
3CF
100
AcDbEntity
  8
0
  6
ByBlock
 62
     0
370
    -2
100
AcDbLine
 10
-175.5474619662582
 20
-48.54681130102824
 30
0.0
 11
-175.5474619662582
 21
-87.89975150746434
 31
0.0
  0
LINE
  5
3D4
330
3CF
100
AcDbEntity
  8
0
  6
ByBlock
 62
     0
370
    -2
100
AcDbLine
 10
-187.0474619662582
 20
-85.61375150746433
 30
0.0
 11
-203.7805095853059
 21
-85.61375150746433
 31
0.0
  0
LINE
  5
3D5
330
3CF
100
AcDbEntity
  8
0
  6
ByBlock
 62
     0
370
    -2
100
AcDbLine
 10
-183.9334619662582
 20
-85.61375150746433
 30
0.0
 11
-178.6614619662582
 21
-85.61375150746433
 31
0.0
  0
INSERT
  5
3D6
330
3CF
100
AcDbEntity
  8
0
 62
     0
370
    -2
100
AcDbBlockReference
  2
_Open
 10
-187.0474619662582
 20
-85.61375150746433
 30
0.0
 41
3.114
 42
3.114
 43
3.114
 50
180.0
  0
INSERT
  5
3D7
330
3CF
100
AcDbEntity
  8
0
 62
     0
370
    -2
100
AcDbBlockReference
  2
_Open
 10
-175.5474619662582
 20
-85.61375150746433
 30
0.0
 41
3.114
 42
3.114
 43
3.114
  0
MTEXT
  5
3D8
330
3CF
100
AcDbEntity
  8
0
 62
     0
100
AcDbMText
 10
-196.970985775782
 20
-82.61375150746433
 30
0.0
 40
4.0
 41
0.0
 71
     5
 72
     1
  1
11.5
 73
     1
 44
1.0
  0
POINT
  5
3D9
330
3CF
100
AcDbEntity
  8
Defpoints
 62
     0
100
AcDbPoint
 10
-187.0474619662582
 20
-65.52925811097879
 30
0.0
  0
POINT
  5
3DA
330
3CF
100
AcDbEntity
  8
Defpoints
 62
     0
100
AcDbPoint
 10
-175.5474619662582
 20
-48.54681130102824
 30
0.0
  0
POINT
  5
3DB
330
3CF
100
AcDbEntity
  8
Defpoints
 62
     0
100
AcDbPoint
 10
-175.5474619662582
 20
-85.61475150746433
 30
0.0
  0
ENDBLK
  5
3D1
330
3CF
100
AcDbEntity
  8
0
100
AcDbBlockEnd
  0
BLOCK
  5
3DE
330
3DD
100
AcDbEntity
  8
0
100
AcDbBlockBegin
  2
*D31
 70
     1
 10
0.0
 20
0.0
 30
0.0
  3
*D31
  1

  0
LINE
  5
3E0
330
3DD
100
AcDbEntity
  8
0
  6
ByBlock
 62
     0
370
    -2
100
AcDbLine
 10
-118.0474619662582
 20
11.93874358553404
 30
0.0
 11
-130.7542118333703
 21
11.93874358553404
 31
0.0
  0
LINE
  5
3E1
330
3DD
100
AcDbEntity
  8
0
  6
ByBlock
 62
     0
370
    -2
100
AcDbLine
 10
-120.6638628603317
 20
-0.061256414465955
 30
0.0
 11
-130.7542118333703
 21
-0.061256414465959
 31
0.0
  0
LINE
  5
3E2
330
3DD
100
AcDbEntity
  8
0
  6
ByBlock
 62
     0
370
    -2
100
AcDbLine
 10
-128.4682118333703
 20
8.82474358553404
 30
0.0
 11
-128.4682118333703
 21
3.052743585534042
 31
0.0
  0
INSERT
  5
3E3
330
3DD
100
AcDbEntity
  8
0
 62
     0
370
    -2
100
AcDbBlockReference
  2
_Open
 10
-128.4682118333703
 20
11.93874358553404
 30
0.0
 41
3.114
 42
3.114
 43
3.114
 50
90.0
  0
INSERT
  5
3E4
330
3DD
100
AcDbEntity
  8
0
 62
     0
370
    -2
100
AcDbBlockReference
  2
_Open
 10
-128.4682118333703
 20
-0.061256414465958
 30
0.0
 41
3.114
 42
3.114
 43
3.114
 50
270.0
  0
MTEXT
  5
3E5
330
3DD
100
AcDbEntity
  8
0
 62
     0
100
AcDbMText
 10
-131.4682118333703
 20
5.939743585534045
 30
0.0
 40
4.0
 41
0.0
 71
     5
 72
     1
  1
12
 11
0.0
 21
1.0
 31
0.0
 73
     1
 44
1.0
  0
POINT
  5
3E6
330
3DD
100
AcDbEntity
  8
Defpoints
 62
     0
100
AcDbPoint
 10
-118.0474619662582
 20
11.93874358553404
 30
0.0
  0
POINT
  5
3E7
330
3DD
100
AcDbEntity
  8
Defpoints
 62
     0
100
AcDbPoint
 10
-120.6638628603317
 20
-0.061256414465955
 30
0.0
  0
POINT
  5
3E8
330
3DD
100
AcDbEntity
  8
Defpoints
 62
     0
100
AcDbPoint
 10
-128.4702118333703
 20
-0.061256414465955
 30
0.0
  0
ENDBLK
  5
3DF
330
3DD
100
AcDbEntity
  8
0
100
AcDbBlockEnd
  0
BLOCK
  5
3EB
330
3EA
100
AcDbEntity
  8
0
100
AcDbBlockBegin
  2
*D32
 70
     1
 10
0.0
 20
0.0
 30
0.0
  3
*D32
  1

  0
LINE
  5
3ED
330
3EA
100
AcDbEntity
  8
0
  6
ByBlock
 62
     0
370
    -2
100
AcDbLine
 10
-118.0474619662582
 20
11.93874358553404
 30
0.0
 11
-138.8052698660156
 21
11.93874358553404
 31
0.0
  0
LINE
  5
3EE
330
3EA
100
AcDbEntity
  8
0
  6
ByBlock
 62
     0
370
    -2
100
AcDbLine
 10
-96.39517543671718
 20
-7.061256414465955
 30
0.0
 11
-138.8052698660156
 21
-7.061256414465972
 31
0.0
  0
LINE
  5
3EF
330
3EA
100
AcDbEntity
  8
0
  6
ByBlock
 62
     0
370
    -2
100
AcDbLine
 10
-136.5192698660156
 20
8.824743585534037
 30
0.0
 11
-136.5192698660156
 21
-3.947256414465971
 31
0.0
  0
INSERT
  5
3F0
330
3EA
100
AcDbEntity
  8
0
 62
     0
370
    -2
100
AcDbBlockReference
  2
_Open
 10
-136.5192698660156
 20
11.93874358553404
 30
0.0
 41
3.114
 42
3.114
 43
3.114
 50
90.0
  0
INSERT
  5
3F1
330
3EA
100
AcDbEntity
  8
0
 62
     0
370
    -2
100
AcDbBlockReference
  2
_Open
 10
-136.5192698660156
 20
-7.061256414465971
 30
0.0
 41
3.114
 42
3.114
 43
3.114
 50
270.0
  0
MTEXT
  5
3F2
330
3EA
100
AcDbEntity
  8
0
 62
     0
100
AcDbMText
 10
-139.5192698660156
 20
2.439743585534045
 30
0.0
 40
4.0
 41
0.0
 71
     5
 72
     1
  1
19
 11
0.0
 21
1.0
 31
0.0
 73
     1
 44
1.0
  0
POINT
  5
3F3
330
3EA
100
AcDbEntity
  8
Defpoints
 62
     0
100
AcDbPoint
 10
-118.0474619662582
 20
11.93874358553404
 30
0.0
  0
POINT
  5
3F4
330
3EA
100
AcDbEntity
  8
Defpoints
 62
     0
100
AcDbPoint
 10
-96.39517543671718
 20
-7.061256414465955
 30
0.0
  0
POINT
  5
3F5
330
3EA
100
AcDbEntity
  8
Defpoints
 62
     0
100
AcDbPoint
 10
-136.5212698660156
 20
-7.061256414465955
 30
0.0
  0
ENDBLK
  5
3EC
330
3EA
100
AcDbEntity
  8
0
100
AcDbBlockEnd
  0
BLOCK
  5
3F8
330
3F7
100
AcDbEntity
  8
0
100
AcDbBlockBegin
  2
*D33
 70
     1
 10
0.0
 20
0.0
 30
0.0
  3
*D33
  1

  0
LINE
  5
3FA
330
3F7
100
AcDbEntity
  8
0
  6
ByBlock
 62
     0
370
    -2
100
AcDbLine
 10
-118.0474619662582
 20
-63.06125641446596
 30
0.0
 11
-138.8062698660156
 21
-63.06125641446596
 31
0.0
  0
LINE
  5
3FB
330
3F7
100
AcDbEntity
  8
0
  6
ByBlock
 62
     0
370
    -2
100
AcDbLine
 10
-120.5215599295076
 20
-40.06125641446596
 30
0.0
 11
-138.8062698660156
 21
-40.06125641446596
 31
0.0
  0
LINE
  5
3FC
330
3F7
100
AcDbEntity
  8
0
  6
ByBlock
 62
     0
370
    -2
100
AcDbLine
 10
-136.5202698660156
 20
-59.94725641446596
 30
0.0
 11
-136.5202698660156
 21
-43.17525641446596
 31
0.0
  0
INSERT
  5
3FD
330
3F7
100
AcDbEntity
  8
0
 62
     0
370
    -2
100
AcDbBlockReference
  2
_Open
 10
-136.5202698660156
 20
-63.06125641446596
 30
0.0
 41
3.114
 42
3.114
 43
3.114
 50
270.0
  0
INSERT
  5
3FE
330
3F7
100
AcDbEntity
  8
0
 62
     0
370
    -2
100
AcDbBlockReference
  2
_Open
 10
-136.5202698660156
 20
-40.06125641446596
 30
0.0
 41
3.114
 42
3.114
 43
3.114
 50
90.0
  0
MTEXT
  5
3FF
330
3F7
100
AcDbEntity
  8
0
 62
     0
100
AcDbMText
 10
-139.5202698660156
 20
-51.56025641446596
 30
0.0
 40
4.0
 41
0.0
 71
     5
 72
     1
  1
23
 11
0.0
 21
1.0
 31
0.0
 73
     1
 44
1.0
  0
POINT
  5
400
330
3F7
100
AcDbEntity
  8
Defpoints
 62
     0
100
AcDbPoint
 10
-118.0474619662582
 20
-63.06125641446596
 30
0.0
  0
POINT
  5
401
330
3F7
100
AcDbEntity
  8
Defpoints
 62
     0
100
AcDbPoint
 10
-120.5215599295076
 20
-40.06125641446596
 30
0.0
  0
POINT
  5
402
330
3F7
100
AcDbEntity
  8
Defpoints
 62
     0
100
AcDbPoint
 10
-136.5212698660156
 20
-40.06125641446596
 30
0.0
  0
ENDBLK
  5
3F9
330
3F7
100
AcDbEntity
  8
0
100
AcDbBlockEnd
  0
BLOCK
  5
405
330
404
100
AcDbEntity
  8
0
100
AcDbBlockBegin
  2
*D34
 70
     1
 10
0.0
 20
0.0
 30
0.0
  3
*D34
  1

  0
LINE
  5
407
330
404
100
AcDbEntity
  8
0
  6
ByBlock
 62
     0
370
    -2
100
AcDbLine
 10
-118.0474619662582
 20
-63.06125641446596
 30
0.0
 11
-130.7552118333703
 21
-63.06125641446596
 31
0.0
  0
LINE
  5
408
330
404
100
AcDbEntity
  8
0
  6
ByBlock
 62
     0
370
    -2
100
AcDbLine
 10
-94.2974619662582
 20
-47.06125641446596
 30
0.0
 11
-130.7552118333703
 21
-47.06125641446596
 31
0.0
  0
LINE
  5
409
330
404
100
AcDbEntity
  8
0
  6
ByBlock
 62
     0
370
    -2
100
AcDbLine
 10
-128.4692118333703
 20
-59.94725641446596
 30
0.0
 11
-128.4692118333703
 21
-50.17525641446596
 31
0.0
  0
INSERT
  5
40A
330
404
100
AcDbEntity
  8
0
 62
     0
370
    -2
100
AcDbBlockReference
  2
_Open
 10
-128.4692118333703
 20
-63.06125641446596
 30
0.0
 41
3.114
 42
3.114
 43
3.114
 50
270.0
  0
INSERT
  5
40B
330
404
100
AcDbEntity
  8
0
 62
     0
370
    -2
100
AcDbBlockReference
  2
_Open
 10
-128.4692118333703
 20
-47.06125641446596
 30
0.0
 41
3.114
 42
3.114
 43
3.114
 50
90.0
  0
MTEXT
  5
40C
330
404
100
AcDbEntity
  8
0
 62
     0
100
AcDbMText
 10
-131.4692118333703
 20
-55.06025641446596
 30
0.0
 40
4.0
 41
0.0
 71
     5
 72
     1
  1
16
 11
0.0
 21
1.0
 31
0.0
 73
     1
 44
1.0
  0
POINT
  5
40D
330
404
100
AcDbEntity
  8
Defpoints
 62
     0
100
AcDbPoint
 10
-118.0474619662582
 20
-63.06125641446596
 30
0.0
  0
POINT
  5
40E
330
404
100
AcDbEntity
  8
Defpoints
 62
     0
100
AcDbPoint
 10
-94.2974619662582
 20
-47.06125641446596
 30
0.0
  0
POINT
  5
40F
330
404
100
AcDbEntity
  8
Defpoints
 62
     0
100
AcDbPoint
 10
-128.4702118333703
 20
-47.06125641446596
 30
0.0
  0
ENDBLK
  5
406
330
404
100
AcDbEntity
  8
0
100
AcDbBlockEnd
  0
BLOCK
  5
412
330
411
100
AcDbEntity
  8
0
100
AcDbBlockBegin
  2
*D35
 70
     1
 10
0.0
 20
0.0
 30
0.0
  3
*D35
  1

  0
LINE
  5
414
330
411
100
AcDbEntity
  8
0
  6
ByBlock
 62
     0
370
    -2
100
AcDbLine
 10
-89.5474619662582
 20
-1.111259466223768
 30
0.0
 11
-89.5474619662582
 21
42.98888623811371
 31
0.0
  0
LINE
  5
415
330
411
100
AcDbEntity
  8
0
  6
ByBlock
 62
     0
370
    -2
100
AcDbLine
 10
-61.5474619662582
 20
-1.054527288489393
 30
0.0
 11
-61.5474619662582
 21
42.98888623811371
 31
0.0
  0
LINE
  5
416
330
411
100
AcDbEntity
  8
0
  6
ByBlock
 62
     0
370
    -2
100
AcDbLine
 10
-86.43346196625819
 20
40.70288623811371
 30
0.0
 11
-64.6614619662582
 21
40.70288623811371
 31
0.0
  0
INSERT
  5
417
330
411
100
AcDbEntity
  8
0
 62
     0
370
    -2
100
AcDbBlockReference
  2
_Open
 10
-89.5474619662582
 20
40.70288623811371
 30
0.0
 41
3.114
 42
3.114
 43
3.114
 50
180.0
  0
INSERT
  5
418
330
411
100
AcDbEntity
  8
0
 62
     0
370
    -2
100
AcDbBlockReference
  2
_Open
 10
-61.5474619662582
 20
40.70288623811371
 30
0.0
 41
3.114
 42
3.114
 43
3.114
  0
MTEXT
  5
419
330
411
100
AcDbEntity
  8
0
 62
     0
100
AcDbMText
 10
-81.68020380819914
 20
43.70288623811371
 30
0.0
 40
4.0
 41
0.0
 71
     5
 72
     1
  1
28
 73
     1
 44
1.0
  0
POINT
  5
41A
330
411
100
AcDbEntity
  8
Defpoints
 62
     0
100
AcDbPoint
 10
-89.5474619662582
 20
-1.111259466223768
 30
0.0
  0
POINT
  5
41B
330
411
100
AcDbEntity
  8
Defpoints
 62
     0
100
AcDbPoint
 10
-61.5474619662582
 20
-1.054527288489393
 30
0.0
  0
POINT
  5
41C
330
411
100
AcDbEntity
  8
Defpoints
 62
     0
100
AcDbPoint
 10
-61.5474619662582
 20
40.70288623811371
 30
0.0
  0
ENDBLK
  5
413
330
411
100
AcDbEntity
  8
0
100
AcDbBlockEnd
  0
BLOCK
  5
41F
330
41E
100
AcDbEntity
  8
0
100
AcDbBlockBegin
  2
*D36
 70
     1
 10
0.0
 20
0.0
 30
0.0
  3
*D36
  1

  0
LINE
  5
421
330
41E
100
AcDbEntity
  8
0
  6
ByBlock
 62
     0
370
    -2
100
AcDbLine
 10
-80.5474619662582
 20
13.93874358553404
 30
0.0
 11
-80.5474619662582
 21
34.85396257176956
 31
0.0
  0
LINE
  5
422
330
41E
100
AcDbEntity
  8
0
  6
ByBlock
 62
     0
370
    -2
100
AcDbLine
 10
-70.5474619662582
 20
13.93874358553404
 30
0.0
 11
-70.5474619662582
 21
34.85396257176956
 31
0.0
  0
LINE
  5
423
330
41E
100
AcDbEntity
  8
0
  6
ByBlock
 62
     0
370
    -2
100
AcDbLine
 10
-80.5474619662582
 20
32.56796257176956
 30
0.0
 11
-92.73289053768679
 21
32.56796257176956
 31
0.0
  0
LINE
  5
424
330
41E
100
AcDbEntity
  8
0
  6
ByBlock
 62
     0
370
    -2
100
AcDbLine
 10
-77.43346196625819
 20
32.56796257176956
 30
0.0
 11
-73.6614619662582
 21
32.56796257176956
 31
0.0
  0
INSERT
  5
425
330
41E
100
AcDbEntity
  8
0
 62
     0
370
    -2
100
AcDbBlockReference
  2
_Open
 10
-80.5474619662582
 20
32.56796257176956
 30
0.0
 41
3.114
 42
3.114
 43
3.114
 50
180.0
  0
INSERT
  5
426
330
41E
100
AcDbEntity
  8
0
 62
     0
370
    -2
100
AcDbBlockReference
  2
_Open
 10
-70.5474619662582
 20
32.56796257176956
 30
0.0
 41
3.114
 42
3.114
 43
3.114
  0
MTEXT
  5
427
330
41E
100
AcDbEntity
  8
0
 62
     0
100
AcDbMText
 10
-88.1971762519725
 20
34.81796257176956
 30
0.0
 40
3.0
 41
0.0
 71
     5
 72
     1
  1
\U+220510
 73
     1
 44
1.0
  0
POINT
  5
428
330
41E
100
AcDbEntity
  8
Defpoints
 62
     0
100
AcDbPoint
 10
-80.5474619662582
 20
13.93874358553404
 30
0.0
  0
POINT
  5
429
330
41E
100
AcDbEntity
  8
Defpoints
 62
     0
100
AcDbPoint
 10
-70.5474619662582
 20
13.93874358553404
 30
0.0
  0
POINT
  5
42A
330
41E
100
AcDbEntity
  8
Defpoints
 62
     0
100
AcDbPoint
 10
-70.5474619662582
 20
32.56796257176956
 30
0.0
  0
ENDBLK
  5
420
330
41E
100
AcDbEntity
  8
0
100
AcDbBlockEnd
  0
BLOCK
  5
42D
330
42C
100
AcDbEntity
  8
0
100
AcDbBlockBegin
  2
*D37
 70
     1
 10
0.0
 20
0.0
 30
0.0
  3
*D37
  1

  0
LINE
  5
42F
330
42C
100
AcDbEntity
  8
0
  6
ByBlock
 62
     0
370
    -2
100
AcDbLine
 10
-54.0474619662582
 20
13.93874358553404
 30
0.0
 11
-54.0474619662582
 21
34.85396257176956
 31
0.0
  0
LINE
  5
430
330
42C
100
AcDbEntity
  8
0
  6
ByBlock
 62
     0
370
    -2
100
AcDbLine
 10
-42.0474619662582
 20
13.93874358553404
 30
0.0
 11
-42.0474619662582
 21
34.85396257176956
 31
0.0
  0
LINE
  5
431
330
42C
100
AcDbEntity
  8
0
  6
ByBlock
 62
     0
370
    -2
100
AcDbLine
 10
-42.0474619662582
 20
32.56796257176956
 30
0.0
 11
-26.83822387102011
 21
32.56796257176956
 31
0.0
  0
LINE
  5
432
330
42C
100
AcDbEntity
  8
0
  6
ByBlock
 62
     0
370
    -2
100
AcDbLine
 10
-50.9334619662582
 20
32.56796257176956
 30
0.0
 11
-45.16146196625819
 21
32.56796257176956
 31
0.0
  0
INSERT
  5
433
330
42C
100
AcDbEntity
  8
0
 62
     0
370
    -2
100
AcDbBlockReference
  2
_Open
 10
-54.0474619662582
 20
32.56796257176956
 30
0.0
 41
3.114
 42
3.114
 43
3.114
 50
180.0
  0
INSERT
  5
434
330
42C
100
AcDbEntity
  8
0
 62
     0
370
    -2
100
AcDbBlockReference
  2
_Open
 10
-42.0474619662582
 20
32.56796257176956
 30
0.0
 41
3.114
 42
3.114
 43
3.114
  0
MTEXT
  5
435
330
42C
100
AcDbEntity
  8
0
 62
     0
100
AcDbMText
 10
-32.88584291863916
 20
35.56796257176956
 30
0.0
 40
4.0
 41
0.0
 71
     5
 72
     1
  1
\U+220512
 73
     1
 44
1.0
  0
POINT
  5
436
330
42C
100
AcDbEntity
  8
Defpoints
 62
     0
100
AcDbPoint
 10
-54.0474619662582
 20
13.93874358553404
 30
0.0
  0
POINT
  5
437
330
42C
100
AcDbEntity
  8
Defpoints
 62
     0
100
AcDbPoint
 10
-42.0474619662582
 20
13.93874358553404
 30
0.0
  0
POINT
  5
438
330
42C
100
AcDbEntity
  8
Defpoints
 62
     0
100
AcDbPoint
 10
-42.0474619662582
 20
32.56796257176956
 30
0.0
  0
ENDBLK
  5
42E
330
42C
100
AcDbEntity
  8
0
100
AcDbBlockEnd
  0
BLOCK
  5
43B
330
43A
100
AcDbEntity
  8
0
100
AcDbBlockBegin
  2
*D38
 70
     1
 10
0.0
 20
0.0
 30
0.0
  3
*D38
  1

  0
LINE
  5
43D
330
43A
100
AcDbEntity
  8
0
  6
ByBlock
 62
     0
370
    -2
100
AcDbLine
 10
162.9525380337418
 20
11.93874358553404
 30
0.0
 11
176.8513276690057
 21
11.93874358553405
 31
0.0
  0
LINE
  5
43E
330
43A
100
AcDbEntity
  8
0
  6
ByBlock
 62
     0
370
    -2
100
AcDbLine
 10
156.1737523281754
 20
0.938743585534045
 30
0.0
 11
176.8513276690057
 21
0.938743585534055
 31
0.0
  0
LINE
  5
43F
330
43A
100
AcDbEntity
  8
0
  6
ByBlock
 62
     0
370
    -2
100
AcDbLine
 10
174.5653276690056
 20
8.824743585534051
 30
0.0
 11
174.5653276690056
 21
4.052743585534054
 31
0.0
  0
INSERT
  5
440
330
43A
100
AcDbEntity
  8
0
 62
     0
370
    -2
100
AcDbBlockReference
  2
_Open
 10
174.5653276690056
 20
11.93874358553405
 30
0.0
 41
3.114
 42
3.114
 43
3.114
 50
90.0
  0
INSERT
  5
441
330
43A
100
AcDbEntity
  8
0
 62
     0
370
    -2
100
AcDbBlockReference
  2
_Open
 10
174.5653276690056
 20
0.938743585534054
 30
0.0
 41
3.114
 42
3.114
 43
3.114
 50
270.0
  0
MTEXT
  5
442
330
43A
100
AcDbEntity
  8
0
 62
     0
100
AcDbMText
 10
171.5653276690056
 20
6.439743585534045
 30
0.0
 40
4.0
 41
0.0
 71
     5
 72
     1
  1
11
 11
0.0
 21
1.0
 31
0.0
 73
     1
 44
1.0
  0
POINT
  5
443
330
43A
100
AcDbEntity
  8
Defpoints
 62
     0
100
AcDbPoint
 10
162.9525380337418
 20
11.93874358553404
 30
0.0
  0
POINT
  5
444
330
43A
100
AcDbEntity
  8
Defpoints
 62
     0
100
AcDbPoint
 10
156.1737523281754
 20
0.938743585534045
 30
0.0
  0
POINT
  5
445
330
43A
100
AcDbEntity
  8
Defpoints
 62
     0
100
AcDbPoint
 10
174.5643276690056
 20
0.938743585534045
 30
0.0
  0
ENDBLK
  5
43C
330
43A
100
AcDbEntity
  8
0
100
AcDbBlockEnd
  0
BLOCK
  5
448
330
447
100
AcDbEntity
  8
0
100
AcDbBlockBegin
  2
*D39
 70
     1
 10
0.0
 20
0.0
 30
0.0
  3
*D39
  1

  0
LINE
  5
44A
330
447
100
AcDbEntity
  8
0
  6
ByBlock
 62
     0
370
    -2
100
AcDbLine
 10
162.9525380337418
 20
11.93874358553404
 30
0.0
 11
186.9235399620747
 21
11.93874358553405
 31
0.0
  0
LINE
  5
44B
330
447
100
AcDbEntity
  8
0
  6
ByBlock
 62
     0
370
    -2
100
AcDbLine
 10
139.7525372708023
 20
-7.061256414465955
 30
0.0
 11
186.9235399620747
 21
-7.06125641446594
 31
0.0
  0
LINE
  5
44C
330
447
100
AcDbEntity
  8
0
  6
ByBlock
 62
     0
370
    -2
100
AcDbLine
 10
184.6375399620746
 20
8.824743585534051
 30
0.0
 11
184.6375399620746
 21
-3.947256414465941
 31
0.0
  0
INSERT
  5
44D
330
447
100
AcDbEntity
  8
0
 62
     0
370
    -2
100
AcDbBlockReference
  2
_Open
 10
184.6375399620746
 20
11.93874358553405
 30
0.0
 41
3.114
 42
3.114
 43
3.114
 50
90.0
  0
INSERT
  5
44E
330
447
100
AcDbEntity
  8
0
 62
     0
370
    -2
100
AcDbBlockReference
  2
_Open
 10
184.6375399620746
 20
-7.061256414465941
 30
0.0
 41
3.114
 42
3.114
 43
3.114
 50
270.0
  0
MTEXT
  5
44F
330
447
100
AcDbEntity
  8
0
 62
     0
100
AcDbMText
 10
181.6375399620746
 20
2.439743585534045
 30
0.0
 40
4.0
 41
0.0
 71
     5
 72
     1
  1
19
 11
0.0
 21
1.0
 31
0.0
 73
     1
 44
1.0
  0
POINT
  5
450
330
447
100
AcDbEntity
  8
Defpoints
 62
     0
100
AcDbPoint
 10
162.9525380337418
 20
11.93874358553404
 30
0.0
  0
POINT
  5
451
330
447
100
AcDbEntity
  8
Defpoints
 62
     0
100
AcDbPoint
 10
139.7525372708023
 20
-7.061256414465955
 30
0.0
  0
POINT
  5
452
330
447
100
AcDbEntity
  8
Defpoints
 62
     0
100
AcDbPoint
 10
184.6365399620746
 20
-7.061256414465955
 30
0.0
  0
ENDBLK
  5
449
330
447
100
AcDbEntity
  8
0
100
AcDbBlockEnd
  0
BLOCK
  5
455
330
454
100
AcDbEntity
  8
0
100
AcDbBlockBegin
  2
*D40
 70
     1
 10
0.0
 20
0.0
 30
0.0
  3
*D40
  1

  0
LINE
  5
457
330
454
100
AcDbEntity
  8
0
  6
ByBlock
 62
     0
370
    -2
100
AcDbLine
 10
162.9525380337418
 20
-63.06125641446596
 30
0.0
 11
186.9225399620747
 21
-63.06125641446596
 31
0.0
  0
LINE
  5
458
330
454
100
AcDbEntity
  8
0
  6
ByBlock
 62
     0
370
    -2
100
AcDbLine
 10
139.7525372708023
 20
-47.06125641446596
 30
0.0
 11
186.9225399620747
 21
-47.06125641446596
 31
0.0
  0
LINE
  5
459
330
454
100
AcDbEntity
  8
0
  6
ByBlock
 62
     0
370
    -2
100
AcDbLine
 10
184.6365399620746
 20
-59.94725641446596
 30
0.0
 11
184.6365399620746
 21
-50.17525641446596
 31
0.0
  0
INSERT
  5
45A
330
454
100
AcDbEntity
  8
0
 62
     0
370
    -2
100
AcDbBlockReference
  2
_Open
 10
184.6365399620746
 20
-63.06125641446596
 30
0.0
 41
3.114
 42
3.114
 43
3.114
 50
270.0
  0
INSERT
  5
45B
330
454
100
AcDbEntity
  8
0
 62
     0
370
    -2
100
AcDbBlockReference
  2
_Open
 10
184.6365399620746
 20
-47.06125641446596
 30
0.0
 41
3.114
 42
3.114
 43
3.114
 50
90.0
  0
MTEXT
  5
45C
330
454
100
AcDbEntity
  8
0
 62
     0
100
AcDbMText
 10
181.6365399620746
 20
-55.06025641446596
 30
0.0
 40
4.0
 41
0.0
 71
     5
 72
     1
  1
16
 11
0.0
 21
1.0
 31
0.0
 73
     1
 44
1.0
  0
POINT
  5
45D
330
454
100
AcDbEntity
  8
Defpoints
 62
     0
100
AcDbPoint
 10
162.9525380337418
 20
-63.06125641446596
 30
0.0
  0
POINT
  5
45E
330
454
100
AcDbEntity
  8
Defpoints
 62
     0
100
AcDbPoint
 10
139.7525372708023
 20
-47.06125641446596
 30
0.0
  0
POINT
  5
45F
330
454
100
AcDbEntity
  8
Defpoints
 62
     0
100
AcDbPoint
 10
184.6365399620746
 20
-47.06125641446596
 30
0.0
  0
ENDBLK
  5
456
330
454
100
AcDbEntity
  8
0
100
AcDbBlockEnd
  0
BLOCK
  5
467
330
460
100
AcDbEntity
  8
0
100
AcDbBlockBegin
  2
SYM0005
 70
     0
 10
0.0
 20
0.0
 30
0.0
  3
SYM0005
  1

  0
LINE
  5
461
330
460
100
AcDbEntity
  8
0
  6
Continuous
 62
     7
100
AcDbLine
 10
0.0
 20
0.0
 30
0.0
 11
28.3180465974491
 21
16.69007385136386
 31
0.0
  0
LINE
  5
462
330
460
100
AcDbEntity
  8
0
  6
Continuous
 62
     7
100
AcDbLine
 10
0.0
 20
0.0
 30
0.0
 11
2.215909767906425
 21
2.256046076953567
 31
0.0
  0
LINE
  5
463
330
460
100
AcDbEntity
  8
0
  6
Continuous
 62
     7
100
AcDbLine
 10
0.0
 20
0.0
 30
0.0
 11
3.04705718992895
 21
0.845838330972811
 31
0.0
  0
LINE
  5
464
330
460
100
AcDbEntity
  8
0
  6
Continuous
 62
     7
100
AcDbLine
 10
28.31804659744913
 20
16.69007385136383
 30
0.0
 11
77.0949874608522
 21
16.69007385136383
 31
0.0
  0
MTEXT
  5
465
330
460
100
AcDbEntity
  8
0
 62
     7
100
AcDbMText
 10
31.52327185048429
 20
17.69007385136424
 30
0.0
 40
4.0
 41
0.0
 71
     7
 72
     1
  1
{\W0.833333;4-M6×１　深さ１２}
 73
     1
 44
1.0
  0
ENDBLK
  5
468
330
460
100
AcDbEntity
  8
0
100
AcDbBlockEnd
  0
BLOCK
  5
470
330
469
100
AcDbEntity
  8
0
100
AcDbBlockBegin
  2
SYM0006
 70
     0
 10
0.0
 20
0.0
 30
0.0
  3
SYM0006
  1

  0
LINE
  5
46A
330
469
100
AcDbEntity
  8
0
  6
Continuous
 62
     7
100
AcDbLine
 10
0.0
 20
0.0
 30
0.0
 11
11.0272082581335
 21
14.45989832922507
 31
0.0
  0
LINE
  5
46B
330
469
100
AcDbEntity
  8
0
  6
Continuous
 62
     7
100
AcDbLine
 10
0.0
 20
0.0
 30
0.0
 11
1.201445254124025
 21
2.925154577485354
 31
0.0
  0
LINE
  5
46C
330
469
100
AcDbEntity
  8
0
  6
Continuous
 62
     7
100
AcDbLine
 10
0.0
 20
0.0
 30
0.0
 11
2.503059399958687
 21
1.932535547181225
 31
0.0
  0
LINE
  5
46D
330
469
100
AcDbEntity
  8
0
  6
Continuous
 62
     7
100
AcDbLine
 10
11.02720825813353
 20
14.45989832922508
 30
0.0
 11
61.31430970199645
 21
14.45989832922508
 31
0.0
  0
MTEXT
  5
46E
330
469
100
AcDbEntity
  8
0
 62
     7
100
AcDbMText
 10
12.46500868559056
 20
15.45989832922497
 30
0.0
 40
4.0
 41
0.0
 71
     7
 72
     1
  1
{\W0.833333;4-M５×０．８　深さ７}
 73
     1
 44
1.0
  0
ENDBLK
  5
471
330
469
100
AcDbEntity
  8
0
100
AcDbBlockEnd
  0
BLOCK
  5
474
330
473
100
AcDbEntity
  8
0
100
AcDbBlockBegin
  2
*D43
 70
     1
 10
0.0
 20
0.0
 30
0.0
  3
*D43
  1

  0
LINE
  5
476
330
473
100
AcDbEntity
  8
0
  6
ByBlock
 62
     0
370
    -2
100
AcDbLine
 10
156.2890477383316
 20
-49.06125641446596
 30
0.0
 11
176.8513276690057
 21
-49.06125641446595
 31
0.0
  0
LINE
  5
477
330
473
100
AcDbEntity
  8
0
  6
ByBlock
 62
     0
370
    -2
100
AcDbLine
 10
174.5653276690056
 20
-52.17525641446595
 30
0.0
 11
174.5653276690056
 21
-59.94725641446595
 31
0.0
  0
INSERT
  5
478
330
473
100
AcDbEntity
  8
0
 62
     0
370
    -2
100
AcDbBlockReference
  2
_Open
 10
174.5653276690056
 20
-49.06125641446595
 30
0.0
 41
3.114
 42
3.114
 43
3.114
 50
90.0
  0
INSERT
  5
479
330
473
100
AcDbEntity
  8
0
 62
     0
370
    -2
100
AcDbBlockReference
  2
_Open
 10
174.5653276690056
 20
-63.06125641446595
 30
0.0
 41
3.114
 42
3.114
 43
3.114
 50
270.0
  0
MTEXT
  5
47A
330
473
100
AcDbEntity
  8
0
 62
     0
100
AcDbMText
 10
171.5653276690056
 20
-56.06025641446596
 30
0.0
 40
4.0
 41
0.0
 71
     5
 72
     1
  1
14
 11
0.0
 21
1.0
 31
0.0
 73
     1
 44
1.0
  0
POINT
  5
47B
330
473
100
AcDbEntity
  8
Defpoints
 62
     0
100
AcDbPoint
 10
156.2890477383316
 20
-49.06125641446596
 30
0.0
  0
POINT
  5
47C
330
473
100
AcDbEntity
  8
Defpoints
 62
     0
100
AcDbPoint
 10
162.9525380337418
 20
-63.06125641446596
 30
0.0
  0
POINT
  5
47D
330
473
100
AcDbEntity
  8
Defpoints
 62
     0
100
AcDbPoint
 10
174.5643276690056
 20
-63.06125641446596
 30
0.0
  0
ENDBLK
  5
475
330
473
100
AcDbEntity
  8
0
100
AcDbBlockEnd
  0
BLOCK
  5
480
330
47F
100
AcDbEntity
  8
0
100
AcDbBlockBegin
  2
*D44
 70
     1
 10
0.0
 20
0.0
 30
0.0
  3
*D44
  1

  0
LINE
  5
482
330
47F
100
AcDbEntity
  8
0
  6
ByBlock
 62
     0
370
    -2
100
AcDbLine
 10
-45.35247753022304
 20
-113.061256414466
 30
0.0
 11
-17.17111255302095
 21
-113.0612564144659
 31
0.0
  0
LINE
  5
483
330
47F
100
AcDbEntity
  8
0
  6
ByBlock
 62
     0
370
    -2
100
AcDbLine
 10
-46.0474619662582
 20
-139.061256414466
 30
0.0
 11
-17.17111255302094
 21
-139.061256414466
 31
0.0
  0
LINE
  5
484
330
47F
100
AcDbEntity
  8
0
  6
ByBlock
 62
     0
370
    -2
100
AcDbLine
 10
-19.45711255302096
 20
-116.1752564144659
 30
0.0
 11
-19.45711255302095
 21
-135.947256414466
 31
0.0
  0
INSERT
  5
485
330
47F
100
AcDbEntity
  8
0
 62
     0
370
    -2
100
AcDbBlockReference
  2
_Open
 10
-19.45711255302096
 20
-113.0612564144659
 30
0.0
 41
3.114
 42
3.114
 43
3.114
 50
90.00000000000001
  0
INSERT
  5
486
330
47F
100
AcDbEntity
  8
0
 62
     0
370
    -2
100
AcDbBlockReference
  2
_Open
 10
-19.45711255302095
 20
-139.061256414466
 30
0.0
 41
3.114
 42
3.114
 43
3.114
 50
270.0
  0
MTEXT
  5
487
330
47F
100
AcDbEntity
  8
0
 62
     0
100
AcDbMText
 10
-22.45711255302095
 20
-126.060256414466
 30
0.0
 40
4.0
 41
0.0
 71
     5
 72
     1
  1
26
 11
-4.099285014000576E-16
 21
1.0
 31
0.0
 73
     1
 44
1.0
  0
POINT
  5
488
330
47F
100
AcDbEntity
  8
Defpoints
 62
     0
100
AcDbPoint
 10
-45.35247753022304
 20
-113.061256414466
 30
0.0
  0
POINT
  5
489
330
47F
100
AcDbEntity
  8
Defpoints
 62
     0
100
AcDbPoint
 10
-46.0474619662582
 20
-139.061256414466
 30
0.0
  0
POINT
  5
48A
330
47F
100
AcDbEntity
  8
Defpoints
 62
     0
100
AcDbPoint
 10
-19.45811255302095
 20
-139.061256414466
 30
0.0
  0
ENDBLK
  5
481
330
47F
100
AcDbEntity
  8
0
100
AcDbBlockEnd
  0
BLOCK
  5
492
330
48B
100
AcDbEntity
  8
0
100
AcDbBlockBegin
  2
SYM0007
 70
     0
 10
0.0
 20
0.0
 30
0.0
  3
SYM0007
  1

  0
LINE
  5
48C
330
48B
100
AcDbEntity
  8
0
  6
Continuous
 62
     7
100
AcDbLine
 10
0.0
 20
0.0
 30
0.0
 11
9.431642561633929
 21
13.9680700950707
 31
0.0
  0
LINE
  5
48D
330
48B
100
AcDbEntity
  8
0
  6
Continuous
 62
     7
100
AcDbLine
 10
0.0
 20
0.0
 30
0.0
 11
1.031016390978913
 21
2.989482430517612
 31
0.0
  0
LINE
  5
48E
330
48B
100
AcDbEntity
  8
0
  6
Continuous
 62
     7
100
AcDbLine
 10
0.0
 20
0.0
 30
0.0
 11
2.387627601444926
 21
2.073459533643941
 31
0.0
  0
LINE
  5
48F
330
48B
100
AcDbEntity
  8
0
  6
Continuous
 62
     7
100
AcDbLine
 10
9.431642561633943
 20
13.96807009507073
 30
0.0
 11
66.43268888003766
 21
13.96807009507073
 31
0.0
  0
MTEXT
  5
490
330
48B
100
AcDbEntity
  8
0
 62
     7
100
AcDbMText
 10
12.86097303125118
 20
14.96807009507081
 30
0.0
 40
4.0
 41
0.0
 71
     7
 72
     1
  1
{\W0.833333;４－Ｍ５×０．８　深さ１３}
 73
     1
 44
1.0
  0
ENDBLK
  5
493
330
48B
100
AcDbEntity
  8
0
100
AcDbBlockEnd
  0
BLOCK
  5
496
330
495
100
AcDbEntity
  8
0
100
AcDbBlockBegin
  2
*D46
 70
     1
 10
0.0
 20
0.0
 30
0.0
  3
*D46
  1

  0
LINE
  5
498
330
495
100
AcDbEntity
  8
0
  6
ByBlock
 62
     0
370
    -2
100
AcDbLine
 10
-75.5474619662582
 20
27.24023993072018
 30
0.0
 11
-75.5474619662582
 21
51.02926596071973
 31
0.0
  0
LINE
  5
499
330
495
100
AcDbEntity
  8
0
  6
ByBlock
 62
     0
370
    -2
100
AcDbLine
 10
-100.0474619662582
 20
6.506187433190295
 30
0.0
 11
-100.0474619662582
 21
51.02926596071973
 31
0.0
  0
LINE
  5
49A
330
495
100
AcDbEntity
  8
0
  6
ByBlock
 62
     0
370
    -2
100
AcDbLine
 10
-78.6614619662582
 20
48.74326596071973
 30
0.0
 11
-96.93346196625819
 21
48.74326596071973
 31
0.0
  0
INSERT
  5
49B
330
495
100
AcDbEntity
  8
0
 62
     0
370
    -2
100
AcDbBlockReference
  2
_Open
 10
-75.5474619662582
 20
48.74326596071973
 30
0.0
 41
3.114
 42
3.114
 43
3.114
  0
INSERT
  5
49C
330
495
100
AcDbEntity
  8
0
 62
     0
370
    -2
100
AcDbBlockReference
  2
_Open
 10
-100.0474619662582
 20
48.74326596071973
 30
0.0
 41
3.114
 42
3.114
 43
3.114
 50
180.0
  0
MTEXT
  5
49D
330
495
100
AcDbEntity
  8
0
 62
     0
100
AcDbMText
 10
-88.64396455772726
 20
51.74326596071973
 30
0.0
 40
4.0
 41
0.0
 71
     5
 72
     1
  1
24.5
 73
     1
 44
1.0
  0
POINT
  5
49E
330
495
100
AcDbEntity
  8
Defpoints
 62
     0
100
AcDbPoint
 10
-75.5474619662582
 20
27.24023993072018
 30
0.0
  0
POINT
  5
49F
330
495
100
AcDbEntity
  8
Defpoints
 62
     0
100
AcDbPoint
 10
-100.0474619662582
 20
6.506187433190295
 30
0.0
  0
POINT
  5
4A0
330
495
100
AcDbEntity
  8
Defpoints
 62
     0
100
AcDbPoint
 10
-100.0474619662582
 20
48.74326596071973
 30
0.0
  0
ENDBLK
  5
497
330
495
100
AcDbEntity
  8
0
100
AcDbBlockEnd
  0
BLOCK
  5
4A3
330
4A2
100
AcDbEntity
  8
0
100
AcDbBlockBegin
  2
*D47
 70
     1
 10
0.0
 20
0.0
 30
0.0
  3
*D47
  1

  0
MTEXT
  5
4AA
330
4A2
100
AcDbEntity
  8
0
 62
     0
100
AcDbMText
 10
-11.97440827763388
 20
-19.66025631909852
 30
0.0
 40
4.0
 41
0.0
 71
     5
 72
     1
  1
L(47+ストローク）
 11
1.837610519488806E-16
 21
1.0
 31
0.0
 73
     1
 44
1.0
  0
POINT
  5
4AB
330
4A2
100
AcDbEntity
  8
Defpoints
 62
     0
100
AcDbPoint
 10
-33.0474619662582
 20
-63.06125641446596
 30
0.0
  0
POINT
  5
4AC
330
4A2
100
AcDbEntity
  8
Defpoints
 62
     0
100
AcDbPoint
 10
-40.0474619662582
 20
23.93874377626891
 30
0.0
  0
POINT
  5
4AD
330
4A2
100
AcDbEntity
  8
Defpoints
 62
     0
100
AcDbPoint
 10
-7.926789230014833
 20
23.93874377626891
 30
0.0
  0
LINE
  5
4AE
330
4A2
100
AcDbEntity
  8
0
  6
Continuous
 62
     7
100
AcDbLine
 10
-33.0474619662582
 20
-63.06125641446596
 30
0.0
 11
-5.640789230014832
 21
-63.06125641446596
 31
0.0
  0
LINE
  5
4AF
330
4A2
100
AcDbEntity
  8
0
  6
Continuous
 62
     7
100
AcDbLine
 10
-40.0474619662582
 20
23.93874377626891
 30
0.0
 11
-5.640789230014832
 21
23.93874377626891
 31
0.0
  0
LINE
  5
4B0
330
4A2
100
AcDbEntity
  8
0
  6
Continuous
 62
     7
100
AcDbLine
 10
-7.926789230014833
 20
-63.06125641446596
 30
0.0
 11
-7.926789230014833
 21
23.93874377626891
 31
0.0
  0
LINE
  5
4B1
330
4A2
100
AcDbEntity
  8
0
  6
Continuous
 62
     7
100
AcDbLine
 10
-7.926789230014833
 20
-63.06125641446596
 30
0.0
 11
-8.475789230014833
 21
-59.94725641446596
 31
0.0
  0
LINE
  5
4B2
330
4A2
100
AcDbEntity
  8
0
  6
Continuous
 62
     7
100
AcDbLine
 10
-7.926789230014833
 20
-63.06125641446596
 30
0.0
 11
-7.377789230014833
 21
-59.94725641446596
 31
0.0
  0
LINE
  5
4B3
330
4A2
100
AcDbEntity
  8
0
  6
Continuous
 62
     7
100
AcDbLine
 10
-7.926789230014833
 20
23.93874377626891
 30
0.0
 11
-7.377789230014833
 21
20.82474377626891
 31
0.0
  0
LINE
  5
4B4
330
4A2
100
AcDbEntity
  8
0
  6
Continuous
 62
     7
100
AcDbLine
 10
-7.926789230014833
 20
23.93874377626891
 30
0.0
 11
-8.475789230014833
 21
20.82474377626891
 31
0.0
  0
ENDBLK
  5
4A4
330
4A2
100
AcDbEntity
  8
0
100
AcDbBlockEnd
  0
ENDSEC
  0
SECTION
  2
ENTITIES
  0
LINE
  5
273
330
1F
100
AcDbEntity
  8
0
  6
Continuous
 62
     7
100
AcDbLine
 10
71.79060725707978
 20
76.74060638560894
 30
0.0
 11
191.7906072570798
 21
76.74060638560894
 31
0.0
  0
LINE
  5
274
330
1F
100
AcDbEntity
  8
0
  6
Continuous
 62
     7
100
AcDbLine
 10
71.79060725707978
 20
84.74060638560894
 30
0.0
 11
191.7906072570798
 21
84.74060638560894
 31
0.0
  0
LINE
  5
275
330
1F
100
AcDbEntity
  8
0
  6
Continuous
 62
     7
100
AcDbLine
 10
71.79060725707978
 20
92.74060638560894
 30
0.0
 11
191.7906072570798
 21
92.74060638560894
 31
0.0
  0
LINE
  5
276
330
1F
100
AcDbEntity
  8
0
  6
Continuous
 62
     7
100
AcDbLine
 10
71.79060725707978
 20
100.7406063856089
 30
0.0
 11
191.7906072570798
 21
100.7406063856089
 31
0.0
  0
LINE
  5
277
330
1F
100
AcDbEntity
  8
0
  6
Continuous
 62
     7
100
AcDbLine
 10
71.79060725707978
 20
108.7406063856089
 30
0.0
 11
191.7906072570798
 21
108.7406063856089
 31
0.0
  0
LINE
  5
278
330
1F
100
AcDbEntity
  8
0
  6
Continuous
 62
     7
100
AcDbLine
 10
71.79060725707978
 20
116.7406063856089
 30
0.0
 11
191.7906072570798
 21
116.7406063856089
 31
0.0
  0
LINE
  5
279
330
1F
100
AcDbEntity
  8
0
  6
Continuous
 62
     7
100
AcDbLine
 10
71.79060725707978
 20
124.7406063856089
 30
0.0
 11
191.7906072570798
 21
124.7406063856089
 31
0.0
  0
LINE
  5
27A
330
1F
100
AcDbEntity
  8
0
  6
Continuous
 62
     7
100
AcDbLine
 10
71.79060725707978
 20
140.7406063856089
 30
0.0
 11
191.7906072570798
 21
140.7406063856089
 31
0.0
  0
LINE
  5
27B
330
1F
100
AcDbEntity
  8
0
  6
Continuous
 62
     7
100
AcDbLine
 10
71.79060725707978
 20
132.7406063856089
 30
0.0
 11
191.7906072570798
 21
132.7406063856089
 31
0.0
  0
LINE
  5
27C
330
1F
100
AcDbEntity
  8
0
  6
Continuous
 62
     7
100
AcDbLine
 10
131.7906072570798
 20
140.7406063856089
 30
0.0
 11
131.7906072570798
 21
52.74060638560894
 31
0.0
  0
LINE
  5
27D
330
1F
100
AcDbEntity
  8
0
  6
Continuous
 62
     7
100
AcDbLine
 10
101.7906072570798
 20
140.7406063856089
 30
0.0
 11
101.7906072570798
 21
52.74060638560894
 31
0.0
  0
LINE
  5
27E
330
1F
100
AcDbEntity
  8
0
  6
Continuous
 62
     7
100
AcDbLine
 10
71.79060725707978
 20
140.7406063856089
 30
0.0
 11
71.79060725707978
 21
52.74060638560894
 31
0.0
  0
LINE
  5
27F
330
1F
100
AcDbEntity
  8
0
  6
Continuous
 62
     7
100
AcDbLine
 10
71.79060725707978
 20
68.74060638560894
 30
0.0
 11
191.7906072570798
 21
68.74060638560894
 31
0.0
  0
LINE
  5
280
330
1F
100
AcDbEntity
  8
0
  6
Continuous
 62
     7
100
AcDbLine
 10
71.79060725707978
 20
60.74060638560894
 30
0.0
 11
191.7906072570798
 21
60.74060638560894
 31
0.0
  0
LINE
  5
281
330
1F
100
AcDbEntity
  8
0
  6
Continuous
 62
     7
100
AcDbLine
 10
71.79060725707978
 20
52.74060638560894
 30
0.0
 11
191.7906072570798
 21
52.74060638560894
 31
0.0
  0
LINE
  5
282
330
1F
100
AcDbEntity
  8
0
  6
Continuous
 62
     7
100
AcDbLine
 10
161.7906072570798
 20
140.7406063856089
 30
0.0
 11
161.7906072570798
 21
52.74060638560894
 31
0.0
  0
LINE
  5
283
330
1F
100
AcDbEntity
  8
0
  6
Continuous
 62
     7
100
AcDbLine
 10
191.7906072570798
 20
140.7406063856089
 30
0.0
 11
191.7906072570798
 21
52.74060638560894
 31
0.0
  0
LINE
  5
284
330
1F
100
AcDbEntity
  8
0
  6
Continuous
 62
     7
100
AcDbLine
 10
-234.6091848141841
 20
-169.5077421504725
 30
0.0
 11
234.6091848141841
 21
-169.5077421504725
 31
0.0
  0
LINE
  5
285
330
1F
100
AcDbEntity
  8
0
  6
Continuous
 62
     7
100
AcDbLine
 10
-234.6091848141841
 20
181.5077421504724
 30
0.0
 11
-234.6091848141841
 21
-169.5077421504725
 31
0.0
  0
LINE
  5
286
330
1F
100
AcDbEntity
  8
0
  6
Continuous
 62
     7
100
AcDbLine
 10
234.6091848141841
 20
181.5077421504724
 30
0.0
 11
234.6091848141841
 21
-169.5077421504725
 31
0.0
  0
LINE
  5
287
330
1F
100
AcDbEntity
  8
0
  6
Continuous
 62
     7
100
AcDbLine
 10
-234.6091848141841
 20
169.5077421504724
 30
0.0
 11
234.6091848141841
 21
169.5077421504724
 31
0.0
  0
LINE
  5
288
330
1F
100
AcDbEntity
  8
0
  6
Continuous
 62
     7
100
AcDbLine
 10
-234.6091848141841
 20
181.5077421504724
 30
0.0
 11
234.6091848141841
 21
181.5077421504724
 31
0.0
  0
MTEXT
  5
289
330
1F
100
AcDbEntity
  8
0
 62
     7
100
AcDbMText
 10
83.36210714120836
 20
118.7406063856089
 30
0.0
 40
4.0
 41
0.0
 71
     7
 72
     1
  1
{\W0.833333;３０}
 73
     1
 44
1.0
  0
MTEXT
  5
28A
330
1F
100
AcDbEntity
  8
0
 62
     7
100
AcDbMText
 10
81.36210708160371
 20
86.74060638560894
 30
0.0
 40
4.0
 41
0.0
 71
     7
 72
     1
  1
{\W0.833333;１００}
 73
     1
 44
1.0
  0
MTEXT
  5
28B
330
1F
100
AcDbEntity
  8
0
 62
     7
100
AcDbMText
 10
83.36210714120836
 20
94.74060638560894
 30
0.0
 40
4.0
 41
0.0
 71
     7
 72
     1
  1
{\W0.833333;７５}
 73
     1
 44
1.0
  0
MTEXT
  5
28C
330
1F
100
AcDbEntity
  8
0
 62
     7
100
AcDbMText
 10
83.36210714120836
 20
102.7406063856089
 30
0.0
 40
4.0
 41
0.0
 71
     7
 72
     1
  1
{\W0.833333;５０}
 73
     1
 44
1.0
  0
MTEXT
  5
28D
330
1F
100
AcDbEntity
  8
0
 62
     7
100
AcDbMText
 10
83.36210714120836
 20
110.7406063856089
 30
0.0
 40
4.0
 41
0.0
 71
     7
 72
     1
  1
{\W0.833333;４０}
 73
     1
 44
1.0
  0
MTEXT
  5
28E
330
1F
100
AcDbEntity
  8
0
 62
     7
100
AcDbMText
 10
83.36210714120836
 20
126.7406063856089
 30
0.0
 40
4.0
 41
0.0
 71
     7
 72
     1
  1
{\W0.833333;２０}
 73
     1
 44
1.0
  0
MTEXT
  5
28F
330
1F
100
AcDbEntity
  8
0
 62
     7
100
AcDbMText
 10
77.36210696239442
 20
134.7406063856089
 30
0.0
 40
4.0
 41
0.0
 71
     7
 72
     1
  1
{\W0.833333;ストローク}
 73
     1
 44
1.0
  0
MTEXT
  5
290
330
1F
100
AcDbEntity
  8
0
 62
     7
100
AcDbMText
 10
115.362107200813
 20
134.7406063856089
 30
0.0
 40
4.0
 41
0.0
 71
     7
 72
     1
  1
{\W0.833333;Ｌ}
 73
     1
 44
1.0
  0
MTEXT
  5
291
330
1F
100
AcDbEntity
  8
0
 62
     7
100
AcDbMText
 10
144.2192359848735
 20
134.7406063856089
 30
0.0
 40
4.0
 41
0.0
 71
     7
 72
     1
  1
{\W1;\A1;L{\H0.5x;\S ^ 1;}}
 73
     1
 44
1.0
  0
MTEXT
  5
292
330
1F
100
AcDbEntity
  8
0
 62
     7
100
AcDbMText
 10
81.36210708160371
 20
78.74060638560894
 30
0.0
 40
4.0
 41
0.0
 71
     7
 72
     1
  1
{\W0.833333;１２５}
 73
     1
 44
1.0
  0
MTEXT
  5
293
330
1F
100
AcDbEntity
  8
0
 62
     7
100
AcDbMText
 10
81.36210708160371
 20
70.74060638560894
 30
0.0
 40
4.0
 41
0.0
 71
     7
 72
     1
  1
{\W0.833333;１５０}
 73
     1
 44
1.0
  0
MTEXT
  5
294
330
1F
100
AcDbEntity
  8
0
 62
     7
100
AcDbMText
 10
81.36210708160371
 20
62.74060638560894
 30
0.0
 40
4.0
 41
0.0
 71
     7
 72
     1
  1
{\W1;175}
 73
     1
 44
1.0
  0
MTEXT
  5
295
330
1F
100
AcDbEntity
  8
0
 62
     7
100
AcDbMText
 10
81.36210708160371
 20
54.74060638560894
 30
0.0
 40
4.0
 41
0.0
 71
     7
 72
     1
  1
{\W1;200}
 73
     1
 44
1.0
  0
MTEXT
  5
296
330
1F
100
AcDbEntity
  8
0
 62
     7
100
AcDbMText
 10
113.3621071412084
 20
126.7406063856089
 30
0.0
 40
4.0
 41
0.0
 71
     7
 72
     1
  1
{\W1;67}
 73
     1
 44
1.0
  0
MTEXT
  5
297
330
1F
100
AcDbEntity
  8
0
 62
     7
100
AcDbMText
 10
113.3621071412084
 20
118.7406063856089
 30
0.0
 40
4.0
 41
0.0
 71
     7
 72
     1
  1
{\W1;77}
 73
     1
 44
1.0
  0
MTEXT
  5
298
330
1F
100
AcDbEntity
  8
0
 62
     7
100
AcDbMText
 10
113.3621071412084
 20
110.7406063856089
 30
0.0
 40
4.0
 41
0.0
 71
     7
 72
     1
  1
{\W1;87}
 73
     1
 44
1.0
  0
MTEXT
  5
299
330
1F
100
AcDbEntity
  8
0
 62
     7
100
AcDbMText
 10
113.3621071412084
 20
102.7406063856089
 30
0.0
 40
4.0
 41
0.0
 71
     7
 72
     1
  1
{\W1;97}
 73
     1
 44
1.0
  0
MTEXT
  5
29A
330
1F
100
AcDbEntity
  8
0
 62
     7
100
AcDbMText
 10
111.3621070816037
 20
94.74060638560894
 30
0.0
 40
4.0
 41
0.0
 71
     7
 72
     1
  1
{\W1;122}
 73
     1
 44
1.0
  0
MTEXT
  5
29B
330
1F
100
AcDbEntity
  8
0
 62
     7
100
AcDbMText
 10
111.3621070816037
 20
86.74060638560894
 30
0.0
 40
4.0
 41
0.0
 71
     7
 72
     1
  1
{\W1;147}
 73
     1
 44
1.0
  0
MTEXT
  5
29C
330
1F
100
AcDbEntity
  8
0
 62
     7
100
AcDbMText
 10
111.3621070816037
 20
78.74060638560894
 30
0.0
 40
4.0
 41
0.0
 71
     7
 72
     1
  1
{\W1;172}
 73
     1
 44
1.0
  0
MTEXT
  5
29D
330
1F
100
AcDbEntity
  8
0
 62
     7
100
AcDbMText
 10
111.3621070816037
 20
70.74060638560894
 30
0.0
 40
4.0
 41
0.0
 71
     7
 72
     1
  1
{\W1;197}
 73
     1
 44
1.0
  0
MTEXT
  5
29E
330
1F
100
AcDbEntity
  8
0
 62
     7
100
AcDbMText
 10
111.3621070816037
 20
62.74060638560894
 30
0.0
 40
4.0
 41
0.0
 71
     7
 72
     1
  1
{\W1;222}
 73
     1
 44
1.0
  0
MTEXT
  5
29F
330
1F
100
AcDbEntity
  8
0
 62
     7
100
AcDbMText
 10
111.3621070816037
 20
54.74060638560894
 30
0.0
 40
4.0
 41
0.0
 71
     7
 72
     1
  1
{\W1;247}
 73
     1
 44
1.0
  0
MTEXT
  5
2A0
330
1F
100
AcDbEntity
  8
0
 62
     7
100
AcDbMText
 10
143.3621109559056
 20
126.7406063856089
 30
0.0
 40
4.0
 41
0.0
 71
     7
 72
     1
  1
{\W1;55}
 73
     1
 44
1.0
  0
MTEXT
  5
2A1
330
1F
100
AcDbEntity
  8
0
 62
     7
100
AcDbMText
 10
143.3621109559056
 20
118.7406063856089
 30
0.0
 40
4.0
 41
0.0
 71
     7
 72
     1
  1
{\W1;65}
 73
     1
 44
1.0
  0
MTEXT
  5
2A2
330
1F
100
AcDbEntity
  8
0
 62
     7
100
AcDbMText
 10
143.3621109559056
 20
110.7406063856089
 30
0.0
 40
4.0
 41
0.0
 71
     7
 72
     1
  1
{\W1;75}
 73
     1
 44
1.0
  0
MTEXT
  5
2A3
330
1F
100
AcDbEntity
  8
0
 62
     7
100
AcDbMText
 10
143.3621109559056
 20
102.7406063856089
 30
0.0
 40
4.0
 41
0.0
 71
     7
 72
     1
  1
{\W1;85}
 73
     1
 44
1.0
  0
MTEXT
  5
2A4
330
1F
100
AcDbEntity
  8
0
 62
     7
100
AcDbMText
 10
141.362110896301
 20
94.74060638560894
 30
0.0
 40
4.0
 41
0.0
 71
     7
 72
     1
  1
{\W1;110}
 73
     1
 44
1.0
  0
MTEXT
  5
2A5
330
1F
100
AcDbEntity
  8
0
 62
     7
100
AcDbMText
 10
141.362110896301
 20
86.74060638560894
 30
0.0
 40
4.0
 41
0.0
 71
     7
 72
     1
  1
{\W1;135}
 73
     1
 44
1.0
  0
MTEXT
  5
2A6
330
1F
100
AcDbEntity
  8
0
 62
     7
100
AcDbMText
 10
141.362110896301
 20
78.74060638560894
 30
0.0
 40
4.0
 41
0.0
 71
     7
 72
     1
  1
{\W1;160}
 73
     1
 44
1.0
  0
MTEXT
  5
2A7
330
1F
100
AcDbEntity
  8
0
 62
     7
100
AcDbMText
 10
141.362110896301
 20
70.74060638560894
 30
0.0
 40
4.0
 41
0.0
 71
     7
 72
     1
  1
{\W1;185}
 73
     1
 44
1.0
  0
MTEXT
  5
2A8
330
1F
100
AcDbEntity
  8
0
 62
     7
100
AcDbMText
 10
141.362110896301
 20
62.74060638560894
 30
0.0
 40
4.0
 41
0.0
 71
     7
 72
     1
  1
{\W1;210}
 73
     1
 44
1.0
  0
MTEXT
  5
2A9
330
1F
100
AcDbEntity
  8
0
 62
     7
100
AcDbMText
 10
141.362110896301
 20
54.74060638560894
 30
0.0
 40
4.0
 41
0.0
 71
     7
 72
     1
  1
{\W1;235}
 73
     1
 44
1.0
  0
MTEXT
  5
2AA
330
1F
100
AcDbEntity
  8
0
 62
     7
100
AcDbMText
 10
174.2192359848735
 20
134.7406063856089
 30
0.0
 40
4.0
 41
0.0
 71
     7
 72
     1
  1
{\W1;\A1;L{\H0.5x;\S ^ 2;}}
 73
     1
 44
1.0
  0
MTEXT
  5
2AB
330
1F
100
AcDbEntity
  8
0
 62
     7
100
AcDbMText
 10
175.3621110155103
 20
126.7406063856089
 30
0.0
 40
4.0
 41
0.0
 71
     7
 72
     1
  1
{\W1;-}
 73
     1
 44
1.0
  0
MTEXT
  5
2AC
330
1F
100
AcDbEntity
  8
0
 62
     7
100
AcDbMText
 10
175.3621110155103
 20
118.7406063856089
 30
0.0
 40
4.0
 41
0.0
 71
     7
 72
     1
  1
{\W1;-}
 73
     1
 44
1.0
  0
MTEXT
  5
2AD
330
1F
100
AcDbEntity
  8
0
 62
     7
100
AcDbMText
 10
175.3621110155103
 20
110.7406063856089
 30
0.0
 40
4.0
 41
0.0
 71
     7
 72
     1
  1
{\W1;-}
 73
     1
 44
1.0
  0
MTEXT
  5
2AE
330
1F
100
AcDbEntity
  8
0
 62
     7
100
AcDbMText
 10
173.3621109559056
 20
54.74060638560894
 30
0.0
 40
4.0
 41
0.0
 71
     7
 72
     1
  1
{\W1;31}
 73
     1
 44
1.0
  0
MTEXT
  5
2AF
330
1F
100
AcDbEntity
  8
0
 62
     7
100
AcDbMText
 10
173.3621109559056
 20
62.74060638560894
 30
0.0
 40
4.0
 41
0.0
 71
     7
 72
     1
  1
{\W1;31}
 73
     1
 44
1.0
  0
MTEXT
  5
2B0
330
1F
100
AcDbEntity
  8
0
 62
     7
100
AcDbMText
 10
173.3621109559056
 20
70.74060638560894
 30
0.0
 40
4.0
 41
0.0
 71
     7
 72
     1
  1
{\W1;31}
 73
     1
 44
1.0
  0
MTEXT
  5
2B1
330
1F
100
AcDbEntity
  8
0
 62
     7
100
AcDbMText
 10
173.3621109559056
 20
78.74060638560894
 30
0.0
 40
4.0
 41
0.0
 71
     7
 72
     1
  1
{\W1;31}
 73
     1
 44
1.0
  0
MTEXT
  5
2B2
330
1F
100
AcDbEntity
  8
0
 62
     7
100
AcDbMText
 10
173.3621109559056
 20
86.74060638560894
 30
0.0
 40
4.0
 41
0.0
 71
     7
 72
     1
  1
{\W1;14}
 73
     1
 44
1.0
  0
MTEXT
  5
2B3
330
1F
100
AcDbEntity
  8
0
 62
     7
100
AcDbMText
 10
173.3621109559056
 20
94.74060638560894
 30
0.0
 40
4.0
 41
0.0
 71
     7
 72
     1
  1
{\W1;14}
 73
     1
 44
1.0
  0
MTEXT
  5
2B4
330
1F
100
AcDbEntity
  8
0
 62
     7
100
AcDbMText
 10
175.3621110155103
 20
102.7406063856089
 30
0.0
 40
4.0
 41
0.0
 71
     7
 72
     1
  1
{\W1;-}
 73
     1
 44
1.0
  0
MTEXT
  5
2B5
330
1F
100
AcDbEntity
  8
0
 62
     7
100
AcDbMText
 10
72.98087108009139
 20
41.75234522797091
 30
0.0
 40
4.0
 41
0.0
 71
     7
 72
     1
  1
{\W0.833333;\L*　　　印は作図ストロークを示します。\l}
 73
     1
 44
1.0
  0
MTEXT
  5
2B6
330
1F
100
AcDbEntity
  8
0
 62
     7
100
AcDbMText
 10
-18.81751244030503
 20
37.07666105333472
 30
0.0
 40
6.0
 41
0.0
 71
     7
 72
     1
  1
{\W0.833333;*1}
 73
     1
 44
1.0
  0
MTEXT
  5
2B7
330
1F
100
AcDbEntity
  8
0
 62
     7
100
AcDbMText
 10
-188.817512440305
 20
37.07666105333472
 30
0.0
 40
6.0
 41
0.0
 71
     7
 72
     1
  1
{\W0.833333;*3}
 73
     1
 44
1.0
  0
MTEXT
  5
2B8
330
1F
100
AcDbEntity
  8
0
 62
     7
100
AcDbMText
 10
31.18248755969497
 20
37.07666105333472
 30
0.0
 40
6.0
 41
0.0
 71
     7
 72
     1
  1
{\W0.833333;*4}
 73
     1
 44
1.0
  0
MTEXT
  5
2B9
330
1F
100
AcDbEntity
  8
0
 62
     7
100
AcDbMText
 10
171.182487559695
 20
37.07666105333472
 30
0.0
 40
6.0
 41
0.0
 71
     7
 72
     1
  1
{\W0.833333;*5}
 73
     1
 44
1.0
  0
MTEXT
  5
2BA
330
1F
100
AcDbEntity
  8
0
 62
     7
100
AcDbMText
 10
-18.81751244030503
 20
127.0766610533347
 30
0.0
 40
6.0
 41
0.0
 71
     7
 72
     1
  1
{\W0.833333;*2}
 73
     1
 44
1.0
  0
MTEXT
  5
2BB
330
1F
100
AcDbEntity
  8
0
 62
     7
100
AcDbMText
 10
-18.81751244030503
 20
-157.9233389466653
 30
0.0
 40
6.0
 41
0.0
 71
     7
 72
     1
  1
{\W0.833333;*6}
 73
     1
 44
1.0
  0
MTEXT
  5
2BC
330
1F
100
AcDbEntity
  8
0
 62
     7
100
AcDbMText
 10
-209.8234598166637
 20
172.5077421504724
 30
0.0
 40
6.0
 41
0.0
 71
     7
 72
     1
  1
{\W0.833333;ＮＩＨＯＮ　ＳＥＩＫＩ　ＢＮ－６ＡＫ０３-20-***}
 73
     1
 44
1.0
  0
MTEXT
  5
2BD
330
1F
100
AcDbEntity
  8
0
 62
     7
100
AcDbMText
 10
228.8676953639944
 20
-169.194934010574
 30
0.0
 40
0.5
 41
0.0
 71
     7
 72
     1
  1
{\W0.833333;ＧＫ００－０６０３－Ｅ}
 73
     1
 44
1.0
  0
INSERT
  5
2BE
330
1F
100
AcDbEntity
  8
0
 62
     7
100
AcDbBlockReference
  2
USER0001
 10
69.79060725707978
 20
112.7406063856089
 30
0.0
 50
90.00000000000001
  0
INSERT
  5
2BF
330
1F
100
AcDbEntity
  8
0
 62
     7
100
AcDbBlockReference
  2
USER0001
 10
86.30659983644136
 20
44.55747751703359
 30
0.0
 50
90.00000000000001
  0
INSERT
  5
2C0
330
1F
100
AcDbEntity
  8
0
 62
     7
100
AcDbBlockReference
  2
DTL0001
 10
-75.5474619662582
 20
23.93874377626891
 30
0.0
  0
INSERT
  5
2C1
330
1F
100
AcDbEntity
  8
0
 62
     7
100
AcDbBlockReference
  2
DTL0002
 10
-75.5474619662582
 20
89.93874358553404
 30
0.0
  0
INSERT
  5
2C2
330
1F
100
AcDbEntity
  8
0
 62
     7
100
AcDbBlockReference
  2
DTL0003
 10
-187.0474619662582
 20
23.93874377626891
 30
0.0
  0
INSERT
  5
2C3
330
1F
100
AcDbEntity
  8
0
 62
     7
100
AcDbBlockReference
  2
DTL0004
 10
35.9525380337418
 20
23.93874377626891
 30
0.0
  0
INSERT
  5
2C4
330
1F
100
AcDbEntity
  8
0
 62
     7
100
AcDbBlockReference
  2
DTL0005
 10
120.4525380337418
 20
23.93874663729186
 30
0.0
  0
INSERT
  5
2C5
330
1F
100
AcDbEntity
  8
0
 62
     7
100
AcDbBlockReference
  2
DTL0006
 10
-75.5474619662582
 20
-126.061256414466
 30
0.0
  0
DIMENSION
  5
2C6
330
1F
100
AcDbEntity
  8
0
 62
     7
100
AcDbDimension
  2
*D10
 10
-103.0474619662582
 20
114.938743585534
 30
0.0
 11
-75.54546196625819
 21
114.938743585534
 31
0.0
 70
   160
 71
     5
 42
55.0
  3
DIMSTYLE_FULLSCALE
100
AcDbAlignedDimension
 13
-48.0474619662582
 23
95.86348723787779
 33
0.0
 14
-103.0474619662582
 24
95.86348723787779
 34
0.0
100
AcDbRotatedDimension
1001
ACAD
1000
DSTYLE
1002
{
1070
    40
1040
1.0
1070
   278
1070
    46
1070
   147
1040
1.0
1070
    77
1070
     1
1070
    74
1070
     0
1070
    73
1070
     0
1070
    42
1040
0.0
1070
    44
1040
2.285980224609375
1070
    76
1070
     0
1070
    75
1070
     0
1070
   279
1070
     0
1070
   271
1070
     0
1070
   144
1040
1.0
1070
   173
1070
     1
1070
    41
1040
3.114
1070
   140
1040
4.0
1070
   344
1005
2C7
1070
   343
1005
2C7
1002
}
  0
DIMENSION
  5
2DA
330
1F
100
AcDbEntity
  8
0
 62
     7
100
AcDbDimension
  2
*D11
 10
-45.5474619662582
 20
122.9387130679559
 30
0.0
 11
-75.54646196625819
 21
122.9387130679559
 31
0.0
 70
   160
 71
     5
 42
60.0
  3
DIMSTYLE_FULLSCALE
100
AcDbAlignedDimension
 13
-105.5474619662582
 23
102.9151229800653
 33
0.0
 14
-45.5474619662582
 24
101.8573837222528
 34
0.0
 50
180.0
100
AcDbRotatedDimension
1001
ACAD
1000
DSTYLE
1002
{
1070
    40
1040
1.0
1070
   278
1070
    46
1070
   147
1040
1.0
1070
    77
1070
     1
1070
    74
1070
     0
1070
    73
1070
     0
1070
    42
1040
0.0
1070
    44
1040
2.2860107421875
1070
    76
1070
     0
1070
    75
1070
     0
1070
   279
1070
     0
1070
   271
1070
     0
1070
   144
1040
1.0
1070
   173
1070
     1
1070
    41
1040
3.114
1070
   140
1040
4.0
1070
   344
1005
2C7
1070
   343
1005
2C7
1002
}
  0
DIMENSION
  5
2E7
330
1F
100
AcDbEntity
  8
0
 62
     7
100
AcDbDimension
  2
*D12
 10
-111.5474619662582
 20
130.9387130679559
 30
0.0
 11
-75.54546196625819
 21
130.9387130679559
 31
0.0
 70
   160
 71
     5
 42
72.0
  3
DIMSTYLE_FULLSCALE
100
AcDbAlignedDimension
 13
-39.5474619662582
 23
103.938743585534
 33
0.0
 14
-111.5474619662582
 24
103.938743585534
 34
0.0
100
AcDbRotatedDimension
1001
ACAD
1000
DSTYLE
1002
{
1070
    40
1040
1.0
1070
   278
1070
    46
1070
   147
1040
1.0
1070
    77
1070
     1
1070
    74
1070
     0
1070
    73
1070
     0
1070
    42
1040
0.0
1070
    44
1040
2.2860107421875
1070
    76
1070
     0
1070
    75
1070
     0
1070
   279
1070
     0
1070
   271
1070
     0
1070
   144
1040
1.0
1070
   173
1070
     1
1070
    41
1040
3.114
1070
   140
1040
4.0
1070
   344
1005
2C7
1070
   343
1005
2C7
1002
}
  0
DIMENSION
  5
2F4
330
1F
100
AcDbEntity
  8
0
 62
     7
100
AcDbDimension
  2
*D13
 10
-33.0474619662582
 20
138.9387130679559
 30
0.0
 11
-75.54646196625819
 21
138.9387130679559
 31
0.0
 70
   160
 71
     5
 42
85.0
  3
DIMSTYLE_FULLSCALE
100
AcDbAlignedDimension
 13
-118.0474772250473
 23
105.6387252749872
 33
0.0
 14
-33.0474619662582
 24
105.6387252749872
 34
0.0
 50
180.0
100
AcDbRotatedDimension
1001
ACAD
1000
DSTYLE
1002
{
1070
    40
1040
1.0
1070
   278
1070
    46
1070
   147
1040
1.0
1070
    77
1070
     1
1070
    74
1070
     0
1070
    73
1070
     0
1070
    42
1040
0.0
1070
    44
1040
2.2860107421875
1070
    76
1070
     0
1070
    75
1070
     0
1070
   279
1070
     0
1070
   271
1070
     0
1070
   144
1040
0.999999820484867
1070
   173
1070
     1
1070
    41
1040
3.114
1070
   140
1040
4.0
1070
   344
1005
2C7
1070
   343
1005
2C7
1002
}
  0
DIMENSION
  5
301
330
1F
100
AcDbEntity
  8
0
 62
     7
100
AcDbDimension
  2
*D14
 10
-101.5474619662582
 20
-155.060256414466
 30
0.0
 11
-75.54546196625819
 21
-155.060256414466
 31
0.0
 70
   160
 71
     5
 42
52.0
  3
DIMSTYLE_FULLSCALE
100
AcDbAlignedDimension
 13
-49.5474619662582
 23
-142.6036758480597
 33
0.0
 14
-101.5474619662582
 24
-142.6036758480597
 34
0.0
100
AcDbRotatedDimension
1001
ACAD
1000
DSTYLE
1002
{
1070
    40
1040
1.0
1070
   278
1070
    46
1070
   147
1040
1.0
1070
    77
1070
     1
1070
    74
1070
     0
1070
    73
1070
     0
1070
    42
1040
0.0
1070
    44
1040
2.2860107421875
1070
    76
1070
     0
1070
    75
1070
     0
1070
   279
1070
     0
1070
   271
1070
     0
1070
   144
1040
1.0
1070
   173
1070
     1
1070
    41
1040
3.114
1070
   140
1040
4.0
1070
   344
1005
2C7
1070
   343
1005
2C7
1002
}
  0
DIMENSION
  5
30E
330
1F
100
AcDbEntity
  8
0
 62
     7
100
AcDbDimension
  2
*D15
 10
134.4525380337418
 20
-78.85035077957784
 30
0.0
 11
120.4535380337418
 21
-78.85035077957784
 31
0.0
 70
   160
 71
     5
 42
28.0
  3
DIMSTYLE_FULLSCALE
100
AcDbAlignedDimension
 13
106.4525380337418
 23
-51.82961655240541
 33
0.0
 14
134.4525380337418
 24
-51.82961655240541
 34
0.0
 50
180.0
100
AcDbRotatedDimension
1001
ACAD
1000
DSTYLE
1002
{
1070
    40
1040
1.0
1070
   278
1070
    46
1070
   147
1040
1.0
1070
    77
1070
     1
1070
    74
1070
     0
1070
    73
1070
     0
1070
    42
1040
0.0
1070
    44
1040
2.286000000000001
1070
    76
1070
     0
1070
    75
1070
     0
1070
   279
1070
     0
1070
   271
1070
     0
1070
   144
1040
1.0
1070
   173
1070
     1
1070
    41
1040
3.114
1070
   140
1040
4.0
1070
   344
1005
2C7
1070
   343
1005
2C7
1002
}
  0
DIMENSION
  5
31B
330
1F
100
AcDbEntity
  8
0
 62
     7
100
AcDbDimension
  2
*D16
 10
152.4525380337418
 20
-88.39167267659073
 30
0.0
 11
120.4535380337418
 21
-88.39167267659073
 31
0.0
 70
   160
 71
     5
 42
64.0
  3
DIMSTYLE_FULLSCALE
100
AcDbAlignedDimension
 13
88.4525380337418
 23
-53.32849121671205
 33
0.0
 14
152.4525380337418
 24
-53.32849121671205
 34
0.0
 50
180.0
100
AcDbRotatedDimension
1001
ACAD
1000
DSTYLE
1002
{
1070
    40
1040
1.0
1070
   278
1070
    46
1070
   147
1040
1.0
1070
    77
1070
     1
1070
    74
1070
     0
1070
    73
1070
     0
1070
    42
1040
0.0
1070
    44
1040
2.286000000000001
1070
    76
1070
     0
1070
    75
1070
     0
1070
   279
1070
     0
1070
   271
1070
     0
1070
   144
1040
1.0
1070
   173
1070
     1
1070
    41
1040
3.114
1070
   140
1040
4.0
1070
   344
1005
2C7
1070
   343
1005
2C7
1002
}
  0
DIMENSION
  5
328
330
1F
100
AcDbEntity
  8
0
 62
     7
100
AcDbDimension
  2
*D17
 10
0.642740256478449
 20
70.93874358553406
 30
0.0
 11
0.642740256478442
 21
88.93974358553405
 31
0.0
 70
   160
 71
     5
 42
36.0
  3
DIMSTYLE_FULLSCALE
100
AcDbAlignedDimension
 13
-39.34746284301991
 23
106.938743585534
 33
0.0
 14
-34.0474619662582
 24
70.93874358553404
 34
0.0
 50
90.00000000000001
100
AcDbRotatedDimension
1001
ACAD
1000
DSTYLE
1002
{
1070
    40
1040
1.0
1070
   278
1070
    46
1070
   147
1040
1.0
1070
    77
1070
     1
1070
    74
1070
     0
1070
    73
1070
     0
1070
    42
1040
0.0
1070
    44
1040
2.286000000000001
1070
    76
1070
     0
1070
    75
1070
     0
1070
   279
1070
     0
1070
   271
1070
     0
1070
   144
1040
1.0
1070
   173
1070
     1
1070
    41
1040
3.114
1070
   140
1040
4.0
1070
   344
1005
2C7
1070
   343
1005
2C7
1002
}
  0
DIMENSION
  5
335
330
1F
100
AcDbEntity
  8
0
 62
     7
100
AcDbDimension
  2
*D18
 10
-7.837794799432116
 20
106.938743585534
 30
0.0
 11
-7.837794799432118
 21
98.43974358553405
 31
0.0
 70
   160
 71
     5
 42
17.0
  3
DIMSTYLE_FULLSCALE
100
AcDbAlignedDimension
 13
-33.0474619662582
 23
89.93874358553404
 33
0.0
 14
-39.34746120331874
 24
106.938743585534
 34
0.0
 50
270.0
100
AcDbRotatedDimension
1001
ACAD
1000
DSTYLE
1002
{
1070
    40
1040
1.0
1070
   278
1070
    46
1070
   147
1040
1.0
1070
    77
1070
     1
1070
    74
1070
     0
1070
    73
1070
     0
1070
    42
1040
0.0
1070
    44
1040
2.286000000000001
1070
    76
1070
     0
1070
    75
1070
     0
1070
   279
1070
     0
1070
   271
1070
     0
1070
   144
1040
1.0
1070
   173
1070
     1
1070
    41
1040
3.114
1070
   140
1040
4.0
1070
   344
1005
2C7
1070
   343
1005
2C7
1002
}
  0
DIMENSION
  5
342
330
1F
100
AcDbEntity
  8
0
 62
     7
100
AcDbDimension
  2
*D19
 10
-7.836794799432114
 20
70.93874358553406
 30
0.0
 11
-7.836794799432117
 21
80.43974358553405
 31
0.0
 70
   160
 71
     5
 42
19.0
  3
DIMSTYLE_FULLSCALE
100
AcDbAlignedDimension
 13
-33.0474619662582
 23
89.93874358553404
 33
0.0
 14
-34.0474619662582
 24
70.93874358553404
 34
0.0
 50
90.00000000000001
100
AcDbRotatedDimension
1001
ACAD
1000
DSTYLE
1002
{
1070
    40
1040
1.0
1070
   278
1070
    46
1070
   147
1040
1.0
1070
    77
1070
     1
1070
    74
1070
     0
1070
    73
1070
     0
1070
    42
1040
0.0
1070
    44
1040
2.286000000000001
1070
    76
1070
     0
1070
    75
1070
     1
1070
   279
1070
     0
1070
   271
1070
     0
1070
   144
1040
1.0
1070
   173
1070
     1
1070
    41
1040
3.114
1070
   140
1040
4.0
1070
   344
1005
2C7
1070
   343
1005
2C7
1002
}
  0
DIMENSION
  5
34E
330
1F
100
AcDbEntity
  8
0
 62
     7
100
AcDbDimension
  2
*D20
 10
-25.25415404322793
 20
80.93874358553404
 30
0.0
 11
-25.25415404322795
 21
111.4091737322018
 31
0.0
 70
   160
 71
     5
 42
18.0
  3
DIMSTYLE_FULLSCALE
100
AcDbAlignedDimension
 13
-41.74613139985195
 23
98.93874358553404
 33
0.0
 14
-41.74613139985195
 24
80.93874358553404
 34
0.0
 50
90.00000000000001
100
AcDbRotatedDimension
1001
ACAD
1000
DSTYLE
1002
{
1070
    40
1040
1.0
1070
   278
1070
    46
1070
   147
1040
1.0
1070
    77
1070
     1
1070
    74
1070
     0
1070
    73
1070
     0
1070
    42
1040
0.0
1070
    44
1040
2.286000000000001
1070
    76
1070
     0
1070
    75
1070
     0
1070
   279
1070
     0
1070
   271
1070
     0
1070
   144
1040
1.0
1070
   173
1070
     1
1070
    41
1040
3.114
1070
   140
1040
4.0
1070
   344
1005
2C7
1070
   343
1005
2C7
1002
}
  0
DIMENSION
  5
35C
330
1F
100
AcDbEntity
  8
0
 62
     7
100
AcDbDimension
  2
*D21
 10
-16.38711040992737
 20
74.938743585534
 30
0.0
 11
-16.38711040992738
 21
95.14620698084187
 31
0.0
 70
   160
 71
     5
 42
30.00000000000006
  3
DIMSTYLE_FULLSCALE
100
AcDbAlignedDimension
 13
-40.54746197903472
 23
104.938743585534
 33
0.0
 14
-40.54746197903478
 24
74.93874358553398
 34
0.0
 50
90.00000000000001
100
AcDbRotatedDimension
1001
ACAD
1000
DSTYLE
1002
{
1070
    40
1040
1.0
1070
   278
1070
    46
1070
   147
1040
1.0
1070
    77
1070
     1
1070
    74
1070
     0
1070
    73
1070
     0
1070
    42
1040
0.0
1070
    44
1040
2.286000000000001
1070
    76
1070
     0
1070
    75
1070
     0
1070
   279
1070
     0
1070
   271
1070
     0
1070
   144
1040
1.0
1070
   173
1070
     1
1070
    41
1040
3.114
1070
   140
1040
4.0
1070
   344
1005
2C7
1070
   343
1005
2C7
1002
}
  0
INSERT
  5
36F
330
1F
100
AcDbEntity
  8
0
 62
     7
100
AcDbBlockReference
  2
SYM0001
 10
-44.81646395922998
 20
78.54800271423053
 30
0.0
  0
DIMENSION
  5
372
330
1F
100
AcDbEntity
  8
0
 62
     7
100
AcDbDimension
  2
*D23
 10
-19.64362129949675
 20
13.93874358553405
 30
0.0
 11
-19.64362129949675
 21
18.83974368090148
 31
0.0
 70
   160
 71
     5
 42
10.00000019073487
  3
DIMSTYLE_FULLSCALE
100
AcDbAlignedDimension
 13
-40.0474634625532
 23
23.93874377626891
 33
0.0
 14
-40.04746089713683
 24
13.93874358553404
 34
0.0
 50
90.00000000000001
100
AcDbRotatedDimension
1001
ACAD
1000
DSTYLE
1002
{
1070
    40
1040
1.0
1070
   278
1070
    46
1070
   147
1040
1.0
1070
    77
1070
     1
1070
    74
1070
     0
1070
    73
1070
     0
1070
    42
1040
0.0
1070
    44
1040
2.286000000000001
1070
    76
1070
     1
1070
    75
1070
     0
1070
   279
1070
     0
1070
   271
1070
     0
1070
   144
1040
1.0
1070
   173
1070
     1
1070
    41
1040
3.114
1070
   140
1040
4.0
1070
   344
1005
2C7
1070
   343
1005
2C7
1002
}
  0
DIMENSION
  5
37E
330
1F
100
AcDbEntity
  8
0
 62
     7
100
AcDbDimension
  2
*D24
 10
-19.64462129949675
 20
13.93874358553404
 30
0.0
 11
-19.64462129949675
 21
3.377410252200709
 31
0.0
 70
   160
 71
     5
 42
1.999999999999999
  3
DIMSTYLE_FULLSCALE
100
AcDbAlignedDimension
 13
-33.0474619662582
 23
11.93874358553404
 33
0.0
 14
-40.04746089713683
 24
13.93874358553404
 34
0.0
 50
270.0
100
AcDbRotatedDimension
1001
ACAD
1000
DSTYLE
1002
{
1070
    40
1040
1.0
1070
   278
1070
    46
1070
   147
1040
1.0
1070
    77
1070
     1
1070
    74
1070
     0
1070
    73
1070
     0
1070
    42
1040
0.0
1070
    44
1040
2.286000000000001
1070
    76
1070
     0
1070
    75
1070
     1
1070
   279
1070
     0
1070
   271
1070
     0
1070
   144
1040
1.0
1070
   173
1070
     1
1070
    41
1040
3.114
1070
   140
1040
4.0
1070
   344
1005
2C7
1070
   343
1005
2C7
1002
}
  0
DIMENSION
  5
394
330
1F
100
AcDbEntity
  8
0
 62
     7
100
AcDbDimension
  2
*D25
 10
-19.64362129949673
 20
-63.06125641446597
 30
0.0
 11
-19.64362129949675
 21
-20.56025641446595
 31
0.0
 70
   160
  1
\A1;L{\H0.5x;\S^ 1;}(35+ストローク)
 71
     5
 42
75.0
  3
DIMSTYLE_FULLSCALE
100
AcDbAlignedDimension
 13
-33.0474619662582
 23
11.93874358553404
 33
0.0
 14
-33.0474619662582
 24
-63.06125641446596
 34
0.0
 50
90.00000000000001
100
AcDbRotatedDimension
1001
ACAD
1000
DSTYLE
1002
{
1070
    71
1070
     0
1070
    72
1070
     1
1070
    48
1040
0.0
1070
    47
1040
0.0
1070
    40
1040
1.0
1070
   278
1070
    46
1070
   147
1040
1.0
1070
    77
1070
     1
1070
    74
1070
     0
1070
    73
1070
     0
1070
    42
1040
0.0
1070
    44
1040
2.286000000000001
1070
    76
1070
     1
1070
    75
1070
     0
1070
   279
1070
     0
1070
   271
1070
     0
1070
   173
1070
     1
1070
    41
1040
3.114
1070
   140
1040
4.0
1070
   344
1005
2C7
1070
   343
1005
2C7
1002
}
  0
DIMENSION
  5
3A6
330
1F
100
AcDbEntity
  8
0
 62
     7
100
AcDbDimension
  2
*D26
 10
-19.64362129949674
 20
-77.06125641446594
 30
0.0
 11
-19.64362129949675
 21
-70.3747691235732
 31
0.0
 70
   160
  1
\A1;L{\H0.5x;\S^ 2;}
 71
     5
 42
14.0
  3
DIMSTYLE_FULLSCALE
100
AcDbAlignedDimension
 13
-33.0474619662582
 23
-63.06125641446596
 33
0.0
 14
-42.0474619662582
 24
-77.06125641446596
 34
0.0
 50
90.00000000000001
100
AcDbRotatedDimension
1001
ACAD
1000
DSTYLE
1002
{
1070
    71
1070
     0
1070
    72
1070
     1
1070
    48
1040
0.0
1070
    47
1040
0.0
1070
    40
1040
1.0
1070
   278
1070
    46
1070
   147
1040
1.0
1070
    77
1070
     1
1070
    74
1070
     0
1070
    73
1070
     0
1070
    42
1040
0.0
1070
    44
1040
2.286000000000001
1070
    76
1070
     0
1070
    75
1070
     0
1070
   279
1070
     0
1070
   271
1070
     0
1070
   173
1070
     1
1070
    41
1040
3.114
1070
   140
1040
4.0
1070
   344
1005
2C7
1070
   343
1005
2C7
1002
}
  0
INSERT
  5
3B9
330
1F
100
AcDbEntity
  8
0
 62
     7
100
AcDbBlockReference
  2
SYM0002
 10
-172.813014634578
 20
-35.98826890134823
 30
0.0
  0
INSERT
  5
3C2
330
1F
100
AcDbEntity
  8
0
 62
     7
100
AcDbBlockReference
  2
SYM0003
 10
-103.9180201807499
 20
2.861290109229792
 30
0.0
  0
INSERT
  5
3CB
330
1F
100
AcDbEntity
  8
0
 62
     7
100
AcDbBlockReference
  2
SYM0004
 10
-92.80679502762457
 20
-50.51657810644861
 30
0.0
  0
DIMENSION
  5
3CE
330
1F
100
AcDbEntity
  8
0
 62
     7
100
AcDbDimension
  2
*D30
 10
-175.5474619662582
 20
-85.61375150746433
 30
0.0
 11
-196.970985775782
 21
-85.61375150746433
 31
0.0
 70
   160
 71
     5
 42
11.5
  3
DIMSTYLE_FULLSCALE
100
AcDbAlignedDimension
 13
-187.0474619662582
 23
-65.52925811097879
 33
0.0
 14
-175.5474619662582
 24
-48.54681130102824
 34
0.0
 50
180.0
100
AcDbRotatedDimension
1001
ACAD
1000
DSTYLE
1002
{
1070
    40
1040
1.0
1070
   278
1070
    46
1070
   147
1040
1.0
1070
    77
1070
     1
1070
    74
1070
     0
1070
    73
1070
     0
1070
    42
1040
0.0
1070
    44
1040
2.286000000000016
1070
    76
1070
     0
1070
    75
1070
     0
1070
   279
1070
     0
1070
    78
1070
     0
1070
   271
1070
     1
1070
   144
1040
1.0
1070
   173
1070
     1
1070
    41
1040
3.114
1070
   140
1040
4.0
1070
   344
1005
2C7
1070
   343
1005
2C7
1002
}
  0
DIMENSION
  5
3DC
330
1F
100
AcDbEntity
  8
0
 62
     7
100
AcDbDimension
  2
*D31
 10
-128.4682118333703
 20
-0.061256414465958
 30
0.0
 11
-128.4682118333703
 21
5.939743585534045
 31
0.0
 70
   160
 71
     5
 42
12.0
  3
DIMSTYLE_FULLSCALE
100
AcDbAlignedDimension
 13
-118.0474619662582
 23
11.93874358553404
 33
0.0
 14
-120.6638628603317
 24
-0.061256414465955
 34
0.0
 50
90.00000000000001
100
AcDbRotatedDimension
1001
ACAD
1000
DSTYLE
1002
{
1070
    40
1040
1.0
1070
   278
1070
    46
1070
   147
1040
1.0
1070
    77
1070
     1
1070
    74
1070
     0
1070
    73
1070
     0
1070
    42
1040
0.0
1070
    44
1040
2.286000000000001
1070
    76
1070
     0
1070
    75
1070
     0
1070
   279
1070
     0
1070
   271
1070
     0
1070
   144
1040
1.0
1070
   173
1070
     1
1070
    41
1040
3.114
1070
   140
1040
4.0
1070
   344
1005
2C7
1070
   343
1005
2C7
1002
}
  0
DIMENSION
  5
3E9
330
1F
100
AcDbEntity
  8
0
 62
     7
100
AcDbDimension
  2
*D32
 10
-136.5192698660156
 20
-7.061256414465971
 30
0.0
 11
-136.5192698660156
 21
2.439743585534045
 31
0.0
 70
   160
 71
     5
 42
19.00000000000001
  3
DIMSTYLE_FULLSCALE
100
AcDbAlignedDimension
 13
-118.0474619662582
 23
11.93874358553404
 33
0.0
 14
-96.39517543671718
 24
-7.061256414465955
 34
0.0
 50
90.00000000000001
100
AcDbRotatedDimension
1001
ACAD
1000
DSTYLE
1002
{
1070
    40
1040
1.0
1070
   278
1070
    46
1070
   147
1040
1.0
1070
    77
1070
     1
1070
    74
1070
     0
1070
    73
1070
     0
1070
    42
1040
0.0
1070
    44
1040
2.286000000000001
1070
    76
1070
     0
1070
    75
1070
     0
1070
   279
1070
     0
1070
   271
1070
     0
1070
   144
1040
1.0
1070
   173
1070
     1
1070
    41
1040
3.114
1070
   140
1040
4.0
1070
   344
1005
2C7
1070
   343
1005
2C7
1002
}
  0
DIMENSION
  5
3F6
330
1F
100
AcDbEntity
  8
0
 62
     7
100
AcDbDimension
  2
*D33
 10
-136.5202698660156
 20
-40.06125641446596
 30
0.0
 11
-136.5202698660156
 21
-51.56025641446596
 31
0.0
 70
   160
 71
     5
 42
23.0
  3
DIMSTYLE_FULLSCALE
100
AcDbAlignedDimension
 13
-118.0474619662582
 23
-63.06125641446596
 33
0.0
 14
-120.5215599295076
 24
-40.06125641446596
 34
0.0
 50
270.0
100
AcDbRotatedDimension
1001
ACAD
1000
DSTYLE
1002
{
1070
    40
1040
1.0
1070
   278
1070
    46
1070
   147
1040
1.0
1070
    77
1070
     1
1070
    74
1070
     0
1070
    73
1070
     0
1070
    42
1040
0.0
1070
    44
1040
2.286000000000001
1070
    76
1070
     0
1070
    75
1070
     0
1070
   279
1070
     0
1070
   271
1070
     0
1070
   144
1040
1.0
1070
   173
1070
     1
1070
    41
1040
3.114
1070
   140
1040
4.0
1070
   344
1005
2C7
1070
   343
1005
2C7
1002
}
  0
DIMENSION
  5
403
330
1F
100
AcDbEntity
  8
0
 62
     7
100
AcDbDimension
  2
*D34
 10
-128.4692118333703
 20
-47.06125641446596
 30
0.0
 11
-128.4692118333703
 21
-55.06025641446596
 31
0.0
 70
   160
 71
     5
 42
16.0
  3
DIMSTYLE_FULLSCALE
100
AcDbAlignedDimension
 13
-118.0474619662582
 23
-63.06125641446596
 33
0.0
 14
-94.2974619662582
 24
-47.06125641446596
 34
0.0
 50
270.0
100
AcDbRotatedDimension
1001
ACAD
1000
DSTYLE
1002
{
1070
    40
1040
1.0
1070
   278
1070
    46
1070
   147
1040
1.0
1070
    77
1070
     1
1070
    74
1070
     0
1070
    73
1070
     0
1070
    42
1040
0.0
1070
    44
1040
2.286000000000001
1070
    76
1070
     0
1070
    75
1070
     0
1070
   279
1070
     0
1070
   271
1070
     0
1070
   144
1040
1.0
1070
   173
1070
     1
1070
    41
1040
3.114
1070
   140
1040
4.0
1070
   344
1005
2C7
1070
   343
1005
2C7
1002
}
  0
DIMENSION
  5
410
330
1F
100
AcDbEntity
  8
0
 62
     7
100
AcDbDimension
  2
*D35
 10
-61.5474619662582
 20
40.70288623811371
 30
0.0
 11
-81.68020380819914
 21
40.70288623811371
 31
0.0
 70
   160
 71
     5
 42
28.0
  3
DIMSTYLE_FULLSCALE
100
AcDbAlignedDimension
 13
-89.5474619662582
 23
-1.111259466223768
 33
0.0
 14
-61.5474619662582
 24
-1.054527288489393
 34
0.0
 50
180.0
100
AcDbRotatedDimension
1001
ACAD
1000
DSTYLE
1002
{
1070
    40
1040
1.0
1070
   278
1070
    46
1070
   147
1040
1.0
1070
    77
1070
     1
1070
    74
1070
     0
1070
    73
1070
     0
1070
    42
1040
0.0
1070
    44
1040
2.286000000000001
1070
    76
1070
     0
1070
    75
1070
     0
1070
   279
1070
     0
1070
   271
1070
     0
1070
   144
1040
1.0
1070
   173
1070
     1
1070
    41
1040
3.114
1070
   140
1040
4.0
1070
   344
1005
2C7
1070
   343
1005
2C7
1002
}
  0
DIMENSION
  5
41D
330
1F
100
AcDbEntity
  8
0
 62
     7
100
AcDbDimension
  2
*D36
 10
-70.5474619662582
 20
32.56796257176956
 30
0.0
 11
-88.1971762519725
 21
32.56796257176956
 31
0.0
 70
   160
  1
\U+2205<>
 71
     5
 42
10.0
  3
DIMSTYLE_FULLSCALE
100
AcDbAlignedDimension
 13
-80.5474619662582
 23
13.93874358553404
 33
0.0
 14
-70.5474619662582
 24
13.93874358553404
 34
0.0
 50
180.0
100
AcDbRotatedDimension
1001
ACAD
1000
DSTYLE
1002
{
1070
    40
1040
1.0
1070
   278
1070
    46
1070
   147
1040
0.75
1070
    77
1070
     1
1070
    74
1070
     0
1070
    73
1070
     0
1070
    42
1040
0.0
1070
    44
1040
2.286000000000001
1070
    76
1070
     0
1070
    75
1070
     0
1070
   279
1070
     0
1070
   271
1070
     0
1070
   144
1040
1.0
1070
   173
1070
     1
1070
    41
1040
3.114
1070
   140
1040
3.0
1070
   344
1005
2C7
1070
   343
1005
2C7
1002
}
  0
DIMENSION
  5
42B
330
1F
100
AcDbEntity
  8
0
 62
     7
100
AcDbDimension
  2
*D37
 10
-42.0474619662582
 20
32.56796257176956
 30
0.0
 11
-32.88584291863916
 21
32.56796257176956
 31
0.0
 70
   160
  1
\U+2205<>
 71
     5
 42
12.0
  3
DIMSTYLE_FULLSCALE
100
AcDbAlignedDimension
 13
-54.0474619662582
 23
13.93874358553404
 33
0.0
 14
-42.0474619662582
 24
13.93874358553404
 34
0.0
 50
180.0
100
AcDbRotatedDimension
1001
ACAD
1000
DSTYLE
1002
{
1070
    40
1040
1.0
1070
   278
1070
    46
1070
   147
1040
1.0
1070
    77
1070
     1
1070
    74
1070
     0
1070
    73
1070
     0
1070
    42
1040
0.0
1070
    44
1040
2.286000000000001
1070
    76
1070
     0
1070
    75
1070
     0
1070
   279
1070
     0
1070
   271
1070
     0
1070
   144
1040
1.0
1070
   173
1070
     1
1070
    41
1040
3.114
1070
   140
1040
4.0
1070
   344
1005
2C7
1070
   343
1005
2C7
1002
}
  0
DIMENSION
  5
439
330
1F
100
AcDbEntity
  8
0
 62
     7
100
AcDbDimension
  2
*D38
 10
174.5653276690056
 20
0.938743585534054
 30
0.0
 11
174.5653276690056
 21
6.439743585534045
 31
0.0
 70
   160
 71
     5
 42
11.0
  3
DIMSTYLE_FULLSCALE
100
AcDbAlignedDimension
 13
162.9525380337418
 23
11.93874358553404
 33
0.0
 14
156.1737523281754
 24
0.938743585534045
 34
0.0
 50
90.00000000000001
100
AcDbRotatedDimension
1001
ACAD
1000
DSTYLE
1002
{
1070
    40
1040
1.0
1070
   278
1070
    46
1070
   147
1040
1.0
1070
    77
1070
     1
1070
    74
1070
     0
1070
    73
1070
     0
1070
    42
1040
0.0
1070
    44
1040
2.286000000000058
1070
    76
1070
     0
1070
    75
1070
     0
1070
   279
1070
     0
1070
   271
1070
     0
1070
   144
1040
1.0
1070
   173
1070
     1
1070
    41
1040
3.114
1070
   140
1040
4.0
1070
   344
1005
2C7
1070
   343
1005
2C7
1002
}
  0
DIMENSION
  5
446
330
1F
100
AcDbEntity
  8
0
 62
     7
100
AcDbDimension
  2
*D39
 10
184.6375399620746
 20
-7.061256414465941
 30
0.0
 11
184.6375399620746
 21
2.439743585534045
 31
0.0
 70
   160
 71
     5
 42
18.99999999999999
  3
DIMSTYLE_FULLSCALE
100
AcDbAlignedDimension
 13
162.9525380337418
 23
11.93874358553404
 33
0.0
 14
139.7525372708023
 24
-7.061256414465955
 34
0.0
 50
90.00000000000001
100
AcDbRotatedDimension
1001
ACAD
1000
DSTYLE
1002
{
1070
    40
1040
1.0
1070
   278
1070
    46
1070
   147
1040
1.0
1070
    77
1070
     1
1070
    74
1070
     0
1070
    73
1070
     0
1070
    42
1040
0.0
1070
    44
1040
2.286000000000058
1070
    76
1070
     0
1070
    75
1070
     0
1070
   279
1070
     0
1070
   271
1070
     0
1070
   144
1040
1.0
1070
   173
1070
     1
1070
    41
1040
3.114
1070
   140
1040
4.0
1070
   344
1005
2C7
1070
   343
1005
2C7
1002
}
  0
DIMENSION
  5
453
330
1F
100
AcDbEntity
  8
0
 62
     7
100
AcDbDimension
  2
*D40
 10
184.6365399620746
 20
-47.06125641446596
 30
0.0
 11
184.6365399620746
 21
-55.06025641446596
 31
0.0
 70
   160
 71
     5
 42
16.0
  3
DIMSTYLE_FULLSCALE
100
AcDbAlignedDimension
 13
162.9525380337418
 23
-63.06125641446596
 33
0.0
 14
139.7525372708023
 24
-47.06125641446596
 34
0.0
 50
270.0
100
AcDbRotatedDimension
1001
ACAD
1000
DSTYLE
1002
{
1070
    40
1040
1.0
1070
   278
1070
    46
1070
   147
1040
1.0
1070
    77
1070
     1
1070
    74
1070
     0
1070
    73
1070
     0
1070
    42
1040
0.0
1070
    44
1040
2.286000000000058
1070
    76
1070
     0
1070
    75
1070
     0
1070
   279
1070
     0
1070
   271
1070
     0
1070
   144
1040
1.0
1070
   173
1070
     1
1070
    41
1040
3.114
1070
   140
1040
4.0
1070
   344
1005
2C7
1070
   343
1005
2C7
1002
}
  0
INSERT
  5
466
330
1F
100
AcDbEntity
  8
0
 62
     7
100
AcDbBlockReference
  2
SYM0005
 10
137.2373100784956
 20
-45.94544072235646
 30
0.0
  0
INSERT
  5
46F
330
1F
100
AcDbEntity
  8
0
 62
     7
100
AcDbBlockReference
  2
SYM0006
 10
153.9685281840956
 20
2.926650490806594
 30
0.0
  0
DIMENSION
  5
472
330
1F
100
AcDbEntity
  8
0
 62
     7
100
AcDbDimension
  2
*D43
 10
174.5653276690056
 20
-63.06125641446595
 30
0.0
 11
174.5653276690056
 21
-56.06025641446596
 31
0.0
 70
   160
 71
     5
 42
14.0
  3
DIMSTYLE_FULLSCALE
100
AcDbAlignedDimension
 13
156.2890477383316
 23
-49.06125641446596
 33
0.0
 14
162.9525380337418
 24
-63.06125641446596
 34
0.0
 50
90.00000000000001
100
AcDbRotatedDimension
1001
ACAD
1000
DSTYLE
1002
{
1070
    40
1040
1.0
1070
   278
1070
    46
1070
   147
1040
1.0
1070
    77
1070
     1
1070
    74
1070
     0
1070
    73
1070
     0
1070
    42
1040
0.0
1070
    44
1040
2.286000000000058
1070
    76
1070
     1
1070
    75
1070
     0
1070
   279
1070
     0
1070
   271
1070
     0
1070
   144
1040
1.0
1070
   173
1070
     1
1070
    41
1040
3.114
1070
   140
1040
4.0
1070
   344
1005
2C7
1070
   343
1005
2C7
1002
}
  0
DIMENSION
  5
47E
330
1F
100
AcDbEntity
  8
0
 62
     7
100
AcDbDimension
  2
*D44
 10
-19.45711255302095
 20
-139.061256414466
 30
0.0
 11
-19.45711255302095
 21
-126.060256414466
 31
0.0
 70
   160
 71
     5
 42
26.0
  3
DIMSTYLE_FULLSCALE
100
AcDbAlignedDimension
 13
-45.35247753022304
 23
-113.061256414466
 33
0.0
 14
-46.0474619662582
 24
-139.061256414466
 34
0.0
 50
90.00000000000001
100
AcDbRotatedDimension
1001
ACAD
1000
DSTYLE
1002
{
1070
    40
1040
1.0
1070
   278
1070
    46
1070
   147
1040
1.0
1070
    77
1070
     1
1070
    74
1070
     0
1070
    73
1070
     0
1070
    42
1040
0.0
1070
    44
1040
2.286000000000001
1070
    76
1070
     0
1070
    75
1070
     0
1070
   279
1070
     0
1070
   271
1070
     0
1070
   144
1040
1.0
1070
   173
1070
     1
1070
    41
1040
3.114
1070
   140
1040
4.0
1070
   344
1005
2C7
1070
   343
1005
2C7
1002
}
  0
INSERT
  5
491
330
1F
100
AcDbEntity
  8
0
 62
     7
100
AcDbBlockReference
  2
SYM0007
 10
-48.14845424349304
 20
-110.9893545365666
 30
0.0
  0
DIMENSION
  5
494
330
1F
100
AcDbEntity
  8
0
 62
     7
100
AcDbDimension
  2
*D46
 10
-100.0474619662582
 20
48.74326596071973
 30
0.0
 11
-88.64396455772726
 21
48.74326596071973
 31
0.0
 70
   160
 71
     5
 42
24.5
  3
DIMSTYLE_FULLSCALE
100
AcDbAlignedDimension
 13
-75.5474619662582
 23
27.24023993072018
 33
0.0
 14
-100.0474619662582
 24
6.506187433190295
 34
0.0
100
AcDbRotatedDimension
1001
ACAD
1000
DSTYLE
1002
{
1070
    40
1040
1.0
1070
   278
1070
    46
1070
   147
1040
1.0
1070
    77
1070
     1
1070
    74
1070
     0
1070
    73
1070
     0
1070
    42
1040
0.0
1070
    44
1040
2.286000000000001
1070
    76
1070
     0
1070
    75
1070
     0
1070
   279
1070
     0
1070
    78
1070
     0
1070
   271
1070
     1
1070
   144
1040
1.0
1070
   173
1070
     1
1070
    41
1040
3.114
1070
   140
1040
4.0
1070
   344
1005
2C7
1070
   343
1005
2C7
1002
}
  0
DIMENSION
  5
4A1
330
1F
100
AcDbEntity
  8
0
 62
     7
100
AcDbDimension
  2
*D47
 10
-7.926789230014825
 20
23.93874377626891
 30
0.0
 11
-7.926789230014833
 21
-19.66025631909852
 31
0.0
 70
   160
  1
L(47+ストローク）
 71
     5
 42
87.00000019073487
  3
DIMSTYLE_FULLSCALE
100
AcDbAlignedDimension
 13
-33.0474619662582
 23
-63.06125641446596
 33
0.0
 14
-40.0474619662582
 24
23.93874377626891
 34
0.0
 50
270.0
100
AcDbRotatedDimension
1001
ACAD
1000
DSTYLE
1002
{
1070
    40
1040
1.0
1070
   278
1070
    46
1070
   147
1040
1.0
1070
    77
1070
     1
1070
    74
1070
     0
1070
    73
1070
     0
1070
    42
1040
0.0
1070
    44
1040
2.286000000000001
1070
    76
1070
     0
1070
    75
1070
     0
1070
   279
1070
     0
1070
   271
1070
     0
1070
   173
1070
     1
1070
    41
1040
3.114
1070
   140
1040
4.0
1070
   344
1005
2C7
1070
   343
1005
2C7
1002
}
  0
ENDSEC
  0
SECTION
  2
OBJECTS
  0
DICTIONARY
  5
C
330
0
100
AcDbDictionary
281
     1
  3
ACAD_GROUP
350
D
  3
ACAD_LAYOUT
350
1A
  3
ACAD_MATERIAL
350
43
  3
ACAD_MLEADERSTYLE
350
6B
  3
ACAD_MLINESTYLE
350
17
  3
ACAD_PLOTSETTINGS
350
19
  3
ACAD_PLOTSTYLENAME
350
E
  3
ACAD_SCALELIST
350
47
  3
ACAD_TABLESTYLE
350
69
  3
ACAD_VISUALSTYLE
350
2A
  3
ACDB_RECOMPOSE_DATA
350
505
  3
AcDbVariableDictionary
350
4B6
  3
DWGPROPS
350
4C1
  0
DICTIONARY
  5
4C4
330
8
100
AcDbDictionary
280
     1
281
     1
  3
ACAD_XREC_ROUNDTRIP
360
4C5
  0
DICTIONARY
  5
4C2
330
3CA
100
AcDbDictionary
280
     1
281
     1
  3
ACAD_MTEXT_RT
360
4C3
  0
DICTIONARY
  5
D
102
{ACAD_REACTORS
330
C
102
}
330
C
100
AcDbDictionary
281
     1
  0
DICTIONARY
  5
1A
102
{ACAD_REACTORS
330
C
102
}
330
C
100
AcDbDictionary
281
     1
  3
Layout1
350
1E
  3
Layout2
350
26
  3
Model
350
22
  0
DICTIONARY
  5
43
102
{ACAD_REACTORS
330
C
102
}
330
C
100
AcDbDictionary
281
     1
  3
ByBlock
350
45
  3
ByLayer
350
44
  3
Global
350
46
  0
DICTIONARY
  5
6B
102
{ACAD_REACTORS
330
C
102
}
330
C
100
AcDbDictionary
281
     1
  3
Standard
350
6C
  0
DICTIONARY
  5
17
102
{ACAD_REACTORS
330
C
102
}
330
C
100
AcDbDictionary
281
     1
  3
Standard
350
18
  0
DICTIONARY
  5
19
102
{ACAD_REACTORS
330
C
102
}
330
C
100
AcDbDictionary
281
     1
  0
ACDBDICTIONARYWDFLT
  5
E
102
{ACAD_REACTORS
330
C
102
}
330
C
100
AcDbDictionary
281
     1
  3
Normal
350
F
100
AcDbDictionaryWithDefault
340
F
  0
DICTIONARY
  5
47
102
{ACAD_REACTORS
330
C
102
}
330
C
100
AcDbDictionary
281
     1
  3
A0
350
48
  3
A1
350
49
  3
A2
350
4A
  3
A3
350
4B
  3
A4
350
4C
  3
A5
350
4D
  3
A6
350
4E
  3
A7
350
4F
  3
A8
350
50
  3
A9
350
51
  3
B0
350
52
  3
B1
350
53
  3
B2
350
54
  3
B3
350
55
  3
B4
350
56
  3
B5
350
57
  3
B6
350
58
  3
B7
350
59
  3
B8
350
5A
  3
B9
350
5B
  3
C0
350
5C
  3
C1
350
5D
  3
C2
350
5E
  3
C3
350
5F
  3
C4
350
60
  3
C5
350
61
  3
C6
350
62
  3
C7
350
63
  3
C8
350
64
  3
C9
350
65
  3
D0
350
66
  3
D1
350
67
  3
D2
350
68
  0
DICTIONARY
  5
69
102
{ACAD_REACTORS
330
C
102
}
330
C
100
AcDbDictionary
281
     1
  3
Standard
350
6A
  0
DICTIONARY
  5
2A
102
{ACAD_REACTORS
330
C
102
}
330
C
100
AcDbDictionary
281
     1
  3
2dWireframe
350
2F
  3
Basic
350
32
  3
Brighten
350
36
  3
ColorChange
350
3A
  3
Conceptual
350
34
  3
Dim
350
35
  3
EdgeColorOff
350
3D
  3
Facepattern
350
39
  3
Flat
350
2B
  3
FlatWithEdges
350
2C
  3
Gouraud
350
2D
  3
GouraudWithEdges
350
2E
  3
Hidden
350
31
  3
JitterOff
350
3B
  3
Linepattern
350
38
  3
OverhangOff
350
3C
  3
Realistic
350
33
  3
Shaded
350
42
  3
Shaded with edges
350
41
  3
Shades of Gray
350
3E
  3
Sketchy
350
3F
  3
Thicken
350
37
  3
Wireframe
350
30
  3
X-Ray
350
40
  0
XRECORD
  5
505
102
{ACAD_REACTORS
330
C
102
}
330
C
100
AcDbXrecord
280
     1
 90
        1
330
3CA
  0
DICTIONARY
  5
4B6
102
{ACAD_REACTORS
330
C
102
}
330
C
100
AcDbDictionary
281
     1
  3
CANNOSCALE
350
4CA
  3
CENTEREXE
350
4BD
  3
CENTERLTYPEFILE
350
4BE
  3
CMLEADERSTYLE
350
4B8
  3
CTABLESTYLE
350
4B7
  3
DIMASSOC
350
4BF
  3
HIDETEXT
350
4C0
  3
MSLTSCALE
350
4CB
  3
PSOLHEIGHT
350
4BA
  3
PSOLWIDTH
350
4B9
  0
XRECORD
  5
4C1
102
{ACAD_REACTORS
330
C
102
}
330
C
100
AcDbXrecord
280
     1
  1
DWGPROPS COOKIE
  2

  3

  4

  6

  7

  8
CADAM
  9

300
=
301
=
302
=
303
=
304
=
305
=
306
=
307
=
308
=
309
=
 40
0.0
 41
2459195.294680185
 42
2459195.294680729
  1

 90
        0
  0
XRECORD
  5
4C5
102
{ACAD_REACTORS
330
4C4
102
}
330
4C4
100
AcDbXrecord
280
     1
102
VTR_0.000_0.000_1.000_1.000_VISUALSTYLE
340
2F
102
VTR_0.000_0.000_1.000_1.000_GRIDDISPLAY
 70
     3
102
VTR_0.000_0.000_1.000_1.000_GRIDMAJOR
 70
     5
102
VTR_0.000_0.000_1.000_1.000_DEFAULTLIGHTING
280
     1
102
VTR_0.000_0.000_1.000_1.000_DEFAULTLIGHTINGTYPE
 70
     1
102
VTR_0.000_0.000_1.000_1.000_BRIGHTNESS
141
0.0
102
VTR_0.000_0.000_1.000_1.000_CONTRAST
142
0.0
  0
XRECORD
  5
4C3
102
{ACAD_REACTORS
330
4C2
102
}
330
4C2
100
AcDbXrecord
280
     1
 40
1505893.0
  1
\W0.833333;\pxql;4-\U+22055.2　貫通\P4-\U+22059.5ザグリ　深さ５．５}
  0
LAYOUT
  5
1E
102
{ACAD_REACTORS
330
1A
102
}
330
1A
100
AcDbPlotSettings
  1

  2
none_device
  4

  6

 40
0.0
 41
0.0
 42
0.0
 43
0.0
 44
0.0
 45
0.0
 46
0.0
 47
0.0
 48
0.0
 49
0.0
140
0.0
141
0.0
142
1.0
143
1.0
 70
   688
 72
     1
 73
     0
 74
     5
  7

 75
    16
147
1.0
148
0.0
149
0.0
100
AcDbLayout
  1
Layout1
 70
     1
 71
     1
 10
-234.6091848141841
 20
-169.5077421504725
 11
234.6091848141841
 21
181.5077421504724
 12
0.0
 22
0.0
 32
0.0
 14
1.000000000000000E+20
 24
1.000000000000000E+20
 34
1.000000000000000E+20
 15
-1.000000000000000E+20
 25
-1.000000000000000E+20
 35
-1.000000000000000E+20
146
0.0
 13
0.0
 23
0.0
 33
0.0
 16
1.0
 26
0.0
 36
0.0
 17
0.0
 27
1.0
 37
0.0
 76
     0
330
1B
  0
LAYOUT
  5
26
102
{ACAD_REACTORS
330
1A
102
}
330
1A
100
AcDbPlotSettings
  1

  2
none_device
  4

  6

 40
0.0
 41
0.0
 42
0.0
 43
0.0
 44
0.0
 45
0.0
 46
0.0
 47
0.0
 48
0.0
 49
0.0
140
0.0
141
0.0
142
1.0
143
1.0
 70
   688
 72
     1
 73
     0
 74
     5
  7

 75
    16
147
1.0
148
0.0
149
0.0
100
AcDbLayout
  1
Layout2
 70
     1
 71
     2
 10
0.0
 20
0.0
 11
0.0
 21
0.0
 12
0.0
 22
0.0
 32
0.0
 14
0.0
 24
0.0
 34
0.0
 15
0.0
 25
0.0
 35
0.0
146
0.0
 13
0.0
 23
0.0
 33
0.0
 16
1.0
 26
0.0
 36
0.0
 17
0.0
 27
1.0
 37
0.0
 76
     0
330
23
  0
LAYOUT
  5
22
102
{ACAD_REACTORS
330
1A
102
}
330
1A
100
AcDbPlotSettings
  1

  2
none_device
  4
Letter_(8.50_x_11.00_Inches)
  6

 40
6.35
 41
6.35
 42
6.35000508
 43
6.35000508
 44
215.9
 45
279.4
 46
0.0
 47
0.0
 48
0.0
 49
0.0
140
0.0
141
0.0
142
1.0
143
1.0
 70
  1712
 72
     1
 73
     0
 74
     0
  7

 75
     0
147
1.0
148
0.0
149
0.0
100
AcDbLayout
  1
Model
 70
     1
 71
     0
 10
-234.6091848141841
 20
-169.5077421504725
 11
234.6091848141841
 21
181.5077421504724
 12
0.0
 22
0.0
 32
0.0
 14
-234.6091848141841
 24
-169.5077421504725
 34
0.0
 15
234.6091848141841
 25
181.5077421504724
 35
0.0
146
0.0
 13
0.0
 23
0.0
 33
0.0
 16
1.0
 26
0.0
 36
0.0
 17
0.0
 27
1.0
 37
0.0
 76
     0
330
1F
331
29
  0
MATERIAL
  5
45
102
{ACAD_REACTORS
330
43
102
}
102
{ACAD_XDICTIONARY
360
4FE
102
}
330
43
100
AcDbMaterial
  1
ByBlock
  0
MATERIAL
  5
44
102
{ACAD_REACTORS
330
43
102
}
102
{ACAD_XDICTIONARY
360
4FC
102
}
330
43
100
AcDbMaterial
  1
ByLayer
  0
MATERIAL
  5
46
102
{ACAD_REACTORS
330
43
102
}
102
{ACAD_XDICTIONARY
360
500
102
}
330
43
100
AcDbMaterial
  1
Global
  0
MLEADERSTYLE
  5
6C
102
{ACAD_REACTORS
330
6B
102
}
102
{ACAD_XDICTIONARY
360
503
102
}
330
6B
100
AcDbMLeaderStyle
170
     2
171
     1
172
     0
 90
        2
 40
0.0
 41
0.0
173
     1
 91
-1056964608
340
14
 92
       -2
290
     1
 42
2.0
291
     1
 43
8.0
  3
Standard
341
0
 44
4.0
300

342
11
174
     1
178
     6
175
     1
176
     0
 93
-1056964608
 45
4.0
292
     0
297
     0
 46
4.0
343
0
 94
-1056964608
 47
1.0
 49
1.0
140
1.0
293
     1
141
0.0
294
     1
177
     0
142
1.0
295
     0
296
     0
143
3.75
1001
ACAD_MLEADERVER
1070
     2
  0
MLINESTYLE
  5
18
102
{ACAD_REACTORS
330
17
102
}
330
17
100
AcDbMlineStyle
  2
Standard
 70
     0
  3

 62
   256
 51
90.0
 52
90.0
 71
     2
 49
0.5
 62
   256
  6
BYLAYER
 49
-0.5
 62
   256
  6
BYLAYER
  0
ACDBPLACEHOLDER
  5
F
102
{ACAD_REACTORS
330
E
102
}
330
E
  0
SCALE
  5
48
102
{ACAD_REACTORS
330
47
102
}
330
47
100
AcDbScale
 70
     0
300
1:1
140
1.0
141
1.0
290
     1
  0
SCALE
  5
49
102
{ACAD_REACTORS
330
47
102
}
330
47
100
AcDbScale
 70
     0
300
1:2
140
1.0
141
2.0
290
     0
  0
SCALE
  5
4A
102
{ACAD_REACTORS
330
47
102
}
330
47
100
AcDbScale
 70
     0
300
1:4
140
1.0
141
4.0
290
     0
  0
SCALE
  5
4B
102
{ACAD_REACTORS
330
47
102
}
330
47
100
AcDbScale
 70
     0
300
1:5
140
1.0
141
5.0
290
     0
  0
SCALE
  5
4C
102
{ACAD_REACTORS
330
47
102
}
330
47
100
AcDbScale
 70
     0
300
1:8
140
1.0
141
8.0
290
     0
  0
SCALE
  5
4D
102
{ACAD_REACTORS
330
47
102
}
330
47
100
AcDbScale
 70
     0
300
1:10
140
1.0
141
10.0
290
     0
  0
SCALE
  5
4E
102
{ACAD_REACTORS
330
47
102
}
330
47
100
AcDbScale
 70
     0
300
1:16
140
1.0
141
16.0
290
     0
  0
SCALE
  5
4F
102
{ACAD_REACTORS
330
47
102
}
330
47
100
AcDbScale
 70
     0
300
1:20
140
1.0
141
20.0
290
     0
  0
SCALE
  5
50
102
{ACAD_REACTORS
330
47
102
}
330
47
100
AcDbScale
 70
     0
300
1:30
140
1.0
141
30.0
290
     0
  0
SCALE
  5
51
102
{ACAD_REACTORS
330
47
102
}
330
47
100
AcDbScale
 70
     0
300
1:40
140
1.0
141
40.0
290
     0
  0
SCALE
  5
52
102
{ACAD_REACTORS
330
47
102
}
330
47
100
AcDbScale
 70
     0
300
1:50
140
1.0
141
50.0
290
     0
  0
SCALE
  5
53
102
{ACAD_REACTORS
330
47
102
}
330
47
100
AcDbScale
 70
     0
300
1:100
140
1.0
141
100.0
290
     0
  0
SCALE
  5
54
102
{ACAD_REACTORS
330
47
102
}
330
47
100
AcDbScale
 70
     0
300
2:1
140
2.0
141
1.0
290
     0
  0
SCALE
  5
55
102
{ACAD_REACTORS
330
47
102
}
330
47
100
AcDbScale
 70
     0
300
4:1
140
4.0
141
1.0
290
     0
  0
SCALE
  5
56
102
{ACAD_REACTORS
330
47
102
}
330
47
100
AcDbScale
 70
     0
300
8:1
140
8.0
141
1.0
290
     0
  0
SCALE
  5
57
102
{ACAD_REACTORS
330
47
102
}
330
47
100
AcDbScale
 70
     0
300
10:1
140
10.0
141
1.0
290
     0
  0
SCALE
  5
58
102
{ACAD_REACTORS
330
47
102
}
330
47
100
AcDbScale
 70
     0
300
100:1
140
100.0
141
1.0
290
     0
  0
SCALE
  5
59
102
{ACAD_REACTORS
330
47
102
}
330
47
100
AcDbScale
 70
     0
300
1/128" = 1'-0"
140
0.0078125
141
12.0
290
     0
  0
SCALE
  5
5A
102
{ACAD_REACTORS
330
47
102
}
330
47
100
AcDbScale
 70
     0
300
1/64" = 1'-0"
140
0.015625
141
12.0
290
     0
  0
SCALE
  5
5B
102
{ACAD_REACTORS
330
47
102
}
330
47
100
AcDbScale
 70
     0
300
1/32" = 1'-0"
140
0.03125
141
12.0
290
     0
  0
SCALE
  5
5C
102
{ACAD_REACTORS
330
47
102
}
330
47
100
AcDbScale
 70
     0
300
1/16" = 1'-0"
140
0.0625
141
12.0
290
     0
  0
SCALE
  5
5D
102
{ACAD_REACTORS
330
47
102
}
330
47
100
AcDbScale
 70
     0
300
3/32" = 1'-0"
140
0.09375
141
12.0
290
     0
  0
SCALE
  5
5E
102
{ACAD_REACTORS
330
47
102
}
330
47
100
AcDbScale
 70
     0
300
1/8" = 1'-0"
140
0.125
141
12.0
290
     0
  0
SCALE
  5
5F
102
{ACAD_REACTORS
330
47
102
}
330
47
100
AcDbScale
 70
     0
300
3/16" = 1'-0"
140
0.1875
141
12.0
290
     0
  0
SCALE
  5
60
102
{ACAD_REACTORS
330
47
102
}
330
47
100
AcDbScale
 70
     0
300
1/4" = 1'-0"
140
0.25
141
12.0
290
     0
  0
SCALE
  5
61
102
{ACAD_REACTORS
330
47
102
}
330
47
100
AcDbScale
 70
     0
300
3/8" = 1'-0"
140
0.375
141
12.0
290
     0
  0
SCALE
  5
62
102
{ACAD_REACTORS
330
47
102
}
330
47
100
AcDbScale
 70
     0
300
1/2" = 1'-0"
140
0.5
141
12.0
290
     0
  0
SCALE
  5
63
102
{ACAD_REACTORS
330
47
102
}
330
47
100
AcDbScale
 70
     0
300
3/4" = 1'-0"
140
0.75
141
12.0
290
     0
  0
SCALE
  5
64
102
{ACAD_REACTORS
330
47
102
}
330
47
100
AcDbScale
 70
     0
300
1" = 1'-0"
140
1.0
141
12.0
290
     0
  0
SCALE
  5
65
102
{ACAD_REACTORS
330
47
102
}
330
47
100
AcDbScale
 70
     0
300
1-1/2" = 1'-0"
140
1.5
141
12.0
290
     0
  0
SCALE
  5
66
102
{ACAD_REACTORS
330
47
102
}
330
47
100
AcDbScale
 70
     0
300
3" = 1'-0"
140
3.0
141
12.0
290
     0
  0
SCALE
  5
67
102
{ACAD_REACTORS
330
47
102
}
330
47
100
AcDbScale
 70
     0
300
6" = 1'-0"
140
6.0
141
12.0
290
     0
  0
SCALE
  5
68
102
{ACAD_REACTORS
330
47
102
}
330
47
100
AcDbScale
 70
     0
300
1'-0" = 1'-0"
140
12.0
141
12.0
290
     0
  0
TABLESTYLE
  5
6A
102
{ACAD_REACTORS
330
69
102
}
330
69
100
AcDbTableStyle
  3
Standard
 70
     0
 71
     0
 40
1.5
 41
1.5
280
     0
281
     0
  7
Standard
140
4.5
170
     2
 62
     0
 63
   257
283
     0
274
    -2
284
     1
 64
     0
275
    -2
285
     1
 65
     0
276
    -2
286
     1
 66
     0
277
    -2
287
     1
 67
     0
278
    -2
288
     1
 68
     0
279
    -2
289
     1
 69
     0
  7
Standard
140
6.0
170
     5
 62
     0
 63
   257
283
     0
274
    -2
284
     1
 64
     0
275
    -2
285
     1
 65
     0
276
    -2
286
     1
 66
     0
277
    -2
287
     1
 67
     0
278
    -2
288
     1
 68
     0
279
    -2
289
     1
 69
     0
  7
Standard
140
4.5
170
     5
 62
     0
 63
   257
283
     0
274
    -2
284
     1
 64
     0
275
    -2
285
     1
 65
     0
276
    -2
286
     1
 66
     0
277
    -2
287
     1
 67
     0
278
    -2
288
     1
 68
     0
279
    -2
289
     1
 69
     0
  0
VISUALSTYLE
  5
2F
102
{ACAD_REACTORS
330
2A
102
}
102
{ACAD_XDICTIONARY
360
4D4
102
}
330
2A
100
AcDbVisualStyle
  2
2dWireframe
 70
     4
 71
     0
 72
     2
 73
     0
 90
        0
 40
0.6
 41
30.0
 62
     5
 63
     7
 74
     1
 91
        4
 64
     7
 65
   257
 75
     1
175
     1
 42
1.0
 92
        0
 66
   257
 43
1.0
 76
     1
 77
     6
 78
     2
 67
     7
 79
     5
170
     0
171
     0
290
     0
174
     0
 93
        1
 44
0.0
173
     0
291
     0
 45
0.0
1001
ACAD
1000
AcDbSavedByObjectVersion
1070
     0
  0
VISUALSTYLE
  5
32
102
{ACAD_REACTORS
330
2A
102
}
102
{ACAD_XDICTIONARY
360
4DA
102
}
330
2A
100
AcDbVisualStyle
  2
Basic
 70
     7
 71
     1
 72
     0
 73
     1
 90
        0
 40
0.6
 41
30.0
 62
     5
 63
     7
 74
     0
 91
        4
 64
     7
 65
   257
 75
     1
175
     1
 42
1.0
 92
        8
 66
     7
 43
1.0
 76
     1
 77
     6
 78
     2
 67
     7
 79
     5
170
     0
171
     0
290
     0
174
     0
 93
        1
 44
0.0
173
     0
291
     1
 45
0.0
1001
ACAD
1000
AcDbSavedByObjectVersion
1070
     0
  0
VISUALSTYLE
  5
36
102
{ACAD_REACTORS
330
2A
102
}
102
{ACAD_XDICTIONARY
360
4E2
102
}
330
2A
100
AcDbVisualStyle
  2
Brighten
 70
    12
 71
     2
 72
     2
 73
     0
 90
        0
 40
0.6
 41
30.0
 62
     5
 63
     7
 74
     1
 91
        4
 64
     7
 65
   257
 75
     1
175
     1
 42
1.0
 92
        8
 66
     7
 43
1.0
 76
     1
 77
     6
 78
     2
 67
     7
 79
     5
170
     0
171
     0
290
     0
174
     0
 93
        1
 44
50.0
173
     0
291
     1
 45
0.0
1001
ACAD
1000
AcDbSavedByObjectVersion
1070
     0
  0
VISUALSTYLE
  5
3A
102
{ACAD_REACTORS
330
2A
102
}
102
{ACAD_XDICTIONARY
360
4EA
102
}
330
2A
100
AcDbVisualStyle
  2
ColorChange
 70
    16
 71
     2
 72
     2
 73
     3
 90
        0
 40
0.6
 41
30.0
 62
     5
 63
     8
 74
     1
 91
        4
 64
     7
 65
   257
 75
     1
175
     1
 42
1.0
 92
        8
 66
     8
 43
1.0
 76
     1
 77
     6
 78
     2
 67
     7
 79
     5
170
     0
171
     0
290
     0
174
     0
 93
        1
 44
0.0
173
     0
291
     1
 45
0.0
1001
ACAD
1000
AcDbSavedByObjectVersion
1070
     0
  0
VISUALSTYLE
  5
34
102
{ACAD_REACTORS
330
2A
102
}
102
{ACAD_XDICTIONARY
360
4DE
102
}
330
2A
100
AcDbVisualStyle
  2
Conceptual
 70
     9
 71
     3
 72
     2
 73
     0
 90
        0
 40
0.6
 41
30.0
 62
     5
 63
     7
 74
     2
 91
        2
 64
     7
 65
   257
 75
     1
175
     1
 42
179.0
 92
        8
 66
     7
 43
1.0
 76
     1
 77
     6
 78
     2
 67
     7
 79
     3
170
     0
171
     0
290
     0
174
     0
 93
        1
 44
0.0
173
     0
291
     0
 45
0.0
1001
ACAD
1000
AcDbSavedByObjectVersion
1070
     0
  0
VISUALSTYLE
  5
35
102
{ACAD_REACTORS
330
2A
102
}
102
{ACAD_XDICTIONARY
360
4E0
102
}
330
2A
100
AcDbVisualStyle
  2
Dim
 70
    11
 71
     2
 72
     2
 73
     0
 90
        0
 40
0.6
 41
30.0
 62
     5
 63
     7
 74
     1
 91
        4
 64
     7
 65
   257
 75
     1
175
     1
 42
1.0
 92
        8
 66
     7
 43
1.0
 76
     1
 77
     6
 78
     2
 67
     7
 79
     5
170
     0
171
     0
290
     0
174
     0
 93
        1
 44
-50.0
173
     0
291
     1
 45
0.0
1001
ACAD
1000
AcDbSavedByObjectVersion
1070
     0
  0
VISUALSTYLE
  5
3D
102
{ACAD_REACTORS
330
2A
102
}
102
{ACAD_XDICTIONARY
360
4F0
102
}
330
2A
100
AcDbVisualStyle
  2
EdgeColorOff
 70
    22
 71
     2
 72
     2
 73
     0
 90
        0
 40
0.6
 41
30.0
 62
     5
 63
     7
 74
     1
 91
        4
 64
     7
 65
   257
 75
     1
175
     1
 42
1.0
 92
        8
 66
     7
 43
1.0
 76
     1
 77
     6
 78
     2
 67
     7
 79
     5
170
     0
171
     0
290
     0
174
     0
 93
        1
 44
0.0
173
     0
291
     1
 45
0.0
1001
ACAD
1000
AcDbSavedByObjectVersion
1070
     0
  0
VISUALSTYLE
  5
39
102
{ACAD_REACTORS
330
2A
102
}
102
{ACAD_XDICTIONARY
360
4E8
102
}
330
2A
100
AcDbVisualStyle
  2
Facepattern
 70
    15
 71
     2
 72
     2
 73
     0
 90
        0
 40
0.6
 41
30.0
 62
     5
 63
     7
 74
     1
 91
        4
 64
     7
 65
   257
 75
     1
175
     1
 42
1.0
 92
        8
 66
     7
 43
1.0
 76
     1
 77
     6
 78
     2
 67
     7
 79
     5
170
     0
171
     0
290
     0
174
     0
 93
        1
 44
0.0
173
     0
291
     1
 45
0.0
1001
ACAD
1000
AcDbSavedByObjectVersion
1070
     0
  0
VISUALSTYLE
  5
2B
102
{ACAD_REACTORS
330
2A
102
}
102
{ACAD_XDICTIONARY
360
4CC
102
}
330
2A
100
AcDbVisualStyle
  2
Flat
 70
     0
 71
     2
 72
     1
 73
     1
 90
        2
 40
0.6
 41
30.0
 62
     5
 63
     7
 74
     0
 91
        0
 64
     7
 65
   257
 75
     1
175
     1
 42
1.0
 92
        8
 66
     7
 43
1.0
 76
     1
 77
     6
 78
     2
 67
     7
 79
     5
170
     0
171
     0
290
     0
174
     0
 93
       13
 44
0.0
173
     0
291
     1
 45
0.0
1001
ACAD
1000
AcDbSavedByObjectVersion
1070
     0
  0
VISUALSTYLE
  5
2C
102
{ACAD_REACTORS
330
2A
102
}
102
{ACAD_XDICTIONARY
360
4CE
102
}
330
2A
100
AcDbVisualStyle
  2
FlatWithEdges
 70
     1
 71
     2
 72
     1
 73
     1
 90
        2
 40
0.6
 41
30.0
 62
     5
 63
     7
 74
     1
 91
        0
 64
     7
 65
   257
 75
     1
175
     1
 42
1.0
 92
        0
 66
   257
 43
1.0
 76
     1
 77
     6
 78
     2
 67
     7
 79
     5
170
     0
171
     0
290
     0
174
     0
 93
       13
 44
0.0
173
     0
291
     1
 45
0.0
1001
ACAD
1000
AcDbSavedByObjectVersion
1070
     0
  0
VISUALSTYLE
  5
2D
102
{ACAD_REACTORS
330
2A
102
}
102
{ACAD_XDICTIONARY
360
4D0
102
}
330
2A
100
AcDbVisualStyle
  2
Gouraud
 70
     2
 71
     2
 72
     2
 73
     1
 90
        2
 40
0.6
 41
30.0
 62
     5
 63
     7
 74
     0
 91
        0
 64
     7
 65
   257
 75
     1
175
     1
 42
1.0
 92
        0
 66
     7
 43
1.0
 76
     1
 77
     6
 78
     2
 67
     7
 79
     5
170
     0
171
     0
290
     0
174
     0
 93
       13
 44
0.0
173
     0
291
     1
 45
0.0
1001
ACAD
1000
AcDbSavedByObjectVersion
1070
     0
  0
VISUALSTYLE
  5
2E
102
{ACAD_REACTORS
330
2A
102
}
102
{ACAD_XDICTIONARY
360
4D2
102
}
330
2A
100
AcDbVisualStyle
  2
GouraudWithEdges
 70
     3
 71
     2
 72
     2
 73
     1
 90
        2
 40
0.6
 41
30.0
 62
     5
 63
     7
 74
     1
 91
        0
 64
     7
 65
   257
 75
     1
175
     1
 42
1.0
 92
        0
 66
   257
 43
1.0
 76
     1
 77
     6
 78
     2
 67
     7
 79
     5
170
     0
171
     0
290
     0
174
     0
 93
       13
 44
0.0
173
     0
291
     1
 45
0.0
1001
ACAD
1000
AcDbSavedByObjectVersion
1070
     0
  0
VISUALSTYLE
  5
31
102
{ACAD_REACTORS
330
2A
102
}
102
{ACAD_XDICTIONARY
360
4D8
102
}
330
2A
100
AcDbVisualStyle
  2
Hidden
 70
     6
 71
     1
 72
     2
 73
     2
 90
        0
 40
0.6
 41
30.0
 62
     5
 63
     7
 74
     2
 91
        2
 64
     7
 65
   257
 75
     2
175
     1
 42
40.0
 92
        0
 66
   257
 43
1.0
 76
     1
 77
     6
 78
     2
 67
     7
 79
     3
170
     0
171
     0
290
     0
174
     0
 93
        1
 44
0.0
173
     0
291
     0
 45
0.0
1001
ACAD
1000
AcDbSavedByObjectVersion
1070
     0
  0
VISUALSTYLE
  5
3B
102
{ACAD_REACTORS
330
2A
102
}
102
{ACAD_XDICTIONARY
360
4EC
102
}
330
2A
100
AcDbVisualStyle
  2
JitterOff
 70
    20
 71
     2
 72
     2
 73
     0
 90
        0
 40
0.6
 41
30.0
 62
     5
 63
     7
 74
     1
 91
        4
 64
     7
 65
   257
 75
     1
175
     1
 42
1.0
 92
       10
 66
     7
 43
1.0
 76
     1
 77
     6
 78
     2
 67
     7
 79
     5
170
     0
171
     0
290
     0
174
     0
 93
        1
 44
0.0
173
     0
291
     1
 45
0.0
1001
ACAD
1000
AcDbSavedByObjectVersion
1070
     0
  0
VISUALSTYLE
  5
38
102
{ACAD_REACTORS
330
2A
102
}
102
{ACAD_XDICTIONARY
360
4E6
102
}
330
2A
100
AcDbVisualStyle
  2
Linepattern
 70
    14
 71
     2
 72
     2
 73
     0
 90
        0
 40
0.6
 41
30.0
 62
     5
 63
     7
 74
     1
 91
        4
 64
     7
 65
   257
 75
     7
175
     7
 42
1.0
 92
        8
 66
     7
 43
1.0
 76
     1
 77
     6
 78
     2
 67
     7
 79
     5
170
     0
171
     0
290
     0
174
     0
 93
        1
 44
0.0
173
     0
291
     1
 45
0.0
1001
ACAD
1000
AcDbSavedByObjectVersion
1070
     0
  0
VISUALSTYLE
  5
3C
102
{ACAD_REACTORS
330
2A
102
}
102
{ACAD_XDICTIONARY
360
4EE
102
}
330
2A
100
AcDbVisualStyle
  2
OverhangOff
 70
    21
 71
     2
 72
     2
 73
     0
 90
        0
 40
0.6
 41
30.0
 62
     5
 63
     7
 74
     1
 91
        4
 64
     7
 65
   257
 75
     1
175
     1
 42
1.0
 92
        9
 66
     7
 43
1.0
 76
     1
 77
     6
 78
     2
 67
     7
 79
     5
170
     0
171
     0
290
     0
174
     0
 93
        1
 44
0.0
173
     0
291
     1
 45
0.0
1001
ACAD
1000
AcDbSavedByObjectVersion
1070
     0
  0
VISUALSTYLE
  5
33
102
{ACAD_REACTORS
330
2A
102
}
102
{ACAD_XDICTIONARY
360
4DC
102
}
330
2A
100
AcDbVisualStyle
  2
Realistic
 70
     8
 71
     2
 72
     3
 73
     0
 90
        2
 40
0.6
 41
30.0
 62
     5
 63
     7
 74
     0
 91
        0
 64
     7
 65
   257
 75
     1
175
     1
 42
1.0
 92
        8
 66
   257
 43
1.0
 76
     1
 77
     6
 78
     2
 67
     7
 79
     3
170
     0
171
     0
290
     0
174
     0
 93
       13
 44
0.0
173
     0
291
     0
 45
0.0
1001
ACAD
1000
AcDbSavedByObjectVersion
1070
     0
  0
VISUALSTYLE
  5
42
102
{ACAD_REACTORS
330
2A
102
}
102
{ACAD_XDICTIONARY
360
4FA
102
}
330
2A
100
AcDbVisualStyle
  2
Shaded
 70
    27
 71
     2
 72
     2
 73
     1
 90
        2
 40
0.6
 41
30.0
 62
     5
 63
     7
 74
     0
 91
        4
 64
     7
 65
   257
 75
     1
175
     1
 42
1.0
 92
        8
 66
   257
 43
1.0
 76
     1
 77
     6
 78
     2
 67
     8
 79
     3
170
     0
171
     0
290
     0
174
     0
 93
        5
 44
0.0
173
     0
291
     0
 45
0.0
1001
ACAD
1000
AcDbSavedByObjectVersion
1070
     0
  0
VISUALSTYLE
  5
41
102
{ACAD_REACTORS
330
2A
102
}
102
{ACAD_XDICTIONARY
360
4F8
102
}
330
2A
100
AcDbVisualStyle
  2
Shaded with edges
 70
    26
 71
     2
 72
     2
 73
     1
 90
        2
 40
0.6
 41
30.0
 62
     5
 63
     7
 74
     1
 91
       10
 64
     7
 65
   257
 75
     2
175
     1
 42
1.0
 92
        8
 66
   257
 43
1.0
 76
     1
 77
     6
 78
     2
 67
     7
 79
     3
170
     0
171
     0
290
     0
174
     0
 93
        5
 44
0.0
173
     0
291
     0
 45
0.0
1001
ACAD
1000
AcDbSavedByObjectVersion
1070
     0
  0
VISUALSTYLE
  5
3E
102
{ACAD_REACTORS
330
2A
102
}
102
{ACAD_XDICTIONARY
360
4F2
102
}
330
2A
100
AcDbVisualStyle
  2
Shades of Gray
 70
    23
 71
     2
 72
     2
 73
     3
 90
        0
 40
0.6
 41
30.0
 62
     5
 63
     7
 74
     2
 91
        2
 64
     7
 65
     7
 75
     1
175
     1
 42
40.0
 92
        8
 66
     7
 43
1.0
 76
     1
 77
     6
 78
     2
 67
     7
 79
     3
170
     0
171
     0
290
     0
174
     0
 93
        1
 44
0.0
173
     0
291
     0
 45
0.0
1001
ACAD
1000
AcDbSavedByObjectVersion
1070
     0
  0
VISUALSTYLE
  5
3F
102
{ACAD_REACTORS
330
2A
102
}
102
{ACAD_XDICTIONARY
360
4F4
102
}
330
2A
100
AcDbVisualStyle
  2
Sketchy
 70
    24
 71
     1
 72
     2
 73
     2
 90
        0
 40
0.6
 41
30.0
 62
     5
 63
     7
 74
     2
 91
        2
 64
     7
 65
     7
 75
     1
175
     1
 42
40.0
 92
       11
 66
     7
 43
1.0
 76
     1
 77
     6
 78
     2
 67
     7
 79
     6
170
     0
171
     0
290
     0
174
     0
 93
        1
 44
0.0
173
     0
291
     0
 45
0.0
1001
ACAD
1000
AcDbSavedByObjectVersion
1070
     0
  0
VISUALSTYLE
  5
37
102
{ACAD_REACTORS
330
2A
102
}
102
{ACAD_XDICTIONARY
360
4E4
102
}
330
2A
100
AcDbVisualStyle
  2
Thicken
 70
    13
 71
     2
 72
     2
 73
     0
 90
        0
 40
0.6
 41
30.0
 62
     5
 63
     7
 74
     1
 91
        4
 64
     7
 65
   257
 75
     1
175
     1
 42
1.0
 92
       12
 66
     7
 43
1.0
 76
     1
 77
     6
 78
     2
 67
     7
 79
     5
170
     0
171
     0
290
     0
174
     0
 93
        1
 44
0.0
173
     0
291
     1
 45
0.0
1001
ACAD
1000
AcDbSavedByObjectVersion
1070
     0
  0
VISUALSTYLE
  5
30
102
{ACAD_REACTORS
330
2A
102
}
102
{ACAD_XDICTIONARY
360
4D6
102
}
330
2A
100
AcDbVisualStyle
  2
Wireframe
 70
     5
 71
     0
 72
     2
 73
     0
 90
        0
 40
0.6
 41
30.0
 62
     5
 63
     7
 74
     1
 91
        4
 64
     7
 65
   257
 75
     1
175
     1
 42
1.0
 92
        0
 66
   257
 43
1.0
 76
     1
 77
     6
 78
     2
 67
     7
 79
     3
170
     0
171
     0
290
     0
174
     0
 93
        1
 44
0.0
173
     0
291
     0
 45
0.0
1001
ACAD
1000
AcDbSavedByObjectVersion
1070
     0
  0
VISUALSTYLE
  5
40
102
{ACAD_REACTORS
330
2A
102
}
102
{ACAD_XDICTIONARY
360
4F6
102
}
330
2A
100
AcDbVisualStyle
  2
X-Ray
 70
    25
 71
     2
 72
     2
 73
     1
 90
        1
 40
0.5
 41
30.0
 62
     5
 63
     7
 74
     1
 91
        0
 64
     7
 65
   257
 75
     1
175
     1
 42
1.0
 92
        8
 66
     7
 43
1.0
 76
     1
 77
     6
 78
     2
 67
     7
 79
     3
170
     0
171
     0
290
     0
174
     0
 93
       13
 44
0.0
173
     0
291
     0
 45
0.0
1001
ACAD
1000
AcDbSavedByObjectVersion
1070
     0
  0
DICTIONARYVAR
  5
4CA
102
{ACAD_REACTORS
330
4B6
102
}
330
4B6
100
DictionaryVariables
280
     0
  1
1:1
  0
DICTIONARYVAR
  5
4BD
102
{ACAD_REACTORS
330
4B6
102
}
330
4B6
100
DictionaryVariables
280
     0
  1
3.500000
  0
DICTIONARYVAR
  5
4BE
102
{ACAD_REACTORS
330
4B6
102
}
330
4B6
100
DictionaryVariables
280
     0
  1
acadiso.lin
  0
DICTIONARYVAR
  5
4B8
102
{ACAD_REACTORS
330
4B6
102
}
330
4B6
100
DictionaryVariables
280
     0
  1
Standard
  0
DICTIONARYVAR
  5
4B7
102
{ACAD_REACTORS
330
4B6
102
}
330
4B6
100
DictionaryVariables
280
     0
  1
Standard
  0
DICTIONARYVAR
  5
4BF
102
{ACAD_REACTORS
330
4B6
102
}
330
4B6
100
DictionaryVariables
280
     0
  1
2
  0
DICTIONARYVAR
  5
4C0
102
{ACAD_REACTORS
330
4B6
102
}
330
4B6
100
DictionaryVariables
280
     0
  1
1
  0
DICTIONARYVAR
  5
4CB
102
{ACAD_REACTORS
330
4B6
102
}
330
4B6
100
DictionaryVariables
280
     0
  1
1
  0
DICTIONARYVAR
  5
4BA
102
{ACAD_REACTORS
330
4B6
102
}
330
4B6
100
DictionaryVariables
280
     0
  1
80.000000
  0
DICTIONARYVAR
  5
4B9
102
{ACAD_REACTORS
330
4B6
102
}
330
4B6
100
DictionaryVariables
280
     0
  1
5.000000
  0
DICTIONARY
  5
4FE
330
45
100
AcDbDictionary
280
     1
281
     1
  3
ACAD_XREC_ROUNDTRIP
360
4FF
  0
DICTIONARY
  5
4FC
330
44
100
AcDbDictionary
280
     1
281
     1
  3
ACAD_XREC_ROUNDTRIP
360
4FD
  0
DICTIONARY
  5
500
330
46
100
AcDbDictionary
280
     1
281
     1
  3
ACAD_XREC_ROUNDTRIP
360
501
  0
DICTIONARY
  5
503
330
6C
100
AcDbDictionary
280
     1
281
     1
  3
ACAD_XREC_ROUNDTRIP
360
504
  0
DICTIONARY
  5
4D4
330
2F
100
AcDbDictionary
280
     1
281
     1
  3
ACAD_XREC_ROUNDTRIP
360
4D5
  0
DICTIONARY
  5
4DA
330
32
100
AcDbDictionary
280
     1
281
     1
  3
ACAD_XREC_ROUNDTRIP
360
4DB
  0
DICTIONARY
  5
4E2
330
36
100
AcDbDictionary
280
     1
281
     1
  3
ACAD_XREC_ROUNDTRIP
360
4E3
  0
DICTIONARY
  5
4EA
330
3A
100
AcDbDictionary
280
     1
281
     1
  3
ACAD_XREC_ROUNDTRIP
360
4EB
  0
DICTIONARY
  5
4DE
330
34
100
AcDbDictionary
280
     1
281
     1
  3
ACAD_XREC_ROUNDTRIP
360
4DF
  0
DICTIONARY
  5
4E0
330
35
100
AcDbDictionary
280
     1
281
     1
  3
ACAD_XREC_ROUNDTRIP
360
4E1
  0
DICTIONARY
  5
4F0
330
3D
100
AcDbDictionary
280
     1
281
     1
  3
ACAD_XREC_ROUNDTRIP
360
4F1
  0
DICTIONARY
  5
4E8
330
39
100
AcDbDictionary
280
     1
281
     1
  3
ACAD_XREC_ROUNDTRIP
360
4E9
  0
DICTIONARY
  5
4CC
330
2B
100
AcDbDictionary
280
     1
281
     1
  3
ACAD_XREC_ROUNDTRIP
360
4CD
  0
DICTIONARY
  5
4CE
330
2C
100
AcDbDictionary
280
     1
281
     1
  3
ACAD_XREC_ROUNDTRIP
360
4CF
  0
DICTIONARY
  5
4D0
330
2D
100
AcDbDictionary
280
     1
281
     1
  3
ACAD_XREC_ROUNDTRIP
360
4D1
  0
DICTIONARY
  5
4D2
330
2E
100
AcDbDictionary
280
     1
281
     1
  3
ACAD_XREC_ROUNDTRIP
360
4D3
  0
DICTIONARY
  5
4D8
330
31
100
AcDbDictionary
280
     1
281
     1
  3
ACAD_XREC_ROUNDTRIP
360
4D9
  0
DICTIONARY
  5
4EC
330
3B
100
AcDbDictionary
280
     1
281
     1
  3
ACAD_XREC_ROUNDTRIP
360
4ED
  0
DICTIONARY
  5
4E6
330
38
100
AcDbDictionary
280
     1
281
     1
  3
ACAD_XREC_ROUNDTRIP
360
4E7
  0
DICTIONARY
  5
4EE
330
3C
100
AcDbDictionary
280
     1
281
     1
  3
ACAD_XREC_ROUNDTRIP
360
4EF
  0
DICTIONARY
  5
4DC
330
33
100
AcDbDictionary
280
     1
281
     1
  3
ACAD_XREC_ROUNDTRIP
360
4DD
  0
DICTIONARY
  5
4FA
330
42
100
AcDbDictionary
280
     1
281
     1
  3
ACAD_XREC_ROUNDTRIP
360
4FB
  0
DICTIONARY
  5
4F8
330
41
100
AcDbDictionary
280
     1
281
     1
  3
ACAD_XREC_ROUNDTRIP
360
4F9
  0
DICTIONARY
  5
4F2
330
3E
100
AcDbDictionary
280
     1
281
     1
  3
ACAD_XREC_ROUNDTRIP
360
4F3
  0
DICTIONARY
  5
4F4
330
3F
100
AcDbDictionary
280
     1
281
     1
  3
ACAD_XREC_ROUNDTRIP
360
4F5
  0
DICTIONARY
  5
4E4
330
37
100
AcDbDictionary
280
     1
281
     1
  3
ACAD_XREC_ROUNDTRIP
360
4E5
  0
DICTIONARY
  5
4D6
330
30
100
AcDbDictionary
280
     1
281
     1
  3
ACAD_XREC_ROUNDTRIP
360
4D7
  0
DICTIONARY
  5
4F6
330
40
100
AcDbDictionary
280
     1
281
     1
  3
ACAD_XREC_ROUNDTRIP
360
4F7
  0
XRECORD
  5
4FF
102
{ACAD_REACTORS
330
4FE
102
}
330
4FE
100
AcDbXrecord
280
     1
102
MATERIAL
148
0.0
149
0.0
149
0.0
 93
        0
 94
      127
282
     0
 72
     1
 77
     1
171
     1
175
     1
179
     1
273
     0
  0
XRECORD
  5
4FD
102
{ACAD_REACTORS
330
4FC
102
}
330
4FC
100
AcDbXrecord
280
     1
102
MATERIAL
148
0.0
149
0.0
149
0.0
 93
        0
 94
      127
282
     0
 72
     1
 77
     1
171
     1
175
     1
179
     1
273
     0
  0
XRECORD
  5
501
102
{ACAD_REACTORS
330
500
102
}
330
500
100
AcDbXrecord
280
     1
102
MATERIAL
148
0.0
149
0.0
149
0.0
 93
        0
 94
      127
282
     0
 72
     1
 77
     1
171
     1
175
     1
179
     1
273
     0
  0
XRECORD
  5
504
102
{ACAD_REACTORS
330
503
102
}
330
503
100
AcDbXrecord
280
     1
102
ACAD_ROUNDTRIP_2010_MLEADER_STYLE
  0
XRECORD
  5
4D5
102
{ACAD_REACTORS
330
4D4
102
}
330
4D4
100
AcDbXrecord
280
     1
102
RTVSPropertyOp0
 70
     1
102
RTVSPropertyOp1
 70
     1
102
RTVSPropertyOp2
 70
     1
102
RTVSPropertyOp3
 70
     1
102
RTVSPropertyOp4
 70
     1
102
RTVSPropertyOp5
 70
     1
102
RTVSPropertyOp6
 70
     1
102
RTVSPropertyOp7
 70
     1
102
RTVSPropertyOp8
 70
     1
102
RTVSPropertyOp9
 70
     1
102
RTVSPropertyOp10
 70
     1
102
RTVSPropertyOp11
 70
     1
102
RTVSPropertyOp12
 70
     1
102
RTVSPropertyOp13
 70
     1
102
RTVSPropertyOp14
 70
     1
102
RTVSPropertyOp15
 70
     1
102
RTVSPropertyOp16
 70
     1
102
RTVSPropertyOp17
 70
     1
102
RTVSPropertyOp18
 70
     1
102
RTVSPropertyOp19
 70
     1
102
RTVSPropertyOp20
 70
     1
102
RTVSPropertyOp21
 70
     1
102
RTVSPropertyOp22
 70
     1
102
RTVSPropertyOp23
 70
     1
102
RTVSPropertyOp24
 70
     1
102
RTVSPropertyOp25
 70
     1
102
RTVSPropertyOp26
 70
     1
102
RTVSPropertyOp27
 70
     1
102
RTVSPropertyOp28
 70
     1
102
RTVSPropertyOp29
 70
     1
102
RTVSPropertyOp30
 70
     1
102
RTVSPropertyOp31
 70
     1
102
RTVSPropertyOp32
 70
     1
102
RTVSPropertyOp33
 70
     1
102
RTVSPropertyOp34
 70
     1
102
RTVSPropertyOp35
 70
     1
102
RTVSPropertyOp36
 70
     1
102
RTVSPropertyOp37
 70
     1
102
RTVSPropertyOp38
 70
     1
102
RTVSPropertyOp39
 70
     1
102
RTVSPropertyOp40
 70
     1
102
RTVSPropertyOp41
 70
     1
102
RTVSPropertyOp42
 70
     1
102
RTVSPropertyOp43
 70
     1
102
RTVSPropertyOp44
 70
     1
102
RTVSPropertyOp45
 70
     1
102
RTVSPropertyOp46
 70
     1
102
RTVSPropertyOp47
 70
     1
102
RTVSPropertyOp48
 70
     1
102
RTVSPropertyOp49
 70
     1
102
RTVSPropertyOp50
 70
     1
102
RTVSPropertyOp51
 70
     0
102
RTVSPropertyOp52
 70
     0
102
RTVSPropertyOp53
 70
     1
102
RTVSPropertyOp54
 70
     1
102
RTVSPropertyOp55
 70
     1
102
RTVSPropertyOp56
 70
     1
102
RTVSPropertyOp57
 70
     1
102
RTVSPost2010Prop28
280
     1
102
RTVSPost2010PropOp28
 70
     1
102
RTVSPost2010Prop29
280
     1
102
RTVSPost2010PropOp29
 70
     1
102
RTVSPost2010Prop30
280
     0
102
RTVSPost2010PropOp30
 70
     1
102
RTVSPost2010Prop31
280
     0
102
RTVSPost2010PropOp31
 70
     1
102
RTVSPost2010Prop32
280
     0
102
RTVSPost2010PropOp32
 70
     1
102
RTVSPost2010Prop33
280
     0
102
RTVSPost2010PropOp33
 70
     1
102
RTVSPost2010Prop34
280
     0
102
RTVSPost2010PropOp34
 70
     1
102
RTVSPost2010Prop35
280
     0
102
RTVSPost2010PropOp35
 70
     1
102
RTVSPost2010Prop36
280
     0
102
RTVSPost2010PropOp36
 70
     1
102
RTVSPost2010Prop37
 90
       50
102
RTVSPost2010PropOp37
 70
     1
102
RTVSPost2010Prop38
140
0.0
102
RTVSPost2010PropOp38
 70
     1
102
RTVSPost2010Prop39
140
1.0
102
RTVSPost2010PropOp39
 70
     1
102
RTVSPost2010Prop40
 90
        0
102
RTVSPost2010PropOp40
 70
     1
102
RTVSPost2010Prop41ColorIndex
 90
       18
102
RTVSPost2010Prop41ColorRGB
 90
        0
102
RTVSPost2010PropOp41
 70
     1
102
RTVSPost2010Prop42
 90
       50
102
RTVSPost2010PropOp42
 70
     1
102
RTVSPost2010Prop43
 90
        3
102
RTVSPost2010PropOp43
 70
     1
102
RTVSPost2010Prop44ColorIndex
 90
        5
102
RTVSPost2010Prop44ColorRGB
 90
      255
102
RTVSPost2010PropOp44
 70
     1
102
RTVSPost2010Prop45
280
     0
102
RTVSPost2010PropOp45
 70
     1
102
RTVSPost2010Prop46
 90
       50
102
RTVSPost2010PropOp46
 70
     1
102
RTVSPost2010Prop47
 90
       50
102
RTVSPost2010PropOp47
 70
     1
102
RTVSPost2010Prop48
 90
       50
102
RTVSPost2010PropOp48
 70
     1
102
RTVSPost2010Prop49
280
     0
102
RTVSPost2010PropOp49
 70
     1
102
RTVSPost2010Prop50
 90
       50
102
RTVSPost2010PropOp50
 70
     1
102
RTVSPost2010Prop51ColorIndex
 90
      256
102
RTVSPost2010Prop51ColorRGB
 90
-16777216
102
RTVSPost2010PropOp51
 70
     0
102
RTVSPost2010Prop52
140
1.0
102
RTVSPost2010PropOp52
 70
     0
102
RTVSPost2010Prop53
 90
        2
102
RTVSPost2010PropOp53
 70
     1
102
RTVSPost2010Prop54
  1
strokes_ogs.tif
102
RTVSPost2010PropOp54
 70
     1
102
RTVSPost2010Prop55
280
     0
102
RTVSPost2010PropOp55
 70
     1
102
RTVSPost2010Prop56
140
1.0
102
RTVSPost2010PropOp56
 70
     1
102
RTVSPost2010Prop57
140
1.0
102
RTVSPost2010PropOp57
 70
     1
  0
XRECORD
  5
4DB
102
{ACAD_REACTORS
330
4DA
102
}
330
4DA
100
AcDbXrecord
280
     1
102
RTVSPropertyOp0
 70
     1
102
RTVSPropertyOp1
 70
     1
102
RTVSPropertyOp2
 70
     1
102
RTVSPropertyOp3
 70
     1
102
RTVSPropertyOp4
 70
     1
102
RTVSPropertyOp5
 70
     1
102
RTVSPropertyOp6
 70
     1
102
RTVSPropertyOp7
 70
     1
102
RTVSPropertyOp8
 70
     1
102
RTVSPropertyOp9
 70
     1
102
RTVSPropertyOp10
 70
     1
102
RTVSPropertyOp11
 70
     1
102
RTVSPropertyOp12
 70
     1
102
RTVSPropertyOp13
 70
     1
102
RTVSPropertyOp14
 70
     1
102
RTVSPropertyOp15
 70
     1
102
RTVSPropertyOp16
 70
     1
102
RTVSPropertyOp17
 70
     1
102
RTVSPropertyOp18
 70
     1
102
RTVSPropertyOp19
 70
     1
102
RTVSPropertyOp20
 70
     1
102
RTVSPropertyOp21
 70
     1
102
RTVSPropertyOp22
 70
     1
102
RTVSPropertyOp23
 70
     1
102
RTVSPropertyOp24
 70
     1
102
RTVSPropertyOp25
 70
     1
102
RTVSPropertyOp26
 70
     1
102
RTVSPropertyOp27
 70
     1
102
RTVSPropertyOp28
 70
     1
102
RTVSPropertyOp29
 70
     1
102
RTVSPropertyOp30
 70
     1
102
RTVSPropertyOp31
 70
     1
102
RTVSPropertyOp32
 70
     1
102
RTVSPropertyOp33
 70
     1
102
RTVSPropertyOp34
 70
     1
102
RTVSPropertyOp35
 70
     1
102
RTVSPropertyOp36
 70
     1
102
RTVSPropertyOp37
 70
     1
102
RTVSPropertyOp38
 70
     1
102
RTVSPropertyOp39
 70
     1
102
RTVSPropertyOp40
 70
     1
102
RTVSPropertyOp41
 70
     1
102
RTVSPropertyOp42
 70
     1
102
RTVSPropertyOp43
 70
     1
102
RTVSPropertyOp44
 70
     1
102
RTVSPropertyOp45
 70
     1
102
RTVSPropertyOp46
 70
     1
102
RTVSPropertyOp47
 70
     1
102
RTVSPropertyOp48
 70
     1
102
RTVSPropertyOp49
 70
     1
102
RTVSPropertyOp50
 70
     1
102
RTVSPropertyOp51
 70
     0
102
RTVSPropertyOp52
 70
     0
102
RTVSPropertyOp53
 70
     1
102
RTVSPropertyOp54
 70
     1
102
RTVSPropertyOp55
 70
     1
102
RTVSPropertyOp56
 70
     1
102
RTVSPropertyOp57
 70
     1
102
RTVSPost2010Prop28
280
     0
102
RTVSPost2010PropOp28
 70
     1
102
RTVSPost2010Prop29
280
     1
102
RTVSPost2010PropOp29
 70
     1
102
RTVSPost2010Prop30
280
     1
102
RTVSPost2010PropOp30
 70
     1
102
RTVSPost2010Prop31
280
     0
102
RTVSPost2010PropOp31
 70
     1
102
RTVSPost2010Prop32
280
     0
102
RTVSPost2010PropOp32
 70
     1
102
RTVSPost2010Prop33
280
     0
102
RTVSPost2010PropOp33
 70
     1
102
RTVSPost2010Prop34
280
     0
102
RTVSPost2010PropOp34
 70
     1
102
RTVSPost2010Prop35
280
     0
102
RTVSPost2010PropOp35
 70
     1
102
RTVSPost2010Prop36
280
     0
102
RTVSPost2010PropOp36
 70
     1
102
RTVSPost2010Prop37
 90
       50
102
RTVSPost2010PropOp37
 70
     1
102
RTVSPost2010Prop38
140
0.0
102
RTVSPost2010PropOp38
 70
     1
102
RTVSPost2010Prop39
140
1.0
102
RTVSPost2010PropOp39
 70
     1
102
RTVSPost2010Prop40
 90
        0
102
RTVSPost2010PropOp40
 70
     1
102
RTVSPost2010Prop41ColorIndex
 90
       18
102
RTVSPost2010Prop41ColorRGB
 90
        0
102
RTVSPost2010PropOp41
 70
     1
102
RTVSPost2010Prop42
 90
       50
102
RTVSPost2010PropOp42
 70
     1
102
RTVSPost2010Prop43
 90
        3
102
RTVSPost2010PropOp43
 70
     1
102
RTVSPost2010Prop44ColorIndex
 90
        5
102
RTVSPost2010Prop44ColorRGB
 90
      255
102
RTVSPost2010PropOp44
 70
     1
102
RTVSPost2010Prop45
280
     0
102
RTVSPost2010PropOp45
 70
     1
102
RTVSPost2010Prop46
 90
       50
102
RTVSPost2010PropOp46
 70
     1
102
RTVSPost2010Prop47
 90
       50
102
RTVSPost2010PropOp47
 70
     1
102
RTVSPost2010Prop48
 90
       50
102
RTVSPost2010PropOp48
 70
     1
102
RTVSPost2010Prop49
280
     0
102
RTVSPost2010PropOp49
 70
     1
102
RTVSPost2010Prop50
 90
       50
102
RTVSPost2010PropOp50
 70
     1
102
RTVSPost2010Prop51ColorIndex
 90
      256
102
RTVSPost2010Prop51ColorRGB
 90
-16777216
102
RTVSPost2010PropOp51
 70
     0
102
RTVSPost2010Prop52
140
1.0
102
RTVSPost2010PropOp52
 70
     0
102
RTVSPost2010Prop53
 90
        2
102
RTVSPost2010PropOp53
 70
     1
102
RTVSPost2010Prop54
  1
strokes_ogs.tif
102
RTVSPost2010PropOp54
 70
     1
102
RTVSPost2010Prop55
280
     0
102
RTVSPost2010PropOp55
 70
     1
102
RTVSPost2010Prop56
140
1.0
102
RTVSPost2010PropOp56
 70
     1
102
RTVSPost2010Prop57
140
1.0
102
RTVSPost2010PropOp57
 70
     1
  0
XRECORD
  5
4E3
102
{ACAD_REACTORS
330
4E2
102
}
330
4E2
100
AcDbXrecord
280
     1
102
RTVSPropertyOp0
 70
     1
102
RTVSPropertyOp1
 70
     1
102
RTVSPropertyOp2
 70
     1
102
RTVSPropertyOp3
 70
     1
102
RTVSPropertyOp4
 70
     1
102
RTVSPropertyOp5
 70
     1
102
RTVSPropertyOp6
 70
     1
102
RTVSPropertyOp7
 70
     1
102
RTVSPropertyOp8
 70
     1
102
RTVSPropertyOp9
 70
     1
102
RTVSPropertyOp10
 70
     1
102
RTVSPropertyOp11
 70
     1
102
RTVSPropertyOp12
 70
     1
102
RTVSPropertyOp13
 70
     1
102
RTVSPropertyOp14
 70
     1
102
RTVSPropertyOp15
 70
     1
102
RTVSPropertyOp16
 70
     1
102
RTVSPropertyOp17
 70
     1
102
RTVSPropertyOp18
 70
     1
102
RTVSPropertyOp19
 70
     1
102
RTVSPropertyOp20
 70
     1
102
RTVSPropertyOp21
 70
     1
102
RTVSPropertyOp22
 70
     1
102
RTVSPropertyOp23
 70
     1
102
RTVSPropertyOp24
 70
     1
102
RTVSPropertyOp25
 70
     1
102
RTVSPropertyOp26
 70
     1
102
RTVSPropertyOp27
 70
     1
102
RTVSPropertyOp28
 70
     1
102
RTVSPropertyOp29
 70
     1
102
RTVSPropertyOp30
 70
     1
102
RTVSPropertyOp31
 70
     1
102
RTVSPropertyOp32
 70
     1
102
RTVSPropertyOp33
 70
     1
102
RTVSPropertyOp34
 70
     1
102
RTVSPropertyOp35
 70
     1
102
RTVSPropertyOp36
 70
     1
102
RTVSPropertyOp37
 70
     1
102
RTVSPropertyOp38
 70
     1
102
RTVSPropertyOp39
 70
     1
102
RTVSPropertyOp40
 70
     1
102
RTVSPropertyOp41
 70
     1
102
RTVSPropertyOp42
 70
     1
102
RTVSPropertyOp43
 70
     1
102
RTVSPropertyOp44
 70
     1
102
RTVSPropertyOp45
 70
     1
102
RTVSPropertyOp46
 70
     1
102
RTVSPropertyOp47
 70
     1
102
RTVSPropertyOp48
 70
     1
102
RTVSPropertyOp49
 70
     1
102
RTVSPropertyOp50
 70
     1
102
RTVSPropertyOp51
 70
     0
102
RTVSPropertyOp52
 70
     0
102
RTVSPropertyOp53
 70
     1
102
RTVSPropertyOp54
 70
     1
102
RTVSPropertyOp55
 70
     1
102
RTVSPropertyOp56
 70
     1
102
RTVSPropertyOp57
 70
     1
102
RTVSPost2010Prop28
280
     0
102
RTVSPost2010PropOp28
 70
     1
102
RTVSPost2010Prop29
280
     1
102
RTVSPost2010PropOp29
 70
     1
102
RTVSPost2010Prop30
280
     1
102
RTVSPost2010PropOp30
 70
     1
102
RTVSPost2010Prop31
280
     0
102
RTVSPost2010PropOp31
 70
     1
102
RTVSPost2010Prop32
280
     0
102
RTVSPost2010PropOp32
 70
     1
102
RTVSPost2010Prop33
280
     0
102
RTVSPost2010PropOp33
 70
     1
102
RTVSPost2010Prop34
280
     0
102
RTVSPost2010PropOp34
 70
     1
102
RTVSPost2010Prop35
280
     0
102
RTVSPost2010PropOp35
 70
     1
102
RTVSPost2010Prop36
280
     0
102
RTVSPost2010PropOp36
 70
     1
102
RTVSPost2010Prop37
 90
       50
102
RTVSPost2010PropOp37
 70
     1
102
RTVSPost2010Prop38
140
0.0
102
RTVSPost2010PropOp38
 70
     1
102
RTVSPost2010Prop39
140
1.0
102
RTVSPost2010PropOp39
 70
     1
102
RTVSPost2010Prop40
 90
        0
102
RTVSPost2010PropOp40
 70
     1
102
RTVSPost2010Prop41ColorIndex
 90
       18
102
RTVSPost2010Prop41ColorRGB
 90
        0
102
RTVSPost2010PropOp41
 70
     1
102
RTVSPost2010Prop42
 90
       50
102
RTVSPost2010PropOp42
 70
     1
102
RTVSPost2010Prop43
 90
        3
102
RTVSPost2010PropOp43
 70
     1
102
RTVSPost2010Prop44ColorIndex
 90
        5
102
RTVSPost2010Prop44ColorRGB
 90
      255
102
RTVSPost2010PropOp44
 70
     1
102
RTVSPost2010Prop45
280
     0
102
RTVSPost2010PropOp45
 70
     1
102
RTVSPost2010Prop46
 90
       50
102
RTVSPost2010PropOp46
 70
     1
102
RTVSPost2010Prop47
 90
       50
102
RTVSPost2010PropOp47
 70
     1
102
RTVSPost2010Prop48
 90
       50
102
RTVSPost2010PropOp48
 70
     1
102
RTVSPost2010Prop49
280
     0
102
RTVSPost2010PropOp49
 70
     1
102
RTVSPost2010Prop50
 90
       50
102
RTVSPost2010PropOp50
 70
     1
102
RTVSPost2010Prop51ColorIndex
 90
      256
102
RTVSPost2010Prop51ColorRGB
 90
-16777216
102
RTVSPost2010PropOp51
 70
     0
102
RTVSPost2010Prop52
140
1.0
102
RTVSPost2010PropOp52
 70
     0
102
RTVSPost2010Prop53
 90
        2
102
RTVSPost2010PropOp53
 70
     1
102
RTVSPost2010Prop54
  1
strokes_ogs.tif
102
RTVSPost2010PropOp54
 70
     1
102
RTVSPost2010Prop55
280
     0
102
RTVSPost2010PropOp55
 70
     1
102
RTVSPost2010Prop56
140
1.0
102
RTVSPost2010PropOp56
 70
     1
102
RTVSPost2010Prop57
140
1.0
102
RTVSPost2010PropOp57
 70
     1
  0
XRECORD
  5
4EB
102
{ACAD_REACTORS
330
4EA
102
}
330
4EA
100
AcDbXrecord
280
     1
102
RTVSPropertyOp0
 70
     1
102
RTVSPropertyOp1
 70
     1
102
RTVSPropertyOp2
 70
     1
102
RTVSPropertyOp3
 70
     1
102
RTVSPropertyOp4
 70
     1
102
RTVSPropertyOp5
 70
     1
102
RTVSPropertyOp6
 70
     1
102
RTVSPropertyOp7
 70
     1
102
RTVSPropertyOp8
 70
     1
102
RTVSPropertyOp9
 70
     1
102
RTVSPropertyOp10
 70
     1
102
RTVSPropertyOp11
 70
     1
102
RTVSPropertyOp12
 70
     1
102
RTVSPropertyOp13
 70
     1
102
RTVSPropertyOp14
 70
     1
102
RTVSPropertyOp15
 70
     1
102
RTVSPropertyOp16
 70
     1
102
RTVSPropertyOp17
 70
     1
102
RTVSPropertyOp18
 70
     1
102
RTVSPropertyOp19
 70
     1
102
RTVSPropertyOp20
 70
     1
102
RTVSPropertyOp21
 70
     1
102
RTVSPropertyOp22
 70
     1
102
RTVSPropertyOp23
 70
     1
102
RTVSPropertyOp24
 70
     1
102
RTVSPropertyOp25
 70
     1
102
RTVSPropertyOp26
 70
     1
102
RTVSPropertyOp27
 70
     1
102
RTVSPropertyOp28
 70
     1
102
RTVSPropertyOp29
 70
     1
102
RTVSPropertyOp30
 70
     1
102
RTVSPropertyOp31
 70
     1
102
RTVSPropertyOp32
 70
     1
102
RTVSPropertyOp33
 70
     1
102
RTVSPropertyOp34
 70
     1
102
RTVSPropertyOp35
 70
     1
102
RTVSPropertyOp36
 70
     1
102
RTVSPropertyOp37
 70
     1
102
RTVSPropertyOp38
 70
     1
102
RTVSPropertyOp39
 70
     1
102
RTVSPropertyOp40
 70
     1
102
RTVSPropertyOp41
 70
     1
102
RTVSPropertyOp42
 70
     1
102
RTVSPropertyOp43
 70
     1
102
RTVSPropertyOp44
 70
     1
102
RTVSPropertyOp45
 70
     1
102
RTVSPropertyOp46
 70
     1
102
RTVSPropertyOp47
 70
     1
102
RTVSPropertyOp48
 70
     1
102
RTVSPropertyOp49
 70
     1
102
RTVSPropertyOp50
 70
     1
102
RTVSPropertyOp51
 70
     0
102
RTVSPropertyOp52
 70
     0
102
RTVSPropertyOp53
 70
     1
102
RTVSPropertyOp54
 70
     1
102
RTVSPropertyOp55
 70
     1
102
RTVSPropertyOp56
 70
     1
102
RTVSPropertyOp57
 70
     1
102
RTVSPost2010Prop28
280
     0
102
RTVSPost2010PropOp28
 70
     1
102
RTVSPost2010Prop29
280
     1
102
RTVSPost2010PropOp29
 70
     1
102
RTVSPost2010Prop30
280
     1
102
RTVSPost2010PropOp30
 70
     1
102
RTVSPost2010Prop31
280
     0
102
RTVSPost2010PropOp31
 70
     1
102
RTVSPost2010Prop32
280
     0
102
RTVSPost2010PropOp32
 70
     1
102
RTVSPost2010Prop33
280
     0
102
RTVSPost2010PropOp33
 70
     1
102
RTVSPost2010Prop34
280
     0
102
RTVSPost2010PropOp34
 70
     1
102
RTVSPost2010Prop35
280
     0
102
RTVSPost2010PropOp35
 70
     1
102
RTVSPost2010Prop36
280
     0
102
RTVSPost2010PropOp36
 70
     1
102
RTVSPost2010Prop37
 90
       50
102
RTVSPost2010PropOp37
 70
     1
102
RTVSPost2010Prop38
140
0.0
102
RTVSPost2010PropOp38
 70
     1
102
RTVSPost2010Prop39
140
1.0
102
RTVSPost2010PropOp39
 70
     1
102
RTVSPost2010Prop40
 90
        0
102
RTVSPost2010PropOp40
 70
     1
102
RTVSPost2010Prop41ColorIndex
 90
       18
102
RTVSPost2010Prop41ColorRGB
 90
        0
102
RTVSPost2010PropOp41
 70
     1
102
RTVSPost2010Prop42
 90
       50
102
RTVSPost2010PropOp42
 70
     1
102
RTVSPost2010Prop43
 90
        3
102
RTVSPost2010PropOp43
 70
     1
102
RTVSPost2010Prop44ColorIndex
 90
        5
102
RTVSPost2010Prop44ColorRGB
 90
      255
102
RTVSPost2010PropOp44
 70
     1
102
RTVSPost2010Prop45
280
     0
102
RTVSPost2010PropOp45
 70
     1
102
RTVSPost2010Prop46
 90
       50
102
RTVSPost2010PropOp46
 70
     1
102
RTVSPost2010Prop47
 90
       50
102
RTVSPost2010PropOp47
 70
     1
102
RTVSPost2010Prop48
 90
       50
102
RTVSPost2010PropOp48
 70
     1
102
RTVSPost2010Prop49
280
     0
102
RTVSPost2010PropOp49
 70
     1
102
RTVSPost2010Prop50
 90
       50
102
RTVSPost2010PropOp50
 70
     1
102
RTVSPost2010Prop51ColorIndex
 90
      256
102
RTVSPost2010Prop51ColorRGB
 90
-16777216
102
RTVSPost2010PropOp51
 70
     0
102
RTVSPost2010Prop52
140
1.0
102
RTVSPost2010PropOp52
 70
     0
102
RTVSPost2010Prop53
 90
        2
102
RTVSPost2010PropOp53
 70
     1
102
RTVSPost2010Prop54
  1
strokes_ogs.tif
102
RTVSPost2010PropOp54
 70
     1
102
RTVSPost2010Prop55
280
     0
102
RTVSPost2010PropOp55
 70
     1
102
RTVSPost2010Prop56
140
1.0
102
RTVSPost2010PropOp56
 70
     1
102
RTVSPost2010Prop57
140
1.0
102
RTVSPost2010PropOp57
 70
     1
  0
XRECORD
  5
4DF
102
{ACAD_REACTORS
330
4DE
102
}
330
4DE
100
AcDbXrecord
280
     1
102
RTVSPropertyOp0
 70
     1
102
RTVSPropertyOp1
 70
     1
102
RTVSPropertyOp2
 70
     1
102
RTVSPropertyOp3
 70
     1
102
RTVSPropertyOp4
 70
     1
102
RTVSPropertyOp5
 70
     1
102
RTVSPropertyOp6
 70
     1
102
RTVSPropertyOp7
 70
     1
102
RTVSPropertyOp8
 70
     1
102
RTVSPropertyOp9
 70
     1
102
RTVSPropertyOp10
 70
     1
102
RTVSPropertyOp11
 70
     1
102
RTVSPropertyOp12
 70
     1
102
RTVSPropertyOp13
 70
     1
102
RTVSPropertyOp14
 70
     1
102
RTVSPropertyOp15
 70
     1
102
RTVSPropertyOp16
 70
     1
102
RTVSPropertyOp17
 70
     1
102
RTVSPropertyOp18
 70
     1
102
RTVSPropertyOp19
 70
     1
102
RTVSPropertyOp20
 70
     1
102
RTVSPropertyOp21
 70
     1
102
RTVSPropertyOp22
 70
     1
102
RTVSPropertyOp23
 70
     1
102
RTVSPropertyOp24
 70
     1
102
RTVSPropertyOp25
 70
     1
102
RTVSPropertyOp26
 70
     1
102
RTVSPropertyOp27
 70
     1
102
RTVSPropertyOp28
 70
     1
102
RTVSPropertyOp29
 70
     1
102
RTVSPropertyOp30
 70
     1
102
RTVSPropertyOp31
 70
     1
102
RTVSPropertyOp32
 70
     1
102
RTVSPropertyOp33
 70
     1
102
RTVSPropertyOp34
 70
     1
102
RTVSPropertyOp35
 70
     1
102
RTVSPropertyOp36
 70
     1
102
RTVSPropertyOp37
 70
     1
102
RTVSPropertyOp38
 70
     1
102
RTVSPropertyOp39
 70
     1
102
RTVSPropertyOp40
 70
     1
102
RTVSPropertyOp41
 70
     1
102
RTVSPropertyOp42
 70
     1
102
RTVSPropertyOp43
 70
     1
102
RTVSPropertyOp44
 70
     1
102
RTVSPropertyOp45
 70
     1
102
RTVSPropertyOp46
 70
     1
102
RTVSPropertyOp47
 70
     1
102
RTVSPropertyOp48
 70
     1
102
RTVSPropertyOp49
 70
     1
102
RTVSPropertyOp50
 70
     1
102
RTVSPropertyOp51
 70
     0
102
RTVSPropertyOp52
 70
     0
102
RTVSPropertyOp53
 70
     1
102
RTVSPropertyOp54
 70
     1
102
RTVSPropertyOp55
 70
     1
102
RTVSPropertyOp56
 70
     1
102
RTVSPropertyOp57
 70
     1
102
RTVSPost2010Prop28
280
     0
102
RTVSPost2010PropOp28
 70
     1
102
RTVSPost2010Prop29
280
     1
102
RTVSPost2010PropOp29
 70
     1
102
RTVSPost2010Prop30
280
     1
102
RTVSPost2010PropOp30
 70
     1
102
RTVSPost2010Prop31
280
     0
102
RTVSPost2010PropOp31
 70
     1
102
RTVSPost2010Prop32
280
     0
102
RTVSPost2010PropOp32
 70
     1
102
RTVSPost2010Prop33
280
     0
102
RTVSPost2010PropOp33
 70
     1
102
RTVSPost2010Prop34
280
     0
102
RTVSPost2010PropOp34
 70
     1
102
RTVSPost2010Prop35
280
     0
102
RTVSPost2010PropOp35
 70
     1
102
RTVSPost2010Prop36
280
     0
102
RTVSPost2010PropOp36
 70
     1
102
RTVSPost2010Prop37
 90
       50
102
RTVSPost2010PropOp37
 70
     1
102
RTVSPost2010Prop38
140
0.0
102
RTVSPost2010PropOp38
 70
     1
102
RTVSPost2010Prop39
140
1.0
102
RTVSPost2010PropOp39
 70
     1
102
RTVSPost2010Prop40
 90
        0
102
RTVSPost2010PropOp40
 70
     1
102
RTVSPost2010Prop41ColorIndex
 90
       18
102
RTVSPost2010Prop41ColorRGB
 90
        0
102
RTVSPost2010PropOp41
 70
     1
102
RTVSPost2010Prop42
 90
       50
102
RTVSPost2010PropOp42
 70
     1
102
RTVSPost2010Prop43
 90
        3
102
RTVSPost2010PropOp43
 70
     1
102
RTVSPost2010Prop44ColorIndex
 90
        5
102
RTVSPost2010Prop44ColorRGB
 90
      255
102
RTVSPost2010PropOp44
 70
     1
102
RTVSPost2010Prop45
280
     0
102
RTVSPost2010PropOp45
 70
     1
102
RTVSPost2010Prop46
 90
       50
102
RTVSPost2010PropOp46
 70
     1
102
RTVSPost2010Prop47
 90
       50
102
RTVSPost2010PropOp47
 70
     1
102
RTVSPost2010Prop48
 90
       50
102
RTVSPost2010PropOp48
 70
     1
102
RTVSPost2010Prop49
280
     0
102
RTVSPost2010PropOp49
 70
     1
102
RTVSPost2010Prop50
 90
       50
102
RTVSPost2010PropOp50
 70
     1
102
RTVSPost2010Prop51ColorIndex
 90
      256
102
RTVSPost2010Prop51ColorRGB
 90
-16777216
102
RTVSPost2010PropOp51
 70
     0
102
RTVSPost2010Prop52
140
1.0
102
RTVSPost2010PropOp52
 70
     0
102
RTVSPost2010Prop53
 90
        2
102
RTVSPost2010PropOp53
 70
     1
102
RTVSPost2010Prop54
  1
strokes_ogs.tif
102
RTVSPost2010PropOp54
 70
     1
102
RTVSPost2010Prop55
280
     0
102
RTVSPost2010PropOp55
 70
     1
102
RTVSPost2010Prop56
140
1.0
102
RTVSPost2010PropOp56
 70
     1
102
RTVSPost2010Prop57
140
1.0
102
RTVSPost2010PropOp57
 70
     1
  0
XRECORD
  5
4E1
102
{ACAD_REACTORS
330
4E0
102
}
330
4E0
100
AcDbXrecord
280
     1
102
RTVSPropertyOp0
 70
     1
102
RTVSPropertyOp1
 70
     1
102
RTVSPropertyOp2
 70
     1
102
RTVSPropertyOp3
 70
     1
102
RTVSPropertyOp4
 70
     1
102
RTVSPropertyOp5
 70
     1
102
RTVSPropertyOp6
 70
     1
102
RTVSPropertyOp7
 70
     1
102
RTVSPropertyOp8
 70
     1
102
RTVSPropertyOp9
 70
     1
102
RTVSPropertyOp10
 70
     1
102
RTVSPropertyOp11
 70
     1
102
RTVSPropertyOp12
 70
     1
102
RTVSPropertyOp13
 70
     1
102
RTVSPropertyOp14
 70
     1
102
RTVSPropertyOp15
 70
     1
102
RTVSPropertyOp16
 70
     1
102
RTVSPropertyOp17
 70
     1
102
RTVSPropertyOp18
 70
     1
102
RTVSPropertyOp19
 70
     1
102
RTVSPropertyOp20
 70
     1
102
RTVSPropertyOp21
 70
     1
102
RTVSPropertyOp22
 70
     1
102
RTVSPropertyOp23
 70
     1
102
RTVSPropertyOp24
 70
     1
102
RTVSPropertyOp25
 70
     1
102
RTVSPropertyOp26
 70
     1
102
RTVSPropertyOp27
 70
     1
102
RTVSPropertyOp28
 70
     1
102
RTVSPropertyOp29
 70
     1
102
RTVSPropertyOp30
 70
     1
102
RTVSPropertyOp31
 70
     1
102
RTVSPropertyOp32
 70
     1
102
RTVSPropertyOp33
 70
     1
102
RTVSPropertyOp34
 70
     1
102
RTVSPropertyOp35
 70
     1
102
RTVSPropertyOp36
 70
     1
102
RTVSPropertyOp37
 70
     1
102
RTVSPropertyOp38
 70
     1
102
RTVSPropertyOp39
 70
     1
102
RTVSPropertyOp40
 70
     1
102
RTVSPropertyOp41
 70
     1
102
RTVSPropertyOp42
 70
     1
102
RTVSPropertyOp43
 70
     1
102
RTVSPropertyOp44
 70
     1
102
RTVSPropertyOp45
 70
     1
102
RTVSPropertyOp46
 70
     1
102
RTVSPropertyOp47
 70
     1
102
RTVSPropertyOp48
 70
     1
102
RTVSPropertyOp49
 70
     1
102
RTVSPropertyOp50
 70
     1
102
RTVSPropertyOp51
 70
     0
102
RTVSPropertyOp52
 70
     0
102
RTVSPropertyOp53
 70
     1
102
RTVSPropertyOp54
 70
     1
102
RTVSPropertyOp55
 70
     1
102
RTVSPropertyOp56
 70
     1
102
RTVSPropertyOp57
 70
     1
102
RTVSPost2010Prop28
280
     0
102
RTVSPost2010PropOp28
 70
     1
102
RTVSPost2010Prop29
280
     1
102
RTVSPost2010PropOp29
 70
     1
102
RTVSPost2010Prop30
280
     1
102
RTVSPost2010PropOp30
 70
     1
102
RTVSPost2010Prop31
280
     0
102
RTVSPost2010PropOp31
 70
     1
102
RTVSPost2010Prop32
280
     0
102
RTVSPost2010PropOp32
 70
     1
102
RTVSPost2010Prop33
280
     0
102
RTVSPost2010PropOp33
 70
     1
102
RTVSPost2010Prop34
280
     0
102
RTVSPost2010PropOp34
 70
     1
102
RTVSPost2010Prop35
280
     0
102
RTVSPost2010PropOp35
 70
     1
102
RTVSPost2010Prop36
280
     0
102
RTVSPost2010PropOp36
 70
     1
102
RTVSPost2010Prop37
 90
       50
102
RTVSPost2010PropOp37
 70
     1
102
RTVSPost2010Prop38
140
0.0
102
RTVSPost2010PropOp38
 70
     1
102
RTVSPost2010Prop39
140
1.0
102
RTVSPost2010PropOp39
 70
     1
102
RTVSPost2010Prop40
 90
        0
102
RTVSPost2010PropOp40
 70
     1
102
RTVSPost2010Prop41ColorIndex
 90
       18
102
RTVSPost2010Prop41ColorRGB
 90
        0
102
RTVSPost2010PropOp41
 70
     1
102
RTVSPost2010Prop42
 90
       50
102
RTVSPost2010PropOp42
 70
     1
102
RTVSPost2010Prop43
 90
        3
102
RTVSPost2010PropOp43
 70
     1
102
RTVSPost2010Prop44ColorIndex
 90
        5
102
RTVSPost2010Prop44ColorRGB
 90
      255
102
RTVSPost2010PropOp44
 70
     1
102
RTVSPost2010Prop45
280
     0
102
RTVSPost2010PropOp45
 70
     1
102
RTVSPost2010Prop46
 90
       50
102
RTVSPost2010PropOp46
 70
     1
102
RTVSPost2010Prop47
 90
       50
102
RTVSPost2010PropOp47
 70
     1
102
RTVSPost2010Prop48
 90
       50
102
RTVSPost2010PropOp48
 70
     1
102
RTVSPost2010Prop49
280
     0
102
RTVSPost2010PropOp49
 70
     1
102
RTVSPost2010Prop50
 90
       50
102
RTVSPost2010PropOp50
 70
     1
102
RTVSPost2010Prop51ColorIndex
 90
      256
102
RTVSPost2010Prop51ColorRGB
 90
-16777216
102
RTVSPost2010PropOp51
 70
     0
102
RTVSPost2010Prop52
140
1.0
102
RTVSPost2010PropOp52
 70
     0
102
RTVSPost2010Prop53
 90
        2
102
RTVSPost2010PropOp53
 70
     1
102
RTVSPost2010Prop54
  1
strokes_ogs.tif
102
RTVSPost2010PropOp54
 70
     1
102
RTVSPost2010Prop55
280
     0
102
RTVSPost2010PropOp55
 70
     1
102
RTVSPost2010Prop56
140
1.0
102
RTVSPost2010PropOp56
 70
     1
102
RTVSPost2010Prop57
140
1.0
102
RTVSPost2010PropOp57
 70
     1
  0
XRECORD
  5
4F1
102
{ACAD_REACTORS
330
4F0
102
}
330
4F0
100
AcDbXrecord
280
     1
102
RTVSPropertyOp0
 70
     0
102
RTVSPropertyOp1
 70
     0
102
RTVSPropertyOp2
 70
     0
102
RTVSPropertyOp3
 70
     0
102
RTVSPropertyOp4
 70
     0
102
RTVSPropertyOp5
 70
     0
102
RTVSPropertyOp6
 70
     0
102
RTVSPropertyOp7
 70
     0
102
RTVSPropertyOp8
 70
     0
102
RTVSPropertyOp9
 70
     0
102
RTVSPropertyOp10
 70
     0
102
RTVSPropertyOp11
 70
     0
102
RTVSPropertyOp12
 70
     0
102
RTVSPropertyOp13
 70
     0
102
RTVSPropertyOp14
 70
     2
102
RTVSPropertyOp15
 70
     0
102
RTVSPropertyOp16
 70
     0
102
RTVSPropertyOp17
 70
     0
102
RTVSPropertyOp18
 70
     0
102
RTVSPropertyOp19
 70
     0
102
RTVSPropertyOp20
 70
     0
102
RTVSPropertyOp21
 70
     0
102
RTVSPropertyOp22
 70
     0
102
RTVSPropertyOp23
 70
     0
102
RTVSPropertyOp24
 70
     0
102
RTVSPropertyOp25
 70
     0
102
RTVSPropertyOp26
 70
     0
102
RTVSPropertyOp27
 70
     0
102
RTVSPropertyOp28
 70
     0
102
RTVSPropertyOp29
 70
     0
102
RTVSPropertyOp30
 70
     0
102
RTVSPropertyOp31
 70
     0
102
RTVSPropertyOp32
 70
     0
102
RTVSPropertyOp33
 70
     0
102
RTVSPropertyOp34
 70
     0
102
RTVSPropertyOp35
 70
     0
102
RTVSPropertyOp36
 70
     0
102
RTVSPropertyOp37
 70
     0
102
RTVSPropertyOp38
 70
     0
102
RTVSPropertyOp39
 70
     0
102
RTVSPropertyOp40
 70
     0
102
RTVSPropertyOp41
 70
     0
102
RTVSPropertyOp42
 70
     0
102
RTVSPropertyOp43
 70
     0
102
RTVSPropertyOp44
 70
     0
102
RTVSPropertyOp45
 70
     0
102
RTVSPropertyOp46
 70
     0
102
RTVSPropertyOp47
 70
     0
102
RTVSPropertyOp48
 70
     0
102
RTVSPropertyOp49
 70
     0
102
RTVSPropertyOp50
 70
     0
102
RTVSPropertyOp51
 70
     0
102
RTVSPropertyOp52
 70
     0
102
RTVSPropertyOp53
 70
     0
102
RTVSPropertyOp54
 70
     0
102
RTVSPropertyOp55
 70
     0
102
RTVSPropertyOp56
 70
     0
102
RTVSPropertyOp57
 70
     0
102
RTVSPost2010Prop28
280
     0
102
RTVSPost2010PropOp28
 70
     0
102
RTVSPost2010Prop29
280
     1
102
RTVSPost2010PropOp29
 70
     0
102
RTVSPost2010Prop30
280
     1
102
RTVSPost2010PropOp30
 70
     0
102
RTVSPost2010Prop31
280
     0
102
RTVSPost2010PropOp31
 70
     0
102
RTVSPost2010Prop32
280
     0
102
RTVSPost2010PropOp32
 70
     0
102
RTVSPost2010Prop33
280
     0
102
RTVSPost2010PropOp33
 70
     0
102
RTVSPost2010Prop34
280
     0
102
RTVSPost2010PropOp34
 70
     0
102
RTVSPost2010Prop35
280
     0
102
RTVSPost2010PropOp35
 70
     0
102
RTVSPost2010Prop36
280
     0
102
RTVSPost2010PropOp36
 70
     0
102
RTVSPost2010Prop37
 90
       50
102
RTVSPost2010PropOp37
 70
     0
102
RTVSPost2010Prop38
140
0.0
102
RTVSPost2010PropOp38
 70
     0
102
RTVSPost2010Prop39
140
1.0
102
RTVSPost2010PropOp39
 70
     0
102
RTVSPost2010Prop40
 90
        0
102
RTVSPost2010PropOp40
 70
     0
102
RTVSPost2010Prop41ColorIndex
 90
       18
102
RTVSPost2010Prop41ColorRGB
 90
        0
102
RTVSPost2010PropOp41
 70
     0
102
RTVSPost2010Prop42
 90
       50
102
RTVSPost2010PropOp42
 70
     0
102
RTVSPost2010Prop43
 90
        3
102
RTVSPost2010PropOp43
 70
     0
102
RTVSPost2010Prop44ColorIndex
 90
        5
102
RTVSPost2010Prop44ColorRGB
 90
      255
102
RTVSPost2010PropOp44
 70
     0
102
RTVSPost2010Prop45
280
     0
102
RTVSPost2010PropOp45
 70
     0
102
RTVSPost2010Prop46
 90
       50
102
RTVSPost2010PropOp46
 70
     0
102
RTVSPost2010Prop47
 90
       50
102
RTVSPost2010PropOp47
 70
     0
102
RTVSPost2010Prop48
 90
       50
102
RTVSPost2010PropOp48
 70
     0
102
RTVSPost2010Prop49
280
     0
102
RTVSPost2010PropOp49
 70
     0
102
RTVSPost2010Prop50
 90
       50
102
RTVSPost2010PropOp50
 70
     0
102
RTVSPost2010Prop51ColorIndex
 90
      256
102
RTVSPost2010Prop51ColorRGB
 90
-16777216
102
RTVSPost2010PropOp51
 70
     0
102
RTVSPost2010Prop52
140
1.0
102
RTVSPost2010PropOp52
 70
     0
102
RTVSPost2010Prop53
 90
        2
102
RTVSPost2010PropOp53
 70
     0
102
RTVSPost2010Prop54
  1
strokes_ogs.tif
102
RTVSPost2010PropOp54
 70
     0
102
RTVSPost2010Prop55
280
     0
102
RTVSPost2010PropOp55
 70
     0
102
RTVSPost2010Prop56
140
1.0
102
RTVSPost2010PropOp56
 70
     0
102
RTVSPost2010Prop57
140
1.0
102
RTVSPost2010PropOp57
 70
     0
  0
XRECORD
  5
4E9
102
{ACAD_REACTORS
330
4E8
102
}
330
4E8
100
AcDbXrecord
280
     1
102
RTVSPropertyOp0
 70
     1
102
RTVSPropertyOp1
 70
     1
102
RTVSPropertyOp2
 70
     1
102
RTVSPropertyOp3
 70
     1
102
RTVSPropertyOp4
 70
     1
102
RTVSPropertyOp5
 70
     1
102
RTVSPropertyOp6
 70
     1
102
RTVSPropertyOp7
 70
     1
102
RTVSPropertyOp8
 70
     1
102
RTVSPropertyOp9
 70
     1
102
RTVSPropertyOp10
 70
     1
102
RTVSPropertyOp11
 70
     1
102
RTVSPropertyOp12
 70
     1
102
RTVSPropertyOp13
 70
     1
102
RTVSPropertyOp14
 70
     1
102
RTVSPropertyOp15
 70
     1
102
RTVSPropertyOp16
 70
     1
102
RTVSPropertyOp17
 70
     1
102
RTVSPropertyOp18
 70
     1
102
RTVSPropertyOp19
 70
     1
102
RTVSPropertyOp20
 70
     1
102
RTVSPropertyOp21
 70
     1
102
RTVSPropertyOp22
 70
     1
102
RTVSPropertyOp23
 70
     1
102
RTVSPropertyOp24
 70
     1
102
RTVSPropertyOp25
 70
     1
102
RTVSPropertyOp26
 70
     1
102
RTVSPropertyOp27
 70
     1
102
RTVSPropertyOp28
 70
     1
102
RTVSPropertyOp29
 70
     1
102
RTVSPropertyOp30
 70
     1
102
RTVSPropertyOp31
 70
     1
102
RTVSPropertyOp32
 70
     1
102
RTVSPropertyOp33
 70
     1
102
RTVSPropertyOp34
 70
     1
102
RTVSPropertyOp35
 70
     1
102
RTVSPropertyOp36
 70
     1
102
RTVSPropertyOp37
 70
     1
102
RTVSPropertyOp38
 70
     1
102
RTVSPropertyOp39
 70
     1
102
RTVSPropertyOp40
 70
     1
102
RTVSPropertyOp41
 70
     1
102
RTVSPropertyOp42
 70
     1
102
RTVSPropertyOp43
 70
     1
102
RTVSPropertyOp44
 70
     1
102
RTVSPropertyOp45
 70
     1
102
RTVSPropertyOp46
 70
     1
102
RTVSPropertyOp47
 70
     1
102
RTVSPropertyOp48
 70
     1
102
RTVSPropertyOp49
 70
     1
102
RTVSPropertyOp50
 70
     1
102
RTVSPropertyOp51
 70
     0
102
RTVSPropertyOp52
 70
     0
102
RTVSPropertyOp53
 70
     1
102
RTVSPropertyOp54
 70
     1
102
RTVSPropertyOp55
 70
     1
102
RTVSPropertyOp56
 70
     1
102
RTVSPropertyOp57
 70
     1
102
RTVSPost2010Prop28
280
     0
102
RTVSPost2010PropOp28
 70
     1
102
RTVSPost2010Prop29
280
     1
102
RTVSPost2010PropOp29
 70
     1
102
RTVSPost2010Prop30
280
     1
102
RTVSPost2010PropOp30
 70
     1
102
RTVSPost2010Prop31
280
     0
102
RTVSPost2010PropOp31
 70
     1
102
RTVSPost2010Prop32
280
     0
102
RTVSPost2010PropOp32
 70
     1
102
RTVSPost2010Prop33
280
     0
102
RTVSPost2010PropOp33
 70
     1
102
RTVSPost2010Prop34
280
     0
102
RTVSPost2010PropOp34
 70
     1
102
RTVSPost2010Prop35
280
     0
102
RTVSPost2010PropOp35
 70
     1
102
RTVSPost2010Prop36
280
     0
102
RTVSPost2010PropOp36
 70
     1
102
RTVSPost2010Prop37
 90
       50
102
RTVSPost2010PropOp37
 70
     1
102
RTVSPost2010Prop38
140
0.0
102
RTVSPost2010PropOp38
 70
     1
102
RTVSPost2010Prop39
140
1.0
102
RTVSPost2010PropOp39
 70
     1
102
RTVSPost2010Prop40
 90
        0
102
RTVSPost2010PropOp40
 70
     1
102
RTVSPost2010Prop41ColorIndex
 90
       18
102
RTVSPost2010Prop41ColorRGB
 90
        0
102
RTVSPost2010PropOp41
 70
     1
102
RTVSPost2010Prop42
 90
       50
102
RTVSPost2010PropOp42
 70
     1
102
RTVSPost2010Prop43
 90
        3
102
RTVSPost2010PropOp43
 70
     1
102
RTVSPost2010Prop44ColorIndex
 90
        5
102
RTVSPost2010Prop44ColorRGB
 90
      255
102
RTVSPost2010PropOp44
 70
     1
102
RTVSPost2010Prop45
280
     0
102
RTVSPost2010PropOp45
 70
     1
102
RTVSPost2010Prop46
 90
       50
102
RTVSPost2010PropOp46
 70
     1
102
RTVSPost2010Prop47
 90
       50
102
RTVSPost2010PropOp47
 70
     1
102
RTVSPost2010Prop48
 90
       50
102
RTVSPost2010PropOp48
 70
     1
102
RTVSPost2010Prop49
280
     0
102
RTVSPost2010PropOp49
 70
     1
102
RTVSPost2010Prop50
 90
       50
102
RTVSPost2010PropOp50
 70
     1
102
RTVSPost2010Prop51ColorIndex
 90
      256
102
RTVSPost2010Prop51ColorRGB
 90
-16777216
102
RTVSPost2010PropOp51
 70
     0
102
RTVSPost2010Prop52
140
1.0
102
RTVSPost2010PropOp52
 70
     0
102
RTVSPost2010Prop53
 90
        2
102
RTVSPost2010PropOp53
 70
     1
102
RTVSPost2010Prop54
  1
strokes_ogs.tif
102
RTVSPost2010PropOp54
 70
     1
102
RTVSPost2010Prop55
280
     0
102
RTVSPost2010PropOp55
 70
     1
102
RTVSPost2010Prop56
140
1.0
102
RTVSPost2010PropOp56
 70
     1
102
RTVSPost2010Prop57
140
1.0
102
RTVSPost2010PropOp57
 70
     1
  0
XRECORD
  5
4CD
102
{ACAD_REACTORS
330
4CC
102
}
330
4CC
100
AcDbXrecord
280
     1
102
RTVSPropertyOp0
 70
     1
102
RTVSPropertyOp1
 70
     1
102
RTVSPropertyOp2
 70
     1
102
RTVSPropertyOp3
 70
     1
102
RTVSPropertyOp4
 70
     1
102
RTVSPropertyOp5
 70
     1
102
RTVSPropertyOp6
 70
     1
102
RTVSPropertyOp7
 70
     1
102
RTVSPropertyOp8
 70
     1
102
RTVSPropertyOp9
 70
     1
102
RTVSPropertyOp10
 70
     1
102
RTVSPropertyOp11
 70
     1
102
RTVSPropertyOp12
 70
     1
102
RTVSPropertyOp13
 70
     1
102
RTVSPropertyOp14
 70
     1
102
RTVSPropertyOp15
 70
     1
102
RTVSPropertyOp16
 70
     1
102
RTVSPropertyOp17
 70
     1
102
RTVSPropertyOp18
 70
     1
102
RTVSPropertyOp19
 70
     1
102
RTVSPropertyOp20
 70
     1
102
RTVSPropertyOp21
 70
     1
102
RTVSPropertyOp22
 70
     1
102
RTVSPropertyOp23
 70
     1
102
RTVSPropertyOp24
 70
     1
102
RTVSPropertyOp25
 70
     1
102
RTVSPropertyOp26
 70
     1
102
RTVSPropertyOp27
 70
     1
102
RTVSPropertyOp28
 70
     1
102
RTVSPropertyOp29
 70
     1
102
RTVSPropertyOp30
 70
     1
102
RTVSPropertyOp31
 70
     1
102
RTVSPropertyOp32
 70
     1
102
RTVSPropertyOp33
 70
     1
102
RTVSPropertyOp34
 70
     1
102
RTVSPropertyOp35
 70
     1
102
RTVSPropertyOp36
 70
     1
102
RTVSPropertyOp37
 70
     1
102
RTVSPropertyOp38
 70
     1
102
RTVSPropertyOp39
 70
     1
102
RTVSPropertyOp40
 70
     1
102
RTVSPropertyOp41
 70
     1
102
RTVSPropertyOp42
 70
     1
102
RTVSPropertyOp43
 70
     1
102
RTVSPropertyOp44
 70
     1
102
RTVSPropertyOp45
 70
     1
102
RTVSPropertyOp46
 70
     1
102
RTVSPropertyOp47
 70
     1
102
RTVSPropertyOp48
 70
     1
102
RTVSPropertyOp49
 70
     1
102
RTVSPropertyOp50
 70
     1
102
RTVSPropertyOp51
 70
     0
102
RTVSPropertyOp52
 70
     0
102
RTVSPropertyOp53
 70
     1
102
RTVSPropertyOp54
 70
     1
102
RTVSPropertyOp55
 70
     1
102
RTVSPropertyOp56
 70
     1
102
RTVSPropertyOp57
 70
     1
102
RTVSPost2010Prop28
280
     0
102
RTVSPost2010PropOp28
 70
     1
102
RTVSPost2010Prop29
280
     1
102
RTVSPost2010PropOp29
 70
     1
102
RTVSPost2010Prop30
280
     1
102
RTVSPost2010PropOp30
 70
     1
102
RTVSPost2010Prop31
280
     0
102
RTVSPost2010PropOp31
 70
     1
102
RTVSPost2010Prop32
280
     0
102
RTVSPost2010PropOp32
 70
     1
102
RTVSPost2010Prop33
280
     0
102
RTVSPost2010PropOp33
 70
     1
102
RTVSPost2010Prop34
280
     0
102
RTVSPost2010PropOp34
 70
     1
102
RTVSPost2010Prop35
280
     0
102
RTVSPost2010PropOp35
 70
     1
102
RTVSPost2010Prop36
280
     0
102
RTVSPost2010PropOp36
 70
     1
102
RTVSPost2010Prop37
 90
       50
102
RTVSPost2010PropOp37
 70
     1
102
RTVSPost2010Prop38
140
0.0
102
RTVSPost2010PropOp38
 70
     1
102
RTVSPost2010Prop39
140
1.0
102
RTVSPost2010PropOp39
 70
     1
102
RTVSPost2010Prop40
 90
        0
102
RTVSPost2010PropOp40
 70
     1
102
RTVSPost2010Prop41ColorIndex
 90
       18
102
RTVSPost2010Prop41ColorRGB
 90
        0
102
RTVSPost2010PropOp41
 70
     1
102
RTVSPost2010Prop42
 90
       50
102
RTVSPost2010PropOp42
 70
     1
102
RTVSPost2010Prop43
 90
        3
102
RTVSPost2010PropOp43
 70
     1
102
RTVSPost2010Prop44ColorIndex
 90
        5
102
RTVSPost2010Prop44ColorRGB
 90
      255
102
RTVSPost2010PropOp44
 70
     1
102
RTVSPost2010Prop45
280
     0
102
RTVSPost2010PropOp45
 70
     1
102
RTVSPost2010Prop46
 90
       50
102
RTVSPost2010PropOp46
 70
     1
102
RTVSPost2010Prop47
 90
       50
102
RTVSPost2010PropOp47
 70
     1
102
RTVSPost2010Prop48
 90
       50
102
RTVSPost2010PropOp48
 70
     1
102
RTVSPost2010Prop49
280
     0
102
RTVSPost2010PropOp49
 70
     1
102
RTVSPost2010Prop50
 90
       50
102
RTVSPost2010PropOp50
 70
     1
102
RTVSPost2010Prop51ColorIndex
 90
      256
102
RTVSPost2010Prop51ColorRGB
 90
-16777216
102
RTVSPost2010PropOp51
 70
     0
102
RTVSPost2010Prop52
140
1.0
102
RTVSPost2010PropOp52
 70
     0
102
RTVSPost2010Prop53
 90
        2
102
RTVSPost2010PropOp53
 70
     1
102
RTVSPost2010Prop54
  1
strokes_ogs.tif
102
RTVSPost2010PropOp54
 70
     1
102
RTVSPost2010Prop55
280
     0
102
RTVSPost2010PropOp55
 70
     1
102
RTVSPost2010Prop56
140
1.0
102
RTVSPost2010PropOp56
 70
     1
102
RTVSPost2010Prop57
140
1.0
102
RTVSPost2010PropOp57
 70
     1
  0
XRECORD
  5
4CF
102
{ACAD_REACTORS
330
4CE
102
}
330
4CE
100
AcDbXrecord
280
     1
102
RTVSPropertyOp0
 70
     1
102
RTVSPropertyOp1
 70
     1
102
RTVSPropertyOp2
 70
     1
102
RTVSPropertyOp3
 70
     1
102
RTVSPropertyOp4
 70
     1
102
RTVSPropertyOp5
 70
     1
102
RTVSPropertyOp6
 70
     1
102
RTVSPropertyOp7
 70
     1
102
RTVSPropertyOp8
 70
     1
102
RTVSPropertyOp9
 70
     1
102
RTVSPropertyOp10
 70
     1
102
RTVSPropertyOp11
 70
     1
102
RTVSPropertyOp12
 70
     1
102
RTVSPropertyOp13
 70
     1
102
RTVSPropertyOp14
 70
     1
102
RTVSPropertyOp15
 70
     1
102
RTVSPropertyOp16
 70
     1
102
RTVSPropertyOp17
 70
     1
102
RTVSPropertyOp18
 70
     1
102
RTVSPropertyOp19
 70
     1
102
RTVSPropertyOp20
 70
     1
102
RTVSPropertyOp21
 70
     1
102
RTVSPropertyOp22
 70
     1
102
RTVSPropertyOp23
 70
     1
102
RTVSPropertyOp24
 70
     1
102
RTVSPropertyOp25
 70
     1
102
RTVSPropertyOp26
 70
     1
102
RTVSPropertyOp27
 70
     1
102
RTVSPropertyOp28
 70
     1
102
RTVSPropertyOp29
 70
     1
102
RTVSPropertyOp30
 70
     1
102
RTVSPropertyOp31
 70
     1
102
RTVSPropertyOp32
 70
     1
102
RTVSPropertyOp33
 70
     1
102
RTVSPropertyOp34
 70
     1
102
RTVSPropertyOp35
 70
     1
102
RTVSPropertyOp36
 70
     1
102
RTVSPropertyOp37
 70
     1
102
RTVSPropertyOp38
 70
     1
102
RTVSPropertyOp39
 70
     1
102
RTVSPropertyOp40
 70
     1
102
RTVSPropertyOp41
 70
     1
102
RTVSPropertyOp42
 70
     1
102
RTVSPropertyOp43
 70
     1
102
RTVSPropertyOp44
 70
     1
102
RTVSPropertyOp45
 70
     1
102
RTVSPropertyOp46
 70
     1
102
RTVSPropertyOp47
 70
     1
102
RTVSPropertyOp48
 70
     1
102
RTVSPropertyOp49
 70
     1
102
RTVSPropertyOp50
 70
     1
102
RTVSPropertyOp51
 70
     0
102
RTVSPropertyOp52
 70
     0
102
RTVSPropertyOp53
 70
     1
102
RTVSPropertyOp54
 70
     1
102
RTVSPropertyOp55
 70
     1
102
RTVSPropertyOp56
 70
     1
102
RTVSPropertyOp57
 70
     1
102
RTVSPost2010Prop28
280
     0
102
RTVSPost2010PropOp28
 70
     1
102
RTVSPost2010Prop29
280
     1
102
RTVSPost2010PropOp29
 70
     1
102
RTVSPost2010Prop30
280
     1
102
RTVSPost2010PropOp30
 70
     1
102
RTVSPost2010Prop31
280
     0
102
RTVSPost2010PropOp31
 70
     1
102
RTVSPost2010Prop32
280
     0
102
RTVSPost2010PropOp32
 70
     1
102
RTVSPost2010Prop33
280
     0
102
RTVSPost2010PropOp33
 70
     1
102
RTVSPost2010Prop34
280
     0
102
RTVSPost2010PropOp34
 70
     1
102
RTVSPost2010Prop35
280
     0
102
RTVSPost2010PropOp35
 70
     1
102
RTVSPost2010Prop36
280
     0
102
RTVSPost2010PropOp36
 70
     1
102
RTVSPost2010Prop37
 90
       50
102
RTVSPost2010PropOp37
 70
     1
102
RTVSPost2010Prop38
140
0.0
102
RTVSPost2010PropOp38
 70
     1
102
RTVSPost2010Prop39
140
1.0
102
RTVSPost2010PropOp39
 70
     1
102
RTVSPost2010Prop40
 90
        0
102
RTVSPost2010PropOp40
 70
     1
102
RTVSPost2010Prop41ColorIndex
 90
       18
102
RTVSPost2010Prop41ColorRGB
 90
        0
102
RTVSPost2010PropOp41
 70
     1
102
RTVSPost2010Prop42
 90
       50
102
RTVSPost2010PropOp42
 70
     1
102
RTVSPost2010Prop43
 90
        3
102
RTVSPost2010PropOp43
 70
     1
102
RTVSPost2010Prop44ColorIndex
 90
        5
102
RTVSPost2010Prop44ColorRGB
 90
      255
102
RTVSPost2010PropOp44
 70
     1
102
RTVSPost2010Prop45
280
     0
102
RTVSPost2010PropOp45
 70
     1
102
RTVSPost2010Prop46
 90
       50
102
RTVSPost2010PropOp46
 70
     1
102
RTVSPost2010Prop47
 90
       50
102
RTVSPost2010PropOp47
 70
     1
102
RTVSPost2010Prop48
 90
       50
102
RTVSPost2010PropOp48
 70
     1
102
RTVSPost2010Prop49
280
     0
102
RTVSPost2010PropOp49
 70
     1
102
RTVSPost2010Prop50
 90
       50
102
RTVSPost2010PropOp50
 70
     1
102
RTVSPost2010Prop51ColorIndex
 90
      256
102
RTVSPost2010Prop51ColorRGB
 90
-16777216
102
RTVSPost2010PropOp51
 70
     0
102
RTVSPost2010Prop52
140
1.0
102
RTVSPost2010PropOp52
 70
     0
102
RTVSPost2010Prop53
 90
        2
102
RTVSPost2010PropOp53
 70
     1
102
RTVSPost2010Prop54
  1
strokes_ogs.tif
102
RTVSPost2010PropOp54
 70
     1
102
RTVSPost2010Prop55
280
     0
102
RTVSPost2010PropOp55
 70
     1
102
RTVSPost2010Prop56
140
1.0
102
RTVSPost2010PropOp56
 70
     1
102
RTVSPost2010Prop57
140
1.0
102
RTVSPost2010PropOp57
 70
     1
  0
XRECORD
  5
4D1
102
{ACAD_REACTORS
330
4D0
102
}
330
4D0
100
AcDbXrecord
280
     1
102
RTVSPropertyOp0
 70
     1
102
RTVSPropertyOp1
 70
     1
102
RTVSPropertyOp2
 70
     1
102
RTVSPropertyOp3
 70
     1
102
RTVSPropertyOp4
 70
     1
102
RTVSPropertyOp5
 70
     1
102
RTVSPropertyOp6
 70
     1
102
RTVSPropertyOp7
 70
     1
102
RTVSPropertyOp8
 70
     1
102
RTVSPropertyOp9
 70
     1
102
RTVSPropertyOp10
 70
     1
102
RTVSPropertyOp11
 70
     1
102
RTVSPropertyOp12
 70
     1
102
RTVSPropertyOp13
 70
     1
102
RTVSPropertyOp14
 70
     1
102
RTVSPropertyOp15
 70
     1
102
RTVSPropertyOp16
 70
     1
102
RTVSPropertyOp17
 70
     1
102
RTVSPropertyOp18
 70
     1
102
RTVSPropertyOp19
 70
     1
102
RTVSPropertyOp20
 70
     1
102
RTVSPropertyOp21
 70
     1
102
RTVSPropertyOp22
 70
     1
102
RTVSPropertyOp23
 70
     1
102
RTVSPropertyOp24
 70
     1
102
RTVSPropertyOp25
 70
     1
102
RTVSPropertyOp26
 70
     1
102
RTVSPropertyOp27
 70
     1
102
RTVSPropertyOp28
 70
     1
102
RTVSPropertyOp29
 70
     1
102
RTVSPropertyOp30
 70
     1
102
RTVSPropertyOp31
 70
     1
102
RTVSPropertyOp32
 70
     1
102
RTVSPropertyOp33
 70
     1
102
RTVSPropertyOp34
 70
     1
102
RTVSPropertyOp35
 70
     1
102
RTVSPropertyOp36
 70
     1
102
RTVSPropertyOp37
 70
     1
102
RTVSPropertyOp38
 70
     1
102
RTVSPropertyOp39
 70
     1
102
RTVSPropertyOp40
 70
     1
102
RTVSPropertyOp41
 70
     1
102
RTVSPropertyOp42
 70
     1
102
RTVSPropertyOp43
 70
     1
102
RTVSPropertyOp44
 70
     1
102
RTVSPropertyOp45
 70
     1
102
RTVSPropertyOp46
 70
     1
102
RTVSPropertyOp47
 70
     1
102
RTVSPropertyOp48
 70
     1
102
RTVSPropertyOp49
 70
     1
102
RTVSPropertyOp50
 70
     1
102
RTVSPropertyOp51
 70
     0
102
RTVSPropertyOp52
 70
     0
102
RTVSPropertyOp53
 70
     1
102
RTVSPropertyOp54
 70
     1
102
RTVSPropertyOp55
 70
     1
102
RTVSPropertyOp56
 70
     1
102
RTVSPropertyOp57
 70
     1
102
RTVSPost2010Prop28
280
     0
102
RTVSPost2010PropOp28
 70
     1
102
RTVSPost2010Prop29
280
     1
102
RTVSPost2010PropOp29
 70
     1
102
RTVSPost2010Prop30
280
     1
102
RTVSPost2010PropOp30
 70
     1
102
RTVSPost2010Prop31
280
     0
102
RTVSPost2010PropOp31
 70
     1
102
RTVSPost2010Prop32
280
     0
102
RTVSPost2010PropOp32
 70
     1
102
RTVSPost2010Prop33
280
     0
102
RTVSPost2010PropOp33
 70
     1
102
RTVSPost2010Prop34
280
     0
102
RTVSPost2010PropOp34
 70
     1
102
RTVSPost2010Prop35
280
     0
102
RTVSPost2010PropOp35
 70
     1
102
RTVSPost2010Prop36
280
     0
102
RTVSPost2010PropOp36
 70
     1
102
RTVSPost2010Prop37
 90
       50
102
RTVSPost2010PropOp37
 70
     1
102
RTVSPost2010Prop38
140
0.0
102
RTVSPost2010PropOp38
 70
     1
102
RTVSPost2010Prop39
140
1.0
102
RTVSPost2010PropOp39
 70
     1
102
RTVSPost2010Prop40
 90
        0
102
RTVSPost2010PropOp40
 70
     1
102
RTVSPost2010Prop41ColorIndex
 90
       18
102
RTVSPost2010Prop41ColorRGB
 90
        0
102
RTVSPost2010PropOp41
 70
     1
102
RTVSPost2010Prop42
 90
       50
102
RTVSPost2010PropOp42
 70
     1
102
RTVSPost2010Prop43
 90
        3
102
RTVSPost2010PropOp43
 70
     1
102
RTVSPost2010Prop44ColorIndex
 90
        5
102
RTVSPost2010Prop44ColorRGB
 90
      255
102
RTVSPost2010PropOp44
 70
     1
102
RTVSPost2010Prop45
280
     0
102
RTVSPost2010PropOp45
 70
     1
102
RTVSPost2010Prop46
 90
       50
102
RTVSPost2010PropOp46
 70
     1
102
RTVSPost2010Prop47
 90
       50
102
RTVSPost2010PropOp47
 70
     1
102
RTVSPost2010Prop48
 90
       50
102
RTVSPost2010PropOp48
 70
     1
102
RTVSPost2010Prop49
280
     0
102
RTVSPost2010PropOp49
 70
     1
102
RTVSPost2010Prop50
 90
       50
102
RTVSPost2010PropOp50
 70
     1
102
RTVSPost2010Prop51ColorIndex
 90
      256
102
RTVSPost2010Prop51ColorRGB
 90
-16777216
102
RTVSPost2010PropOp51
 70
     0
102
RTVSPost2010Prop52
140
1.0
102
RTVSPost2010PropOp52
 70
     0
102
RTVSPost2010Prop53
 90
        2
102
RTVSPost2010PropOp53
 70
     1
102
RTVSPost2010Prop54
  1
strokes_ogs.tif
102
RTVSPost2010PropOp54
 70
     1
102
RTVSPost2010Prop55
280
     0
102
RTVSPost2010PropOp55
 70
     1
102
RTVSPost2010Prop56
140
1.0
102
RTVSPost2010PropOp56
 70
     1
102
RTVSPost2010Prop57
140
1.0
102
RTVSPost2010PropOp57
 70
     1
  0
XRECORD
  5
4D3
102
{ACAD_REACTORS
330
4D2
102
}
330
4D2
100
AcDbXrecord
280
     1
102
RTVSPropertyOp0
 70
     1
102
RTVSPropertyOp1
 70
     1
102
RTVSPropertyOp2
 70
     1
102
RTVSPropertyOp3
 70
     1
102
RTVSPropertyOp4
 70
     1
102
RTVSPropertyOp5
 70
     1
102
RTVSPropertyOp6
 70
     1
102
RTVSPropertyOp7
 70
     1
102
RTVSPropertyOp8
 70
     1
102
RTVSPropertyOp9
 70
     1
102
RTVSPropertyOp10
 70
     1
102
RTVSPropertyOp11
 70
     1
102
RTVSPropertyOp12
 70
     1
102
RTVSPropertyOp13
 70
     1
102
RTVSPropertyOp14
 70
     1
102
RTVSPropertyOp15
 70
     1
102
RTVSPropertyOp16
 70
     1
102
RTVSPropertyOp17
 70
     1
102
RTVSPropertyOp18
 70
     1
102
RTVSPropertyOp19
 70
     1
102
RTVSPropertyOp20
 70
     1
102
RTVSPropertyOp21
 70
     1
102
RTVSPropertyOp22
 70
     1
102
RTVSPropertyOp23
 70
     1
102
RTVSPropertyOp24
 70
     1
102
RTVSPropertyOp25
 70
     1
102
RTVSPropertyOp26
 70
     1
102
RTVSPropertyOp27
 70
     1
102
RTVSPropertyOp28
 70
     1
102
RTVSPropertyOp29
 70
     1
102
RTVSPropertyOp30
 70
     1
102
RTVSPropertyOp31
 70
     1
102
RTVSPropertyOp32
 70
     1
102
RTVSPropertyOp33
 70
     1
102
RTVSPropertyOp34
 70
     1
102
RTVSPropertyOp35
 70
     1
102
RTVSPropertyOp36
 70
     1
102
RTVSPropertyOp37
 70
     1
102
RTVSPropertyOp38
 70
     1
102
RTVSPropertyOp39
 70
     1
102
RTVSPropertyOp40
 70
     1
102
RTVSPropertyOp41
 70
     1
102
RTVSPropertyOp42
 70
     1
102
RTVSPropertyOp43
 70
     1
102
RTVSPropertyOp44
 70
     1
102
RTVSPropertyOp45
 70
     1
102
RTVSPropertyOp46
 70
     1
102
RTVSPropertyOp47
 70
     1
102
RTVSPropertyOp48
 70
     1
102
RTVSPropertyOp49
 70
     1
102
RTVSPropertyOp50
 70
     1
102
RTVSPropertyOp51
 70
     0
102
RTVSPropertyOp52
 70
     0
102
RTVSPropertyOp53
 70
     1
102
RTVSPropertyOp54
 70
     1
102
RTVSPropertyOp55
 70
     1
102
RTVSPropertyOp56
 70
     1
102
RTVSPropertyOp57
 70
     1
102
RTVSPost2010Prop28
280
     0
102
RTVSPost2010PropOp28
 70
     1
102
RTVSPost2010Prop29
280
     1
102
RTVSPost2010PropOp29
 70
     1
102
RTVSPost2010Prop30
280
     1
102
RTVSPost2010PropOp30
 70
     1
102
RTVSPost2010Prop31
280
     0
102
RTVSPost2010PropOp31
 70
     1
102
RTVSPost2010Prop32
280
     0
102
RTVSPost2010PropOp32
 70
     1
102
RTVSPost2010Prop33
280
     0
102
RTVSPost2010PropOp33
 70
     1
102
RTVSPost2010Prop34
280
     0
102
RTVSPost2010PropOp34
 70
     1
102
RTVSPost2010Prop35
280
     0
102
RTVSPost2010PropOp35
 70
     1
102
RTVSPost2010Prop36
280
     0
102
RTVSPost2010PropOp36
 70
     1
102
RTVSPost2010Prop37
 90
       50
102
RTVSPost2010PropOp37
 70
     1
102
RTVSPost2010Prop38
140
0.0
102
RTVSPost2010PropOp38
 70
     1
102
RTVSPost2010Prop39
140
1.0
102
RTVSPost2010PropOp39
 70
     1
102
RTVSPost2010Prop40
 90
        0
102
RTVSPost2010PropOp40
 70
     1
102
RTVSPost2010Prop41ColorIndex
 90
       18
102
RTVSPost2010Prop41ColorRGB
 90
        0
102
RTVSPost2010PropOp41
 70
     1
102
RTVSPost2010Prop42
 90
       50
102
RTVSPost2010PropOp42
 70
     1
102
RTVSPost2010Prop43
 90
        3
102
RTVSPost2010PropOp43
 70
     1
102
RTVSPost2010Prop44ColorIndex
 90
        5
102
RTVSPost2010Prop44ColorRGB
 90
      255
102
RTVSPost2010PropOp44
 70
     1
102
RTVSPost2010Prop45
280
     0
102
RTVSPost2010PropOp45
 70
     1
102
RTVSPost2010Prop46
 90
       50
102
RTVSPost2010PropOp46
 70
     1
102
RTVSPost2010Prop47
 90
       50
102
RTVSPost2010PropOp47
 70
     1
102
RTVSPost2010Prop48
 90
       50
102
RTVSPost2010PropOp48
 70
     1
102
RTVSPost2010Prop49
280
     0
102
RTVSPost2010PropOp49
 70
     1
102
RTVSPost2010Prop50
 90
       50
102
RTVSPost2010PropOp50
 70
     1
102
RTVSPost2010Prop51ColorIndex
 90
      256
102
RTVSPost2010Prop51ColorRGB
 90
-16777216
102
RTVSPost2010PropOp51
 70
     0
102
RTVSPost2010Prop52
140
1.0
102
RTVSPost2010PropOp52
 70
     0
102
RTVSPost2010Prop53
 90
        2
102
RTVSPost2010PropOp53
 70
     1
102
RTVSPost2010Prop54
  1
strokes_ogs.tif
102
RTVSPost2010PropOp54
 70
     1
102
RTVSPost2010Prop55
280
     0
102
RTVSPost2010PropOp55
 70
     1
102
RTVSPost2010Prop56
140
1.0
102
RTVSPost2010PropOp56
 70
     1
102
RTVSPost2010Prop57
140
1.0
102
RTVSPost2010PropOp57
 70
     1
  0
XRECORD
  5
4D9
102
{ACAD_REACTORS
330
4D8
102
}
330
4D8
100
AcDbXrecord
280
     1
102
RTVSPropertyOp0
 70
     1
102
RTVSPropertyOp1
 70
     1
102
RTVSPropertyOp2
 70
     1
102
RTVSPropertyOp3
 70
     1
102
RTVSPropertyOp4
 70
     1
102
RTVSPropertyOp5
 70
     1
102
RTVSPropertyOp6
 70
     1
102
RTVSPropertyOp7
 70
     1
102
RTVSPropertyOp8
 70
     1
102
RTVSPropertyOp9
 70
     1
102
RTVSPropertyOp10
 70
     1
102
RTVSPropertyOp11
 70
     1
102
RTVSPropertyOp12
 70
     1
102
RTVSPropertyOp13
 70
     1
102
RTVSPropertyOp14
 70
     1
102
RTVSPropertyOp15
 70
     1
102
RTVSPropertyOp16
 70
     1
102
RTVSPropertyOp17
 70
     1
102
RTVSPropertyOp18
 70
     1
102
RTVSPropertyOp19
 70
     1
102
RTVSPropertyOp20
 70
     1
102
RTVSPropertyOp21
 70
     1
102
RTVSPropertyOp22
 70
     1
102
RTVSPropertyOp23
 70
     1
102
RTVSPropertyOp24
 70
     1
102
RTVSPropertyOp25
 70
     1
102
RTVSPropertyOp26
 70
     1
102
RTVSPropertyOp27
 70
     1
102
RTVSPropertyOp28
 70
     1
102
RTVSPropertyOp29
 70
     1
102
RTVSPropertyOp30
 70
     1
102
RTVSPropertyOp31
 70
     1
102
RTVSPropertyOp32
 70
     1
102
RTVSPropertyOp33
 70
     1
102
RTVSPropertyOp34
 70
     1
102
RTVSPropertyOp35
 70
     1
102
RTVSPropertyOp36
 70
     1
102
RTVSPropertyOp37
 70
     1
102
RTVSPropertyOp38
 70
     1
102
RTVSPropertyOp39
 70
     1
102
RTVSPropertyOp40
 70
     1
102
RTVSPropertyOp41
 70
     1
102
RTVSPropertyOp42
 70
     1
102
RTVSPropertyOp43
 70
     1
102
RTVSPropertyOp44
 70
     1
102
RTVSPropertyOp45
 70
     1
102
RTVSPropertyOp46
 70
     1
102
RTVSPropertyOp47
 70
     1
102
RTVSPropertyOp48
 70
     1
102
RTVSPropertyOp49
 70
     1
102
RTVSPropertyOp50
 70
     1
102
RTVSPropertyOp51
 70
     0
102
RTVSPropertyOp52
 70
     0
102
RTVSPropertyOp53
 70
     1
102
RTVSPropertyOp54
 70
     1
102
RTVSPropertyOp55
 70
     1
102
RTVSPropertyOp56
 70
     1
102
RTVSPropertyOp57
 70
     1
102
RTVSPost2010Prop28
280
     0
102
RTVSPost2010PropOp28
 70
     1
102
RTVSPost2010Prop29
280
     1
102
RTVSPost2010PropOp29
 70
     1
102
RTVSPost2010Prop30
280
     1
102
RTVSPost2010PropOp30
 70
     1
102
RTVSPost2010Prop31
280
     0
102
RTVSPost2010PropOp31
 70
     1
102
RTVSPost2010Prop32
280
     0
102
RTVSPost2010PropOp32
 70
     1
102
RTVSPost2010Prop33
280
     0
102
RTVSPost2010PropOp33
 70
     1
102
RTVSPost2010Prop34
280
     0
102
RTVSPost2010PropOp34
 70
     1
102
RTVSPost2010Prop35
280
     0
102
RTVSPost2010PropOp35
 70
     1
102
RTVSPost2010Prop36
280
     0
102
RTVSPost2010PropOp36
 70
     1
102
RTVSPost2010Prop37
 90
       50
102
RTVSPost2010PropOp37
 70
     1
102
RTVSPost2010Prop38
140
0.0
102
RTVSPost2010PropOp38
 70
     1
102
RTVSPost2010Prop39
140
1.0
102
RTVSPost2010PropOp39
 70
     1
102
RTVSPost2010Prop40
 90
        0
102
RTVSPost2010PropOp40
 70
     1
102
RTVSPost2010Prop41ColorIndex
 90
       18
102
RTVSPost2010Prop41ColorRGB
 90
        0
102
RTVSPost2010PropOp41
 70
     1
102
RTVSPost2010Prop42
 90
       50
102
RTVSPost2010PropOp42
 70
     1
102
RTVSPost2010Prop43
 90
        3
102
RTVSPost2010PropOp43
 70
     1
102
RTVSPost2010Prop44ColorIndex
 90
        5
102
RTVSPost2010Prop44ColorRGB
 90
      255
102
RTVSPost2010PropOp44
 70
     1
102
RTVSPost2010Prop45
280
     0
102
RTVSPost2010PropOp45
 70
     1
102
RTVSPost2010Prop46
 90
       50
102
RTVSPost2010PropOp46
 70
     1
102
RTVSPost2010Prop47
 90
       50
102
RTVSPost2010PropOp47
 70
     1
102
RTVSPost2010Prop48
 90
       50
102
RTVSPost2010PropOp48
 70
     1
102
RTVSPost2010Prop49
280
     0
102
RTVSPost2010PropOp49
 70
     1
102
RTVSPost2010Prop50
 90
       50
102
RTVSPost2010PropOp50
 70
     1
102
RTVSPost2010Prop51ColorIndex
 90
      256
102
RTVSPost2010Prop51ColorRGB
 90
-16777216
102
RTVSPost2010PropOp51
 70
     0
102
RTVSPost2010Prop52
140
1.0
102
RTVSPost2010PropOp52
 70
     0
102
RTVSPost2010Prop53
 90
        2
102
RTVSPost2010PropOp53
 70
     1
102
RTVSPost2010Prop54
  1
strokes_ogs.tif
102
RTVSPost2010PropOp54
 70
     1
102
RTVSPost2010Prop55
280
     0
102
RTVSPost2010PropOp55
 70
     1
102
RTVSPost2010Prop56
140
1.0
102
RTVSPost2010PropOp56
 70
     1
102
RTVSPost2010Prop57
140
1.0
102
RTVSPost2010PropOp57
 70
     1
  0
XRECORD
  5
4ED
102
{ACAD_REACTORS
330
4EC
102
}
330
4EC
100
AcDbXrecord
280
     1
102
RTVSPropertyOp0
 70
     0
102
RTVSPropertyOp1
 70
     0
102
RTVSPropertyOp2
 70
     0
102
RTVSPropertyOp3
 70
     0
102
RTVSPropertyOp4
 70
     0
102
RTVSPropertyOp5
 70
     0
102
RTVSPropertyOp6
 70
     0
102
RTVSPropertyOp7
 70
     0
102
RTVSPropertyOp8
 70
     0
102
RTVSPropertyOp9
 70
     0
102
RTVSPropertyOp10
 70
     0
102
RTVSPropertyOp11
 70
     0
102
RTVSPropertyOp12
 70
     0
102
RTVSPropertyOp13
 70
     0
102
RTVSPropertyOp14
 70
     2
102
RTVSPropertyOp15
 70
     0
102
RTVSPropertyOp16
 70
     0
102
RTVSPropertyOp17
 70
     0
102
RTVSPropertyOp18
 70
     0
102
RTVSPropertyOp19
 70
     0
102
RTVSPropertyOp20
 70
     0
102
RTVSPropertyOp21
 70
     0
102
RTVSPropertyOp22
 70
     0
102
RTVSPropertyOp23
 70
     0
102
RTVSPropertyOp24
 70
     0
102
RTVSPropertyOp25
 70
     0
102
RTVSPropertyOp26
 70
     0
102
RTVSPropertyOp27
 70
     0
102
RTVSPropertyOp28
 70
     0
102
RTVSPropertyOp29
 70
     0
102
RTVSPropertyOp30
 70
     0
102
RTVSPropertyOp31
 70
     0
102
RTVSPropertyOp32
 70
     0
102
RTVSPropertyOp33
 70
     0
102
RTVSPropertyOp34
 70
     0
102
RTVSPropertyOp35
 70
     0
102
RTVSPropertyOp36
 70
     0
102
RTVSPropertyOp37
 70
     0
102
RTVSPropertyOp38
 70
     0
102
RTVSPropertyOp39
 70
     0
102
RTVSPropertyOp40
 70
     0
102
RTVSPropertyOp41
 70
     0
102
RTVSPropertyOp42
 70
     0
102
RTVSPropertyOp43
 70
     0
102
RTVSPropertyOp44
 70
     0
102
RTVSPropertyOp45
 70
     0
102
RTVSPropertyOp46
 70
     0
102
RTVSPropertyOp47
 70
     0
102
RTVSPropertyOp48
 70
     0
102
RTVSPropertyOp49
 70
     0
102
RTVSPropertyOp50
 70
     0
102
RTVSPropertyOp51
 70
     0
102
RTVSPropertyOp52
 70
     0
102
RTVSPropertyOp53
 70
     0
102
RTVSPropertyOp54
 70
     0
102
RTVSPropertyOp55
 70
     0
102
RTVSPropertyOp56
 70
     0
102
RTVSPropertyOp57
 70
     0
102
RTVSPost2010Prop28
280
     0
102
RTVSPost2010PropOp28
 70
     0
102
RTVSPost2010Prop29
280
     1
102
RTVSPost2010PropOp29
 70
     0
102
RTVSPost2010Prop30
280
     1
102
RTVSPost2010PropOp30
 70
     0
102
RTVSPost2010Prop31
280
     0
102
RTVSPost2010PropOp31
 70
     0
102
RTVSPost2010Prop32
280
     0
102
RTVSPost2010PropOp32
 70
     0
102
RTVSPost2010Prop33
280
     0
102
RTVSPost2010PropOp33
 70
     0
102
RTVSPost2010Prop34
280
     0
102
RTVSPost2010PropOp34
 70
     0
102
RTVSPost2010Prop35
280
     0
102
RTVSPost2010PropOp35
 70
     0
102
RTVSPost2010Prop36
280
     0
102
RTVSPost2010PropOp36
 70
     0
102
RTVSPost2010Prop37
 90
       50
102
RTVSPost2010PropOp37
 70
     0
102
RTVSPost2010Prop38
140
0.0
102
RTVSPost2010PropOp38
 70
     0
102
RTVSPost2010Prop39
140
1.0
102
RTVSPost2010PropOp39
 70
     0
102
RTVSPost2010Prop40
 90
        0
102
RTVSPost2010PropOp40
 70
     0
102
RTVSPost2010Prop41ColorIndex
 90
       18
102
RTVSPost2010Prop41ColorRGB
 90
        0
102
RTVSPost2010PropOp41
 70
     0
102
RTVSPost2010Prop42
 90
       50
102
RTVSPost2010PropOp42
 70
     0
102
RTVSPost2010Prop43
 90
        3
102
RTVSPost2010PropOp43
 70
     0
102
RTVSPost2010Prop44ColorIndex
 90
        5
102
RTVSPost2010Prop44ColorRGB
 90
      255
102
RTVSPost2010PropOp44
 70
     0
102
RTVSPost2010Prop45
280
     0
102
RTVSPost2010PropOp45
 70
     0
102
RTVSPost2010Prop46
 90
       50
102
RTVSPost2010PropOp46
 70
     0
102
RTVSPost2010Prop47
 90
       50
102
RTVSPost2010PropOp47
 70
     0
102
RTVSPost2010Prop48
 90
       50
102
RTVSPost2010PropOp48
 70
     0
102
RTVSPost2010Prop49
280
     0
102
RTVSPost2010PropOp49
 70
     0
102
RTVSPost2010Prop50
 90
       50
102
RTVSPost2010PropOp50
 70
     0
102
RTVSPost2010Prop51ColorIndex
 90
      256
102
RTVSPost2010Prop51ColorRGB
 90
-16777216
102
RTVSPost2010PropOp51
 70
     0
102
RTVSPost2010Prop52
140
1.0
102
RTVSPost2010PropOp52
 70
     0
102
RTVSPost2010Prop53
 90
        2
102
RTVSPost2010PropOp53
 70
     0
102
RTVSPost2010Prop54
  1
strokes_ogs.tif
102
RTVSPost2010PropOp54
 70
     0
102
RTVSPost2010Prop55
280
     0
102
RTVSPost2010PropOp55
 70
     0
102
RTVSPost2010Prop56
140
1.0
102
RTVSPost2010PropOp56
 70
     0
102
RTVSPost2010Prop57
140
1.0
102
RTVSPost2010PropOp57
 70
     0
  0
XRECORD
  5
4E7
102
{ACAD_REACTORS
330
4E6
102
}
330
4E6
100
AcDbXrecord
280
     1
102
RTVSPropertyOp0
 70
     1
102
RTVSPropertyOp1
 70
     1
102
RTVSPropertyOp2
 70
     1
102
RTVSPropertyOp3
 70
     1
102
RTVSPropertyOp4
 70
     1
102
RTVSPropertyOp5
 70
     1
102
RTVSPropertyOp6
 70
     1
102
RTVSPropertyOp7
 70
     1
102
RTVSPropertyOp8
 70
     1
102
RTVSPropertyOp9
 70
     1
102
RTVSPropertyOp10
 70
     1
102
RTVSPropertyOp11
 70
     1
102
RTVSPropertyOp12
 70
     1
102
RTVSPropertyOp13
 70
     1
102
RTVSPropertyOp14
 70
     1
102
RTVSPropertyOp15
 70
     1
102
RTVSPropertyOp16
 70
     1
102
RTVSPropertyOp17
 70
     1
102
RTVSPropertyOp18
 70
     1
102
RTVSPropertyOp19
 70
     1
102
RTVSPropertyOp20
 70
     1
102
RTVSPropertyOp21
 70
     1
102
RTVSPropertyOp22
 70
     1
102
RTVSPropertyOp23
 70
     1
102
RTVSPropertyOp24
 70
     1
102
RTVSPropertyOp25
 70
     1
102
RTVSPropertyOp26
 70
     1
102
RTVSPropertyOp27
 70
     1
102
RTVSPropertyOp28
 70
     1
102
RTVSPropertyOp29
 70
     1
102
RTVSPropertyOp30
 70
     1
102
RTVSPropertyOp31
 70
     1
102
RTVSPropertyOp32
 70
     1
102
RTVSPropertyOp33
 70
     1
102
RTVSPropertyOp34
 70
     1
102
RTVSPropertyOp35
 70
     1
102
RTVSPropertyOp36
 70
     1
102
RTVSPropertyOp37
 70
     1
102
RTVSPropertyOp38
 70
     1
102
RTVSPropertyOp39
 70
     1
102
RTVSPropertyOp40
 70
     1
102
RTVSPropertyOp41
 70
     1
102
RTVSPropertyOp42
 70
     1
102
RTVSPropertyOp43
 70
     1
102
RTVSPropertyOp44
 70
     1
102
RTVSPropertyOp45
 70
     1
102
RTVSPropertyOp46
 70
     1
102
RTVSPropertyOp47
 70
     1
102
RTVSPropertyOp48
 70
     1
102
RTVSPropertyOp49
 70
     1
102
RTVSPropertyOp50
 70
     1
102
RTVSPropertyOp51
 70
     0
102
RTVSPropertyOp52
 70
     0
102
RTVSPropertyOp53
 70
     1
102
RTVSPropertyOp54
 70
     1
102
RTVSPropertyOp55
 70
     1
102
RTVSPropertyOp56
 70
     1
102
RTVSPropertyOp57
 70
     1
102
RTVSPost2010Prop28
280
     0
102
RTVSPost2010PropOp28
 70
     1
102
RTVSPost2010Prop29
280
     1
102
RTVSPost2010PropOp29
 70
     1
102
RTVSPost2010Prop30
280
     1
102
RTVSPost2010PropOp30
 70
     1
102
RTVSPost2010Prop31
280
     0
102
RTVSPost2010PropOp31
 70
     1
102
RTVSPost2010Prop32
280
     0
102
RTVSPost2010PropOp32
 70
     1
102
RTVSPost2010Prop33
280
     0
102
RTVSPost2010PropOp33
 70
     1
102
RTVSPost2010Prop34
280
     0
102
RTVSPost2010PropOp34
 70
     1
102
RTVSPost2010Prop35
280
     0
102
RTVSPost2010PropOp35
 70
     1
102
RTVSPost2010Prop36
280
     0
102
RTVSPost2010PropOp36
 70
     1
102
RTVSPost2010Prop37
 90
       50
102
RTVSPost2010PropOp37
 70
     1
102
RTVSPost2010Prop38
140
0.0
102
RTVSPost2010PropOp38
 70
     1
102
RTVSPost2010Prop39
140
1.0
102
RTVSPost2010PropOp39
 70
     1
102
RTVSPost2010Prop40
 90
        0
102
RTVSPost2010PropOp40
 70
     1
102
RTVSPost2010Prop41ColorIndex
 90
       18
102
RTVSPost2010Prop41ColorRGB
 90
        0
102
RTVSPost2010PropOp41
 70
     1
102
RTVSPost2010Prop42
 90
       50
102
RTVSPost2010PropOp42
 70
     1
102
RTVSPost2010Prop43
 90
        3
102
RTVSPost2010PropOp43
 70
     1
102
RTVSPost2010Prop44ColorIndex
 90
        5
102
RTVSPost2010Prop44ColorRGB
 90
      255
102
RTVSPost2010PropOp44
 70
     1
102
RTVSPost2010Prop45
280
     0
102
RTVSPost2010PropOp45
 70
     1
102
RTVSPost2010Prop46
 90
       50
102
RTVSPost2010PropOp46
 70
     1
102
RTVSPost2010Prop47
 90
       50
102
RTVSPost2010PropOp47
 70
     1
102
RTVSPost2010Prop48
 90
       50
102
RTVSPost2010PropOp48
 70
     1
102
RTVSPost2010Prop49
280
     0
102
RTVSPost2010PropOp49
 70
     1
102
RTVSPost2010Prop50
 90
       50
102
RTVSPost2010PropOp50
 70
     1
102
RTVSPost2010Prop51ColorIndex
 90
      256
102
RTVSPost2010Prop51ColorRGB
 90
-16777216
102
RTVSPost2010PropOp51
 70
     0
102
RTVSPost2010Prop52
140
1.0
102
RTVSPost2010PropOp52
 70
     0
102
RTVSPost2010Prop53
 90
        2
102
RTVSPost2010PropOp53
 70
     1
102
RTVSPost2010Prop54
  1
strokes_ogs.tif
102
RTVSPost2010PropOp54
 70
     1
102
RTVSPost2010Prop55
280
     0
102
RTVSPost2010PropOp55
 70
     1
102
RTVSPost2010Prop56
140
1.0
102
RTVSPost2010PropOp56
 70
     1
102
RTVSPost2010Prop57
140
1.0
102
RTVSPost2010PropOp57
 70
     1
  0
XRECORD
  5
4EF
102
{ACAD_REACTORS
330
4EE
102
}
330
4EE
100
AcDbXrecord
280
     1
102
RTVSPropertyOp0
 70
     0
102
RTVSPropertyOp1
 70
     0
102
RTVSPropertyOp2
 70
     0
102
RTVSPropertyOp3
 70
     0
102
RTVSPropertyOp4
 70
     0
102
RTVSPropertyOp5
 70
     0
102
RTVSPropertyOp6
 70
     0
102
RTVSPropertyOp7
 70
     0
102
RTVSPropertyOp8
 70
     0
102
RTVSPropertyOp9
 70
     0
102
RTVSPropertyOp10
 70
     0
102
RTVSPropertyOp11
 70
     0
102
RTVSPropertyOp12
 70
     0
102
RTVSPropertyOp13
 70
     0
102
RTVSPropertyOp14
 70
     2
102
RTVSPropertyOp15
 70
     0
102
RTVSPropertyOp16
 70
     0
102
RTVSPropertyOp17
 70
     0
102
RTVSPropertyOp18
 70
     0
102
RTVSPropertyOp19
 70
     0
102
RTVSPropertyOp20
 70
     0
102
RTVSPropertyOp21
 70
     0
102
RTVSPropertyOp22
 70
     0
102
RTVSPropertyOp23
 70
     0
102
RTVSPropertyOp24
 70
     0
102
RTVSPropertyOp25
 70
     0
102
RTVSPropertyOp26
 70
     0
102
RTVSPropertyOp27
 70
     0
102
RTVSPropertyOp28
 70
     0
102
RTVSPropertyOp29
 70
     0
102
RTVSPropertyOp30
 70
     0
102
RTVSPropertyOp31
 70
     0
102
RTVSPropertyOp32
 70
     0
102
RTVSPropertyOp33
 70
     0
102
RTVSPropertyOp34
 70
     0
102
RTVSPropertyOp35
 70
     0
102
RTVSPropertyOp36
 70
     0
102
RTVSPropertyOp37
 70
     0
102
RTVSPropertyOp38
 70
     0
102
RTVSPropertyOp39
 70
     0
102
RTVSPropertyOp40
 70
     0
102
RTVSPropertyOp41
 70
     0
102
RTVSPropertyOp42
 70
     0
102
RTVSPropertyOp43
 70
     0
102
RTVSPropertyOp44
 70
     0
102
RTVSPropertyOp45
 70
     0
102
RTVSPropertyOp46
 70
     0
102
RTVSPropertyOp47
 70
     0
102
RTVSPropertyOp48
 70
     0
102
RTVSPropertyOp49
 70
     0
102
RTVSPropertyOp50
 70
     0
102
RTVSPropertyOp51
 70
     0
102
RTVSPropertyOp52
 70
     0
102
RTVSPropertyOp53
 70
     0
102
RTVSPropertyOp54
 70
     0
102
RTVSPropertyOp55
 70
     0
102
RTVSPropertyOp56
 70
     0
102
RTVSPropertyOp57
 70
     0
102
RTVSPost2010Prop28
280
     0
102
RTVSPost2010PropOp28
 70
     0
102
RTVSPost2010Prop29
280
     1
102
RTVSPost2010PropOp29
 70
     0
102
RTVSPost2010Prop30
280
     1
102
RTVSPost2010PropOp30
 70
     0
102
RTVSPost2010Prop31
280
     0
102
RTVSPost2010PropOp31
 70
     0
102
RTVSPost2010Prop32
280
     0
102
RTVSPost2010PropOp32
 70
     0
102
RTVSPost2010Prop33
280
     0
102
RTVSPost2010PropOp33
 70
     0
102
RTVSPost2010Prop34
280
     0
102
RTVSPost2010PropOp34
 70
     0
102
RTVSPost2010Prop35
280
     0
102
RTVSPost2010PropOp35
 70
     0
102
RTVSPost2010Prop36
280
     0
102
RTVSPost2010PropOp36
 70
     0
102
RTVSPost2010Prop37
 90
       50
102
RTVSPost2010PropOp37
 70
     0
102
RTVSPost2010Prop38
140
0.0
102
RTVSPost2010PropOp38
 70
     0
102
RTVSPost2010Prop39
140
1.0
102
RTVSPost2010PropOp39
 70
     0
102
RTVSPost2010Prop40
 90
        0
102
RTVSPost2010PropOp40
 70
     0
102
RTVSPost2010Prop41ColorIndex
 90
       18
102
RTVSPost2010Prop41ColorRGB
 90
        0
102
RTVSPost2010PropOp41
 70
     0
102
RTVSPost2010Prop42
 90
       50
102
RTVSPost2010PropOp42
 70
     0
102
RTVSPost2010Prop43
 90
        3
102
RTVSPost2010PropOp43
 70
     0
102
RTVSPost2010Prop44ColorIndex
 90
        5
102
RTVSPost2010Prop44ColorRGB
 90
      255
102
RTVSPost2010PropOp44
 70
     0
102
RTVSPost2010Prop45
280
     0
102
RTVSPost2010PropOp45
 70
     0
102
RTVSPost2010Prop46
 90
       50
102
RTVSPost2010PropOp46
 70
     0
102
RTVSPost2010Prop47
 90
       50
102
RTVSPost2010PropOp47
 70
     0
102
RTVSPost2010Prop48
 90
       50
102
RTVSPost2010PropOp48
 70
     0
102
RTVSPost2010Prop49
280
     0
102
RTVSPost2010PropOp49
 70
     0
102
RTVSPost2010Prop50
 90
       50
102
RTVSPost2010PropOp50
 70
     0
102
RTVSPost2010Prop51ColorIndex
 90
      256
102
RTVSPost2010Prop51ColorRGB
 90
-16777216
102
RTVSPost2010PropOp51
 70
     0
102
RTVSPost2010Prop52
140
1.0
102
RTVSPost2010PropOp52
 70
     0
102
RTVSPost2010Prop53
 90
        2
102
RTVSPost2010PropOp53
 70
     0
102
RTVSPost2010Prop54
  1
strokes_ogs.tif
102
RTVSPost2010PropOp54
 70
     0
102
RTVSPost2010Prop55
280
     0
102
RTVSPost2010PropOp55
 70
     0
102
RTVSPost2010Prop56
140
1.0
102
RTVSPost2010PropOp56
 70
     0
102
RTVSPost2010Prop57
140
1.0
102
RTVSPost2010PropOp57
 70
     0
  0
XRECORD
  5
4DD
102
{ACAD_REACTORS
330
4DC
102
}
330
4DC
100
AcDbXrecord
280
     1
102
RTVSPropertyOp0
 70
     1
102
RTVSPropertyOp1
 70
     1
102
RTVSPropertyOp2
 70
     1
102
RTVSPropertyOp3
 70
     1
102
RTVSPropertyOp4
 70
     1
102
RTVSPropertyOp5
 70
     1
102
RTVSPropertyOp6
 70
     1
102
RTVSPropertyOp7
 70
     1
102
RTVSPropertyOp8
 70
     1
102
RTVSPropertyOp9
 70
     1
102
RTVSPropertyOp10
 70
     1
102
RTVSPropertyOp11
 70
     1
102
RTVSPropertyOp12
 70
     1
102
RTVSPropertyOp13
 70
     1
102
RTVSPropertyOp14
 70
     1
102
RTVSPropertyOp15
 70
     1
102
RTVSPropertyOp16
 70
     1
102
RTVSPropertyOp17
 70
     1
102
RTVSPropertyOp18
 70
     1
102
RTVSPropertyOp19
 70
     1
102
RTVSPropertyOp20
 70
     1
102
RTVSPropertyOp21
 70
     1
102
RTVSPropertyOp22
 70
     1
102
RTVSPropertyOp23
 70
     1
102
RTVSPropertyOp24
 70
     1
102
RTVSPropertyOp25
 70
     1
102
RTVSPropertyOp26
 70
     1
102
RTVSPropertyOp27
 70
     1
102
RTVSPropertyOp28
 70
     1
102
RTVSPropertyOp29
 70
     1
102
RTVSPropertyOp30
 70
     1
102
RTVSPropertyOp31
 70
     1
102
RTVSPropertyOp32
 70
     1
102
RTVSPropertyOp33
 70
     1
102
RTVSPropertyOp34
 70
     1
102
RTVSPropertyOp35
 70
     1
102
RTVSPropertyOp36
 70
     1
102
RTVSPropertyOp37
 70
     1
102
RTVSPropertyOp38
 70
     1
102
RTVSPropertyOp39
 70
     1
102
RTVSPropertyOp40
 70
     1
102
RTVSPropertyOp41
 70
     1
102
RTVSPropertyOp42
 70
     1
102
RTVSPropertyOp43
 70
     1
102
RTVSPropertyOp44
 70
     1
102
RTVSPropertyOp45
 70
     1
102
RTVSPropertyOp46
 70
     1
102
RTVSPropertyOp47
 70
     1
102
RTVSPropertyOp48
 70
     1
102
RTVSPropertyOp49
 70
     1
102
RTVSPropertyOp50
 70
     1
102
RTVSPropertyOp51
 70
     0
102
RTVSPropertyOp52
 70
     0
102
RTVSPropertyOp53
 70
     1
102
RTVSPropertyOp54
 70
     1
102
RTVSPropertyOp55
 70
     1
102
RTVSPropertyOp56
 70
     1
102
RTVSPropertyOp57
 70
     1
102
RTVSPost2010Prop28
280
     0
102
RTVSPost2010PropOp28
 70
     1
102
RTVSPost2010Prop29
280
     1
102
RTVSPost2010PropOp29
 70
     1
102
RTVSPost2010Prop30
280
     1
102
RTVSPost2010PropOp30
 70
     1
102
RTVSPost2010Prop31
280
     0
102
RTVSPost2010PropOp31
 70
     1
102
RTVSPost2010Prop32
280
     0
102
RTVSPost2010PropOp32
 70
     1
102
RTVSPost2010Prop33
280
     0
102
RTVSPost2010PropOp33
 70
     1
102
RTVSPost2010Prop34
280
     0
102
RTVSPost2010PropOp34
 70
     1
102
RTVSPost2010Prop35
280
     0
102
RTVSPost2010PropOp35
 70
     1
102
RTVSPost2010Prop36
280
     0
102
RTVSPost2010PropOp36
 70
     1
102
RTVSPost2010Prop37
 90
       50
102
RTVSPost2010PropOp37
 70
     1
102
RTVSPost2010Prop38
140
0.0
102
RTVSPost2010PropOp38
 70
     1
102
RTVSPost2010Prop39
140
1.0
102
RTVSPost2010PropOp39
 70
     1
102
RTVSPost2010Prop40
 90
        0
102
RTVSPost2010PropOp40
 70
     1
102
RTVSPost2010Prop41ColorIndex
 90
       18
102
RTVSPost2010Prop41ColorRGB
 90
        0
102
RTVSPost2010PropOp41
 70
     1
102
RTVSPost2010Prop42
 90
       50
102
RTVSPost2010PropOp42
 70
     1
102
RTVSPost2010Prop43
 90
        3
102
RTVSPost2010PropOp43
 70
     1
102
RTVSPost2010Prop44ColorIndex
 90
        5
102
RTVSPost2010Prop44ColorRGB
 90
      255
102
RTVSPost2010PropOp44
 70
     1
102
RTVSPost2010Prop45
280
     0
102
RTVSPost2010PropOp45
 70
     1
102
RTVSPost2010Prop46
 90
       50
102
RTVSPost2010PropOp46
 70
     1
102
RTVSPost2010Prop47
 90
       50
102
RTVSPost2010PropOp47
 70
     1
102
RTVSPost2010Prop48
 90
       50
102
RTVSPost2010PropOp48
 70
     1
102
RTVSPost2010Prop49
280
     0
102
RTVSPost2010PropOp49
 70
     1
102
RTVSPost2010Prop50
 90
       50
102
RTVSPost2010PropOp50
 70
     1
102
RTVSPost2010Prop51ColorIndex
 90
      256
102
RTVSPost2010Prop51ColorRGB
 90
-16777216
102
RTVSPost2010PropOp51
 70
     0
102
RTVSPost2010Prop52
140
1.0
102
RTVSPost2010PropOp52
 70
     0
102
RTVSPost2010Prop53
 90
        2
102
RTVSPost2010PropOp53
 70
     1
102
RTVSPost2010Prop54
  1
strokes_ogs.tif
102
RTVSPost2010PropOp54
 70
     1
102
RTVSPost2010Prop55
280
     0
102
RTVSPost2010PropOp55
 70
     1
102
RTVSPost2010Prop56
140
1.0
102
RTVSPost2010PropOp56
 70
     1
102
RTVSPost2010Prop57
140
1.0
102
RTVSPost2010PropOp57
 70
     1
  0
XRECORD
  5
4FB
102
{ACAD_REACTORS
330
4FA
102
}
330
4FA
100
AcDbXrecord
280
     1
102
RTVSPropertyOp0
 70
     1
102
RTVSPropertyOp1
 70
     1
102
RTVSPropertyOp2
 70
     1
102
RTVSPropertyOp3
 70
     1
102
RTVSPropertyOp4
 70
     1
102
RTVSPropertyOp5
 70
     1
102
RTVSPropertyOp6
 70
     1
102
RTVSPropertyOp7
 70
     1
102
RTVSPropertyOp8
 70
     1
102
RTVSPropertyOp9
 70
     1
102
RTVSPropertyOp10
 70
     1
102
RTVSPropertyOp11
 70
     1
102
RTVSPropertyOp12
 70
     1
102
RTVSPropertyOp13
 70
     1
102
RTVSPropertyOp14
 70
     1
102
RTVSPropertyOp15
 70
     1
102
RTVSPropertyOp16
 70
     1
102
RTVSPropertyOp17
 70
     1
102
RTVSPropertyOp18
 70
     1
102
RTVSPropertyOp19
 70
     1
102
RTVSPropertyOp20
 70
     1
102
RTVSPropertyOp21
 70
     1
102
RTVSPropertyOp22
 70
     1
102
RTVSPropertyOp23
 70
     1
102
RTVSPropertyOp24
 70
     1
102
RTVSPropertyOp25
 70
     1
102
RTVSPropertyOp26
 70
     1
102
RTVSPropertyOp27
 70
     1
102
RTVSPropertyOp28
 70
     1
102
RTVSPropertyOp29
 70
     1
102
RTVSPropertyOp30
 70
     1
102
RTVSPropertyOp31
 70
     1
102
RTVSPropertyOp32
 70
     1
102
RTVSPropertyOp33
 70
     1
102
RTVSPropertyOp34
 70
     1
102
RTVSPropertyOp35
 70
     1
102
RTVSPropertyOp36
 70
     1
102
RTVSPropertyOp37
 70
     1
102
RTVSPropertyOp38
 70
     1
102
RTVSPropertyOp39
 70
     1
102
RTVSPropertyOp40
 70
     1
102
RTVSPropertyOp41
 70
     1
102
RTVSPropertyOp42
 70
     1
102
RTVSPropertyOp43
 70
     1
102
RTVSPropertyOp44
 70
     1
102
RTVSPropertyOp45
 70
     1
102
RTVSPropertyOp46
 70
     1
102
RTVSPropertyOp47
 70
     1
102
RTVSPropertyOp48
 70
     1
102
RTVSPropertyOp49
 70
     1
102
RTVSPropertyOp50
 70
     1
102
RTVSPropertyOp51
 70
     0
102
RTVSPropertyOp52
 70
     0
102
RTVSPropertyOp53
 70
     1
102
RTVSPropertyOp54
 70
     1
102
RTVSPropertyOp55
 70
     1
102
RTVSPropertyOp56
 70
     1
102
RTVSPropertyOp57
 70
     1
102
RTVSPost2010Prop28
280
     0
102
RTVSPost2010PropOp28
 70
     1
102
RTVSPost2010Prop29
280
     1
102
RTVSPost2010PropOp29
 70
     1
102
RTVSPost2010Prop30
280
     1
102
RTVSPost2010PropOp30
 70
     1
102
RTVSPost2010Prop31
280
     0
102
RTVSPost2010PropOp31
 70
     1
102
RTVSPost2010Prop32
280
     0
102
RTVSPost2010PropOp32
 70
     1
102
RTVSPost2010Prop33
280
     0
102
RTVSPost2010PropOp33
 70
     1
102
RTVSPost2010Prop34
280
     0
102
RTVSPost2010PropOp34
 70
     1
102
RTVSPost2010Prop35
280
     0
102
RTVSPost2010PropOp35
 70
     1
102
RTVSPost2010Prop36
280
     0
102
RTVSPost2010PropOp36
 70
     1
102
RTVSPost2010Prop37
 90
       50
102
RTVSPost2010PropOp37
 70
     1
102
RTVSPost2010Prop38
140
0.0
102
RTVSPost2010PropOp38
 70
     1
102
RTVSPost2010Prop39
140
1.0
102
RTVSPost2010PropOp39
 70
     1
102
RTVSPost2010Prop40
 90
        0
102
RTVSPost2010PropOp40
 70
     1
102
RTVSPost2010Prop41ColorIndex
 90
       18
102
RTVSPost2010Prop41ColorRGB
 90
        0
102
RTVSPost2010PropOp41
 70
     1
102
RTVSPost2010Prop42
 90
       50
102
RTVSPost2010PropOp42
 70
     1
102
RTVSPost2010Prop43
 90
        3
102
RTVSPost2010PropOp43
 70
     1
102
RTVSPost2010Prop44ColorIndex
 90
        5
102
RTVSPost2010Prop44ColorRGB
 90
      255
102
RTVSPost2010PropOp44
 70
     1
102
RTVSPost2010Prop45
280
     0
102
RTVSPost2010PropOp45
 70
     1
102
RTVSPost2010Prop46
 90
       50
102
RTVSPost2010PropOp46
 70
     1
102
RTVSPost2010Prop47
 90
       50
102
RTVSPost2010PropOp47
 70
     1
102
RTVSPost2010Prop48
 90
       50
102
RTVSPost2010PropOp48
 70
     1
102
RTVSPost2010Prop49
280
     0
102
RTVSPost2010PropOp49
 70
     1
102
RTVSPost2010Prop50
 90
       50
102
RTVSPost2010PropOp50
 70
     1
102
RTVSPost2010Prop51ColorIndex
 90
      256
102
RTVSPost2010Prop51ColorRGB
 90
-16777216
102
RTVSPost2010PropOp51
 70
     0
102
RTVSPost2010Prop52
140
1.0
102
RTVSPost2010PropOp52
 70
     0
102
RTVSPost2010Prop53
 90
        2
102
RTVSPost2010PropOp53
 70
     1
102
RTVSPost2010Prop54
  1
strokes_ogs.tif
102
RTVSPost2010PropOp54
 70
     1
102
RTVSPost2010Prop55
280
     0
102
RTVSPost2010PropOp55
 70
     1
102
RTVSPost2010Prop56
140
1.0
102
RTVSPost2010PropOp56
 70
     1
102
RTVSPost2010Prop57
140
1.0
102
RTVSPost2010PropOp57
 70
     1
  0
XRECORD
  5
4F9
102
{ACAD_REACTORS
330
4F8
102
}
330
4F8
100
AcDbXrecord
280
     1
102
RTVSPropertyOp0
 70
     1
102
RTVSPropertyOp1
 70
     1
102
RTVSPropertyOp2
 70
     1
102
RTVSPropertyOp3
 70
     1
102
RTVSPropertyOp4
 70
     1
102
RTVSPropertyOp5
 70
     1
102
RTVSPropertyOp6
 70
     1
102
RTVSPropertyOp7
 70
     1
102
RTVSPropertyOp8
 70
     1
102
RTVSPropertyOp9
 70
     1
102
RTVSPropertyOp10
 70
     1
102
RTVSPropertyOp11
 70
     1
102
RTVSPropertyOp12
 70
     1
102
RTVSPropertyOp13
 70
     1
102
RTVSPropertyOp14
 70
     1
102
RTVSPropertyOp15
 70
     1
102
RTVSPropertyOp16
 70
     1
102
RTVSPropertyOp17
 70
     1
102
RTVSPropertyOp18
 70
     1
102
RTVSPropertyOp19
 70
     1
102
RTVSPropertyOp20
 70
     1
102
RTVSPropertyOp21
 70
     1
102
RTVSPropertyOp22
 70
     1
102
RTVSPropertyOp23
 70
     1
102
RTVSPropertyOp24
 70
     1
102
RTVSPropertyOp25
 70
     1
102
RTVSPropertyOp26
 70
     1
102
RTVSPropertyOp27
 70
     1
102
RTVSPropertyOp28
 70
     1
102
RTVSPropertyOp29
 70
     1
102
RTVSPropertyOp30
 70
     1
102
RTVSPropertyOp31
 70
     1
102
RTVSPropertyOp32
 70
     1
102
RTVSPropertyOp33
 70
     1
102
RTVSPropertyOp34
 70
     1
102
RTVSPropertyOp35
 70
     1
102
RTVSPropertyOp36
 70
     1
102
RTVSPropertyOp37
 70
     1
102
RTVSPropertyOp38
 70
     1
102
RTVSPropertyOp39
 70
     1
102
RTVSPropertyOp40
 70
     1
102
RTVSPropertyOp41
 70
     1
102
RTVSPropertyOp42
 70
     1
102
RTVSPropertyOp43
 70
     1
102
RTVSPropertyOp44
 70
     1
102
RTVSPropertyOp45
 70
     1
102
RTVSPropertyOp46
 70
     1
102
RTVSPropertyOp47
 70
     1
102
RTVSPropertyOp48
 70
     1
102
RTVSPropertyOp49
 70
     1
102
RTVSPropertyOp50
 70
     1
102
RTVSPropertyOp51
 70
     0
102
RTVSPropertyOp52
 70
     0
102
RTVSPropertyOp53
 70
     1
102
RTVSPropertyOp54
 70
     1
102
RTVSPropertyOp55
 70
     1
102
RTVSPropertyOp56
 70
     1
102
RTVSPropertyOp57
 70
     1
102
RTVSPost2010Prop28
280
     0
102
RTVSPost2010PropOp28
 70
     1
102
RTVSPost2010Prop29
280
     1
102
RTVSPost2010PropOp29
 70
     1
102
RTVSPost2010Prop30
280
     1
102
RTVSPost2010PropOp30
 70
     1
102
RTVSPost2010Prop31
280
     0
102
RTVSPost2010PropOp31
 70
     1
102
RTVSPost2010Prop32
280
     0
102
RTVSPost2010PropOp32
 70
     1
102
RTVSPost2010Prop33
280
     0
102
RTVSPost2010PropOp33
 70
     1
102
RTVSPost2010Prop34
280
     0
102
RTVSPost2010PropOp34
 70
     1
102
RTVSPost2010Prop35
280
     0
102
RTVSPost2010PropOp35
 70
     1
102
RTVSPost2010Prop36
280
     0
102
RTVSPost2010PropOp36
 70
     1
102
RTVSPost2010Prop37
 90
       50
102
RTVSPost2010PropOp37
 70
     1
102
RTVSPost2010Prop38
140
0.0
102
RTVSPost2010PropOp38
 70
     1
102
RTVSPost2010Prop39
140
1.0
102
RTVSPost2010PropOp39
 70
     1
102
RTVSPost2010Prop40
 90
        0
102
RTVSPost2010PropOp40
 70
     1
102
RTVSPost2010Prop41ColorIndex
 90
       18
102
RTVSPost2010Prop41ColorRGB
 90
        0
102
RTVSPost2010PropOp41
 70
     1
102
RTVSPost2010Prop42
 90
       50
102
RTVSPost2010PropOp42
 70
     1
102
RTVSPost2010Prop43
 90
        3
102
RTVSPost2010PropOp43
 70
     1
102
RTVSPost2010Prop44ColorIndex
 90
        5
102
RTVSPost2010Prop44ColorRGB
 90
      255
102
RTVSPost2010PropOp44
 70
     1
102
RTVSPost2010Prop45
280
     0
102
RTVSPost2010PropOp45
 70
     1
102
RTVSPost2010Prop46
 90
       50
102
RTVSPost2010PropOp46
 70
     1
102
RTVSPost2010Prop47
 90
       50
102
RTVSPost2010PropOp47
 70
     1
102
RTVSPost2010Prop48
 90
       50
102
RTVSPost2010PropOp48
 70
     1
102
RTVSPost2010Prop49
280
     0
102
RTVSPost2010PropOp49
 70
     1
102
RTVSPost2010Prop50
 90
       50
102
RTVSPost2010PropOp50
 70
     1
102
RTVSPost2010Prop51ColorIndex
 90
      256
102
RTVSPost2010Prop51ColorRGB
 90
-16777216
102
RTVSPost2010PropOp51
 70
     0
102
RTVSPost2010Prop52
140
1.0
102
RTVSPost2010PropOp52
 70
     0
102
RTVSPost2010Prop53
 90
        2
102
RTVSPost2010PropOp53
 70
     1
102
RTVSPost2010Prop54
  1
strokes_ogs.tif
102
RTVSPost2010PropOp54
 70
     1
102
RTVSPost2010Prop55
280
     0
102
RTVSPost2010PropOp55
 70
     1
102
RTVSPost2010Prop56
140
1.0
102
RTVSPost2010PropOp56
 70
     1
102
RTVSPost2010Prop57
140
1.0
102
RTVSPost2010PropOp57
 70
     1
  0
XRECORD
  5
4F3
102
{ACAD_REACTORS
330
4F2
102
}
330
4F2
100
AcDbXrecord
280
     1
102
RTVSPropertyOp0
 70
     1
102
RTVSPropertyOp1
 70
     1
102
RTVSPropertyOp2
 70
     1
102
RTVSPropertyOp3
 70
     1
102
RTVSPropertyOp4
 70
     1
102
RTVSPropertyOp5
 70
     1
102
RTVSPropertyOp6
 70
     1
102
RTVSPropertyOp7
 70
     1
102
RTVSPropertyOp8
 70
     1
102
RTVSPropertyOp9
 70
     1
102
RTVSPropertyOp10
 70
     1
102
RTVSPropertyOp11
 70
     1
102
RTVSPropertyOp12
 70
     1
102
RTVSPropertyOp13
 70
     1
102
RTVSPropertyOp14
 70
     1
102
RTVSPropertyOp15
 70
     1
102
RTVSPropertyOp16
 70
     1
102
RTVSPropertyOp17
 70
     1
102
RTVSPropertyOp18
 70
     1
102
RTVSPropertyOp19
 70
     1
102
RTVSPropertyOp20
 70
     1
102
RTVSPropertyOp21
 70
     1
102
RTVSPropertyOp22
 70
     1
102
RTVSPropertyOp23
 70
     1
102
RTVSPropertyOp24
 70
     1
102
RTVSPropertyOp25
 70
     1
102
RTVSPropertyOp26
 70
     1
102
RTVSPropertyOp27
 70
     1
102
RTVSPropertyOp28
 70
     1
102
RTVSPropertyOp29
 70
     1
102
RTVSPropertyOp30
 70
     1
102
RTVSPropertyOp31
 70
     1
102
RTVSPropertyOp32
 70
     1
102
RTVSPropertyOp33
 70
     1
102
RTVSPropertyOp34
 70
     1
102
RTVSPropertyOp35
 70
     1
102
RTVSPropertyOp36
 70
     1
102
RTVSPropertyOp37
 70
     1
102
RTVSPropertyOp38
 70
     1
102
RTVSPropertyOp39
 70
     1
102
RTVSPropertyOp40
 70
     1
102
RTVSPropertyOp41
 70
     1
102
RTVSPropertyOp42
 70
     1
102
RTVSPropertyOp43
 70
     1
102
RTVSPropertyOp44
 70
     1
102
RTVSPropertyOp45
 70
     1
102
RTVSPropertyOp46
 70
     1
102
RTVSPropertyOp47
 70
     1
102
RTVSPropertyOp48
 70
     1
102
RTVSPropertyOp49
 70
     1
102
RTVSPropertyOp50
 70
     1
102
RTVSPropertyOp51
 70
     0
102
RTVSPropertyOp52
 70
     0
102
RTVSPropertyOp53
 70
     1
102
RTVSPropertyOp54
 70
     1
102
RTVSPropertyOp55
 70
     1
102
RTVSPropertyOp56
 70
     1
102
RTVSPropertyOp57
 70
     1
102
RTVSPost2010Prop28
280
     0
102
RTVSPost2010PropOp28
 70
     1
102
RTVSPost2010Prop29
280
     1
102
RTVSPost2010PropOp29
 70
     1
102
RTVSPost2010Prop30
280
     1
102
RTVSPost2010PropOp30
 70
     1
102
RTVSPost2010Prop31
280
     0
102
RTVSPost2010PropOp31
 70
     1
102
RTVSPost2010Prop32
280
     0
102
RTVSPost2010PropOp32
 70
     1
102
RTVSPost2010Prop33
280
     0
102
RTVSPost2010PropOp33
 70
     1
102
RTVSPost2010Prop34
280
     0
102
RTVSPost2010PropOp34
 70
     1
102
RTVSPost2010Prop35
280
     0
102
RTVSPost2010PropOp35
 70
     1
102
RTVSPost2010Prop36
280
     0
102
RTVSPost2010PropOp36
 70
     1
102
RTVSPost2010Prop37
 90
       50
102
RTVSPost2010PropOp37
 70
     1
102
RTVSPost2010Prop38
140
0.0
102
RTVSPost2010PropOp38
 70
     1
102
RTVSPost2010Prop39
140
1.0
102
RTVSPost2010PropOp39
 70
     1
102
RTVSPost2010Prop40
 90
        0
102
RTVSPost2010PropOp40
 70
     1
102
RTVSPost2010Prop41ColorIndex
 90
       18
102
RTVSPost2010Prop41ColorRGB
 90
        0
102
RTVSPost2010PropOp41
 70
     1
102
RTVSPost2010Prop42
 90
       50
102
RTVSPost2010PropOp42
 70
     1
102
RTVSPost2010Prop43
 90
        3
102
RTVSPost2010PropOp43
 70
     1
102
RTVSPost2010Prop44ColorIndex
 90
        5
102
RTVSPost2010Prop44ColorRGB
 90
      255
102
RTVSPost2010PropOp44
 70
     1
102
RTVSPost2010Prop45
280
     0
102
RTVSPost2010PropOp45
 70
     1
102
RTVSPost2010Prop46
 90
       50
102
RTVSPost2010PropOp46
 70
     1
102
RTVSPost2010Prop47
 90
       50
102
RTVSPost2010PropOp47
 70
     1
102
RTVSPost2010Prop48
 90
       50
102
RTVSPost2010PropOp48
 70
     1
102
RTVSPost2010Prop49
280
     0
102
RTVSPost2010PropOp49
 70
     1
102
RTVSPost2010Prop50
 90
       50
102
RTVSPost2010PropOp50
 70
     1
102
RTVSPost2010Prop51ColorIndex
 90
      256
102
RTVSPost2010Prop51ColorRGB
 90
-16777216
102
RTVSPost2010PropOp51
 70
     0
102
RTVSPost2010Prop52
140
1.0
102
RTVSPost2010PropOp52
 70
     0
102
RTVSPost2010Prop53
 90
        2
102
RTVSPost2010PropOp53
 70
     1
102
RTVSPost2010Prop54
  1
strokes_ogs.tif
102
RTVSPost2010PropOp54
 70
     1
102
RTVSPost2010Prop55
280
     0
102
RTVSPost2010PropOp55
 70
     1
102
RTVSPost2010Prop56
140
1.0
102
RTVSPost2010PropOp56
 70
     1
102
RTVSPost2010Prop57
140
1.0
102
RTVSPost2010PropOp57
 70
     1
  0
XRECORD
  5
4F5
102
{ACAD_REACTORS
330
4F4
102
}
330
4F4
100
AcDbXrecord
280
     1
102
RTVSPropertyOp0
 70
     1
102
RTVSPropertyOp1
 70
     1
102
RTVSPropertyOp2
 70
     1
102
RTVSPropertyOp3
 70
     1
102
RTVSPropertyOp4
 70
     1
102
RTVSPropertyOp5
 70
     1
102
RTVSPropertyOp6
 70
     1
102
RTVSPropertyOp7
 70
     1
102
RTVSPropertyOp8
 70
     1
102
RTVSPropertyOp9
 70
     1
102
RTVSPropertyOp10
 70
     1
102
RTVSPropertyOp11
 70
     1
102
RTVSPropertyOp12
 70
     1
102
RTVSPropertyOp13
 70
     1
102
RTVSPropertyOp14
 70
     1
102
RTVSPropertyOp15
 70
     1
102
RTVSPropertyOp16
 70
     1
102
RTVSPropertyOp17
 70
     1
102
RTVSPropertyOp18
 70
     1
102
RTVSPropertyOp19
 70
     1
102
RTVSPropertyOp20
 70
     1
102
RTVSPropertyOp21
 70
     1
102
RTVSPropertyOp22
 70
     1
102
RTVSPropertyOp23
 70
     1
102
RTVSPropertyOp24
 70
     1
102
RTVSPropertyOp25
 70
     1
102
RTVSPropertyOp26
 70
     1
102
RTVSPropertyOp27
 70
     1
102
RTVSPropertyOp28
 70
     1
102
RTVSPropertyOp29
 70
     1
102
RTVSPropertyOp30
 70
     1
102
RTVSPropertyOp31
 70
     1
102
RTVSPropertyOp32
 70
     1
102
RTVSPropertyOp33
 70
     1
102
RTVSPropertyOp34
 70
     1
102
RTVSPropertyOp35
 70
     1
102
RTVSPropertyOp36
 70
     1
102
RTVSPropertyOp37
 70
     1
102
RTVSPropertyOp38
 70
     1
102
RTVSPropertyOp39
 70
     1
102
RTVSPropertyOp40
 70
     1
102
RTVSPropertyOp41
 70
     1
102
RTVSPropertyOp42
 70
     1
102
RTVSPropertyOp43
 70
     1
102
RTVSPropertyOp44
 70
     1
102
RTVSPropertyOp45
 70
     1
102
RTVSPropertyOp46
 70
     1
102
RTVSPropertyOp47
 70
     1
102
RTVSPropertyOp48
 70
     1
102
RTVSPropertyOp49
 70
     1
102
RTVSPropertyOp50
 70
     1
102
RTVSPropertyOp51
 70
     0
102
RTVSPropertyOp52
 70
     0
102
RTVSPropertyOp53
 70
     1
102
RTVSPropertyOp54
 70
     1
102
RTVSPropertyOp55
 70
     1
102
RTVSPropertyOp56
 70
     1
102
RTVSPropertyOp57
 70
     1
102
RTVSPost2010Prop28
280
     0
102
RTVSPost2010PropOp28
 70
     1
102
RTVSPost2010Prop29
280
     1
102
RTVSPost2010PropOp29
 70
     1
102
RTVSPost2010Prop30
280
     1
102
RTVSPost2010PropOp30
 70
     1
102
RTVSPost2010Prop31
280
     0
102
RTVSPost2010PropOp31
 70
     1
102
RTVSPost2010Prop32
280
     0
102
RTVSPost2010PropOp32
 70
     1
102
RTVSPost2010Prop33
280
     0
102
RTVSPost2010PropOp33
 70
     1
102
RTVSPost2010Prop34
280
     0
102
RTVSPost2010PropOp34
 70
     1
102
RTVSPost2010Prop35
280
     0
102
RTVSPost2010PropOp35
 70
     1
102
RTVSPost2010Prop36
280
     0
102
RTVSPost2010PropOp36
 70
     1
102
RTVSPost2010Prop37
 90
       50
102
RTVSPost2010PropOp37
 70
     1
102
RTVSPost2010Prop38
140
0.0
102
RTVSPost2010PropOp38
 70
     1
102
RTVSPost2010Prop39
140
1.0
102
RTVSPost2010PropOp39
 70
     1
102
RTVSPost2010Prop40
 90
        0
102
RTVSPost2010PropOp40
 70
     1
102
RTVSPost2010Prop41ColorIndex
 90
       18
102
RTVSPost2010Prop41ColorRGB
 90
        0
102
RTVSPost2010PropOp41
 70
     1
102
RTVSPost2010Prop42
 90
       50
102
RTVSPost2010PropOp42
 70
     1
102
RTVSPost2010Prop43
 90
        3
102
RTVSPost2010PropOp43
 70
     1
102
RTVSPost2010Prop44ColorIndex
 90
        5
102
RTVSPost2010Prop44ColorRGB
 90
      255
102
RTVSPost2010PropOp44
 70
     1
102
RTVSPost2010Prop45
280
     0
102
RTVSPost2010PropOp45
 70
     1
102
RTVSPost2010Prop46
 90
       50
102
RTVSPost2010PropOp46
 70
     1
102
RTVSPost2010Prop47
 90
       50
102
RTVSPost2010PropOp47
 70
     1
102
RTVSPost2010Prop48
 90
       50
102
RTVSPost2010PropOp48
 70
     1
102
RTVSPost2010Prop49
280
     0
102
RTVSPost2010PropOp49
 70
     1
102
RTVSPost2010Prop50
 90
       50
102
RTVSPost2010PropOp50
 70
     1
102
RTVSPost2010Prop51ColorIndex
 90
      256
102
RTVSPost2010Prop51ColorRGB
 90
-16777216
102
RTVSPost2010PropOp51
 70
     0
102
RTVSPost2010Prop52
140
1.0
102
RTVSPost2010PropOp52
 70
     0
102
RTVSPost2010Prop53
 90
        2
102
RTVSPost2010PropOp53
 70
     1
102
RTVSPost2010Prop54
  1
strokes_ogs.tif
102
RTVSPost2010PropOp54
 70
     1
102
RTVSPost2010Prop55
280
     0
102
RTVSPost2010PropOp55
 70
     1
102
RTVSPost2010Prop56
140
1.0
102
RTVSPost2010PropOp56
 70
     1
102
RTVSPost2010Prop57
140
1.0
102
RTVSPost2010PropOp57
 70
     1
  0
XRECORD
  5
4E5
102
{ACAD_REACTORS
330
4E4
102
}
330
4E4
100
AcDbXrecord
280
     1
102
RTVSPropertyOp0
 70
     1
102
RTVSPropertyOp1
 70
     1
102
RTVSPropertyOp2
 70
     1
102
RTVSPropertyOp3
 70
     1
102
RTVSPropertyOp4
 70
     1
102
RTVSPropertyOp5
 70
     1
102
RTVSPropertyOp6
 70
     1
102
RTVSPropertyOp7
 70
     1
102
RTVSPropertyOp8
 70
     1
102
RTVSPropertyOp9
 70
     1
102
RTVSPropertyOp10
 70
     1
102
RTVSPropertyOp11
 70
     1
102
RTVSPropertyOp12
 70
     1
102
RTVSPropertyOp13
 70
     1
102
RTVSPropertyOp14
 70
     1
102
RTVSPropertyOp15
 70
     1
102
RTVSPropertyOp16
 70
     1
102
RTVSPropertyOp17
 70
     1
102
RTVSPropertyOp18
 70
     1
102
RTVSPropertyOp19
 70
     1
102
RTVSPropertyOp20
 70
     1
102
RTVSPropertyOp21
 70
     1
102
RTVSPropertyOp22
 70
     1
102
RTVSPropertyOp23
 70
     1
102
RTVSPropertyOp24
 70
     1
102
RTVSPropertyOp25
 70
     1
102
RTVSPropertyOp26
 70
     1
102
RTVSPropertyOp27
 70
     1
102
RTVSPropertyOp28
 70
     1
102
RTVSPropertyOp29
 70
     1
102
RTVSPropertyOp30
 70
     1
102
RTVSPropertyOp31
 70
     1
102
RTVSPropertyOp32
 70
     1
102
RTVSPropertyOp33
 70
     1
102
RTVSPropertyOp34
 70
     1
102
RTVSPropertyOp35
 70
     1
102
RTVSPropertyOp36
 70
     1
102
RTVSPropertyOp37
 70
     1
102
RTVSPropertyOp38
 70
     1
102
RTVSPropertyOp39
 70
     1
102
RTVSPropertyOp40
 70
     1
102
RTVSPropertyOp41
 70
     1
102
RTVSPropertyOp42
 70
     1
102
RTVSPropertyOp43
 70
     1
102
RTVSPropertyOp44
 70
     1
102
RTVSPropertyOp45
 70
     1
102
RTVSPropertyOp46
 70
     1
102
RTVSPropertyOp47
 70
     1
102
RTVSPropertyOp48
 70
     1
102
RTVSPropertyOp49
 70
     1
102
RTVSPropertyOp50
 70
     1
102
RTVSPropertyOp51
 70
     0
102
RTVSPropertyOp52
 70
     0
102
RTVSPropertyOp53
 70
     1
102
RTVSPropertyOp54
 70
     1
102
RTVSPropertyOp55
 70
     1
102
RTVSPropertyOp56
 70
     1
102
RTVSPropertyOp57
 70
     1
102
RTVSPost2010Prop28
280
     0
102
RTVSPost2010PropOp28
 70
     1
102
RTVSPost2010Prop29
280
     1
102
RTVSPost2010PropOp29
 70
     1
102
RTVSPost2010Prop30
280
     1
102
RTVSPost2010PropOp30
 70
     1
102
RTVSPost2010Prop31
280
     0
102
RTVSPost2010PropOp31
 70
     1
102
RTVSPost2010Prop32
280
     0
102
RTVSPost2010PropOp32
 70
     1
102
RTVSPost2010Prop33
280
     0
102
RTVSPost2010PropOp33
 70
     1
102
RTVSPost2010Prop34
280
     0
102
RTVSPost2010PropOp34
 70
     1
102
RTVSPost2010Prop35
280
     0
102
RTVSPost2010PropOp35
 70
     1
102
RTVSPost2010Prop36
280
     0
102
RTVSPost2010PropOp36
 70
     1
102
RTVSPost2010Prop37
 90
       50
102
RTVSPost2010PropOp37
 70
     1
102
RTVSPost2010Prop38
140
0.0
102
RTVSPost2010PropOp38
 70
     1
102
RTVSPost2010Prop39
140
1.0
102
RTVSPost2010PropOp39
 70
     1
102
RTVSPost2010Prop40
 90
        0
102
RTVSPost2010PropOp40
 70
     1
102
RTVSPost2010Prop41ColorIndex
 90
       18
102
RTVSPost2010Prop41ColorRGB
 90
        0
102
RTVSPost2010PropOp41
 70
     1
102
RTVSPost2010Prop42
 90
       50
102
RTVSPost2010PropOp42
 70
     1
102
RTVSPost2010Prop43
 90
        3
102
RTVSPost2010PropOp43
 70
     1
102
RTVSPost2010Prop44ColorIndex
 90
        5
102
RTVSPost2010Prop44ColorRGB
 90
      255
102
RTVSPost2010PropOp44
 70
     1
102
RTVSPost2010Prop45
280
     0
102
RTVSPost2010PropOp45
 70
     1
102
RTVSPost2010Prop46
 90
       50
102
RTVSPost2010PropOp46
 70
     1
102
RTVSPost2010Prop47
 90
       50
102
RTVSPost2010PropOp47
 70
     1
102
RTVSPost2010Prop48
 90
       50
102
RTVSPost2010PropOp48
 70
     1
102
RTVSPost2010Prop49
280
     0
102
RTVSPost2010PropOp49
 70
     1
102
RTVSPost2010Prop50
 90
       50
102
RTVSPost2010PropOp50
 70
     1
102
RTVSPost2010Prop51ColorIndex
 90
      256
102
RTVSPost2010Prop51ColorRGB
 90
-16777216
102
RTVSPost2010PropOp51
 70
     0
102
RTVSPost2010Prop52
140
1.0
102
RTVSPost2010PropOp52
 70
     0
102
RTVSPost2010Prop53
 90
        2
102
RTVSPost2010PropOp53
 70
     1
102
RTVSPost2010Prop54
  1
strokes_ogs.tif
102
RTVSPost2010PropOp54
 70
     1
102
RTVSPost2010Prop55
280
     0
102
RTVSPost2010PropOp55
 70
     1
102
RTVSPost2010Prop56
140
1.0
102
RTVSPost2010PropOp56
 70
     1
102
RTVSPost2010Prop57
140
1.0
102
RTVSPost2010PropOp57
 70
     1
  0
XRECORD
  5
4D7
102
{ACAD_REACTORS
330
4D6
102
}
330
4D6
100
AcDbXrecord
280
     1
102
RTVSPropertyOp0
 70
     1
102
RTVSPropertyOp1
 70
     1
102
RTVSPropertyOp2
 70
     1
102
RTVSPropertyOp3
 70
     1
102
RTVSPropertyOp4
 70
     1
102
RTVSPropertyOp5
 70
     1
102
RTVSPropertyOp6
 70
     1
102
RTVSPropertyOp7
 70
     1
102
RTVSPropertyOp8
 70
     1
102
RTVSPropertyOp9
 70
     1
102
RTVSPropertyOp10
 70
     1
102
RTVSPropertyOp11
 70
     1
102
RTVSPropertyOp12
 70
     1
102
RTVSPropertyOp13
 70
     1
102
RTVSPropertyOp14
 70
     1
102
RTVSPropertyOp15
 70
     1
102
RTVSPropertyOp16
 70
     1
102
RTVSPropertyOp17
 70
     1
102
RTVSPropertyOp18
 70
     1
102
RTVSPropertyOp19
 70
     1
102
RTVSPropertyOp20
 70
     1
102
RTVSPropertyOp21
 70
     1
102
RTVSPropertyOp22
 70
     1
102
RTVSPropertyOp23
 70
     1
102
RTVSPropertyOp24
 70
     1
102
RTVSPropertyOp25
 70
     1
102
RTVSPropertyOp26
 70
     1
102
RTVSPropertyOp27
 70
     1
102
RTVSPropertyOp28
 70
     1
102
RTVSPropertyOp29
 70
     1
102
RTVSPropertyOp30
 70
     1
102
RTVSPropertyOp31
 70
     1
102
RTVSPropertyOp32
 70
     1
102
RTVSPropertyOp33
 70
     1
102
RTVSPropertyOp34
 70
     1
102
RTVSPropertyOp35
 70
     1
102
RTVSPropertyOp36
 70
     1
102
RTVSPropertyOp37
 70
     1
102
RTVSPropertyOp38
 70
     1
102
RTVSPropertyOp39
 70
     1
102
RTVSPropertyOp40
 70
     1
102
RTVSPropertyOp41
 70
     1
102
RTVSPropertyOp42
 70
     1
102
RTVSPropertyOp43
 70
     1
102
RTVSPropertyOp44
 70
     1
102
RTVSPropertyOp45
 70
     1
102
RTVSPropertyOp46
 70
     1
102
RTVSPropertyOp47
 70
     1
102
RTVSPropertyOp48
 70
     1
102
RTVSPropertyOp49
 70
     1
102
RTVSPropertyOp50
 70
     1
102
RTVSPropertyOp51
 70
     0
102
RTVSPropertyOp52
 70
     0
102
RTVSPropertyOp53
 70
     1
102
RTVSPropertyOp54
 70
     1
102
RTVSPropertyOp55
 70
     1
102
RTVSPropertyOp56
 70
     1
102
RTVSPropertyOp57
 70
     1
102
RTVSPost2010Prop28
280
     0
102
RTVSPost2010PropOp28
 70
     1
102
RTVSPost2010Prop29
280
     1
102
RTVSPost2010PropOp29
 70
     1
102
RTVSPost2010Prop30
280
     1
102
RTVSPost2010PropOp30
 70
     1
102
RTVSPost2010Prop31
280
     0
102
RTVSPost2010PropOp31
 70
     1
102
RTVSPost2010Prop32
280
     0
102
RTVSPost2010PropOp32
 70
     1
102
RTVSPost2010Prop33
280
     0
102
RTVSPost2010PropOp33
 70
     1
102
RTVSPost2010Prop34
280
     0
102
RTVSPost2010PropOp34
 70
     1
102
RTVSPost2010Prop35
280
     0
102
RTVSPost2010PropOp35
 70
     1
102
RTVSPost2010Prop36
280
     0
102
RTVSPost2010PropOp36
 70
     1
102
RTVSPost2010Prop37
 90
       50
102
RTVSPost2010PropOp37
 70
     1
102
RTVSPost2010Prop38
140
0.0
102
RTVSPost2010PropOp38
 70
     1
102
RTVSPost2010Prop39
140
1.0
102
RTVSPost2010PropOp39
 70
     1
102
RTVSPost2010Prop40
 90
        0
102
RTVSPost2010PropOp40
 70
     1
102
RTVSPost2010Prop41ColorIndex
 90
       18
102
RTVSPost2010Prop41ColorRGB
 90
        0
102
RTVSPost2010PropOp41
 70
     1
102
RTVSPost2010Prop42
 90
       50
102
RTVSPost2010PropOp42
 70
     1
102
RTVSPost2010Prop43
 90
        3
102
RTVSPost2010PropOp43
 70
     1
102
RTVSPost2010Prop44ColorIndex
 90
        5
102
RTVSPost2010Prop44ColorRGB
 90
      255
102
RTVSPost2010PropOp44
 70
     1
102
RTVSPost2010Prop45
280
     0
102
RTVSPost2010PropOp45
 70
     1
102
RTVSPost2010Prop46
 90
       50
102
RTVSPost2010PropOp46
 70
     1
102
RTVSPost2010Prop47
 90
       50
102
RTVSPost2010PropOp47
 70
     1
102
RTVSPost2010Prop48
 90
       50
102
RTVSPost2010PropOp48
 70
     1
102
RTVSPost2010Prop49
280
     0
102
RTVSPost2010PropOp49
 70
     1
102
RTVSPost2010Prop50
 90
       50
102
RTVSPost2010PropOp50
 70
     1
102
RTVSPost2010Prop51ColorIndex
 90
      256
102
RTVSPost2010Prop51ColorRGB
 90
-16777216
102
RTVSPost2010PropOp51
 70
     0
102
RTVSPost2010Prop52
140
1.0
102
RTVSPost2010PropOp52
 70
     0
102
RTVSPost2010Prop53
 90
        2
102
RTVSPost2010PropOp53
 70
     1
102
RTVSPost2010Prop54
  1
strokes_ogs.tif
102
RTVSPost2010PropOp54
 70
     1
102
RTVSPost2010Prop55
280
     0
102
RTVSPost2010PropOp55
 70
     1
102
RTVSPost2010Prop56
140
1.0
102
RTVSPost2010PropOp56
 70
     1
102
RTVSPost2010Prop57
140
1.0
102
RTVSPost2010PropOp57
 70
     1
  0
XRECORD
  5
4F7
102
{ACAD_REACTORS
330
4F6
102
}
330
4F6
100
AcDbXrecord
280
     1
102
RTVSPropertyOp0
 70
     1
102
RTVSPropertyOp1
 70
     1
102
RTVSPropertyOp2
 70
     1
102
RTVSPropertyOp3
 70
     1
102
RTVSPropertyOp4
 70
     1
102
RTVSPropertyOp5
 70
     1
102
RTVSPropertyOp6
 70
     1
102
RTVSPropertyOp7
 70
     1
102
RTVSPropertyOp8
 70
     1
102
RTVSPropertyOp9
 70
     1
102
RTVSPropertyOp10
 70
     1
102
RTVSPropertyOp11
 70
     1
102
RTVSPropertyOp12
 70
     1
102
RTVSPropertyOp13
 70
     1
102
RTVSPropertyOp14
 70
     1
102
RTVSPropertyOp15
 70
     1
102
RTVSPropertyOp16
 70
     1
102
RTVSPropertyOp17
 70
     1
102
RTVSPropertyOp18
 70
     1
102
RTVSPropertyOp19
 70
     1
102
RTVSPropertyOp20
 70
     1
102
RTVSPropertyOp21
 70
     1
102
RTVSPropertyOp22
 70
     1
102
RTVSPropertyOp23
 70
     1
102
RTVSPropertyOp24
 70
     1
102
RTVSPropertyOp25
 70
     1
102
RTVSPropertyOp26
 70
     1
102
RTVSPropertyOp27
 70
     1
102
RTVSPropertyOp28
 70
     1
102
RTVSPropertyOp29
 70
     1
102
RTVSPropertyOp30
 70
     1
102
RTVSPropertyOp31
 70
     1
102
RTVSPropertyOp32
 70
     1
102
RTVSPropertyOp33
 70
     1
102
RTVSPropertyOp34
 70
     1
102
RTVSPropertyOp35
 70
     1
102
RTVSPropertyOp36
 70
     1
102
RTVSPropertyOp37
 70
     1
102
RTVSPropertyOp38
 70
     1
102
RTVSPropertyOp39
 70
     1
102
RTVSPropertyOp40
 70
     1
102
RTVSPropertyOp41
 70
     1
102
RTVSPropertyOp42
 70
     1
102
RTVSPropertyOp43
 70
     1
102
RTVSPropertyOp44
 70
     1
102
RTVSPropertyOp45
 70
     1
102
RTVSPropertyOp46
 70
     1
102
RTVSPropertyOp47
 70
     1
102
RTVSPropertyOp48
 70
     1
102
RTVSPropertyOp49
 70
     1
102
RTVSPropertyOp50
 70
     1
102
RTVSPropertyOp51
 70
     0
102
RTVSPropertyOp52
 70
     0
102
RTVSPropertyOp53
 70
     1
102
RTVSPropertyOp54
 70
     1
102
RTVSPropertyOp55
 70
     1
102
RTVSPropertyOp56
 70
     1
102
RTVSPropertyOp57
 70
     1
102
RTVSPost2010Prop28
280
     0
102
RTVSPost2010PropOp28
 70
     1
102
RTVSPost2010Prop29
280
     1
102
RTVSPost2010PropOp29
 70
     1
102
RTVSPost2010Prop30
280
     1
102
RTVSPost2010PropOp30
 70
     1
102
RTVSPost2010Prop31
280
     0
102
RTVSPost2010PropOp31
 70
     1
102
RTVSPost2010Prop32
280
     0
102
RTVSPost2010PropOp32
 70
     1
102
RTVSPost2010Prop33
280
     0
102
RTVSPost2010PropOp33
 70
     1
102
RTVSPost2010Prop34
280
     0
102
RTVSPost2010PropOp34
 70
     1
102
RTVSPost2010Prop35
280
     0
102
RTVSPost2010PropOp35
 70
     1
102
RTVSPost2010Prop36
280
     0
102
RTVSPost2010PropOp36
 70
     1
102
RTVSPost2010Prop37
 90
       50
102
RTVSPost2010PropOp37
 70
     1
102
RTVSPost2010Prop38
140
0.0
102
RTVSPost2010PropOp38
 70
     1
102
RTVSPost2010Prop39
140
1.0
102
RTVSPost2010PropOp39
 70
     1
102
RTVSPost2010Prop40
 90
        0
102
RTVSPost2010PropOp40
 70
     1
102
RTVSPost2010Prop41ColorIndex
 90
       18
102
RTVSPost2010Prop41ColorRGB
 90
        0
102
RTVSPost2010PropOp41
 70
     1
102
RTVSPost2010Prop42
 90
       50
102
RTVSPost2010PropOp42
 70
     1
102
RTVSPost2010Prop43
 90
        3
102
RTVSPost2010PropOp43
 70
     1
102
RTVSPost2010Prop44ColorIndex
 90
        5
102
RTVSPost2010Prop44ColorRGB
 90
      255
102
RTVSPost2010PropOp44
 70
     1
102
RTVSPost2010Prop45
280
     0
102
RTVSPost2010PropOp45
 70
     1
102
RTVSPost2010Prop46
 90
       50
102
RTVSPost2010PropOp46
 70
     1
102
RTVSPost2010Prop47
 90
       50
102
RTVSPost2010PropOp47
 70
     1
102
RTVSPost2010Prop48
 90
       50
102
RTVSPost2010PropOp48
 70
     1
102
RTVSPost2010Prop49
280
     0
102
RTVSPost2010PropOp49
 70
     1
102
RTVSPost2010Prop50
 90
       50
102
RTVSPost2010PropOp50
 70
     1
102
RTVSPost2010Prop51ColorIndex
 90
      256
102
RTVSPost2010Prop51ColorRGB
 90
-16777216
102
RTVSPost2010PropOp51
 70
     0
102
RTVSPost2010Prop52
140
1.0
102
RTVSPost2010PropOp52
 70
     0
102
RTVSPost2010Prop53
 90
        2
102
RTVSPost2010PropOp53
 70
     1
102
RTVSPost2010Prop54
  1
strokes_ogs.tif
102
RTVSPost2010PropOp54
 70
     1
102
RTVSPost2010Prop55
280
     0
102
RTVSPost2010PropOp55
 70
     1
102
RTVSPost2010Prop56
140
1.0
102
RTVSPost2010PropOp56
 70
     1
102
RTVSPost2010Prop57
140
1.0
102
RTVSPost2010PropOp57
 70
     1
  0
ENDSEC
  0
EOF
