  0
SECTION
  2
HEADER
  9
$ACADVER
  1
AC1015
  9
$ACADMAINTVER
 70
     6
  9
$DWGCODEPAGE
  3
ANSI_932
  9
$INSBASE
 10
0.0
 20
0.0
 30
0.0
  9
$EXTMIN
 10
-218.9034468671605
 20
-175.6146753518568
 30
0.0
  9
$EXTMAX
 10
218.9034468671605
 20
191.6146753518568
 30
0.0
  9
$LIMMIN
 10
-218.9034468671605
 20
-175.6146753518568
  9
$LIMMAX
 10
218.9034468671605
 20
191.6146753518568
  9
$ORTHOMODE
 70
     0
  9
$REGENMODE
 70
     1
  9
$FILLMODE
 70
     1
  9
$QTEXTMODE
 70
     0
  9
$MIRRTEXT
 70
     1
  9
$LTSCALE
 40
1.0
  9
$ATTMODE
 70
     1
  9
$TEXTSIZE
 40
2.5
  9
$TRACEWID
 40
1.0
  9
$TEXTSTYLE
  7
Standard
  9
$CLAYER
  8
0
  9
$CELTYPE
  6
ByLayer
  9
$CECOLOR
 62
   256
  9
$CELTSCALE
 40
1.0
  9
$DISPSILH
 70
     0
  9
$DIMSCALE
 40
1.0
  9
$DIMASZ
 40
2.5
  9
$DIMEXO
 40
0.625
  9
$DIMDLI
 40
3.75
  9
$DIMRND
 40
0.0
  9
$DIMDLE
 40
0.0
  9
$DIMEXE
 40
1.25
  9
$DIMTP
 40
0.0
  9
$DIMTM
 40
0.0
  9
$DIMTXT
 40
2.5
  9
$DIMCEN
 40
2.5
  9
$DIMTSZ
 40
0.0
  9
$DIMTOL
 70
     0
  9
$DIMLIM
 70
     0
  9
$DIMTIH
 70
     0
  9
$DIMTOH
 70
     0
  9
$DIMSE1
 70
     0
  9
$DIMSE2
 70
     0
  9
$DIMTAD
 70
     1
  9
$DIMZIN
 70
     8
  9
$DIMBLK
  1
Closed
  9
$DIMASO
 70
     1
  9
$DIMSHO
 70
     1
  9
$DIMPOST
  1

  9
$DIMAPOST
  1

  9
$DIMALT
 70
     0
  9
$DIMALTD
 70
     3
  9
$DIMALTF
 40
0.039370079
  9
$DIMLFAC
 40
1.0
  9
$DIMTOFL
 70
     1
  9
$DIMTVP
 40
0.0
  9
$DIMTIX
 70
     0
  9
$DIMSOXD
 70
     0
  9
$DIMSAH
 70
     0
  9
$DIMBLK1
  1

  9
$DIMBLK2
  1

  9
$DIMSTYLE
  2
DIMSTYLE_FULLSCALE
  9
$DIMCLRD
 70
     0
  9
$DIMCLRE
 70
     0
  9
$DIMCLRT
 70
     0
  9
$DIMTFAC
 40
1.0
  9
$DIMGAP
 40
0.625
  9
$DIMJUST
 70
     0
  9
$DIMSD1
 70
     0
  9
$DIMSD2
 70
     0
  9
$DIMTOLJ
 70
     0
  9
$DIMTZIN
 70
     8
  9
$DIMALTZ
 70
     0
  9
$DIMALTTZ
 70
     0
  9
$DIMUPT
 70
     0
  9
$DIMDEC
 70
     2
  9
$DIMTDEC
 70
     2
  9
$DIMALTU
 70
     2
  9
$DIMALTTD
 70
     3
  9
$DIMTXSTY
  7
Standard
  9
$DIMAUNIT
 70
     0
  9
$DIMADEC
 70
     0
  9
$DIMALTRND
 40
0.0
  9
$DIMAZIN
 70
     0
  9
$DIMDSEP
 70
    44
  9
$DIMATFIT
 70
     3
  9
$DIMFRAC
 70
     0
  9
$DIMLDRBLK
  1
Closed
  9
$DIMLUNIT
 70
     2
  9
$DIMLWD
 70
    -2
  9
$DIMLWE
 70
    -2
  9
$DIMTMOVE
 70
     0
  9
$LUNITS
 70
     2
  9
$LUPREC
 70
     4
  9
$SKETCHINC
 40
1.0
  9
$FILLETRAD
 40
10.0
  9
$AUNITS
 70
     0
  9
$AUPREC
 70
     0
  9
$MENU
  1
.
  9
$ELEVATION
 40
0.0
  9
$PELEVATION
 40
0.0
  9
$THICKNESS
 40
0.0
  9
$LIMCHECK
 70
     0
  9
$CHAMFERA
 40
0.0
  9
$CHAMFERB
 40
0.0
  9
$CHAMFERC
 40
0.0
  9
$CHAMFERD
 40
0.0
  9
$SKPOLY
 70
     0
  9
$TDCREATE
 40
2459198.563071042
  9
$TDUCREATE
 40
2459198.188071042
  9
$TDUPDATE
 40
2459198.563071574
  9
$TDUUPDATE
 40
2459198.188071574
  9
$TDINDWG
 40
0.0000000116
  9
$TDUSRTIMER
 40
0.0000000116
  9
$USRTIMER
 70
     1
  9
$ANGBASE
 50
0.0
  9
$ANGDIR
 70
     0
  9
$PDMODE
 70
     0
  9
$PDSIZE
 40
0.0
  9
$PLINEWID
 40
0.0
  9
$SPLFRAME
 70
     0
  9
$SPLINETYPE
 70
     6
  9
$SPLINESEGS
 70
     8
  9
$HANDSEED
  5
527
  9
$SURFTAB1
 70
     6
  9
$SURFTAB2
 70
     6
  9
$SURFTYPE
 70
     6
  9
$SURFU
 70
     6
  9
$SURFV
 70
     6
  9
$UCSBASE
  2

  9
$UCSNAME
  2

  9
$UCSORG
 10
0.0
 20
0.0
 30
0.0
  9
$UCSXDIR
 10
1.0
 20
0.0
 30
0.0
  9
$UCSYDIR
 10
0.0
 20
1.0
 30
0.0
  9
$UCSORTHOREF
  2

  9
$UCSORTHOVIEW
 70
     0
  9
$UCSORGTOP
 10
0.0
 20
0.0
 30
0.0
  9
$UCSORGBOTTOM
 10
0.0
 20
0.0
 30
0.0
  9
$UCSORGLEFT
 10
0.0
 20
0.0
 30
0.0
  9
$UCSORGRIGHT
 10
0.0
 20
0.0
 30
0.0
  9
$UCSORGFRONT
 10
0.0
 20
0.0
 30
0.0
  9
$UCSORGBACK
 10
0.0
 20
0.0
 30
0.0
  9
$PUCSBASE
  2

  9
$PUCSNAME
  2

  9
$PUCSORG
 10
0.0
 20
0.0
 30
0.0
  9
$PUCSXDIR
 10
1.0
 20
0.0
 30
0.0
  9
$PUCSYDIR
 10
0.0
 20
1.0
 30
0.0
  9
$PUCSORTHOREF
  2

  9
$PUCSORTHOVIEW
 70
     0
  9
$PUCSORGTOP
 10
0.0
 20
0.0
 30
0.0
  9
$PUCSORGBOTTOM
 10
0.0
 20
0.0
 30
0.0
  9
$PUCSORGLEFT
 10
0.0
 20
0.0
 30
0.0
  9
$PUCSORGRIGHT
 10
0.0
 20
0.0
 30
0.0
  9
$PUCSORGFRONT
 10
0.0
 20
0.0
 30
0.0
  9
$PUCSORGBACK
 10
0.0
 20
0.0
 30
0.0
  9
$USERI1
 70
     0
  9
$USERI2
 70
     0
  9
$USERI3
 70
     0
  9
$USERI4
 70
     0
  9
$USERI5
 70
     0
  9
$USERR1
 40
0.0
  9
$USERR2
 40
0.0
  9
$USERR3
 40
0.0
  9
$USERR4
 40
0.0
  9
$USERR5
 40
0.0
  9
$WORLDVIEW
 70
     1
  9
$SHADEDGE
 70
     3
  9
$SHADEDIF
 70
    70
  9
$TILEMODE
 70
     1
  9
$MAXACTVP
 70
    64
  9
$PINSBASE
 10
0.0
 20
0.0
 30
0.0
  9
$PLIMCHECK
 70
     0
  9
$PEXTMIN
 10
1.000000000000000E+20
 20
1.000000000000000E+20
 30
1.000000000000000E+20
  9
$PEXTMAX
 10
-1.000000000000000E+20
 20
-1.000000000000000E+20
 30
-1.000000000000000E+20
  9
$PLIMMIN
 10
-218.9034468671605
 20
-175.6146753518568
  9
$PLIMMAX
 10
218.9034468671605
 20
191.6146753518568
  9
$UNITMODE
 70
     0
  9
$VISRETAIN
 70
     1
  9
$PLINEGEN
 70
     0
  9
$PSLTSCALE
 70
     1
  9
$TREEDEPTH
 70
  3020
  9
$CMLSTYLE
  2
Standard
  9
$CMLJUST
 70
     0
  9
$CMLSCALE
 40
20.0
  9
$PROXYGRAPHICS
 70
     1
  9
$MEASUREMENT
 70
     1
  9
$CELWEIGHT
370
    -1
  9
$ENDCAPS
280
     0
  9
$JOINSTYLE
280
     0
  9
$LWDISPLAY
290
     0
  9
$INSUNITS
 70
     4
  9
$HYPERLINKBASE
  1

  9
$STYLESHEET
  1

  9
$XEDIT
290
     1
  9
$CEPSNTYPE
380
     0
  9
$PSTYLEMODE
290
     1
  9
$FINGERPRINTGUID
  2
{d792dee1-7355-49f8-9932-3ca8c2747f20}
  9
$VERSIONGUID
  2
{FAEB1C32-E019-11D5-929B-00C0DF256EC4}
  9
$EXTNAMES
290
     1
  9
$PSVPSCALE
 40
0.0
  9
$OLESTARTUP
290
     0
  0
ENDSEC
  0
SECTION
  2
CLASSES
  0
CLASS
  1
ACDBDICTIONARYWDFLT
  2
AcDbDictionaryWithDefault
  3
ObjectDBX Classes
 90
        0
280
     0
281
     0
  0
CLASS
  1
VISUALSTYLE
  2
AcDbVisualStyle
  3
ObjectDBX Classes
 90
     4095
280
     0
281
     0
  0
CLASS
  1
MATERIAL
  2
AcDbMaterial
  3
ObjectDBX Classes
 90
     1153
280
     0
281
     0
  0
CLASS
  1
SCALE
  2
AcDbScale
  3
ObjectDBX Classes
 90
     1153
280
     0
281
     0
  0
CLASS
  1
TABLESTYLE
  2
AcDbTableStyle
  3
ObjectDBX Classes
 90
     4095
280
     0
281
     0
  0
CLASS
  1
MLEADERSTYLE
  2
AcDbMLeaderStyle
  3
ACDB_MLEADERSTYLE_CLASS
 90
     4095
280
     0
281
     0
  0
CLASS
  1
SUN
  2
AcDbSun
  3
SCENEOE
 90
     1153
280
     0
281
     0
  0
CLASS
  1
DICTIONARYVAR
  2
AcDbDictionaryVar
  3
ObjectDBX Classes
 90
        0
280
     0
281
     0
  0
CLASS
  1
ACDBPLACEHOLDER
  2
AcDbPlaceHolder
  3
ObjectDBX Classes
 90
        0
280
     0
281
     0
  0
CLASS
  1
LAYOUT
  2
AcDbLayout
  3
ObjectDBX Classes
 90
        0
280
     0
281
     0
  0
ENDSEC
  0
SECTION
  2
TABLES
  0
TABLE
  2
VPORT
  5
8
102
{ACAD_XDICTIONARY
360
4E6
102
}
330
0
100
AcDbSymbolTable
 70
     1
  0
VPORT
  5
29
330
8
100
AcDbSymbolTableRecord
100
AcDbViewportTableRecord
  2
*Active
 70
     0
 10
0.0
 20
0.0
 11
1.0
 21
1.0
 12
344.1869158878504
 22
148.5
 13
0.0
 23
0.0
 14
10.0
 24
10.0
 15
10.0
 25
10.0
 16
0.0
 26
0.0
 36
1.0
 17
0.0
 27
0.0
 37
0.0
 40
297.0
 41
1.972972972850329
 42
50.0
 43
0.0
 44
0.0
 50
0.0
 51
0.0
 71
     0
 72
   100
 73
     1
 74
     3
 75
     0
 76
     0
 77
     0
 78
     0
281
     0
 65
     1
110
0.0
120
0.0
130
0.0
111
1.0
121
0.0
131
0.0
112
0.0
122
1.0
132
0.0
 79
     0
146
0.0
  0
ENDTAB
  0
TABLE
  2
LTYPE
  5
5
330
0
100
AcDbSymbolTable
 70
     5
  0
LTYPE
  5
14
330
5
100
AcDbSymbolTableRecord
100
AcDbLinetypeTableRecord
  2
ByBlock
 70
     0
  3

 72
    65
 73
     0
 40
0.0
  0
LTYPE
  5
15
330
5
100
AcDbSymbolTableRecord
100
AcDbLinetypeTableRecord
  2
ByLayer
 70
     0
  3

 72
    65
 73
     0
 40
0.0
  0
LTYPE
  5
16
330
5
100
AcDbSymbolTableRecord
100
AcDbLinetypeTableRecord
  2
Continuous
 70
     0
  3
Solid line
 72
    65
 73
     0
 40
0.0
  0
LTYPE
  5
6E
330
5
100
AcDbSymbolTableRecord
100
AcDbLinetypeTableRecord
  2
CONTINOUS
 70
     0
  3
______________________________
 72
    65
 73
     0
 40
0.0
  0
LTYPE
  5
6F
330
5
100
AcDbSymbolTableRecord
100
AcDbLinetypeTableRecord
  2
DASHED
 70
     0
  3
__ __ __ __ __ __ __ __ __ __ __ __ __ __ __ __
 72
    65
 73
     2
 40
4.5
 49
3.0
 74
     0
 49
-1.5
 74
     0
  0
LTYPE
  5
70
330
5
100
AcDbSymbolTableRecord
100
AcDbLinetypeTableRecord
  2
PHANTOM
 70
     0
  3
______  __  __  ______  __  __  _____
 72
    65
 73
     6
 40
15.0
 49
7.5
 74
     0
 49
-1.5
 74
     0
 49
1.5
 74
     0
 49
-1.5
 74
     0
 49
1.5
 74
     0
 49
-1.5
 74
     0
  0
LTYPE
  5
71
330
5
100
AcDbSymbolTableRecord
100
AcDbLinetypeTableRecord
  2
CENTER
 70
     0
  3
____ _ ____ _ ____ _ ____ _ ____ _ ____
 72
    65
 73
     4
 40
12.0
 49
7.5
 74
     0
 49
-1.5
 74
     0
 49
1.5
 74
     0
 49
-1.5
 74
     0
  0
ENDTAB
  0
TABLE
  2
LAYER
  5
2
330
0
100
AcDbSymbolTable
 70
     3
  0
LAYER
  5
10
330
2
100
AcDbSymbolTableRecord
100
AcDbLayerTableRecord
  2
0
 70
     0
 62
     7
  6
Continuous
370
    -3
390
F
  0
LAYER
  5
2EF
330
2
100
AcDbSymbolTableRecord
100
AcDbLayerTableRecord
  2
Defpoints
 70
     0
 62
     7
  6
Continuous
290
     0
370
    -3
390
F
  0
LAYER
  5
4D9
330
2
100
AcDbSymbolTableRecord
100
AcDbLayerTableRecord
  2
VIEW0001
 70
     0
 62
     7
  6
Continuous
370
    -3
390
F
  0
ENDTAB
  0
TABLE
  2
STYLE
  5
3
330
0
100
AcDbSymbolTable
 70
     1
  0
STYLE
  5
11
330
3
100
AcDbSymbolTableRecord
100
AcDbTextStyleTableRecord
  2
Standard
 70
     0
 40
0.0
 41
1.0
 50
0.0
 71
     0
 42
2.5
  3
ROMANS
  4
EXTFONT
  0
ENDTAB
  0
TABLE
  2
VIEW
  5
6
330
0
100
AcDbSymbolTable
 70
     0
  0
ENDTAB
  0
TABLE
  2
UCS
  5
7
330
0
100
AcDbSymbolTable
 70
     0
  0
ENDTAB
  0
TABLE
  2
APPID
  5
9
330
0
100
AcDbSymbolTable
 70
     7
  0
APPID
  5
12
330
9
100
AcDbSymbolTableRecord
100
AcDbRegAppTableRecord
  2
ACAD
 70
     0
  0
APPID
  5
28C
330
9
100
AcDbSymbolTableRecord
100
AcDbRegAppTableRecord
  2
ACAD_DSTYLE_DIMJAG
 70
     0
  0
APPID
  5
4E8
330
9
100
AcDbSymbolTableRecord
100
AcDbRegAppTableRecord
  2
ACAD_DSTYLE_DIMJOGGED_JOGANGLE_SYMBOL
 70
     0
  0
APPID
  5
4E9
330
9
100
AcDbSymbolTableRecord
100
AcDbRegAppTableRecord
  2
ACAD_DSTYLE_DIM_LINETYPE
 70
     0
  0
APPID
  5
4EA
330
9
100
AcDbSymbolTableRecord
100
AcDbRegAppTableRecord
  2
ACAD_DSTYLE_DIM_EXT1_LINETYPE
 70
     0
  0
APPID
  5
4EB
330
9
100
AcDbSymbolTableRecord
100
AcDbRegAppTableRecord
  2
ACAD_DSTYLE_DIM_EXT2_LINETYPE
 70
     0
  0
APPID
  5
524
330
9
100
AcDbSymbolTableRecord
100
AcDbRegAppTableRecord
  2
ACAD_MLEADERVER
 70
     0
  0
ENDTAB
  0
TABLE
  2
DIMSTYLE
  5
A
330
0
100
AcDbSymbolTable
 70
     2
100
AcDbDimStyleTable
  0
DIMSTYLE
105
27
330
A
100
AcDbSymbolTableRecord
100
AcDbDimStyleTableRecord
  2
ISO-25
 70
     0
 41
2.5
 42
0.625
 43
3.75
 44
1.25
 73
     0
 74
     0
 77
     1
 78
     8
140
2.5
141
2.5
143
0.03937007874016
147
0.625
171
     3
172
     1
178
     0
271
     2
272
     2
274
     3
278
    44
283
     0
284
     8
340
11
  0
DIMSTYLE
105
284
102
{ACAD_REACTORS
330
2E8
330
2FC
330
309
330
316
330
323
330
334
330
341
330
34E
330
35B
330
367
330
374
330
381
330
38D
330
3A7
330
3B4
330
3C8
330
3D6
330
3E3
330
3F0
330
3FD
330
40A
330
417
330
425
330
432
330
43F
330
44C
330
459
330
466
330
473
330
480
330
48C
102
}
330
A
100
AcDbSymbolTableRecord
100
AcDbDimStyleTableRecord
  2
DIMSTYLE_FULLSCALE
 70
     0
 41
2.5
 42
0.625
 43
3.75
 44
1.25
 73
     0
 74
     0
 77
     1
 78
     8
140
2.5
141
2.5
143
0.039370079
147
0.625
171
     3
172
     1
178
     0
271
     2
272
     2
274
     3
278
    44
283
     0
284
     8
340
11
341
285
342
285
1001
ACAD_DSTYLE_DIMJAG
1070
   388
1040
1.5
1001
ACAD_DSTYLE_DIMJOGGED_JOGANGLE_SYMBOL
1070
   384
1040
1.570796326794897
1001
ACAD_DSTYLE_DIM_LINETYPE
1070
   380
1005
14
1001
ACAD_DSTYLE_DIM_EXT1_LINETYPE
1070
   381
1005
14
1001
ACAD_DSTYLE_DIM_EXT2_LINETYPE
1070
   382
1005
14
  0
ENDTAB
  0
TABLE
  2
BLOCK_RECORD
  5
1
330
0
100
AcDbSymbolTable
 70
    48
  0
BLOCK_RECORD
  5
1F
330
1
100
AcDbSymbolTableRecord
100
AcDbBlockTableRecord
  2
*Model_Space
340
22
  0
BLOCK_RECORD
  5
1B
330
1
100
AcDbSymbolTableRecord
100
AcDbBlockTableRecord
  2
*Paper_Space
340
1E
  0
BLOCK_RECORD
  5
23
330
1
100
AcDbSymbolTableRecord
100
AcDbBlockTableRecord
  2
*Paper_Space0
340
26
  0
BLOCK_RECORD
  5
72
330
1
100
AcDbSymbolTableRecord
100
AcDbBlockTableRecord
  2
USER0001
340
0
102
{BLKREFS
331
2E0
331
2E1
102
}
  0
BLOCK_RECORD
  5
75
330
1
100
AcDbSymbolTableRecord
100
AcDbBlockTableRecord
  2
DTL0001
340
0
102
{BLKREFS
331
2E2
102
}
  0
BLOCK_RECORD
  5
78
330
1
100
AcDbSymbolTableRecord
100
AcDbBlockTableRecord
  2
DTL0002
340
0
102
{BLKREFS
331
2E3
102
}
  0
BLOCK_RECORD
  5
7B
330
1
100
AcDbSymbolTableRecord
100
AcDbBlockTableRecord
  2
DTL0003
340
0
102
{BLKREFS
331
2E4
102
}
  0
BLOCK_RECORD
  5
7E
330
1
100
AcDbSymbolTableRecord
100
AcDbBlockTableRecord
  2
DTL0004
340
0
102
{BLKREFS
331
2E5
102
}
  0
BLOCK_RECORD
  5
81
330
1
100
AcDbSymbolTableRecord
100
AcDbBlockTableRecord
  2
DTL0005
340
0
102
{BLKREFS
331
2E6
102
}
  0
BLOCK_RECORD
  5
84
330
1
100
AcDbSymbolTableRecord
100
AcDbBlockTableRecord
  2
DTL0006
340
0
102
{BLKREFS
331
2E7
102
}
  0
BLOCK_RECORD
  5
285
330
1
100
AcDbSymbolTableRecord
100
AcDbBlockTableRecord
  2
_Closed
340
0
  0
BLOCK_RECORD
  5
2E9
330
1
100
AcDbSymbolTableRecord
100
AcDbBlockTableRecord
  2
_Open
340
0
102
{BLKREFS
331
2F7
331
2F6
331
304
331
303
331
311
331
310
331
31E
331
31D
331
32D
331
32C
331
33C
331
33B
331
349
331
348
331
356
331
355
331
362
331
361
331
36F
331
36E
331
37C
331
37B
331
388
331
387
331
0
331
0
331
3AF
331
3AE
331
0
331
0
331
3D1
331
3D0
331
3DE
331
3DD
331
3EB
331
3EA
331
3F8
331
3F7
331
405
331
404
331
412
331
411
331
420
331
41F
331
42D
331
42C
331
43A
331
439
331
447
331
446
331
454
331
453
331
461
331
460
331
46E
331
46D
331
47B
331
47A
331
487
331
486
331
495
331
494
102
}
  0
BLOCK_RECORD
  5
2F0
330
1
100
AcDbSymbolTableRecord
100
AcDbBlockTableRecord
  2
*D10
340
0
  0
BLOCK_RECORD
  5
2FD
330
1
100
AcDbSymbolTableRecord
100
AcDbBlockTableRecord
  2
*D11
340
0
  0
BLOCK_RECORD
  5
30A
330
1
100
AcDbSymbolTableRecord
100
AcDbBlockTableRecord
  2
*D12
340
0
  0
BLOCK_RECORD
  5
317
330
1
100
AcDbSymbolTableRecord
100
AcDbBlockTableRecord
  2
*D13
340
0
  0
BLOCK_RECORD
  5
324
330
1
100
AcDbSymbolTableRecord
100
AcDbBlockTableRecord
  2
*D14
340
0
  0
BLOCK_RECORD
  5
335
330
1
100
AcDbSymbolTableRecord
100
AcDbBlockTableRecord
  2
*D15
340
0
  0
BLOCK_RECORD
  5
342
330
1
100
AcDbSymbolTableRecord
100
AcDbBlockTableRecord
  2
*D16
340
0
  0
BLOCK_RECORD
  5
34F
330
1
100
AcDbSymbolTableRecord
100
AcDbBlockTableRecord
  2
*D17
340
0
  0
BLOCK_RECORD
  5
35C
330
1
100
AcDbSymbolTableRecord
100
AcDbBlockTableRecord
  2
*D18
340
0
  0
BLOCK_RECORD
  5
368
330
1
100
AcDbSymbolTableRecord
100
AcDbBlockTableRecord
  2
*D19
340
0
  0
BLOCK_RECORD
  5
375
330
1
100
AcDbSymbolTableRecord
100
AcDbBlockTableRecord
  2
*D20
340
0
  0
BLOCK_RECORD
  5
382
330
1
100
AcDbSymbolTableRecord
100
AcDbBlockTableRecord
  2
*D21
340
0
  0
BLOCK_RECORD
  5
38E
330
1
100
AcDbSymbolTableRecord
100
AcDbBlockTableRecord
  2
*D22
340
0
  0
BLOCK_RECORD
  5
3A8
330
1
100
AcDbSymbolTableRecord
100
AcDbBlockTableRecord
  2
*D23
340
0
  0
BLOCK_RECORD
  5
3B5
330
1
100
AcDbSymbolTableRecord
100
AcDbBlockTableRecord
  2
*D24
340
0
  0
BLOCK_RECORD
  5
3C9
330
1
100
AcDbSymbolTableRecord
100
AcDbBlockTableRecord
  2
*D25
340
0
  0
BLOCK_RECORD
  5
3D7
330
1
100
AcDbSymbolTableRecord
100
AcDbBlockTableRecord
  2
*D26
340
0
  0
BLOCK_RECORD
  5
3E4
330
1
100
AcDbSymbolTableRecord
100
AcDbBlockTableRecord
  2
*D27
340
0
  0
BLOCK_RECORD
  5
3F1
330
1
100
AcDbSymbolTableRecord
100
AcDbBlockTableRecord
  2
*D28
340
0
  0
BLOCK_RECORD
  5
3FE
330
1
100
AcDbSymbolTableRecord
100
AcDbBlockTableRecord
  2
*D29
340
0
  0
BLOCK_RECORD
  5
40B
330
1
100
AcDbSymbolTableRecord
100
AcDbBlockTableRecord
  2
*D30
340
0
  0
BLOCK_RECORD
  5
418
330
1
100
AcDbSymbolTableRecord
100
AcDbBlockTableRecord
  2
*D31
340
0
  0
BLOCK_RECORD
  5
426
330
1
100
AcDbSymbolTableRecord
100
AcDbBlockTableRecord
  2
*D32
340
0
  0
BLOCK_RECORD
  5
433
330
1
100
AcDbSymbolTableRecord
100
AcDbBlockTableRecord
  2
*D33
340
0
  0
BLOCK_RECORD
  5
440
330
1
100
AcDbSymbolTableRecord
100
AcDbBlockTableRecord
  2
*D34
340
0
  0
BLOCK_RECORD
  5
44D
330
1
100
AcDbSymbolTableRecord
100
AcDbBlockTableRecord
  2
*D35
340
0
  0
BLOCK_RECORD
  5
45A
330
1
100
AcDbSymbolTableRecord
100
AcDbBlockTableRecord
  2
*D36
340
0
  0
BLOCK_RECORD
  5
467
330
1
100
AcDbSymbolTableRecord
100
AcDbBlockTableRecord
  2
*D37
340
0
  0
BLOCK_RECORD
  5
474
330
1
100
AcDbSymbolTableRecord
100
AcDbBlockTableRecord
  2
*D38
340
0
  0
BLOCK_RECORD
  5
481
330
1
100
AcDbSymbolTableRecord
100
AcDbBlockTableRecord
  2
*D39
340
0
  0
BLOCK_RECORD
  5
48D
330
1
100
AcDbSymbolTableRecord
100
AcDbBlockTableRecord
  2
*D40
340
0
  0
BLOCK_RECORD
  5
49A
330
1
100
AcDbSymbolTableRecord
100
AcDbBlockTableRecord
  2
SYM0001
340
0
102
{BLKREFS
331
4A0
102
}
  0
BLOCK_RECORD
  5
4A3
330
1
100
AcDbSymbolTableRecord
100
AcDbBlockTableRecord
  2
SYM0002
340
0
102
{BLKREFS
331
4A9
102
}
  0
BLOCK_RECORD
  5
4AC
330
1
100
AcDbSymbolTableRecord
100
AcDbBlockTableRecord
  2
SYM0003
340
0
102
{BLKREFS
331
4B2
102
}
  0
BLOCK_RECORD
  5
4B5
330
1
100
AcDbSymbolTableRecord
100
AcDbBlockTableRecord
  2
SYM0004
340
0
102
{BLKREFS
331
4BB
102
}
  0
BLOCK_RECORD
  5
4BE
330
1
100
AcDbSymbolTableRecord
100
AcDbBlockTableRecord
  2
SYM0005
340
0
102
{BLKREFS
331
4C4
102
}
  0
BLOCK_RECORD
  5
4C7
330
1
100
AcDbSymbolTableRecord
100
AcDbBlockTableRecord
  2
SYM0006
340
0
102
{BLKREFS
331
4CD
102
}
  0
BLOCK_RECORD
  5
4D0
330
1
100
AcDbSymbolTableRecord
100
AcDbBlockTableRecord
  2
SYM0007
340
0
102
{BLKREFS
331
4D6
102
}
  0
ENDTAB
  0
ENDSEC
  0
SECTION
  2
BLOCKS
  0
BLOCK
  5
20
330
1F
100
AcDbEntity
  8
0
100
AcDbBlockBegin
  2
*Model_Space
 70
     0
 10
0.0
 20
0.0
 30
0.0
  3
*Model_Space
  1

  0
ENDBLK
  5
21
330
1F
100
AcDbEntity
  8
0
100
AcDbBlockEnd
  0
BLOCK
  5
1C
330
1B
100
AcDbEntity
 67
     1
  8
0
100
AcDbBlockBegin
  2
*Paper_Space
 70
     0
 10
0.0
 20
0.0
 30
0.0
  3
*Paper_Space
  1

  0
ENDBLK
  5
1D
330
1B
100
AcDbEntity
 67
     1
  8
0
100
AcDbBlockEnd
  0
BLOCK
  5
24
330
23
100
AcDbEntity
  8
0
100
AcDbBlockBegin
  2
*Paper_Space0
 70
     0
 10
0.0
 20
0.0
 30
0.0
  3
*Paper_Space0
  1

  0
ENDBLK
  5
25
330
23
100
AcDbEntity
  8
0
100
AcDbBlockEnd
  0
BLOCK
  5
73
330
72
100
AcDbEntity
  8
0
100
AcDbBlockBegin
  2
USER0001
 70
     0
 10
0.0
 20
0.0
 30
0.0
  3
USER0001
  1

  0
POINT
  5
87
330
72
100
AcDbEntity
  8
0
 62
     0
100
AcDbPoint
 10
0.0
 20
0.0
 30
0.0
  0
POINT
  5
88
330
72
100
AcDbEntity
  8
0
 62
     0
100
AcDbPoint
 10
-4.0
 20
4.0
 30
0.0
  0
POINT
  5
89
330
72
100
AcDbEntity
  8
0
 62
     0
100
AcDbPoint
 10
4.0
 20
4.0
 30
0.0
  0
POINT
  5
8A
330
72
100
AcDbEntity
  8
0
 62
     0
100
AcDbPoint
 10
-1.0
 20
8.0
 30
0.0
  0
POINT
  5
8B
330
72
100
AcDbEntity
  8
0
 62
     0
100
AcDbPoint
 10
1.0
 20
8.0
 30
0.0
  0
POINT
  5
8C
330
72
100
AcDbEntity
  8
0
 62
     0
100
AcDbPoint
 10
-1.0
 20
4.0
 30
0.0
  0
POINT
  5
8D
330
72
100
AcDbEntity
  8
0
 62
     0
100
AcDbPoint
 10
1.0
 20
4.0
 30
0.0
  0
LINE
  5
8E
330
72
100
AcDbEntity
  8
0
  6
Continuous
 62
     0
100
AcDbLine
 10
-1.0
 20
8.0
 30
0.0
 11
-1.0
 21
4.0
 31
0.0
  0
LINE
  5
8F
330
72
100
AcDbEntity
  8
0
  6
Continuous
 62
     0
100
AcDbLine
 10
1.0
 20
8.0
 30
0.0
 11
1.0
 21
4.0
 31
0.0
  0
LINE
  5
90
330
72
100
AcDbEntity
  8
0
  6
Continuous
 62
     0
100
AcDbLine
 10
-0.000002209412966
 20
0.000021884178721
 30
0.0
 11
3.999985524523556
 21
4.000009618115243
 31
0.0
  0
LINE
  5
91
330
72
100
AcDbEntity
  8
0
  6
Continuous
 62
     0
100
AcDbLine
 10
-3.999990431334826
 20
4.000010106100582
 30
0.0
 11
-0.000002209412966
 21
0.000021884178721
 31
0.0
  0
LINE
  5
92
330
72
100
AcDbEntity
  8
0
  6
Continuous
 62
     0
100
AcDbLine
 10
-4.0
 20
4.0
 30
0.0
 11
-1.0
 21
4.0
 31
0.0
  0
LINE
  5
93
330
72
100
AcDbEntity
  8
0
  6
Continuous
 62
     0
100
AcDbLine
 10
-1.0
 20
8.0
 30
0.0
 11
1.0
 21
8.0
 31
0.0
  0
LINE
  5
94
330
72
100
AcDbEntity
  8
0
  6
Continuous
 62
     0
100
AcDbLine
 10
1.0
 20
4.0
 30
0.0
 11
4.0
 21
4.0
 31
0.0
  0
ENDBLK
  5
74
330
72
100
AcDbEntity
  8
0
100
AcDbBlockEnd
  0
BLOCK
  5
76
330
75
100
AcDbEntity
  8
0
100
AcDbBlockBegin
  2
DTL0001
 70
     0
 10
0.0
 20
0.0
 30
0.0
  3
DTL0001
  1

  0
POINT
  5
95
330
75
100
AcDbEntity
  8
0
 62
     0
100
AcDbPoint
 10
0.0
 20
0.0
 30
0.0
  0
POINT
  5
96
330
75
100
AcDbEntity
  8
0
 62
     0
100
AcDbPoint
 10
0.0
 20
0.0
 30
0.0
  0
LINE
  5
97
330
75
100
AcDbEntity
  8
0
  6
CENTER
 62
     4
100
AcDbLine
 10
-27.5
 20
2.214007377624512
 30
0.0
 11
-27.5
 21
-115.805206489563
 31
0.0
  0
LINE
  5
98
330
75
100
AcDbEntity
  8
0
  6
CENTER
 62
     4
100
AcDbLine
 10
0.0
 20
3.679980278015133
 30
0.0
 11
0.0
 21
-89.78995990753174
 31
0.0
  0
LINE
  5
99
330
75
100
AcDbEntity
  8
0
  6
Continuous
 62
     0
100
AcDbLine
 10
42.5
 20
-87.00000019073487
 30
0.0
 11
42.5
 21
-12.00000019073487
 31
0.0
  0
LINE
  5
9A
330
75
100
AcDbEntity
  8
0
  6
CENTER
 62
     4
100
AcDbLine
 10
27.5
 20
2.530016899108887
 30
0.0
 11
27.5
 21
-115.1732179641724
 31
0.0
  0
LINE
  5
9B
330
75
100
AcDbEntity
  8
0
  6
Continuous
 62
     0
100
AcDbLine
 10
5.0
 20
-10.00000019073487
 30
0.0
 11
5.0
 21
-12.00000019073487
 31
0.0
  0
LINE
  5
9C
330
75
100
AcDbEntity
  8
0
  6
Continuous
 62
     0
100
AcDbLine
 10
-5.0
 20
-10.00000019073487
 30
0.0
 11
-5.0
 21
-12.00000019073487
 31
0.0
  0
LINE
  5
9D
330
75
100
AcDbEntity
  8
0
  6
Continuous
 62
     0
100
AcDbLine
 10
35.5
 20
0.0
 30
0.0
 11
-35.5
 21
0.0
 31
0.0
  0
LINE
  5
9E
330
75
100
AcDbEntity
  8
0
  6
Continuous
 62
     0
100
AcDbLine
 10
36.0
 20
-0.5
 30
0.0
 11
36.0
 21
-9.500000190734866
 31
0.0
  0
LINE
  5
9F
330
75
100
AcDbEntity
  8
0
  6
Continuous
 62
     0
100
AcDbLine
 10
22.5
 20
-87.00000019073487
 30
0.0
 11
22.5
 21
-113.5000001907349
 31
0.0
  0
LINE
  5
A0
330
75
100
AcDbEntity
  8
0
  6
Continuous
 62
     0
100
AcDbLine
 10
32.5
 20
-87.00000019073487
 30
0.0
 11
32.5
 21
-113.5000001907349
 31
0.0
  0
LINE
  5
A1
330
75
100
AcDbEntity
  8
0
  6
Continuous
 62
     0
100
AcDbLine
 10
35.49999918170921
 20
-0.000000678004199
 30
0.0
 11
35.9999997210611
 21
-0.500001217356093
 31
0.0
  0
LINE
  5
A2
330
75
100
AcDbEntity
  8
0
  6
Continuous
 62
     0
100
AcDbLine
 10
36.00000106976017
 20
-9.500000190096056
 30
0.0
 11
35.50000053040827
 21
-10.00000072944795
 31
0.0
  0
LINE
  5
A3
330
75
100
AcDbEntity
  8
0
  6
Continuous
 62
     0
100
AcDbLine
 10
-36.0
 20
-0.5
 30
0.0
 11
-36.0
 21
-9.500000190734866
 31
0.0
  0
LINE
  5
A4
330
75
100
AcDbEntity
  8
0
  6
Continuous
 62
     0
100
AcDbLine
 10
-35.5
 20
-10.00000019073487
 30
0.0
 11
35.50000106912137
 21
-10.00000019073487
 31
0.0
  0
LINE
  5
A5
330
75
100
AcDbEntity
  8
0
  6
Continuous
 62
     0
100
AcDbLine
 10
-35.4999991817092
 20
-0.000000678004096
 30
0.0
 11
-35.9999997210611
 21
-0.50000121735599
 31
0.0
  0
LINE
  5
A6
330
75
100
AcDbEntity
  8
0
  6
Continuous
 62
     0
100
AcDbLine
 10
-36.00000106976017
 20
-9.500000190096102
 30
0.0
 11
-35.50000053040827
 21
-10.000000729448
 31
0.0
  0
LINE
  5
A7
330
75
100
AcDbEntity
  8
0
  6
Continuous
 62
     0
100
AcDbLine
 10
-32.5
 20
-10.00000019073487
 30
0.0
 11
-32.5
 21
-12.00000019073487
 31
0.0
  0
LINE
  5
A8
330
75
100
AcDbEntity
  8
0
  6
Continuous
 62
     0
100
AcDbLine
 10
-22.5
 20
-10.00000019073487
 30
0.0
 11
-22.5
 21
-12.00000019073487
 31
0.0
  0
LINE
  5
A9
330
75
100
AcDbEntity
  8
0
  6
Continuous
 62
     0
100
AcDbLine
 10
-42.5
 20
-87.00000019073487
 30
0.0
 11
-42.5
 21
-12.00000019073487
 31
0.0
  0
LINE
  5
AA
330
75
100
AcDbEntity
  8
0
  6
Continuous
 62
     0
100
AcDbLine
 10
42.5
 20
-12.00000019073487
 30
0.0
 11
-42.5
 21
-12.00000019073487
 31
0.0
  0
LINE
  5
AB
330
75
100
AcDbEntity
  8
0
  6
DASHED
 62
     0
100
AcDbLine
 10
-36.49999995430181
 20
-28.8206165959103
 30
0.0
 11
-42.4797229684927
 21
-29.02943311514685
 31
0.0
  0
LINE
  5
AC
330
75
100
AcDbEntity
  8
0
  6
DASHED
 62
     0
100
AcDbLine
 10
-35.50000093451135
 20
-19.79566418403859
 30
0.0
 11
-41.92883679123483
 21
-19.5711642994857
 31
0.0
  0
LINE
  5
AD
330
75
100
AcDbEntity
  8
0
  6
DASHED
 62
     0
100
AcDbLine
 10
-35.50000159680648
 20
-28.20434045768539
 30
0.0
 11
-41.92883745352997
 21
-28.42884034223828
 31
0.0
  0
LINE
  5
AE
330
75
100
AcDbEntity
  8
0
  6
DASHED
 62
     0
100
AcDbLine
 10
-36.49999929200672
 20
-19.17938804581357
 30
0.0
 11
-42.49190283938741
 21
-18.97014617300511
 31
0.0
  0
LINE
  5
AF
330
75
100
AcDbEntity
  8
0
  6
CENTER
 62
     4
100
AcDbLine
 10
-24.5
 20
-17.73429889678955
 30
0.0
 11
-24.5
 21
-30.8360673904419
 31
0.0
  0
LINE
  5
B0
330
75
100
AcDbEntity
  8
0
  6
DASHED
 62
     0
100
AcDbLine
 10
-36.5
 20
-19.17939014434815
 30
0.0
 11
-36.5
 21
-28.82061023712158
 31
0.0
  0
LINE
  5
B1
330
75
100
AcDbEntity
  8
0
  6
DASHED
 62
     0
100
AcDbLine
 10
-35.5
 20
-19.7956621170044
 30
0.0
 11
-35.5
 21
-28.20433826446533
 31
0.0
  0
LINE
  5
B2
330
75
100
AcDbEntity
  8
0
  6
DASHED
 62
     0
100
AcDbLine
 10
-36.50000558823497
 20
-19.17939017118798
 30
0.0
 11
-35.50000108225731
 21
-19.79566814673237
 31
0.0
  0
LINE
  5
B3
330
75
100
AcDbEntity
  8
0
  6
DASHED
 62
     0
100
AcDbLine
 10
-36.49999537012039
 20
-28.82061459041891
 30
0.0
 11
-35.49999532949241
 21
-28.20433936675877
 31
0.0
  0
LINE
  5
B4
330
75
100
AcDbEntity
  8
0
  6
DASHED
 62
     0
100
AcDbLine
 10
-42.49999998913985
 20
-18.99999967118672
 30
0.0
 11
-41.92883668771344
 21
-19.57116297261314
 31
0.0
  0
LINE
  5
B5
330
75
100
AcDbEntity
  8
0
  6
DASHED
 62
     0
100
AcDbLine
 10
-42.49999998913987
 20
-28.99999966863135
 30
0.0
 11
-41.9288380364126
 21
-28.42883771590408
 31
0.0
  0
LINE
  5
B6
330
75
100
AcDbEntity
  8
0
  6
DASHED
 62
     0
100
AcDbLine
 10
-41.92884445190401
 20
-28.42883614741244
 30
0.0
 11
-41.92884445190401
 21
-19.57116250239291
 31
0.0
  0
LINE
  5
B7
330
75
100
AcDbEntity
  8
0
  6
DASHED
 62
     0
100
AcDbLine
 10
-35.49999920003243
 20
-68.20433675296641
 30
0.0
 11
-41.92883886912937
 21
-68.4288367706503
 31
0.0
  0
LINE
  5
B8
330
75
100
AcDbEntity
  8
0
  6
DASHED
 62
     0
100
AcDbLine
 10
-35.49999965204282
 20
-59.79566442482401
 30
0.0
 11
-41.9288355087663
 21
-59.57116454027112
 31
0.0
  0
LINE
  5
B9
330
75
100
AcDbEntity
  8
0
  6
DASHED
 62
     0
100
AcDbLine
 10
-36.50000136990133
 20
-68.82061302432233
 30
0.0
 11
-42.47972438409221
 21
-69.02942954355888
 31
0.0
  0
LINE
  5
BA
330
75
100
AcDbEntity
  8
0
  6
DASHED
 62
     0
100
AcDbLine
 10
-36.50000182191167
 20
-59.17938815346798
 30
0.0
 11
-42.49190536929236
 21
-58.97014628065953
 31
0.0
  0
LINE
  5
BB
330
75
100
AcDbEntity
  8
0
  6
CENTER
 62
     4
100
AcDbLine
 10
-16.76286989380662
 20
-64.00000019073487
 30
0.0
 11
-43.99468612670898
 21
-64.00000019073487
 31
0.0
  0
LINE
  5
BC
330
75
100
AcDbEntity
  8
0
  6
DASHED
 62
     0
100
AcDbLine
 10
-36.5
 20
-59.17938823699951
 30
0.0
 11
-36.5
 21
-68.82061214447022
 31
0.0
  0
LINE
  5
BD
330
75
100
AcDbEntity
  8
0
  6
DASHED
 62
     0
100
AcDbLine
 10
-35.5
 20
-59.79566402435303
 30
0.0
 11
-35.5
 21
-68.20433826446533
 31
0.0
  0
LINE
  5
BE
330
75
100
AcDbEntity
  8
0
  6
DASHED
 62
     0
100
AcDbLine
 10
-36.5000017141047
 20
-59.1793894698941
 30
0.0
 11
-35.50000045565408
 21
-59.79566544406812
 31
0.0
  0
LINE
  5
BF
330
75
100
AcDbEntity
  8
0
  6
DASHED
 62
     0
100
AcDbLine
 10
-36.49999933865238
 20
-68.82061282707198
 30
0.0
 11
-35.49999808020176
 21
-68.20433685289797
 31
0.0
  0
LINE
  5
C0
330
75
100
AcDbEntity
  8
0
  6
DASHED
 62
     0
100
AcDbLine
 10
-42.49999998913984
 20
-58.99999965841013
 30
0.0
 11
-41.92883668771342
 21
-59.57116295983655
 31
0.0
  0
LINE
  5
C1
330
75
100
AcDbEntity
  8
0
  6
DASHED
 62
     0
100
AcDbLine
 10
-42.49999998913982
 20
-68.99999965585485
 30
0.0
 11
-41.92883803641255
 21
-68.42883770312758
 31
0.0
  0
LINE
  5
C2
330
75
100
AcDbEntity
  8
0
  6
DASHED
 62
     0
100
AcDbLine
 10
-41.92884063720675
 20
-68.42883805476147
 30
0.0
 11
-41.92884063720675
 21
-59.57116440974194
 31
0.0
  0
LINE
  5
C3
330
75
100
AcDbEntity
  8
0
  6
CENTER
 62
     4
100
AcDbLine
 10
-15.88041081039557
 20
-24.00000019073487
 30
0.0
 11
-43.70353698730469
 21
-24.00000019073487
 31
0.0
  0
LINE
  5
C4
330
75
100
AcDbEntity
  8
0
  6
Continuous
 62
     0
100
AcDbLine
 10
5.699999809265137
 20
-12.00000019073487
 30
0.0
 11
5.699999809265137
 21
-87.00000019073487
 31
0.0
  0
LINE
  5
C5
330
75
100
AcDbEntity
  8
0
  6
CENTER
 62
     4
100
AcDbLine
 10
14.0
 20
-25.05000324249268
 30
0.0
 11
14.0
 21
-37.53252429962158
 31
0.0
  0
LINE
  5
C6
330
75
100
AcDbEntity
  8
0
  6
Continuous
 62
     0
100
AcDbLine
 10
11.05000019073486
 20
-12.00000019073487
 30
0.0
 11
11.05000019073486
 21
-27.27709980010987
 31
0.0
  0
LINE
  5
C7
330
75
100
AcDbEntity
  8
0
  6
Continuous
 62
     0
100
AcDbLine
 10
12.0
 20
-12.00000019073487
 30
0.0
 11
12.0
 21
-26.69158191680908
 31
0.0
  0
LINE
  5
C8
330
75
100
AcDbEntity
  8
0
  6
CENTER
 62
     4
100
AcDbLine
 10
8.037609100341797
 20
-31.00000019073487
 30
0.0
 11
20.41150283813477
 21
-31.00000019073487
 31
0.0
  0
LINE
  5
C9
330
75
100
AcDbEntity
  8
0
  6
CENTER
 62
     4
100
AcDbLine
 10
-8.037609100341797
 20
-31.00000019073487
 30
0.0
 11
-20.41150283813477
 21
-31.00000019073487
 31
0.0
  0
LINE
  5
CA
330
75
100
AcDbEntity
  8
0
  6
Continuous
 62
     0
100
AcDbLine
 10
2.299999952316284
 20
-12.00000019073487
 30
0.0
 11
2.299999952316284
 21
-87.00000019073487
 31
0.0
  0
LINE
  5
CB
330
75
100
AcDbEntity
  8
0
  6
CENTER
 62
     4
100
AcDbLine
 10
-24.5
 20
-57.44911594390869
 30
0.0
 11
-24.5
 21
-70.55088443756104
 31
0.0
  0
LINE
  5
CC
330
75
100
AcDbEntity
  8
0
  6
CENTER
 62
     4
100
AcDbLine
 10
8.5
 20
-71.00000019073487
 30
0.0
 11
20.41150283813477
 21
-71.00000019073487
 31
0.0
  0
LINE
  5
CD
330
75
100
AcDbEntity
  8
0
  6
CENTER
 62
     4
100
AcDbLine
 10
14.0
 20
-65.04999942779541
 30
0.0
 11
14.0
 21
-77.31924839019776
 31
0.0
  0
LINE
  5
CE
330
75
100
AcDbEntity
  8
0
  6
CENTER
 62
     4
100
AcDbLine
 10
-14.0
 20
-25.05000324249268
 30
0.0
 11
-14.0
 21
-37.53252429962158
 31
0.0
  0
LINE
  5
CF
330
75
100
AcDbEntity
  8
0
  6
CENTER
 62
     4
100
AcDbLine
 10
-8.5
 20
-71.00000019073487
 30
0.0
 11
-20.41150283813477
 21
-71.00000019073487
 31
0.0
  0
LINE
  5
D0
330
75
100
AcDbEntity
  8
0
  6
CENTER
 62
     4
100
AcDbLine
 10
-14.0
 20
-65.04999942779541
 30
0.0
 11
-14.0
 21
-77.31924839019776
 31
0.0
  0
LINE
  5
D1
330
75
100
AcDbEntity
  8
0
  6
Continuous
 62
     0
100
AcDbLine
 10
-2.299999952316284
 20
-12.00000019073487
 30
0.0
 11
-2.299999952316284
 21
-87.00000019073487
 31
0.0
  0
LINE
  5
D2
330
75
100
AcDbEntity
  8
0
  6
Continuous
 62
     0
100
AcDbLine
 10
12.0
 20
-35.30842227935791
 30
0.0
 11
12.0
 21
-66.69157810211182
 31
0.0
  0
LINE
  5
D3
330
75
100
AcDbEntity
  8
0
  6
Continuous
 62
     0
100
AcDbLine
 10
11.05000019073486
 20
-34.72290058135987
 30
0.0
 11
11.05000019073486
 21
-67.27709789276123
 31
0.0
  0
LINE
  5
D4
330
75
100
AcDbEntity
  8
0
  6
Continuous
 62
     0
100
AcDbLine
 10
-11.05000019073486
 20
-12.00000019073487
 30
0.0
 11
-11.05000019073486
 21
-27.27709980010987
 31
0.0
  0
LINE
  5
D5
330
75
100
AcDbEntity
  8
0
  6
Continuous
 62
     0
100
AcDbLine
 10
-5.699999809265137
 20
-12.00000019073487
 30
0.0
 11
-5.699999809265137
 21
-87.00000019073487
 31
0.0
  0
LINE
  5
D6
330
75
100
AcDbEntity
  8
0
  6
Continuous
 62
     0
100
AcDbLine
 10
-12.0
 20
-12.00000019073487
 30
0.0
 11
-12.0
 21
-26.69158191680908
 31
0.0
  0
LINE
  5
D7
330
75
100
AcDbEntity
  8
0
  6
Continuous
 62
     0
100
AcDbLine
 10
-11.05000019073486
 20
-34.72290058135987
 30
0.0
 11
-11.05000019073486
 21
-67.27709789276123
 31
0.0
  0
LINE
  5
D8
330
75
100
AcDbEntity
  8
0
  6
Continuous
 62
     0
100
AcDbLine
 10
-12.0
 20
-35.30842227935791
 30
0.0
 11
-12.0
 21
-66.69157810211182
 31
0.0
  0
LINE
  5
D9
330
75
100
AcDbEntity
  8
0
  6
Continuous
 62
     0
100
AcDbLine
 10
-11.05000019073486
 20
-74.7229024887085
 30
0.0
 11
-11.05000019073486
 21
-87.00000019073487
 31
0.0
  0
LINE
  5
DA
330
75
100
AcDbEntity
  8
0
  6
Continuous
 62
     0
100
AcDbLine
 10
-12.0
 20
-75.30842227935791
 30
0.0
 11
-12.0
 21
-87.00000019073487
 31
0.0
  0
LINE
  5
DB
330
75
100
AcDbEntity
  8
0
  6
Continuous
 62
     0
100
AcDbLine
 10
-23.0
 20
-114.0000001907349
 30
0.0
 11
-32.0
 21
-114.0000001907349
 31
0.0
  0
LINE
  5
DC
330
75
100
AcDbEntity
  8
0
  6
Continuous
 62
     0
100
AcDbLine
 10
-22.5
 20
-113.5000001907349
 30
0.0
 11
-22.5
 21
-87.00000019073487
 31
0.0
  0
LINE
  5
DD
330
75
100
AcDbEntity
  8
0
  6
Continuous
 62
     0
100
AcDbLine
 10
-32.5
 20
-113.5000001907349
 30
0.0
 11
-32.5
 21
-87.00000019073487
 31
0.0
  0
LINE
  5
DE
330
75
100
AcDbEntity
  8
0
  6
Continuous
 62
     0
100
AcDbLine
 10
-22.4999994884883
 20
-113.4999996107662
 30
0.0
 11
-23.00000002784019
 21
-114.0000001501181
 31
0.0
  0
LINE
  5
DF
330
75
100
AcDbEntity
  8
0
  6
Continuous
 62
     0
100
AcDbLine
 10
-32.49999931734562
 20
-113.4999997793536
 30
0.0
 11
-31.9999994523433
 21
-113.9999996443559
 31
0.0
  0
LINE
  5
E0
330
75
100
AcDbEntity
  8
0
  6
Continuous
 62
     0
100
AcDbLine
 10
42.5
 20
-87.00000019073487
 30
0.0
 11
-42.5
 21
-87.00000019073487
 31
0.0
  0
LINE
  5
E1
330
75
100
AcDbEntity
  8
0
  6
Continuous
 62
     0
100
AcDbLine
 10
12.0
 20
-75.30842227935791
 30
0.0
 11
12.0
 21
-87.00000019073487
 31
0.0
  0
LINE
  5
E2
330
75
100
AcDbEntity
  8
0
  6
Continuous
 62
     0
100
AcDbLine
 10
11.05000019073486
 20
-74.7229024887085
 30
0.0
 11
11.05000019073486
 21
-87.00000019073487
 31
0.0
  0
LINE
  5
E3
330
75
100
AcDbEntity
  8
0
  6
Continuous
 62
     0
100
AcDbLine
 10
32.0
 20
-114.0000001907349
 30
0.0
 11
23.0
 21
-114.0000001907349
 31
0.0
  0
LINE
  5
E4
330
75
100
AcDbEntity
  8
0
  6
Continuous
 62
     0
100
AcDbLine
 10
32.5
 20
-10.00000019073487
 30
0.0
 11
32.5
 21
-12.00000019073487
 31
0.0
  0
LINE
  5
E5
330
75
100
AcDbEntity
  8
0
  6
Continuous
 62
     0
100
AcDbLine
 10
22.5
 20
-10.00000019073487
 30
0.0
 11
22.5
 21
-12.00000019073487
 31
0.0
  0
LINE
  5
E6
330
75
100
AcDbEntity
  8
0
  6
Continuous
 62
     0
100
AcDbLine
 10
32.49999999872241
 20
-113.5000017794045
 30
0.0
 11
31.99999945937051
 21
-114.0000023187564
 31
0.0
  0
LINE
  5
E7
330
75
100
AcDbEntity
  8
0
  6
Continuous
 62
     0
100
AcDbLine
 10
23.00000054062954
 20
-114.0000023187564
 30
0.0
 11
22.50000000127764
 21
-113.5000017794045
 31
0.0
  0
CIRCLE
  5
E8
330
75
100
AcDbEntity
  8
0
  6
Continuous
 62
     0
100
AcDbCircle
 10
14.0
 20
-71.00000019073487
 30
0.0
 40
4.75
  0
CIRCLE
  5
E9
330
75
100
AcDbEntity
  8
0
  6
Continuous
 62
     0
100
AcDbCircle
 10
14.0
 20
-31.00000019073487
 30
0.0
 40
4.75
  0
CIRCLE
  5
EA
330
75
100
AcDbEntity
  8
0
  6
Continuous
 62
     4
100
AcDbCircle
 10
-24.5
 20
-24.00000019073487
 30
0.0
 40
4.849999904632568
  0
CIRCLE
  5
EB
330
75
100
AcDbEntity
  8
0
  6
Continuous
 62
     4
100
AcDbCircle
 10
-24.5
 20
-64.00000019073487
 30
0.0
 40
4.849999904632568
  0
CIRCLE
  5
EC
330
75
100
AcDbEntity
  8
0
  6
Continuous
 62
     0
100
AcDbCircle
 10
-24.5
 20
-24.00000019073487
 30
0.0
 40
4.300000190734863
  0
CIRCLE
  5
ED
330
75
100
AcDbEntity
  8
0
  6
Continuous
 62
     0
100
AcDbCircle
 10
-24.5
 20
-64.00000019073487
 30
0.0
 40
4.300000190734863
  0
CIRCLE
  5
EE
330
75
100
AcDbEntity
  8
0
  6
Continuous
 62
     0
100
AcDbCircle
 10
-14.0
 20
-31.00000019073487
 30
0.0
 40
4.75
  0
CIRCLE
  5
EF
330
75
100
AcDbEntity
  8
0
  6
Continuous
 62
     0
100
AcDbCircle
 10
-14.0
 20
-71.00000019073487
 30
0.0
 40
4.75
  0
CIRCLE
  5
F0
330
75
100
AcDbEntity
  8
0
  6
Continuous
 62
     0
100
AcDbCircle
 10
-14.0
 20
-71.00000019073487
 30
0.0
 40
2.599999904632568
  0
CIRCLE
  5
F1
330
75
100
AcDbEntity
  8
0
  6
Continuous
 62
     0
100
AcDbCircle
 10
-14.0
 20
-31.00000019073487
 30
0.0
 40
2.599999904632568
  0
CIRCLE
  5
F2
330
75
100
AcDbEntity
  8
0
  6
Continuous
 62
     0
100
AcDbCircle
 10
14.0
 20
-31.00000019073487
 30
0.0
 40
2.599999904632568
  0
CIRCLE
  5
F3
330
75
100
AcDbEntity
  8
0
  6
Continuous
 62
     0
100
AcDbCircle
 10
14.0
 20
-71.00000019073487
 30
0.0
 40
2.599999904632568
  0
MTEXT
  5
F4
330
75
100
AcDbEntity
  8
0
 62
     0
100
AcDbMText
 10
5.878967839901006
 20
-9.439708782988053
 30
0.0
 40
0.5
 41
0.0
 71
     7
 72
     1
  1
{\W0.833333;BN-6AK23-20}
 73
     1
 44
1.0
  0
ENDBLK
  5
77
330
75
100
AcDbEntity
  8
0
100
AcDbBlockEnd
  0
BLOCK
  5
79
330
78
100
AcDbEntity
  8
0
100
AcDbBlockBegin
  2
DTL0002
 70
     0
 10
0.0
 20
0.0
 30
0.0
  3
DTL0002
  1

  0
POINT
  5
F5
330
78
100
AcDbEntity
  8
0
 62
     0
100
AcDbPoint
 10
0.0
 20
0.0
 30
0.0
  0
POINT
  5
F6
330
78
100
AcDbEntity
  8
0
 62
     0
100
AcDbPoint
 10
0.0
 20
0.0
 30
0.0
  0
LINE
  5
F7
330
78
100
AcDbEntity
  8
0
  6
CENTER
 62
     4
100
AcDbLine
 10
42.5
 20
0.0
 30
0.0
 11
-42.5
 21
0.0
 31
0.0
  0
LINE
  5
F8
330
78
100
AcDbEntity
  8
0
  6
DASHED
 62
     0
100
AcDbLine
 10
-36.49999929200682
 20
-6.679387855078616
 30
0.0
 11
-42.49190283938751
 21
-6.470145982270155
 31
0.0
  0
LINE
  5
F9
330
78
100
AcDbEntity
  8
0
  6
Continuous
 62
     0
100
AcDbLine
 10
-36.0
 20
14.0
 30
0.0
 11
-36.0
 21
-14.0
 31
0.0
  0
LINE
  5
FA
330
78
100
AcDbEntity
  8
0
  6
Continuous
 62
     0
100
AcDbLine
 10
36.0
 20
14.0
 30
0.0
 11
36.0
 21
-14.0
 31
0.0
  0
LINE
  5
FB
330
78
100
AcDbEntity
  8
0
  6
Continuous
 62
     0
100
AcDbLine
 10
35.0
 20
-15.0
 30
0.0
 11
-35.0
 21
-15.0
 31
0.0
  0
LINE
  5
FC
330
78
100
AcDbEntity
  8
0
  6
Continuous
 62
     0
100
AcDbLine
 10
35.0
 20
15.0
 30
0.0
 11
-35.0
 21
15.0
 31
0.0
  0
LINE
  5
FD
330
78
100
AcDbEntity
  8
0
  6
Continuous
 62
     0
100
AcDbLine
 10
-35.99999972106097
 20
14.00000026616228
 30
0.0
 11
-34.99999999105633
 21
14.99999999616692
 31
0.0
  0
LINE
  5
FE
330
78
100
AcDbEntity
  8
0
  6
Continuous
 62
     0
100
AcDbLine
 10
34.99999999105656
 20
14.99999999616685
 30
0.0
 11
35.9999997210612
 21
14.00000026616222
 31
0.0
  0
LINE
  5
FF
330
78
100
AcDbEntity
  8
0
  6
Continuous
 62
     0
100
AcDbLine
 10
35.99999972106119
 20
-14.00000026616254
 30
0.0
 11
34.99999999105655
 21
-14.99999999616718
 31
0.0
  0
LINE
  5
100
330
78
100
AcDbEntity
  8
0
  6
Continuous
 62
     0
100
AcDbLine
 10
-34.99999999105624
 20
-14.99999999616719
 30
0.0
 11
-35.99999972106087
 21
-14.00000026616255
 31
0.0
  0
LINE
  5
101
330
78
100
AcDbEntity
  8
0
  6
Continuous
 62
     0
100
AcDbLine
 10
0.866025388240814
 20
-1.5
 30
0.0
 11
-0.866025388240814
 21
-1.5
 31
0.0
  0
LINE
  5
102
330
78
100
AcDbEntity
  8
0
  6
Continuous
 62
     0
100
AcDbLine
 10
0.866025388240814
 20
1.5
 30
0.0
 11
-0.866025388240814
 21
1.5
 31
0.0
  0
LINE
  5
103
330
78
100
AcDbEntity
  8
0
  6
Continuous
 62
     0
100
AcDbLine
 10
0.866025399898636
 20
1.499999993269391
 30
0.0
 11
1.732050799797168
 21
0.000000026922325
 31
0.0
  0
LINE
  5
104
330
78
100
AcDbEntity
  8
0
  6
Continuous
 62
     0
100
AcDbLine
 10
-1.73205079979706
 20
-0.000000026922427
 30
0.0
 11
-0.866025399898528
 21
-1.499999993269493
 31
0.0
  0
LINE
  5
105
330
78
100
AcDbEntity
  8
0
  6
Continuous
 62
     0
100
AcDbLine
 10
1.732050799797227
 20
-0.000000026922457
 30
0.0
 11
0.866025399898694
 21
-1.499999993269523
 31
0.0
  0
LINE
  5
106
330
78
100
AcDbEntity
  8
0
  6
Continuous
 62
     0
100
AcDbLine
 10
-0.866025399898458
 20
1.499999993269428
 30
0.0
 11
-1.732050799796991
 21
0.000000026922362
 31
0.0
  0
LINE
  5
107
330
78
100
AcDbEntity
  8
0
  6
Continuous
 62
     0
100
AcDbLine
 10
28.36602592468262
 20
-1.5
 30
0.0
 11
26.63397407531738
 21
-1.5
 31
0.0
  0
LINE
  5
108
330
78
100
AcDbEntity
  8
0
  6
Continuous
 62
     0
100
AcDbLine
 10
28.36602592468262
 20
1.5
 30
0.0
 11
26.63397407531738
 21
1.5
 31
0.0
  0
LINE
  5
109
330
78
100
AcDbEntity
  8
0
  6
Continuous
 62
     0
100
AcDbLine
 10
28.36602562547611
 20
1.499999855452852
 30
0.0
 11
29.23205060814212
 21
0.000000611773695
 31
0.0
  0
LINE
  5
10A
330
78
100
AcDbEntity
  8
0
  6
Continuous
 62
     0
100
AcDbLine
 10
25.76794942578046
 20
-0.00000016473895
 30
0.0
 11
26.63397440844648
 21
-1.499999408418107
 31
0.0
  0
LINE
  5
10B
330
78
100
AcDbEntity
  8
0
  6
Continuous
 62
     0
100
AcDbLine
 10
29.23205060814215
 20
-0.000000611773809
 30
0.0
 11
28.36602562547613
 21
-1.499999855452973
 31
0.0
  0
LINE
  5
10C
330
78
100
AcDbEntity
  8
0
  6
Continuous
 62
     0
100
AcDbLine
 10
26.6339744084465
 20
1.499999408417979
 30
0.0
 11
25.76794942578049
 21
0.000000164738815
 31
0.0
  0
LINE
  5
10D
330
78
100
AcDbEntity
  8
0
  6
Continuous
 62
     0
100
AcDbLine
 10
-28.36602562547604
 20
1.499999855452906
 30
0.0
 11
-29.23205060814205
 21
0.000000611773748
 31
0.0
  0
LINE
  5
10E
330
78
100
AcDbEntity
  8
0
  6
Continuous
 62
     0
100
AcDbLine
 10
-26.63397407531738
 20
1.5
 30
0.0
 11
-28.36602592468262
 21
1.5
 31
0.0
  0
LINE
  5
10F
330
78
100
AcDbEntity
  8
0
  6
Continuous
 62
     0
100
AcDbLine
 10
-25.76794942578031
 20
-0.000000164738903
 30
0.0
 11
-26.63397440844632
 21
-1.499999408418061
 31
0.0
  0
LINE
  5
110
330
78
100
AcDbEntity
  8
0
  6
Continuous
 62
     0
100
AcDbLine
 10
-29.23205060814207
 20
-0.000000611773714
 30
0.0
 11
-28.36602562547606
 21
-1.49999985545287
 31
0.0
  0
LINE
  5
111
330
78
100
AcDbEntity
  8
0
  6
Continuous
 62
     0
100
AcDbLine
 10
-26.63397440844639
 20
1.499999408417979
 30
0.0
 11
-25.76794942578038
 21
0.000000164738822
 31
0.0
  0
LINE
  5
112
330
78
100
AcDbEntity
  8
0
  6
Continuous
 62
     0
100
AcDbLine
 10
-26.63397407531738
 20
-1.5
 30
0.0
 11
-28.36602592468262
 21
-1.5
 31
0.0
  0
LINE
  5
113
330
78
100
AcDbEntity
  8
0
  6
CENTER
 62
     4
100
AcDbLine
 10
30.0
 20
13.12964534759521
 30
0.0
 11
30.0
 21
5.243804454803467
 31
0.0
  0
LINE
  5
114
330
78
100
AcDbEntity
  8
0
  6
CENTER
 62
     4
100
AcDbLine
 10
34.01814270019531
 20
9.0
 30
0.0
 11
26.25
 21
9.0
 31
0.0
  0
LINE
  5
115
330
78
100
AcDbEntity
  8
0
  6
CENTER
 62
     4
100
AcDbLine
 10
33.78274536132812
 20
-9.0
 30
0.0
 11
26.25
 21
-9.0
 31
0.0
  0
LINE
  5
116
330
78
100
AcDbEntity
  8
0
  6
CENTER
 62
     4
100
AcDbLine
 10
30.0
 20
-5.34911584854126
 30
0.0
 11
30.0
 21
-13.23495674133301
 31
0.0
  0
LINE
  5
117
330
78
100
AcDbEntity
  8
0
  6
CENTER
 62
     4
100
AcDbLine
 10
-26.12610626220703
 20
9.0
 30
0.0
 11
-33.89424896240234
 21
9.0
 31
0.0
  0
LINE
  5
118
330
78
100
AcDbEntity
  8
0
  6
CENTER
 62
     4
100
AcDbLine
 10
-30.0
 20
12.7765474319458
 30
0.0
 11
-30.0
 21
5.126105308532715
 31
0.0
  0
LINE
  5
119
330
78
100
AcDbEntity
  8
0
  6
CENTER
 62
     4
100
AcDbLine
 10
-30.0
 20
-5.466814994812012
 30
0.0
 11
-30.0
 21
-12.76416015625
 31
0.0
  0
LINE
  5
11A
330
78
100
AcDbEntity
  8
0
  6
CENTER
 62
     4
100
AcDbLine
 10
-26.24380493164062
 20
-9.0
 30
0.0
 11
-34.12964630126953
 21
-9.0
 31
0.0
  0
LINE
  5
11B
330
78
100
AcDbEntity
  8
0
  6
CENTER
 62
     4
100
AcDbLine
 10
27.5
 20
6.303096771240234
 30
0.0
 11
27.5
 21
-6.761505126953125
 31
0.0
  0
LINE
  5
11C
330
78
100
AcDbEntity
  8
0
  6
CENTER
 62
     4
100
AcDbLine
 10
-27.5
 20
6.420795917510986
 30
0.0
 11
-27.5
 21
-6.996903419494629
 31
0.0
  0
LINE
  5
11D
330
78
100
AcDbEntity
  8
0
  6
DASHED
 62
     0
100
AcDbLine
 10
4.449999809265137
 20
12.19999980926514
 30
0.0
 11
3.549999952316284
 21
12.19999980926514
 31
0.0
  0
LINE
  5
11E
330
78
100
AcDbEntity
  8
0
  6
Continuous
 62
     0
100
AcDbLine
 10
42.5
 20
10.0
 30
0.0
 11
42.5
 21
15.69999980926514
 31
0.0
  0
LINE
  5
11F
330
78
100
AcDbEntity
  8
0
  6
Continuous
 62
     0
100
AcDbLine
 10
36.20000076293945
 20
17.0
 30
0.0
 11
23.70000076293945
 21
17.0
 31
0.0
  0
LINE
  5
120
330
78
100
AcDbEntity
  8
0
  6
Continuous
 62
     0
100
AcDbLine
 10
2.299999952316284
 20
17.0
 30
0.0
 11
-2.299999952316284
 21
17.0
 31
0.0
  0
LINE
  5
121
330
78
100
AcDbEntity
  8
0
  6
Continuous
 62
     0
100
AcDbLine
 10
1.850000390989491
 20
15.99999983594846
 30
0.0
 11
2.300000171777697
 21
16.49999956564986
 31
0.0
  0
LINE
  5
122
330
78
100
AcDbEntity
  8
0
  6
DASHED
 62
     0
100
AcDbLine
 10
1.850000023841858
 20
13.89999961853027
 30
0.0
 11
1.850000023841858
 21
15.0
 31
0.0
  0
LINE
  5
123
330
78
100
AcDbEntity
  8
0
  6
Continuous
 62
     0
100
AcDbLine
 10
5.699999809265137
 20
16.5
 30
0.0
 11
5.699999809265137
 21
17.0
 31
0.0
  0
LINE
  5
124
330
78
100
AcDbEntity
  8
0
  6
Continuous
 62
     0
100
AcDbLine
 10
39.5
 20
0.0
 30
0.0
 11
39.5
 21
7.0
 31
0.0
  0
LINE
  5
125
330
78
100
AcDbEntity
  8
0
  6
Continuous
 62
     0
100
AcDbLine
 10
2.299999952316284
 20
16.5
 30
0.0
 11
2.299999952316284
 21
17.0
 31
0.0
  0
LINE
  5
126
330
78
100
AcDbEntity
  8
0
  6
Continuous
 62
     0
100
AcDbLine
 10
19.30000031441206
 20
17.0
 30
0.0
 11
5.699999809265137
 21
17.0
 31
0.0
  0
LINE
  5
127
330
78
100
AcDbEntity
  8
0
  6
DASHED
 62
     0
100
AcDbLine
 10
21.50000026424601
 20
14.80000005016597
 30
0.0
 11
21.70000021024693
 21
14.9999999961669
 31
0.0
  0
LINE
  5
128
330
78
100
AcDbEntity
  8
0
  6
DASHED
 62
     0
100
AcDbLine
 10
6.150000095367432
 20
13.89999961853027
 30
0.0
 11
6.150000095367432
 21
15.0
 31
0.0
  0
LINE
  5
129
330
78
100
AcDbEntity
  8
0
  6
Continuous
 62
     0
100
AcDbLine
 10
6.149999516130073
 20
15.9999998359485
 30
0.0
 11
5.699999097367365
 21
16.50000027451042
 31
0.0
  0
LINE
  5
12A
330
78
100
AcDbEntity
  8
0
  6
Continuous
 62
     0
100
AcDbLine
 10
41.5
 20
16.70000076293945
 30
0.0
 11
36.5
 21
16.70000076293945
 31
0.0
  0
LINE
  5
12B
330
78
100
AcDbEntity
  8
0
  6
Continuous
 62
     0
100
AcDbLine
 10
42.5
 20
-18.0
 30
0.0
 11
42.5
 21
-3.0
 31
0.0
  0
LINE
  5
12C
330
78
100
AcDbEntity
  8
0
  6
Continuous
 62
     0
100
AcDbLine
 10
12.00000046897848
 20
-19.00000060205969
 30
0.0
 11
10.10000030762009
 21
-17.1000004407013
 31
0.0
  0
LINE
  5
12D
330
78
100
AcDbEntity
  8
0
  6
DASHED
 62
     0
100
AcDbLine
 10
21.50000026424609
 20
14.80000005016602
 30
0.0
 11
21.30000031824516
 21
14.99999999616695
 31
0.0
  0
LINE
  5
12E
330
78
100
AcDbEntity
  8
0
  6
Continuous
 62
     0
100
AcDbLine
 10
36.49999958606351
 20
16.69999953717474
 30
0.0
 11
36.19999966706212
 21
16.99999945617613
 31
0.0
  0
LINE
  5
12F
330
78
100
AcDbEntity
  8
0
  6
Continuous
 62
     0
100
AcDbLine
 10
41.5
 20
-19.0
 30
0.0
 11
12.0
 21
-19.0
 31
0.0
  0
LINE
  5
130
330
78
100
AcDbEntity
  8
0
  6
Continuous
 62
     0
100
AcDbLine
 10
2.300000812410542
 20
-16.60000022284297
 30
0.0
 11
1.850000393647835
 21
-16.09999978428105
 31
0.0
  0
LINE
  5
131
330
78
100
AcDbEntity
  8
0
  6
Continuous
 62
     0
100
AcDbLine
 10
42.50000133783919
 20
10.00000134614369
 30
0.0
 11
39.50000079912612
 21
7.000000807430624
 31
0.0
  0
LINE
  5
132
330
78
100
AcDbEntity
  8
0
  6
Continuous
 62
     0
100
AcDbLine
 10
42.49999998913999
 20
-3.000000538713156
 30
0.0
 11
39.49999945042689
 21
-0.00000000000005
 31
0.0
  0
LINE
  5
133
330
78
100
AcDbEntity
  8
0
  6
Continuous
 62
     0
100
AcDbLine
 10
6.149999194484585
 20
-16.10000013871129
 30
0.0
 11
5.699999094709128
 21
-16.60000022284296
 31
0.0
  0
LINE
  5
134
330
78
100
AcDbEntity
  8
0
  6
Continuous
 62
     0
100
AcDbLine
 10
10.10000038146973
 20
-17.10000038146973
 30
0.0
 11
5.699999809265137
 21
-17.10000038146973
 31
0.0
  0
LINE
  5
135
330
78
100
AcDbEntity
  8
0
  6
DASHED
 62
     0
100
AcDbLine
 10
4.449999809265137
 20
-12.30000019073486
 30
0.0
 11
3.549999952316284
 21
-12.30000019073486
 31
0.0
  0
LINE
  5
136
330
78
100
AcDbEntity
  8
0
  6
Continuous
 62
     0
100
AcDbLine
 10
1.850000023841858
 20
-16.10000038146973
 30
0.0
 11
1.850000023841858
 21
-15.0
 31
0.0
  0
LINE
  5
137
330
78
100
AcDbEntity
  8
0
  6
Continuous
 62
     0
100
AcDbLine
 10
6.150000095367432
 20
-16.10000038146973
 30
0.0
 11
6.150000095367432
 21
-15.0
 31
0.0
  0
LINE
  5
138
330
78
100
AcDbEntity
  8
0
  6
Continuous
 62
     0
100
AcDbLine
 10
2.299999952316284
 20
-17.10000038146973
 30
0.0
 11
2.299999952316284
 21
-16.60000038146973
 31
0.0
  0
LINE
  5
139
330
78
100
AcDbEntity
  8
0
  6
Continuous
 62
     0
100
AcDbLine
 10
5.699999809265137
 20
-17.10000038146973
 30
0.0
 11
5.699999809265137
 21
-16.60000038146973
 31
0.0
  0
LINE
  5
13A
330
78
100
AcDbEntity
  8
0
  6
Continuous
 62
     0
100
AcDbLine
 10
2.299999952316284
 20
-17.10000038146973
 30
0.0
 11
0.0
 21
-17.10000038146973
 31
0.0
  0
LINE
  5
13B
330
78
100
AcDbEntity
  8
0
  6
DASHED
 62
     0
100
AcDbLine
 10
-4.449999809265137
 20
12.19999980926514
 30
0.0
 11
-3.549999952316284
 21
12.19999980926514
 31
0.0
  0
LINE
  5
13C
330
78
100
AcDbEntity
  8
0
  6
Continuous
 62
     0
100
AcDbLine
 10
-42.5
 20
10.0
 30
0.0
 11
-42.5
 21
15.69999980926514
 31
0.0
  0
LINE
  5
13D
330
78
100
AcDbEntity
  8
0
  6
Continuous
 62
     0
100
AcDbLine
 10
-1.850000390989702
 20
15.99999983594849
 30
0.0
 11
-2.30000017177791
 21
16.49999956564989
 31
0.0
  0
LINE
  5
13E
330
78
100
AcDbEntity
  8
0
  6
DASHED
 62
     0
100
AcDbLine
 10
-1.850000023841858
 20
13.89999961853027
 30
0.0
 11
-1.850000023841858
 21
15.0
 31
0.0
  0
LINE
  5
13F
330
78
100
AcDbEntity
  8
0
  6
Continuous
 62
     0
100
AcDbLine
 10
-5.699999809265137
 20
16.5
 30
0.0
 11
-5.699999809265137
 21
17.0
 31
0.0
  0
LINE
  5
140
330
78
100
AcDbEntity
  8
0
  6
Continuous
 62
     0
100
AcDbLine
 10
-39.5
 20
0.0
 30
0.0
 11
-39.5
 21
7.0
 31
0.0
  0
LINE
  5
141
330
78
100
AcDbEntity
  8
0
  6
Continuous
 62
     0
100
AcDbLine
 10
-2.299999952316284
 20
16.5
 30
0.0
 11
-2.299999952316284
 21
17.0
 31
0.0
  0
LINE
  5
142
330
78
100
AcDbEntity
  8
0
  6
Continuous
 62
     0
100
AcDbLine
 10
-19.3000003144117
 20
17.0
 30
0.0
 11
-5.699999809265137
 21
17.0
 31
0.0
  0
LINE
  5
143
330
78
100
AcDbEntity
  8
0
  6
DASHED
 62
     0
100
AcDbLine
 10
-21.5000002642459
 20
14.80000005016606
 30
0.0
 11
-21.70000021024683
 21
14.99999999616699
 31
0.0
  0
LINE
  5
144
330
78
100
AcDbEntity
  8
0
  6
DASHED
 62
     0
100
AcDbLine
 10
-6.150000095367432
 20
13.89999961853027
 30
0.0
 11
-6.150000095367432
 21
15.0
 31
0.0
  0
LINE
  5
145
330
78
100
AcDbEntity
  8
0
  6
Continuous
 62
     0
100
AcDbLine
 10
-6.149999516130134
 20
15.99999983594848
 30
0.0
 11
-5.699999097367425
 21
16.5000002745104
 31
0.0
  0
LINE
  5
146
330
78
100
AcDbEntity
  8
0
  6
Continuous
 62
     0
100
AcDbLine
 10
-41.5
 20
16.70000076293945
 30
0.0
 11
-36.5
 21
16.70000076293945
 31
0.0
  0
LINE
  5
147
330
78
100
AcDbEntity
  8
0
  6
Continuous
 62
     0
100
AcDbLine
 10
-42.5
 20
-18.0
 30
0.0
 11
-42.5
 21
-3.0
 31
0.0
  0
LINE
  5
148
330
78
100
AcDbEntity
  8
0
  6
Continuous
 62
     0
100
AcDbLine
 10
-12.00000046897815
 20
-19.00000060205959
 30
0.0
 11
-10.10000030761976
 21
-17.1000004407012
 31
0.0
  0
LINE
  5
149
330
78
100
AcDbEntity
  8
0
  6
DASHED
 62
     0
100
AcDbLine
 10
-21.50000026424582
 20
14.800000050166
 30
0.0
 11
-21.30000031824489
 21
14.99999999616693
 31
0.0
  0
LINE
  5
14A
330
78
100
AcDbEntity
  8
0
  6
Continuous
 62
     0
100
AcDbLine
 10
-36.4999995860633
 20
16.69999953717482
 30
0.0
 11
-36.19999966706191
 21
16.99999945617621
 31
0.0
  0
LINE
  5
14B
330
78
100
AcDbEntity
  8
0
  6
Continuous
 62
     0
100
AcDbLine
 10
-41.5
 20
-19.0
 30
0.0
 11
-12.0
 21
-19.0
 31
0.0
  0
LINE
  5
14C
330
78
100
AcDbEntity
  8
0
  6
Continuous
 62
     0
100
AcDbLine
 10
-2.300000812410786
 20
-16.60000022284289
 30
0.0
 11
-1.850000393648077
 21
-16.09999978428097
 31
0.0
  0
LINE
  5
14D
330
78
100
AcDbEntity
  8
0
  6
Continuous
 62
     0
100
AcDbLine
 10
-42.50000133783897
 20
10.00000134614381
 30
0.0
 11
-39.5000007991259
 21
7.000000807430744
 31
0.0
  0
LINE
  5
14E
330
78
100
AcDbEntity
  8
0
  6
Continuous
 62
     0
100
AcDbLine
 10
-42.4999999891398
 20
-3.000000538713174
 30
0.0
 11
-39.49999945042673
 21
-0.000000000000107
 31
0.0
  0
LINE
  5
14F
330
78
100
AcDbEntity
  8
0
  6
Continuous
 62
     0
100
AcDbLine
 10
-6.149999194484707
 20
-16.10000013871131
 30
0.0
 11
-5.699999094709249
 21
-16.60000022284297
 31
0.0
  0
LINE
  5
150
330
78
100
AcDbEntity
  8
0
  6
Continuous
 62
     0
100
AcDbLine
 10
-10.10000038146973
 20
-17.10000038146973
 30
0.0
 11
-5.699999809265137
 21
-17.10000038146973
 31
0.0
  0
LINE
  5
151
330
78
100
AcDbEntity
  8
0
  6
DASHED
 62
     0
100
AcDbLine
 10
-4.449999809265137
 20
-12.30000019073486
 30
0.0
 11
-3.549999952316284
 21
-12.30000019073486
 31
0.0
  0
LINE
  5
152
330
78
100
AcDbEntity
  8
0
  6
Continuous
 62
     0
100
AcDbLine
 10
-1.850000023841858
 20
-16.10000038146973
 30
0.0
 11
-1.850000023841858
 21
-15.0
 31
0.0
  0
LINE
  5
153
330
78
100
AcDbEntity
  8
0
  6
Continuous
 62
     0
100
AcDbLine
 10
-6.150000095367432
 20
-16.10000038146973
 30
0.0
 11
-6.150000095367432
 21
-15.0
 31
0.0
  0
LINE
  5
154
330
78
100
AcDbEntity
  8
0
  6
Continuous
 62
     0
100
AcDbLine
 10
-2.299999952316284
 20
-17.10000038146973
 30
0.0
 11
-2.299999952316284
 21
-16.60000038146973
 31
0.0
  0
LINE
  5
155
330
78
100
AcDbEntity
  8
0
  6
Continuous
 62
     0
100
AcDbLine
 10
-5.699999809265137
 20
-17.10000038146973
 30
0.0
 11
-5.699999809265137
 21
-16.60000038146973
 31
0.0
  0
LINE
  5
156
330
78
100
AcDbEntity
  8
0
  6
Continuous
 62
     0
100
AcDbLine
 10
-2.299999952316284
 20
-17.10000038146973
 30
0.0
 11
0.0
 21
-17.10000038146973
 31
0.0
  0
LINE
  5
157
330
78
100
AcDbEntity
  8
0
  6
Continuous
 62
     0
100
AcDbLine
 10
-23.70000076293945
 20
17.0
 30
0.0
 11
-36.20000076293945
 21
17.0
 31
0.0
  0
LINE
  5
158
330
78
100
AcDbEntity
  8
0
  6
CENTER
 62
     4
100
AcDbLine
 10
0.0
 20
-19.0
 30
0.0
 11
0.0
 21
19.55454635620117
 31
0.0
  0
LINE
  5
159
330
78
100
AcDbEntity
  8
0
  6
CENTER
 62
     4
100
AcDbLine
 10
-4.0
 20
-19.0
 30
0.0
 11
-4.0
 21
-10.65368175506592
 31
0.0
  0
LINE
  5
15A
330
78
100
AcDbEntity
  8
0
  6
CENTER
 62
     4
100
AcDbLine
 10
4.0
 20
-19.0
 30
0.0
 11
4.0
 21
-10.65368175506592
 31
0.0
  0
LINE
  5
15B
330
78
100
AcDbEntity
  8
0
  6
CENTER
 62
     4
100
AcDbLine
 10
-4.0
 20
10.15898513793945
 30
0.0
 11
-4.0
 21
19.55454635620117
 31
0.0
  0
LINE
  5
15C
330
78
100
AcDbEntity
  8
0
  6
CENTER
 62
     4
100
AcDbLine
 10
4.0
 20
10.15898513793945
 30
0.0
 11
4.0
 21
19.55454635620117
 31
0.0
  0
LINE
  5
15D
330
78
100
AcDbEntity
  8
0
  6
Continuous
 62
     0
100
AcDbLine
 10
6.150000095367432
 20
15.0
 30
0.0
 11
6.150000095367432
 21
16.0
 31
0.0
  0
LINE
  5
15E
330
78
100
AcDbEntity
  8
0
  6
Continuous
 62
     0
100
AcDbLine
 10
1.850000023841858
 20
15.0
 30
0.0
 11
1.850000023841858
 21
16.0
 31
0.0
  0
LINE
  5
15F
330
78
100
AcDbEntity
  8
0
  6
Continuous
 62
     0
100
AcDbLine
 10
-1.850000023841858
 20
15.0
 30
0.0
 11
-1.850000023841858
 21
16.0
 31
0.0
  0
LINE
  5
160
330
78
100
AcDbEntity
  8
0
  6
Continuous
 62
     0
100
AcDbLine
 10
-6.150000095367432
 20
15.0
 30
0.0
 11
-6.150000095367432
 21
16.0
 31
0.0
  0
LINE
  5
161
330
78
100
AcDbEntity
  8
0
  6
Continuous
 62
     0
100
AcDbLine
 10
21.70000021024693
 20
14.9999999961669
 30
0.0
 11
23.69999967025621
 21
16.99999945617618
 31
0.0
  0
LINE
  5
162
330
78
100
AcDbEntity
  8
0
  6
Continuous
 62
     0
100
AcDbLine
 10
21.30000031824516
 20
14.99999999616695
 30
0.0
 11
19.30000018388631
 21
17.0000001305258
 31
0.0
  0
LINE
  5
163
330
78
100
AcDbEntity
  8
0
  6
Continuous
 62
     0
100
AcDbLine
 10
-21.30000031824489
 20
14.99999999616693
 30
0.0
 11
-19.30000018388604
 21
17.00000013052578
 31
0.0
  0
LINE
  5
164
330
78
100
AcDbEntity
  8
0
  6
Continuous
 62
     0
100
AcDbLine
 10
-21.70000021024683
 20
14.99999999616699
 30
0.0
 11
-23.6999996702561
 21
16.99999945617626
 31
0.0
  0
LINE
  5
165
330
78
100
AcDbEntity
  8
0
  6
DASHED
 62
     0
100
AcDbLine
 10
-6.150000095367432
 20
-15.0
 30
0.0
 11
-6.150000095367432
 21
-14.0
 31
0.0
  0
LINE
  5
166
330
78
100
AcDbEntity
  8
0
  6
DASHED
 62
     0
100
AcDbLine
 10
-1.850000023841858
 20
-15.0
 30
0.0
 11
-1.850000023841858
 21
-14.0
 31
0.0
  0
LINE
  5
167
330
78
100
AcDbEntity
  8
0
  6
DASHED
 62
     0
100
AcDbLine
 10
1.850000023841858
 20
-15.0
 30
0.0
 11
1.850000023841858
 21
-14.0
 31
0.0
  0
LINE
  5
168
330
78
100
AcDbEntity
  8
0
  6
DASHED
 62
     0
100
AcDbLine
 10
6.150000095367432
 20
-15.0
 30
0.0
 11
6.150000095367432
 21
-14.0
 31
0.0
  0
LINE
  5
169
330
78
100
AcDbEntity
  8
0
  6
DASHED
 62
     0
100
AcDbLine
 10
-35.50000159680639
 20
-15.70434026695049
 30
0.0
 11
-41.92883745352987
 21
-15.92884015150337
 31
0.0
  0
LINE
  5
16A
330
78
100
AcDbEntity
  8
0
  6
DASHED
 62
     0
100
AcDbLine
 10
-35.50000093451144
 20
-7.295663993303596
 30
0.0
 11
-41.92883679123492
 21
-7.071164108750708
 31
0.0
  0
LINE
  5
16B
330
78
100
AcDbEntity
  8
0
  6
DASHED
 62
     0
100
AcDbLine
 10
-36.49999995430178
 20
-16.32061640517544
 30
0.0
 11
-42.47972296849267
 21
-16.52943292441198
 31
0.0
  0
LINE
  5
16C
330
78
100
AcDbEntity
  8
0
  6
CENTER
 62
     4
100
AcDbLine
 10
-32.80051261204949
 20
-11.5
 30
0.0
 11
-45.35034964167278
 21
-11.5
 31
0.0
  0
LINE
  5
16D
330
78
100
AcDbEntity
  8
0
  6
DASHED
 62
     0
100
AcDbLine
 10
-29.32061214492133
 20
-12.99999929200661
 30
0.0
 11
-29.5298540177298
 21
-18.9919028393873
 31
0.0
  0
LINE
  5
16E
330
78
100
AcDbEntity
  8
0
  6
DASHED
 62
     0
100
AcDbLine
 10
-20.29565973304956
 20
-12.0000015968063
 30
0.0
 11
-20.07115984849667
 21
-18.42883745352978
 31
0.0
  0
LINE
  5
16F
330
78
100
AcDbEntity
  8
0
  6
DASHED
 62
     0
100
AcDbLine
 10
-28.70433600669631
 20
-12.00000093451133
 30
0.0
 11
-28.9288358912492
 21
-18.42883679123481
 31
0.0
  0
LINE
  5
170
330
78
100
AcDbEntity
  8
0
  6
DASHED
 62
     0
100
AcDbLine
 10
-19.67938359482454
 20
-12.99999995430177
 30
0.0
 11
-19.47056707558799
 21
-18.97972296849265
 31
0.0
  0
LINE
  5
171
330
78
100
AcDbEntity
  8
0
  6
CENTER
 62
     4
100
AcDbLine
 10
-24.5
 20
-9.300512612049488
 30
0.0
 11
-24.5
 21
-21.85034964167278
 31
0.0
  0
CIRCLE
  5
172
330
78
100
AcDbEntity
  8
0
  6
Continuous
 62
     0
100
AcDbCircle
 10
0.0
 20
0.0
 30
0.0
 40
4.75
  0
CIRCLE
  5
173
330
78
100
AcDbEntity
  8
0
  6
Continuous
 62
     0
100
AcDbCircle
 10
27.5
 20
0.0
 30
0.0
 40
4.75
  0
CIRCLE
  5
174
330
78
100
AcDbEntity
  8
0
  6
Continuous
 62
     4
100
AcDbCircle
 10
30.0
 20
9.0
 30
0.0
 40
2.5
  0
CIRCLE
  5
175
330
78
100
AcDbEntity
  8
0
  6
Continuous
 62
     0
100
AcDbCircle
 10
-27.5
 20
0.0
 30
0.0
 40
4.75
  0
CIRCLE
  5
176
330
78
100
AcDbEntity
  8
0
  6
Continuous
 62
     4
100
AcDbCircle
 10
30.0
 20
-9.0
 30
0.0
 40
2.5
  0
CIRCLE
  5
177
330
78
100
AcDbEntity
  8
0
  6
Continuous
 62
     4
100
AcDbCircle
 10
-30.0
 20
9.0
 30
0.0
 40
2.5
  0
CIRCLE
  5
178
330
78
100
AcDbEntity
  8
0
  6
Continuous
 62
     0
100
AcDbCircle
 10
30.0
 20
9.0
 30
0.0
 40
2.099999904632568
  0
CIRCLE
  5
179
330
78
100
AcDbEntity
  8
0
  6
Continuous
 62
     4
100
AcDbCircle
 10
-30.0
 20
-9.0
 30
0.0
 40
2.5
  0
CIRCLE
  5
17A
330
78
100
AcDbEntity
  8
0
  6
Continuous
 62
     0
100
AcDbCircle
 10
30.0
 20
-9.0
 30
0.0
 40
2.099999904632568
  0
CIRCLE
  5
17B
330
78
100
AcDbEntity
  8
0
  6
Continuous
 62
     0
100
AcDbCircle
 10
-30.0
 20
9.0
 30
0.0
 40
2.099999904632568
  0
CIRCLE
  5
17C
330
78
100
AcDbEntity
  8
0
  6
Continuous
 62
     0
100
AcDbCircle
 10
-30.0
 20
-9.0
 30
0.0
 40
2.099999904632568
  0
CIRCLE
  5
17D
330
78
100
AcDbEntity
  8
0
  6
Continuous
 62
     0
100
AcDbCircle
 10
27.5
 20
0.0
 30
0.0
 40
4.25
  0
CIRCLE
  5
17E
330
78
100
AcDbEntity
  8
0
  6
Continuous
 62
     0
100
AcDbCircle
 10
0.0
 20
0.0
 30
0.0
 40
4.25
  0
CIRCLE
  5
17F
330
78
100
AcDbEntity
  8
0
  6
Continuous
 62
     0
100
AcDbCircle
 10
-27.5
 20
0.0
 30
0.0
 40
4.25
  0
ARC
  5
180
330
78
100
AcDbEntity
  8
0
  6
DASHED
 62
     0
100
AcDbCircle
 10
4.449999809265137
 20
13.89999961853027
 30
0.0
 40
1.700000047683716
100
AcDbArc
 50
270.0
 51
0.000002504478167
  0
ARC
  5
181
330
78
100
AcDbEntity
  8
0
  6
Continuous
 62
     0
100
AcDbCircle
 10
41.5
 20
15.69999980926514
 30
0.0
 40
1.0
100
AcDbArc
 50
0.000002504478142
 51
90.00000500895631
  0
ARC
  5
182
330
78
100
AcDbEntity
  8
0
  6
DASHED
 62
     0
100
AcDbCircle
 10
3.549999952316284
 20
13.89999961853027
 30
0.0
 40
1.700000047683716
100
AcDbArc
 50
179.9999974955218
 51
270.0
  0
ARC
  5
183
330
78
100
AcDbEntity
  8
0
  6
Continuous
 62
     0
100
AcDbCircle
 10
41.5
 20
-18.0
 30
0.0
 40
1.0
100
AcDbArc
 50
270.0
 51
0.000002504478167
  0
ARC
  5
184
330
78
100
AcDbEntity
  8
0
  6
DASHED
 62
     0
100
AcDbCircle
 10
4.449999809265137
 20
-14.0
 30
0.0
 40
1.700000047683716
100
AcDbArc
 50
0.000002504478142
 51
90.00000500895631
  0
ARC
  5
185
330
78
100
AcDbEntity
  8
0
  6
DASHED
 62
     0
100
AcDbCircle
 10
3.549999952316284
 20
-14.0
 30
0.0
 40
1.700000047683716
100
AcDbArc
 50
90.00000500895631
 51
180.0000006832453
  0
ARC
  5
186
330
78
100
AcDbEntity
  8
0
  6
DASHED
 62
     0
100
AcDbCircle
 10
-4.449999809265137
 20
13.89999961853027
 30
0.0
 40
1.700000047683716
100
AcDbArc
 50
179.9999974955218
 51
270.0
  0
ARC
  5
187
330
78
100
AcDbEntity
  8
0
  6
Continuous
 62
     0
100
AcDbCircle
 10
-41.5
 20
15.69999980926514
 30
0.0
 40
1.0
100
AcDbArc
 50
89.99999499104366
 51
179.9999974955218
  0
ARC
  5
188
330
78
100
AcDbEntity
  8
0
  6
DASHED
 62
     0
100
AcDbCircle
 10
-3.549999952316284
 20
13.89999961853027
 30
0.0
 40
1.700000047683716
100
AcDbArc
 50
270.0
 51
0.000002504478167
  0
ARC
  5
189
330
78
100
AcDbEntity
  8
0
  6
Continuous
 62
     0
100
AcDbCircle
 10
-41.5
 20
-18.0
 30
0.0
 40
1.0
100
AcDbArc
 50
179.9999974955218
 51
270.0
  0
ARC
  5
18A
330
78
100
AcDbEntity
  8
0
  6
DASHED
 62
     0
100
AcDbCircle
 10
-4.449999809265137
 20
-14.0
 30
0.0
 40
1.700000047683716
100
AcDbArc
 50
89.99999499104366
 51
179.9999974955218
  0
ARC
  5
18B
330
78
100
AcDbEntity
  8
0
  6
DASHED
 62
     0
100
AcDbCircle
 10
-3.549999952316284
 20
-14.0
 30
0.0
 40
1.700000047683716
100
AcDbArc
 50
0.000002504478142
 51
90.00000500895631
  0
MTEXT
  5
18C
330
78
100
AcDbEntity
  8
0
 62
     0
100
AcDbMText
 10
5.340826319499979
 20
0.455647653619593
 30
0.0
 40
0.5
 41
0.0
 71
     7
 72
     1
  1
{\W0.833333;BN-6AK23-20}
 73
     1
 44
1.0
  0
ENDBLK
  5
7A
330
78
100
AcDbEntity
  8
0
100
AcDbBlockEnd
  0
BLOCK
  5
7C
330
7B
100
AcDbEntity
  8
0
100
AcDbBlockBegin
  2
DTL0003
 70
     0
 10
0.0
 20
0.0
 30
0.0
  3
DTL0003
  1

  0
POINT
  5
18D
330
7B
100
AcDbEntity
  8
0
 62
     0
100
AcDbPoint
 10
0.0
 20
0.0
 30
0.0
  0
POINT
  5
18E
330
7B
100
AcDbEntity
  8
0
 62
     0
100
AcDbPoint
 10
0.0
 20
0.0
 30
0.0
  0
LINE
  5
18F
330
7B
100
AcDbEntity
  8
0
  6
Continuous
 62
     0
100
AcDbLine
 10
19.0
 20
-87.00000019073487
 30
0.0
 11
-17.0
 21
-87.00000019073487
 31
0.0
  0
LINE
  5
190
330
7B
100
AcDbEntity
  8
0
  6
Continuous
 62
     0
100
AcDbLine
 10
-15.0
 20
-0.5
 30
0.0
 11
-15.0
 21
-9.500000190734866
 31
0.0
  0
LINE
  5
191
330
7B
100
AcDbEntity
  8
0
  6
Continuous
 62
     0
100
AcDbLine
 10
14.5
 20
-10.00000019073487
 30
0.0
 11
-14.5
 21
-10.00000019073487
 31
0.0
  0
LINE
  5
192
330
7B
100
AcDbEntity
  8
0
  6
Continuous
 62
     0
100
AcDbLine
 10
-5.0
 20
-87.00000019073487
 30
0.0
 11
-5.0
 21
-113.5000001907349
 31
0.0
  0
LINE
  5
193
330
7B
100
AcDbEntity
  8
0
  6
Continuous
 62
     0
100
AcDbLine
 10
19.0
 20
-87.00000019073487
 30
0.0
 11
19.0
 21
-12.00000019073487
 31
0.0
  0
LINE
  5
194
330
7B
100
AcDbEntity
  8
0
  6
Continuous
 62
     0
100
AcDbLine
 10
-17.0
 20
-87.00000019073487
 30
0.0
 11
-17.0
 21
-12.00000019073487
 31
0.0
  0
LINE
  5
195
330
7B
100
AcDbEntity
  8
0
  6
Continuous
 62
     0
100
AcDbLine
 10
19.0
 20
-12.00000019073487
 30
0.0
 11
-17.0
 21
-12.00000019073487
 31
0.0
  0
LINE
  5
196
330
7B
100
AcDbEntity
  8
0
  6
Continuous
 62
     0
100
AcDbLine
 10
15.0
 20
-0.500000000000057
 30
0.0
 11
15.0
 21
-9.500000190734866
 31
0.0
  0
LINE
  5
197
330
7B
100
AcDbEntity
  8
0
  6
Continuous
 62
     0
100
AcDbLine
 10
5.0
 20
-87.00000019073487
 30
0.0
 11
5.0
 21
-113.5000001907349
 31
0.0
  0
LINE
  5
198
330
7B
100
AcDbEntity
  8
0
  6
CENTER
 62
     4
100
AcDbLine
 10
0.0
 20
-115.1732179641724
 30
0.0
 11
0.0
 21
2.530016899108887
 31
0.0
  0
LINE
  5
199
330
7B
100
AcDbEntity
  8
0
  6
Continuous
 62
     0
100
AcDbLine
 10
14.5
 20
0.0
 30
0.0
 11
-14.5
 21
0.0
 31
0.0
  0
LINE
  5
19A
330
7B
100
AcDbEntity
  8
0
  6
Continuous
 62
     0
100
AcDbLine
 10
-14.49999999999996
 20
-10.00000019073491
 30
0.0
 11
-15.00000000000006
 21
-9.500000190734843
 31
0.0
  0
LINE
  5
19B
330
7B
100
AcDbEntity
  8
0
  6
Continuous
 62
     0
100
AcDbLine
 10
-14.49999999999985
 20
-0.000000000000161
 30
0.0
 11
-14.99999999999986
 21
-0.500000000000151
 31
0.0
  0
LINE
  5
19C
330
7B
100
AcDbEntity
  8
0
  6
Continuous
 62
     0
100
AcDbLine
 10
-4.999999998722217
 20
-113.5000017794045
 30
0.0
 11
-4.499999459370322
 21
-114.0000023187564
 31
0.0
  0
LINE
  5
19D
330
7B
100
AcDbEntity
  8
0
  6
Continuous
 62
     0
100
AcDbLine
 10
4.499999459370869
 20
-114.0000023187568
 30
0.0
 11
4.999999998722728
 21
-113.500001779405
 31
0.0
  0
LINE
  5
19E
330
7B
100
AcDbEntity
  8
0
  6
Continuous
 62
     0
100
AcDbLine
 10
-4.5
 20
-114.0000001907349
 30
0.0
 11
4.5
 21
-114.0000001907349
 31
0.0
  0
LINE
  5
19F
330
7B
100
AcDbEntity
  8
0
  6
Continuous
 62
     0
100
AcDbLine
 10
14.50000000000004
 20
0.00000000000002
 30
0.0
 11
15.00000000000009
 21
-0.500000000000093
 31
0.0
  0
LINE
  5
1A0
330
7B
100
AcDbEntity
  8
0
  6
Continuous
 62
     0
100
AcDbLine
 10
14.50000000000046
 20
-10.0000001907354
 30
0.0
 11
15.00000000000047
 21
-9.500000190735395
 31
0.0
  0
LINE
  5
1A1
330
7B
100
AcDbEntity
  8
0
  6
CENTER
 62
     4
100
AcDbLine
 10
11.5
 20
-31.03054810830299
 30
0.0
 11
11.5
 21
-17.30889323431099
 31
0.0
  0
LINE
  5
1A2
330
7B
100
AcDbEntity
  8
0
  6
CENTER
 62
     4
100
AcDbLine
 10
5.321987323364624
 20
-24.00000019073487
 30
0.0
 11
17.67801267663538
 21
-24.00000019073487
 31
0.0
  0
LINE
  5
1A3
330
7B
100
AcDbEntity
  8
0
  6
CENTER
 62
     4
100
AcDbLine
 10
5.321987323364624
 20
-64.00000019073487
 30
0.0
 11
17.67801267663538
 21
-64.00000019073487
 31
0.0
  0
LINE
  5
1A4
330
7B
100
AcDbEntity
  8
0
  6
CENTER
 62
     4
100
AcDbLine
 10
11.5
 20
-71.030548108303
 30
0.0
 11
11.5
 21
-57.30889323431099
 31
0.0
  0
LINE
  5
1A5
330
7B
100
AcDbEntity
  8
0
  6
Continuous
 62
     0
100
AcDbLine
 10
-10.0
 20
-87.00000019073487
 30
0.0
 11
-10.0
 21
-12.00000019073487
 31
0.0
  0
LINE
  5
1A6
330
7B
100
AcDbEntity
  8
0
  6
Continuous
 62
     0
100
AcDbLine
 10
-16.70000000000005
 20
-87.00000019073487
 30
0.0
 11
-16.70000000000005
 21
-12.00000019073487
 31
0.0
  0
LINE
  5
1A7
330
7B
100
AcDbEntity
  8
0
  6
Continuous
 62
     0
100
AcDbLine
 10
0.0
 20
-87.00000019073487
 30
0.0
 11
0.0
 21
-12.00000019073487
 31
0.0
  0
LINE
  5
1A8
330
7B
100
AcDbEntity
  8
0
  6
Continuous
 62
     0
100
AcDbLine
 10
-7.0
 20
-87.00000019073487
 30
0.0
 11
-7.0
 21
-12.00000019073487
 31
0.0
  0
LINE
  5
1A9
330
7B
100
AcDbEntity
  8
0
  6
Continuous
 62
     0
100
AcDbLine
 10
3.0
 20
-87.00000019073487
 30
0.0
 11
3.0
 21
-12.00000019073487
 31
0.0
  0
LINE
  5
1AA
330
7B
100
AcDbEntity
  8
0
  6
Continuous
 62
     0
100
AcDbLine
 10
5.0
 20
-12.00000019073487
 30
0.0
 11
5.0
 21
-10.00000019073487
 31
0.0
  0
LINE
  5
1AB
330
7B
100
AcDbEntity
  8
0
  6
Continuous
 62
     0
100
AcDbLine
 10
-5.0
 20
-12.00000019073487
 30
0.0
 11
-5.0
 21
-10.00000019073487
 31
0.0
  0
CIRCLE
  5
1AC
330
7B
100
AcDbEntity
  8
0
  6
Continuous
 62
     4
100
AcDbCircle
 10
11.5
 20
-24.00000019073487
 30
0.0
 40
4.849999904632568
  0
CIRCLE
  5
1AD
330
7B
100
AcDbEntity
  8
0
  6
Continuous
 62
     4
100
AcDbCircle
 10
11.5
 20
-64.00000019073487
 30
0.0
 40
4.849999904632568
  0
CIRCLE
  5
1AE
330
7B
100
AcDbEntity
  8
0
  6
Continuous
 62
     0
100
AcDbCircle
 10
11.5
 20
-24.00000019073487
 30
0.0
 40
4.300000190734863
  0
CIRCLE
  5
1AF
330
7B
100
AcDbEntity
  8
0
  6
Continuous
 62
     0
100
AcDbCircle
 10
11.5
 20
-64.00000019073487
 30
0.0
 40
4.300000190734863
  0
MTEXT
  5
1B0
330
7B
100
AcDbEntity
  8
0
 62
     0
100
AcDbMText
 10
1.042689717617702
 20
-9.519338587640267
 30
0.0
 40
0.5
 41
0.0
 71
     7
 72
     1
  1
{\W0.833333;BN-6AK23-20}
 73
     1
 44
1.0
  0
ENDBLK
  5
7D
330
7B
100
AcDbEntity
  8
0
100
AcDbBlockEnd
  0
BLOCK
  5
7F
330
7E
100
AcDbEntity
  8
0
100
AcDbBlockBegin
  2
DTL0004
 70
     0
 10
0.0
 20
0.0
 30
0.0
  3
DTL0004
  1

  0
POINT
  5
1B1
330
7E
100
AcDbEntity
  8
0
 62
     0
100
AcDbPoint
 10
0.0
 20
0.0
 30
0.0
  0
POINT
  5
1B2
330
7E
100
AcDbEntity
  8
0
 62
     0
100
AcDbPoint
 10
0.0
 20
0.0
 30
0.0
  0
LINE
  5
1B3
330
7E
100
AcDbEntity
  8
0
  6
Continuous
 62
     0
100
AcDbLine
 10
0.0
 20
-87.00000019073487
 30
0.0
 11
0.0
 21
-12.00000019073487
 31
0.0
  0
LINE
  5
1B4
330
7E
100
AcDbEntity
  8
0
  6
Continuous
 62
     0
100
AcDbLine
 10
14.50000000000004
 20
0.000000000000003
 30
0.0
 11
15.00000000000005
 21
-0.499999999999988
 31
0.0
  0
LINE
  5
1B5
330
7E
100
AcDbEntity
  8
0
  6
Continuous
 62
     0
100
AcDbLine
 10
14.5
 20
-10.00000019073495
 30
0.0
 11
15.00000000000004
 21
-9.500000190734939
 31
0.0
  0
LINE
  5
1B6
330
7E
100
AcDbEntity
  8
0
  6
Continuous
 62
     0
100
AcDbLine
 10
-14.5
 20
0.0
 30
0.0
 11
14.5
 21
0.0
 31
0.0
  0
LINE
  5
1B7
330
7E
100
AcDbEntity
  8
0
  6
Continuous
 62
     0
100
AcDbLine
 10
-15.0
 20
-0.500000000000057
 30
0.0
 11
-15.0
 21
-9.500000190734866
 31
0.0
  0
LINE
  5
1B8
330
7E
100
AcDbEntity
  8
0
  6
Continuous
 62
     0
100
AcDbLine
 10
-5.0
 20
-87.00000019073487
 30
0.0
 11
-5.0
 21
-113.5000001907349
 31
0.0
  0
LINE
  5
1B9
330
7E
100
AcDbEntity
  8
0
  6
Continuous
 62
     0
100
AcDbLine
 10
17.0
 20
-87.00000019073487
 30
0.0
 11
17.0
 21
-12.00000019073487
 31
0.0
  0
LINE
  5
1BA
330
7E
100
AcDbEntity
  8
0
  6
Continuous
 62
     0
100
AcDbLine
 10
-19.0
 20
-12.00000019073487
 30
0.0
 11
17.0
 21
-12.00000019073487
 31
0.0
  0
LINE
  5
1BB
330
7E
100
AcDbEntity
  8
0
  6
CENTER
 62
     4
100
AcDbLine
 10
0.0
 20
-115.1732179641724
 30
0.0
 11
0.0
 21
2.530016899108887
 31
0.0
  0
LINE
  5
1BC
330
7E
100
AcDbEntity
  8
0
  6
Continuous
 62
     0
100
AcDbLine
 10
-14.5
 20
-10.00000019073487
 30
0.0
 11
14.5
 21
-10.00000019073487
 31
0.0
  0
LINE
  5
1BD
330
7E
100
AcDbEntity
  8
0
  6
Continuous
 62
     0
100
AcDbLine
 10
-19.0
 20
-87.00000019073487
 30
0.0
 11
-19.0
 21
-12.00000019073487
 31
0.0
  0
LINE
  5
1BE
330
7E
100
AcDbEntity
  8
0
  6
Continuous
 62
     0
100
AcDbLine
 10
5.0
 20
-87.00000019073487
 30
0.0
 11
5.0
 21
-113.5000001907349
 31
0.0
  0
LINE
  5
1BF
330
7E
100
AcDbEntity
  8
0
  6
Continuous
 62
     0
100
AcDbLine
 10
-19.0
 20
-87.00000019073487
 30
0.0
 11
17.0
 21
-87.00000019073487
 31
0.0
  0
LINE
  5
1C0
330
7E
100
AcDbEntity
  8
0
  6
Continuous
 62
     0
100
AcDbLine
 10
15.0
 20
-0.5
 30
0.0
 11
15.0
 21
-9.500000190734866
 31
0.0
  0
LINE
  5
1C1
330
7E
100
AcDbEntity
  8
0
  6
Continuous
 62
     0
100
AcDbLine
 10
-4.499999459370422
 20
-114.0000023187564
 30
0.0
 11
-4.999999998722323
 21
-113.5000017794045
 31
0.0
  0
LINE
  5
1C2
330
7E
100
AcDbEntity
  8
0
  6
Continuous
 62
     0
100
AcDbLine
 10
4.999999998722515
 20
-113.5000017794047
 30
0.0
 11
4.499999459370621
 21
-114.0000023187565
 31
0.0
  0
LINE
  5
1C3
330
7E
100
AcDbEntity
  8
0
  6
Continuous
 62
     0
100
AcDbLine
 10
4.5
 20
-114.0000001907349
 30
0.0
 11
-4.5
 21
-114.0000001907349
 31
0.0
  0
LINE
  5
1C4
330
7E
100
AcDbEntity
  8
0
  6
Continuous
 62
     0
100
AcDbLine
 10
-14.49999999999995
 20
-0.000000000000085
 30
0.0
 11
-14.99999999999995
 21
-0.500000000000139
 31
0.0
  0
LINE
  5
1C5
330
7E
100
AcDbEntity
  8
0
  6
Continuous
 62
     0
100
AcDbLine
 10
-14.4999999999999
 20
-10.00000019073494
 30
0.0
 11
-14.9999999999999
 21
-9.500000190734932
 31
0.0
  0
LINE
  5
1C6
330
7E
100
AcDbEntity
  8
0
  6
Continuous
 62
     0
100
AcDbLine
 10
7.0
 20
-87.00000019073487
 30
0.0
 11
7.0
 21
-12.00000019073487
 31
0.0
  0
LINE
  5
1C7
330
7E
100
AcDbEntity
  8
0
  6
Continuous
 62
     0
100
AcDbLine
 10
10.0
 20
-87.00000019073487
 30
0.0
 11
10.0
 21
-12.00000019073487
 31
0.0
  0
LINE
  5
1C8
330
7E
100
AcDbEntity
  8
0
  6
Continuous
 62
     0
100
AcDbLine
 10
16.69999999999999
 20
-87.00000019073487
 30
0.0
 11
16.69999999999999
 21
-12.00000019073487
 31
0.0
  0
LINE
  5
1C9
330
7E
100
AcDbEntity
  8
0
  6
Continuous
 62
     0
100
AcDbLine
 10
-3.0
 20
-87.00000019073487
 30
0.0
 11
-3.0
 21
-12.00000019073487
 31
0.0
  0
LINE
  5
1CA
330
7E
100
AcDbEntity
  8
0
  6
Continuous
 62
     0
100
AcDbLine
 10
-5.0
 20
-12.00000019073487
 30
0.0
 11
-5.0
 21
-10.00000019073487
 31
0.0
  0
LINE
  5
1CB
330
7E
100
AcDbEntity
  8
0
  6
Continuous
 62
     0
100
AcDbLine
 10
5.0
 20
-12.00000019073487
 30
0.0
 11
5.0
 21
-10.00000019073487
 31
0.0
  0
MTEXT
  5
1CC
330
7E
100
AcDbEntity
  8
0
 62
     0
100
AcDbMText
 10
-6.104873125624596
 20
-9.304207630905687
 30
0.0
 40
0.5
 41
0.0
 71
     7
 72
     1
  1
{\W0.833333;BN-6AK23-20}
 73
     1
 44
1.0
  0
ENDBLK
  5
80
330
7E
100
AcDbEntity
  8
0
100
AcDbBlockEnd
  0
BLOCK
  5
82
330
81
100
AcDbEntity
  8
0
100
AcDbBlockBegin
  2
DTL0005
 70
     0
 10
0.0
 20
0.0
 30
0.0
  3
DTL0005
  1

  0
POINT
  5
1CD
330
81
100
AcDbEntity
  8
0
 62
     0
100
AcDbPoint
 10
0.0
 20
0.0
 30
0.0
  0
POINT
  5
1CE
330
81
100
AcDbEntity
  8
0
 62
     0
100
AcDbPoint
 10
0.0
 20
0.0
 30
0.0
  0
LINE
  5
1CF
330
81
100
AcDbEntity
  8
0
  6
Continuous
 62
     0
100
AcDbLine
 10
42.5
 20
-87.00000305175782
 30
0.0
 11
42.5
 21
-12.00000305175782
 31
0.0
  0
LINE
  5
1D0
330
81
100
AcDbEntity
  8
0
  6
CENTER
 62
     4
100
AcDbLine
 10
9.046627044677734
 20
-31.00000305175782
 30
0.0
 11
18.46207237243652
 21
-31.00000305175782
 31
0.0
  0
LINE
  5
1D1
330
81
100
AcDbEntity
  8
0
  6
CENTER
 62
     4
100
AcDbLine
 10
14.0
 20
-26.17906494140625
 30
0.0
 11
14.0
 21
-35.70399017333985
 31
0.0
  0
LINE
  5
1D2
330
81
100
AcDbEntity
  8
0
  6
CENTER
 62
     4
100
AcDbLine
 10
9.156108856201172
 20
-71.00000305175782
 30
0.0
 11
18.57155418395996
 21
-71.00000305175782
 31
0.0
  0
LINE
  5
1D3
330
81
100
AcDbEntity
  8
0
  6
CENTER
 62
     4
100
AcDbLine
 10
14.0
 20
-66.43126220703125
 30
0.0
 11
14.0
 21
-75.62774200439453
 31
0.0
  0
LINE
  5
1D4
330
81
100
AcDbEntity
  8
0
  6
CENTER
 62
     4
100
AcDbLine
 10
28.09648132324219
 20
-73.00000305175782
 30
0.0
 11
36.20000076293945
 21
-73.00000305175782
 31
0.0
  0
LINE
  5
1D5
330
81
100
AcDbEntity
  8
0
  6
CENTER
 62
     4
100
AcDbLine
 10
32.0
 20
-69.05882759094239
 30
0.0
 11
32.0
 21
-76.72256393432617
 31
0.0
  0
LINE
  5
1D6
330
81
100
AcDbEntity
  8
0
  6
Continuous
 62
     0
100
AcDbLine
 10
5.0
 20
-10.00000305175782
 30
0.0
 11
5.0
 21
-12.00000305175782
 31
0.0
  0
LINE
  5
1D7
330
81
100
AcDbEntity
  8
0
  6
Continuous
 62
     0
100
AcDbLine
 10
36.0
 20
-0.5
 30
0.0
 11
36.0
 21
-9.500003051757815
 31
0.0
  0
LINE
  5
1D8
330
81
100
AcDbEntity
  8
0
  6
Continuous
 62
     0
100
AcDbLine
 10
35.49999783301005
 20
-0.000004910724066
 30
0.0
 11
35.99999837236194
 21
-0.500005450075964
 31
0.0
  0
LINE
  5
1D9
330
81
100
AcDbEntity
  8
0
  6
Continuous
 62
     0
100
AcDbLine
 10
36.00000106976031
 20
-9.50000037671873
 30
0.0
 11
35.50000053040841
 21
-10.00000091607063
 31
0.0
  0
LINE
  5
1DA
330
81
100
AcDbEntity
  8
0
  6
CENTER
 62
     4
100
AcDbLine
 10
0.0
 20
-89.0871553647316
 30
0.0
 11
0.0
 21
2.041444610337066
 31
0.0
  0
LINE
  5
1DB
330
81
100
AcDbEntity
  8
0
  6
CENTER
 62
     4
100
AcDbLine
 10
36.20000076293945
 20
-23.00000305175782
 30
0.0
 11
28.09648132324219
 21
-23.00000305175782
 31
0.0
  0
LINE
  5
1DC
330
81
100
AcDbEntity
  8
0
  6
CENTER
 62
     4
100
AcDbLine
 10
32.0
 20
-19.17222137451172
 30
0.0
 11
32.0
 21
-26.94543762207032
 31
0.0
  0
LINE
  5
1DD
330
81
100
AcDbEntity
  8
0
  6
Continuous
 62
     0
100
AcDbLine
 10
36.5
 20
-12.00000305175782
 30
0.0
 11
36.5
 21
-87.00000305175782
 31
0.0
  0
LINE
  5
1DE
330
81
100
AcDbEntity
  8
0
  6
Continuous
 62
     0
100
AcDbLine
 10
36.20000076293945
 20
-12.00000305175782
 30
0.0
 11
36.20000076293945
 21
-87.00000305175782
 31
0.0
  0
LINE
  5
1DF
330
81
100
AcDbEntity
  8
0
  6
Continuous
 62
     0
100
AcDbLine
 10
23.70000076293945
 20
-12.00000305175782
 30
0.0
 11
23.70000076293945
 21
-87.00000305175782
 31
0.0
  0
LINE
  5
1E0
330
81
100
AcDbEntity
  8
0
  6
Continuous
 62
     0
100
AcDbLine
 10
21.5
 20
-12.00000305175782
 30
0.0
 11
21.5
 21
-87.00000305175782
 31
0.0
  0
LINE
  5
1E1
330
81
100
AcDbEntity
  8
0
  6
Continuous
 62
     0
100
AcDbLine
 10
19.29999923706055
 20
-12.00000305175782
 30
0.0
 11
19.29999923706055
 21
-87.00000305175782
 31
0.0
  0
LINE
  5
1E2
330
81
100
AcDbEntity
  8
0
  6
Continuous
 62
     0
100
AcDbLine
 10
5.699999809265137
 20
-12.00000305175782
 30
0.0
 11
5.699999809265137
 21
-87.00000305175782
 31
0.0
  0
LINE
  5
1E3
330
81
100
AcDbEntity
  8
0
  6
Continuous
 62
     0
100
AcDbLine
 10
2.299999952316284
 20
-12.00000305175782
 30
0.0
 11
2.299999952316284
 21
-87.00000305175782
 31
0.0
  0
LINE
  5
1E4
330
81
100
AcDbEntity
  8
0
  6
CENTER
 62
     4
100
AcDbLine
 10
27.5
 20
-115.1732208251953
 30
0.0
 11
27.5
 21
2.041444610337066
 31
0.0
  0
LINE
  5
1E5
330
81
100
AcDbEntity
  8
0
  6
Continuous
 62
     0
100
AcDbLine
 10
22.5
 20
-10.00000305175782
 30
0.0
 11
22.5
 21
-12.00000305175782
 31
0.0
  0
LINE
  5
1E6
330
81
100
AcDbEntity
  8
0
  6
Continuous
 62
     0
100
AcDbLine
 10
32.5
 20
-10.00000305175782
 30
0.0
 11
32.5
 21
-12.00000305175782
 31
0.0
  0
LINE
  5
1E7
330
81
100
AcDbEntity
  8
0
  6
CENTER
 62
     4
100
AcDbLine
 10
-14.0
 20
-26.17906494140625
 30
0.0
 11
-14.0
 21
-35.70399017333985
 31
0.0
  0
LINE
  5
1E8
330
81
100
AcDbEntity
  8
0
  6
CENTER
 62
     4
100
AcDbLine
 10
-32.0
 20
-19.17222137451172
 30
0.0
 11
-32.0
 21
-26.94543762207032
 31
0.0
  0
LINE
  5
1E9
330
81
100
AcDbEntity
  8
0
  6
CENTER
 62
     4
100
AcDbLine
 10
-36.20000076293945
 20
-23.00000305175782
 30
0.0
 11
-28.09648132324219
 21
-23.00000305175782
 31
0.0
  0
LINE
  5
1EA
330
81
100
AcDbEntity
  8
0
  6
Continuous
 62
     0
100
AcDbLine
 10
-36.0000010697602
 20
-9.500000376718706
 30
0.0
 11
-35.50000053040831
 21
-10.0000009160706
 31
0.0
  0
LINE
  5
1EB
330
81
100
AcDbEntity
  8
0
  6
Continuous
 62
     0
100
AcDbLine
 10
-35.49999783300976
 20
-0.000004910724314
 30
0.0
 11
-35.9999983723617
 21
-0.500005450076248
 31
0.0
  0
LINE
  5
1EC
330
81
100
AcDbEntity
  8
0
  6
Continuous
 62
     0
100
AcDbLine
 10
-35.5
 20
0.0
 30
0.0
 11
35.5
 21
0.0
 31
0.0
  0
LINE
  5
1ED
330
81
100
AcDbEntity
  8
0
  6
Continuous
 62
     0
100
AcDbLine
 10
-35.5
 20
-10.00000305175782
 30
0.0
 11
35.5
 21
-10.00000305175782
 31
0.0
  0
LINE
  5
1EE
330
81
100
AcDbEntity
  8
0
  6
Continuous
 62
     0
100
AcDbLine
 10
-36.0
 20
-0.5
 30
0.0
 11
-36.0
 21
-9.500003051757815
 31
0.0
  0
LINE
  5
1EF
330
81
100
AcDbEntity
  8
0
  6
CENTER
 62
     4
100
AcDbLine
 10
-9.046627044677734
 20
-31.00000305175782
 30
0.0
 11
-18.46207237243652
 21
-31.00000305175782
 31
0.0
  0
LINE
  5
1F0
330
81
100
AcDbEntity
  8
0
  6
Continuous
 62
     0
100
AcDbLine
 10
-42.5
 20
-87.00000305175782
 30
0.0
 11
-42.5
 21
-12.00000305175782
 31
0.0
  0
LINE
  5
1F1
330
81
100
AcDbEntity
  8
0
  6
Continuous
 62
     0
100
AcDbLine
 10
42.5
 20
-87.00000305175782
 30
0.0
 11
-42.5
 21
-87.00000305175782
 31
0.0
  0
LINE
  5
1F2
330
81
100
AcDbEntity
  8
0
  6
Continuous
 62
     0
100
AcDbLine
 10
42.5
 20
-12.00000305175782
 30
0.0
 11
-42.5
 21
-12.00000305175782
 31
0.0
  0
LINE
  5
1F3
330
81
100
AcDbEntity
  8
0
  6
CENTER
 62
     4
100
AcDbLine
 10
-9.156108856201172
 20
-71.00000305175782
 30
0.0
 11
-18.57155418395996
 21
-71.00000305175782
 31
0.0
  0
LINE
  5
1F4
330
81
100
AcDbEntity
  8
0
  6
CENTER
 62
     4
100
AcDbLine
 10
-14.0
 20
-66.43126220703125
 30
0.0
 11
-14.0
 21
-75.62774200439453
 31
0.0
  0
LINE
  5
1F5
330
81
100
AcDbEntity
  8
0
  6
CENTER
 62
     4
100
AcDbLine
 10
-28.09648132324219
 20
-73.00000305175782
 30
0.0
 11
-36.20000076293945
 21
-73.00000305175782
 31
0.0
  0
LINE
  5
1F6
330
81
100
AcDbEntity
  8
0
  6
CENTER
 62
     4
100
AcDbLine
 10
-32.0
 20
-69.05882759094239
 30
0.0
 11
-32.0
 21
-76.72256393432617
 31
0.0
  0
LINE
  5
1F7
330
81
100
AcDbEntity
  8
0
  6
Continuous
 62
     0
100
AcDbLine
 10
-5.0
 20
-10.00000305175782
 30
0.0
 11
-5.0
 21
-12.00000305175782
 31
0.0
  0
LINE
  5
1F8
330
81
100
AcDbEntity
  8
0
  6
Continuous
 62
     0
100
AcDbLine
 10
-36.20000076293945
 20
-12.00000305175782
 30
0.0
 11
-36.20000076293945
 21
-87.00000305175782
 31
0.0
  0
LINE
  5
1F9
330
81
100
AcDbEntity
  8
0
  6
Continuous
 62
     0
100
AcDbLine
 10
-36.5
 20
-12.00000305175782
 30
0.0
 11
-36.5
 21
-87.00000305175782
 31
0.0
  0
LINE
  5
1FA
330
81
100
AcDbEntity
  8
0
  6
Continuous
 62
     0
100
AcDbLine
 10
-23.70000076293945
 20
-12.00000305175782
 30
0.0
 11
-23.70000076293945
 21
-87.00000305175782
 31
0.0
  0
LINE
  5
1FB
330
81
100
AcDbEntity
  8
0
  6
Continuous
 62
     0
100
AcDbLine
 10
-21.5
 20
-12.00000305175782
 30
0.0
 11
-21.5
 21
-87.00000305175782
 31
0.0
  0
LINE
  5
1FC
330
81
100
AcDbEntity
  8
0
  6
Continuous
 62
     0
100
AcDbLine
 10
-19.29999923706055
 20
-12.00000305175782
 30
0.0
 11
-19.29999923706055
 21
-87.00000305175782
 31
0.0
  0
LINE
  5
1FD
330
81
100
AcDbEntity
  8
0
  6
Continuous
 62
     0
100
AcDbLine
 10
-5.699999809265137
 20
-12.00000305175782
 30
0.0
 11
-5.699999809265137
 21
-87.00000305175782
 31
0.0
  0
LINE
  5
1FE
330
81
100
AcDbEntity
  8
0
  6
CENTER
 62
     4
100
AcDbLine
 10
-27.5
 20
-115.1732208251953
 30
0.0
 11
-27.5
 21
2.530014038085938
 31
0.0
  0
LINE
  5
1FF
330
81
100
AcDbEntity
  8
0
  6
Continuous
 62
     0
100
AcDbLine
 10
-2.299999952316284
 20
-12.00000305175782
 30
0.0
 11
-2.299999952316284
 21
-87.00000305175782
 31
0.0
  0
LINE
  5
200
330
81
100
AcDbEntity
  8
0
  6
Continuous
 62
     0
100
AcDbLine
 10
-22.5
 20
-10.00000305175782
 30
0.0
 11
-22.5
 21
-12.00000305175782
 31
0.0
  0
LINE
  5
201
330
81
100
AcDbEntity
  8
0
  6
Continuous
 62
     0
100
AcDbLine
 10
-32.5
 20
-10.00000305175782
 30
0.0
 11
-32.5
 21
-12.00000305175782
 31
0.0
  0
LINE
  5
202
330
81
100
AcDbEntity
  8
0
  6
Continuous
 62
     0
100
AcDbLine
 10
-32.5
 20
-87.00000305175782
 30
0.0
 11
-32.5
 21
-113.5000030517578
 31
0.0
  0
LINE
  5
203
330
81
100
AcDbEntity
  8
0
  6
Continuous
 62
     0
100
AcDbLine
 10
-22.5
 20
-87.00000305175782
 30
0.0
 11
-22.5
 21
-113.5000030517578
 31
0.0
  0
LINE
  5
204
330
81
100
AcDbEntity
  8
0
  6
Continuous
 62
     0
100
AcDbLine
 10
-23.0
 20
-114.0000030517578
 30
0.0
 11
-32.0
 21
-114.0000030517578
 31
0.0
  0
LINE
  5
205
330
81
100
AcDbEntity
  8
0
  6
Continuous
 62
     0
100
AcDbLine
 10
-22.50000000127746
 20
-113.5000046404276
 30
0.0
 11
-23.00000054062936
 21
-114.0000051797795
 31
0.0
  0
LINE
  5
206
330
81
100
AcDbEntity
  8
0
  6
Continuous
 62
     0
100
AcDbLine
 10
-31.99999945937043
 20
-114.0000051797792
 30
0.0
 11
-32.49999999872232
 21
-113.5000046404273
 31
0.0
  0
LINE
  5
207
330
81
100
AcDbEntity
  8
0
  6
Continuous
 62
     0
100
AcDbLine
 10
22.5
 20
-87.00000305175782
 30
0.0
 11
22.5
 21
-113.5000030517578
 31
0.0
  0
LINE
  5
208
330
81
100
AcDbEntity
  8
0
  6
Continuous
 62
     0
100
AcDbLine
 10
32.5
 20
-87.00000305175782
 30
0.0
 11
32.5
 21
-113.5000030517578
 31
0.0
  0
LINE
  5
209
330
81
100
AcDbEntity
  8
0
  6
Continuous
 62
     0
100
AcDbLine
 10
32.0
 20
-114.0000030517578
 30
0.0
 11
23.0
 21
-114.0000030517578
 31
0.0
  0
LINE
  5
20A
330
81
100
AcDbEntity
  8
0
  6
Continuous
 62
     0
100
AcDbLine
 10
32.49999999872262
 20
-113.5000046404277
 30
0.0
 11
31.99999945937073
 21
-114.0000051797796
 31
0.0
  0
LINE
  5
20B
330
81
100
AcDbEntity
  8
0
  6
Continuous
 62
     0
100
AcDbLine
 10
23.00000054062948
 20
-114.0000051797793
 30
0.0
 11
22.50000000127758
 21
-113.5000046404274
 31
0.0
  0
CIRCLE
  5
20C
330
81
100
AcDbEntity
  8
0
  6
Continuous
 62
     0
100
AcDbCircle
 10
14.0
 20
-71.00000305175782
 30
0.0
 40
2.599999904632568
  0
CIRCLE
  5
20D
330
81
100
AcDbEntity
  8
0
  6
Continuous
 62
     0
100
AcDbCircle
 10
14.0
 20
-31.00000305175782
 30
0.0
 40
2.599999904632568
  0
CIRCLE
  5
20E
330
81
100
AcDbEntity
  8
0
  6
Continuous
 62
     4
100
AcDbCircle
 10
32.0
 20
-23.00000305175782
 30
0.0
 40
2.5
  0
CIRCLE
  5
20F
330
81
100
AcDbEntity
  8
0
  6
Continuous
 62
     4
100
AcDbCircle
 10
32.0
 20
-73.00000305175782
 30
0.0
 40
2.5
  0
CIRCLE
  5
210
330
81
100
AcDbEntity
  8
0
  6
Continuous
 62
     0
100
AcDbCircle
 10
32.0
 20
-73.00000305175782
 30
0.0
 40
2.150000095367432
  0
CIRCLE
  5
211
330
81
100
AcDbEntity
  8
0
  6
Continuous
 62
     0
100
AcDbCircle
 10
32.0
 20
-23.00000305175782
 30
0.0
 40
2.150000095367432
  0
CIRCLE
  5
212
330
81
100
AcDbEntity
  8
0
  6
Continuous
 62
     4
100
AcDbCircle
 10
14.0
 20
-31.00000305175782
 30
0.0
 40
3.0
  0
CIRCLE
  5
213
330
81
100
AcDbEntity
  8
0
  6
Continuous
 62
     4
100
AcDbCircle
 10
14.0
 20
-71.00000305175782
 30
0.0
 40
3.0
  0
CIRCLE
  5
214
330
81
100
AcDbEntity
  8
0
  6
Continuous
 62
     0
100
AcDbCircle
 10
-14.0
 20
-71.00000305175782
 30
0.0
 40
2.599999904632568
  0
CIRCLE
  5
215
330
81
100
AcDbEntity
  8
0
  6
Continuous
 62
     0
100
AcDbCircle
 10
-14.0
 20
-31.00000305175782
 30
0.0
 40
2.599999904632568
  0
CIRCLE
  5
216
330
81
100
AcDbEntity
  8
0
  6
Continuous
 62
     4
100
AcDbCircle
 10
-32.0
 20
-73.00000305175782
 30
0.0
 40
2.5
  0
CIRCLE
  5
217
330
81
100
AcDbEntity
  8
0
  6
Continuous
 62
     4
100
AcDbCircle
 10
-32.0
 20
-23.00000305175782
 30
0.0
 40
2.5
  0
CIRCLE
  5
218
330
81
100
AcDbEntity
  8
0
  6
Continuous
 62
     0
100
AcDbCircle
 10
-32.0
 20
-73.00000305175782
 30
0.0
 40
2.150000095367432
  0
CIRCLE
  5
219
330
81
100
AcDbEntity
  8
0
  6
Continuous
 62
     0
100
AcDbCircle
 10
-32.0
 20
-23.00000305175782
 30
0.0
 40
2.150000095367432
  0
CIRCLE
  5
21A
330
81
100
AcDbEntity
  8
0
  6
Continuous
 62
     4
100
AcDbCircle
 10
-14.0
 20
-31.00000305175782
 30
0.0
 40
3.0
  0
CIRCLE
  5
21B
330
81
100
AcDbEntity
  8
0
  6
Continuous
 62
     4
100
AcDbCircle
 10
-14.0
 20
-71.00000305175782
 30
0.0
 40
3.0
  0
MTEXT
  5
21C
330
81
100
AcDbEntity
  8
0
 62
     0
100
AcDbMText
 10
1.337698496349586
 20
-9.381372372909755
 30
0.0
 40
0.5
 41
0.0
 71
     7
 72
     1
  1
{\W0.833333;BN-6AK23-20}
 73
     1
 44
1.0
  0
ENDBLK
  5
83
330
81
100
AcDbEntity
  8
0
100
AcDbBlockEnd
  0
BLOCK
  5
85
330
84
100
AcDbEntity
  8
0
100
AcDbBlockBegin
  2
DTL0006
 70
     0
 10
0.0
 20
0.0
 30
0.0
  3
DTL0006
  1

  0
POINT
  5
21D
330
84
100
AcDbEntity
  8
0
 62
     0
100
AcDbPoint
 10
0.0
 20
0.0
 30
0.0
  0
POINT
  5
21E
330
84
100
AcDbEntity
  8
0
 62
     0
100
AcDbPoint
 10
0.0
 20
0.0
 30
0.0
  0
LINE
  5
21F
330
84
100
AcDbEntity
  8
0
  6
CENTER
 62
     4
100
AcDbLine
 10
42.5
 20
0.0
 30
0.0
 11
-42.5
 21
0.0
 31
0.0
  0
LINE
  5
220
330
84
100
AcDbEntity
  8
0
  6
Continuous
 62
     0
100
AcDbLine
 10
4.449999809265137
 20
-12.19999980926514
 30
0.0
 11
3.549999952316284
 21
-12.19999980926514
 31
0.0
  0
LINE
  5
221
330
84
100
AcDbEntity
  8
0
  6
Continuous
 62
     0
100
AcDbLine
 10
42.5
 20
-10.0
 30
0.0
 11
42.5
 21
-15.69999980926514
 31
0.0
  0
LINE
  5
222
330
84
100
AcDbEntity
  8
0
  6
Continuous
 62
     0
100
AcDbLine
 10
36.20000076293945
 20
-17.0
 30
0.0
 11
23.70000076293945
 21
-17.0
 31
0.0
  0
LINE
  5
223
330
84
100
AcDbEntity
  8
0
  6
Continuous
 62
     0
100
AcDbLine
 10
2.299999952316284
 20
-17.0
 30
0.0
 11
-2.299999952316284
 21
-17.0
 31
0.0
  0
LINE
  5
224
330
84
100
AcDbEntity
  8
0
  6
Continuous
 62
     0
100
AcDbLine
 10
1.850000390989655
 20
-15.99999983594845
 30
0.0
 11
2.30000017177786
 21
-16.49999956564986
 31
0.0
  0
LINE
  5
225
330
84
100
AcDbEntity
  8
0
  6
Continuous
 62
     0
100
AcDbLine
 10
1.850000023841858
 20
-13.89999961853027
 30
0.0
 11
1.850000023841858
 21
-16.0
 31
0.0
  0
LINE
  5
226
330
84
100
AcDbEntity
  8
0
  6
Continuous
 62
     0
100
AcDbLine
 10
5.699999809265137
 20
-16.5
 30
0.0
 11
5.699999809265137
 21
-17.0
 31
0.0
  0
LINE
  5
227
330
84
100
AcDbEntity
  8
0
  6
Continuous
 62
     0
100
AcDbLine
 10
39.5
 20
0.0
 30
0.0
 11
39.5
 21
-7.0
 31
0.0
  0
LINE
  5
228
330
84
100
AcDbEntity
  8
0
  6
Continuous
 62
     0
100
AcDbLine
 10
2.299999952316284
 20
-16.5
 30
0.0
 11
2.299999952316284
 21
-17.0
 31
0.0
  0
LINE
  5
229
330
84
100
AcDbEntity
  8
0
  6
Continuous
 62
     0
100
AcDbLine
 10
19.3000003144122
 20
-17.0
 30
0.0
 11
5.699999809265137
 21
-17.0
 31
0.0
  0
LINE
  5
22A
330
84
100
AcDbEntity
  8
0
  6
Continuous
 62
     0
100
AcDbLine
 10
21.50000026424595
 20
-14.80000005016614
 30
0.0
 11
23.69999967025615
 21
-16.99999945617634
 31
0.0
  0
LINE
  5
22B
330
84
100
AcDbEntity
  8
0
  6
Continuous
 62
     0
100
AcDbLine
 10
6.150000095367432
 20
-13.89999961853027
 30
0.0
 11
6.150000095367432
 21
-16.0
 31
0.0
  0
LINE
  5
22C
330
84
100
AcDbEntity
  8
0
  6
Continuous
 62
     0
100
AcDbLine
 10
6.149999516130037
 20
-15.99999983594835
 30
0.0
 11
5.699999097367328
 21
-16.50000027451027
 31
0.0
  0
LINE
  5
22D
330
84
100
AcDbEntity
  8
0
  6
Continuous
 62
     0
100
AcDbLine
 10
41.5
 20
-16.70000076293945
 30
0.0
 11
36.5
 21
-16.70000076293945
 31
0.0
  0
LINE
  5
22E
330
84
100
AcDbEntity
  8
0
  6
Continuous
 62
     0
100
AcDbLine
 10
42.5
 20
18.0
 30
0.0
 11
42.5
 21
3.0
 31
0.0
  0
LINE
  5
22F
330
84
100
AcDbEntity
  8
0
  6
Continuous
 62
     0
100
AcDbLine
 10
12.0000004689785
 20
19.00000060205937
 30
0.0
 11
10.10000030762011
 21
17.10000044070098
 31
0.0
  0
LINE
  5
230
330
84
100
AcDbEntity
  8
0
  6
Continuous
 62
     0
100
AcDbLine
 10
21.50000026424607
 20
-14.80000005016618
 30
0.0
 11
19.30000018388629
 21
-17.00000013052597
 31
0.0
  0
LINE
  5
231
330
84
100
AcDbEntity
  8
0
  6
Continuous
 62
     0
100
AcDbLine
 10
36.49999958606345
 20
-16.69999953717501
 30
0.0
 11
36.19999966706206
 21
-16.9999994561764
 31
0.0
  0
LINE
  5
232
330
84
100
AcDbEntity
  8
0
  6
Continuous
 62
     0
100
AcDbLine
 10
41.5
 20
19.0
 30
0.0
 11
12.0
 21
19.0
 31
0.0
  0
LINE
  5
233
330
84
100
AcDbEntity
  8
0
  6
Continuous
 62
     0
100
AcDbLine
 10
2.300000812410534
 20
16.60000022284313
 30
0.0
 11
1.850000393647827
 21
16.09999978428121
 31
0.0
  0
LINE
  5
234
330
84
100
AcDbEntity
  8
0
  6
Continuous
 62
     0
100
AcDbLine
 10
42.5000013378391
 20
-10.00000134614387
 30
0.0
 11
39.50000079912603
 21
-7.000000807430801
 31
0.0
  0
LINE
  5
235
330
84
100
AcDbEntity
  8
0
  6
Continuous
 62
     0
100
AcDbLine
 10
42.49999998914006
 20
3.000000538712936
 30
0.0
 11
39.499999450427
 21
-0.000000000000131
 31
0.0
  0
LINE
  5
236
330
84
100
AcDbEntity
  8
0
  6
Continuous
 62
     0
100
AcDbLine
 10
6.149999194484609
 20
16.10000013871132
 30
0.0
 11
5.699999094709152
 21
16.60000022284298
 31
0.0
  0
LINE
  5
237
330
84
100
AcDbEntity
  8
0
  6
Continuous
 62
     0
100
AcDbLine
 10
10.10000038146973
 20
17.10000038146973
 30
0.0
 11
5.699999809265137
 21
17.10000038146973
 31
0.0
  0
LINE
  5
238
330
84
100
AcDbEntity
  8
0
  6
Continuous
 62
     0
100
AcDbLine
 10
4.449999809265137
 20
12.30000019073486
 30
0.0
 11
3.549999952316284
 21
12.30000019073486
 31
0.0
  0
LINE
  5
239
330
84
100
AcDbEntity
  8
0
  6
Continuous
 62
     0
100
AcDbLine
 10
1.850000023841858
 20
16.10000038146973
 30
0.0
 11
1.850000023841858
 21
14.0
 31
0.0
  0
LINE
  5
23A
330
84
100
AcDbEntity
  8
0
  6
Continuous
 62
     0
100
AcDbLine
 10
6.150000095367432
 20
16.10000038146973
 30
0.0
 11
6.150000095367432
 21
14.0
 31
0.0
  0
LINE
  5
23B
330
84
100
AcDbEntity
  8
0
  6
Continuous
 62
     0
100
AcDbLine
 10
2.299999952316284
 20
17.10000038146973
 30
0.0
 11
2.299999952316284
 21
16.60000038146973
 31
0.0
  0
LINE
  5
23C
330
84
100
AcDbEntity
  8
0
  6
Continuous
 62
     0
100
AcDbLine
 10
5.699999809265137
 20
17.10000038146973
 30
0.0
 11
5.699999809265137
 21
16.60000038146973
 31
0.0
  0
LINE
  5
23D
330
84
100
AcDbEntity
  8
0
  6
Continuous
 62
     0
100
AcDbLine
 10
2.299999952316284
 20
17.10000038146973
 30
0.0
 11
0.0
 21
17.10000038146973
 31
0.0
  0
LINE
  5
23E
330
84
100
AcDbEntity
  8
0
  6
Continuous
 62
     0
100
AcDbLine
 10
-4.449999809265137
 20
-12.19999980926514
 30
0.0
 11
-3.549999952316284
 21
-12.19999980926514
 31
0.0
  0
LINE
  5
23F
330
84
100
AcDbEntity
  8
0
  6
Continuous
 62
     0
100
AcDbLine
 10
-42.5
 20
-10.0
 30
0.0
 11
-42.5
 21
-15.69999980926514
 31
0.0
  0
LINE
  5
240
330
84
100
AcDbEntity
  8
0
  6
Continuous
 62
     0
100
AcDbLine
 10
-1.850000390989658
 20
-15.99999983594839
 30
0.0
 11
-2.300000171777864
 21
-16.4999995656498
 31
0.0
  0
LINE
  5
241
330
84
100
AcDbEntity
  8
0
  6
Continuous
 62
     0
100
AcDbLine
 10
-1.850000023841858
 20
-13.89999961853027
 30
0.0
 11
-1.850000023841858
 21
-16.0
 31
0.0
  0
LINE
  5
242
330
84
100
AcDbEntity
  8
0
  6
Continuous
 62
     0
100
AcDbLine
 10
-5.699999809265137
 20
-16.5
 30
0.0
 11
-5.699999809265137
 21
-17.0
 31
0.0
  0
LINE
  5
243
330
84
100
AcDbEntity
  8
0
  6
Continuous
 62
     0
100
AcDbLine
 10
-39.5
 20
0.0
 30
0.0
 11
-39.5
 21
-7.0
 31
0.0
  0
LINE
  5
244
330
84
100
AcDbEntity
  8
0
  6
Continuous
 62
     0
100
AcDbLine
 10
-2.299999952316284
 20
-16.5
 30
0.0
 11
-2.299999952316284
 21
-17.0
 31
0.0
  0
LINE
  5
245
330
84
100
AcDbEntity
  8
0
  6
Continuous
 62
     0
100
AcDbLine
 10
-19.30000031441192
 20
-17.0
 30
0.0
 11
-5.699999809265137
 21
-17.0
 31
0.0
  0
LINE
  5
246
330
84
100
AcDbEntity
  8
0
  6
Continuous
 62
     0
100
AcDbLine
 10
-21.50000026424569
 20
-14.80000005016623
 30
0.0
 11
-23.69999967025589
 21
-16.99999945617643
 31
0.0
  0
LINE
  5
247
330
84
100
AcDbEntity
  8
0
  6
Continuous
 62
     0
100
AcDbLine
 10
-6.150000095367432
 20
-13.89999961853027
 30
0.0
 11
-6.150000095367432
 21
-16.0
 31
0.0
  0
LINE
  5
248
330
84
100
AcDbEntity
  8
0
  6
Continuous
 62
     0
100
AcDbLine
 10
-6.14999951613022
 20
-15.99999983594845
 30
0.0
 11
-5.699999097367511
 21
-16.50000027451038
 31
0.0
  0
LINE
  5
249
330
84
100
AcDbEntity
  8
0
  6
Continuous
 62
     0
100
AcDbLine
 10
-41.5
 20
-16.70000076293945
 30
0.0
 11
-36.5
 21
-16.70000076293945
 31
0.0
  0
LINE
  5
24A
330
84
100
AcDbEntity
  8
0
  6
Continuous
 62
     0
100
AcDbLine
 10
-42.5
 20
18.0
 30
0.0
 11
-42.5
 21
3.0
 31
0.0
  0
LINE
  5
24B
330
84
100
AcDbEntity
  8
0
  6
Continuous
 62
     0
100
AcDbLine
 10
-12.00000046897826
 20
19.00000060205951
 30
0.0
 11
-10.10000030761988
 21
17.10000044070112
 31
0.0
  0
LINE
  5
24C
330
84
100
AcDbEntity
  8
0
  6
Continuous
 62
     0
100
AcDbLine
 10
-21.50000026424586
 20
-14.80000005016613
 30
0.0
 11
-19.30000018388608
 21
-17.00000013052591
 31
0.0
  0
LINE
  5
24D
330
84
100
AcDbEntity
  8
0
  6
Continuous
 62
     0
100
AcDbLine
 10
-36.49999958606334
 20
-16.69999953717497
 30
0.0
 11
-36.19999966706195
 21
-16.99999945617636
 31
0.0
  0
LINE
  5
24E
330
84
100
AcDbEntity
  8
0
  6
Continuous
 62
     0
100
AcDbLine
 10
-41.5
 20
19.0
 30
0.0
 11
-12.0
 21
19.0
 31
0.0
  0
LINE
  5
24F
330
84
100
AcDbEntity
  8
0
  6
Continuous
 62
     0
100
AcDbLine
 10
-2.300000812410643
 20
16.600000222843
 30
0.0
 11
-1.850000393647936
 21
16.09999978428108
 31
0.0
  0
LINE
  5
250
330
84
100
AcDbEntity
  8
0
  6
Continuous
 62
     0
100
AcDbLine
 10
-42.50000133783887
 20
-10.00000134614395
 30
0.0
 11
-39.5000007991258
 21
-7.000000807430883
 31
0.0
  0
LINE
  5
251
330
84
100
AcDbEntity
  8
0
  6
Continuous
 62
     0
100
AcDbLine
 10
-42.49999998913986
 20
3.000000538713024
 30
0.0
 11
-39.49999945042679
 21
-0.000000000000043
 31
0.0
  0
LINE
  5
252
330
84
100
AcDbEntity
  8
0
  6
Continuous
 62
     0
100
AcDbLine
 10
-6.149999194484725
 20
16.1000001387114
 30
0.0
 11
-5.699999094709268
 21
16.60000022284307
 31
0.0
  0
LINE
  5
253
330
84
100
AcDbEntity
  8
0
  6
Continuous
 62
     0
100
AcDbLine
 10
-10.10000038146973
 20
17.10000038146973
 30
0.0
 11
-5.699999809265137
 21
17.10000038146973
 31
0.0
  0
LINE
  5
254
330
84
100
AcDbEntity
  8
0
  6
Continuous
 62
     0
100
AcDbLine
 10
-4.449999809265137
 20
12.30000019073486
 30
0.0
 11
-3.549999952316284
 21
12.30000019073486
 31
0.0
  0
LINE
  5
255
330
84
100
AcDbEntity
  8
0
  6
Continuous
 62
     0
100
AcDbLine
 10
-1.850000023841858
 20
16.10000038146973
 30
0.0
 11
-1.850000023841858
 21
14.0
 31
0.0
  0
LINE
  5
256
330
84
100
AcDbEntity
  8
0
  6
Continuous
 62
     0
100
AcDbLine
 10
-6.150000095367432
 20
16.10000038146973
 30
0.0
 11
-6.150000095367432
 21
14.0
 31
0.0
  0
LINE
  5
257
330
84
100
AcDbEntity
  8
0
  6
Continuous
 62
     0
100
AcDbLine
 10
-2.299999952316284
 20
17.10000038146973
 30
0.0
 11
-2.299999952316284
 21
16.60000038146973
 31
0.0
  0
LINE
  5
258
330
84
100
AcDbEntity
  8
0
  6
Continuous
 62
     0
100
AcDbLine
 10
-5.699999809265137
 20
17.10000038146973
 30
0.0
 11
-5.699999809265137
 21
16.60000038146973
 31
0.0
  0
LINE
  5
259
330
84
100
AcDbEntity
  8
0
  6
Continuous
 62
     0
100
AcDbLine
 10
-2.299999952316284
 20
17.10000038146973
 30
0.0
 11
0.0
 21
17.10000038146973
 31
0.0
  0
LINE
  5
25A
330
84
100
AcDbEntity
  8
0
  6
Continuous
 62
     0
100
AcDbLine
 10
-23.70000076293945
 20
-17.0
 30
0.0
 11
-36.20000076293945
 21
-17.0
 31
0.0
  0
LINE
  5
25B
330
84
100
AcDbEntity
  8
0
  6
CENTER
 62
     4
100
AcDbLine
 10
0.0
 20
18.0
 30
0.0
 11
0.0
 21
-17.0
 31
0.0
  0
LINE
  5
25C
330
84
100
AcDbEntity
  8
0
  6
CENTER
 62
     4
100
AcDbLine
 10
-21.99889183044434
 20
-13.0
 30
0.0
 11
-29.5
 21
-13.0
 31
0.0
  0
LINE
  5
25D
330
84
100
AcDbEntity
  8
0
  6
CENTER
 62
     4
100
AcDbLine
 10
-26.0
 20
-8.462204933166504
 30
0.0
 11
-26.0
 21
-17.0
 31
0.0
  0
LINE
  5
25E
330
84
100
AcDbEntity
  8
0
  6
CENTER
 62
     4
100
AcDbLine
 10
29.5
 20
-13.0
 30
0.0
 11
22.06858444213867
 21
-13.0
 31
0.0
  0
LINE
  5
25F
330
84
100
AcDbEntity
  8
0
  6
CENTER
 62
     4
100
AcDbLine
 10
26.0
 20
-8.60210132598877
 30
0.0
 11
26.0
 21
-17.0
 31
0.0
  0
LINE
  5
260
330
84
100
AcDbEntity
  8
0
  6
CENTER
 62
     4
100
AcDbLine
 10
30.04269790649414
 20
13.0
 30
0.0
 11
22.06858444213867
 21
13.0
 31
0.0
  0
LINE
  5
261
330
84
100
AcDbEntity
  8
0
  6
CENTER
 62
     4
100
AcDbLine
 10
26.0
 20
16.85910606384277
 30
0.0
 11
26.0
 21
8.60519790649414
 31
0.0
  0
LINE
  5
262
330
84
100
AcDbEntity
  8
0
  6
CENTER
 62
     4
100
AcDbLine
 10
-20.5
 20
13.0
 30
0.0
 11
-31.5
 21
13.0
 31
0.0
  0
LINE
  5
263
330
84
100
AcDbEntity
  8
0
  6
CENTER
 62
     4
100
AcDbLine
 10
-26.0
 20
17.2787971496582
 30
0.0
 11
-26.0
 21
8.60519790649414
 31
0.0
  0
LINE
  5
264
330
84
100
AcDbEntity
  8
0
  6
CENTER
 62
     4
100
AcDbLine
 10
-27.5
 20
8.1951904296875
 30
0.0
 11
-27.5
 21
-8.619873046875
 31
0.0
  0
LINE
  5
265
330
84
100
AcDbEntity
  8
0
  6
CENTER
 62
     4
100
AcDbLine
 10
27.5
 20
8.884991645812988
 30
0.0
 11
27.5
 21
-8.322308540344238
 31
0.0
  0
LINE
  5
266
330
84
100
AcDbEntity
  8
0
  6
CENTER
 62
     4
100
AcDbLine
 10
-4.0
 20
18.0
 30
0.0
 11
-4.0
 21
11.0
 31
0.0
  0
LINE
  5
267
330
84
100
AcDbEntity
  8
0
  6
CENTER
 62
     4
100
AcDbLine
 10
4.0
 20
18.0
 30
0.0
 11
4.0
 21
11.0
 31
0.0
  0
LINE
  5
268
330
84
100
AcDbEntity
  8
0
  6
CENTER
 62
     4
100
AcDbLine
 10
4.0
 20
-10.70055294036865
 30
0.0
 11
4.0
 21
-17.0
 31
0.0
  0
LINE
  5
269
330
84
100
AcDbEntity
  8
0
  6
CENTER
 62
     4
100
AcDbLine
 10
-4.0
 20
-10.4207592010498
 30
0.0
 11
-4.0
 21
-17.0
 31
0.0
  0
ARC
  5
26A
330
84
100
AcDbEntity
  8
0
  6
Continuous
 62
     0
100
AcDbCircle
 10
4.449999809265137
 20
-13.89999961853027
 30
0.0
 40
1.700000047683716
100
AcDbArc
 50
0.000002504478142
 51
90.00000500895631
  0
ARC
  5
26B
330
84
100
AcDbEntity
  8
0
  6
Continuous
 62
     0
100
AcDbCircle
 10
41.5
 20
-15.69999980926514
 30
0.0
 40
1.0
100
AcDbArc
 50
270.0000000000001
 51
0.000002504478167
  0
ARC
  5
26C
330
84
100
AcDbEntity
  8
0
  6
Continuous
 62
     0
100
AcDbCircle
 10
3.549999952316284
 20
-13.89999961853027
 30
0.0
 40
1.700000047683716
100
AcDbArc
 50
89.99999499104366
 51
179.9999974955218
  0
ARC
  5
26D
330
84
100
AcDbEntity
  8
0
  6
Continuous
 62
     0
100
AcDbCircle
 10
41.5
 20
18.0
 30
0.0
 40
1.0
100
AcDbArc
 50
0.000002504478142
 51
90.00000500895631
  0
ARC
  5
26E
330
84
100
AcDbEntity
  8
0
  6
Continuous
 62
     0
100
AcDbCircle
 10
4.449999809265137
 20
14.0
 30
0.0
 40
1.700000047683716
100
AcDbArc
 50
270.0000000000001
 51
0.000002504478167
  0
ARC
  5
26F
330
84
100
AcDbEntity
  8
0
  6
Continuous
 62
     0
100
AcDbCircle
 10
3.549999952316284
 20
14.0
 30
0.0
 40
1.700000047683716
100
AcDbArc
 50
179.9999974955218
 51
270.0000000000001
  0
ARC
  5
270
330
84
100
AcDbEntity
  8
0
  6
Continuous
 62
     0
100
AcDbCircle
 10
-4.449999809265137
 20
-13.89999961853027
 30
0.0
 40
1.700000047683716
100
AcDbArc
 50
89.99999499104366
 51
179.9999974955218
  0
ARC
  5
271
330
84
100
AcDbEntity
  8
0
  6
Continuous
 62
     0
100
AcDbCircle
 10
-41.5
 20
-15.69999980926514
 30
0.0
 40
1.0
100
AcDbArc
 50
179.9999974955218
 51
269.9999999999999
  0
ARC
  5
272
330
84
100
AcDbEntity
  8
0
  6
Continuous
 62
     0
100
AcDbCircle
 10
-3.549999952316284
 20
-13.89999961853027
 30
0.0
 40
1.700000047683716
100
AcDbArc
 50
0.000002504478142
 51
90.00000500895631
  0
ARC
  5
273
330
84
100
AcDbEntity
  8
0
  6
Continuous
 62
     0
100
AcDbCircle
 10
-41.5
 20
18.0
 30
0.0
 40
1.0
100
AcDbArc
 50
89.99999499104366
 51
179.9999974955218
  0
ARC
  5
274
330
84
100
AcDbEntity
  8
0
  6
Continuous
 62
     0
100
AcDbCircle
 10
-4.449999809265137
 20
14.0
 30
0.0
 40
1.700000047683716
100
AcDbArc
 50
179.9999974955218
 51
269.9999999999999
  0
ARC
  5
275
330
84
100
AcDbEntity
  8
0
  6
Continuous
 62
     0
100
AcDbCircle
 10
-3.549999952316284
 20
14.0
 30
0.0
 40
1.700000047683716
100
AcDbArc
 50
270.0
 51
0.000002504478167
  0
CIRCLE
  5
276
330
84
100
AcDbEntity
  8
0
  6
Continuous
 62
     0
100
AcDbCircle
 10
0.0
 20
0.0
 30
0.0
 40
10.0
  0
CIRCLE
  5
277
330
84
100
AcDbEntity
  8
0
  6
Continuous
 62
     4
100
AcDbCircle
 10
26.0
 20
13.0
 30
0.0
 40
2.5
  0
CIRCLE
  5
278
330
84
100
AcDbEntity
  8
0
  6
Continuous
 62
     4
100
AcDbCircle
 10
26.0
 20
-13.0
 30
0.0
 40
2.5
  0
CIRCLE
  5
279
330
84
100
AcDbEntity
  8
0
  6
Continuous
 62
     4
100
AcDbCircle
 10
-26.0
 20
13.0
 30
0.0
 40
2.5
  0
CIRCLE
  5
27A
330
84
100
AcDbEntity
  8
0
  6
Continuous
 62
     4
100
AcDbCircle
 10
-26.0
 20
-13.0
 30
0.0
 40
2.5
  0
CIRCLE
  5
27B
330
84
100
AcDbEntity
  8
0
  6
Continuous
 62
     0
100
AcDbCircle
 10
-26.0
 20
-13.0
 30
0.0
 40
2.150000095367432
  0
CIRCLE
  5
27C
330
84
100
AcDbEntity
  8
0
  6
Continuous
 62
     0
100
AcDbCircle
 10
-26.0
 20
13.0
 30
0.0
 40
2.150000095367432
  0
CIRCLE
  5
27D
330
84
100
AcDbEntity
  8
0
  6
Continuous
 62
     0
100
AcDbCircle
 10
26.0
 20
13.0
 30
0.0
 40
2.150000095367432
  0
CIRCLE
  5
27E
330
84
100
AcDbEntity
  8
0
  6
Continuous
 62
     0
100
AcDbCircle
 10
26.0
 20
-13.0
 30
0.0
 40
2.150000095367432
  0
CIRCLE
  5
27F
330
84
100
AcDbEntity
  8
0
  6
Continuous
 62
     0
100
AcDbCircle
 10
27.5
 20
0.5
 30
0.0
 40
6.550000190734863
  0
CIRCLE
  5
280
330
84
100
AcDbEntity
  8
0
  6
Continuous
 62
     0
100
AcDbCircle
 10
-27.5
 20
0.0
 30
0.0
 40
6.550000190734863
  0
CIRCLE
  5
281
330
84
100
AcDbEntity
  8
0
  6
Continuous
 62
     0
100
AcDbCircle
 10
-27.5
 20
0.0
 30
0.0
 40
6.0
  0
CIRCLE
  5
282
330
84
100
AcDbEntity
  8
0
  6
Continuous
 62
     0
100
AcDbCircle
 10
27.5
 20
0.5
 30
0.0
 40
6.0
  0
MTEXT
  5
283
330
84
100
AcDbEntity
  8
0
 62
     0
100
AcDbMText
 10
0.852219989822029
 20
0.587772832028321
 30
0.0
 40
0.5
 41
0.0
 71
     7
 72
     1
  1
{\W0.833333;BN-6AK23-20}
 73
     1
 44
1.0
  0
ENDBLK
  5
86
330
84
100
AcDbEntity
  8
0
100
AcDbBlockEnd
  0
BLOCK
  5
286
330
285
100
AcDbEntity
  8
0
100
AcDbBlockBegin
  2
_Closed
 70
     0
 10
0.0
 20
0.0
 30
0.0
  3
_Closed
  1

  0
LINE
  5
288
330
285
100
AcDbEntity
  8
0
  6
ByBlock
 62
     0
370
    -2
100
AcDbLine
 10
-1.0
 20
0.166667
 30
0.0
 11
0.0
 21
0.0
 31
0.0
  0
LINE
  5
289
330
285
100
AcDbEntity
  8
0
  6
ByBlock
 62
     0
370
    -2
100
AcDbLine
 10
0.0
 20
0.0
 30
0.0
 11
-1.0
 21
-0.166667
 31
0.0
  0
LINE
  5
28A
330
285
100
AcDbEntity
  8
0
  6
ByBlock
 62
     0
370
    -2
100
AcDbLine
 10
-1.0
 20
0.166667
 30
0.0
 11
-1.0
 21
-0.166667
 31
0.0
  0
LINE
  5
28B
330
285
100
AcDbEntity
  8
0
  6
ByBlock
 62
     0
370
    -2
100
AcDbLine
 10
0.0
 20
0.0
 30
0.0
 11
-1.0
 21
0.0
 31
0.0
  0
ENDBLK
  5
287
330
285
100
AcDbEntity
  8
0
100
AcDbBlockEnd
  0
BLOCK
  5
2EA
330
2E9
100
AcDbEntity
  8
0
100
AcDbBlockBegin
  2
_Open
 70
     0
 10
0.0
 20
0.0
 30
0.0
  3
_Open
  1

  0
LINE
  5
2EC
330
2E9
100
AcDbEntity
  8
0
  6
ByBlock
 62
     0
370
    -2
100
AcDbLine
 10
-1.0
 20
0.166667
 30
0.0
 11
0.0
 21
0.0
 31
0.0
  0
LINE
  5
2ED
330
2E9
100
AcDbEntity
  8
0
  6
ByBlock
 62
     0
370
    -2
100
AcDbLine
 10
-1.0
 20
-0.166667
 30
0.0
 11
0.0
 21
0.0
 31
0.0
  0
LINE
  5
2EE
330
2E9
100
AcDbEntity
  8
0
  6
ByBlock
 62
     0
370
    -2
100
AcDbLine
 10
0.0
 20
0.0
 30
0.0
 11
-1.0
 21
0.0
 31
0.0
  0
ENDBLK
  5
2EB
330
2E9
100
AcDbEntity
  8
0
100
AcDbBlockEnd
  0
BLOCK
  5
2F1
330
2F0
100
AcDbEntity
  8
0
100
AcDbBlockBegin
  2
*D10
 70
     1
 10
0.0
 20
0.0
 30
0.0
  3
*D10
  1

  0
LINE
  5
2F3
330
2F0
100
AcDbEntity
  8
0
  6
ByBlock
 62
     0
370
    -2
100
AcDbLine
 10
-48.57552863013086
 20
107.6659989486532
 30
0.0
 11
-48.57552863013086
 21
128.8401017318563
 31
0.0
  0
LINE
  5
2F4
330
2F0
100
AcDbEntity
  8
0
  6
ByBlock
 62
     0
370
    -2
100
AcDbLine
 10
-103.5755286301309
 20
107.4888749252157
 30
0.0
 11
-103.5755286301309
 21
128.8401017318563
 31
0.0
  0
LINE
  5
2F5
330
2F0
100
AcDbEntity
  8
0
  6
ByBlock
 62
     0
370
    -2
100
AcDbLine
 10
-51.68952863013086
 20
126.5541215072469
 30
0.0
 11
-100.4615286301309
 21
126.5541215072469
 31
0.0
  0
INSERT
  5
2F6
330
2F0
100
AcDbEntity
  8
0
 62
     0
370
    -2
100
AcDbBlockReference
  2
_Open
 10
-48.57552863013086
 20
126.5541215072469
 30
0.0
 41
3.114
 42
3.114
 43
3.114
  0
INSERT
  5
2F7
330
2F0
100
AcDbEntity
  8
0
 62
     0
370
    -2
100
AcDbBlockReference
  2
_Open
 10
-103.5755286301309
 20
126.5541215072469
 30
0.0
 41
3.114
 42
3.114
 43
3.114
 50
180.0
  0
MTEXT
  5
2F8
330
2F0
100
AcDbEntity
  8
0
 62
     0
100
AcDbMText
 10
-76.07352863013085
 20
129.5541215072469
 30
0.0
 40
4.0
 41
0.0
 71
     5
 72
     1
  1
55
 73
     1
 44
1.0
  0
POINT
  5
2F9
330
2F0
100
AcDbEntity
  8
Defpoints
 62
     0
100
AcDbPoint
 10
-48.57552863013086
 20
107.6659989486532
 30
0.0
  0
POINT
  5
2FA
330
2F0
100
AcDbEntity
  8
Defpoints
 62
     0
100
AcDbPoint
 10
-103.5755286301309
 20
107.4888749252157
 30
0.0
  0
POINT
  5
2FB
330
2F0
100
AcDbEntity
  8
Defpoints
 62
     0
100
AcDbPoint
 10
-103.5755286301309
 20
126.5541215072469
 30
0.0
  0
ENDBLK
  5
2F2
330
2F0
100
AcDbEntity
  8
0
100
AcDbBlockEnd
  0
BLOCK
  5
2FE
330
2FD
100
AcDbEntity
  8
0
100
AcDbBlockBegin
  2
*D11
 70
     1
 10
0.0
 20
0.0
 30
0.0
  3
*D11
  1

  0
LINE
  5
300
330
2FD
100
AcDbEntity
  8
0
  6
ByBlock
 62
     0
370
    -2
100
AcDbLine
 10
-106.0755286301309
 20
114.0424027572469
 30
0.0
 11
-106.0755286301309
 21
136.8401017318563
 31
0.0
  0
LINE
  5
301
330
2FD
100
AcDbEntity
  8
0
  6
ByBlock
 62
     0
370
    -2
100
AcDbLine
 10
-46.07552863013086
 20
114.0424027572469
 30
0.0
 11
-46.07552863013086
 21
136.8401017318563
 31
0.0
  0
LINE
  5
302
330
2FD
100
AcDbEntity
  8
0
  6
ByBlock
 62
     0
370
    -2
100
AcDbLine
 10
-102.9615286301309
 20
134.5540909896688
 30
0.0
 11
-49.18952863013086
 21
134.5540909896688
 31
0.0
  0
INSERT
  5
303
330
2FD
100
AcDbEntity
  8
0
 62
     0
370
    -2
100
AcDbBlockReference
  2
_Open
 10
-106.0755286301309
 20
134.5540909896688
 30
0.0
 41
3.114
 42
3.114
 43
3.114
 50
180.0
  0
INSERT
  5
304
330
2FD
100
AcDbEntity
  8
0
 62
     0
370
    -2
100
AcDbBlockReference
  2
_Open
 10
-46.07552863013086
 20
134.5540909896688
 30
0.0
 41
3.114
 42
3.114
 43
3.114
  0
MTEXT
  5
305
330
2FD
100
AcDbEntity
  8
0
 62
     0
100
AcDbMText
 10
-76.07452863013086
 20
137.5540909896688
 30
0.0
 40
4.0
 41
0.0
 71
     5
 72
     1
  1
60
 73
     1
 44
1.0
  0
POINT
  5
306
330
2FD
100
AcDbEntity
  8
Defpoints
 62
     0
100
AcDbPoint
 10
-106.0755286301309
 20
114.0424027572469
 30
0.0
  0
POINT
  5
307
330
2FD
100
AcDbEntity
  8
Defpoints
 62
     0
100
AcDbPoint
 10
-46.07552863013086
 20
114.0424027572469
 30
0.0
  0
POINT
  5
308
330
2FD
100
AcDbEntity
  8
Defpoints
 62
     0
100
AcDbPoint
 10
-46.07552863013086
 20
134.5540909896688
 30
0.0
  0
ENDBLK
  5
2FF
330
2FD
100
AcDbEntity
  8
0
100
AcDbBlockEnd
  0
BLOCK
  5
30B
330
30A
100
AcDbEntity
  8
0
100
AcDbBlockBegin
  2
*D12
 70
     1
 10
0.0
 20
0.0
 30
0.0
  3
*D12
  1

  0
LINE
  5
30D
330
30A
100
AcDbEntity
  8
0
  6
ByBlock
 62
     0
370
    -2
100
AcDbLine
 10
-40.07552863013086
 20
115.5541215072469
 30
0.0
 11
-40.07552863013086
 21
144.8401017318563
 31
0.0
  0
LINE
  5
30E
330
30A
100
AcDbEntity
  8
0
  6
ByBlock
 62
     0
370
    -2
100
AcDbLine
 10
-112.0755286301309
 20
115.5541215072469
 30
0.0
 11
-112.0755286301309
 21
144.8401017318563
 31
0.0
  0
LINE
  5
30F
330
30A
100
AcDbEntity
  8
0
  6
ByBlock
 62
     0
370
    -2
100
AcDbLine
 10
-43.18952863013086
 20
142.5540909896688
 30
0.0
 11
-108.9615286301309
 21
142.5540909896688
 31
0.0
  0
INSERT
  5
310
330
30A
100
AcDbEntity
  8
0
 62
     0
370
    -2
100
AcDbBlockReference
  2
_Open
 10
-40.07552863013086
 20
142.5540909896688
 30
0.0
 41
3.114
 42
3.114
 43
3.114
  0
INSERT
  5
311
330
30A
100
AcDbEntity
  8
0
 62
     0
370
    -2
100
AcDbBlockReference
  2
_Open
 10
-112.0755286301309
 20
142.5540909896688
 30
0.0
 41
3.114
 42
3.114
 43
3.114
 50
180.0
  0
MTEXT
  5
312
330
30A
100
AcDbEntity
  8
0
 62
     0
100
AcDbMText
 10
-76.07352863013085
 20
145.5540909896688
 30
0.0
 40
4.0
 41
0.0
 71
     5
 72
     1
  1
72
 73
     1
 44
1.0
  0
POINT
  5
313
330
30A
100
AcDbEntity
  8
Defpoints
 62
     0
100
AcDbPoint
 10
-40.07552863013086
 20
115.5541215072469
 30
0.0
  0
POINT
  5
314
330
30A
100
AcDbEntity
  8
Defpoints
 62
     0
100
AcDbPoint
 10
-112.0755286301309
 20
115.5541215072469
 30
0.0
  0
POINT
  5
315
330
30A
100
AcDbEntity
  8
Defpoints
 62
     0
100
AcDbPoint
 10
-112.0755286301309
 20
142.5540909896688
 30
0.0
  0
ENDBLK
  5
30C
330
30A
100
AcDbEntity
  8
0
100
AcDbBlockEnd
  0
BLOCK
  5
318
330
317
100
AcDbEntity
  8
0
100
AcDbBlockBegin
  2
*D13
 70
     1
 10
0.0
 20
0.0
 30
0.0
  3
*D13
  1

  0
LINE
  5
31A
330
317
100
AcDbEntity
  8
0
  6
ByBlock
 62
     0
370
    -2
100
AcDbLine
 10
-118.5755438889199
 20
117.2541031967
 30
0.0
 11
-118.5755438889199
 21
152.8401017318563
 31
0.0
  0
LINE
  5
31B
330
317
100
AcDbEntity
  8
0
  6
ByBlock
 62
     0
370
    -2
100
AcDbLine
 10
-33.57552863013086
 20
117.2541031967
 30
0.0
 11
-33.57552863013086
 21
152.8401017318563
 31
0.0
  0
LINE
  5
31C
330
317
100
AcDbEntity
  8
0
  6
ByBlock
 62
     0
370
    -2
100
AcDbLine
 10
-115.4615438889199
 20
150.5540909896688
 30
0.0
 11
-36.68952863013086
 21
150.5540909896688
 31
0.0
  0
INSERT
  5
31D
330
317
100
AcDbEntity
  8
0
 62
     0
370
    -2
100
AcDbBlockReference
  2
_Open
 10
-118.5755438889199
 20
150.5540909896688
 30
0.0
 41
3.114
 42
3.114
 43
3.114
 50
180.0
  0
INSERT
  5
31E
330
317
100
AcDbEntity
  8
0
 62
     0
370
    -2
100
AcDbBlockReference
  2
_Open
 10
-33.57552863013086
 20
150.5540909896688
 30
0.0
 41
3.114
 42
3.114
 43
3.114
  0
MTEXT
  5
31F
330
317
100
AcDbEntity
  8
0
 62
     0
100
AcDbMText
 10
-76.07452863013086
 20
153.5540909896688
 30
0.0
 40
4.0
 41
0.0
 71
     5
 72
     1
  1
85
 73
     1
 44
1.0
  0
POINT
  5
320
330
317
100
AcDbEntity
  8
Defpoints
 62
     0
100
AcDbPoint
 10
-118.5755438889199
 20
117.2541031967
 30
0.0
  0
POINT
  5
321
330
317
100
AcDbEntity
  8
Defpoints
 62
     0
100
AcDbPoint
 10
-33.57552863013086
 20
117.2541031967
 30
0.0
  0
POINT
  5
322
330
317
100
AcDbEntity
  8
Defpoints
 62
     0
100
AcDbPoint
 10
-33.57552863013086
 20
150.5540909896688
 30
0.0
  0
ENDBLK
  5
319
330
317
100
AcDbEntity
  8
0
100
AcDbBlockEnd
  0
BLOCK
  5
325
330
324
100
AcDbEntity
  8
0
100
AcDbBlockBegin
  2
*D14
 70
     1
 10
0.0
 20
0.0
 30
0.0
  3
*D14
  1

  0
LINE
  5
329
330
324
100
AcDbEntity
  8
0
  6
ByBlock
 62
     0
370
    -2
100
AcDbLine
 10
-71.07552863013086
 20
18.55412150724692
 30
0.0
 11
-71.07552863013086
 21
38.64012004240317
 31
0.0
  0
LINE
  5
32A
330
324
100
AcDbEntity
  8
0
  6
ByBlock
 62
     0
370
    -2
100
AcDbLine
 10
-81.07552863013086
 20
18.55412150724692
 30
0.0
 11
-81.07552863013086
 21
38.64012004240317
 31
0.0
  0
LINE
  5
32B
330
324
100
AcDbEntity
  8
0
  6
ByBlock
 62
     0
370
    -2
100
AcDbLine
 10
-74.18952863013087
 20
36.35410930021567
 30
0.0
 11
-77.96152863013086
 21
36.35410930021567
 31
0.0
  0
INSERT
  5
32C
330
324
100
AcDbEntity
  8
0
 62
     0
370
    -2
100
AcDbBlockReference
  2
_Open
 10
-71.07552863013086
 20
36.35410930021567
 30
0.0
 41
3.114
 42
3.114
 43
3.114
  0
INSERT
  5
32D
330
324
100
AcDbEntity
  8
0
 62
     0
370
    -2
100
AcDbBlockReference
  2
_Open
 10
-81.07552863013086
 20
36.35410930021567
 30
0.0
 41
3.114
 42
3.114
 43
3.114
 50
180.0
  0
MTEXT
  5
32E
330
324
100
AcDbEntity
  8
0
 62
     0
100
AcDbMText
 10
-62.09773457553277
 20
51.09712270018638
 30
0.0
 40
4.0
 41
0.0
 71
     8
 72
     1
  1
\U+220510
 73
     1
 44
1.0
  0
POINT
  5
32F
330
324
100
AcDbEntity
  8
Defpoints
 62
     0
100
AcDbPoint
 10
-71.07552863013086
 20
18.55412150724692
 30
0.0
  0
POINT
  5
330
330
324
100
AcDbEntity
  8
Defpoints
 62
     0
100
AcDbPoint
 10
-81.07552863013086
 20
18.55412150724692
 30
0.0
  0
POINT
  5
331
330
324
100
AcDbEntity
  8
Defpoints
 62
     0
100
AcDbPoint
 10
-81.07552863013086
 20
36.35410930021567
 30
0.0
  0
LINE
  5
332
330
324
100
AcDbEntity
  8
0
  6
Continuous
 62
     7
100
AcDbLine
 10
-76.07552863013085
 20
36.35410930021566
 30
0.0
 11
-67.56364587499148
 21
51.09712270018638
 31
0.0
  0
LINE
  5
333
330
324
100
AcDbEntity
  8
0
  6
Continuous
 62
     7
100
AcDbLine
 10
-67.5636458749915
 20
51.09712270018639
 30
0.0
 11
-56.66923440005669
 21
51.09712270018638
 31
0.0
  0
ENDBLK
  5
326
330
324
100
AcDbEntity
  8
0
100
AcDbBlockEnd
  0
BLOCK
  5
336
330
335
100
AcDbEntity
  8
0
100
AcDbBlockBegin
  2
*D15
 70
     1
 10
0.0
 20
0.0
 30
0.0
  3
*D15
  1

  0
LINE
  5
338
330
335
100
AcDbEntity
  8
0
  6
ByBlock
 62
     0
370
    -2
100
AcDbLine
 10
-62.07552863013086
 20
1.259779466231297
 30
0.0
 11
-62.07552863013086
 21
46.64012004240317
 31
0.0
  0
LINE
  5
339
330
335
100
AcDbEntity
  8
0
  6
ByBlock
 62
     0
370
    -2
100
AcDbLine
 10
-90.07552863013086
 20
3.50411845548911
 30
0.0
 11
-90.07552863013086
 21
46.64012004240317
 31
0.0
  0
LINE
  5
33A
330
335
100
AcDbEntity
  8
0
  6
ByBlock
 62
     0
370
    -2
100
AcDbLine
 10
-65.18952863013087
 20
44.35410930021567
 30
0.0
 11
-86.96152863013086
 21
44.35410930021567
 31
0.0
  0
INSERT
  5
33B
330
335
100
AcDbEntity
  8
0
 62
     0
370
    -2
100
AcDbBlockReference
  2
_Open
 10
-62.07552863013086
 20
44.35410930021567
 30
0.0
 41
3.114
 42
3.114
 43
3.114
  0
INSERT
  5
33C
330
335
100
AcDbEntity
  8
0
 62
     0
370
    -2
100
AcDbBlockReference
  2
_Open
 10
-90.07552863013086
 20
44.35410930021567
 30
0.0
 41
3.114
 42
3.114
 43
3.114
 50
180.0
  0
MTEXT
  5
33D
330
335
100
AcDbEntity
  8
0
 62
     0
100
AcDbMText
 10
-80.97095905005273
 20
47.35410930021567
 30
0.0
 40
4.0
 41
0.0
 71
     5
 72
     1
  1
28
 73
     1
 44
1.0
  0
POINT
  5
33E
330
335
100
AcDbEntity
  8
Defpoints
 62
     0
100
AcDbPoint
 10
-62.07552863013086
 20
1.259779466231297
 30
0.0
  0
POINT
  5
33F
330
335
100
AcDbEntity
  8
Defpoints
 62
     0
100
AcDbPoint
 10
-90.07552863013086
 20
3.50411845548911
 30
0.0
  0
POINT
  5
340
330
335
100
AcDbEntity
  8
Defpoints
 62
     0
100
AcDbPoint
 10
-90.07552863013086
 20
44.35410930021567
 30
0.0
  0
ENDBLK
  5
337
330
335
100
AcDbEntity
  8
0
100
AcDbBlockEnd
  0
BLOCK
  5
343
330
342
100
AcDbEntity
  8
0
100
AcDbBlockBegin
  2
*D16
 70
     1
 10
0.0
 20
0.0
 30
0.0
  3
*D16
  1

  0
LINE
  5
345
330
342
100
AcDbEntity
  8
0
  6
ByBlock
 62
     0
370
    -2
100
AcDbLine
 10
-76.07552863013086
 20
32.03410197599692
 30
0.0
 11
-76.07552863013086
 21
54.64012004240317
 31
0.0
  0
LINE
  5
346
330
342
100
AcDbEntity
  8
0
  6
ByBlock
 62
     0
370
    -2
100
AcDbLine
 10
-100.5755286301309
 20
10.89756633146567
 30
0.0
 11
-100.5755286301309
 21
54.64012004240317
 31
0.0
  0
LINE
  5
347
330
342
100
AcDbEntity
  8
0
  6
ByBlock
 62
     0
370
    -2
100
AcDbLine
 10
-79.18952863013087
 20
52.35410930021567
 30
0.0
 11
-97.46152863013086
 21
52.35410930021567
 31
0.0
  0
INSERT
  5
348
330
342
100
AcDbEntity
  8
0
 62
     0
370
    -2
100
AcDbBlockReference
  2
_Open
 10
-76.07552863013086
 20
52.35410930021567
 30
0.0
 41
3.114
 42
3.114
 43
3.114
  0
INSERT
  5
349
330
342
100
AcDbEntity
  8
0
 62
     0
370
    -2
100
AcDbBlockReference
  2
_Open
 10
-100.5755286301309
 20
52.35410930021567
 30
0.0
 41
3.114
 42
3.114
 43
3.114
 50
180.0
  0
MTEXT
  5
34A
330
342
100
AcDbEntity
  8
0
 62
     0
100
AcDbMText
 10
-88.32352863013085
 20
55.35410930021567
 30
0.0
 40
4.0
 41
0.0
 71
     5
 72
     1
  1
24.5
 73
     1
 44
1.0
  0
POINT
  5
34B
330
342
100
AcDbEntity
  8
Defpoints
 62
     0
100
AcDbPoint
 10
-76.07552863013086
 20
32.03410197599692
 30
0.0
  0
POINT
  5
34C
330
342
100
AcDbEntity
  8
Defpoints
 62
     0
100
AcDbPoint
 10
-100.5755286301309
 20
10.89756633146567
 30
0.0
  0
POINT
  5
34D
330
342
100
AcDbEntity
  8
Defpoints
 62
     0
100
AcDbPoint
 10
-100.5755286301309
 20
52.35410930021567
 30
0.0
  0
ENDBLK
  5
344
330
342
100
AcDbEntity
  8
0
100
AcDbBlockEnd
  0
BLOCK
  5
350
330
34F
100
AcDbEntity
  8
0
100
AcDbBlockBegin
  2
*D17
 70
     1
 10
0.0
 20
0.0
 30
0.0
  3
*D17
  1

  0
LINE
  5
352
330
34F
100
AcDbEntity
  8
0
  6
ByBlock
 62
     0
370
    -2
100
AcDbLine
 10
-50.07552863013089
 20
-154.8370222915812
 30
0.0
 11
-50.07552863013089
 21
-169.7308892349406
 31
0.0
  0
LINE
  5
353
330
34F
100
AcDbEntity
  8
0
  6
ByBlock
 62
     0
370
    -2
100
AcDbLine
 10
-102.0755286301309
 20
-154.6756911148234
 30
0.0
 11
-102.0755286301309
 21
-169.7308892349406
 31
0.0
  0
LINE
  5
354
330
34F
100
AcDbEntity
  8
0
  6
ByBlock
 62
     0
370
    -2
100
AcDbLine
 10
-53.18952863013089
 20
-167.4448784927531
 30
0.0
 11
-98.96152863013089
 21
-167.4448784927531
 31
0.0
  0
INSERT
  5
355
330
34F
100
AcDbEntity
  8
0
 62
     0
370
    -2
100
AcDbBlockReference
  2
_Open
 10
-50.07552863013089
 20
-167.4448784927531
 30
0.0
 41
3.114
 42
3.114
 43
3.114
  0
INSERT
  5
356
330
34F
100
AcDbEntity
  8
0
 62
     0
370
    -2
100
AcDbBlockReference
  2
_Open
 10
-102.0755286301309
 20
-167.4448784927531
 30
0.0
 41
3.114
 42
3.114
 43
3.114
 50
180.0
  0
MTEXT
  5
357
330
34F
100
AcDbEntity
  8
0
 62
     0
100
AcDbMText
 10
-76.07352863013088
 20
-164.4448784927531
 30
0.0
 40
4.0
 41
0.0
 71
     5
 72
     1
  1
52
 73
     1
 44
1.0
  0
POINT
  5
358
330
34F
100
AcDbEntity
  8
Defpoints
 62
     0
100
AcDbPoint
 10
-50.07552863013089
 20
-154.8370222915812
 30
0.0
  0
POINT
  5
359
330
34F
100
AcDbEntity
  8
Defpoints
 62
     0
100
AcDbPoint
 10
-102.0755286301309
 20
-154.6756911148234
 30
0.0
  0
POINT
  5
35A
330
34F
100
AcDbEntity
  8
Defpoints
 62
     0
100
AcDbPoint
 10
-102.0755286301309
 20
-167.4458784927531
 30
0.0
  0
ENDBLK
  5
351
330
34F
100
AcDbEntity
  8
0
100
AcDbBlockEnd
  0
BLOCK
  5
35D
330
35C
100
AcDbEntity
  8
0
100
AcDbBlockBegin
  2
*D18
 70
     1
 10
0.0
 20
0.0
 30
0.0
  3
*D18
  1

  0
LINE
  5
35F
330
35C
100
AcDbEntity
  8
0
  6
ByBlock
 62
     0
370
    -2
100
AcDbLine
 10
-33.57552863013086
 20
16.55412150724692
 30
0.0
 11
-8.752819605934226
 21
16.55412150724693
 31
0.0
  0
LINE
  5
360
330
35C
100
AcDbEntity
  8
0
  6
ByBlock
 62
     0
370
    -2
100
AcDbLine
 10
-11.03881960593423
 20
13.44012150724693
 30
0.0
 11
-11.0388196059342
 21
-55.33187849275307
 31
0.0
  0
INSERT
  5
361
330
35C
100
AcDbEntity
  8
0
 62
     0
370
    -2
100
AcDbBlockReference
  2
_Open
 10
-11.03881960593423
 20
16.55412150724693
 30
0.0
 41
3.114
 42
3.114
 43
3.114
 50
90.00000000000001
  0
INSERT
  5
362
330
35C
100
AcDbEntity
  8
0
 62
     0
370
    -2
100
AcDbBlockReference
  2
_Open
 10
-11.0388196059342
 20
-58.44587849275307
 30
0.0
 41
3.114
 42
3.114
 43
3.114
 50
270.0
  0
MTEXT
  5
363
330
35C
100
AcDbEntity
  8
0
 62
     0
100
AcDbMText
 10
-15.08643865355326
 20
-20.94487849275308
 30
0.0
 40
4.0
 41
0.0
 71
     5
 72
     1
  1
\A1;L{\H0.5x;\S^ 1;}(35+ストローク)
 11
-3.789561257387200E-16
 21
1.0
 31
0.0
 73
     1
 44
1.0
  0
POINT
  5
364
330
35C
100
AcDbEntity
  8
Defpoints
 62
     0
100
AcDbPoint
 10
-33.57552863013086
 20
16.55412150724692
 30
0.0
  0
POINT
  5
365
330
35C
100
AcDbEntity
  8
Defpoints
 62
     0
100
AcDbPoint
 10
-33.57552863013086
 20
-58.44587849275308
 30
0.0
  0
POINT
  5
366
330
35C
100
AcDbEntity
  8
Defpoints
 62
     0
100
AcDbPoint
 10
-11.03981960593421
 20
-58.44587849275308
 30
0.0
  0
ENDBLK
  5
35E
330
35C
100
AcDbEntity
  8
0
100
AcDbBlockEnd
  0
BLOCK
  5
369
330
368
100
AcDbEntity
  8
0
100
AcDbBlockBegin
  2
*D19
 70
     1
 10
0.0
 20
0.0
 30
0.0
  3
*D19
  1

  0
LINE
  5
36B
330
368
100
AcDbEntity
  8
0
  6
ByBlock
 62
     0
370
    -2
100
AcDbLine
 10
109.9244637404746
 20
2.375059617598485
 30
0.0
 11
109.9244637404746
 21
38.64010930021567
 31
0.0
  0
LINE
  5
36C
330
368
100
AcDbEntity
  8
0
  6
ByBlock
 62
     0
370
    -2
100
AcDbLine
 10
137.9244637404746
 20
2.375059617598485
 30
0.0
 11
137.9244637404746
 21
38.64010930021567
 31
0.0
  0
LINE
  5
36D
330
368
100
AcDbEntity
  8
0
  6
ByBlock
 62
     0
370
    -2
100
AcDbLine
 10
113.0384637404746
 20
36.35410930021567
 30
0.0
 11
134.8104637404746
 21
36.35410930021567
 31
0.0
  0
INSERT
  5
36E
330
368
100
AcDbEntity
  8
0
 62
     0
370
    -2
100
AcDbBlockReference
  2
_Open
 10
109.9244637404746
 20
36.35410930021567
 30
0.0
 41
3.114
 42
3.114
 43
3.114
 50
180.0
  0
INSERT
  5
36F
330
368
100
AcDbEntity
  8
0
 62
     0
370
    -2
100
AcDbBlockReference
  2
_Open
 10
137.9244637404746
 20
36.35410930021567
 30
0.0
 41
3.114
 42
3.114
 43
3.114
  0
MTEXT
  5
370
330
368
100
AcDbEntity
  8
0
 62
     0
100
AcDbMText
 10
123.9254637404746
 20
39.35410930021567
 30
0.0
 40
4.0
 41
0.0
 71
     5
 72
     1
  1
28
 73
     1
 44
1.0
  0
POINT
  5
371
330
368
100
AcDbEntity
  8
Defpoints
 62
     0
100
AcDbPoint
 10
109.9244637404746
 20
2.375059617598485
 30
0.0
  0
POINT
  5
372
330
368
100
AcDbEntity
  8
Defpoints
 62
     0
100
AcDbPoint
 10
137.9244637404746
 20
2.375059617598485
 30
0.0
  0
POINT
  5
373
330
368
100
AcDbEntity
  8
Defpoints
 62
     0
100
AcDbPoint
 10
137.9244637404746
 20
36.35410930021567
 30
0.0
  0
ENDBLK
  5
36A
330
368
100
AcDbEntity
  8
0
100
AcDbBlockEnd
  0
BLOCK
  5
376
330
375
100
AcDbEntity
  8
0
100
AcDbBlockBegin
  2
*D20
 70
     1
 10
0.0
 20
0.0
 30
0.0
  3
*D20
  1

  0
LINE
  5
378
330
375
100
AcDbEntity
  8
0
  6
ByBlock
 62
     0
370
    -2
100
AcDbLine
 10
91.92446374047461
 20
9.381903184493016
 30
0.0
 11
91.92446374047461
 21
46.64010930021568
 31
0.0
  0
LINE
  5
379
330
375
100
AcDbEntity
  8
0
  6
ByBlock
 62
     0
370
    -2
100
AcDbLine
 10
155.9244637404746
 20
9.381903184493016
 30
0.0
 11
155.9244637404746
 21
46.64010930021567
 31
0.0
  0
LINE
  5
37A
330
375
100
AcDbEntity
  8
0
  6
ByBlock
 62
     0
370
    -2
100
AcDbLine
 10
95.03846374047461
 20
44.35410930021568
 30
0.0
 11
152.8104637404746
 21
44.35410930021567
 31
0.0
  0
INSERT
  5
37B
330
375
100
AcDbEntity
  8
0
 62
     0
370
    -2
100
AcDbBlockReference
  2
_Open
 10
91.92446374047461
 20
44.35410930021568
 30
0.0
 41
3.114
 42
3.114
 43
3.114
 50
180.0
  0
INSERT
  5
37C
330
375
100
AcDbEntity
  8
0
 62
     0
370
    -2
100
AcDbBlockReference
  2
_Open
 10
155.9244637404746
 20
44.35410930021567
 30
0.0
 41
3.114
 42
3.114
 43
3.114
 50
360.0
  0
MTEXT
  5
37D
330
375
100
AcDbEntity
  8
0
 62
     0
100
AcDbMText
 10
123.9254637404746
 20
47.35410930021567
 30
0.0
 40
4.0
 41
0.0
 71
     5
 72
     1
  1
64
 73
     1
 44
1.0
  0
POINT
  5
37E
330
375
100
AcDbEntity
  8
Defpoints
 62
     0
100
AcDbPoint
 10
91.92446374047461
 20
9.381903184493016
 30
0.0
  0
POINT
  5
37F
330
375
100
AcDbEntity
  8
Defpoints
 62
     0
100
AcDbPoint
 10
155.9244637404746
 20
9.381903184493016
 30
0.0
  0
POINT
  5
380
330
375
100
AcDbEntity
  8
Defpoints
 62
     0
100
AcDbPoint
 10
155.9244637404746
 20
44.35410930021567
 30
0.0
  0
ENDBLK
  5
377
330
375
100
AcDbEntity
  8
0
100
AcDbBlockEnd
  0
BLOCK
  5
383
330
382
100
AcDbEntity
  8
0
100
AcDbBlockBegin
  2
*D21
 70
     1
 10
0.0
 20
0.0
 30
0.0
  3
*D21
  1

  0
LINE
  5
385
330
382
100
AcDbEntity
  8
0
  6
ByBlock
 62
     0
370
    -2
100
AcDbLine
 10
-40.57552863013086
 20
28.55412169798179
 30
0.0
 11
-8.752819605934214
 21
28.5541216979818
 31
0.0
  0
LINE
  5
386
330
382
100
AcDbEntity
  8
0
  6
ByBlock
 62
     0
370
    -2
100
AcDbLine
 10
-11.03881960593421
 20
25.4401216979818
 30
0.0
 11
-11.03881960593421
 21
21.66812150724693
 31
0.0
  0
INSERT
  5
387
330
382
100
AcDbEntity
  8
0
 62
     0
370
    -2
100
AcDbBlockReference
  2
_Open
 10
-11.03881960593421
 20
28.5541216979818
 30
0.0
 41
3.114
 42
3.114
 43
3.114
 50
90.00000000000001
  0
INSERT
  5
388
330
382
100
AcDbEntity
  8
0
 62
     0
370
    -2
100
AcDbBlockReference
  2
_Open
 10
-11.03881960593421
 20
18.55412150724693
 30
0.0
 41
3.114
 42
3.114
 43
3.114
 50
270.0
  0
MTEXT
  5
389
330
382
100
AcDbEntity
  8
0
 62
     0
100
AcDbMText
 10
-14.03881960593421
 20
23.45512160261435
 30
0.0
 40
4.0
 41
0.0
 71
     5
 72
     1
  1
10
 11
-3.552713611037862E-16
 21
1.0
 31
0.0
 73
     1
 44
1.0
  0
POINT
  5
38A
330
382
100
AcDbEntity
  8
Defpoints
 62
     0
100
AcDbPoint
 10
-40.57552863013086
 20
28.55412169798179
 30
0.0
  0
POINT
  5
38B
330
382
100
AcDbEntity
  8
Defpoints
 62
     0
100
AcDbPoint
 10
-40.57552756100949
 20
18.55412150724692
 30
0.0
  0
POINT
  5
38C
330
382
100
AcDbEntity
  8
Defpoints
 62
     0
100
AcDbPoint
 10
-11.03981960593421
 20
18.55412150724692
 30
0.0
  0
ENDBLK
  5
384
330
382
100
AcDbEntity
  8
0
100
AcDbBlockEnd
  0
BLOCK
  5
38F
330
38E
100
AcDbEntity
  8
0
100
AcDbBlockBegin
  2
*D22
 70
     1
 10
0.0
 20
0.0
 30
0.0
  3
*D22
  1

  0
MTEXT
  5
399
330
38E
100
AcDbEntity
  8
0
 62
     0
100
AcDbMText
 10
-19.72671406326606
 20
5.875450062462857
 30
0.0
 40
4.0
 41
0.0
 71
     8
 72
     1
  1
2
 11
0.0
 21
1.0
 31
0.0
 73
     1
 44
1.0
  0
POINT
  5
39A
330
38E
100
AcDbEntity
  8
Defpoints
 62
     0
100
AcDbPoint
 10
-40.57552756100949
 20
18.55412150724692
 30
0.0
  0
POINT
  5
39B
330
38E
100
AcDbEntity
  8
Defpoints
 62
     0
100
AcDbPoint
 10
-33.57552863013086
 20
16.55412150724692
 30
0.0
  0
POINT
  5
39C
330
38E
100
AcDbEntity
  8
Defpoints
 62
     0
100
AcDbPoint
 10
-11.03981960593421
 20
16.55412150724692
 30
0.0
  0
LINE
  5
39F
330
38E
100
AcDbEntity
  8
0
  6
Continuous
 62
     7
100
AcDbLine
 10
-40.57552756100949
 20
18.55412150724692
 30
0.0
 11
-8.753819605934211
 21
18.55412150724692
 31
0.0
  0
LINE
  5
3A0
330
38E
100
AcDbEntity
  8
0
  6
Continuous
 62
     7
100
AcDbLine
 10
-11.03981960593421
 20
24.90412150724692
 30
0.0
 11
-11.03981960593421
 21
10.20412150724692
 31
0.0
  0
LINE
  5
3A1
330
38E
100
AcDbEntity
  8
0
  6
Continuous
 62
     7
100
AcDbLine
 10
-11.03981960593421
 20
18.55412150724692
 30
0.0
 11
-11.58881960593421
 21
21.66812150724692
 31
0.0
  0
LINE
  5
3A2
330
38E
100
AcDbEntity
  8
0
  6
Continuous
 62
     7
100
AcDbLine
 10
-11.03981960593421
 20
18.55412150724692
 30
0.0
 11
-10.49081960593421
 21
21.66812150724692
 31
0.0
  0
LINE
  5
3A3
330
38E
100
AcDbEntity
  8
0
  6
Continuous
 62
     7
100
AcDbLine
 10
-11.03981960593421
 20
16.55412150724692
 30
0.0
 11
-10.49081960593421
 21
13.44012150724692
 31
0.0
  0
LINE
  5
3A4
330
38E
100
AcDbEntity
  8
0
  6
Continuous
 62
     7
100
AcDbLine
 10
-11.03981960593421
 20
16.55412150724692
 30
0.0
 11
-11.58881960593421
 21
13.44012150724692
 31
0.0
  0
LINE
  5
3A5
330
38E
100
AcDbEntity
  8
0
  6
Continuous
 62
     7
100
AcDbLine
 10
-11.03981960593425
 20
17.5541215072469
 30
0.0
 11
-19.72671406326612
 21
12.5387406538845
 31
0.0
  0
LINE
  5
3A6
330
38E
100
AcDbEntity
  8
0
  6
Continuous
 62
     7
100
AcDbLine
 10
-19.72671406326611
 20
12.5387406538845
 30
0.0
 11
-19.72671406326604
 21
4.446950006196073
 31
0.0
  0
ENDBLK
  5
390
330
38E
100
AcDbEntity
  8
0
100
AcDbBlockEnd
  0
BLOCK
  5
3A9
330
3A8
100
AcDbEntity
  8
0
100
AcDbBlockBegin
  2
*D23
 70
     1
 10
0.0
 20
0.0
 30
0.0
  3
*D23
  1

  0
LINE
  5
3AB
330
3A8
100
AcDbEntity
  8
0
  6
ByBlock
 62
     0
370
    -2
100
AcDbLine
 10
-33.57552863013086
 20
-58.44587849275308
 30
0.0
 11
-8.752819605934217
 21
-58.44587849275307
 31
0.0
  0
LINE
  5
3AC
330
3A8
100
AcDbEntity
  8
0
  6
ByBlock
 62
     0
370
    -2
100
AcDbLine
 10
-44.07552863013086
 20
-85.44587849275308
 30
0.0
 11
-8.752819605934206
 21
-85.44587849275307
 31
0.0
  0
LINE
  5
3AD
330
3A8
100
AcDbEntity
  8
0
  6
ByBlock
 62
     0
370
    -2
100
AcDbLine
 10
-11.03881960593422
 20
-61.55987849275307
 30
0.0
 11
-11.03881960593421
 21
-82.33187849275306
 31
0.0
  0
INSERT
  5
3AE
330
3A8
100
AcDbEntity
  8
0
 62
     0
370
    -2
100
AcDbBlockReference
  2
_Open
 10
-11.03881960593422
 20
-58.44587849275307
 30
0.0
 41
3.114
 42
3.114
 43
3.114
 50
90.00000000000001
  0
INSERT
  5
3AF
330
3A8
100
AcDbEntity
  8
0
 62
     0
370
    -2
100
AcDbBlockReference
  2
_Open
 10
-11.03881960593421
 20
-85.44587849275307
 30
0.0
 41
3.114
 42
3.114
 43
3.114
 50
270.0
  0
MTEXT
  5
3B0
330
3A8
100
AcDbEntity
  8
0
 62
     0
100
AcDbMText
 10
-14.03881960593421
 20
-71.94487849275308
 30
0.0
 40
4.0
 41
0.0
 71
     5
 72
     1
  1
\A1;L{\H0.5x;\S^ 2;}
 11
-3.947459643111666E-16
 21
1.0
 31
0.0
 73
     1
 44
1.0
  0
POINT
  5
3B1
330
3A8
100
AcDbEntity
  8
Defpoints
 62
     0
100
AcDbPoint
 10
-33.57552863013086
 20
-58.44587849275308
 30
0.0
  0
POINT
  5
3B2
330
3A8
100
AcDbEntity
  8
Defpoints
 62
     0
100
AcDbPoint
 10
-44.07552863013086
 20
-85.44587849275308
 30
0.0
  0
POINT
  5
3B3
330
3A8
100
AcDbEntity
  8
Defpoints
 62
     0
100
AcDbPoint
 10
-11.03981960593421
 20
-85.44587849275308
 30
0.0
  0
ENDBLK
  5
3AA
330
3A8
100
AcDbEntity
  8
0
100
AcDbBlockEnd
  0
BLOCK
  5
3B6
330
3B5
100
AcDbEntity
  8
0
100
AcDbBlockBegin
  2
*D24
 70
     1
 10
0.0
 20
0.0
 30
0.0
  3
*D24
  1

  0
MTEXT
  5
3BD
330
3B5
100
AcDbEntity
  8
0
 62
     0
100
AcDbMText
 10
-5.808885917925363
 20
-14.94487839738565
 30
0.0
 40
4.0
 41
0.0
 71
     5
 72
     1
  1
\A1;L(47+ストローク)
 11
1.837610519488806E-16
 21
1.0
 31
0.0
 73
     1
 44
1.0
  0
POINT
  5
3BE
330
3B5
100
AcDbEntity
  8
Defpoints
 62
     0
100
AcDbPoint
 10
-33.57552863013086
 20
-58.44587849275308
 30
0.0
  0
POINT
  5
3BF
330
3B5
100
AcDbEntity
  8
Defpoints
 62
     0
100
AcDbPoint
 10
-40.57552863013086
 20
28.55412169798179
 30
0.0
  0
POINT
  5
3C0
330
3B5
100
AcDbEntity
  8
Defpoints
 62
     0
100
AcDbPoint
 10
-1.761266870306315
 20
28.55412169798179
 30
0.0
  0
LINE
  5
3C1
330
3B5
100
AcDbEntity
  8
0
  6
Continuous
 62
     7
100
AcDbLine
 10
-33.57552863013086
 20
-58.44587849275308
 30
0.0
 11
0.524733129693686
 21
-58.44587849275308
 31
0.0
  0
LINE
  5
3C2
330
3B5
100
AcDbEntity
  8
0
  6
Continuous
 62
     7
100
AcDbLine
 10
-40.57552863013086
 20
28.55412169798179
 30
0.0
 11
0.524733129693686
 21
28.55412169798179
 31
0.0
  0
LINE
  5
3C3
330
3B5
100
AcDbEntity
  8
0
  6
Continuous
 62
     7
100
AcDbLine
 10
-1.761266870306315
 20
-58.44587849275308
 30
0.0
 11
-1.761266870306315
 21
28.55412169798179
 31
0.0
  0
LINE
  5
3C4
330
3B5
100
AcDbEntity
  8
0
  6
Continuous
 62
     7
100
AcDbLine
 10
-1.761266870306315
 20
-58.44587849275308
 30
0.0
 11
-2.310266870306315
 21
-55.33187849275308
 31
0.0
  0
LINE
  5
3C5
330
3B5
100
AcDbEntity
  8
0
  6
Continuous
 62
     7
100
AcDbLine
 10
-1.761266870306315
 20
-58.44587849275308
 30
0.0
 11
-1.212266870306315
 21
-55.33187849275308
 31
0.0
  0
LINE
  5
3C6
330
3B5
100
AcDbEntity
  8
0
  6
Continuous
 62
     7
100
AcDbLine
 10
-1.761266870306315
 20
28.55412169798179
 30
0.0
 11
-1.212266870306315
 21
25.44012169798179
 31
0.0
  0
LINE
  5
3C7
330
3B5
100
AcDbEntity
  8
0
  6
Continuous
 62
     7
100
AcDbLine
 10
-1.761266870306315
 20
28.55412169798179
 30
0.0
 11
-2.310266870306315
 21
25.44012169798179
 31
0.0
  0
ENDBLK
  5
3B7
330
3B5
100
AcDbEntity
  8
0
100
AcDbBlockEnd
  0
BLOCK
  5
3CA
330
3C9
100
AcDbEntity
  8
0
100
AcDbBlockBegin
  2
*D25
 70
     1
 10
0.0
 20
0.0
 30
0.0
  3
*D25
  1

  0
LINE
  5
3CC
330
3C9
100
AcDbEntity
  8
0
  6
ByBlock
 62
     0
370
    -2
100
AcDbLine
 10
-53.57552863013086
 20
18.55412150724692
 30
0.0
 11
-53.57552863013086
 21
38.64010930021567
 31
0.0
  0
LINE
  5
3CD
330
3C9
100
AcDbEntity
  8
0
  6
ByBlock
 62
     0
370
    -2
100
AcDbLine
 10
-43.57552863013086
 20
18.55412150724692
 30
0.0
 11
-43.57552863013086
 21
38.64010930021567
 31
0.0
  0
LINE
  5
3CE
330
3C9
100
AcDbEntity
  8
0
  6
ByBlock
 62
     0
370
    -2
100
AcDbLine
 10
-43.57552863013086
 20
36.35410930021567
 30
0.0
 11
-28.36629053489278
 21
36.35410930021567
 31
0.0
  0
LINE
  5
3CF
330
3C9
100
AcDbEntity
  8
0
  6
ByBlock
 62
     0
370
    -2
100
AcDbLine
 10
-50.46152863013086
 20
36.35410930021567
 30
0.0
 11
-46.68952863013086
 21
36.35410930021567
 31
0.0
  0
INSERT
  5
3D0
330
3C9
100
AcDbEntity
  8
0
 62
     0
370
    -2
100
AcDbBlockReference
  2
_Open
 10
-53.57552863013086
 20
36.35410930021567
 30
0.0
 41
3.114
 42
3.114
 43
3.114
 50
180.0
  0
INSERT
  5
3D1
330
3C9
100
AcDbEntity
  8
0
 62
     0
370
    -2
100
AcDbBlockReference
  2
_Open
 10
-43.57552863013086
 20
36.35410930021567
 30
0.0
 41
3.114
 42
3.114
 43
3.114
  0
MTEXT
  5
3D2
330
3C9
100
AcDbEntity
  8
0
 62
     0
100
AcDbMText
 10
-34.41390958251182
 20
39.35410930021567
 30
0.0
 40
4.0
 41
0.0
 71
     5
 72
     1
  1
\A1;\U+220510
 73
     1
 44
1.0
  0
POINT
  5
3D3
330
3C9
100
AcDbEntity
  8
Defpoints
 62
     0
100
AcDbPoint
 10
-53.57552863013086
 20
18.55412150724692
 30
0.0
  0
POINT
  5
3D4
330
3C9
100
AcDbEntity
  8
Defpoints
 62
     0
100
AcDbPoint
 10
-43.57552863013086
 20
18.55412150724692
 30
0.0
  0
POINT
  5
3D5
330
3C9
100
AcDbEntity
  8
Defpoints
 62
     0
100
AcDbPoint
 10
-43.57552863013086
 20
36.35410930021567
 30
0.0
  0
ENDBLK
  5
3CB
330
3C9
100
AcDbEntity
  8
0
100
AcDbBlockEnd
  0
BLOCK
  5
3D8
330
3D7
100
AcDbEntity
  8
0
100
AcDbBlockBegin
  2
*D26
 70
     1
 10
0.0
 20
0.0
 30
0.0
  3
*D26
  1

  0
LINE
  5
3DA
330
3D7
100
AcDbEntity
  8
0
  6
ByBlock
 62
     0
370
    -2
100
AcDbLine
 10
-118.5755286301309
 20
16.55412150724692
 30
0.0
 11
-132.2363056720852
 21
16.55412150724692
 31
0.0
  0
LINE
  5
3DB
330
3D7
100
AcDbEntity
  8
0
  6
ByBlock
 62
     0
370
    -2
100
AcDbLine
 10
-119.7790656174355
 20
4.554121507246922
 30
0.0
 11
-132.2363056720852
 21
4.554121507246918
 31
0.0
  0
LINE
  5
3DC
330
3D7
100
AcDbEntity
  8
0
  6
ByBlock
 62
     0
370
    -2
100
AcDbLine
 10
-129.9503056720852
 20
13.44012150724692
 30
0.0
 11
-129.9503056720852
 21
7.668121507246918
 31
0.0
  0
INSERT
  5
3DD
330
3D7
100
AcDbEntity
  8
0
 62
     0
370
    -2
100
AcDbBlockReference
  2
_Open
 10
-129.9503056720852
 20
16.55412150724692
 30
0.0
 41
3.114
 42
3.114
 43
3.114
 50
90.0
  0
INSERT
  5
3DE
330
3D7
100
AcDbEntity
  8
0
 62
     0
370
    -2
100
AcDbBlockReference
  2
_Open
 10
-129.9503056720852
 20
4.554121507246919
 30
0.0
 41
3.114
 42
3.114
 43
3.114
 50
270.0
  0
MTEXT
  5
3DF
330
3D7
100
AcDbEntity
  8
0
 62
     0
100
AcDbMText
 10
-132.9503056720852
 20
10.55512150724692
 30
0.0
 40
4.0
 41
0.0
 71
     5
 72
     1
  1
12
 11
0.0
 21
1.0
 31
0.0
 73
     1
 44
1.0
  0
POINT
  5
3E0
330
3D7
100
AcDbEntity
  8
Defpoints
 62
     0
100
AcDbPoint
 10
-118.5755286301309
 20
16.55412150724692
 30
0.0
  0
POINT
  5
3E1
330
3D7
100
AcDbEntity
  8
Defpoints
 62
     0
100
AcDbPoint
 10
-119.7790656174355
 20
4.554121507246922
 30
0.0
  0
POINT
  5
3E2
330
3D7
100
AcDbEntity
  8
Defpoints
 62
     0
100
AcDbPoint
 10
-129.9523056720852
 20
4.554121507246922
 30
0.0
  0
ENDBLK
  5
3D9
330
3D7
100
AcDbEntity
  8
0
100
AcDbBlockEnd
  0
BLOCK
  5
3E5
330
3E4
100
AcDbEntity
  8
0
100
AcDbBlockBegin
  2
*D27
 70
     1
 10
0.0
 20
0.0
 30
0.0
  3
*D27
  1

  0
LINE
  5
3E7
330
3E4
100
AcDbEntity
  8
0
  6
ByBlock
 62
     0
370
    -2
100
AcDbLine
 10
-118.5755286301309
 20
16.55412150724692
 30
0.0
 11
-142.5162680258682
 21
16.55412150724692
 31
0.0
  0
LINE
  5
3E8
330
3E4
100
AcDbEntity
  8
0
  6
ByBlock
 62
     0
370
    -2
100
AcDbLine
 10
-96.48703146826563
 20
-2.445878492753078
 30
0.0
 11
-142.5162680258682
 21
-2.445878492753094
 31
0.0
  0
LINE
  5
3E9
330
3E4
100
AcDbEntity
  8
0
  6
ByBlock
 62
     0
370
    -2
100
AcDbLine
 10
-140.2302680258682
 20
13.44012150724691
 30
0.0
 11
-140.2302680258682
 21
0.668121507246907
 31
0.0
  0
INSERT
  5
3EA
330
3E4
100
AcDbEntity
  8
0
 62
     0
370
    -2
100
AcDbBlockReference
  2
_Open
 10
-140.2302680258682
 20
16.55412150724692
 30
0.0
 41
3.114
 42
3.114
 43
3.114
 50
90.0
  0
INSERT
  5
3EB
330
3E4
100
AcDbEntity
  8
0
 62
     0
370
    -2
100
AcDbBlockReference
  2
_Open
 10
-140.2302680258682
 20
-2.445878492753093
 30
0.0
 41
3.114
 42
3.114
 43
3.114
 50
270.0
  0
MTEXT
  5
3EC
330
3E4
100
AcDbEntity
  8
0
 62
     0
100
AcDbMText
 10
-143.2302680258682
 20
7.055121507246922
 30
0.0
 40
4.0
 41
0.0
 71
     5
 72
     1
  1
19
 11
0.0
 21
1.0
 31
0.0
 73
     1
 44
1.0
  0
POINT
  5
3ED
330
3E4
100
AcDbEntity
  8
Defpoints
 62
     0
100
AcDbPoint
 10
-118.5755286301309
 20
16.55412150724692
 30
0.0
  0
POINT
  5
3EE
330
3E4
100
AcDbEntity
  8
Defpoints
 62
     0
100
AcDbPoint
 10
-96.48703146826563
 20
-2.445878492753078
 30
0.0
  0
POINT
  5
3EF
330
3E4
100
AcDbEntity
  8
Defpoints
 62
     0
100
AcDbPoint
 10
-140.2322680258682
 20
-2.445878492753078
 30
0.0
  0
ENDBLK
  5
3E6
330
3E4
100
AcDbEntity
  8
0
100
AcDbBlockEnd
  0
BLOCK
  5
3F2
330
3F1
100
AcDbEntity
  8
0
100
AcDbBlockBegin
  2
*D28
 70
     1
 10
0.0
 20
0.0
 30
0.0
  3
*D28
  1

  0
LINE
  5
3F4
330
3F1
100
AcDbEntity
  8
0
  6
ByBlock
 62
     0
370
    -2
100
AcDbLine
 10
-118.5755286301309
 20
-58.44587849275308
 30
0.0
 11
-142.5172680258682
 21
-58.44587849275308
 31
0.0
  0
LINE
  5
3F5
330
3F1
100
AcDbEntity
  8
0
  6
ByBlock
 62
     0
370
    -2
100
AcDbLine
 10
-120.0702147568398
 20
-35.44587849275308
 30
0.0
 11
-142.5172680258682
 21
-35.44587849275308
 31
0.0
  0
LINE
  5
3F6
330
3F1
100
AcDbEntity
  8
0
  6
ByBlock
 62
     0
370
    -2
100
AcDbLine
 10
-140.2312680258682
 20
-55.33187849275308
 30
0.0
 11
-140.2312680258682
 21
-38.55987849275308
 31
0.0
  0
INSERT
  5
3F7
330
3F1
100
AcDbEntity
  8
0
 62
     0
370
    -2
100
AcDbBlockReference
  2
_Open
 10
-140.2312680258682
 20
-58.44587849275308
 30
0.0
 41
3.114
 42
3.114
 43
3.114
 50
270.0
  0
INSERT
  5
3F8
330
3F1
100
AcDbEntity
  8
0
 62
     0
370
    -2
100
AcDbBlockReference
  2
_Open
 10
-140.2312680258682
 20
-35.44587849275308
 30
0.0
 41
3.114
 42
3.114
 43
3.114
 50
90.0
  0
MTEXT
  5
3F9
330
3F1
100
AcDbEntity
  8
0
 62
     0
100
AcDbMText
 10
-143.2312680258682
 20
-46.98753890674656
 30
0.0
 40
4.0
 41
0.0
 71
     5
 72
     1
  1
23
 11
0.0
 21
1.0
 31
0.0
 73
     1
 44
1.0
  0
POINT
  5
3FA
330
3F1
100
AcDbEntity
  8
Defpoints
 62
     0
100
AcDbPoint
 10
-118.5755286301309
 20
-58.44587849275308
 30
0.0
  0
POINT
  5
3FB
330
3F1
100
AcDbEntity
  8
Defpoints
 62
     0
100
AcDbPoint
 10
-120.0702147568398
 20
-35.44587849275308
 30
0.0
  0
POINT
  5
3FC
330
3F1
100
AcDbEntity
  8
Defpoints
 62
     0
100
AcDbPoint
 10
-140.2322680258682
 20
-35.44587849275308
 30
0.0
  0
ENDBLK
  5
3F3
330
3F1
100
AcDbEntity
  8
0
100
AcDbBlockEnd
  0
BLOCK
  5
3FF
330
3FE
100
AcDbEntity
  8
0
100
AcDbBlockBegin
  2
*D29
 70
     1
 10
0.0
 20
0.0
 30
0.0
  3
*D29
  1

  0
LINE
  5
401
330
3FE
100
AcDbEntity
  8
0
  6
ByBlock
 62
     0
370
    -2
100
AcDbLine
 10
-96.48703146826563
 20
-42.44587849275308
 30
0.0
 11
-132.2363056720852
 21
-42.4458784927531
 31
0.0
  0
LINE
  5
402
330
3FE
100
AcDbEntity
  8
0
  6
ByBlock
 62
     0
370
    -2
100
AcDbLine
 10
-118.5755286301309
 20
-58.44587849275308
 30
0.0
 11
-132.2363056720852
 21
-58.44587849275309
 31
0.0
  0
LINE
  5
403
330
3FE
100
AcDbEntity
  8
0
  6
ByBlock
 62
     0
370
    -2
100
AcDbLine
 10
-129.9503056720852
 20
-45.55987849275309
 30
0.0
 11
-129.9503056720852
 21
-55.33187849275309
 31
0.0
  0
INSERT
  5
404
330
3FE
100
AcDbEntity
  8
0
 62
     0
370
    -2
100
AcDbBlockReference
  2
_Open
 10
-129.9503056720852
 20
-42.4458784927531
 30
0.0
 41
3.114
 42
3.114
 43
3.114
 50
90.0
  0
INSERT
  5
405
330
3FE
100
AcDbEntity
  8
0
 62
     0
370
    -2
100
AcDbBlockReference
  2
_Open
 10
-129.9503056720852
 20
-58.44587849275309
 30
0.0
 41
3.114
 42
3.114
 43
3.114
 50
270.0
  0
MTEXT
  5
406
330
3FE
100
AcDbEntity
  8
0
 62
     0
100
AcDbMText
 10
-132.9503056720852
 20
-50.44487849275308
 30
0.0
 40
4.0
 41
0.0
 71
     5
 72
     1
  1
16
 11
0.0
 21
1.0
 31
0.0
 73
     1
 44
1.0
  0
POINT
  5
407
330
3FE
100
AcDbEntity
  8
Defpoints
 62
     0
100
AcDbPoint
 10
-96.48703146826563
 20
-42.44587849275308
 30
0.0
  0
POINT
  5
408
330
3FE
100
AcDbEntity
  8
Defpoints
 62
     0
100
AcDbPoint
 10
-118.5755286301309
 20
-58.44587849275308
 30
0.0
  0
POINT
  5
409
330
3FE
100
AcDbEntity
  8
Defpoints
 62
     0
100
AcDbPoint
 10
-129.9523056720852
 20
-58.44587849275308
 30
0.0
  0
ENDBLK
  5
400
330
3FE
100
AcDbEntity
  8
0
100
AcDbBlockEnd
  0
BLOCK
  5
40C
330
40B
100
AcDbEntity
  8
0
100
AcDbBlockBegin
  2
*D30
 70
     1
 10
0.0
 20
0.0
 30
0.0
  3
*D30
  1

  0
LINE
  5
40E
330
40B
100
AcDbEntity
  8
0
  6
ByBlock
 62
     0
370
    -2
100
AcDbLine
 10
-46.03283072363675
 20
-125.4458784927531
 30
0.0
 11
-17.4201986215685
 21
-125.4458784927531
 31
0.0
  0
LINE
  5
40F
330
40B
100
AcDbEntity
  8
0
  6
ByBlock
 62
     0
370
    -2
100
AcDbLine
 10
-46.57552863013089
 20
-151.4458784927531
 30
0.0
 11
-17.42019862156848
 21
-151.4458784927531
 31
0.0
  0
LINE
  5
410
330
40B
100
AcDbEntity
  8
0
  6
ByBlock
 62
     0
370
    -2
100
AcDbLine
 10
-19.7061986215685
 20
-128.5598784927531
 30
0.0
 11
-19.70619862156849
 21
-148.3318784927531
 31
0.0
  0
INSERT
  5
411
330
40B
100
AcDbEntity
  8
0
 62
     0
370
    -2
100
AcDbBlockReference
  2
_Open
 10
-19.7061986215685
 20
-125.4458784927531
 30
0.0
 41
3.114
 42
3.114
 43
3.114
 50
90.00000000000001
  0
INSERT
  5
412
330
40B
100
AcDbEntity
  8
0
 62
     0
370
    -2
100
AcDbBlockReference
  2
_Open
 10
-19.70619862156849
 20
-151.4458784927531
 30
0.0
 41
3.114
 42
3.114
 43
3.114
 50
270.0
  0
MTEXT
  5
413
330
40B
100
AcDbEntity
  8
0
 62
     0
100
AcDbMText
 10
-22.70619862156849
 20
-138.4448784927531
 30
0.0
 40
4.0
 41
0.0
 71
     5
 72
     1
  1
26
 11
-4.099285014000576E-16
 21
1.0
 31
0.0
 73
     1
 44
1.0
  0
POINT
  5
414
330
40B
100
AcDbEntity
  8
Defpoints
 62
     0
100
AcDbPoint
 10
-46.03283072363675
 20
-125.4458784927531
 30
0.0
  0
POINT
  5
415
330
40B
100
AcDbEntity
  8
Defpoints
 62
     0
100
AcDbPoint
 10
-46.57552863013089
 20
-151.4458784927531
 30
0.0
  0
POINT
  5
416
330
40B
100
AcDbEntity
  8
Defpoints
 62
     0
100
AcDbPoint
 10
-19.70719862156849
 20
-151.4458784927531
 30
0.0
  0
ENDBLK
  5
40D
330
40B
100
AcDbEntity
  8
0
100
AcDbBlockEnd
  0
BLOCK
  5
419
330
418
100
AcDbEntity
  8
0
100
AcDbBlockBegin
  2
*D31
 70
     1
 10
0.0
 20
0.0
 30
0.0
  3
*D31
  1

  0
LINE
  5
41B
330
418
100
AcDbEntity
  8
0
  6
ByBlock
 62
     0
370
    -2
100
AcDbLine
 10
-171.0755286301309
 20
-42.47642641032121
 30
0.0
 11
-171.0755286301309
 21
-103.4325588548305
 31
0.0
  0
LINE
  5
41C
330
418
100
AcDbEntity
  8
0
  6
ByBlock
 62
     0
370
    -2
100
AcDbLine
 10
-182.5755286301309
 20
-86.61909626619058
 30
0.0
 11
-182.5755286301309
 21
-103.4325588548305
 31
0.0
  0
LINE
  5
41D
330
418
100
AcDbEntity
  8
0
  6
ByBlock
 62
     0
370
    -2
100
AcDbLine
 10
-182.5755286301309
 20
-101.1465588548305
 30
0.0
 11
-200.2468447762868
 21
-101.1465588548305
 31
0.0
  0
LINE
  5
41E
330
418
100
AcDbEntity
  8
0
  6
ByBlock
 62
     0
370
    -2
100
AcDbLine
 10
-174.1895286301309
 20
-101.1465588548305
 30
0.0
 11
-179.4615286301309
 21
-101.1465588548305
 31
0.0
  0
INSERT
  5
41F
330
418
100
AcDbEntity
  8
0
 62
     0
370
    -2
100
AcDbBlockReference
  2
_Open
 10
-171.0755286301309
 20
-101.1465588548305
 30
0.0
 41
3.114
 42
3.114
 43
3.114
  0
INSERT
  5
420
330
418
100
AcDbEntity
  8
0
 62
     0
370
    -2
100
AcDbBlockReference
  2
_Open
 10
-182.5755286301309
 20
-101.1465588548305
 30
0.0
 41
3.114
 42
3.114
 43
3.114
 50
180.0
  0
MTEXT
  5
421
330
418
100
AcDbEntity
  8
0
 62
     0
100
AcDbMText
 10
-193.437320966763
 20
-98.14655885483053
 30
0.0
 40
4.0
 41
0.0
 71
     5
 72
     1
  1
11.5
 73
     1
 44
1.0
  0
POINT
  5
422
330
418
100
AcDbEntity
  8
Defpoints
 62
     0
100
AcDbPoint
 10
-171.0755286301309
 20
-42.47642641032121
 30
0.0
  0
POINT
  5
423
330
418
100
AcDbEntity
  8
Defpoints
 62
     0
100
AcDbPoint
 10
-182.5755286301309
 20
-86.61909626619058
 30
0.0
  0
POINT
  5
424
330
418
100
AcDbEntity
  8
Defpoints
 62
     0
100
AcDbPoint
 10
-182.5755286301309
 20
-101.1475588548305
 30
0.0
  0
ENDBLK
  5
41A
330
418
100
AcDbEntity
  8
0
100
AcDbBlockEnd
  0
BLOCK
  5
427
330
426
100
AcDbEntity
  8
0
100
AcDbBlockBegin
  2
*D32
 70
     1
 10
0.0
 20
0.0
 30
0.0
  3
*D32
  1

  0
LINE
  5
429
330
426
100
AcDbEntity
  8
0
  6
ByBlock
 62
     0
370
    -2
100
AcDbLine
 10
166.4244637404746
 20
16.55412150724692
 30
0.0
 11
178.3516791565551
 21
16.55412150724693
 31
0.0
  0
LINE
  5
42A
330
426
100
AcDbEntity
  8
0
  6
ByBlock
 62
     0
370
    -2
100
AcDbLine
 10
160.1244645034141
 20
5.554121507246922
 30
0.0
 11
178.3516791565551
 21
5.554121507246929
 31
0.0
  0
LINE
  5
42B
330
426
100
AcDbEntity
  8
0
  6
ByBlock
 62
     0
370
    -2
100
AcDbLine
 10
176.0656791565551
 20
13.44012150724692
 30
0.0
 11
176.0656791565551
 21
8.668121507246928
 31
0.0
  0
INSERT
  5
42C
330
426
100
AcDbEntity
  8
0
 62
     0
370
    -2
100
AcDbBlockReference
  2
_Open
 10
176.0656791565551
 20
16.55412150724693
 30
0.0
 41
3.114
 42
3.114
 43
3.114
 50
90.0
  0
INSERT
  5
42D
330
426
100
AcDbEntity
  8
0
 62
     0
370
    -2
100
AcDbBlockReference
  2
_Open
 10
176.0656791565551
 20
5.554121507246928
 30
0.0
 41
3.114
 42
3.114
 43
3.114
 50
270.0
  0
MTEXT
  5
42E
330
426
100
AcDbEntity
  8
0
 62
     0
100
AcDbMText
 10
173.0656791565551
 20
11.05512150724692
 30
0.0
 40
4.0
 41
0.0
 71
     5
 72
     1
  1
11
 11
0.0
 21
1.0
 31
0.0
 73
     1
 44
1.0
  0
POINT
  5
42F
330
426
100
AcDbEntity
  8
Defpoints
 62
     0
100
AcDbPoint
 10
166.4244637404746
 20
16.55412150724692
 30
0.0
  0
POINT
  5
430
330
426
100
AcDbEntity
  8
Defpoints
 62
     0
100
AcDbPoint
 10
160.1244645034141
 20
5.554121507246922
 30
0.0
  0
POINT
  5
431
330
426
100
AcDbEntity
  8
Defpoints
 62
     0
100
AcDbPoint
 10
176.0646791565551
 20
5.554121507246922
 30
0.0
  0
ENDBLK
  5
428
330
426
100
AcDbEntity
  8
0
100
AcDbBlockEnd
  0
BLOCK
  5
434
330
433
100
AcDbEntity
  8
0
100
AcDbBlockBegin
  2
*D33
 70
     1
 10
0.0
 20
0.0
 30
0.0
  3
*D33
  1

  0
LINE
  5
436
330
433
100
AcDbEntity
  8
0
  6
ByBlock
 62
     0
370
    -2
100
AcDbLine
 10
166.4244637404746
 20
16.55412150724692
 30
0.0
 11
188.1519846920375
 21
16.55412150724693
 31
0.0
  0
LINE
  5
437
330
433
100
AcDbEntity
  8
0
  6
ByBlock
 62
     0
370
    -2
100
AcDbLine
 10
142.3865361129111
 20
-2.445878492753078
 30
0.0
 11
188.1519846920375
 21
-2.445878492753062
 31
0.0
  0
LINE
  5
438
330
433
100
AcDbEntity
  8
0
  6
ByBlock
 62
     0
370
    -2
100
AcDbLine
 10
185.8659846920375
 20
13.44012150724693
 30
0.0
 11
185.8659846920375
 21
0.668121507246937
 31
0.0
  0
INSERT
  5
439
330
433
100
AcDbEntity
  8
0
 62
     0
370
    -2
100
AcDbBlockReference
  2
_Open
 10
185.8659846920375
 20
16.55412150724693
 30
0.0
 41
3.114
 42
3.114
 43
3.114
 50
90.0
  0
INSERT
  5
43A
330
433
100
AcDbEntity
  8
0
 62
     0
370
    -2
100
AcDbBlockReference
  2
_Open
 10
185.8659846920375
 20
-2.445878492753063
 30
0.0
 41
3.114
 42
3.114
 43
3.114
 50
270.0
  0
MTEXT
  5
43B
330
433
100
AcDbEntity
  8
0
 62
     0
100
AcDbMText
 10
182.8659846920375
 20
7.055121507246922
 30
0.0
 40
4.0
 41
0.0
 71
     5
 72
     1
  1
19
 11
0.0
 21
1.0
 31
0.0
 73
     1
 44
1.0
  0
POINT
  5
43C
330
433
100
AcDbEntity
  8
Defpoints
 62
     0
100
AcDbPoint
 10
166.4244637404746
 20
16.55412150724692
 30
0.0
  0
POINT
  5
43D
330
433
100
AcDbEntity
  8
Defpoints
 62
     0
100
AcDbPoint
 10
142.3865361129111
 20
-2.445878492753078
 30
0.0
  0
POINT
  5
43E
330
433
100
AcDbEntity
  8
Defpoints
 62
     0
100
AcDbPoint
 10
185.8649846920375
 20
-2.445878492753078
 30
0.0
  0
ENDBLK
  5
435
330
433
100
AcDbEntity
  8
0
100
AcDbBlockEnd
  0
BLOCK
  5
441
330
440
100
AcDbEntity
  8
0
100
AcDbBlockBegin
  2
*D34
 70
     1
 10
0.0
 20
0.0
 30
0.0
  3
*D34
  1

  0
LINE
  5
443
330
440
100
AcDbEntity
  8
0
  6
ByBlock
 62
     0
370
    -2
100
AcDbLine
 10
166.4244637404746
 20
-58.44587849275308
 30
0.0
 11
178.3506791565551
 21
-58.44587849275308
 31
0.0
  0
LINE
  5
444
330
440
100
AcDbEntity
  8
0
  6
ByBlock
 62
     0
370
    -2
100
AcDbLine
 10
160.1244645034141
 20
-44.44587849275308
 30
0.0
 11
178.3506791565551
 21
-44.44587849275308
 31
0.0
  0
LINE
  5
445
330
440
100
AcDbEntity
  8
0
  6
ByBlock
 62
     0
370
    -2
100
AcDbLine
 10
176.0646791565551
 20
-55.33187849275308
 30
0.0
 11
176.0646791565551
 21
-47.55987849275308
 31
0.0
  0
INSERT
  5
446
330
440
100
AcDbEntity
  8
0
 62
     0
370
    -2
100
AcDbBlockReference
  2
_Open
 10
176.0646791565551
 20
-58.44587849275308
 30
0.0
 41
3.114
 42
3.114
 43
3.114
 50
270.0
  0
INSERT
  5
447
330
440
100
AcDbEntity
  8
0
 62
     0
370
    -2
100
AcDbBlockReference
  2
_Open
 10
176.0646791565551
 20
-44.44587849275308
 30
0.0
 41
3.114
 42
3.114
 43
3.114
 50
90.0
  0
MTEXT
  5
448
330
440
100
AcDbEntity
  8
0
 62
     0
100
AcDbMText
 10
173.0646791565551
 20
-51.44487849275308
 30
0.0
 40
4.0
 41
0.0
 71
     5
 72
     1
  1
14
 11
0.0
 21
1.0
 31
0.0
 73
     1
 44
1.0
  0
POINT
  5
449
330
440
100
AcDbEntity
  8
Defpoints
 62
     0
100
AcDbPoint
 10
166.4244637404746
 20
-58.44587849275308
 30
0.0
  0
POINT
  5
44A
330
440
100
AcDbEntity
  8
Defpoints
 62
     0
100
AcDbPoint
 10
160.1244645034141
 20
-44.44587849275308
 30
0.0
  0
POINT
  5
44B
330
440
100
AcDbEntity
  8
Defpoints
 62
     0
100
AcDbPoint
 10
176.0646791565551
 20
-44.44587849275308
 30
0.0
  0
ENDBLK
  5
442
330
440
100
AcDbEntity
  8
0
100
AcDbBlockEnd
  0
BLOCK
  5
44E
330
44D
100
AcDbEntity
  8
0
100
AcDbBlockBegin
  2
*D35
 70
     1
 10
0.0
 20
0.0
 30
0.0
  3
*D35
  1

  0
LINE
  5
450
330
44D
100
AcDbEntity
  8
0
  6
ByBlock
 62
     0
370
    -2
100
AcDbLine
 10
142.4960179244346
 20
-42.44587849275308
 30
0.0
 11
188.1519846920375
 21
-42.44587849275307
 31
0.0
  0
LINE
  5
451
330
44D
100
AcDbEntity
  8
0
  6
ByBlock
 62
     0
370
    -2
100
AcDbLine
 10
166.4244637404746
 20
-58.44587849275308
 30
0.0
 11
188.1519846920375
 21
-58.44587849275307
 31
0.0
  0
LINE
  5
452
330
44D
100
AcDbEntity
  8
0
  6
ByBlock
 62
     0
370
    -2
100
AcDbLine
 10
185.8659846920375
 20
-45.55987849275306
 30
0.0
 11
185.8659846920375
 21
-55.33187849275308
 31
0.0
  0
INSERT
  5
453
330
44D
100
AcDbEntity
  8
0
 62
     0
370
    -2
100
AcDbBlockReference
  2
_Open
 10
185.8659846920375
 20
-42.44587849275307
 30
0.0
 41
3.114
 42
3.114
 43
3.114
 50
90.0
  0
INSERT
  5
454
330
44D
100
AcDbEntity
  8
0
 62
     0
370
    -2
100
AcDbBlockReference
  2
_Open
 10
185.8659846920375
 20
-58.44587849275307
 30
0.0
 41
3.114
 42
3.114
 43
3.114
 50
270.0
  0
MTEXT
  5
455
330
44D
100
AcDbEntity
  8
0
 62
     0
100
AcDbMText
 10
182.8659846920375
 20
-50.44487849275308
 30
0.0
 40
4.0
 41
0.0
 71
     5
 72
     1
  1
16
 11
0.0
 21
1.0
 31
0.0
 73
     1
 44
1.0
  0
POINT
  5
456
330
44D
100
AcDbEntity
  8
Defpoints
 62
     0
100
AcDbPoint
 10
142.4960179244346
 20
-42.44587849275308
 30
0.0
  0
POINT
  5
457
330
44D
100
AcDbEntity
  8
Defpoints
 62
     0
100
AcDbPoint
 10
166.4244637404746
 20
-58.44587849275308
 30
0.0
  0
POINT
  5
458
330
44D
100
AcDbEntity
  8
Defpoints
 62
     0
100
AcDbPoint
 10
185.8649846920375
 20
-58.44587849275308
 30
0.0
  0
ENDBLK
  5
44F
330
44D
100
AcDbEntity
  8
0
100
AcDbBlockEnd
  0
BLOCK
  5
45B
330
45A
100
AcDbEntity
  8
0
100
AcDbBlockBegin
  2
*D36
 70
     1
 10
0.0
 20
0.0
 30
0.0
  3
*D36
  1

  0
LINE
  5
45D
330
45A
100
AcDbEntity
  8
0
  6
ByBlock
 62
     0
370
    -2
100
AcDbLine
 10
-41.07552863013086
 20
116.5541215072469
 30
0.0
 11
-10.23802145617229
 21
116.5541215072469
 31
0.0
  0
LINE
  5
45E
330
45A
100
AcDbEntity
  8
0
  6
ByBlock
 62
     0
370
    -2
100
AcDbLine
 10
-41.07552863013086
 20
86.55412150724692
 30
0.0
 11
-10.23802145617227
 21
86.55412150724693
 31
0.0
  0
LINE
  5
45F
330
45A
100
AcDbEntity
  8
0
  6
ByBlock
 62
     0
370
    -2
100
AcDbLine
 10
-12.52402145617223
 20
113.4401215072469
 30
0.0
 11
-12.52402145617222
 21
89.66812150724694
 31
0.0
  0
INSERT
  5
460
330
45A
100
AcDbEntity
  8
0
 62
     0
370
    -2
100
AcDbBlockReference
  2
_Open
 10
-12.52402145617223
 20
116.5541215072469
 30
0.0
 41
3.114
 42
3.114
 43
3.114
 50
90.00000000000001
  0
INSERT
  5
461
330
45A
100
AcDbEntity
  8
0
 62
     0
370
    -2
100
AcDbBlockReference
  2
_Open
 10
-12.52402145617222
 20
86.55412150724693
 30
0.0
 41
3.114
 42
3.114
 43
3.114
 50
270.0
  0
MTEXT
  5
462
330
45A
100
AcDbEntity
  8
0
 62
     0
100
AcDbMText
 10
-15.52402145617223
 20
106.7340213738322
 30
0.0
 40
4.0
 41
0.0
 71
     5
 72
     1
  1
30
 11
-3.552713678800499E-16
 21
1.0
 31
0.0
 73
     1
 44
1.0
  0
POINT
  5
463
330
45A
100
AcDbEntity
  8
Defpoints
 62
     0
100
AcDbPoint
 10
-41.07552863013086
 20
116.5541215072469
 30
0.0
  0
POINT
  5
464
330
45A
100
AcDbEntity
  8
Defpoints
 62
     0
100
AcDbPoint
 10
-41.07552863013086
 20
86.55412150724692
 30
0.0
  0
POINT
  5
465
330
45A
100
AcDbEntity
  8
Defpoints
 62
     0
100
AcDbPoint
 10
-12.52502145617223
 20
86.55412150724692
 30
0.0
  0
ENDBLK
  5
45C
330
45A
100
AcDbEntity
  8
0
100
AcDbBlockEnd
  0
BLOCK
  5
468
330
467
100
AcDbEntity
  8
0
100
AcDbBlockBegin
  2
*D37
 70
     1
 10
0.0
 20
0.0
 30
0.0
  3
*D37
  1

  0
LINE
  5
46A
330
467
100
AcDbEntity
  8
0
  6
ByBlock
 62
     0
370
    -2
100
AcDbLine
 10
-39.87552786719141
 20
118.5541215072469
 30
0.0
 11
10.32741067858628
 21
118.5541215072469
 31
0.0
  0
LINE
  5
46B
330
467
100
AcDbEntity
  8
0
  6
ByBlock
 62
     0
370
    -2
100
AcDbLine
 10
-34.57552863013086
 20
82.55412150724692
 30
0.0
 11
10.32741067858629
 21
82.55412150724695
 31
0.0
  0
LINE
  5
46C
330
467
100
AcDbEntity
  8
0
  6
ByBlock
 62
     0
370
    -2
100
AcDbLine
 10
8.041410678586335
 20
115.4401215072469
 30
0.0
 11
8.041410678586345
 21
85.66812150724695
 31
0.0
  0
INSERT
  5
46D
330
467
100
AcDbEntity
  8
0
 62
     0
370
    -2
100
AcDbBlockReference
  2
_Open
 10
8.041410678586333
 20
118.5541215072469
 30
0.0
 41
3.114
 42
3.114
 43
3.114
 50
90.00000000000001
  0
INSERT
  5
46E
330
467
100
AcDbEntity
  8
0
 62
     0
370
    -2
100
AcDbBlockReference
  2
_Open
 10
8.041410678586347
 20
82.55412150724695
 30
0.0
 41
3.114
 42
3.114
 43
3.114
 50
270.0
  0
MTEXT
  5
46F
330
467
100
AcDbEntity
  8
0
 62
     0
100
AcDbMText
 10
5.04141067858634
 20
100.5551215072469
 30
0.0
 40
4.0
 41
0.0
 71
     5
 72
     1
  1
36
 11
-3.947459643111665E-16
 21
1.0
 31
0.0
 73
     1
 44
1.0
  0
POINT
  5
470
330
467
100
AcDbEntity
  8
Defpoints
 62
     0
100
AcDbPoint
 10
-39.87552786719141
 20
118.5541215072469
 30
0.0
  0
POINT
  5
471
330
467
100
AcDbEntity
  8
Defpoints
 62
     0
100
AcDbPoint
 10
-34.57552863013086
 20
82.55412150724692
 30
0.0
  0
POINT
  5
472
330
467
100
AcDbEntity
  8
Defpoints
 62
     0
100
AcDbPoint
 10
8.04041067858634
 20
82.55412150724692
 30
0.0
  0
ENDBLK
  5
469
330
467
100
AcDbEntity
  8
0
100
AcDbBlockEnd
  0
BLOCK
  5
475
330
474
100
AcDbEntity
  8
0
100
AcDbBlockBegin
  2
*D38
 70
     1
 10
0.0
 20
0.0
 30
0.0
  3
*D38
  1

  0
LINE
  5
477
330
474
100
AcDbEntity
  8
0
  6
ByBlock
 62
     0
370
    -2
100
AcDbLine
 10
-33.57552863013086
 20
101.5541215072469
 30
0.0
 11
-0.321189575257451
 21
101.5541215072469
 31
0.0
  0
LINE
  5
478
330
474
100
AcDbEntity
  8
0
  6
ByBlock
 62
     0
370
    -2
100
AcDbLine
 10
-39.87552786719141
 20
118.5541215072469
 30
0.0
 11
-0.321189575257448
 21
118.5541215072469
 31
0.0
  0
LINE
  5
479
330
474
100
AcDbEntity
  8
0
  6
ByBlock
 62
     0
370
    -2
100
AcDbLine
 10
-2.607189575257395
 20
104.6681215072469
 30
0.0
 11
-2.607189575257393
 21
115.4401215072469
 31
0.0
  0
INSERT
  5
47A
330
474
100
AcDbEntity
  8
0
 62
     0
370
    -2
100
AcDbBlockReference
  2
_Open
 10
-2.607189575257395
 20
101.5541215072469
 30
0.0
 41
3.114
 42
3.114
 43
3.114
 50
270.0
  0
INSERT
  5
47B
330
474
100
AcDbEntity
  8
0
 62
     0
370
    -2
100
AcDbBlockReference
  2
_Open
 10
-2.607189575257392
 20
118.5541215072469
 30
0.0
 41
3.114
 42
3.114
 43
3.114
 50
89.99999999999999
  0
MTEXT
  5
47C
330
474
100
AcDbEntity
  8
0
 62
     0
100
AcDbMText
 10
-5.607189575257394
 20
110.0551215072469
 30
0.0
 40
4.0
 41
0.0
 71
     5
 72
     1
  1
17
 11
1.828602628794375E-16
 21
1.0
 31
0.0
 73
     1
 44
1.0
  0
POINT
  5
47D
330
474
100
AcDbEntity
  8
Defpoints
 62
     0
100
AcDbPoint
 10
-33.57552863013086
 20
101.5541215072469
 30
0.0
  0
POINT
  5
47E
330
474
100
AcDbEntity
  8
Defpoints
 62
     0
100
AcDbPoint
 10
-39.87552786719141
 20
118.5541215072469
 30
0.0
  0
POINT
  5
47F
330
474
100
AcDbEntity
  8
Defpoints
 62
     0
100
AcDbPoint
 10
-2.607189575257394
 20
118.5541215072469
 30
0.0
  0
ENDBLK
  5
476
330
474
100
AcDbEntity
  8
0
100
AcDbBlockEnd
  0
BLOCK
  5
482
330
481
100
AcDbEntity
  8
0
100
AcDbBlockBegin
  2
*D39
 70
     1
 10
0.0
 20
0.0
 30
0.0
  3
*D39
  1

  0
LINE
  5
484
330
481
100
AcDbEntity
  8
0
  6
ByBlock
 62
     0
370
    -2
100
AcDbLine
 10
-34.57552863013086
 20
82.55412150724692
 30
0.0
 11
-0.320189575257446
 21
82.55412150724693
 31
0.0
  0
LINE
  5
485
330
481
100
AcDbEntity
  8
0
  6
ByBlock
 62
     0
370
    -2
100
AcDbLine
 10
-2.606189575257396
 20
98.44012150724693
 30
0.0
 11
-2.606189575257392
 21
85.66812150724694
 31
0.0
  0
INSERT
  5
486
330
481
100
AcDbEntity
  8
0
 62
     0
370
    -2
100
AcDbBlockReference
  2
_Open
 10
-2.606189575257397
 20
101.5541215072469
 30
0.0
 41
3.114
 42
3.114
 43
3.114
 50
90.00000000000001
  0
INSERT
  5
487
330
481
100
AcDbEntity
  8
0
 62
     0
370
    -2
100
AcDbBlockReference
  2
_Open
 10
-2.60618957525739
 20
82.55412150724693
 30
0.0
 41
3.114
 42
3.114
 43
3.114
 50
270.0
  0
MTEXT
  5
488
330
481
100
AcDbEntity
  8
0
 62
     0
100
AcDbMText
 10
-5.606189575257394
 20
92.05512150724692
 30
0.0
 40
4.0
 41
0.0
 71
     5
 72
     1
  1
19
 11
-3.739698609263683E-16
 21
1.0
 31
0.0
 73
     1
 44
1.0
  0
POINT
  5
489
330
481
100
AcDbEntity
  8
Defpoints
 62
     0
100
AcDbPoint
 10
-33.57552863013086
 20
101.5541215072469
 30
0.0
  0
POINT
  5
48A
330
481
100
AcDbEntity
  8
Defpoints
 62
     0
100
AcDbPoint
 10
-34.57552863013086
 20
82.55412150724692
 30
0.0
  0
POINT
  5
48B
330
481
100
AcDbEntity
  8
Defpoints
 62
     0
100
AcDbPoint
 10
-2.607189575257394
 20
82.55412150724692
 30
0.0
  0
ENDBLK
  5
483
330
481
100
AcDbEntity
  8
0
100
AcDbBlockEnd
  0
BLOCK
  5
48E
330
48D
100
AcDbEntity
  8
0
100
AcDbBlockBegin
  2
*D40
 70
     1
 10
0.0
 20
0.0
 30
0.0
  3
*D40
  1

  0
LINE
  5
490
330
48D
100
AcDbEntity
  8
0
  6
ByBlock
 62
     0
370
    -2
100
AcDbLine
 10
-42.05738592993555
 20
110.5541215072469
 30
0.0
 11
-21.29398522765095
 21
110.5541215072469
 31
0.0
  0
LINE
  5
491
330
48D
100
AcDbEntity
  8
0
  6
ByBlock
 62
     0
370
    -2
100
AcDbLine
 10
-42.29278326880274
 20
92.55412150724692
 30
0.0
 11
-21.29398522765094
 21
92.55412150724692
 31
0.0
  0
LINE
  5
492
330
48D
100
AcDbEntity
  8
0
  6
ByBlock
 62
     0
370
    -2
100
AcDbLine
 10
-23.57998522765089
 20
110.5541215072469
 30
0.0
 11
-23.5799852276509
 21
127.4599680484567
 31
0.0
  0
LINE
  5
493
330
48D
100
AcDbEntity
  8
0
  6
ByBlock
 62
     0
370
    -2
100
AcDbLine
 10
-23.57998522765089
 20
107.4401215072469
 30
0.0
 11
-23.57998522765089
 21
95.66812150724692
 31
0.0
  0
INSERT
  5
494
330
48D
100
AcDbEntity
  8
0
 62
     0
370
    -2
100
AcDbBlockReference
  2
_Open
 10
-23.57998522765089
 20
110.5541215072469
 30
0.0
 41
3.114
 42
3.114
 43
3.114
 50
90.00000000000001
  0
INSERT
  5
495
330
48D
100
AcDbEntity
  8
0
 62
     0
370
    -2
100
AcDbBlockReference
  2
_Open
 10
-23.57998522765089
 20
92.55412150724692
 30
0.0
 41
3.114
 42
3.114
 43
3.114
 50
270.0
  0
MTEXT
  5
496
330
48D
100
AcDbEntity
  8
0
 62
     0
100
AcDbMText
 10
-26.5799852276509
 20
123.5075870960757
 30
0.0
 40
4.0
 41
0.0
 71
     5
 72
     1
  1
18
 11
-3.947459643111667E-16
 21
1.0
 31
0.0
 73
     1
 44
1.0
  0
POINT
  5
497
330
48D
100
AcDbEntity
  8
Defpoints
 62
     0
100
AcDbPoint
 10
-42.05738592993555
 20
110.5541215072469
 30
0.0
  0
POINT
  5
498
330
48D
100
AcDbEntity
  8
Defpoints
 62
     0
100
AcDbPoint
 10
-42.29278326880274
 20
92.55412150724692
 30
0.0
  0
POINT
  5
499
330
48D
100
AcDbEntity
  8
Defpoints
 62
     0
100
AcDbPoint
 10
-23.5809852276509
 20
92.55412150724692
 30
0.0
  0
ENDBLK
  5
48F
330
48D
100
AcDbEntity
  8
0
100
AcDbBlockEnd
  0
BLOCK
  5
4A1
330
49A
100
AcDbEntity
  8
0
100
AcDbBlockBegin
  2
SYM0001
 70
     0
 10
0.0
 20
0.0
 30
0.0
  3
SYM0001
  1

  0
LINE
  5
49B
330
49A
100
AcDbEntity
  8
0
  6
Continuous
 62
     7
100
AcDbLine
 10
0.0
 20
0.0
 30
0.0
 11
-12.21972044005116
 21
15.93517851498223
 31
0.0
  0
LINE
  5
49C
330
49A
100
AcDbEntity
  8
0
  6
Continuous
 62
     7
100
AcDbLine
 10
0.0
 20
0.0
 30
0.0
 11
-2.508212322576469
 21
1.925842918235059
 31
0.0
  0
LINE
  5
49D
330
49A
100
AcDbEntity
  8
0
  6
Continuous
 62
     7
100
AcDbLine
 10
0.0
 20
0.0
 30
0.0
 11
-1.209254130487636
 21
2.92193505210831
 31
0.0
  0
LINE
  5
49E
330
49A
100
AcDbEntity
  8
0
  6
Continuous
 62
     7
100
AcDbLine
 10
-12.21972044005118
 20
15.93517851498223
 30
0.0
 11
-14.4467957145735
 21
15.9351785149822
 31
0.0
  0
MTEXT
  5
49F
330
49A
100
AcDbEntity
  8
0
 62
     7
100
AcDbMText
 10
-43.58979655571426
 20
13.9351785149822
 30
0.0
 40
4.0
 41
0.0
 71
     7
 72
     1
  1
{\W1;2-Rc1/8}
 73
     1
 44
1.0
  0
ENDBLK
  5
4A2
330
49A
100
AcDbEntity
  8
0
100
AcDbBlockEnd
  0
BLOCK
  5
4AA
330
4A3
100
AcDbEntity
  8
0
100
AcDbBlockBegin
  2
SYM0002
 70
     0
 10
0.0
 20
0.0
 30
0.0
  3
SYM0002
  1

  0
LINE
  5
4A4
330
4A3
100
AcDbEntity
  8
0
  6
Continuous
 62
     7
100
AcDbLine
 10
0.0
 20
0.0
 30
0.0
 11
-18.49602869303712
 21
-21.33287701897565
 31
0.0
  0
LINE
  5
4A5
330
4A3
100
AcDbEntity
  8
0
  6
Continuous
 62
     7
100
AcDbLine
 10
0.0
 20
0.0
 30
0.0
 11
-1.382576207371926
 21
-2.844025849328673
 31
0.0
  0
LINE
  5
4A6
330
4A3
100
AcDbEntity
  8
0
  6
Continuous
 62
     7
100
AcDbLine
 10
0.0
 20
0.0
 30
0.0
 11
-2.61935904281404
 21
-1.771710531003578
 31
0.0
  0
LINE
  5
4A7
330
4A3
100
AcDbEntity
  8
0
  6
Continuous
 62
     7
100
AcDbLine
 10
-18.49602869303712
 20
-21.33287701897567
 30
0.0
 11
-22.37721939158131
 21
-21.33287701897565
 31
0.0
  0
MTEXT
  5
4A8
330
4A3
100
AcDbEntity
  8
0
 62
     7
100
AcDbMText
 10
-59.52022047114062
 20
-23.33287701897571
 30
0.0
 40
4.0
 41
0.0
 71
     7
 72
     1
  1
{\W0.833333;4-\U+22055.2　貫通}
 73
     1
 44
1.0
  0
ENDBLK
  5
4AB
330
4A3
100
AcDbEntity
  8
0
100
AcDbBlockEnd
  0
BLOCK
  5
4B3
330
4AC
100
AcDbEntity
  8
0
100
AcDbBlockBegin
  2
SYM0003
 70
     0
 10
0.0
 20
0.0
 30
0.0
  3
SYM0003
  1

  0
LINE
  5
4AD
330
4AC
100
AcDbEntity
  8
0
  6
Continuous
 62
     7
100
AcDbLine
 10
0.0
 20
0.0
 30
0.0
 11
9.79359480199652
 21
-18.85178910361621
 31
0.0
  0
LINE
  5
4AE
330
4AC
100
AcDbEntity
  8
0
  6
Continuous
 62
     7
100
AcDbLine
 10
0.0
 20
0.0
 30
0.0
 11
2.134453645881734
 21
-2.333261158641008
 31
0.0
  0
LINE
  5
4AF
330
4AC
100
AcDbEntity
  8
0
  6
Continuous
 62
     7
100
AcDbLine
 10
0.0
 20
0.0
 30
0.0
 11
0.681860501391753
 21
-3.087890259948111
 31
0.0
  0
LINE
  5
4B0
330
4AC
100
AcDbEntity
  8
0
  6
Continuous
 62
     7
100
AcDbLine
 10
9.793594801996512
 20
-18.85178910361618
 30
0.0
 11
12.56667032153167
 21
-18.85178910361618
 31
0.0
  0
MTEXT
  5
4B1
330
4AC
100
AcDbEntity
  8
0
 62
     7
100
AcDbMText
 10
14.85267033488311
 20
-20.85178910361618
 30
0.0
 40
4.0
 41
0.0
 71
     7
 72
     1
  1
{\W0.833333;4-M5×０．８（通し）}
 73
     1
 44
1.0
  0
ENDBLK
  5
4B4
330
4AC
100
AcDbEntity
  8
0
100
AcDbBlockEnd
  0
BLOCK
  5
4BC
330
4B5
100
AcDbEntity
  8
0
100
AcDbBlockBegin
  2
SYM0004
 70
     0
 10
0.0
 20
0.0
 30
0.0
  3
SYM0004
  1

  0
LINE
  5
4B6
330
4B5
100
AcDbEntity
  8
0
  6
Continuous
 62
     7
100
AcDbLine
 10
0.0
 20
0.0
 30
0.0
 11
10.28179713922881
 21
10.16916655280416
 31
0.0
  0
LINE
  5
4B7
330
4B5
100
AcDbEntity
  8
0
  6
Continuous
 62
     7
100
AcDbLine
 10
0.0
 20
0.0
 30
0.0
 11
1.59619711869874
 21
2.729863505580166
 31
0.0
  0
LINE
  5
4B8
330
4B5
100
AcDbEntity
  8
0
  6
Continuous
 62
     7
100
AcDbLine
 10
0.0
 20
0.0
 30
0.0
 11
2.747279006940289
 21
1.566032585505777
 31
0.0
  0
LINE
  5
4B9
330
4B5
100
AcDbEntity
  8
0
  6
Continuous
 62
     7
100
AcDbLine
 10
10.28179713922881
 20
10.16916655280416
 30
0.0
 11
11.56974899291561
 21
10.16916655280419
 31
0.0
  0
MTEXT
  5
4BA
330
4B5
100
AcDbEntity
  8
0
 62
     7
100
AcDbMText
 10
13.85574900626705
 20
8.169166552804171
 30
0.0
 40
4.0
 41
0.0
 71
     7
 72
     1
  1
{\W1;2-Rc1/8}
 73
     1
 44
1.0
  0
ENDBLK
  5
4BD
330
4B5
100
AcDbEntity
  8
0
100
AcDbBlockEnd
  0
BLOCK
  5
4C5
330
4BE
100
AcDbEntity
  8
0
100
AcDbBlockBegin
  2
SYM0005
 70
     0
 10
0.0
 20
0.0
 30
0.0
  3
SYM0005
  1

  0
LINE
  5
4BF
330
4BE
100
AcDbEntity
  8
0
  6
Continuous
 62
     7
100
AcDbLine
 10
0.0
 20
0.0
 30
0.0
 11
16.92045434975849
 21
-45.95350830711773
 31
0.0
  0
LINE
  5
4C0
330
4BE
100
AcDbEntity
  8
0
  6
Continuous
 62
     7
100
AcDbLine
 10
0.0
 20
0.0
 30
0.0
 11
1.823475612526067
 21
-2.583589884514048
 31
0.0
  0
LINE
  5
4C1
330
4BE
100
AcDbEntity
  8
0
  6
Continuous
 62
     7
100
AcDbLine
 10
0.0
 20
0.0
 30
0.0
 11
0.287381261553833
 21
-3.149192279196107
 31
0.0
  0
LINE
  5
4C2
330
4BE
100
AcDbEntity
  8
0
  6
Continuous
 62
     7
100
AcDbLine
 10
16.92045434975847
 20
-45.95350830711772
 30
0.0
 11
21.33919377036032
 21
-45.95350830711769
 31
0.0
  0
MTEXT
  5
4C3
330
4BE
100
AcDbEntity
  8
0
 62
     7
100
AcDbMText
 10
23.62519378371174
 20
-47.95350830711769
 30
0.0
 40
4.0
 41
0.0
 71
     7
 72
     1
  1
{\W0.833333;4-M6×１　深さ１２}
 73
     1
 44
1.0
  0
ENDBLK
  5
4C6
330
4BE
100
AcDbEntity
  8
0
100
AcDbBlockEnd
  0
BLOCK
  5
4CE
330
4C7
100
AcDbEntity
  8
0
100
AcDbBlockBegin
  2
SYM0006
 70
     0
 10
0.0
 20
0.0
 30
0.0
  3
SYM0006
  1

  0
LINE
  5
4C8
330
4C7
100
AcDbEntity
  8
0
  6
Continuous
 62
     7
100
AcDbLine
 10
0.0
 20
0.0
 30
0.0
 11
24.38819628999791
 21
-53.19799420730008
 31
0.0
  0
LINE
  5
4C9
330
4C7
100
AcDbEntity
  8
0
  6
Continuous
 62
     7
100
AcDbLine
 10
0.0
 20
0.0
 30
0.0
 11
2.016932367197384
 21
-2.435566428367778
 31
0.0
  0
LINE
  5
4CA
330
4C7
100
AcDbEntity
  8
0
  6
Continuous
 62
     7
100
AcDbLine
 10
0.0
 20
0.0
 30
0.0
 11
0.528931453704203
 21
-3.117728583139169
 31
0.0
  0
LINE
  5
4CB
330
4C7
100
AcDbEntity
  8
0
  6
Continuous
 62
     7
100
AcDbLine
 10
24.38819628999792
 20
-53.19799420730008
 30
0.0
 11
30.81602535015833
 21
-53.19799420730008
 31
0.0
  0
MTEXT
  5
4CC
330
4C7
100
AcDbEntity
  8
0
 62
     7
100
AcDbMText
 10
33.10202536350977
 20
-55.1979942073001
 30
0.0
 40
4.0
 41
0.0
 71
     7
 72
     1
  1
{\W0.833333;4-M５×０．８　深さ７}
 73
     1
 44
1.0
  0
ENDBLK
  5
4CF
330
4C7
100
AcDbEntity
  8
0
100
AcDbBlockEnd
  0
BLOCK
  5
4D7
330
4D0
100
AcDbEntity
  8
0
100
AcDbBlockBegin
  2
SYM0007
 70
     0
 10
0.0
 20
0.0
 30
0.0
  3
SYM0007
  1

  0
LINE
  5
4D1
330
4D0
100
AcDbEntity
  8
0
  6
Continuous
 62
     7
100
AcDbLine
 10
0.0
 20
0.0
 30
0.0
 11
8.402225954613087
 21
11.36135842865407
 31
0.0
  0
LINE
  5
4D2
330
4D0
100
AcDbEntity
  8
0
  6
Continuous
 62
     7
100
AcDbLine
 10
0.0
 20
0.0
 30
0.0
 11
1.158185735380705
 21
2.94255090069845
 31
0.0
  0
LINE
  5
4D3
330
4D0
100
AcDbEntity
  8
0
  6
Continuous
 62
     7
100
AcDbLine
 10
0.0
 20
0.0
 30
0.0
 11
2.474293719375943
 21
1.969230964386213
 31
0.0
  0
LINE
  5
4D4
330
4D0
100
AcDbEntity
  8
0
  6
Continuous
 62
     7
100
AcDbLine
 10
8.402225954613094
 20
11.36135842865407
 30
0.0
 11
10.19766890281885
 21
11.36135842865407
 31
0.0
  0
MTEXT
  5
4D5
330
4D0
100
AcDbEntity
  8
0
 62
     7
100
AcDbMText
 10
12.48366891617029
 20
9.361358428654086
 30
0.0
 40
4.0
 41
0.0
 71
     7
 72
     1
  1
{\W0.833333;４－Ｍ５×０．８　深さ１３}
 73
     1
 44
1.0
  0
ENDBLK
  5
4D8
330
4D0
100
AcDbEntity
  8
0
100
AcDbBlockEnd
  0
ENDSEC
  0
SECTION
  2
ENTITIES
  0
POINT
  5
28D
330
1F
100
AcDbEntity
  8
0
 62
     7
100
AcDbPoint
 10
-76.07552863013089
 20
28.55412169798179
 30
0.0
  0
POINT
  5
28E
330
1F
100
AcDbEntity
  8
0
 62
     7
100
AcDbPoint
 10
-182.5755286301309
 20
28.55412169798179
 30
0.0
  0
POINT
  5
28F
330
1F
100
AcDbEntity
  8
0
 62
     7
100
AcDbPoint
 10
35.42447136986911
 20
28.55412169798179
 30
0.0
  0
POINT
  5
290
330
1F
100
AcDbEntity
  8
0
 62
     7
100
AcDbPoint
 10
123.9244637404746
 20
28.55412455900474
 30
0.0
  0
POINT
  5
291
330
1F
100
AcDbEntity
  8
0
 62
     7
100
AcDbPoint
 10
-76.07552863013089
 20
101.5541215072469
 30
0.0
  0
POINT
  5
292
330
1F
100
AcDbEntity
  8
0
 62
     7
100
AcDbPoint
 10
-76.07552863013089
 20
-138.4458784927531
 30
0.0
  0
POINT
  5
293
330
1F
100
AcDbEntity
  8
0
 62
     7
100
AcDbPoint
 10
0.0
 20
0.0
 30
0.0
  0
LINE
  5
294
330
1F
100
AcDbEntity
  8
0
  6
Continuous
 62
     7
100
AcDbLine
 10
65.42806594391536
 20
99.21654089007606
 30
0.0
 11
180.4280659439154
 21
99.21654089007606
 31
0.0
  0
LINE
  5
295
330
1F
100
AcDbEntity
  8
0
  6
Continuous
 62
     7
100
AcDbLine
 10
65.42806594391536
 20
107.2165408900761
 30
0.0
 11
180.4280659439154
 21
107.2165408900761
 31
0.0
  0
LINE
  5
296
330
1F
100
AcDbEntity
  8
0
  6
Continuous
 62
     7
100
AcDbLine
 10
65.42806594391536
 20
115.2165408900761
 30
0.0
 11
180.4280659439154
 21
115.2165408900761
 31
0.0
  0
LINE
  5
297
330
1F
100
AcDbEntity
  8
0
  6
Continuous
 62
     7
100
AcDbLine
 10
65.42806594391536
 20
123.2165408900761
 30
0.0
 11
180.4280659439154
 21
123.2165408900761
 31
0.0
  0
LINE
  5
298
330
1F
100
AcDbEntity
  8
0
  6
Continuous
 62
     7
100
AcDbLine
 10
65.42806594391536
 20
131.2165408900761
 30
0.0
 11
180.4280659439154
 21
131.2165408900761
 31
0.0
  0
LINE
  5
299
330
1F
100
AcDbEntity
  8
0
  6
Continuous
 62
     7
100
AcDbLine
 10
65.42806594391536
 20
139.2165408900761
 30
0.0
 11
180.4280659439154
 21
139.2165408900761
 31
0.0
  0
LINE
  5
29A
330
1F
100
AcDbEntity
  8
0
  6
Continuous
 62
     7
100
AcDbLine
 10
65.42806594391536
 20
147.2165408900761
 30
0.0
 11
180.4280659439154
 21
147.2165408900761
 31
0.0
  0
LINE
  5
29B
330
1F
100
AcDbEntity
  8
0
  6
Continuous
 62
     7
100
AcDbLine
 10
65.42806594391536
 20
163.2165408900761
 30
0.0
 11
180.4280659439154
 21
163.2165408900761
 31
0.0
  0
LINE
  5
29C
330
1F
100
AcDbEntity
  8
0
  6
Continuous
 62
     7
100
AcDbLine
 10
65.42806594391536
 20
155.2165408900761
 30
0.0
 11
180.4280659439154
 21
155.2165408900761
 31
0.0
  0
LINE
  5
29D
330
1F
100
AcDbEntity
  8
0
  6
Continuous
 62
     7
100
AcDbLine
 10
125.4280659439154
 20
163.2165408900761
 30
0.0
 11
125.4280659439154
 21
75.21654089007606
 31
0.0
  0
LINE
  5
29E
330
1F
100
AcDbEntity
  8
0
  6
Continuous
 62
     7
100
AcDbLine
 10
95.42806594391536
 20
163.2165408900761
 30
0.0
 11
95.42806594391536
 21
75.21654089007606
 31
0.0
  0
LINE
  5
29F
330
1F
100
AcDbEntity
  8
0
  6
Continuous
 62
     7
100
AcDbLine
 10
65.42806594391536
 20
163.2165408900761
 30
0.0
 11
65.42806594391536
 21
75.21654089007606
 31
0.0
  0
LINE
  5
2A0
330
1F
100
AcDbEntity
  8
0
  6
Continuous
 62
     7
100
AcDbLine
 10
65.42806594391536
 20
91.21654089007606
 30
0.0
 11
180.4280659439154
 21
91.21654089007606
 31
0.0
  0
LINE
  5
2A1
330
1F
100
AcDbEntity
  8
0
  6
Continuous
 62
     7
100
AcDbLine
 10
65.42806594391536
 20
83.21654089007606
 30
0.0
 11
180.4280659439154
 21
83.21654089007606
 31
0.0
  0
LINE
  5
2A2
330
1F
100
AcDbEntity
  8
0
  6
Continuous
 62
     7
100
AcDbLine
 10
65.42806594391536
 20
75.21654089007606
 30
0.0
 11
180.4280659439154
 21
75.21654089007606
 31
0.0
  0
LINE
  5
2A3
330
1F
100
AcDbEntity
  8
0
  6
Continuous
 62
     7
100
AcDbLine
 10
155.4280659439154
 20
163.2165408900761
 30
0.0
 11
155.4280659439154
 21
75.21654089007606
 31
0.0
  0
LINE
  5
2A4
330
1F
100
AcDbEntity
  8
0
  6
Continuous
 62
     7
100
AcDbLine
 10
180.4280659439154
 20
163.2165408900761
 30
0.0
 11
180.4280659439154
 21
75.21654089007606
 31
0.0
  0
LINE
  5
2A5
330
1F
100
AcDbEntity
  8
0
  6
Continuous
 62
     7
100
AcDbLine
 10
-218.9034468671605
 20
-175.6146753518568
 30
0.0
 11
218.9034468671605
 21
-175.6146753518568
 31
0.0
  0
LINE
  5
2A6
330
1F
100
AcDbEntity
  8
0
  6
Continuous
 62
     7
100
AcDbLine
 10
-218.9034468671605
 20
175.6146753518568
 30
0.0
 11
218.9034468671605
 21
175.6146753518568
 31
0.0
  0
LINE
  5
2A7
330
1F
100
AcDbEntity
  8
0
  6
Continuous
 62
     7
100
AcDbLine
 10
-218.9034468671605
 20
191.6146753518568
 30
0.0
 11
-218.9034468671605
 21
-175.6146753518568
 31
0.0
  0
LINE
  5
2A8
330
1F
100
AcDbEntity
  8
0
  6
Continuous
 62
     7
100
AcDbLine
 10
218.9034468671605
 20
191.6146753518568
 30
0.0
 11
218.9034468671605
 21
-175.6146753518568
 31
0.0
  0
LINE
  5
2A9
330
1F
100
AcDbEntity
  8
0
  6
Continuous
 62
     7
100
AcDbLine
 10
-218.9034468671605
 20
191.6146753518568
 30
0.0
 11
218.9034468671605
 21
191.6146753518568
 31
0.0
  0
MTEXT
  5
2AA
330
1F
100
AcDbEntity
  8
0
 62
     7
100
AcDbMText
 10
76.99956582804396
 20
141.2165408900761
 30
0.0
 40
4.0
 41
0.0
 71
     7
 72
     1
  1
{\W0.833333;３０}
 73
     1
 44
1.0
  0
MTEXT
  5
2AB
330
1F
100
AcDbEntity
  8
0
 62
     7
100
AcDbMText
 10
74.99956576843931
 20
109.2165408900761
 30
0.0
 40
4.0
 41
0.0
 71
     7
 72
     1
  1
{\W0.833333;１００}
 73
     1
 44
1.0
  0
MTEXT
  5
2AC
330
1F
100
AcDbEntity
  8
0
 62
     7
100
AcDbMText
 10
76.99956582804396
 20
117.2165408900761
 30
0.0
 40
4.0
 41
0.0
 71
     7
 72
     1
  1
{\W0.833333;７５}
 73
     1
 44
1.0
  0
MTEXT
  5
2AD
330
1F
100
AcDbEntity
  8
0
 62
     7
100
AcDbMText
 10
76.99956582804396
 20
125.2165408900761
 30
0.0
 40
4.0
 41
0.0
 71
     7
 72
     1
  1
{\W0.833333;５０}
 73
     1
 44
1.0
  0
MTEXT
  5
2AE
330
1F
100
AcDbEntity
  8
0
 62
     7
100
AcDbMText
 10
76.99956582804396
 20
133.2165408900761
 30
0.0
 40
4.0
 41
0.0
 71
     7
 72
     1
  1
{\W0.833333;４０}
 73
     1
 44
1.0
  0
MTEXT
  5
2AF
330
1F
100
AcDbEntity
  8
0
 62
     7
100
AcDbMText
 10
76.99956582804396
 20
149.2165408900761
 30
0.0
 40
4.0
 41
0.0
 71
     7
 72
     1
  1
{\W0.833333;２０}
 73
     1
 44
1.0
  0
MTEXT
  5
2B0
330
1F
100
AcDbEntity
  8
0
 62
     7
100
AcDbMText
 10
70.99956564923002
 20
157.2165408900761
 30
0.0
 40
4.0
 41
0.0
 71
     7
 72
     1
  1
{\W0.833333;ストローク}
 73
     1
 44
1.0
  0
MTEXT
  5
2B1
330
1F
100
AcDbEntity
  8
0
 62
     7
100
AcDbMText
 10
108.9995658876486
 20
157.2165408900761
 30
0.0
 40
4.0
 41
0.0
 71
     7
 72
     1
  1
{\W0.833333;Ｌ}
 73
     1
 44
1.0
  0
MTEXT
  5
2B2
330
1F
100
AcDbEntity
  8
0
 62
     7
100
AcDbMText
 10
137.8566908570118
 20
157.2165408900761
 30
0.0
 40
4.0
 41
0.0
 71
     7
 72
     1
  1
{\W1;\A1;L{\H0.5x;\S ^ 1;}}
 73
     1
 44
1.0
  0
MTEXT
  5
2B3
330
1F
100
AcDbEntity
  8
0
 62
     7
100
AcDbMText
 10
74.99956576843931
 20
101.2165408900761
 30
0.0
 40
4.0
 41
0.0
 71
     7
 72
     1
  1
{\W0.833333;１２５}
 73
     1
 44
1.0
  0
MTEXT
  5
2B4
330
1F
100
AcDbEntity
  8
0
 62
     7
100
AcDbMText
 10
74.99956576843931
 20
93.21654089007606
 30
0.0
 40
4.0
 41
0.0
 71
     7
 72
     1
  1
{\W0.833333;１５０}
 73
     1
 44
1.0
  0
MTEXT
  5
2B5
330
1F
100
AcDbEntity
  8
0
 62
     7
100
AcDbMText
 10
74.99956576843931
 20
85.21654089007606
 30
0.0
 40
4.0
 41
0.0
 71
     7
 72
     1
  1
{\W1;175}
 73
     1
 44
1.0
  0
MTEXT
  5
2B6
330
1F
100
AcDbEntity
  8
0
 62
     7
100
AcDbMText
 10
74.99956576843931
 20
77.21654089007606
 30
0.0
 40
4.0
 41
0.0
 71
     7
 72
     1
  1
{\W1;200}
 73
     1
 44
1.0
  0
MTEXT
  5
2B7
330
1F
100
AcDbEntity
  8
0
 62
     7
100
AcDbMText
 10
106.9995658280439
 20
149.2165408900761
 30
0.0
 40
4.0
 41
0.0
 71
     7
 72
     1
  1
{\W1;67}
 73
     1
 44
1.0
  0
MTEXT
  5
2B8
330
1F
100
AcDbEntity
  8
0
 62
     7
100
AcDbMText
 10
106.9995658280439
 20
141.2165408900761
 30
0.0
 40
4.0
 41
0.0
 71
     7
 72
     1
  1
{\W1;77}
 73
     1
 44
1.0
  0
MTEXT
  5
2B9
330
1F
100
AcDbEntity
  8
0
 62
     7
100
AcDbMText
 10
106.9995658280439
 20
133.2165408900761
 30
0.0
 40
4.0
 41
0.0
 71
     7
 72
     1
  1
{\W1;87}
 73
     1
 44
1.0
  0
MTEXT
  5
2BA
330
1F
100
AcDbEntity
  8
0
 62
     7
100
AcDbMText
 10
106.9995658280439
 20
125.2165408900761
 30
0.0
 40
4.0
 41
0.0
 71
     7
 72
     1
  1
{\W1;97}
 73
     1
 44
1.0
  0
MTEXT
  5
2BB
330
1F
100
AcDbEntity
  8
0
 62
     7
100
AcDbMText
 10
104.9995657684393
 20
117.2165408900761
 30
0.0
 40
4.0
 41
0.0
 71
     7
 72
     1
  1
{\W1;122}
 73
     1
 44
1.0
  0
MTEXT
  5
2BC
330
1F
100
AcDbEntity
  8
0
 62
     7
100
AcDbMText
 10
104.9995657684393
 20
109.2165408900761
 30
0.0
 40
4.0
 41
0.0
 71
     7
 72
     1
  1
{\W1;147}
 73
     1
 44
1.0
  0
MTEXT
  5
2BD
330
1F
100
AcDbEntity
  8
0
 62
     7
100
AcDbMText
 10
104.9995657684393
 20
101.2165408900761
 30
0.0
 40
4.0
 41
0.0
 71
     7
 72
     1
  1
{\W1;172}
 73
     1
 44
1.0
  0
MTEXT
  5
2BE
330
1F
100
AcDbEntity
  8
0
 62
     7
100
AcDbMText
 10
104.9995657684393
 20
93.21654089007606
 30
0.0
 40
4.0
 41
0.0
 71
     7
 72
     1
  1
{\W1;197}
 73
     1
 44
1.0
  0
MTEXT
  5
2BF
330
1F
100
AcDbEntity
  8
0
 62
     7
100
AcDbMText
 10
104.9995657684393
 20
85.21654089007606
 30
0.0
 40
4.0
 41
0.0
 71
     7
 72
     1
  1
{\W1;222}
 73
     1
 44
1.0
  0
MTEXT
  5
2C0
330
1F
100
AcDbEntity
  8
0
 62
     7
100
AcDbMText
 10
104.9995657684393
 20
77.21654089007606
 30
0.0
 40
4.0
 41
0.0
 71
     7
 72
     1
  1
{\W1;247}
 73
     1
 44
1.0
  0
MTEXT
  5
2C1
330
1F
100
AcDbEntity
  8
0
 62
     7
100
AcDbMText
 10
136.9995658280439
 20
149.2165408900761
 30
0.0
 40
4.0
 41
0.0
 71
     7
 72
     1
  1
{\W1;55}
 73
     1
 44
1.0
  0
MTEXT
  5
2C2
330
1F
100
AcDbEntity
  8
0
 62
     7
100
AcDbMText
 10
136.9995658280439
 20
141.2165408900761
 30
0.0
 40
4.0
 41
0.0
 71
     7
 72
     1
  1
{\W1;65}
 73
     1
 44
1.0
  0
MTEXT
  5
2C3
330
1F
100
AcDbEntity
  8
0
 62
     7
100
AcDbMText
 10
136.9995658280439
 20
133.2165408900761
 30
0.0
 40
4.0
 41
0.0
 71
     7
 72
     1
  1
{\W1;75}
 73
     1
 44
1.0
  0
MTEXT
  5
2C4
330
1F
100
AcDbEntity
  8
0
 62
     7
100
AcDbMText
 10
136.9995658280439
 20
125.2165408900761
 30
0.0
 40
4.0
 41
0.0
 71
     7
 72
     1
  1
{\W1;85}
 73
     1
 44
1.0
  0
MTEXT
  5
2C5
330
1F
100
AcDbEntity
  8
0
 62
     7
100
AcDbMText
 10
134.9995657684393
 20
117.2165408900761
 30
0.0
 40
4.0
 41
0.0
 71
     7
 72
     1
  1
{\W1;110}
 73
     1
 44
1.0
  0
MTEXT
  5
2C6
330
1F
100
AcDbEntity
  8
0
 62
     7
100
AcDbMText
 10
134.9995657684393
 20
109.2165408900761
 30
0.0
 40
4.0
 41
0.0
 71
     7
 72
     1
  1
{\W1;135}
 73
     1
 44
1.0
  0
MTEXT
  5
2C7
330
1F
100
AcDbEntity
  8
0
 62
     7
100
AcDbMText
 10
134.9995657684393
 20
101.2165408900761
 30
0.0
 40
4.0
 41
0.0
 71
     7
 72
     1
  1
{\W1;160}
 73
     1
 44
1.0
  0
MTEXT
  5
2C8
330
1F
100
AcDbEntity
  8
0
 62
     7
100
AcDbMText
 10
134.9995657684393
 20
93.21654089007606
 30
0.0
 40
4.0
 41
0.0
 71
     7
 72
     1
  1
{\W1;185}
 73
     1
 44
1.0
  0
MTEXT
  5
2C9
330
1F
100
AcDbEntity
  8
0
 62
     7
100
AcDbMText
 10
134.9995657684393
 20
85.21654089007606
 30
0.0
 40
4.0
 41
0.0
 71
     7
 72
     1
  1
{\W1;210}
 73
     1
 44
1.0
  0
MTEXT
  5
2CA
330
1F
100
AcDbEntity
  8
0
 62
     7
100
AcDbMText
 10
134.9995657684393
 20
77.21654089007606
 30
0.0
 40
4.0
 41
0.0
 71
     7
 72
     1
  1
{\W1;235}
 73
     1
 44
1.0
  0
MTEXT
  5
2CB
330
1F
100
AcDbEntity
  8
0
 62
     7
100
AcDbMText
 10
165.3566908570118
 20
157.2165408900761
 30
0.0
 40
4.0
 41
0.0
 71
     7
 72
     1
  1
{\W0.833333;\A1;L{\H0.5x;\S　^ ２;}}
 73
     1
 44
1.0
  0
MTEXT
  5
2CC
330
1F
100
AcDbEntity
  8
0
 62
     7
100
AcDbMText
 10
166.4995658876486
 20
149.2165408900761
 30
0.0
 40
4.0
 41
0.0
 71
     7
 72
     1
  1
{\W0.833333;-}
 73
     1
 44
1.0
  0
MTEXT
  5
2CD
330
1F
100
AcDbEntity
  8
0
 62
     7
100
AcDbMText
 10
166.4995658876486
 20
141.2165408900761
 30
0.0
 40
4.0
 41
0.0
 71
     7
 72
     1
  1
{\W0.833333;-}
 73
     1
 44
1.0
  0
MTEXT
  5
2CE
330
1F
100
AcDbEntity
  8
0
 62
     7
100
AcDbMText
 10
164.4995658280439
 20
133.2165408900761
 30
0.0
 40
4.0
 41
0.0
 71
     7
 72
     1
  1
{\W0.833333;27}
 73
     1
 44
1.0
  0
MTEXT
  5
2CF
330
1F
100
AcDbEntity
  8
0
 62
     7
100
AcDbMText
 10
164.4995658280439
 20
77.21654089007606
 30
0.0
 40
4.0
 41
0.0
 71
     7
 72
     1
  1
{\W0.833333;50}
 73
     1
 44
1.0
  0
MTEXT
  5
2D0
330
1F
100
AcDbEntity
  8
0
 62
     7
100
AcDbMText
 10
164.4995658280439
 20
85.21654089007606
 30
0.0
 40
4.0
 41
0.0
 71
     7
 72
     1
  1
{\W0.833333;50}
 73
     1
 44
1.0
  0
MTEXT
  5
2D1
330
1F
100
AcDbEntity
  8
0
 62
     7
100
AcDbMText
 10
164.4995658280439
 20
93.21654089007606
 30
0.0
 40
4.0
 41
0.0
 71
     7
 72
     1
  1
{\W0.833333;50}
 73
     1
 44
1.0
  0
MTEXT
  5
2D2
330
1F
100
AcDbEntity
  8
0
 62
     7
100
AcDbMText
 10
164.4995658280439
 20
101.2165408900761
 30
0.0
 40
4.0
 41
0.0
 71
     7
 72
     1
  1
{\W0.833333;50}
 73
     1
 44
1.0
  0
MTEXT
  5
2D3
330
1F
100
AcDbEntity
  8
0
 62
     7
100
AcDbMText
 10
164.4995658280439
 20
109.2165408900761
 30
0.0
 40
4.0
 41
0.0
 71
     7
 72
     1
  1
{\W0.833333;27}
 73
     1
 44
1.0
  0
MTEXT
  5
2D4
330
1F
100
AcDbEntity
  8
0
 62
     7
100
AcDbMText
 10
164.4995658280439
 20
117.2165408900761
 30
0.0
 40
4.0
 41
0.0
 71
     7
 72
     1
  1
{\W0.833333;27}
 73
     1
 44
1.0
  0
MTEXT
  5
2D5
330
1F
100
AcDbEntity
  8
0
 62
     7
100
AcDbMText
 10
164.4995658280439
 20
125.2165408900761
 30
0.0
 40
4.0
 41
0.0
 71
     7
 72
     1
  1
{\W0.833333;27}
 73
     1
 44
1.0
  0
MTEXT
  5
2D6
330
1F
100
AcDbEntity
  8
0
 62
     7
100
AcDbMText
 10
109.0010120851394
 20
66.68877407993918
 30
0.0
 40
4.0
 41
0.0
 71
     5
 72
     1
  1
{\W0.833333;\L*　　　印は作図ストロークを示します。\l}
 73
     1
 44
1.0
  0
MTEXT
  5
2D7
330
1F
100
AcDbEntity
  8
0
 62
     7
100
AcDbMText
 10
-179.1891468784139
 20
179.6146753518568
 30
0.0
 40
8.0
 41
0.0
 71
     7
 72
     1
  1
{\W0.833333;ＮＩＨＯＮ　ＳＥＩＫＩ　BN-6AK23-20-***}
 73
     1
 44
1.0
  0
MTEXT
  5
2D8
330
1F
100
AcDbEntity
  8
0
 62
     7
100
AcDbMText
 10
212.0788824036408
 20
-174.8410147877757
 30
0.0
 40
0.5
 41
0.0
 71
     7
 72
     1
  1
{\W0.833333;ＧＫ００－０６０４－Ｅ}
 73
     1
 44
1.0
  0
MTEXT
  5
2D9
330
1F
100
AcDbEntity
  8
0
 62
     7
100
AcDbMText
 10
-166.3634123467471
 20
-76.25455017875548
 30
0.0
 40
4.0
 41
0.0
 71
     7
 72
     1
  1
{\W0.833333;\U+2205９．５ザグリ　深さ５．５}
 73
     1
 44
1.0
  0
MTEXT
  5
2DA
330
1F
100
AcDbEntity
  8
0
 62
     7
100
AcDbMText
 10
-15.54278954184322
 20
44.70323230528261
 30
0.0
 40
6.0
 41
0.0
 71
     7
 72
     1
  1
{\W0.833333;*1}
 73
     1
 44
1.0
  0
MTEXT
  5
2DB
330
1F
100
AcDbEntity
  8
0
 62
     7
100
AcDbMText
 10
-15.54278954184322
 20
134.7032323052826
 30
0.0
 40
6.0
 41
0.0
 71
     7
 72
     1
  1
{\W0.833333;*2}
 73
     1
 44
1.0
  0
MTEXT
  5
2DC
330
1F
100
AcDbEntity
  8
0
 62
     7
100
AcDbMText
 10
-15.54278954184322
 20
-100.2967676947174
 30
0.0
 40
6.0
 41
0.0
 71
     7
 72
     1
  1
{\W0.833333;*6}
 73
     1
 44
1.0
  0
MTEXT
  5
2DD
330
1F
100
AcDbEntity
  8
0
 62
     7
100
AcDbMText
 10
-185.5427895418432
 20
44.70323230528261
 30
0.0
 40
6.0
 41
0.0
 71
     7
 72
     1
  1
{\W0.833333;*3}
 73
     1
 44
1.0
  0
MTEXT
  5
2DE
330
1F
100
AcDbEntity
  8
0
 62
     7
100
AcDbMText
 10
34.45721045815678
 20
44.70323230528261
 30
0.0
 40
6.0
 41
0.0
 71
     7
 72
     1
  1
{\W0.833333;*4}
 73
     1
 44
1.0
  0
MTEXT
  5
2DF
330
1F
100
AcDbEntity
  8
0
 62
     7
100
AcDbMText
 10
164.4572104581568
 20
44.70323230528261
 30
0.0
 40
6.0
 41
0.0
 71
     7
 72
     1
  1
{\W0.833333;*5}
 73
     1
 44
1.0
  0
INSERT
  5
2E0
330
1F
100
AcDbEntity
  8
0
 62
     7
100
AcDbBlockReference
  2
USER0001
 10
63.42806594391536
 20
135.2165408900761
 30
0.0
 50
90.00000000000001
  0
INSERT
  5
2E1
330
1F
100
AcDbEntity
  8
0
 62
     7
100
AcDbBlockReference
  2
USER0001
 10
85.73714087970825
 20
68.2105519788145
 30
0.0
 50
90.00000000000001
  0
INSERT
  5
2E2
330
1F
100
AcDbEntity
  8
0
 62
     7
100
AcDbBlockReference
  2
DTL0001
 10
-76.07552863013086
 20
28.55412169798179
 30
0.0
  0
INSERT
  5
2E3
330
1F
100
AcDbEntity
  8
0
 62
     7
100
AcDbBlockReference
  2
DTL0002
 10
-76.07552863013092
 20
101.5541215072469
 30
0.0
  0
INSERT
  5
2E4
330
1F
100
AcDbEntity
  8
0
 62
     7
100
AcDbBlockReference
  2
DTL0003
 10
-182.5755286301309
 20
28.55412169798178
 30
0.0
  0
INSERT
  5
2E5
330
1F
100
AcDbEntity
  8
0
 62
     7
100
AcDbBlockReference
  2
DTL0004
 10
35.42447136986908
 20
28.55412169798178
 30
0.0
  0
INSERT
  5
2E6
330
1F
100
AcDbEntity
  8
0
 62
     7
100
AcDbBlockReference
  2
DTL0005
 10
123.9244637404746
 20
28.55412455900474
 30
0.0
  0
INSERT
  5
2E7
330
1F
100
AcDbEntity
  8
0
 62
     7
100
AcDbBlockReference
  2
DTL0006
 10
-76.07552863013089
 20
-138.4458784927531
 30
0.0
  0
DIMENSION
  5
2E8
330
1F
100
AcDbEntity
  8
0
 62
     7
100
AcDbDimension
  2
*D10
 10
-103.5755286301309
 20
126.5541215072469
 30
0.0
 11
-76.07352863013085
 21
126.5541215072469
 31
0.0
 70
   160
 71
     5
 42
55.0
  3
DIMSTYLE_FULLSCALE
100
AcDbAlignedDimension
 13
-48.57552863013086
 23
107.6659989486532
 33
0.0
 14
-103.5755286301309
 24
107.4888749252157
 34
0.0
100
AcDbRotatedDimension
1001
ACAD
1000
DSTYLE
1002
{
1070
    40
1040
1.0
1070
   278
1070
    46
1070
   147
1040
1.0
1070
    77
1070
     1
1070
    74
1070
     0
1070
    73
1070
     0
1070
    42
1040
0.0
1070
    44
1040
2.285980224609375
1070
    76
1070
     0
1070
    75
1070
     0
1070
   279
1070
     0
1070
   271
1070
     0
1070
   144
1040
1.0
1070
   173
1070
     1
1070
    41
1040
3.114
1070
   140
1040
4.0
1070
   344
1005
2E9
1070
   343
1005
2E9
1002
}
  0
DIMENSION
  5
2FC
330
1F
100
AcDbEntity
  8
0
 62
     7
100
AcDbDimension
  2
*D11
 10
-46.07552863013086
 20
134.5540909896688
 30
0.0
 11
-76.07452863013086
 21
134.5540909896688
 31
0.0
 70
   160
 71
     5
 42
60.0
  3
DIMSTYLE_FULLSCALE
100
AcDbAlignedDimension
 13
-106.0755286301309
 23
114.0424027572469
 33
0.0
 14
-46.07552863013086
 24
114.0424027572469
 34
0.0
 50
180.0
100
AcDbRotatedDimension
1001
ACAD
1000
DSTYLE
1002
{
1070
    40
1040
1.0
1070
   278
1070
    46
1070
   147
1040
1.0
1070
    77
1070
     1
1070
    74
1070
     0
1070
    73
1070
     0
1070
    42
1040
0.0
1070
    44
1040
2.2860107421875
1070
    76
1070
     0
1070
    75
1070
     0
1070
   279
1070
     0
1070
   271
1070
     0
1070
   144
1040
1.0
1070
   173
1070
     1
1070
    41
1040
3.114
1070
   140
1040
4.0
1070
   344
1005
2E9
1070
   343
1005
2E9
1002
}
  0
DIMENSION
  5
309
330
1F
100
AcDbEntity
  8
0
 62
     7
100
AcDbDimension
  2
*D12
 10
-112.0755286301309
 20
142.5540909896688
 30
0.0
 11
-76.07352863013085
 21
142.5540909896688
 31
0.0
 70
   160
 71
     5
 42
72.0
  3
DIMSTYLE_FULLSCALE
100
AcDbAlignedDimension
 13
-40.07552863013086
 23
115.5541215072469
 33
0.0
 14
-112.0755286301309
 24
115.5541215072469
 34
0.0
100
AcDbRotatedDimension
1001
ACAD
1000
DSTYLE
1002
{
1070
    40
1040
1.0
1070
   278
1070
    46
1070
   147
1040
1.0
1070
    77
1070
     1
1070
    74
1070
     0
1070
    73
1070
     0
1070
    42
1040
0.0
1070
    44
1040
2.2860107421875
1070
    76
1070
     0
1070
    75
1070
     0
1070
   279
1070
     0
1070
   271
1070
     0
1070
   144
1040
1.0
1070
   173
1070
     1
1070
    41
1040
3.114
1070
   140
1040
4.0
1070
   344
1005
2E9
1070
   343
1005
2E9
1002
}
  0
DIMENSION
  5
316
330
1F
100
AcDbEntity
  8
0
 62
     7
100
AcDbDimension
  2
*D13
 10
-33.57552863013086
 20
150.5540909896688
 30
0.0
 11
-76.07452863013086
 21
150.5540909896688
 31
0.0
 70
   160
 71
     5
 42
85.0
  3
DIMSTYLE_FULLSCALE
100
AcDbAlignedDimension
 13
-118.5755438889199
 23
117.2541031967
 33
0.0
 14
-33.57552863013086
 24
117.2541031967
 34
0.0
 50
180.0
100
AcDbRotatedDimension
1001
ACAD
1000
DSTYLE
1002
{
1070
    40
1040
1.0
1070
   278
1070
    46
1070
   147
1040
1.0
1070
    77
1070
     1
1070
    74
1070
     0
1070
    73
1070
     0
1070
    42
1040
0.0
1070
    44
1040
2.2860107421875
1070
    76
1070
     0
1070
    75
1070
     0
1070
   279
1070
     0
1070
   271
1070
     0
1070
   144
1040
0.999999820484867
1070
   173
1070
     1
1070
    41
1040
3.114
1070
   140
1040
4.0
1070
   344
1005
2E9
1070
   343
1005
2E9
1002
}
  0
DIMENSION
  5
323
330
1F
100
AcDbEntity
  8
0
 62
     7
100
AcDbDimension
  2
*D14
 10
-81.07552863013086
 20
36.35410930021567
 30
0.0
 11
-62.09673457553277
 21
51.09712270018638
 31
0.0
 70
   160
  1
\U+2205<>
 71
     5
 42
10.0
  3
DIMSTYLE_FULLSCALE
100
AcDbAlignedDimension
 13
-71.07552863013086
 23
18.55412150724692
 33
0.0
 14
-81.07552863013086
 24
18.55412150724692
 34
0.0
100
AcDbRotatedDimension
1001
ACAD
1000
DSTYLE
1002
{
1070
    40
1040
1.0
1070
   278
1070
    46
1070
   147
1040
1.0
1070
    77
1070
     1
1070
    74
1070
     0
1070
    73
1070
     0
1070
    42
1040
0.0
1070
    44
1040
2.2860107421875
1070
    76
1070
     0
1070
    75
1070
     0
1070
   279
1070
     1
1070
   271
1070
     0
1070
   144
1040
1.0
1070
   173
1070
     1
1070
    41
1040
3.114
1070
   140
1040
4.0
1070
   344
1005
2E9
1070
   343
1005
2E9
1002
}
  0
DIMENSION
  5
334
330
1F
100
AcDbEntity
  8
0
 62
     7
100
AcDbDimension
  2
*D15
 10
-90.07552863013086
 20
44.35410930021567
 30
0.0
 11
-80.97095905005273
 21
44.35410930021567
 31
0.0
 70
   160
 71
     5
 42
28.0
  3
DIMSTYLE_FULLSCALE
100
AcDbAlignedDimension
 13
-62.07552863013086
 23
1.259779466231297
 33
0.0
 14
-90.07552863013086
 24
3.50411845548911
 34
0.0
100
AcDbRotatedDimension
1001
ACAD
1000
DSTYLE
1002
{
1070
    40
1040
1.0
1070
   278
1070
    46
1070
   147
1040
1.0
1070
    77
1070
     1
1070
    74
1070
     0
1070
    73
1070
     0
1070
    42
1040
0.0
1070
    44
1040
2.2860107421875
1070
    76
1070
     0
1070
    75
1070
     0
1070
   279
1070
     0
1070
   271
1070
     0
1070
   144
1040
1.0
1070
   173
1070
     1
1070
    41
1040
3.114
1070
   140
1040
4.0
1070
   344
1005
2E9
1070
   343
1005
2E9
1002
}
  0
DIMENSION
  5
341
330
1F
100
AcDbEntity
  8
0
 62
     7
100
AcDbDimension
  2
*D16
 10
-100.5755286301309
 20
52.35410930021567
 30
0.0
 11
-88.32352863013085
 21
52.35410930021567
 31
0.0
 70
   160
 71
     5
 42
24.5
  3
DIMSTYLE_FULLSCALE
100
AcDbAlignedDimension
 13
-76.07552863013086
 23
32.03410197599692
 33
0.0
 14
-100.5755286301309
 24
10.89756633146567
 34
0.0
100
AcDbRotatedDimension
1001
ACAD
1000
DSTYLE
1002
{
1070
    40
1040
1.0
1070
   278
1070
    46
1070
   147
1040
1.0
1070
    77
1070
     1
1070
    74
1070
     0
1070
    73
1070
     0
1070
    42
1040
0.0
1070
    44
1040
2.2860107421875
1070
    76
1070
     0
1070
    75
1070
     0
1070
   279
1070
     0
1070
    78
1070
     0
1070
   271
1070
     1
1070
   144
1040
1.0
1070
   173
1070
     1
1070
    41
1040
3.114
1070
   140
1040
4.0
1070
   344
1005
2E9
1070
   343
1005
2E9
1002
}
  0
DIMENSION
  5
34E
330
1F
100
AcDbEntity
  8
0
 62
     7
100
AcDbDimension
  2
*D17
 10
-102.0755286301309
 20
-167.4448784927531
 30
0.0
 11
-76.07352863013088
 21
-167.4448784927531
 31
0.0
 70
   160
 71
     5
 42
52.0
  3
DIMSTYLE_FULLSCALE
100
AcDbAlignedDimension
 13
-50.07552863013089
 23
-154.8370222915812
 33
0.0
 14
-102.0755286301309
 24
-154.6756911148234
 34
0.0
100
AcDbRotatedDimension
1001
ACAD
1000
DSTYLE
1002
{
1070
    40
1040
1.0
1070
   278
1070
    46
1070
   147
1040
1.0
1070
    77
1070
     1
1070
    74
1070
     0
1070
    73
1070
     0
1070
    42
1040
0.0
1070
    44
1040
2.2860107421875
1070
    76
1070
     0
1070
    75
1070
     0
1070
   279
1070
     0
1070
   271
1070
     0
1070
   144
1040
1.0
1070
   173
1070
     1
1070
    41
1040
3.114
1070
   140
1040
4.0
1070
   344
1005
2E9
1070
   343
1005
2E9
1002
}
  0
DIMENSION
  5
35B
330
1F
100
AcDbEntity
  8
0
 62
     7
100
AcDbDimension
  2
*D18
 10
-11.0388196059342
 20
-58.44587849275307
 30
0.0
 11
-11.03881960593421
 21
-20.94487849275308
 31
0.0
 70
   160
  1
\A1;L{\H0.5x;\S^ 1;}(35+ストローク)
 71
     5
 42
75.0
  3
DIMSTYLE_FULLSCALE
100
AcDbAlignedDimension
 13
-33.57552863013086
 23
16.55412150724692
 33
0.0
 14
-33.57552863013086
 24
-58.44587849275308
 34
0.0
 50
90.00000000000001
100
AcDbRotatedDimension
1001
ACAD
1000
DSTYLE
1002
{
1070
    71
1070
     0
1070
    72
1070
     1
1070
    48
1040
0.0
1070
    47
1040
0.0
1070
    40
1040
1.0
1070
   278
1070
    46
1070
   147
1040
1.0
1070
    77
1070
     1
1070
    74
1070
     0
1070
    73
1070
     0
1070
    42
1040
0.0
1070
    44
1040
2.286000000000001
1070
    76
1070
     1
1070
    75
1070
     0
1070
   279
1070
     0
1070
   271
1070
     0
1070
   173
1070
     1
1070
    41
1040
3.114
1070
   140
1040
4.0
1070
   344
1005
2E9
1070
   343
1005
2E9
1002
}
  0
DIMENSION
  5
367
330
1F
100
AcDbEntity
  8
0
 62
     7
100
AcDbDimension
  2
*D19
 10
137.9244637404746
 20
36.35410930021567
 30
0.0
 11
123.9254637404746
 21
36.35410930021567
 31
0.0
 70
   160
 71
     5
 42
28.0
  3
DIMSTYLE_FULLSCALE
100
AcDbAlignedDimension
 13
109.9244637404746
 23
2.375059617598485
 33
0.0
 14
137.9244637404746
 24
2.375059617598485
 34
0.0
 50
180.0
100
AcDbRotatedDimension
1001
ACAD
1000
DSTYLE
1002
{
1070
    40
1040
1.0
1070
   278
1070
    46
1070
   147
1040
1.0
1070
    77
1070
     1
1070
    74
1070
     0
1070
    73
1070
     0
1070
    42
1040
0.0
1070
    44
1040
2.286000000000001
1070
    76
1070
     0
1070
    75
1070
     0
1070
   279
1070
     0
1070
   271
1070
     0
1070
   144
1040
1.0
1070
   173
1070
     1
1070
    41
1040
3.114
1070
   140
1040
4.0
1070
   344
1005
2E9
1070
   343
1005
2E9
1002
}
  0
DIMENSION
  5
374
330
1F
100
AcDbEntity
  8
0
 62
     7
100
AcDbDimension
  2
*D20
 10
155.9244637404746
 20
44.35410930021567
 30
0.0
 11
123.9254637404746
 21
44.35410930021567
 31
0.0
 70
   160
 71
     5
 42
64.0
  3
DIMSTYLE_FULLSCALE
100
AcDbAlignedDimension
 13
91.92446374047461
 23
9.381903184493016
 33
0.0
 14
155.9244637404746
 24
9.381903184493016
 34
0.0
 50
180.0
100
AcDbRotatedDimension
1001
ACAD
1000
DSTYLE
1002
{
1070
    40
1040
1.0
1070
   278
1070
    46
1070
   147
1040
1.0
1070
    77
1070
     1
1070
    74
1070
     0
1070
    73
1070
     0
1070
    42
1040
0.0
1070
    44
1040
2.286000000000001
1070
    76
1070
     0
1070
    75
1070
     0
1070
   279
1070
     0
1070
   271
1070
     0
1070
   144
1040
1.0
1070
   173
1070
     1
1070
    41
1040
3.114
1070
   140
1040
4.0
1070
   344
1005
2E9
1070
   343
1005
2E9
1002
}
  0
DIMENSION
  5
381
330
1F
100
AcDbEntity
  8
0
 62
     7
100
AcDbDimension
  2
*D21
 10
-11.03881960593421
 20
18.55412150724693
 30
0.0
 11
-11.03881960593421
 21
23.45512160261435
 31
0.0
 70
   160
 71
     5
 42
10.00000019073487
  3
DIMSTYLE_FULLSCALE
100
AcDbAlignedDimension
 13
-40.57552863013086
 23
28.55412169798179
 33
0.0
 14
-40.57552756100949
 24
18.55412150724692
 34
0.0
 50
90.00000000000001
100
AcDbRotatedDimension
1001
ACAD
1000
DSTYLE
1002
{
1070
    40
1040
1.0
1070
   278
1070
    46
1070
   147
1040
1.0
1070
    77
1070
     1
1070
    74
1070
     0
1070
    73
1070
     0
1070
    42
1040
0.0
1070
    44
1040
2.286000000000001
1070
    76
1070
     1
1070
    75
1070
     0
1070
   279
1070
     0
1070
   271
1070
     0
1070
   144
1040
1.0
1070
   173
1070
     1
1070
    41
1040
3.114
1070
   140
1040
4.0
1070
   344
1005
2E9
1070
   343
1005
2E9
1002
}
  0
DIMENSION
  5
38D
330
1F
100
AcDbEntity
  8
0
 62
     7
100
AcDbDimension
  2
*D22
 10
-11.03981960593421
 20
16.55412150724692
 30
0.0
 11
-19.72671406326606
 21
5.876450062462857
 31
0.0
 70
   160
 71
     5
 42
2.000000000000003
  3
DIMSTYLE_FULLSCALE
100
AcDbAlignedDimension
 13
-40.57552756100949
 23
18.55412150724692
 33
0.0
 14
-33.57552863013086
 24
16.55412150724692
 34
0.0
 50
90.00000000000001
100
AcDbRotatedDimension
1001
ACAD
1000
DSTYLE
1002
{
1070
    40
1040
1.0
1070
   278
1070
    46
1070
   147
1040
1.0
1070
    77
1070
     1
1070
    74
1070
     0
1070
    73
1070
     0
1070
    42
1040
0.0
1070
    44
1040
2.286000000000001
1070
    76
1070
     1
1070
    75
1070
     0
1070
   279
1070
     1
1070
   271
1070
     0
1070
   144
1040
1.0
1070
   173
1070
     1
1070
    41
1040
3.114
1070
   140
1040
4.0
1070
   344
1005
2E9
1070
   343
1005
2E9
1002
}
  0
DIMENSION
  5
3A7
330
1F
100
AcDbEntity
  8
0
 62
     7
100
AcDbDimension
  2
*D23
 10
-11.03881960593421
 20
-85.44587849275307
 30
0.0
 11
-11.03881960593421
 21
-71.94487849275308
 31
0.0
 70
   160
  1
\A1;L{\H0.5x;\S^ 2;}
 71
     5
 42
27.0
  3
DIMSTYLE_FULLSCALE
100
AcDbAlignedDimension
 13
-33.57552863013086
 23
-58.44587849275308
 33
0.0
 14
-44.07552863013086
 24
-85.44587849275308
 34
0.0
 50
90.00000000000001
100
AcDbRotatedDimension
1001
ACAD
1000
DSTYLE
1002
{
1070
    71
1070
     0
1070
    72
1070
     1
1070
    48
1040
0.0
1070
    47
1040
0.0
1070
    40
1040
1.0
1070
   278
1070
    46
1070
   147
1040
1.0
1070
    77
1070
     1
1070
    74
1070
     0
1070
    73
1070
     0
1070
    42
1040
0.0
1070
    44
1040
2.286000000000001
1070
    76
1070
     0
1070
    75
1070
     0
1070
   279
1070
     0
1070
   271
1070
     0
1070
   173
1070
     1
1070
    41
1040
3.114
1070
   140
1040
4.0
1070
   344
1005
2E9
1070
   343
1005
2E9
1002
}
  0
DIMENSION
  5
3B4
330
1F
100
AcDbEntity
  8
0
 62
     7
100
AcDbDimension
  2
*D24
 10
-1.761266870306307
 20
28.55412169798179
 30
0.0
 11
-1.761266870306315
 21
-14.94487839738565
 31
0.0
 70
   160
  1
\A1;L(47+ストローク)
 71
     5
 42
87.00000019073487
  3
DIMSTYLE_FULLSCALE
100
AcDbAlignedDimension
 13
-33.57552863013086
 23
-58.44587849275308
 33
0.0
 14
-40.57552863013086
 24
28.55412169798179
 34
0.0
 50
270.0
100
AcDbRotatedDimension
1001
ACAD
1000
DSTYLE
1002
{
1070
    40
1040
1.0
1070
   278
1070
    46
1070
   147
1040
1.0
1070
    77
1070
     1
1070
    74
1070
     0
1070
    73
1070
     0
1070
    42
1040
0.0
1070
    44
1040
2.286000000000001
1070
    76
1070
     0
1070
    75
1070
     0
1070
   279
1070
     0
1070
   271
1070
     0
1070
   173
1070
     1
1070
    41
1040
3.114
1070
   140
1040
4.0
1070
   344
1005
2E9
1070
   343
1005
2E9
1002
}
  0
DIMENSION
  5
3C8
330
1F
100
AcDbEntity
  8
0
 62
     7
100
AcDbDimension
  2
*D25
 10
-43.57552863013086
 20
36.35410930021567
 30
0.0
 11
-34.41390958251182
 21
36.35410930021567
 31
0.0
 70
   160
  1
\A1;\U+2205<>
 71
     5
 42
10.0
  3
DIMSTYLE_FULLSCALE
100
AcDbAlignedDimension
 13
-53.57552863013086
 23
18.55412150724692
 33
0.0
 14
-43.57552863013086
 24
18.55412150724692
 34
0.0
 50
180.0
100
AcDbRotatedDimension
1001
ACAD
1000
DSTYLE
1002
{
1070
    40
1040
1.0
1070
   278
1070
    46
1070
   147
1040
1.0
1070
    77
1070
     1
1070
    74
1070
     0
1070
    73
1070
     0
1070
    42
1040
0.0
1070
    44
1040
2.286000000000001
1070
    76
1070
     0
1070
    75
1070
     0
1070
   279
1070
     0
1070
   271
1070
     0
1070
   144
1040
1.0
1070
   173
1070
     1
1070
    41
1040
3.114
1070
   140
1040
4.0
1070
   344
1005
2E9
1070
   343
1005
2E9
1002
}
  0
DIMENSION
  5
3D6
330
1F
100
AcDbEntity
  8
0
 62
     7
100
AcDbDimension
  2
*D26
 10
-129.9503056720852
 20
4.554121507246919
 30
0.0
 11
-129.9503056720852
 21
10.55512150724692
 31
0.0
 70
   160
 71
     5
 42
12.0
  3
DIMSTYLE_FULLSCALE
100
AcDbAlignedDimension
 13
-118.5755286301309
 23
16.55412150724692
 33
0.0
 14
-119.7790656174355
 24
4.554121507246922
 34
0.0
 50
90.00000000000001
100
AcDbRotatedDimension
1001
ACAD
1000
DSTYLE
1002
{
1070
    40
1040
1.0
1070
   278
1070
    46
1070
   147
1040
1.0
1070
    77
1070
     1
1070
    74
1070
     0
1070
    73
1070
     0
1070
    42
1040
0.0
1070
    44
1040
2.286000000000001
1070
    76
1070
     0
1070
    75
1070
     0
1070
   279
1070
     0
1070
   271
1070
     0
1070
   144
1040
1.0
1070
   173
1070
     1
1070
    41
1040
3.114
1070
   140
1040
4.0
1070
   344
1005
2E9
1070
   343
1005
2E9
1002
}
  0
DIMENSION
  5
3E3
330
1F
100
AcDbEntity
  8
0
 62
     7
100
AcDbDimension
  2
*D27
 10
-140.2302680258682
 20
-2.445878492753093
 30
0.0
 11
-140.2302680258682
 21
7.055121507246922
 31
0.0
 70
   160
 71
     5
 42
19.00000000000001
  3
DIMSTYLE_FULLSCALE
100
AcDbAlignedDimension
 13
-118.5755286301309
 23
16.55412150724692
 33
0.0
 14
-96.48703146826563
 24
-2.445878492753078
 34
0.0
 50
90.00000000000001
100
AcDbRotatedDimension
1001
ACAD
1000
DSTYLE
1002
{
1070
    40
1040
1.0
1070
   278
1070
    46
1070
   147
1040
1.0
1070
    77
1070
     1
1070
    74
1070
     0
1070
    73
1070
     0
1070
    42
1040
0.0
1070
    44
1040
2.286000000000058
1070
    76
1070
     0
1070
    75
1070
     0
1070
   279
1070
     0
1070
   271
1070
     0
1070
   144
1040
1.0
1070
   173
1070
     1
1070
    41
1040
3.114
1070
   140
1040
4.0
1070
   344
1005
2E9
1070
   343
1005
2E9
1002
}
  0
DIMENSION
  5
3F0
330
1F
100
AcDbEntity
  8
0
 62
     7
100
AcDbDimension
  2
*D28
 10
-140.2312680258682
 20
-35.44587849275308
 30
0.0
 11
-140.2312680258682
 21
-46.98753890674656
 31
0.0
 70
   160
 71
     5
 42
23.0
  3
DIMSTYLE_FULLSCALE
100
AcDbAlignedDimension
 13
-118.5755286301309
 23
-58.44587849275308
 33
0.0
 14
-120.0702147568398
 24
-35.44587849275308
 34
0.0
 50
270.0
100
AcDbRotatedDimension
1001
ACAD
1000
DSTYLE
1002
{
1070
    40
1040
1.0
1070
   278
1070
    46
1070
   147
1040
1.0
1070
    77
1070
     1
1070
    74
1070
     0
1070
    73
1070
     0
1070
    42
1040
0.0
1070
    44
1040
2.286000000000058
1070
    76
1070
     0
1070
    75
1070
     0
1070
   279
1070
     0
1070
   271
1070
     0
1070
   144
1040
1.0
1070
   173
1070
     1
1070
    41
1040
3.114
1070
   140
1040
4.0
1070
   344
1005
2E9
1070
   343
1005
2E9
1002
}
  0
DIMENSION
  5
3FD
330
1F
100
AcDbEntity
  8
0
 62
     7
100
AcDbDimension
  2
*D29
 10
-129.9503056720852
 20
-58.44587849275309
 30
0.0
 11
-129.9503056720852
 21
-50.44487849275308
 31
0.0
 70
   160
 71
     5
 42
15.99999999999999
  3
DIMSTYLE_FULLSCALE
100
AcDbAlignedDimension
 13
-96.48703146826563
 23
-42.44587849275308
 33
0.0
 14
-118.5755286301309
 24
-58.44587849275308
 34
0.0
 50
90.00000000000001
100
AcDbRotatedDimension
1001
ACAD
1000
DSTYLE
1002
{
1070
    40
1040
1.0
1070
   278
1070
    46
1070
   147
1040
1.0
1070
    77
1070
     1
1070
    74
1070
     0
1070
    73
1070
     0
1070
    42
1040
0.0
1070
    44
1040
2.286000000000001
1070
    76
1070
     0
1070
    75
1070
     0
1070
   279
1070
     0
1070
   271
1070
     0
1070
   144
1040
1.0
1070
   173
1070
     1
1070
    41
1040
3.114
1070
   140
1040
4.0
1070
   344
1005
2E9
1070
   343
1005
2E9
1002
}
  0
DIMENSION
  5
40A
330
1F
100
AcDbEntity
  8
0
 62
     7
100
AcDbDimension
  2
*D30
 10
-19.70619862156849
 20
-151.4458784927531
 30
0.0
 11
-19.70619862156849
 21
-138.4448784927531
 31
0.0
 70
   160
 71
     5
 42
26.0
  3
DIMSTYLE_FULLSCALE
100
AcDbAlignedDimension
 13
-46.03283072363675
 23
-125.4458784927531
 33
0.0
 14
-46.57552863013089
 24
-151.4458784927531
 34
0.0
 50
90.00000000000001
100
AcDbRotatedDimension
1001
ACAD
1000
DSTYLE
1002
{
1070
    40
1040
1.0
1070
   278
1070
    46
1070
   147
1040
1.0
1070
    77
1070
     1
1070
    74
1070
     0
1070
    73
1070
     0
1070
    42
1040
0.0
1070
    44
1040
2.286000000000001
1070
    76
1070
     0
1070
    75
1070
     0
1070
   279
1070
     0
1070
   271
1070
     0
1070
   144
1040
1.0
1070
   173
1070
     1
1070
    41
1040
3.114
1070
   140
1040
4.0
1070
   344
1005
2E9
1070
   343
1005
2E9
1002
}
  0
DIMENSION
  5
417
330
1F
100
AcDbEntity
  8
0
 62
     7
100
AcDbDimension
  2
*D31
 10
-182.5755286301309
 20
-101.1465588548305
 30
0.0
 11
-193.437320966763
 21
-101.1465588548305
 31
0.0
 70
   160
 71
     5
 42
11.5
  3
DIMSTYLE_FULLSCALE
100
AcDbAlignedDimension
 13
-171.0755286301309
 23
-42.47642641032121
 33
0.0
 14
-182.5755286301309
 24
-86.61909626619058
 34
0.0
100
AcDbRotatedDimension
1001
ACAD
1000
DSTYLE
1002
{
1070
    40
1040
1.0
1070
   278
1070
    46
1070
   147
1040
1.0
1070
    77
1070
     1
1070
    74
1070
     0
1070
    73
1070
     0
1070
    42
1040
0.0
1070
    44
1040
2.285999999999987
1070
    76
1070
     0
1070
    75
1070
     0
1070
   279
1070
     0
1070
    78
1070
     0
1070
   271
1070
     1
1070
   144
1040
1.0
1070
   173
1070
     1
1070
    41
1040
3.114
1070
   140
1040
4.0
1070
   344
1005
2E9
1070
   343
1005
2E9
1002
}
  0
DIMENSION
  5
425
330
1F
100
AcDbEntity
  8
0
 62
     7
100
AcDbDimension
  2
*D32
 10
176.0656791565551
 20
5.554121507246928
 30
0.0
 11
176.0656791565551
 21
11.05512150724692
 31
0.0
 70
   160
 71
     5
 42
11.0
  3
DIMSTYLE_FULLSCALE
100
AcDbAlignedDimension
 13
166.4244637404746
 23
16.55412150724692
 33
0.0
 14
160.1244645034141
 24
5.554121507246922
 34
0.0
 50
90.00000000000001
100
AcDbRotatedDimension
1001
ACAD
1000
DSTYLE
1002
{
1070
    40
1040
1.0
1070
   278
1070
    46
1070
   147
1040
1.0
1070
    77
1070
     1
1070
    74
1070
     0
1070
    73
1070
     0
1070
    42
1040
0.0
1070
    44
1040
2.285999999999945
1070
    76
1070
     0
1070
    75
1070
     0
1070
   279
1070
     0
1070
   271
1070
     0
1070
   144
1040
1.0
1070
   173
1070
     1
1070
    41
1040
3.114
1070
   140
1040
4.0
1070
   344
1005
2E9
1070
   343
1005
2E9
1002
}
  0
DIMENSION
  5
432
330
1F
100
AcDbEntity
  8
0
 62
     7
100
AcDbDimension
  2
*D33
 10
185.8659846920375
 20
-2.445878492753063
 30
0.0
 11
185.8659846920375
 21
7.055121507246922
 31
0.0
 70
   160
 71
     5
 42
18.99999999999999
  3
DIMSTYLE_FULLSCALE
100
AcDbAlignedDimension
 13
166.4244637404746
 23
16.55412150724692
 33
0.0
 14
142.3865361129111
 24
-2.445878492753078
 34
0.0
 50
90.00000000000001
100
AcDbRotatedDimension
1001
ACAD
1000
DSTYLE
1002
{
1070
    40
1040
1.0
1070
   278
1070
    46
1070
   147
1040
1.0
1070
    77
1070
     1
1070
    74
1070
     0
1070
    73
1070
     0
1070
    42
1040
0.0
1070
    44
1040
2.286000000000001
1070
    76
1070
     0
1070
    75
1070
     0
1070
   279
1070
     0
1070
   271
1070
     0
1070
   144
1040
1.0
1070
   173
1070
     1
1070
    41
1040
3.114
1070
   140
1040
4.0
1070
   344
1005
2E9
1070
   343
1005
2E9
1002
}
  0
DIMENSION
  5
43F
330
1F
100
AcDbEntity
  8
0
 62
     7
100
AcDbDimension
  2
*D34
 10
176.0646791565551
 20
-44.44587849275308
 30
0.0
 11
176.0646791565551
 21
-51.44487849275308
 31
0.0
 70
   160
 71
     5
 42
14.0
  3
DIMSTYLE_FULLSCALE
100
AcDbAlignedDimension
 13
166.4244637404746
 23
-58.44587849275308
 33
0.0
 14
160.1244645034141
 24
-44.44587849275308
 34
0.0
 50
270.0
100
AcDbRotatedDimension
1001
ACAD
1000
DSTYLE
1002
{
1070
    40
1040
1.0
1070
   278
1070
    46
1070
   147
1040
1.0
1070
    77
1070
     1
1070
    74
1070
     0
1070
    73
1070
     0
1070
    42
1040
0.0
1070
    44
1040
2.285999999999945
1070
    76
1070
     0
1070
    75
1070
     0
1070
   279
1070
     0
1070
   271
1070
     0
1070
   144
1040
1.0
1070
   173
1070
     1
1070
    41
1040
3.114
1070
   140
1040
4.0
1070
   344
1005
2E9
1070
   343
1005
2E9
1002
}
  0
DIMENSION
  5
44C
330
1F
100
AcDbEntity
  8
0
 62
     7
100
AcDbDimension
  2
*D35
 10
185.8659846920375
 20
-58.44587849275307
 30
0.0
 11
185.8659846920375
 21
-50.44487849275308
 31
0.0
 70
   160
 71
     5
 42
16.00000000000001
  3
DIMSTYLE_FULLSCALE
100
AcDbAlignedDimension
 13
142.4960179244346
 23
-42.44587849275308
 33
0.0
 14
166.4244637404746
 24
-58.44587849275308
 34
0.0
 50
90.00000000000001
100
AcDbRotatedDimension
1001
ACAD
1000
DSTYLE
1002
{
1070
    40
1040
1.0
1070
   278
1070
    46
1070
   147
1040
1.0
1070
    77
1070
     1
1070
    74
1070
     0
1070
    73
1070
     0
1070
    42
1040
0.0
1070
    44
1040
2.286000000000001
1070
    76
1070
     0
1070
    75
1070
     0
1070
   279
1070
     0
1070
   271
1070
     0
1070
   144
1040
1.0
1070
   173
1070
     1
1070
    41
1040
3.114
1070
   140
1040
4.0
1070
   344
1005
2E9
1070
   343
1005
2E9
1002
}
  0
DIMENSION
  5
459
330
1F
100
AcDbEntity
  8
0
 62
     7
100
AcDbDimension
  2
*D36
 10
-12.52402145617222
 20
86.55412150724693
 30
0.0
 11
-12.52402145617223
 21
106.7340213738322
 31
0.0
 70
   160
 71
     5
 42
30.0
  3
DIMSTYLE_FULLSCALE
100
AcDbAlignedDimension
 13
-41.07552863013086
 23
116.5541215072469
 33
0.0
 14
-41.07552863013086
 24
86.55412150724692
 34
0.0
 50
90.00000000000001
100
AcDbRotatedDimension
1001
ACAD
1000
DSTYLE
1002
{
1070
    40
1040
1.0
1070
   278
1070
    46
1070
   147
1040
1.0
1070
    77
1070
     1
1070
    74
1070
     0
1070
    73
1070
     0
1070
    42
1040
0.0
1070
    44
1040
2.285999999999945
1070
    76
1070
     0
1070
    75
1070
     0
1070
   279
1070
     0
1070
   271
1070
     0
1070
   144
1040
1.0
1070
   173
1070
     1
1070
    41
1040
3.114
1070
   140
1040
4.0
1070
   344
1005
2E9
1070
   343
1005
2E9
1002
}
  0
DIMENSION
  5
466
330
1F
100
AcDbEntity
  8
0
 62
     7
100
AcDbDimension
  2
*D37
 10
8.041410678586347
 20
82.55412150724695
 30
0.0
 11
8.04141067858634
 21
100.5551215072469
 31
0.0
 70
   160
 71
     5
 42
36.0
  3
DIMSTYLE_FULLSCALE
100
AcDbAlignedDimension
 13
-39.87552786719141
 23
118.5541215072469
 33
0.0
 14
-34.57552863013086
 24
82.55412150724692
 34
0.0
 50
90.00000000000001
100
AcDbRotatedDimension
1001
ACAD
1000
DSTYLE
1002
{
1070
    40
1040
1.0
1070
   278
1070
    46
1070
   147
1040
1.0
1070
    77
1070
     1
1070
    74
1070
     0
1070
    73
1070
     0
1070
    42
1040
0.0
1070
    44
1040
2.285999999999945
1070
    76
1070
     0
1070
    75
1070
     0
1070
   279
1070
     0
1070
   271
1070
     0
1070
   144
1040
1.0
1070
   173
1070
     1
1070
    41
1040
3.114
1070
   140
1040
4.0
1070
   344
1005
2E9
1070
   343
1005
2E9
1002
}
  0
DIMENSION
  5
473
330
1F
100
AcDbEntity
  8
0
 62
     7
100
AcDbDimension
  2
*D38
 10
-2.607189575257392
 20
118.5541215072469
 30
0.0
 11
-2.607189575257394
 21
110.0551215072469
 31
0.0
 70
   160
 71
     5
 42
17.0
  3
DIMSTYLE_FULLSCALE
100
AcDbAlignedDimension
 13
-33.57552863013086
 23
101.5541215072469
 33
0.0
 14
-39.87552786719141
 24
118.5541215072469
 34
0.0
 50
270.0
100
AcDbRotatedDimension
1001
ACAD
1000
DSTYLE
1002
{
1070
    40
1040
1.0
1070
   278
1070
    46
1070
   147
1040
1.0
1070
    77
1070
     1
1070
    74
1070
     0
1070
    73
1070
     0
1070
    42
1040
0.0
1070
    44
1040
2.285999999999945
1070
    76
1070
     0
1070
    75
1070
     0
1070
   279
1070
     0
1070
   271
1070
     0
1070
   144
1040
1.0
1070
   173
1070
     1
1070
    41
1040
3.114
1070
   140
1040
4.0
1070
   344
1005
2E9
1070
   343
1005
2E9
1002
}
  0
DIMENSION
  5
480
330
1F
100
AcDbEntity
  8
0
 62
     7
100
AcDbDimension
  2
*D39
 10
-2.60618957525739
 20
82.55412150724693
 30
0.0
 11
-2.606189575257394
 21
92.05512150724692
 31
0.0
 70
   160
 71
     5
 42
19.0
  3
DIMSTYLE_FULLSCALE
100
AcDbAlignedDimension
 13
-33.57552863013086
 23
101.5541215072469
 33
0.0
 14
-34.57552863013086
 24
82.55412150724692
 34
0.0
 50
90.00000000000001
100
AcDbRotatedDimension
1001
ACAD
1000
DSTYLE
1002
{
1070
    40
1040
1.0
1070
   278
1070
    46
1070
   147
1040
1.0
1070
    77
1070
     1
1070
    74
1070
     0
1070
    73
1070
     0
1070
    42
1040
0.0
1070
    44
1040
2.285999999999945
1070
    76
1070
     0
1070
    75
1070
     1
1070
   279
1070
     0
1070
   271
1070
     0
1070
   144
1040
1.0
1070
   173
1070
     1
1070
    41
1040
3.114
1070
   140
1040
4.0
1070
   344
1005
2E9
1070
   343
1005
2E9
1002
}
  0
DIMENSION
  5
48C
330
1F
100
AcDbEntity
  8
0
 62
     7
100
AcDbDimension
  2
*D40
 10
-23.57998522765089
 20
92.55412150724692
 30
0.0
 11
-23.5799852276509
 21
123.5075870960757
 31
0.0
 70
   160
 71
     5
 42
18.0
  3
DIMSTYLE_FULLSCALE
100
AcDbAlignedDimension
 13
-42.05738592993555
 23
110.5541215072469
 33
0.0
 14
-42.29278326880274
 24
92.55412150724692
 34
0.0
 50
90.00000000000001
100
AcDbRotatedDimension
1001
ACAD
1000
DSTYLE
1002
{
1070
    40
1040
1.0
1070
   278
1070
    46
1070
   147
1040
1.0
1070
    77
1070
     1
1070
    74
1070
     0
1070
    73
1070
     0
1070
    42
1040
0.0
1070
    44
1040
2.285999999999945
1070
    76
1070
     0
1070
    75
1070
     0
1070
   279
1070
     0
1070
   271
1070
     0
1070
   144
1040
1.0
1070
   173
1070
     1
1070
    41
1040
3.114
1070
   140
1040
4.0
1070
   344
1005
2E9
1070
   343
1005
2E9
1002
}
  0
INSERT
  5
4A0
330
1F
100
AcDbEntity
  8
0
 62
     7
100
AcDbBlockReference
  2
SYM0001
 10
-103.5268398872438
 20
8.402791529290106
 30
0.0
  0
INSERT
  5
4A9
330
1F
100
AcDbEntity
  8
0
 62
     7
100
AcDbBlockReference
  2
SYM0002
 10
-93.18717255488707
 20
-46.03477415653714
 30
0.0
  0
INSERT
  5
4B2
330
1F
100
AcDbEntity
  8
0
 62
     7
100
AcDbBlockReference
  2
SYM0003
 10
-44.92301165249306
 20
90.33562998906248
 30
0.0
  0
INSERT
  5
4BB
330
1F
100
AcDbEntity
  8
0
 62
     7
100
AcDbBlockReference
  2
SYM0004
 10
-167.6272258286264
 20
-32.03534966805867
 30
0.0
  0
INSERT
  5
4C4
330
1F
100
AcDbEntity
  8
0
 62
     7
100
AcDbBlockReference
  2
SYM0005
 10
110.9610519579201
 20
-45.26110226138199
 30
0.0
  0
INSERT
  5
4CD
330
1F
100
AcDbEntity
  8
0
 62
     7
100
AcDbBlockReference
  2
SYM0006
 10
92.9663046441904
 20
-46.7184469804658
 30
0.0
  0
INSERT
  5
4D6
330
1F
100
AcDbEntity
  8
0
 62
     7
100
AcDbBlockReference
  2
SYM0007
 10
-48.58901326870342
 20
-123.4358356871791
 30
0.0
  0
ENDSEC
  0
SECTION
  2
OBJECTS
  0
DICTIONARY
  5
C
330
0
100
AcDbDictionary
281
     1
  3
ACAD_GROUP
350
D
  3
ACAD_LAYOUT
350
1A
  3
ACAD_MATERIAL
350
43
  3
ACAD_MLEADERSTYLE
350
6B
  3
ACAD_MLINESTYLE
350
17
  3
ACAD_PLOTSETTINGS
350
19
  3
ACAD_PLOTSTYLENAME
350
E
  3
ACAD_SCALELIST
350
47
  3
ACAD_TABLESTYLE
350
69
  3
ACAD_VISUALSTYLE
350
2A
  3
AcDbVariableDictionary
350
4DA
  3
DWGPROPS
350
4E5
  0
DICTIONARY
  5
4E6
330
8
100
AcDbDictionary
280
     1
281
     1
  3
ACAD_XREC_ROUNDTRIP
360
4E7
  0
DICTIONARY
  5
D
102
{ACAD_REACTORS
330
C
102
}
330
C
100
AcDbDictionary
281
     1
  0
DICTIONARY
  5
1A
102
{ACAD_REACTORS
330
C
102
}
330
C
100
AcDbDictionary
281
     1
  3
Layout1
350
1E
  3
Layout2
350
26
  3
Model
350
22
  0
DICTIONARY
  5
43
102
{ACAD_REACTORS
330
C
102
}
330
C
100
AcDbDictionary
281
     1
  3
ByBlock
350
45
  3
ByLayer
350
44
  3
Global
350
46
  0
DICTIONARY
  5
6B
102
{ACAD_REACTORS
330
C
102
}
330
C
100
AcDbDictionary
281
     1
  3
Standard
350
6C
  0
DICTIONARY
  5
17
102
{ACAD_REACTORS
330
C
102
}
330
C
100
AcDbDictionary
281
     1
  3
Standard
350
18
  0
DICTIONARY
  5
19
102
{ACAD_REACTORS
330
C
102
}
330
C
100
AcDbDictionary
281
     1
  0
ACDBDICTIONARYWDFLT
  5
E
102
{ACAD_REACTORS
330
C
102
}
330
C
100
AcDbDictionary
281
     1
  3
Normal
350
F
100
AcDbDictionaryWithDefault
340
F
  0
DICTIONARY
  5
47
102
{ACAD_REACTORS
330
C
102
}
330
C
100
AcDbDictionary
281
     1
  3
A0
350
48
  3
A1
350
49
  3
A2
350
4A
  3
A3
350
4B
  3
A4
350
4C
  3
A5
350
4D
  3
A6
350
4E
  3
A7
350
4F
  3
A8
350
50
  3
A9
350
51
  3
B0
350
52
  3
B1
350
53
  3
B2
350
54
  3
B3
350
55
  3
B4
350
56
  3
B5
350
57
  3
B6
350
58
  3
B7
350
59
  3
B8
350
5A
  3
B9
350
5B
  3
C0
350
5C
  3
C1
350
5D
  3
C2
350
5E
  3
C3
350
5F
  3
C4
350
60
  3
C5
350
61
  3
C6
350
62
  3
C7
350
63
  3
C8
350
64
  3
C9
350
65
  3
D0
350
66
  3
D1
350
67
  3
D2
350
68
  0
DICTIONARY
  5
69
102
{ACAD_REACTORS
330
C
102
}
330
C
100
AcDbDictionary
281
     1
  3
Standard
350
6A
  0
DICTIONARY
  5
2A
102
{ACAD_REACTORS
330
C
102
}
330
C
100
AcDbDictionary
281
     1
  3
2dWireframe
350
2F
  3
Basic
350
32
  3
Brighten
350
36
  3
ColorChange
350
3A
  3
Conceptual
350
34
  3
Dim
350
35
  3
EdgeColorOff
350
3D
  3
Facepattern
350
39
  3
Flat
350
2B
  3
FlatWithEdges
350
2C
  3
Gouraud
350
2D
  3
GouraudWithEdges
350
2E
  3
Hidden
350
31
  3
JitterOff
350
3B
  3
Linepattern
350
38
  3
OverhangOff
350
3C
  3
Realistic
350
33
  3
Shaded
350
42
  3
Shaded with edges
350
41
  3
Shades of Gray
350
3E
  3
Sketchy
350
3F
  3
Thicken
350
37
  3
Wireframe
350
30
  3
X-Ray
350
40
  0
DICTIONARY
  5
4DA
102
{ACAD_REACTORS
330
C
102
}
330
C
100
AcDbDictionary
281
     1
  3
CANNOSCALE
350
4EC
  3
CENTEREXE
350
4E1
  3
CENTERLTYPEFILE
350
4E2
  3
CMLEADERSTYLE
350
4DC
  3
CTABLESTYLE
350
4DB
  3
DIMASSOC
350
4E3
  3
HIDETEXT
350
4E4
  3
MSLTSCALE
350
4ED
  3
PSOLHEIGHT
350
4DE
  3
PSOLWIDTH
350
4DD
  0
XRECORD
  5
4E5
102
{ACAD_REACTORS
330
C
102
}
330
C
100
AcDbXrecord
280
     1
  1
DWGPROPS COOKIE
  2

  3

  4

  6

  7

  8
CADAM
  9

300
=
301
=
302
=
303
=
304
=
305
=
306
=
307
=
308
=
309
=
 40
0.0
 41
2459198.188071042
 42
2459198.188071574
  1

 90
        0
  0
XRECORD
  5
4E7
102
{ACAD_REACTORS
330
4E6
102
}
330
4E6
100
AcDbXrecord
280
     1
102
VTR_0.000_0.000_1.000_1.000_VISUALSTYLE
340
2F
102
VTR_0.000_0.000_1.000_1.000_GRIDDISPLAY
 70
     3
102
VTR_0.000_0.000_1.000_1.000_GRIDMAJOR
 70
     5
102
VTR_0.000_0.000_1.000_1.000_DEFAULTLIGHTING
280
     1
102
VTR_0.000_0.000_1.000_1.000_DEFAULTLIGHTINGTYPE
 70
     1
102
VTR_0.000_0.000_1.000_1.000_BRIGHTNESS
141
0.0
102
VTR_0.000_0.000_1.000_1.000_CONTRAST
142
0.0
  0
LAYOUT
  5
1E
102
{ACAD_REACTORS
330
1A
102
}
330
1A
100
AcDbPlotSettings
  1

  2
none_device
  4

  6

 40
0.0
 41
0.0
 42
0.0
 43
0.0
 44
0.0
 45
0.0
 46
0.0
 47
0.0
 48
0.0
 49
0.0
140
0.0
141
0.0
142
1.0
143
1.0
 70
   688
 72
     1
 73
     0
 74
     5
  7

 75
    16
147
1.0
148
0.0
149
0.0
100
AcDbLayout
  1
Layout1
 70
     1
 71
     1
 10
-218.9034468671605
 20
-175.6146753518568
 11
218.9034468671605
 21
191.6146753518568
 12
0.0
 22
0.0
 32
0.0
 14
1.000000000000000E+20
 24
1.000000000000000E+20
 34
1.000000000000000E+20
 15
-1.000000000000000E+20
 25
-1.000000000000000E+20
 35
-1.000000000000000E+20
146
0.0
 13
0.0
 23
0.0
 33
0.0
 16
1.0
 26
0.0
 36
0.0
 17
0.0
 27
1.0
 37
0.0
 76
     0
330
1B
  0
LAYOUT
  5
26
102
{ACAD_REACTORS
330
1A
102
}
330
1A
100
AcDbPlotSettings
  1

  2
none_device
  4

  6

 40
0.0
 41
0.0
 42
0.0
 43
0.0
 44
0.0
 45
0.0
 46
0.0
 47
0.0
 48
0.0
 49
0.0
140
0.0
141
0.0
142
1.0
143
1.0
 70
   688
 72
     1
 73
     0
 74
     5
  7

 75
    16
147
1.0
148
0.0
149
0.0
100
AcDbLayout
  1
Layout2
 70
     1
 71
     2
 10
0.0
 20
0.0
 11
0.0
 21
0.0
 12
0.0
 22
0.0
 32
0.0
 14
0.0
 24
0.0
 34
0.0
 15
0.0
 25
0.0
 35
0.0
146
0.0
 13
0.0
 23
0.0
 33
0.0
 16
1.0
 26
0.0
 36
0.0
 17
0.0
 27
1.0
 37
0.0
 76
     0
330
23
  0
LAYOUT
  5
22
102
{ACAD_REACTORS
330
1A
102
}
330
1A
100
AcDbPlotSettings
  1

  2
none_device
  4
Letter_(8.50_x_11.00_Inches)
  6

 40
6.35
 41
6.35
 42
6.35000508
 43
6.35000508
 44
215.9
 45
279.4
 46
0.0
 47
0.0
 48
0.0
 49
0.0
140
0.0
141
0.0
142
1.0
143
1.0
 70
  1712
 72
     1
 73
     0
 74
     0
  7

 75
     0
147
1.0
148
0.0
149
0.0
100
AcDbLayout
  1
Model
 70
     1
 71
     0
 10
-218.9034468671605
 20
-175.6146753518568
 11
218.9034468671605
 21
191.6146753518568
 12
0.0
 22
0.0
 32
0.0
 14
-218.9034468671605
 24
-175.6146753518568
 34
0.0
 15
218.9034468671605
 25
191.6146753518568
 35
0.0
146
0.0
 13
0.0
 23
0.0
 33
0.0
 16
1.0
 26
0.0
 36
0.0
 17
0.0
 27
1.0
 37
0.0
 76
     0
330
1F
331
29
  0
MATERIAL
  5
45
102
{ACAD_REACTORS
330
43
102
}
102
{ACAD_XDICTIONARY
360
520
102
}
330
43
100
AcDbMaterial
  1
ByBlock
  0
MATERIAL
  5
44
102
{ACAD_REACTORS
330
43
102
}
102
{ACAD_XDICTIONARY
360
51E
102
}
330
43
100
AcDbMaterial
  1
ByLayer
  0
MATERIAL
  5
46
102
{ACAD_REACTORS
330
43
102
}
102
{ACAD_XDICTIONARY
360
522
102
}
330
43
100
AcDbMaterial
  1
Global
  0
MLEADERSTYLE
  5
6C
102
{ACAD_REACTORS
330
6B
102
}
102
{ACAD_XDICTIONARY
360
525
102
}
330
6B
100
AcDbMLeaderStyle
170
     2
171
     1
172
     0
 90
        2
 40
0.0
 41
0.0
173
     1
 91
-1056964608
340
14
 92
       -2
290
     1
 42
2.0
291
     1
 43
8.0
  3
Standard
341
0
 44
4.0
300

342
11
174
     1
178
     6
175
     1
176
     0
 93
-1056964608
 45
4.0
292
     0
297
     0
 46
4.0
343
0
 94
-1056964608
 47
1.0
 49
1.0
140
1.0
293
     1
141
0.0
294
     1
177
     0
142
1.0
295
     0
296
     0
143
3.75
1001
ACAD_MLEADERVER
1070
     2
  0
MLINESTYLE
  5
18
102
{ACAD_REACTORS
330
17
102
}
330
17
100
AcDbMlineStyle
  2
Standard
 70
     0
  3

 62
   256
 51
90.0
 52
90.0
 71
     2
 49
0.5
 62
   256
  6
BYLAYER
 49
-0.5
 62
   256
  6
BYLAYER
  0
ACDBPLACEHOLDER
  5
F
102
{ACAD_REACTORS
330
E
102
}
330
E
  0
SCALE
  5
48
102
{ACAD_REACTORS
330
47
102
}
330
47
100
AcDbScale
 70
     0
300
1:1
140
1.0
141
1.0
290
     1
  0
SCALE
  5
49
102
{ACAD_REACTORS
330
47
102
}
330
47
100
AcDbScale
 70
     0
300
1:2
140
1.0
141
2.0
290
     0
  0
SCALE
  5
4A
102
{ACAD_REACTORS
330
47
102
}
330
47
100
AcDbScale
 70
     0
300
1:4
140
1.0
141
4.0
290
     0
  0
SCALE
  5
4B
102
{ACAD_REACTORS
330
47
102
}
330
47
100
AcDbScale
 70
     0
300
1:5
140
1.0
141
5.0
290
     0
  0
SCALE
  5
4C
102
{ACAD_REACTORS
330
47
102
}
330
47
100
AcDbScale
 70
     0
300
1:8
140
1.0
141
8.0
290
     0
  0
SCALE
  5
4D
102
{ACAD_REACTORS
330
47
102
}
330
47
100
AcDbScale
 70
     0
300
1:10
140
1.0
141
10.0
290
     0
  0
SCALE
  5
4E
102
{ACAD_REACTORS
330
47
102
}
330
47
100
AcDbScale
 70
     0
300
1:16
140
1.0
141
16.0
290
     0
  0
SCALE
  5
4F
102
{ACAD_REACTORS
330
47
102
}
330
47
100
AcDbScale
 70
     0
300
1:20
140
1.0
141
20.0
290
     0
  0
SCALE
  5
50
102
{ACAD_REACTORS
330
47
102
}
330
47
100
AcDbScale
 70
     0
300
1:30
140
1.0
141
30.0
290
     0
  0
SCALE
  5
51
102
{ACAD_REACTORS
330
47
102
}
330
47
100
AcDbScale
 70
     0
300
1:40
140
1.0
141
40.0
290
     0
  0
SCALE
  5
52
102
{ACAD_REACTORS
330
47
102
}
330
47
100
AcDbScale
 70
     0
300
1:50
140
1.0
141
50.0
290
     0
  0
SCALE
  5
53
102
{ACAD_REACTORS
330
47
102
}
330
47
100
AcDbScale
 70
     0
300
1:100
140
1.0
141
100.0
290
     0
  0
SCALE
  5
54
102
{ACAD_REACTORS
330
47
102
}
330
47
100
AcDbScale
 70
     0
300
2:1
140
2.0
141
1.0
290
     0
  0
SCALE
  5
55
102
{ACAD_REACTORS
330
47
102
}
330
47
100
AcDbScale
 70
     0
300
4:1
140
4.0
141
1.0
290
     0
  0
SCALE
  5
56
102
{ACAD_REACTORS
330
47
102
}
330
47
100
AcDbScale
 70
     0
300
8:1
140
8.0
141
1.0
290
     0
  0
SCALE
  5
57
102
{ACAD_REACTORS
330
47
102
}
330
47
100
AcDbScale
 70
     0
300
10:1
140
10.0
141
1.0
290
     0
  0
SCALE
  5
58
102
{ACAD_REACTORS
330
47
102
}
330
47
100
AcDbScale
 70
     0
300
100:1
140
100.0
141
1.0
290
     0
  0
SCALE
  5
59
102
{ACAD_REACTORS
330
47
102
}
330
47
100
AcDbScale
 70
     0
300
1/128" = 1'-0"
140
0.0078125
141
12.0
290
     0
  0
SCALE
  5
5A
102
{ACAD_REACTORS
330
47
102
}
330
47
100
AcDbScale
 70
     0
300
1/64" = 1'-0"
140
0.015625
141
12.0
290
     0
  0
SCALE
  5
5B
102
{ACAD_REACTORS
330
47
102
}
330
47
100
AcDbScale
 70
     0
300
1/32" = 1'-0"
140
0.03125
141
12.0
290
     0
  0
SCALE
  5
5C
102
{ACAD_REACTORS
330
47
102
}
330
47
100
AcDbScale
 70
     0
300
1/16" = 1'-0"
140
0.0625
141
12.0
290
     0
  0
SCALE
  5
5D
102
{ACAD_REACTORS
330
47
102
}
330
47
100
AcDbScale
 70
     0
300
3/32" = 1'-0"
140
0.09375
141
12.0
290
     0
  0
SCALE
  5
5E
102
{ACAD_REACTORS
330
47
102
}
330
47
100
AcDbScale
 70
     0
300
1/8" = 1'-0"
140
0.125
141
12.0
290
     0
  0
SCALE
  5
5F
102
{ACAD_REACTORS
330
47
102
}
330
47
100
AcDbScale
 70
     0
300
3/16" = 1'-0"
140
0.1875
141
12.0
290
     0
  0
SCALE
  5
60
102
{ACAD_REACTORS
330
47
102
}
330
47
100
AcDbScale
 70
     0
300
1/4" = 1'-0"
140
0.25
141
12.0
290
     0
  0
SCALE
  5
61
102
{ACAD_REACTORS
330
47
102
}
330
47
100
AcDbScale
 70
     0
300
3/8" = 1'-0"
140
0.375
141
12.0
290
     0
  0
SCALE
  5
62
102
{ACAD_REACTORS
330
47
102
}
330
47
100
AcDbScale
 70
     0
300
1/2" = 1'-0"
140
0.5
141
12.0
290
     0
  0
SCALE
  5
63
102
{ACAD_REACTORS
330
47
102
}
330
47
100
AcDbScale
 70
     0
300
3/4" = 1'-0"
140
0.75
141
12.0
290
     0
  0
SCALE
  5
64
102
{ACAD_REACTORS
330
47
102
}
330
47
100
AcDbScale
 70
     0
300
1" = 1'-0"
140
1.0
141
12.0
290
     0
  0
SCALE
  5
65
102
{ACAD_REACTORS
330
47
102
}
330
47
100
AcDbScale
 70
     0
300
1-1/2" = 1'-0"
140
1.5
141
12.0
290
     0
  0
SCALE
  5
66
102
{ACAD_REACTORS
330
47
102
}
330
47
100
AcDbScale
 70
     0
300
3" = 1'-0"
140
3.0
141
12.0
290
     0
  0
SCALE
  5
67
102
{ACAD_REACTORS
330
47
102
}
330
47
100
AcDbScale
 70
     0
300
6" = 1'-0"
140
6.0
141
12.0
290
     0
  0
SCALE
  5
68
102
{ACAD_REACTORS
330
47
102
}
330
47
100
AcDbScale
 70
     0
300
1'-0" = 1'-0"
140
12.0
141
12.0
290
     0
  0
TABLESTYLE
  5
6A
102
{ACAD_REACTORS
330
69
102
}
330
69
100
AcDbTableStyle
  3
Standard
 70
     0
 71
     0
 40
1.5
 41
1.5
280
     0
281
     0
  7
Standard
140
4.5
170
     2
 62
     0
 63
   257
283
     0
274
    -2
284
     1
 64
     0
275
    -2
285
     1
 65
     0
276
    -2
286
     1
 66
     0
277
    -2
287
     1
 67
     0
278
    -2
288
     1
 68
     0
279
    -2
289
     1
 69
     0
  7
Standard
140
6.0
170
     5
 62
     0
 63
   257
283
     0
274
    -2
284
     1
 64
     0
275
    -2
285
     1
 65
     0
276
    -2
286
     1
 66
     0
277
    -2
287
     1
 67
     0
278
    -2
288
     1
 68
     0
279
    -2
289
     1
 69
     0
  7
Standard
140
4.5
170
     5
 62
     0
 63
   257
283
     0
274
    -2
284
     1
 64
     0
275
    -2
285
     1
 65
     0
276
    -2
286
     1
 66
     0
277
    -2
287
     1
 67
     0
278
    -2
288
     1
 68
     0
279
    -2
289
     1
 69
     0
  0
VISUALSTYLE
  5
2F
102
{ACAD_REACTORS
330
2A
102
}
102
{ACAD_XDICTIONARY
360
4F6
102
}
330
2A
100
AcDbVisualStyle
  2
2dWireframe
 70
     4
 71
     0
 72
     2
 73
     0
 90
        0
 40
0.6
 41
30.0
 62
     5
 63
     7
 74
     1
 91
        4
 64
     7
 65
   257
 75
     1
175
     1
 42
1.0
 92
        0
 66
   257
 43
1.0
 76
     1
 77
     6
 78
     2
 67
     7
 79
     5
170
     0
171
     0
290
     0
174
     0
 93
        1
 44
0.0
173
     0
291
     0
 45
0.0
1001
ACAD
1000
AcDbSavedByObjectVersion
1070
     0
  0
VISUALSTYLE
  5
32
102
{ACAD_REACTORS
330
2A
102
}
102
{ACAD_XDICTIONARY
360
4FC
102
}
330
2A
100
AcDbVisualStyle
  2
Basic
 70
     7
 71
     1
 72
     0
 73
     1
 90
        0
 40
0.6
 41
30.0
 62
     5
 63
     7
 74
     0
 91
        4
 64
     7
 65
   257
 75
     1
175
     1
 42
1.0
 92
        8
 66
     7
 43
1.0
 76
     1
 77
     6
 78
     2
 67
     7
 79
     5
170
     0
171
     0
290
     0
174
     0
 93
        1
 44
0.0
173
     0
291
     1
 45
0.0
1001
ACAD
1000
AcDbSavedByObjectVersion
1070
     0
  0
VISUALSTYLE
  5
36
102
{ACAD_REACTORS
330
2A
102
}
102
{ACAD_XDICTIONARY
360
504
102
}
330
2A
100
AcDbVisualStyle
  2
Brighten
 70
    12
 71
     2
 72
     2
 73
     0
 90
        0
 40
0.6
 41
30.0
 62
     5
 63
     7
 74
     1
 91
        4
 64
     7
 65
   257
 75
     1
175
     1
 42
1.0
 92
        8
 66
     7
 43
1.0
 76
     1
 77
     6
 78
     2
 67
     7
 79
     5
170
     0
171
     0
290
     0
174
     0
 93
        1
 44
50.0
173
     0
291
     1
 45
0.0
1001
ACAD
1000
AcDbSavedByObjectVersion
1070
     0
  0
VISUALSTYLE
  5
3A
102
{ACAD_REACTORS
330
2A
102
}
102
{ACAD_XDICTIONARY
360
50C
102
}
330
2A
100
AcDbVisualStyle
  2
ColorChange
 70
    16
 71
     2
 72
     2
 73
     3
 90
        0
 40
0.6
 41
30.0
 62
     5
 63
     8
 74
     1
 91
        4
 64
     7
 65
   257
 75
     1
175
     1
 42
1.0
 92
        8
 66
     8
 43
1.0
 76
     1
 77
     6
 78
     2
 67
     7
 79
     5
170
     0
171
     0
290
     0
174
     0
 93
        1
 44
0.0
173
     0
291
     1
 45
0.0
1001
ACAD
1000
AcDbSavedByObjectVersion
1070
     0
  0
VISUALSTYLE
  5
34
102
{ACAD_REACTORS
330
2A
102
}
102
{ACAD_XDICTIONARY
360
500
102
}
330
2A
100
AcDbVisualStyle
  2
Conceptual
 70
     9
 71
     3
 72
     2
 73
     0
 90
        0
 40
0.6
 41
30.0
 62
     5
 63
     7
 74
     2
 91
        2
 64
     7
 65
   257
 75
     1
175
     1
 42
179.0
 92
        8
 66
     7
 43
1.0
 76
     1
 77
     6
 78
     2
 67
     7
 79
     3
170
     0
171
     0
290
     0
174
     0
 93
        1
 44
0.0
173
     0
291
     0
 45
0.0
1001
ACAD
1000
AcDbSavedByObjectVersion
1070
     0
  0
VISUALSTYLE
  5
35
102
{ACAD_REACTORS
330
2A
102
}
102
{ACAD_XDICTIONARY
360
502
102
}
330
2A
100
AcDbVisualStyle
  2
Dim
 70
    11
 71
     2
 72
     2
 73
     0
 90
        0
 40
0.6
 41
30.0
 62
     5
 63
     7
 74
     1
 91
        4
 64
     7
 65
   257
 75
     1
175
     1
 42
1.0
 92
        8
 66
     7
 43
1.0
 76
     1
 77
     6
 78
     2
 67
     7
 79
     5
170
     0
171
     0
290
     0
174
     0
 93
        1
 44
-50.0
173
     0
291
     1
 45
0.0
1001
ACAD
1000
AcDbSavedByObjectVersion
1070
     0
  0
VISUALSTYLE
  5
3D
102
{ACAD_REACTORS
330
2A
102
}
102
{ACAD_XDICTIONARY
360
512
102
}
330
2A
100
AcDbVisualStyle
  2
EdgeColorOff
 70
    22
 71
     2
 72
     2
 73
     0
 90
        0
 40
0.6
 41
30.0
 62
     5
 63
     7
 74
     1
 91
        4
 64
     7
 65
   257
 75
     1
175
     1
 42
1.0
 92
        8
 66
     7
 43
1.0
 76
     1
 77
     6
 78
     2
 67
     7
 79
     5
170
     0
171
     0
290
     0
174
     0
 93
        1
 44
0.0
173
     0
291
     1
 45
0.0
1001
ACAD
1000
AcDbSavedByObjectVersion
1070
     0
  0
VISUALSTYLE
  5
39
102
{ACAD_REACTORS
330
2A
102
}
102
{ACAD_XDICTIONARY
360
50A
102
}
330
2A
100
AcDbVisualStyle
  2
Facepattern
 70
    15
 71
     2
 72
     2
 73
     0
 90
        0
 40
0.6
 41
30.0
 62
     5
 63
     7
 74
     1
 91
        4
 64
     7
 65
   257
 75
     1
175
     1
 42
1.0
 92
        8
 66
     7
 43
1.0
 76
     1
 77
     6
 78
     2
 67
     7
 79
     5
170
     0
171
     0
290
     0
174
     0
 93
        1
 44
0.0
173
     0
291
     1
 45
0.0
1001
ACAD
1000
AcDbSavedByObjectVersion
1070
     0
  0
VISUALSTYLE
  5
2B
102
{ACAD_REACTORS
330
2A
102
}
102
{ACAD_XDICTIONARY
360
4EE
102
}
330
2A
100
AcDbVisualStyle
  2
Flat
 70
     0
 71
     2
 72
     1
 73
     1
 90
        2
 40
0.6
 41
30.0
 62
     5
 63
     7
 74
     0
 91
        0
 64
     7
 65
   257
 75
     1
175
     1
 42
1.0
 92
        8
 66
     7
 43
1.0
 76
     1
 77
     6
 78
     2
 67
     7
 79
     5
170
     0
171
     0
290
     0
174
     0
 93
       13
 44
0.0
173
     0
291
     1
 45
0.0
1001
ACAD
1000
AcDbSavedByObjectVersion
1070
     0
  0
VISUALSTYLE
  5
2C
102
{ACAD_REACTORS
330
2A
102
}
102
{ACAD_XDICTIONARY
360
4F0
102
}
330
2A
100
AcDbVisualStyle
  2
FlatWithEdges
 70
     1
 71
     2
 72
     1
 73
     1
 90
        2
 40
0.6
 41
30.0
 62
     5
 63
     7
 74
     1
 91
        0
 64
     7
 65
   257
 75
     1
175
     1
 42
1.0
 92
        0
 66
   257
 43
1.0
 76
     1
 77
     6
 78
     2
 67
     7
 79
     5
170
     0
171
     0
290
     0
174
     0
 93
       13
 44
0.0
173
     0
291
     1
 45
0.0
1001
ACAD
1000
AcDbSavedByObjectVersion
1070
     0
  0
VISUALSTYLE
  5
2D
102
{ACAD_REACTORS
330
2A
102
}
102
{ACAD_XDICTIONARY
360
4F2
102
}
330
2A
100
AcDbVisualStyle
  2
Gouraud
 70
     2
 71
     2
 72
     2
 73
     1
 90
        2
 40
0.6
 41
30.0
 62
     5
 63
     7
 74
     0
 91
        0
 64
     7
 65
   257
 75
     1
175
     1
 42
1.0
 92
        0
 66
     7
 43
1.0
 76
     1
 77
     6
 78
     2
 67
     7
 79
     5
170
     0
171
     0
290
     0
174
     0
 93
       13
 44
0.0
173
     0
291
     1
 45
0.0
1001
ACAD
1000
AcDbSavedByObjectVersion
1070
     0
  0
VISUALSTYLE
  5
2E
102
{ACAD_REACTORS
330
2A
102
}
102
{ACAD_XDICTIONARY
360
4F4
102
}
330
2A
100
AcDbVisualStyle
  2
GouraudWithEdges
 70
     3
 71
     2
 72
     2
 73
     1
 90
        2
 40
0.6
 41
30.0
 62
     5
 63
     7
 74
     1
 91
        0
 64
     7
 65
   257
 75
     1
175
     1
 42
1.0
 92
        0
 66
   257
 43
1.0
 76
     1
 77
     6
 78
     2
 67
     7
 79
     5
170
     0
171
     0
290
     0
174
     0
 93
       13
 44
0.0
173
     0
291
     1
 45
0.0
1001
ACAD
1000
AcDbSavedByObjectVersion
1070
     0
  0
VISUALSTYLE
  5
31
102
{ACAD_REACTORS
330
2A
102
}
102
{ACAD_XDICTIONARY
360
4FA
102
}
330
2A
100
AcDbVisualStyle
  2
Hidden
 70
     6
 71
     1
 72
     2
 73
     2
 90
        0
 40
0.6
 41
30.0
 62
     5
 63
     7
 74
     2
 91
        2
 64
     7
 65
   257
 75
     2
175
     1
 42
40.0
 92
        0
 66
   257
 43
1.0
 76
     1
 77
     6
 78
     2
 67
     7
 79
     3
170
     0
171
     0
290
     0
174
     0
 93
        1
 44
0.0
173
     0
291
     0
 45
0.0
1001
ACAD
1000
AcDbSavedByObjectVersion
1070
     0
  0
VISUALSTYLE
  5
3B
102
{ACAD_REACTORS
330
2A
102
}
102
{ACAD_XDICTIONARY
360
50E
102
}
330
2A
100
AcDbVisualStyle
  2
JitterOff
 70
    20
 71
     2
 72
     2
 73
     0
 90
        0
 40
0.6
 41
30.0
 62
     5
 63
     7
 74
     1
 91
        4
 64
     7
 65
   257
 75
     1
175
     1
 42
1.0
 92
       10
 66
     7
 43
1.0
 76
     1
 77
     6
 78
     2
 67
     7
 79
     5
170
     0
171
     0
290
     0
174
     0
 93
        1
 44
0.0
173
     0
291
     1
 45
0.0
1001
ACAD
1000
AcDbSavedByObjectVersion
1070
     0
  0
VISUALSTYLE
  5
38
102
{ACAD_REACTORS
330
2A
102
}
102
{ACAD_XDICTIONARY
360
508
102
}
330
2A
100
AcDbVisualStyle
  2
Linepattern
 70
    14
 71
     2
 72
     2
 73
     0
 90
        0
 40
0.6
 41
30.0
 62
     5
 63
     7
 74
     1
 91
        4
 64
     7
 65
   257
 75
     7
175
     7
 42
1.0
 92
        8
 66
     7
 43
1.0
 76
     1
 77
     6
 78
     2
 67
     7
 79
     5
170
     0
171
     0
290
     0
174
     0
 93
        1
 44
0.0
173
     0
291
     1
 45
0.0
1001
ACAD
1000
AcDbSavedByObjectVersion
1070
     0
  0
VISUALSTYLE
  5
3C
102
{ACAD_REACTORS
330
2A
102
}
102
{ACAD_XDICTIONARY
360
510
102
}
330
2A
100
AcDbVisualStyle
  2
OverhangOff
 70
    21
 71
     2
 72
     2
 73
     0
 90
        0
 40
0.6
 41
30.0
 62
     5
 63
     7
 74
     1
 91
        4
 64
     7
 65
   257
 75
     1
175
     1
 42
1.0
 92
        9
 66
     7
 43
1.0
 76
     1
 77
     6
 78
     2
 67
     7
 79
     5
170
     0
171
     0
290
     0
174
     0
 93
        1
 44
0.0
173
     0
291
     1
 45
0.0
1001
ACAD
1000
AcDbSavedByObjectVersion
1070
     0
  0
VISUALSTYLE
  5
33
102
{ACAD_REACTORS
330
2A
102
}
102
{ACAD_XDICTIONARY
360
4FE
102
}
330
2A
100
AcDbVisualStyle
  2
Realistic
 70
     8
 71
     2
 72
     3
 73
     0
 90
        2
 40
0.6
 41
30.0
 62
     5
 63
     7
 74
     0
 91
        0
 64
     7
 65
   257
 75
     1
175
     1
 42
1.0
 92
        8
 66
   257
 43
1.0
 76
     1
 77
     6
 78
     2
 67
     7
 79
     3
170
     0
171
     0
290
     0
174
     0
 93
       13
 44
0.0
173
     0
291
     0
 45
0.0
1001
ACAD
1000
AcDbSavedByObjectVersion
1070
     0
  0
VISUALSTYLE
  5
42
102
{ACAD_REACTORS
330
2A
102
}
102
{ACAD_XDICTIONARY
360
51C
102
}
330
2A
100
AcDbVisualStyle
  2
Shaded
 70
    27
 71
     2
 72
     2
 73
     1
 90
        2
 40
0.6
 41
30.0
 62
     5
 63
     7
 74
     0
 91
        4
 64
     7
 65
   257
 75
     1
175
     1
 42
1.0
 92
        8
 66
   257
 43
1.0
 76
     1
 77
     6
 78
     2
 67
     8
 79
     3
170
     0
171
     0
290
     0
174
     0
 93
        5
 44
0.0
173
     0
291
     0
 45
0.0
1001
ACAD
1000
AcDbSavedByObjectVersion
1070
     0
  0
VISUALSTYLE
  5
41
102
{ACAD_REACTORS
330
2A
102
}
102
{ACAD_XDICTIONARY
360
51A
102
}
330
2A
100
AcDbVisualStyle
  2
Shaded with edges
 70
    26
 71
     2
 72
     2
 73
     1
 90
        2
 40
0.6
 41
30.0
 62
     5
 63
     7
 74
     1
 91
       10
 64
     7
 65
   257
 75
     2
175
     1
 42
1.0
 92
        8
 66
   257
 43
1.0
 76
     1
 77
     6
 78
     2
 67
     7
 79
     3
170
     0
171
     0
290
     0
174
     0
 93
        5
 44
0.0
173
     0
291
     0
 45
0.0
1001
ACAD
1000
AcDbSavedByObjectVersion
1070
     0
  0
VISUALSTYLE
  5
3E
102
{ACAD_REACTORS
330
2A
102
}
102
{ACAD_XDICTIONARY
360
514
102
}
330
2A
100
AcDbVisualStyle
  2
Shades of Gray
 70
    23
 71
     2
 72
     2
 73
     3
 90
        0
 40
0.6
 41
30.0
 62
     5
 63
     7
 74
     2
 91
        2
 64
     7
 65
     7
 75
     1
175
     1
 42
40.0
 92
        8
 66
     7
 43
1.0
 76
     1
 77
     6
 78
     2
 67
     7
 79
     3
170
     0
171
     0
290
     0
174
     0
 93
        1
 44
0.0
173
     0
291
     0
 45
0.0
1001
ACAD
1000
AcDbSavedByObjectVersion
1070
     0
  0
VISUALSTYLE
  5
3F
102
{ACAD_REACTORS
330
2A
102
}
102
{ACAD_XDICTIONARY
360
516
102
}
330
2A
100
AcDbVisualStyle
  2
Sketchy
 70
    24
 71
     1
 72
     2
 73
     2
 90
        0
 40
0.6
 41
30.0
 62
     5
 63
     7
 74
     2
 91
        2
 64
     7
 65
     7
 75
     1
175
     1
 42
40.0
 92
       11
 66
     7
 43
1.0
 76
     1
 77
     6
 78
     2
 67
     7
 79
     6
170
     0
171
     0
290
     0
174
     0
 93
        1
 44
0.0
173
     0
291
     0
 45
0.0
1001
ACAD
1000
AcDbSavedByObjectVersion
1070
     0
  0
VISUALSTYLE
  5
37
102
{ACAD_REACTORS
330
2A
102
}
102
{ACAD_XDICTIONARY
360
506
102
}
330
2A
100
AcDbVisualStyle
  2
Thicken
 70
    13
 71
     2
 72
     2
 73
     0
 90
        0
 40
0.6
 41
30.0
 62
     5
 63
     7
 74
     1
 91
        4
 64
     7
 65
   257
 75
     1
175
     1
 42
1.0
 92
       12
 66
     7
 43
1.0
 76
     1
 77
     6
 78
     2
 67
     7
 79
     5
170
     0
171
     0
290
     0
174
     0
 93
        1
 44
0.0
173
     0
291
     1
 45
0.0
1001
ACAD
1000
AcDbSavedByObjectVersion
1070
     0
  0
VISUALSTYLE
  5
30
102
{ACAD_REACTORS
330
2A
102
}
102
{ACAD_XDICTIONARY
360
4F8
102
}
330
2A
100
AcDbVisualStyle
  2
Wireframe
 70
     5
 71
     0
 72
     2
 73
     0
 90
        0
 40
0.6
 41
30.0
 62
     5
 63
     7
 74
     1
 91
        4
 64
     7
 65
   257
 75
     1
175
     1
 42
1.0
 92
        0
 66
   257
 43
1.0
 76
     1
 77
     6
 78
     2
 67
     7
 79
     3
170
     0
171
     0
290
     0
174
     0
 93
        1
 44
0.0
173
     0
291
     0
 45
0.0
1001
ACAD
1000
AcDbSavedByObjectVersion
1070
     0
  0
VISUALSTYLE
  5
40
102
{ACAD_REACTORS
330
2A
102
}
102
{ACAD_XDICTIONARY
360
518
102
}
330
2A
100
AcDbVisualStyle
  2
X-Ray
 70
    25
 71
     2
 72
     2
 73
     1
 90
        1
 40
0.5
 41
30.0
 62
     5
 63
     7
 74
     1
 91
        0
 64
     7
 65
   257
 75
     1
175
     1
 42
1.0
 92
        8
 66
     7
 43
1.0
 76
     1
 77
     6
 78
     2
 67
     7
 79
     3
170
     0
171
     0
290
     0
174
     0
 93
       13
 44
0.0
173
     0
291
     0
 45
0.0
1001
ACAD
1000
AcDbSavedByObjectVersion
1070
     0
  0
DICTIONARYVAR
  5
4EC
102
{ACAD_REACTORS
330
4DA
102
}
330
4DA
100
DictionaryVariables
280
     0
  1
1:1
  0
DICTIONARYVAR
  5
4E1
102
{ACAD_REACTORS
330
4DA
102
}
330
4DA
100
DictionaryVariables
280
     0
  1
3.500000
  0
DICTIONARYVAR
  5
4E2
102
{ACAD_REACTORS
330
4DA
102
}
330
4DA
100
DictionaryVariables
280
     0
  1
acadiso.lin
  0
DICTIONARYVAR
  5
4DC
102
{ACAD_REACTORS
330
4DA
102
}
330
4DA
100
DictionaryVariables
280
     0
  1
Standard
  0
DICTIONARYVAR
  5
4DB
102
{ACAD_REACTORS
330
4DA
102
}
330
4DA
100
DictionaryVariables
280
     0
  1
Standard
  0
DICTIONARYVAR
  5
4E3
102
{ACAD_REACTORS
330
4DA
102
}
330
4DA
100
DictionaryVariables
280
     0
  1
2
  0
DICTIONARYVAR
  5
4E4
102
{ACAD_REACTORS
330
4DA
102
}
330
4DA
100
DictionaryVariables
280
     0
  1
1
  0
DICTIONARYVAR
  5
4ED
102
{ACAD_REACTORS
330
4DA
102
}
330
4DA
100
DictionaryVariables
280
     0
  1
1
  0
DICTIONARYVAR
  5
4DE
102
{ACAD_REACTORS
330
4DA
102
}
330
4DA
100
DictionaryVariables
280
     0
  1
80.000000
  0
DICTIONARYVAR
  5
4DD
102
{ACAD_REACTORS
330
4DA
102
}
330
4DA
100
DictionaryVariables
280
     0
  1
5.000000
  0
DICTIONARY
  5
520
330
45
100
AcDbDictionary
280
     1
281
     1
  3
ACAD_XREC_ROUNDTRIP
360
521
  0
DICTIONARY
  5
51E
330
44
100
AcDbDictionary
280
     1
281
     1
  3
ACAD_XREC_ROUNDTRIP
360
51F
  0
DICTIONARY
  5
522
330
46
100
AcDbDictionary
280
     1
281
     1
  3
ACAD_XREC_ROUNDTRIP
360
523
  0
DICTIONARY
  5
525
330
6C
100
AcDbDictionary
280
     1
281
     1
  3
ACAD_XREC_ROUNDTRIP
360
526
  0
DICTIONARY
  5
4F6
330
2F
100
AcDbDictionary
280
     1
281
     1
  3
ACAD_XREC_ROUNDTRIP
360
4F7
  0
DICTIONARY
  5
4FC
330
32
100
AcDbDictionary
280
     1
281
     1
  3
ACAD_XREC_ROUNDTRIP
360
4FD
  0
DICTIONARY
  5
504
330
36
100
AcDbDictionary
280
     1
281
     1
  3
ACAD_XREC_ROUNDTRIP
360
505
  0
DICTIONARY
  5
50C
330
3A
100
AcDbDictionary
280
     1
281
     1
  3
ACAD_XREC_ROUNDTRIP
360
50D
  0
DICTIONARY
  5
500
330
34
100
AcDbDictionary
280
     1
281
     1
  3
ACAD_XREC_ROUNDTRIP
360
501
  0
DICTIONARY
  5
502
330
35
100
AcDbDictionary
280
     1
281
     1
  3
ACAD_XREC_ROUNDTRIP
360
503
  0
DICTIONARY
  5
512
330
3D
100
AcDbDictionary
280
     1
281
     1
  3
ACAD_XREC_ROUNDTRIP
360
513
  0
DICTIONARY
  5
50A
330
39
100
AcDbDictionary
280
     1
281
     1
  3
ACAD_XREC_ROUNDTRIP
360
50B
  0
DICTIONARY
  5
4EE
330
2B
100
AcDbDictionary
280
     1
281
     1
  3
ACAD_XREC_ROUNDTRIP
360
4EF
  0
DICTIONARY
  5
4F0
330
2C
100
AcDbDictionary
280
     1
281
     1
  3
ACAD_XREC_ROUNDTRIP
360
4F1
  0
DICTIONARY
  5
4F2
330
2D
100
AcDbDictionary
280
     1
281
     1
  3
ACAD_XREC_ROUNDTRIP
360
4F3
  0
DICTIONARY
  5
4F4
330
2E
100
AcDbDictionary
280
     1
281
     1
  3
ACAD_XREC_ROUNDTRIP
360
4F5
  0
DICTIONARY
  5
4FA
330
31
100
AcDbDictionary
280
     1
281
     1
  3
ACAD_XREC_ROUNDTRIP
360
4FB
  0
DICTIONARY
  5
50E
330
3B
100
AcDbDictionary
280
     1
281
     1
  3
ACAD_XREC_ROUNDTRIP
360
50F
  0
DICTIONARY
  5
508
330
38
100
AcDbDictionary
280
     1
281
     1
  3
ACAD_XREC_ROUNDTRIP
360
509
  0
DICTIONARY
  5
510
330
3C
100
AcDbDictionary
280
     1
281
     1
  3
ACAD_XREC_ROUNDTRIP
360
511
  0
DICTIONARY
  5
4FE
330
33
100
AcDbDictionary
280
     1
281
     1
  3
ACAD_XREC_ROUNDTRIP
360
4FF
  0
DICTIONARY
  5
51C
330
42
100
AcDbDictionary
280
     1
281
     1
  3
ACAD_XREC_ROUNDTRIP
360
51D
  0
DICTIONARY
  5
51A
330
41
100
AcDbDictionary
280
     1
281
     1
  3
ACAD_XREC_ROUNDTRIP
360
51B
  0
DICTIONARY
  5
514
330
3E
100
AcDbDictionary
280
     1
281
     1
  3
ACAD_XREC_ROUNDTRIP
360
515
  0
DICTIONARY
  5
516
330
3F
100
AcDbDictionary
280
     1
281
     1
  3
ACAD_XREC_ROUNDTRIP
360
517
  0
DICTIONARY
  5
506
330
37
100
AcDbDictionary
280
     1
281
     1
  3
ACAD_XREC_ROUNDTRIP
360
507
  0
DICTIONARY
  5
4F8
330
30
100
AcDbDictionary
280
     1
281
     1
  3
ACAD_XREC_ROUNDTRIP
360
4F9
  0
DICTIONARY
  5
518
330
40
100
AcDbDictionary
280
     1
281
     1
  3
ACAD_XREC_ROUNDTRIP
360
519
  0
XRECORD
  5
521
102
{ACAD_REACTORS
330
520
102
}
330
520
100
AcDbXrecord
280
     1
102
MATERIAL
148
0.0
149
0.0
149
0.0
 93
        0
 94
      127
282
     0
 72
     1
 77
     1
171
     1
175
     1
179
     1
273
     0
  0
XRECORD
  5
51F
102
{ACAD_REACTORS
330
51E
102
}
330
51E
100
AcDbXrecord
280
     1
102
MATERIAL
148
0.0
149
0.0
149
0.0
 93
        0
 94
      127
282
     0
 72
     1
 77
     1
171
     1
175
     1
179
     1
273
     0
  0
XRECORD
  5
523
102
{ACAD_REACTORS
330
522
102
}
330
522
100
AcDbXrecord
280
     1
102
MATERIAL
148
0.0
149
0.0
149
0.0
 93
        0
 94
      127
282
     0
 72
     1
 77
     1
171
     1
175
     1
179
     1
273
     0
  0
XRECORD
  5
526
102
{ACAD_REACTORS
330
525
102
}
330
525
100
AcDbXrecord
280
     1
102
ACAD_ROUNDTRIP_2010_MLEADER_STYLE
  0
XRECORD
  5
4F7
102
{ACAD_REACTORS
330
4F6
102
}
330
4F6
100
AcDbXrecord
280
     1
102
RTVSPropertyOp0
 70
     1
102
RTVSPropertyOp1
 70
     1
102
RTVSPropertyOp2
 70
     1
102
RTVSPropertyOp3
 70
     1
102
RTVSPropertyOp4
 70
     1
102
RTVSPropertyOp5
 70
     1
102
RTVSPropertyOp6
 70
     1
102
RTVSPropertyOp7
 70
     1
102
RTVSPropertyOp8
 70
     1
102
RTVSPropertyOp9
 70
     1
102
RTVSPropertyOp10
 70
     1
102
RTVSPropertyOp11
 70
     1
102
RTVSPropertyOp12
 70
     1
102
RTVSPropertyOp13
 70
     1
102
RTVSPropertyOp14
 70
     1
102
RTVSPropertyOp15
 70
     1
102
RTVSPropertyOp16
 70
     1
102
RTVSPropertyOp17
 70
     1
102
RTVSPropertyOp18
 70
     1
102
RTVSPropertyOp19
 70
     1
102
RTVSPropertyOp20
 70
     1
102
RTVSPropertyOp21
 70
     1
102
RTVSPropertyOp22
 70
     1
102
RTVSPropertyOp23
 70
     1
102
RTVSPropertyOp24
 70
     1
102
RTVSPropertyOp25
 70
     1
102
RTVSPropertyOp26
 70
     1
102
RTVSPropertyOp27
 70
     1
102
RTVSPropertyOp28
 70
     1
102
RTVSPropertyOp29
 70
     1
102
RTVSPropertyOp30
 70
     1
102
RTVSPropertyOp31
 70
     1
102
RTVSPropertyOp32
 70
     1
102
RTVSPropertyOp33
 70
     1
102
RTVSPropertyOp34
 70
     1
102
RTVSPropertyOp35
 70
     1
102
RTVSPropertyOp36
 70
     1
102
RTVSPropertyOp37
 70
     1
102
RTVSPropertyOp38
 70
     1
102
RTVSPropertyOp39
 70
     1
102
RTVSPropertyOp40
 70
     1
102
RTVSPropertyOp41
 70
     1
102
RTVSPropertyOp42
 70
     1
102
RTVSPropertyOp43
 70
     1
102
RTVSPropertyOp44
 70
     1
102
RTVSPropertyOp45
 70
     1
102
RTVSPropertyOp46
 70
     1
102
RTVSPropertyOp47
 70
     1
102
RTVSPropertyOp48
 70
     1
102
RTVSPropertyOp49
 70
     1
102
RTVSPropertyOp50
 70
     1
102
RTVSPropertyOp51
 70
     0
102
RTVSPropertyOp52
 70
     0
102
RTVSPropertyOp53
 70
     1
102
RTVSPropertyOp54
 70
     1
102
RTVSPropertyOp55
 70
     1
102
RTVSPropertyOp56
 70
     1
102
RTVSPropertyOp57
 70
     1
102
RTVSPost2010Prop28
280
     1
102
RTVSPost2010PropOp28
 70
     1
102
RTVSPost2010Prop29
280
     1
102
RTVSPost2010PropOp29
 70
     1
102
RTVSPost2010Prop30
280
     0
102
RTVSPost2010PropOp30
 70
     1
102
RTVSPost2010Prop31
280
     0
102
RTVSPost2010PropOp31
 70
     1
102
RTVSPost2010Prop32
280
     0
102
RTVSPost2010PropOp32
 70
     1
102
RTVSPost2010Prop33
280
     0
102
RTVSPost2010PropOp33
 70
     1
102
RTVSPost2010Prop34
280
     0
102
RTVSPost2010PropOp34
 70
     1
102
RTVSPost2010Prop35
280
     0
102
RTVSPost2010PropOp35
 70
     1
102
RTVSPost2010Prop36
280
     0
102
RTVSPost2010PropOp36
 70
     1
102
RTVSPost2010Prop37
 90
       50
102
RTVSPost2010PropOp37
 70
     1
102
RTVSPost2010Prop38
140
0.0
102
RTVSPost2010PropOp38
 70
     1
102
RTVSPost2010Prop39
140
1.0
102
RTVSPost2010PropOp39
 70
     1
102
RTVSPost2010Prop40
 90
        0
102
RTVSPost2010PropOp40
 70
     1
102
RTVSPost2010Prop41ColorIndex
 90
       18
102
RTVSPost2010Prop41ColorRGB
 90
        0
102
RTVSPost2010PropOp41
 70
     1
102
RTVSPost2010Prop42
 90
       50
102
RTVSPost2010PropOp42
 70
     1
102
RTVSPost2010Prop43
 90
        3
102
RTVSPost2010PropOp43
 70
     1
102
RTVSPost2010Prop44ColorIndex
 90
        5
102
RTVSPost2010Prop44ColorRGB
 90
      255
102
RTVSPost2010PropOp44
 70
     1
102
RTVSPost2010Prop45
280
     0
102
RTVSPost2010PropOp45
 70
     1
102
RTVSPost2010Prop46
 90
       50
102
RTVSPost2010PropOp46
 70
     1
102
RTVSPost2010Prop47
 90
       50
102
RTVSPost2010PropOp47
 70
     1
102
RTVSPost2010Prop48
 90
       50
102
RTVSPost2010PropOp48
 70
     1
102
RTVSPost2010Prop49
280
     0
102
RTVSPost2010PropOp49
 70
     1
102
RTVSPost2010Prop50
 90
       50
102
RTVSPost2010PropOp50
 70
     1
102
RTVSPost2010Prop51ColorIndex
 90
      256
102
RTVSPost2010Prop51ColorRGB
 90
-16777216
102
RTVSPost2010PropOp51
 70
     0
102
RTVSPost2010Prop52
140
1.0
102
RTVSPost2010PropOp52
 70
     0
102
RTVSPost2010Prop53
 90
        2
102
RTVSPost2010PropOp53
 70
     1
102
RTVSPost2010Prop54
  1
strokes_ogs.tif
102
RTVSPost2010PropOp54
 70
     1
102
RTVSPost2010Prop55
280
     0
102
RTVSPost2010PropOp55
 70
     1
102
RTVSPost2010Prop56
140
1.0
102
RTVSPost2010PropOp56
 70
     1
102
RTVSPost2010Prop57
140
1.0
102
RTVSPost2010PropOp57
 70
     1
  0
XRECORD
  5
4FD
102
{ACAD_REACTORS
330
4FC
102
}
330
4FC
100
AcDbXrecord
280
     1
102
RTVSPropertyOp0
 70
     1
102
RTVSPropertyOp1
 70
     1
102
RTVSPropertyOp2
 70
     1
102
RTVSPropertyOp3
 70
     1
102
RTVSPropertyOp4
 70
     1
102
RTVSPropertyOp5
 70
     1
102
RTVSPropertyOp6
 70
     1
102
RTVSPropertyOp7
 70
     1
102
RTVSPropertyOp8
 70
     1
102
RTVSPropertyOp9
 70
     1
102
RTVSPropertyOp10
 70
     1
102
RTVSPropertyOp11
 70
     1
102
RTVSPropertyOp12
 70
     1
102
RTVSPropertyOp13
 70
     1
102
RTVSPropertyOp14
 70
     1
102
RTVSPropertyOp15
 70
     1
102
RTVSPropertyOp16
 70
     1
102
RTVSPropertyOp17
 70
     1
102
RTVSPropertyOp18
 70
     1
102
RTVSPropertyOp19
 70
     1
102
RTVSPropertyOp20
 70
     1
102
RTVSPropertyOp21
 70
     1
102
RTVSPropertyOp22
 70
     1
102
RTVSPropertyOp23
 70
     1
102
RTVSPropertyOp24
 70
     1
102
RTVSPropertyOp25
 70
     1
102
RTVSPropertyOp26
 70
     1
102
RTVSPropertyOp27
 70
     1
102
RTVSPropertyOp28
 70
     1
102
RTVSPropertyOp29
 70
     1
102
RTVSPropertyOp30
 70
     1
102
RTVSPropertyOp31
 70
     1
102
RTVSPropertyOp32
 70
     1
102
RTVSPropertyOp33
 70
     1
102
RTVSPropertyOp34
 70
     1
102
RTVSPropertyOp35
 70
     1
102
RTVSPropertyOp36
 70
     1
102
RTVSPropertyOp37
 70
     1
102
RTVSPropertyOp38
 70
     1
102
RTVSPropertyOp39
 70
     1
102
RTVSPropertyOp40
 70
     1
102
RTVSPropertyOp41
 70
     1
102
RTVSPropertyOp42
 70
     1
102
RTVSPropertyOp43
 70
     1
102
RTVSPropertyOp44
 70
     1
102
RTVSPropertyOp45
 70
     1
102
RTVSPropertyOp46
 70
     1
102
RTVSPropertyOp47
 70
     1
102
RTVSPropertyOp48
 70
     1
102
RTVSPropertyOp49
 70
     1
102
RTVSPropertyOp50
 70
     1
102
RTVSPropertyOp51
 70
     0
102
RTVSPropertyOp52
 70
     0
102
RTVSPropertyOp53
 70
     1
102
RTVSPropertyOp54
 70
     1
102
RTVSPropertyOp55
 70
     1
102
RTVSPropertyOp56
 70
     1
102
RTVSPropertyOp57
 70
     1
102
RTVSPost2010Prop28
280
     0
102
RTVSPost2010PropOp28
 70
     1
102
RTVSPost2010Prop29
280
     1
102
RTVSPost2010PropOp29
 70
     1
102
RTVSPost2010Prop30
280
     1
102
RTVSPost2010PropOp30
 70
     1
102
RTVSPost2010Prop31
280
     0
102
RTVSPost2010PropOp31
 70
     1
102
RTVSPost2010Prop32
280
     0
102
RTVSPost2010PropOp32
 70
     1
102
RTVSPost2010Prop33
280
     0
102
RTVSPost2010PropOp33
 70
     1
102
RTVSPost2010Prop34
280
     0
102
RTVSPost2010PropOp34
 70
     1
102
RTVSPost2010Prop35
280
     0
102
RTVSPost2010PropOp35
 70
     1
102
RTVSPost2010Prop36
280
     0
102
RTVSPost2010PropOp36
 70
     1
102
RTVSPost2010Prop37
 90
       50
102
RTVSPost2010PropOp37
 70
     1
102
RTVSPost2010Prop38
140
0.0
102
RTVSPost2010PropOp38
 70
     1
102
RTVSPost2010Prop39
140
1.0
102
RTVSPost2010PropOp39
 70
     1
102
RTVSPost2010Prop40
 90
        0
102
RTVSPost2010PropOp40
 70
     1
102
RTVSPost2010Prop41ColorIndex
 90
       18
102
RTVSPost2010Prop41ColorRGB
 90
        0
102
RTVSPost2010PropOp41
 70
     1
102
RTVSPost2010Prop42
 90
       50
102
RTVSPost2010PropOp42
 70
     1
102
RTVSPost2010Prop43
 90
        3
102
RTVSPost2010PropOp43
 70
     1
102
RTVSPost2010Prop44ColorIndex
 90
        5
102
RTVSPost2010Prop44ColorRGB
 90
      255
102
RTVSPost2010PropOp44
 70
     1
102
RTVSPost2010Prop45
280
     0
102
RTVSPost2010PropOp45
 70
     1
102
RTVSPost2010Prop46
 90
       50
102
RTVSPost2010PropOp46
 70
     1
102
RTVSPost2010Prop47
 90
       50
102
RTVSPost2010PropOp47
 70
     1
102
RTVSPost2010Prop48
 90
       50
102
RTVSPost2010PropOp48
 70
     1
102
RTVSPost2010Prop49
280
     0
102
RTVSPost2010PropOp49
 70
     1
102
RTVSPost2010Prop50
 90
       50
102
RTVSPost2010PropOp50
 70
     1
102
RTVSPost2010Prop51ColorIndex
 90
      256
102
RTVSPost2010Prop51ColorRGB
 90
-16777216
102
RTVSPost2010PropOp51
 70
     0
102
RTVSPost2010Prop52
140
1.0
102
RTVSPost2010PropOp52
 70
     0
102
RTVSPost2010Prop53
 90
        2
102
RTVSPost2010PropOp53
 70
     1
102
RTVSPost2010Prop54
  1
strokes_ogs.tif
102
RTVSPost2010PropOp54
 70
     1
102
RTVSPost2010Prop55
280
     0
102
RTVSPost2010PropOp55
 70
     1
102
RTVSPost2010Prop56
140
1.0
102
RTVSPost2010PropOp56
 70
     1
102
RTVSPost2010Prop57
140
1.0
102
RTVSPost2010PropOp57
 70
     1
  0
XRECORD
  5
505
102
{ACAD_REACTORS
330
504
102
}
330
504
100
AcDbXrecord
280
     1
102
RTVSPropertyOp0
 70
     1
102
RTVSPropertyOp1
 70
     1
102
RTVSPropertyOp2
 70
     1
102
RTVSPropertyOp3
 70
     1
102
RTVSPropertyOp4
 70
     1
102
RTVSPropertyOp5
 70
     1
102
RTVSPropertyOp6
 70
     1
102
RTVSPropertyOp7
 70
     1
102
RTVSPropertyOp8
 70
     1
102
RTVSPropertyOp9
 70
     1
102
RTVSPropertyOp10
 70
     1
102
RTVSPropertyOp11
 70
     1
102
RTVSPropertyOp12
 70
     1
102
RTVSPropertyOp13
 70
     1
102
RTVSPropertyOp14
 70
     1
102
RTVSPropertyOp15
 70
     1
102
RTVSPropertyOp16
 70
     1
102
RTVSPropertyOp17
 70
     1
102
RTVSPropertyOp18
 70
     1
102
RTVSPropertyOp19
 70
     1
102
RTVSPropertyOp20
 70
     1
102
RTVSPropertyOp21
 70
     1
102
RTVSPropertyOp22
 70
     1
102
RTVSPropertyOp23
 70
     1
102
RTVSPropertyOp24
 70
     1
102
RTVSPropertyOp25
 70
     1
102
RTVSPropertyOp26
 70
     1
102
RTVSPropertyOp27
 70
     1
102
RTVSPropertyOp28
 70
     1
102
RTVSPropertyOp29
 70
     1
102
RTVSPropertyOp30
 70
     1
102
RTVSPropertyOp31
 70
     1
102
RTVSPropertyOp32
 70
     1
102
RTVSPropertyOp33
 70
     1
102
RTVSPropertyOp34
 70
     1
102
RTVSPropertyOp35
 70
     1
102
RTVSPropertyOp36
 70
     1
102
RTVSPropertyOp37
 70
     1
102
RTVSPropertyOp38
 70
     1
102
RTVSPropertyOp39
 70
     1
102
RTVSPropertyOp40
 70
     1
102
RTVSPropertyOp41
 70
     1
102
RTVSPropertyOp42
 70
     1
102
RTVSPropertyOp43
 70
     1
102
RTVSPropertyOp44
 70
     1
102
RTVSPropertyOp45
 70
     1
102
RTVSPropertyOp46
 70
     1
102
RTVSPropertyOp47
 70
     1
102
RTVSPropertyOp48
 70
     1
102
RTVSPropertyOp49
 70
     1
102
RTVSPropertyOp50
 70
     1
102
RTVSPropertyOp51
 70
     0
102
RTVSPropertyOp52
 70
     0
102
RTVSPropertyOp53
 70
     1
102
RTVSPropertyOp54
 70
     1
102
RTVSPropertyOp55
 70
     1
102
RTVSPropertyOp56
 70
     1
102
RTVSPropertyOp57
 70
     1
102
RTVSPost2010Prop28
280
     0
102
RTVSPost2010PropOp28
 70
     1
102
RTVSPost2010Prop29
280
     1
102
RTVSPost2010PropOp29
 70
     1
102
RTVSPost2010Prop30
280
     1
102
RTVSPost2010PropOp30
 70
     1
102
RTVSPost2010Prop31
280
     0
102
RTVSPost2010PropOp31
 70
     1
102
RTVSPost2010Prop32
280
     0
102
RTVSPost2010PropOp32
 70
     1
102
RTVSPost2010Prop33
280
     0
102
RTVSPost2010PropOp33
 70
     1
102
RTVSPost2010Prop34
280
     0
102
RTVSPost2010PropOp34
 70
     1
102
RTVSPost2010Prop35
280
     0
102
RTVSPost2010PropOp35
 70
     1
102
RTVSPost2010Prop36
280
     0
102
RTVSPost2010PropOp36
 70
     1
102
RTVSPost2010Prop37
 90
       50
102
RTVSPost2010PropOp37
 70
     1
102
RTVSPost2010Prop38
140
0.0
102
RTVSPost2010PropOp38
 70
     1
102
RTVSPost2010Prop39
140
1.0
102
RTVSPost2010PropOp39
 70
     1
102
RTVSPost2010Prop40
 90
        0
102
RTVSPost2010PropOp40
 70
     1
102
RTVSPost2010Prop41ColorIndex
 90
       18
102
RTVSPost2010Prop41ColorRGB
 90
        0
102
RTVSPost2010PropOp41
 70
     1
102
RTVSPost2010Prop42
 90
       50
102
RTVSPost2010PropOp42
 70
     1
102
RTVSPost2010Prop43
 90
        3
102
RTVSPost2010PropOp43
 70
     1
102
RTVSPost2010Prop44ColorIndex
 90
        5
102
RTVSPost2010Prop44ColorRGB
 90
      255
102
RTVSPost2010PropOp44
 70
     1
102
RTVSPost2010Prop45
280
     0
102
RTVSPost2010PropOp45
 70
     1
102
RTVSPost2010Prop46
 90
       50
102
RTVSPost2010PropOp46
 70
     1
102
RTVSPost2010Prop47
 90
       50
102
RTVSPost2010PropOp47
 70
     1
102
RTVSPost2010Prop48
 90
       50
102
RTVSPost2010PropOp48
 70
     1
102
RTVSPost2010Prop49
280
     0
102
RTVSPost2010PropOp49
 70
     1
102
RTVSPost2010Prop50
 90
       50
102
RTVSPost2010PropOp50
 70
     1
102
RTVSPost2010Prop51ColorIndex
 90
      256
102
RTVSPost2010Prop51ColorRGB
 90
-16777216
102
RTVSPost2010PropOp51
 70
     0
102
RTVSPost2010Prop52
140
1.0
102
RTVSPost2010PropOp52
 70
     0
102
RTVSPost2010Prop53
 90
        2
102
RTVSPost2010PropOp53
 70
     1
102
RTVSPost2010Prop54
  1
strokes_ogs.tif
102
RTVSPost2010PropOp54
 70
     1
102
RTVSPost2010Prop55
280
     0
102
RTVSPost2010PropOp55
 70
     1
102
RTVSPost2010Prop56
140
1.0
102
RTVSPost2010PropOp56
 70
     1
102
RTVSPost2010Prop57
140
1.0
102
RTVSPost2010PropOp57
 70
     1
  0
XRECORD
  5
50D
102
{ACAD_REACTORS
330
50C
102
}
330
50C
100
AcDbXrecord
280
     1
102
RTVSPropertyOp0
 70
     1
102
RTVSPropertyOp1
 70
     1
102
RTVSPropertyOp2
 70
     1
102
RTVSPropertyOp3
 70
     1
102
RTVSPropertyOp4
 70
     1
102
RTVSPropertyOp5
 70
     1
102
RTVSPropertyOp6
 70
     1
102
RTVSPropertyOp7
 70
     1
102
RTVSPropertyOp8
 70
     1
102
RTVSPropertyOp9
 70
     1
102
RTVSPropertyOp10
 70
     1
102
RTVSPropertyOp11
 70
     1
102
RTVSPropertyOp12
 70
     1
102
RTVSPropertyOp13
 70
     1
102
RTVSPropertyOp14
 70
     1
102
RTVSPropertyOp15
 70
     1
102
RTVSPropertyOp16
 70
     1
102
RTVSPropertyOp17
 70
     1
102
RTVSPropertyOp18
 70
     1
102
RTVSPropertyOp19
 70
     1
102
RTVSPropertyOp20
 70
     1
102
RTVSPropertyOp21
 70
     1
102
RTVSPropertyOp22
 70
     1
102
RTVSPropertyOp23
 70
     1
102
RTVSPropertyOp24
 70
     1
102
RTVSPropertyOp25
 70
     1
102
RTVSPropertyOp26
 70
     1
102
RTVSPropertyOp27
 70
     1
102
RTVSPropertyOp28
 70
     1
102
RTVSPropertyOp29
 70
     1
102
RTVSPropertyOp30
 70
     1
102
RTVSPropertyOp31
 70
     1
102
RTVSPropertyOp32
 70
     1
102
RTVSPropertyOp33
 70
     1
102
RTVSPropertyOp34
 70
     1
102
RTVSPropertyOp35
 70
     1
102
RTVSPropertyOp36
 70
     1
102
RTVSPropertyOp37
 70
     1
102
RTVSPropertyOp38
 70
     1
102
RTVSPropertyOp39
 70
     1
102
RTVSPropertyOp40
 70
     1
102
RTVSPropertyOp41
 70
     1
102
RTVSPropertyOp42
 70
     1
102
RTVSPropertyOp43
 70
     1
102
RTVSPropertyOp44
 70
     1
102
RTVSPropertyOp45
 70
     1
102
RTVSPropertyOp46
 70
     1
102
RTVSPropertyOp47
 70
     1
102
RTVSPropertyOp48
 70
     1
102
RTVSPropertyOp49
 70
     1
102
RTVSPropertyOp50
 70
     1
102
RTVSPropertyOp51
 70
     0
102
RTVSPropertyOp52
 70
     0
102
RTVSPropertyOp53
 70
     1
102
RTVSPropertyOp54
 70
     1
102
RTVSPropertyOp55
 70
     1
102
RTVSPropertyOp56
 70
     1
102
RTVSPropertyOp57
 70
     1
102
RTVSPost2010Prop28
280
     0
102
RTVSPost2010PropOp28
 70
     1
102
RTVSPost2010Prop29
280
     1
102
RTVSPost2010PropOp29
 70
     1
102
RTVSPost2010Prop30
280
     1
102
RTVSPost2010PropOp30
 70
     1
102
RTVSPost2010Prop31
280
     0
102
RTVSPost2010PropOp31
 70
     1
102
RTVSPost2010Prop32
280
     0
102
RTVSPost2010PropOp32
 70
     1
102
RTVSPost2010Prop33
280
     0
102
RTVSPost2010PropOp33
 70
     1
102
RTVSPost2010Prop34
280
     0
102
RTVSPost2010PropOp34
 70
     1
102
RTVSPost2010Prop35
280
     0
102
RTVSPost2010PropOp35
 70
     1
102
RTVSPost2010Prop36
280
     0
102
RTVSPost2010PropOp36
 70
     1
102
RTVSPost2010Prop37
 90
       50
102
RTVSPost2010PropOp37
 70
     1
102
RTVSPost2010Prop38
140
0.0
102
RTVSPost2010PropOp38
 70
     1
102
RTVSPost2010Prop39
140
1.0
102
RTVSPost2010PropOp39
 70
     1
102
RTVSPost2010Prop40
 90
        0
102
RTVSPost2010PropOp40
 70
     1
102
RTVSPost2010Prop41ColorIndex
 90
       18
102
RTVSPost2010Prop41ColorRGB
 90
        0
102
RTVSPost2010PropOp41
 70
     1
102
RTVSPost2010Prop42
 90
       50
102
RTVSPost2010PropOp42
 70
     1
102
RTVSPost2010Prop43
 90
        3
102
RTVSPost2010PropOp43
 70
     1
102
RTVSPost2010Prop44ColorIndex
 90
        5
102
RTVSPost2010Prop44ColorRGB
 90
      255
102
RTVSPost2010PropOp44
 70
     1
102
RTVSPost2010Prop45
280
     0
102
RTVSPost2010PropOp45
 70
     1
102
RTVSPost2010Prop46
 90
       50
102
RTVSPost2010PropOp46
 70
     1
102
RTVSPost2010Prop47
 90
       50
102
RTVSPost2010PropOp47
 70
     1
102
RTVSPost2010Prop48
 90
       50
102
RTVSPost2010PropOp48
 70
     1
102
RTVSPost2010Prop49
280
     0
102
RTVSPost2010PropOp49
 70
     1
102
RTVSPost2010Prop50
 90
       50
102
RTVSPost2010PropOp50
 70
     1
102
RTVSPost2010Prop51ColorIndex
 90
      256
102
RTVSPost2010Prop51ColorRGB
 90
-16777216
102
RTVSPost2010PropOp51
 70
     0
102
RTVSPost2010Prop52
140
1.0
102
RTVSPost2010PropOp52
 70
     0
102
RTVSPost2010Prop53
 90
        2
102
RTVSPost2010PropOp53
 70
     1
102
RTVSPost2010Prop54
  1
strokes_ogs.tif
102
RTVSPost2010PropOp54
 70
     1
102
RTVSPost2010Prop55
280
     0
102
RTVSPost2010PropOp55
 70
     1
102
RTVSPost2010Prop56
140
1.0
102
RTVSPost2010PropOp56
 70
     1
102
RTVSPost2010Prop57
140
1.0
102
RTVSPost2010PropOp57
 70
     1
  0
XRECORD
  5
501
102
{ACAD_REACTORS
330
500
102
}
330
500
100
AcDbXrecord
280
     1
102
RTVSPropertyOp0
 70
     1
102
RTVSPropertyOp1
 70
     1
102
RTVSPropertyOp2
 70
     1
102
RTVSPropertyOp3
 70
     1
102
RTVSPropertyOp4
 70
     1
102
RTVSPropertyOp5
 70
     1
102
RTVSPropertyOp6
 70
     1
102
RTVSPropertyOp7
 70
     1
102
RTVSPropertyOp8
 70
     1
102
RTVSPropertyOp9
 70
     1
102
RTVSPropertyOp10
 70
     1
102
RTVSPropertyOp11
 70
     1
102
RTVSPropertyOp12
 70
     1
102
RTVSPropertyOp13
 70
     1
102
RTVSPropertyOp14
 70
     1
102
RTVSPropertyOp15
 70
     1
102
RTVSPropertyOp16
 70
     1
102
RTVSPropertyOp17
 70
     1
102
RTVSPropertyOp18
 70
     1
102
RTVSPropertyOp19
 70
     1
102
RTVSPropertyOp20
 70
     1
102
RTVSPropertyOp21
 70
     1
102
RTVSPropertyOp22
 70
     1
102
RTVSPropertyOp23
 70
     1
102
RTVSPropertyOp24
 70
     1
102
RTVSPropertyOp25
 70
     1
102
RTVSPropertyOp26
 70
     1
102
RTVSPropertyOp27
 70
     1
102
RTVSPropertyOp28
 70
     1
102
RTVSPropertyOp29
 70
     1
102
RTVSPropertyOp30
 70
     1
102
RTVSPropertyOp31
 70
     1
102
RTVSPropertyOp32
 70
     1
102
RTVSPropertyOp33
 70
     1
102
RTVSPropertyOp34
 70
     1
102
RTVSPropertyOp35
 70
     1
102
RTVSPropertyOp36
 70
     1
102
RTVSPropertyOp37
 70
     1
102
RTVSPropertyOp38
 70
     1
102
RTVSPropertyOp39
 70
     1
102
RTVSPropertyOp40
 70
     1
102
RTVSPropertyOp41
 70
     1
102
RTVSPropertyOp42
 70
     1
102
RTVSPropertyOp43
 70
     1
102
RTVSPropertyOp44
 70
     1
102
RTVSPropertyOp45
 70
     1
102
RTVSPropertyOp46
 70
     1
102
RTVSPropertyOp47
 70
     1
102
RTVSPropertyOp48
 70
     1
102
RTVSPropertyOp49
 70
     1
102
RTVSPropertyOp50
 70
     1
102
RTVSPropertyOp51
 70
     0
102
RTVSPropertyOp52
 70
     0
102
RTVSPropertyOp53
 70
     1
102
RTVSPropertyOp54
 70
     1
102
RTVSPropertyOp55
 70
     1
102
RTVSPropertyOp56
 70
     1
102
RTVSPropertyOp57
 70
     1
102
RTVSPost2010Prop28
280
     0
102
RTVSPost2010PropOp28
 70
     1
102
RTVSPost2010Prop29
280
     1
102
RTVSPost2010PropOp29
 70
     1
102
RTVSPost2010Prop30
280
     1
102
RTVSPost2010PropOp30
 70
     1
102
RTVSPost2010Prop31
280
     0
102
RTVSPost2010PropOp31
 70
     1
102
RTVSPost2010Prop32
280
     0
102
RTVSPost2010PropOp32
 70
     1
102
RTVSPost2010Prop33
280
     0
102
RTVSPost2010PropOp33
 70
     1
102
RTVSPost2010Prop34
280
     0
102
RTVSPost2010PropOp34
 70
     1
102
RTVSPost2010Prop35
280
     0
102
RTVSPost2010PropOp35
 70
     1
102
RTVSPost2010Prop36
280
     0
102
RTVSPost2010PropOp36
 70
     1
102
RTVSPost2010Prop37
 90
       50
102
RTVSPost2010PropOp37
 70
     1
102
RTVSPost2010Prop38
140
0.0
102
RTVSPost2010PropOp38
 70
     1
102
RTVSPost2010Prop39
140
1.0
102
RTVSPost2010PropOp39
 70
     1
102
RTVSPost2010Prop40
 90
        0
102
RTVSPost2010PropOp40
 70
     1
102
RTVSPost2010Prop41ColorIndex
 90
       18
102
RTVSPost2010Prop41ColorRGB
 90
        0
102
RTVSPost2010PropOp41
 70
     1
102
RTVSPost2010Prop42
 90
       50
102
RTVSPost2010PropOp42
 70
     1
102
RTVSPost2010Prop43
 90
        3
102
RTVSPost2010PropOp43
 70
     1
102
RTVSPost2010Prop44ColorIndex
 90
        5
102
RTVSPost2010Prop44ColorRGB
 90
      255
102
RTVSPost2010PropOp44
 70
     1
102
RTVSPost2010Prop45
280
     0
102
RTVSPost2010PropOp45
 70
     1
102
RTVSPost2010Prop46
 90
       50
102
RTVSPost2010PropOp46
 70
     1
102
RTVSPost2010Prop47
 90
       50
102
RTVSPost2010PropOp47
 70
     1
102
RTVSPost2010Prop48
 90
       50
102
RTVSPost2010PropOp48
 70
     1
102
RTVSPost2010Prop49
280
     0
102
RTVSPost2010PropOp49
 70
     1
102
RTVSPost2010Prop50
 90
       50
102
RTVSPost2010PropOp50
 70
     1
102
RTVSPost2010Prop51ColorIndex
 90
      256
102
RTVSPost2010Prop51ColorRGB
 90
-16777216
102
RTVSPost2010PropOp51
 70
     0
102
RTVSPost2010Prop52
140
1.0
102
RTVSPost2010PropOp52
 70
     0
102
RTVSPost2010Prop53
 90
        2
102
RTVSPost2010PropOp53
 70
     1
102
RTVSPost2010Prop54
  1
strokes_ogs.tif
102
RTVSPost2010PropOp54
 70
     1
102
RTVSPost2010Prop55
280
     0
102
RTVSPost2010PropOp55
 70
     1
102
RTVSPost2010Prop56
140
1.0
102
RTVSPost2010PropOp56
 70
     1
102
RTVSPost2010Prop57
140
1.0
102
RTVSPost2010PropOp57
 70
     1
  0
XRECORD
  5
503
102
{ACAD_REACTORS
330
502
102
}
330
502
100
AcDbXrecord
280
     1
102
RTVSPropertyOp0
 70
     1
102
RTVSPropertyOp1
 70
     1
102
RTVSPropertyOp2
 70
     1
102
RTVSPropertyOp3
 70
     1
102
RTVSPropertyOp4
 70
     1
102
RTVSPropertyOp5
 70
     1
102
RTVSPropertyOp6
 70
     1
102
RTVSPropertyOp7
 70
     1
102
RTVSPropertyOp8
 70
     1
102
RTVSPropertyOp9
 70
     1
102
RTVSPropertyOp10
 70
     1
102
RTVSPropertyOp11
 70
     1
102
RTVSPropertyOp12
 70
     1
102
RTVSPropertyOp13
 70
     1
102
RTVSPropertyOp14
 70
     1
102
RTVSPropertyOp15
 70
     1
102
RTVSPropertyOp16
 70
     1
102
RTVSPropertyOp17
 70
     1
102
RTVSPropertyOp18
 70
     1
102
RTVSPropertyOp19
 70
     1
102
RTVSPropertyOp20
 70
     1
102
RTVSPropertyOp21
 70
     1
102
RTVSPropertyOp22
 70
     1
102
RTVSPropertyOp23
 70
     1
102
RTVSPropertyOp24
 70
     1
102
RTVSPropertyOp25
 70
     1
102
RTVSPropertyOp26
 70
     1
102
RTVSPropertyOp27
 70
     1
102
RTVSPropertyOp28
 70
     1
102
RTVSPropertyOp29
 70
     1
102
RTVSPropertyOp30
 70
     1
102
RTVSPropertyOp31
 70
     1
102
RTVSPropertyOp32
 70
     1
102
RTVSPropertyOp33
 70
     1
102
RTVSPropertyOp34
 70
     1
102
RTVSPropertyOp35
 70
     1
102
RTVSPropertyOp36
 70
     1
102
RTVSPropertyOp37
 70
     1
102
RTVSPropertyOp38
 70
     1
102
RTVSPropertyOp39
 70
     1
102
RTVSPropertyOp40
 70
     1
102
RTVSPropertyOp41
 70
     1
102
RTVSPropertyOp42
 70
     1
102
RTVSPropertyOp43
 70
     1
102
RTVSPropertyOp44
 70
     1
102
RTVSPropertyOp45
 70
     1
102
RTVSPropertyOp46
 70
     1
102
RTVSPropertyOp47
 70
     1
102
RTVSPropertyOp48
 70
     1
102
RTVSPropertyOp49
 70
     1
102
RTVSPropertyOp50
 70
     1
102
RTVSPropertyOp51
 70
     0
102
RTVSPropertyOp52
 70
     0
102
RTVSPropertyOp53
 70
     1
102
RTVSPropertyOp54
 70
     1
102
RTVSPropertyOp55
 70
     1
102
RTVSPropertyOp56
 70
     1
102
RTVSPropertyOp57
 70
     1
102
RTVSPost2010Prop28
280
     0
102
RTVSPost2010PropOp28
 70
     1
102
RTVSPost2010Prop29
280
     1
102
RTVSPost2010PropOp29
 70
     1
102
RTVSPost2010Prop30
280
     1
102
RTVSPost2010PropOp30
 70
     1
102
RTVSPost2010Prop31
280
     0
102
RTVSPost2010PropOp31
 70
     1
102
RTVSPost2010Prop32
280
     0
102
RTVSPost2010PropOp32
 70
     1
102
RTVSPost2010Prop33
280
     0
102
RTVSPost2010PropOp33
 70
     1
102
RTVSPost2010Prop34
280
     0
102
RTVSPost2010PropOp34
 70
     1
102
RTVSPost2010Prop35
280
     0
102
RTVSPost2010PropOp35
 70
     1
102
RTVSPost2010Prop36
280
     0
102
RTVSPost2010PropOp36
 70
     1
102
RTVSPost2010Prop37
 90
       50
102
RTVSPost2010PropOp37
 70
     1
102
RTVSPost2010Prop38
140
0.0
102
RTVSPost2010PropOp38
 70
     1
102
RTVSPost2010Prop39
140
1.0
102
RTVSPost2010PropOp39
 70
     1
102
RTVSPost2010Prop40
 90
        0
102
RTVSPost2010PropOp40
 70
     1
102
RTVSPost2010Prop41ColorIndex
 90
       18
102
RTVSPost2010Prop41ColorRGB
 90
        0
102
RTVSPost2010PropOp41
 70
     1
102
RTVSPost2010Prop42
 90
       50
102
RTVSPost2010PropOp42
 70
     1
102
RTVSPost2010Prop43
 90
        3
102
RTVSPost2010PropOp43
 70
     1
102
RTVSPost2010Prop44ColorIndex
 90
        5
102
RTVSPost2010Prop44ColorRGB
 90
      255
102
RTVSPost2010PropOp44
 70
     1
102
RTVSPost2010Prop45
280
     0
102
RTVSPost2010PropOp45
 70
     1
102
RTVSPost2010Prop46
 90
       50
102
RTVSPost2010PropOp46
 70
     1
102
RTVSPost2010Prop47
 90
       50
102
RTVSPost2010PropOp47
 70
     1
102
RTVSPost2010Prop48
 90
       50
102
RTVSPost2010PropOp48
 70
     1
102
RTVSPost2010Prop49
280
     0
102
RTVSPost2010PropOp49
 70
     1
102
RTVSPost2010Prop50
 90
       50
102
RTVSPost2010PropOp50
 70
     1
102
RTVSPost2010Prop51ColorIndex
 90
      256
102
RTVSPost2010Prop51ColorRGB
 90
-16777216
102
RTVSPost2010PropOp51
 70
     0
102
RTVSPost2010Prop52
140
1.0
102
RTVSPost2010PropOp52
 70
     0
102
RTVSPost2010Prop53
 90
        2
102
RTVSPost2010PropOp53
 70
     1
102
RTVSPost2010Prop54
  1
strokes_ogs.tif
102
RTVSPost2010PropOp54
 70
     1
102
RTVSPost2010Prop55
280
     0
102
RTVSPost2010PropOp55
 70
     1
102
RTVSPost2010Prop56
140
1.0
102
RTVSPost2010PropOp56
 70
     1
102
RTVSPost2010Prop57
140
1.0
102
RTVSPost2010PropOp57
 70
     1
  0
XRECORD
  5
513
102
{ACAD_REACTORS
330
512
102
}
330
512
100
AcDbXrecord
280
     1
102
RTVSPropertyOp0
 70
     0
102
RTVSPropertyOp1
 70
     0
102
RTVSPropertyOp2
 70
     0
102
RTVSPropertyOp3
 70
     0
102
RTVSPropertyOp4
 70
     0
102
RTVSPropertyOp5
 70
     0
102
RTVSPropertyOp6
 70
     0
102
RTVSPropertyOp7
 70
     0
102
RTVSPropertyOp8
 70
     0
102
RTVSPropertyOp9
 70
     0
102
RTVSPropertyOp10
 70
     0
102
RTVSPropertyOp11
 70
     0
102
RTVSPropertyOp12
 70
     0
102
RTVSPropertyOp13
 70
     0
102
RTVSPropertyOp14
 70
     2
102
RTVSPropertyOp15
 70
     0
102
RTVSPropertyOp16
 70
     0
102
RTVSPropertyOp17
 70
     0
102
RTVSPropertyOp18
 70
     0
102
RTVSPropertyOp19
 70
     0
102
RTVSPropertyOp20
 70
     0
102
RTVSPropertyOp21
 70
     0
102
RTVSPropertyOp22
 70
     0
102
RTVSPropertyOp23
 70
     0
102
RTVSPropertyOp24
 70
     0
102
RTVSPropertyOp25
 70
     0
102
RTVSPropertyOp26
 70
     0
102
RTVSPropertyOp27
 70
     0
102
RTVSPropertyOp28
 70
     0
102
RTVSPropertyOp29
 70
     0
102
RTVSPropertyOp30
 70
     0
102
RTVSPropertyOp31
 70
     0
102
RTVSPropertyOp32
 70
     0
102
RTVSPropertyOp33
 70
     0
102
RTVSPropertyOp34
 70
     0
102
RTVSPropertyOp35
 70
     0
102
RTVSPropertyOp36
 70
     0
102
RTVSPropertyOp37
 70
     0
102
RTVSPropertyOp38
 70
     0
102
RTVSPropertyOp39
 70
     0
102
RTVSPropertyOp40
 70
     0
102
RTVSPropertyOp41
 70
     0
102
RTVSPropertyOp42
 70
     0
102
RTVSPropertyOp43
 70
     0
102
RTVSPropertyOp44
 70
     0
102
RTVSPropertyOp45
 70
     0
102
RTVSPropertyOp46
 70
     0
102
RTVSPropertyOp47
 70
     0
102
RTVSPropertyOp48
 70
     0
102
RTVSPropertyOp49
 70
     0
102
RTVSPropertyOp50
 70
     0
102
RTVSPropertyOp51
 70
     0
102
RTVSPropertyOp52
 70
     0
102
RTVSPropertyOp53
 70
     0
102
RTVSPropertyOp54
 70
     0
102
RTVSPropertyOp55
 70
     0
102
RTVSPropertyOp56
 70
     0
102
RTVSPropertyOp57
 70
     0
102
RTVSPost2010Prop28
280
     0
102
RTVSPost2010PropOp28
 70
     0
102
RTVSPost2010Prop29
280
     1
102
RTVSPost2010PropOp29
 70
     0
102
RTVSPost2010Prop30
280
     1
102
RTVSPost2010PropOp30
 70
     0
102
RTVSPost2010Prop31
280
     0
102
RTVSPost2010PropOp31
 70
     0
102
RTVSPost2010Prop32
280
     0
102
RTVSPost2010PropOp32
 70
     0
102
RTVSPost2010Prop33
280
     0
102
RTVSPost2010PropOp33
 70
     0
102
RTVSPost2010Prop34
280
     0
102
RTVSPost2010PropOp34
 70
     0
102
RTVSPost2010Prop35
280
     0
102
RTVSPost2010PropOp35
 70
     0
102
RTVSPost2010Prop36
280
     0
102
RTVSPost2010PropOp36
 70
     0
102
RTVSPost2010Prop37
 90
       50
102
RTVSPost2010PropOp37
 70
     0
102
RTVSPost2010Prop38
140
0.0
102
RTVSPost2010PropOp38
 70
     0
102
RTVSPost2010Prop39
140
1.0
102
RTVSPost2010PropOp39
 70
     0
102
RTVSPost2010Prop40
 90
        0
102
RTVSPost2010PropOp40
 70
     0
102
RTVSPost2010Prop41ColorIndex
 90
       18
102
RTVSPost2010Prop41ColorRGB
 90
        0
102
RTVSPost2010PropOp41
 70
     0
102
RTVSPost2010Prop42
 90
       50
102
RTVSPost2010PropOp42
 70
     0
102
RTVSPost2010Prop43
 90
        3
102
RTVSPost2010PropOp43
 70
     0
102
RTVSPost2010Prop44ColorIndex
 90
        5
102
RTVSPost2010Prop44ColorRGB
 90
      255
102
RTVSPost2010PropOp44
 70
     0
102
RTVSPost2010Prop45
280
     0
102
RTVSPost2010PropOp45
 70
     0
102
RTVSPost2010Prop46
 90
       50
102
RTVSPost2010PropOp46
 70
     0
102
RTVSPost2010Prop47
 90
       50
102
RTVSPost2010PropOp47
 70
     0
102
RTVSPost2010Prop48
 90
       50
102
RTVSPost2010PropOp48
 70
     0
102
RTVSPost2010Prop49
280
     0
102
RTVSPost2010PropOp49
 70
     0
102
RTVSPost2010Prop50
 90
       50
102
RTVSPost2010PropOp50
 70
     0
102
RTVSPost2010Prop51ColorIndex
 90
      256
102
RTVSPost2010Prop51ColorRGB
 90
-16777216
102
RTVSPost2010PropOp51
 70
     0
102
RTVSPost2010Prop52
140
1.0
102
RTVSPost2010PropOp52
 70
     0
102
RTVSPost2010Prop53
 90
        2
102
RTVSPost2010PropOp53
 70
     0
102
RTVSPost2010Prop54
  1
strokes_ogs.tif
102
RTVSPost2010PropOp54
 70
     0
102
RTVSPost2010Prop55
280
     0
102
RTVSPost2010PropOp55
 70
     0
102
RTVSPost2010Prop56
140
1.0
102
RTVSPost2010PropOp56
 70
     0
102
RTVSPost2010Prop57
140
1.0
102
RTVSPost2010PropOp57
 70
     0
  0
XRECORD
  5
50B
102
{ACAD_REACTORS
330
50A
102
}
330
50A
100
AcDbXrecord
280
     1
102
RTVSPropertyOp0
 70
     1
102
RTVSPropertyOp1
 70
     1
102
RTVSPropertyOp2
 70
     1
102
RTVSPropertyOp3
 70
     1
102
RTVSPropertyOp4
 70
     1
102
RTVSPropertyOp5
 70
     1
102
RTVSPropertyOp6
 70
     1
102
RTVSPropertyOp7
 70
     1
102
RTVSPropertyOp8
 70
     1
102
RTVSPropertyOp9
 70
     1
102
RTVSPropertyOp10
 70
     1
102
RTVSPropertyOp11
 70
     1
102
RTVSPropertyOp12
 70
     1
102
RTVSPropertyOp13
 70
     1
102
RTVSPropertyOp14
 70
     1
102
RTVSPropertyOp15
 70
     1
102
RTVSPropertyOp16
 70
     1
102
RTVSPropertyOp17
 70
     1
102
RTVSPropertyOp18
 70
     1
102
RTVSPropertyOp19
 70
     1
102
RTVSPropertyOp20
 70
     1
102
RTVSPropertyOp21
 70
     1
102
RTVSPropertyOp22
 70
     1
102
RTVSPropertyOp23
 70
     1
102
RTVSPropertyOp24
 70
     1
102
RTVSPropertyOp25
 70
     1
102
RTVSPropertyOp26
 70
     1
102
RTVSPropertyOp27
 70
     1
102
RTVSPropertyOp28
 70
     1
102
RTVSPropertyOp29
 70
     1
102
RTVSPropertyOp30
 70
     1
102
RTVSPropertyOp31
 70
     1
102
RTVSPropertyOp32
 70
     1
102
RTVSPropertyOp33
 70
     1
102
RTVSPropertyOp34
 70
     1
102
RTVSPropertyOp35
 70
     1
102
RTVSPropertyOp36
 70
     1
102
RTVSPropertyOp37
 70
     1
102
RTVSPropertyOp38
 70
     1
102
RTVSPropertyOp39
 70
     1
102
RTVSPropertyOp40
 70
     1
102
RTVSPropertyOp41
 70
     1
102
RTVSPropertyOp42
 70
     1
102
RTVSPropertyOp43
 70
     1
102
RTVSPropertyOp44
 70
     1
102
RTVSPropertyOp45
 70
     1
102
RTVSPropertyOp46
 70
     1
102
RTVSPropertyOp47
 70
     1
102
RTVSPropertyOp48
 70
     1
102
RTVSPropertyOp49
 70
     1
102
RTVSPropertyOp50
 70
     1
102
RTVSPropertyOp51
 70
     0
102
RTVSPropertyOp52
 70
     0
102
RTVSPropertyOp53
 70
     1
102
RTVSPropertyOp54
 70
     1
102
RTVSPropertyOp55
 70
     1
102
RTVSPropertyOp56
 70
     1
102
RTVSPropertyOp57
 70
     1
102
RTVSPost2010Prop28
280
     0
102
RTVSPost2010PropOp28
 70
     1
102
RTVSPost2010Prop29
280
     1
102
RTVSPost2010PropOp29
 70
     1
102
RTVSPost2010Prop30
280
     1
102
RTVSPost2010PropOp30
 70
     1
102
RTVSPost2010Prop31
280
     0
102
RTVSPost2010PropOp31
 70
     1
102
RTVSPost2010Prop32
280
     0
102
RTVSPost2010PropOp32
 70
     1
102
RTVSPost2010Prop33
280
     0
102
RTVSPost2010PropOp33
 70
     1
102
RTVSPost2010Prop34
280
     0
102
RTVSPost2010PropOp34
 70
     1
102
RTVSPost2010Prop35
280
     0
102
RTVSPost2010PropOp35
 70
     1
102
RTVSPost2010Prop36
280
     0
102
RTVSPost2010PropOp36
 70
     1
102
RTVSPost2010Prop37
 90
       50
102
RTVSPost2010PropOp37
 70
     1
102
RTVSPost2010Prop38
140
0.0
102
RTVSPost2010PropOp38
 70
     1
102
RTVSPost2010Prop39
140
1.0
102
RTVSPost2010PropOp39
 70
     1
102
RTVSPost2010Prop40
 90
        0
102
RTVSPost2010PropOp40
 70
     1
102
RTVSPost2010Prop41ColorIndex
 90
       18
102
RTVSPost2010Prop41ColorRGB
 90
        0
102
RTVSPost2010PropOp41
 70
     1
102
RTVSPost2010Prop42
 90
       50
102
RTVSPost2010PropOp42
 70
     1
102
RTVSPost2010Prop43
 90
        3
102
RTVSPost2010PropOp43
 70
     1
102
RTVSPost2010Prop44ColorIndex
 90
        5
102
RTVSPost2010Prop44ColorRGB
 90
      255
102
RTVSPost2010PropOp44
 70
     1
102
RTVSPost2010Prop45
280
     0
102
RTVSPost2010PropOp45
 70
     1
102
RTVSPost2010Prop46
 90
       50
102
RTVSPost2010PropOp46
 70
     1
102
RTVSPost2010Prop47
 90
       50
102
RTVSPost2010PropOp47
 70
     1
102
RTVSPost2010Prop48
 90
       50
102
RTVSPost2010PropOp48
 70
     1
102
RTVSPost2010Prop49
280
     0
102
RTVSPost2010PropOp49
 70
     1
102
RTVSPost2010Prop50
 90
       50
102
RTVSPost2010PropOp50
 70
     1
102
RTVSPost2010Prop51ColorIndex
 90
      256
102
RTVSPost2010Prop51ColorRGB
 90
-16777216
102
RTVSPost2010PropOp51
 70
     0
102
RTVSPost2010Prop52
140
1.0
102
RTVSPost2010PropOp52
 70
     0
102
RTVSPost2010Prop53
 90
        2
102
RTVSPost2010PropOp53
 70
     1
102
RTVSPost2010Prop54
  1
strokes_ogs.tif
102
RTVSPost2010PropOp54
 70
     1
102
RTVSPost2010Prop55
280
     0
102
RTVSPost2010PropOp55
 70
     1
102
RTVSPost2010Prop56
140
1.0
102
RTVSPost2010PropOp56
 70
     1
102
RTVSPost2010Prop57
140
1.0
102
RTVSPost2010PropOp57
 70
     1
  0
XRECORD
  5
4EF
102
{ACAD_REACTORS
330
4EE
102
}
330
4EE
100
AcDbXrecord
280
     1
102
RTVSPropertyOp0
 70
     1
102
RTVSPropertyOp1
 70
     1
102
RTVSPropertyOp2
 70
     1
102
RTVSPropertyOp3
 70
     1
102
RTVSPropertyOp4
 70
     1
102
RTVSPropertyOp5
 70
     1
102
RTVSPropertyOp6
 70
     1
102
RTVSPropertyOp7
 70
     1
102
RTVSPropertyOp8
 70
     1
102
RTVSPropertyOp9
 70
     1
102
RTVSPropertyOp10
 70
     1
102
RTVSPropertyOp11
 70
     1
102
RTVSPropertyOp12
 70
     1
102
RTVSPropertyOp13
 70
     1
102
RTVSPropertyOp14
 70
     1
102
RTVSPropertyOp15
 70
     1
102
RTVSPropertyOp16
 70
     1
102
RTVSPropertyOp17
 70
     1
102
RTVSPropertyOp18
 70
     1
102
RTVSPropertyOp19
 70
     1
102
RTVSPropertyOp20
 70
     1
102
RTVSPropertyOp21
 70
     1
102
RTVSPropertyOp22
 70
     1
102
RTVSPropertyOp23
 70
     1
102
RTVSPropertyOp24
 70
     1
102
RTVSPropertyOp25
 70
     1
102
RTVSPropertyOp26
 70
     1
102
RTVSPropertyOp27
 70
     1
102
RTVSPropertyOp28
 70
     1
102
RTVSPropertyOp29
 70
     1
102
RTVSPropertyOp30
 70
     1
102
RTVSPropertyOp31
 70
     1
102
RTVSPropertyOp32
 70
     1
102
RTVSPropertyOp33
 70
     1
102
RTVSPropertyOp34
 70
     1
102
RTVSPropertyOp35
 70
     1
102
RTVSPropertyOp36
 70
     1
102
RTVSPropertyOp37
 70
     1
102
RTVSPropertyOp38
 70
     1
102
RTVSPropertyOp39
 70
     1
102
RTVSPropertyOp40
 70
     1
102
RTVSPropertyOp41
 70
     1
102
RTVSPropertyOp42
 70
     1
102
RTVSPropertyOp43
 70
     1
102
RTVSPropertyOp44
 70
     1
102
RTVSPropertyOp45
 70
     1
102
RTVSPropertyOp46
 70
     1
102
RTVSPropertyOp47
 70
     1
102
RTVSPropertyOp48
 70
     1
102
RTVSPropertyOp49
 70
     1
102
RTVSPropertyOp50
 70
     1
102
RTVSPropertyOp51
 70
     0
102
RTVSPropertyOp52
 70
     0
102
RTVSPropertyOp53
 70
     1
102
RTVSPropertyOp54
 70
     1
102
RTVSPropertyOp55
 70
     1
102
RTVSPropertyOp56
 70
     1
102
RTVSPropertyOp57
 70
     1
102
RTVSPost2010Prop28
280
     0
102
RTVSPost2010PropOp28
 70
     1
102
RTVSPost2010Prop29
280
     1
102
RTVSPost2010PropOp29
 70
     1
102
RTVSPost2010Prop30
280
     1
102
RTVSPost2010PropOp30
 70
     1
102
RTVSPost2010Prop31
280
     0
102
RTVSPost2010PropOp31
 70
     1
102
RTVSPost2010Prop32
280
     0
102
RTVSPost2010PropOp32
 70
     1
102
RTVSPost2010Prop33
280
     0
102
RTVSPost2010PropOp33
 70
     1
102
RTVSPost2010Prop34
280
     0
102
RTVSPost2010PropOp34
 70
     1
102
RTVSPost2010Prop35
280
     0
102
RTVSPost2010PropOp35
 70
     1
102
RTVSPost2010Prop36
280
     0
102
RTVSPost2010PropOp36
 70
     1
102
RTVSPost2010Prop37
 90
       50
102
RTVSPost2010PropOp37
 70
     1
102
RTVSPost2010Prop38
140
0.0
102
RTVSPost2010PropOp38
 70
     1
102
RTVSPost2010Prop39
140
1.0
102
RTVSPost2010PropOp39
 70
     1
102
RTVSPost2010Prop40
 90
        0
102
RTVSPost2010PropOp40
 70
     1
102
RTVSPost2010Prop41ColorIndex
 90
       18
102
RTVSPost2010Prop41ColorRGB
 90
        0
102
RTVSPost2010PropOp41
 70
     1
102
RTVSPost2010Prop42
 90
       50
102
RTVSPost2010PropOp42
 70
     1
102
RTVSPost2010Prop43
 90
        3
102
RTVSPost2010PropOp43
 70
     1
102
RTVSPost2010Prop44ColorIndex
 90
        5
102
RTVSPost2010Prop44ColorRGB
 90
      255
102
RTVSPost2010PropOp44
 70
     1
102
RTVSPost2010Prop45
280
     0
102
RTVSPost2010PropOp45
 70
     1
102
RTVSPost2010Prop46
 90
       50
102
RTVSPost2010PropOp46
 70
     1
102
RTVSPost2010Prop47
 90
       50
102
RTVSPost2010PropOp47
 70
     1
102
RTVSPost2010Prop48
 90
       50
102
RTVSPost2010PropOp48
 70
     1
102
RTVSPost2010Prop49
280
     0
102
RTVSPost2010PropOp49
 70
     1
102
RTVSPost2010Prop50
 90
       50
102
RTVSPost2010PropOp50
 70
     1
102
RTVSPost2010Prop51ColorIndex
 90
      256
102
RTVSPost2010Prop51ColorRGB
 90
-16777216
102
RTVSPost2010PropOp51
 70
     0
102
RTVSPost2010Prop52
140
1.0
102
RTVSPost2010PropOp52
 70
     0
102
RTVSPost2010Prop53
 90
        2
102
RTVSPost2010PropOp53
 70
     1
102
RTVSPost2010Prop54
  1
strokes_ogs.tif
102
RTVSPost2010PropOp54
 70
     1
102
RTVSPost2010Prop55
280
     0
102
RTVSPost2010PropOp55
 70
     1
102
RTVSPost2010Prop56
140
1.0
102
RTVSPost2010PropOp56
 70
     1
102
RTVSPost2010Prop57
140
1.0
102
RTVSPost2010PropOp57
 70
     1
  0
XRECORD
  5
4F1
102
{ACAD_REACTORS
330
4F0
102
}
330
4F0
100
AcDbXrecord
280
     1
102
RTVSPropertyOp0
 70
     1
102
RTVSPropertyOp1
 70
     1
102
RTVSPropertyOp2
 70
     1
102
RTVSPropertyOp3
 70
     1
102
RTVSPropertyOp4
 70
     1
102
RTVSPropertyOp5
 70
     1
102
RTVSPropertyOp6
 70
     1
102
RTVSPropertyOp7
 70
     1
102
RTVSPropertyOp8
 70
     1
102
RTVSPropertyOp9
 70
     1
102
RTVSPropertyOp10
 70
     1
102
RTVSPropertyOp11
 70
     1
102
RTVSPropertyOp12
 70
     1
102
RTVSPropertyOp13
 70
     1
102
RTVSPropertyOp14
 70
     1
102
RTVSPropertyOp15
 70
     1
102
RTVSPropertyOp16
 70
     1
102
RTVSPropertyOp17
 70
     1
102
RTVSPropertyOp18
 70
     1
102
RTVSPropertyOp19
 70
     1
102
RTVSPropertyOp20
 70
     1
102
RTVSPropertyOp21
 70
     1
102
RTVSPropertyOp22
 70
     1
102
RTVSPropertyOp23
 70
     1
102
RTVSPropertyOp24
 70
     1
102
RTVSPropertyOp25
 70
     1
102
RTVSPropertyOp26
 70
     1
102
RTVSPropertyOp27
 70
     1
102
RTVSPropertyOp28
 70
     1
102
RTVSPropertyOp29
 70
     1
102
RTVSPropertyOp30
 70
     1
102
RTVSPropertyOp31
 70
     1
102
RTVSPropertyOp32
 70
     1
102
RTVSPropertyOp33
 70
     1
102
RTVSPropertyOp34
 70
     1
102
RTVSPropertyOp35
 70
     1
102
RTVSPropertyOp36
 70
     1
102
RTVSPropertyOp37
 70
     1
102
RTVSPropertyOp38
 70
     1
102
RTVSPropertyOp39
 70
     1
102
RTVSPropertyOp40
 70
     1
102
RTVSPropertyOp41
 70
     1
102
RTVSPropertyOp42
 70
     1
102
RTVSPropertyOp43
 70
     1
102
RTVSPropertyOp44
 70
     1
102
RTVSPropertyOp45
 70
     1
102
RTVSPropertyOp46
 70
     1
102
RTVSPropertyOp47
 70
     1
102
RTVSPropertyOp48
 70
     1
102
RTVSPropertyOp49
 70
     1
102
RTVSPropertyOp50
 70
     1
102
RTVSPropertyOp51
 70
     0
102
RTVSPropertyOp52
 70
     0
102
RTVSPropertyOp53
 70
     1
102
RTVSPropertyOp54
 70
     1
102
RTVSPropertyOp55
 70
     1
102
RTVSPropertyOp56
 70
     1
102
RTVSPropertyOp57
 70
     1
102
RTVSPost2010Prop28
280
     0
102
RTVSPost2010PropOp28
 70
     1
102
RTVSPost2010Prop29
280
     1
102
RTVSPost2010PropOp29
 70
     1
102
RTVSPost2010Prop30
280
     1
102
RTVSPost2010PropOp30
 70
     1
102
RTVSPost2010Prop31
280
     0
102
RTVSPost2010PropOp31
 70
     1
102
RTVSPost2010Prop32
280
     0
102
RTVSPost2010PropOp32
 70
     1
102
RTVSPost2010Prop33
280
     0
102
RTVSPost2010PropOp33
 70
     1
102
RTVSPost2010Prop34
280
     0
102
RTVSPost2010PropOp34
 70
     1
102
RTVSPost2010Prop35
280
     0
102
RTVSPost2010PropOp35
 70
     1
102
RTVSPost2010Prop36
280
     0
102
RTVSPost2010PropOp36
 70
     1
102
RTVSPost2010Prop37
 90
       50
102
RTVSPost2010PropOp37
 70
     1
102
RTVSPost2010Prop38
140
0.0
102
RTVSPost2010PropOp38
 70
     1
102
RTVSPost2010Prop39
140
1.0
102
RTVSPost2010PropOp39
 70
     1
102
RTVSPost2010Prop40
 90
        0
102
RTVSPost2010PropOp40
 70
     1
102
RTVSPost2010Prop41ColorIndex
 90
       18
102
RTVSPost2010Prop41ColorRGB
 90
        0
102
RTVSPost2010PropOp41
 70
     1
102
RTVSPost2010Prop42
 90
       50
102
RTVSPost2010PropOp42
 70
     1
102
RTVSPost2010Prop43
 90
        3
102
RTVSPost2010PropOp43
 70
     1
102
RTVSPost2010Prop44ColorIndex
 90
        5
102
RTVSPost2010Prop44ColorRGB
 90
      255
102
RTVSPost2010PropOp44
 70
     1
102
RTVSPost2010Prop45
280
     0
102
RTVSPost2010PropOp45
 70
     1
102
RTVSPost2010Prop46
 90
       50
102
RTVSPost2010PropOp46
 70
     1
102
RTVSPost2010Prop47
 90
       50
102
RTVSPost2010PropOp47
 70
     1
102
RTVSPost2010Prop48
 90
       50
102
RTVSPost2010PropOp48
 70
     1
102
RTVSPost2010Prop49
280
     0
102
RTVSPost2010PropOp49
 70
     1
102
RTVSPost2010Prop50
 90
       50
102
RTVSPost2010PropOp50
 70
     1
102
RTVSPost2010Prop51ColorIndex
 90
      256
102
RTVSPost2010Prop51ColorRGB
 90
-16777216
102
RTVSPost2010PropOp51
 70
     0
102
RTVSPost2010Prop52
140
1.0
102
RTVSPost2010PropOp52
 70
     0
102
RTVSPost2010Prop53
 90
        2
102
RTVSPost2010PropOp53
 70
     1
102
RTVSPost2010Prop54
  1
strokes_ogs.tif
102
RTVSPost2010PropOp54
 70
     1
102
RTVSPost2010Prop55
280
     0
102
RTVSPost2010PropOp55
 70
     1
102
RTVSPost2010Prop56
140
1.0
102
RTVSPost2010PropOp56
 70
     1
102
RTVSPost2010Prop57
140
1.0
102
RTVSPost2010PropOp57
 70
     1
  0
XRECORD
  5
4F3
102
{ACAD_REACTORS
330
4F2
102
}
330
4F2
100
AcDbXrecord
280
     1
102
RTVSPropertyOp0
 70
     1
102
RTVSPropertyOp1
 70
     1
102
RTVSPropertyOp2
 70
     1
102
RTVSPropertyOp3
 70
     1
102
RTVSPropertyOp4
 70
     1
102
RTVSPropertyOp5
 70
     1
102
RTVSPropertyOp6
 70
     1
102
RTVSPropertyOp7
 70
     1
102
RTVSPropertyOp8
 70
     1
102
RTVSPropertyOp9
 70
     1
102
RTVSPropertyOp10
 70
     1
102
RTVSPropertyOp11
 70
     1
102
RTVSPropertyOp12
 70
     1
102
RTVSPropertyOp13
 70
     1
102
RTVSPropertyOp14
 70
     1
102
RTVSPropertyOp15
 70
     1
102
RTVSPropertyOp16
 70
     1
102
RTVSPropertyOp17
 70
     1
102
RTVSPropertyOp18
 70
     1
102
RTVSPropertyOp19
 70
     1
102
RTVSPropertyOp20
 70
     1
102
RTVSPropertyOp21
 70
     1
102
RTVSPropertyOp22
 70
     1
102
RTVSPropertyOp23
 70
     1
102
RTVSPropertyOp24
 70
     1
102
RTVSPropertyOp25
 70
     1
102
RTVSPropertyOp26
 70
     1
102
RTVSPropertyOp27
 70
     1
102
RTVSPropertyOp28
 70
     1
102
RTVSPropertyOp29
 70
     1
102
RTVSPropertyOp30
 70
     1
102
RTVSPropertyOp31
 70
     1
102
RTVSPropertyOp32
 70
     1
102
RTVSPropertyOp33
 70
     1
102
RTVSPropertyOp34
 70
     1
102
RTVSPropertyOp35
 70
     1
102
RTVSPropertyOp36
 70
     1
102
RTVSPropertyOp37
 70
     1
102
RTVSPropertyOp38
 70
     1
102
RTVSPropertyOp39
 70
     1
102
RTVSPropertyOp40
 70
     1
102
RTVSPropertyOp41
 70
     1
102
RTVSPropertyOp42
 70
     1
102
RTVSPropertyOp43
 70
     1
102
RTVSPropertyOp44
 70
     1
102
RTVSPropertyOp45
 70
     1
102
RTVSPropertyOp46
 70
     1
102
RTVSPropertyOp47
 70
     1
102
RTVSPropertyOp48
 70
     1
102
RTVSPropertyOp49
 70
     1
102
RTVSPropertyOp50
 70
     1
102
RTVSPropertyOp51
 70
     0
102
RTVSPropertyOp52
 70
     0
102
RTVSPropertyOp53
 70
     1
102
RTVSPropertyOp54
 70
     1
102
RTVSPropertyOp55
 70
     1
102
RTVSPropertyOp56
 70
     1
102
RTVSPropertyOp57
 70
     1
102
RTVSPost2010Prop28
280
     0
102
RTVSPost2010PropOp28
 70
     1
102
RTVSPost2010Prop29
280
     1
102
RTVSPost2010PropOp29
 70
     1
102
RTVSPost2010Prop30
280
     1
102
RTVSPost2010PropOp30
 70
     1
102
RTVSPost2010Prop31
280
     0
102
RTVSPost2010PropOp31
 70
     1
102
RTVSPost2010Prop32
280
     0
102
RTVSPost2010PropOp32
 70
     1
102
RTVSPost2010Prop33
280
     0
102
RTVSPost2010PropOp33
 70
     1
102
RTVSPost2010Prop34
280
     0
102
RTVSPost2010PropOp34
 70
     1
102
RTVSPost2010Prop35
280
     0
102
RTVSPost2010PropOp35
 70
     1
102
RTVSPost2010Prop36
280
     0
102
RTVSPost2010PropOp36
 70
     1
102
RTVSPost2010Prop37
 90
       50
102
RTVSPost2010PropOp37
 70
     1
102
RTVSPost2010Prop38
140
0.0
102
RTVSPost2010PropOp38
 70
     1
102
RTVSPost2010Prop39
140
1.0
102
RTVSPost2010PropOp39
 70
     1
102
RTVSPost2010Prop40
 90
        0
102
RTVSPost2010PropOp40
 70
     1
102
RTVSPost2010Prop41ColorIndex
 90
       18
102
RTVSPost2010Prop41ColorRGB
 90
        0
102
RTVSPost2010PropOp41
 70
     1
102
RTVSPost2010Prop42
 90
       50
102
RTVSPost2010PropOp42
 70
     1
102
RTVSPost2010Prop43
 90
        3
102
RTVSPost2010PropOp43
 70
     1
102
RTVSPost2010Prop44ColorIndex
 90
        5
102
RTVSPost2010Prop44ColorRGB
 90
      255
102
RTVSPost2010PropOp44
 70
     1
102
RTVSPost2010Prop45
280
     0
102
RTVSPost2010PropOp45
 70
     1
102
RTVSPost2010Prop46
 90
       50
102
RTVSPost2010PropOp46
 70
     1
102
RTVSPost2010Prop47
 90
       50
102
RTVSPost2010PropOp47
 70
     1
102
RTVSPost2010Prop48
 90
       50
102
RTVSPost2010PropOp48
 70
     1
102
RTVSPost2010Prop49
280
     0
102
RTVSPost2010PropOp49
 70
     1
102
RTVSPost2010Prop50
 90
       50
102
RTVSPost2010PropOp50
 70
     1
102
RTVSPost2010Prop51ColorIndex
 90
      256
102
RTVSPost2010Prop51ColorRGB
 90
-16777216
102
RTVSPost2010PropOp51
 70
     0
102
RTVSPost2010Prop52
140
1.0
102
RTVSPost2010PropOp52
 70
     0
102
RTVSPost2010Prop53
 90
        2
102
RTVSPost2010PropOp53
 70
     1
102
RTVSPost2010Prop54
  1
strokes_ogs.tif
102
RTVSPost2010PropOp54
 70
     1
102
RTVSPost2010Prop55
280
     0
102
RTVSPost2010PropOp55
 70
     1
102
RTVSPost2010Prop56
140
1.0
102
RTVSPost2010PropOp56
 70
     1
102
RTVSPost2010Prop57
140
1.0
102
RTVSPost2010PropOp57
 70
     1
  0
XRECORD
  5
4F5
102
{ACAD_REACTORS
330
4F4
102
}
330
4F4
100
AcDbXrecord
280
     1
102
RTVSPropertyOp0
 70
     1
102
RTVSPropertyOp1
 70
     1
102
RTVSPropertyOp2
 70
     1
102
RTVSPropertyOp3
 70
     1
102
RTVSPropertyOp4
 70
     1
102
RTVSPropertyOp5
 70
     1
102
RTVSPropertyOp6
 70
     1
102
RTVSPropertyOp7
 70
     1
102
RTVSPropertyOp8
 70
     1
102
RTVSPropertyOp9
 70
     1
102
RTVSPropertyOp10
 70
     1
102
RTVSPropertyOp11
 70
     1
102
RTVSPropertyOp12
 70
     1
102
RTVSPropertyOp13
 70
     1
102
RTVSPropertyOp14
 70
     1
102
RTVSPropertyOp15
 70
     1
102
RTVSPropertyOp16
 70
     1
102
RTVSPropertyOp17
 70
     1
102
RTVSPropertyOp18
 70
     1
102
RTVSPropertyOp19
 70
     1
102
RTVSPropertyOp20
 70
     1
102
RTVSPropertyOp21
 70
     1
102
RTVSPropertyOp22
 70
     1
102
RTVSPropertyOp23
 70
     1
102
RTVSPropertyOp24
 70
     1
102
RTVSPropertyOp25
 70
     1
102
RTVSPropertyOp26
 70
     1
102
RTVSPropertyOp27
 70
     1
102
RTVSPropertyOp28
 70
     1
102
RTVSPropertyOp29
 70
     1
102
RTVSPropertyOp30
 70
     1
102
RTVSPropertyOp31
 70
     1
102
RTVSPropertyOp32
 70
     1
102
RTVSPropertyOp33
 70
     1
102
RTVSPropertyOp34
 70
     1
102
RTVSPropertyOp35
 70
     1
102
RTVSPropertyOp36
 70
     1
102
RTVSPropertyOp37
 70
     1
102
RTVSPropertyOp38
 70
     1
102
RTVSPropertyOp39
 70
     1
102
RTVSPropertyOp40
 70
     1
102
RTVSPropertyOp41
 70
     1
102
RTVSPropertyOp42
 70
     1
102
RTVSPropertyOp43
 70
     1
102
RTVSPropertyOp44
 70
     1
102
RTVSPropertyOp45
 70
     1
102
RTVSPropertyOp46
 70
     1
102
RTVSPropertyOp47
 70
     1
102
RTVSPropertyOp48
 70
     1
102
RTVSPropertyOp49
 70
     1
102
RTVSPropertyOp50
 70
     1
102
RTVSPropertyOp51
 70
     0
102
RTVSPropertyOp52
 70
     0
102
RTVSPropertyOp53
 70
     1
102
RTVSPropertyOp54
 70
     1
102
RTVSPropertyOp55
 70
     1
102
RTVSPropertyOp56
 70
     1
102
RTVSPropertyOp57
 70
     1
102
RTVSPost2010Prop28
280
     0
102
RTVSPost2010PropOp28
 70
     1
102
RTVSPost2010Prop29
280
     1
102
RTVSPost2010PropOp29
 70
     1
102
RTVSPost2010Prop30
280
     1
102
RTVSPost2010PropOp30
 70
     1
102
RTVSPost2010Prop31
280
     0
102
RTVSPost2010PropOp31
 70
     1
102
RTVSPost2010Prop32
280
     0
102
RTVSPost2010PropOp32
 70
     1
102
RTVSPost2010Prop33
280
     0
102
RTVSPost2010PropOp33
 70
     1
102
RTVSPost2010Prop34
280
     0
102
RTVSPost2010PropOp34
 70
     1
102
RTVSPost2010Prop35
280
     0
102
RTVSPost2010PropOp35
 70
     1
102
RTVSPost2010Prop36
280
     0
102
RTVSPost2010PropOp36
 70
     1
102
RTVSPost2010Prop37
 90
       50
102
RTVSPost2010PropOp37
 70
     1
102
RTVSPost2010Prop38
140
0.0
102
RTVSPost2010PropOp38
 70
     1
102
RTVSPost2010Prop39
140
1.0
102
RTVSPost2010PropOp39
 70
     1
102
RTVSPost2010Prop40
 90
        0
102
RTVSPost2010PropOp40
 70
     1
102
RTVSPost2010Prop41ColorIndex
 90
       18
102
RTVSPost2010Prop41ColorRGB
 90
        0
102
RTVSPost2010PropOp41
 70
     1
102
RTVSPost2010Prop42
 90
       50
102
RTVSPost2010PropOp42
 70
     1
102
RTVSPost2010Prop43
 90
        3
102
RTVSPost2010PropOp43
 70
     1
102
RTVSPost2010Prop44ColorIndex
 90
        5
102
RTVSPost2010Prop44ColorRGB
 90
      255
102
RTVSPost2010PropOp44
 70
     1
102
RTVSPost2010Prop45
280
     0
102
RTVSPost2010PropOp45
 70
     1
102
RTVSPost2010Prop46
 90
       50
102
RTVSPost2010PropOp46
 70
     1
102
RTVSPost2010Prop47
 90
       50
102
RTVSPost2010PropOp47
 70
     1
102
RTVSPost2010Prop48
 90
       50
102
RTVSPost2010PropOp48
 70
     1
102
RTVSPost2010Prop49
280
     0
102
RTVSPost2010PropOp49
 70
     1
102
RTVSPost2010Prop50
 90
       50
102
RTVSPost2010PropOp50
 70
     1
102
RTVSPost2010Prop51ColorIndex
 90
      256
102
RTVSPost2010Prop51ColorRGB
 90
-16777216
102
RTVSPost2010PropOp51
 70
     0
102
RTVSPost2010Prop52
140
1.0
102
RTVSPost2010PropOp52
 70
     0
102
RTVSPost2010Prop53
 90
        2
102
RTVSPost2010PropOp53
 70
     1
102
RTVSPost2010Prop54
  1
strokes_ogs.tif
102
RTVSPost2010PropOp54
 70
     1
102
RTVSPost2010Prop55
280
     0
102
RTVSPost2010PropOp55
 70
     1
102
RTVSPost2010Prop56
140
1.0
102
RTVSPost2010PropOp56
 70
     1
102
RTVSPost2010Prop57
140
1.0
102
RTVSPost2010PropOp57
 70
     1
  0
XRECORD
  5
4FB
102
{ACAD_REACTORS
330
4FA
102
}
330
4FA
100
AcDbXrecord
280
     1
102
RTVSPropertyOp0
 70
     1
102
RTVSPropertyOp1
 70
     1
102
RTVSPropertyOp2
 70
     1
102
RTVSPropertyOp3
 70
     1
102
RTVSPropertyOp4
 70
     1
102
RTVSPropertyOp5
 70
     1
102
RTVSPropertyOp6
 70
     1
102
RTVSPropertyOp7
 70
     1
102
RTVSPropertyOp8
 70
     1
102
RTVSPropertyOp9
 70
     1
102
RTVSPropertyOp10
 70
     1
102
RTVSPropertyOp11
 70
     1
102
RTVSPropertyOp12
 70
     1
102
RTVSPropertyOp13
 70
     1
102
RTVSPropertyOp14
 70
     1
102
RTVSPropertyOp15
 70
     1
102
RTVSPropertyOp16
 70
     1
102
RTVSPropertyOp17
 70
     1
102
RTVSPropertyOp18
 70
     1
102
RTVSPropertyOp19
 70
     1
102
RTVSPropertyOp20
 70
     1
102
RTVSPropertyOp21
 70
     1
102
RTVSPropertyOp22
 70
     1
102
RTVSPropertyOp23
 70
     1
102
RTVSPropertyOp24
 70
     1
102
RTVSPropertyOp25
 70
     1
102
RTVSPropertyOp26
 70
     1
102
RTVSPropertyOp27
 70
     1
102
RTVSPropertyOp28
 70
     1
102
RTVSPropertyOp29
 70
     1
102
RTVSPropertyOp30
 70
     1
102
RTVSPropertyOp31
 70
     1
102
RTVSPropertyOp32
 70
     1
102
RTVSPropertyOp33
 70
     1
102
RTVSPropertyOp34
 70
     1
102
RTVSPropertyOp35
 70
     1
102
RTVSPropertyOp36
 70
     1
102
RTVSPropertyOp37
 70
     1
102
RTVSPropertyOp38
 70
     1
102
RTVSPropertyOp39
 70
     1
102
RTVSPropertyOp40
 70
     1
102
RTVSPropertyOp41
 70
     1
102
RTVSPropertyOp42
 70
     1
102
RTVSPropertyOp43
 70
     1
102
RTVSPropertyOp44
 70
     1
102
RTVSPropertyOp45
 70
     1
102
RTVSPropertyOp46
 70
     1
102
RTVSPropertyOp47
 70
     1
102
RTVSPropertyOp48
 70
     1
102
RTVSPropertyOp49
 70
     1
102
RTVSPropertyOp50
 70
     1
102
RTVSPropertyOp51
 70
     0
102
RTVSPropertyOp52
 70
     0
102
RTVSPropertyOp53
 70
     1
102
RTVSPropertyOp54
 70
     1
102
RTVSPropertyOp55
 70
     1
102
RTVSPropertyOp56
 70
     1
102
RTVSPropertyOp57
 70
     1
102
RTVSPost2010Prop28
280
     0
102
RTVSPost2010PropOp28
 70
     1
102
RTVSPost2010Prop29
280
     1
102
RTVSPost2010PropOp29
 70
     1
102
RTVSPost2010Prop30
280
     1
102
RTVSPost2010PropOp30
 70
     1
102
RTVSPost2010Prop31
280
     0
102
RTVSPost2010PropOp31
 70
     1
102
RTVSPost2010Prop32
280
     0
102
RTVSPost2010PropOp32
 70
     1
102
RTVSPost2010Prop33
280
     0
102
RTVSPost2010PropOp33
 70
     1
102
RTVSPost2010Prop34
280
     0
102
RTVSPost2010PropOp34
 70
     1
102
RTVSPost2010Prop35
280
     0
102
RTVSPost2010PropOp35
 70
     1
102
RTVSPost2010Prop36
280
     0
102
RTVSPost2010PropOp36
 70
     1
102
RTVSPost2010Prop37
 90
       50
102
RTVSPost2010PropOp37
 70
     1
102
RTVSPost2010Prop38
140
0.0
102
RTVSPost2010PropOp38
 70
     1
102
RTVSPost2010Prop39
140
1.0
102
RTVSPost2010PropOp39
 70
     1
102
RTVSPost2010Prop40
 90
        0
102
RTVSPost2010PropOp40
 70
     1
102
RTVSPost2010Prop41ColorIndex
 90
       18
102
RTVSPost2010Prop41ColorRGB
 90
        0
102
RTVSPost2010PropOp41
 70
     1
102
RTVSPost2010Prop42
 90
       50
102
RTVSPost2010PropOp42
 70
     1
102
RTVSPost2010Prop43
 90
        3
102
RTVSPost2010PropOp43
 70
     1
102
RTVSPost2010Prop44ColorIndex
 90
        5
102
RTVSPost2010Prop44ColorRGB
 90
      255
102
RTVSPost2010PropOp44
 70
     1
102
RTVSPost2010Prop45
280
     0
102
RTVSPost2010PropOp45
 70
     1
102
RTVSPost2010Prop46
 90
       50
102
RTVSPost2010PropOp46
 70
     1
102
RTVSPost2010Prop47
 90
       50
102
RTVSPost2010PropOp47
 70
     1
102
RTVSPost2010Prop48
 90
       50
102
RTVSPost2010PropOp48
 70
     1
102
RTVSPost2010Prop49
280
     0
102
RTVSPost2010PropOp49
 70
     1
102
RTVSPost2010Prop50
 90
       50
102
RTVSPost2010PropOp50
 70
     1
102
RTVSPost2010Prop51ColorIndex
 90
      256
102
RTVSPost2010Prop51ColorRGB
 90
-16777216
102
RTVSPost2010PropOp51
 70
     0
102
RTVSPost2010Prop52
140
1.0
102
RTVSPost2010PropOp52
 70
     0
102
RTVSPost2010Prop53
 90
        2
102
RTVSPost2010PropOp53
 70
     1
102
RTVSPost2010Prop54
  1
strokes_ogs.tif
102
RTVSPost2010PropOp54
 70
     1
102
RTVSPost2010Prop55
280
     0
102
RTVSPost2010PropOp55
 70
     1
102
RTVSPost2010Prop56
140
1.0
102
RTVSPost2010PropOp56
 70
     1
102
RTVSPost2010Prop57
140
1.0
102
RTVSPost2010PropOp57
 70
     1
  0
XRECORD
  5
50F
102
{ACAD_REACTORS
330
50E
102
}
330
50E
100
AcDbXrecord
280
     1
102
RTVSPropertyOp0
 70
     0
102
RTVSPropertyOp1
 70
     0
102
RTVSPropertyOp2
 70
     0
102
RTVSPropertyOp3
 70
     0
102
RTVSPropertyOp4
 70
     0
102
RTVSPropertyOp5
 70
     0
102
RTVSPropertyOp6
 70
     0
102
RTVSPropertyOp7
 70
     0
102
RTVSPropertyOp8
 70
     0
102
RTVSPropertyOp9
 70
     0
102
RTVSPropertyOp10
 70
     0
102
RTVSPropertyOp11
 70
     0
102
RTVSPropertyOp12
 70
     0
102
RTVSPropertyOp13
 70
     0
102
RTVSPropertyOp14
 70
     2
102
RTVSPropertyOp15
 70
     0
102
RTVSPropertyOp16
 70
     0
102
RTVSPropertyOp17
 70
     0
102
RTVSPropertyOp18
 70
     0
102
RTVSPropertyOp19
 70
     0
102
RTVSPropertyOp20
 70
     0
102
RTVSPropertyOp21
 70
     0
102
RTVSPropertyOp22
 70
     0
102
RTVSPropertyOp23
 70
     0
102
RTVSPropertyOp24
 70
     0
102
RTVSPropertyOp25
 70
     0
102
RTVSPropertyOp26
 70
     0
102
RTVSPropertyOp27
 70
     0
102
RTVSPropertyOp28
 70
     0
102
RTVSPropertyOp29
 70
     0
102
RTVSPropertyOp30
 70
     0
102
RTVSPropertyOp31
 70
     0
102
RTVSPropertyOp32
 70
     0
102
RTVSPropertyOp33
 70
     0
102
RTVSPropertyOp34
 70
     0
102
RTVSPropertyOp35
 70
     0
102
RTVSPropertyOp36
 70
     0
102
RTVSPropertyOp37
 70
     0
102
RTVSPropertyOp38
 70
     0
102
RTVSPropertyOp39
 70
     0
102
RTVSPropertyOp40
 70
     0
102
RTVSPropertyOp41
 70
     0
102
RTVSPropertyOp42
 70
     0
102
RTVSPropertyOp43
 70
     0
102
RTVSPropertyOp44
 70
     0
102
RTVSPropertyOp45
 70
     0
102
RTVSPropertyOp46
 70
     0
102
RTVSPropertyOp47
 70
     0
102
RTVSPropertyOp48
 70
     0
102
RTVSPropertyOp49
 70
     0
102
RTVSPropertyOp50
 70
     0
102
RTVSPropertyOp51
 70
     0
102
RTVSPropertyOp52
 70
     0
102
RTVSPropertyOp53
 70
     0
102
RTVSPropertyOp54
 70
     0
102
RTVSPropertyOp55
 70
     0
102
RTVSPropertyOp56
 70
     0
102
RTVSPropertyOp57
 70
     0
102
RTVSPost2010Prop28
280
     0
102
RTVSPost2010PropOp28
 70
     0
102
RTVSPost2010Prop29
280
     1
102
RTVSPost2010PropOp29
 70
     0
102
RTVSPost2010Prop30
280
     1
102
RTVSPost2010PropOp30
 70
     0
102
RTVSPost2010Prop31
280
     0
102
RTVSPost2010PropOp31
 70
     0
102
RTVSPost2010Prop32
280
     0
102
RTVSPost2010PropOp32
 70
     0
102
RTVSPost2010Prop33
280
     0
102
RTVSPost2010PropOp33
 70
     0
102
RTVSPost2010Prop34
280
     0
102
RTVSPost2010PropOp34
 70
     0
102
RTVSPost2010Prop35
280
     0
102
RTVSPost2010PropOp35
 70
     0
102
RTVSPost2010Prop36
280
     0
102
RTVSPost2010PropOp36
 70
     0
102
RTVSPost2010Prop37
 90
       50
102
RTVSPost2010PropOp37
 70
     0
102
RTVSPost2010Prop38
140
0.0
102
RTVSPost2010PropOp38
 70
     0
102
RTVSPost2010Prop39
140
1.0
102
RTVSPost2010PropOp39
 70
     0
102
RTVSPost2010Prop40
 90
        0
102
RTVSPost2010PropOp40
 70
     0
102
RTVSPost2010Prop41ColorIndex
 90
       18
102
RTVSPost2010Prop41ColorRGB
 90
        0
102
RTVSPost2010PropOp41
 70
     0
102
RTVSPost2010Prop42
 90
       50
102
RTVSPost2010PropOp42
 70
     0
102
RTVSPost2010Prop43
 90
        3
102
RTVSPost2010PropOp43
 70
     0
102
RTVSPost2010Prop44ColorIndex
 90
        5
102
RTVSPost2010Prop44ColorRGB
 90
      255
102
RTVSPost2010PropOp44
 70
     0
102
RTVSPost2010Prop45
280
     0
102
RTVSPost2010PropOp45
 70
     0
102
RTVSPost2010Prop46
 90
       50
102
RTVSPost2010PropOp46
 70
     0
102
RTVSPost2010Prop47
 90
       50
102
RTVSPost2010PropOp47
 70
     0
102
RTVSPost2010Prop48
 90
       50
102
RTVSPost2010PropOp48
 70
     0
102
RTVSPost2010Prop49
280
     0
102
RTVSPost2010PropOp49
 70
     0
102
RTVSPost2010Prop50
 90
       50
102
RTVSPost2010PropOp50
 70
     0
102
RTVSPost2010Prop51ColorIndex
 90
      256
102
RTVSPost2010Prop51ColorRGB
 90
-16777216
102
RTVSPost2010PropOp51
 70
     0
102
RTVSPost2010Prop52
140
1.0
102
RTVSPost2010PropOp52
 70
     0
102
RTVSPost2010Prop53
 90
        2
102
RTVSPost2010PropOp53
 70
     0
102
RTVSPost2010Prop54
  1
strokes_ogs.tif
102
RTVSPost2010PropOp54
 70
     0
102
RTVSPost2010Prop55
280
     0
102
RTVSPost2010PropOp55
 70
     0
102
RTVSPost2010Prop56
140
1.0
102
RTVSPost2010PropOp56
 70
     0
102
RTVSPost2010Prop57
140
1.0
102
RTVSPost2010PropOp57
 70
     0
  0
XRECORD
  5
509
102
{ACAD_REACTORS
330
508
102
}
330
508
100
AcDbXrecord
280
     1
102
RTVSPropertyOp0
 70
     1
102
RTVSPropertyOp1
 70
     1
102
RTVSPropertyOp2
 70
     1
102
RTVSPropertyOp3
 70
     1
102
RTVSPropertyOp4
 70
     1
102
RTVSPropertyOp5
 70
     1
102
RTVSPropertyOp6
 70
     1
102
RTVSPropertyOp7
 70
     1
102
RTVSPropertyOp8
 70
     1
102
RTVSPropertyOp9
 70
     1
102
RTVSPropertyOp10
 70
     1
102
RTVSPropertyOp11
 70
     1
102
RTVSPropertyOp12
 70
     1
102
RTVSPropertyOp13
 70
     1
102
RTVSPropertyOp14
 70
     1
102
RTVSPropertyOp15
 70
     1
102
RTVSPropertyOp16
 70
     1
102
RTVSPropertyOp17
 70
     1
102
RTVSPropertyOp18
 70
     1
102
RTVSPropertyOp19
 70
     1
102
RTVSPropertyOp20
 70
     1
102
RTVSPropertyOp21
 70
     1
102
RTVSPropertyOp22
 70
     1
102
RTVSPropertyOp23
 70
     1
102
RTVSPropertyOp24
 70
     1
102
RTVSPropertyOp25
 70
     1
102
RTVSPropertyOp26
 70
     1
102
RTVSPropertyOp27
 70
     1
102
RTVSPropertyOp28
 70
     1
102
RTVSPropertyOp29
 70
     1
102
RTVSPropertyOp30
 70
     1
102
RTVSPropertyOp31
 70
     1
102
RTVSPropertyOp32
 70
     1
102
RTVSPropertyOp33
 70
     1
102
RTVSPropertyOp34
 70
     1
102
RTVSPropertyOp35
 70
     1
102
RTVSPropertyOp36
 70
     1
102
RTVSPropertyOp37
 70
     1
102
RTVSPropertyOp38
 70
     1
102
RTVSPropertyOp39
 70
     1
102
RTVSPropertyOp40
 70
     1
102
RTVSPropertyOp41
 70
     1
102
RTVSPropertyOp42
 70
     1
102
RTVSPropertyOp43
 70
     1
102
RTVSPropertyOp44
 70
     1
102
RTVSPropertyOp45
 70
     1
102
RTVSPropertyOp46
 70
     1
102
RTVSPropertyOp47
 70
     1
102
RTVSPropertyOp48
 70
     1
102
RTVSPropertyOp49
 70
     1
102
RTVSPropertyOp50
 70
     1
102
RTVSPropertyOp51
 70
     0
102
RTVSPropertyOp52
 70
     0
102
RTVSPropertyOp53
 70
     1
102
RTVSPropertyOp54
 70
     1
102
RTVSPropertyOp55
 70
     1
102
RTVSPropertyOp56
 70
     1
102
RTVSPropertyOp57
 70
     1
102
RTVSPost2010Prop28
280
     0
102
RTVSPost2010PropOp28
 70
     1
102
RTVSPost2010Prop29
280
     1
102
RTVSPost2010PropOp29
 70
     1
102
RTVSPost2010Prop30
280
     1
102
RTVSPost2010PropOp30
 70
     1
102
RTVSPost2010Prop31
280
     0
102
RTVSPost2010PropOp31
 70
     1
102
RTVSPost2010Prop32
280
     0
102
RTVSPost2010PropOp32
 70
     1
102
RTVSPost2010Prop33
280
     0
102
RTVSPost2010PropOp33
 70
     1
102
RTVSPost2010Prop34
280
     0
102
RTVSPost2010PropOp34
 70
     1
102
RTVSPost2010Prop35
280
     0
102
RTVSPost2010PropOp35
 70
     1
102
RTVSPost2010Prop36
280
     0
102
RTVSPost2010PropOp36
 70
     1
102
RTVSPost2010Prop37
 90
       50
102
RTVSPost2010PropOp37
 70
     1
102
RTVSPost2010Prop38
140
0.0
102
RTVSPost2010PropOp38
 70
     1
102
RTVSPost2010Prop39
140
1.0
102
RTVSPost2010PropOp39
 70
     1
102
RTVSPost2010Prop40
 90
        0
102
RTVSPost2010PropOp40
 70
     1
102
RTVSPost2010Prop41ColorIndex
 90
       18
102
RTVSPost2010Prop41ColorRGB
 90
        0
102
RTVSPost2010PropOp41
 70
     1
102
RTVSPost2010Prop42
 90
       50
102
RTVSPost2010PropOp42
 70
     1
102
RTVSPost2010Prop43
 90
        3
102
RTVSPost2010PropOp43
 70
     1
102
RTVSPost2010Prop44ColorIndex
 90
        5
102
RTVSPost2010Prop44ColorRGB
 90
      255
102
RTVSPost2010PropOp44
 70
     1
102
RTVSPost2010Prop45
280
     0
102
RTVSPost2010PropOp45
 70
     1
102
RTVSPost2010Prop46
 90
       50
102
RTVSPost2010PropOp46
 70
     1
102
RTVSPost2010Prop47
 90
       50
102
RTVSPost2010PropOp47
 70
     1
102
RTVSPost2010Prop48
 90
       50
102
RTVSPost2010PropOp48
 70
     1
102
RTVSPost2010Prop49
280
     0
102
RTVSPost2010PropOp49
 70
     1
102
RTVSPost2010Prop50
 90
       50
102
RTVSPost2010PropOp50
 70
     1
102
RTVSPost2010Prop51ColorIndex
 90
      256
102
RTVSPost2010Prop51ColorRGB
 90
-16777216
102
RTVSPost2010PropOp51
 70
     0
102
RTVSPost2010Prop52
140
1.0
102
RTVSPost2010PropOp52
 70
     0
102
RTVSPost2010Prop53
 90
        2
102
RTVSPost2010PropOp53
 70
     1
102
RTVSPost2010Prop54
  1
strokes_ogs.tif
102
RTVSPost2010PropOp54
 70
     1
102
RTVSPost2010Prop55
280
     0
102
RTVSPost2010PropOp55
 70
     1
102
RTVSPost2010Prop56
140
1.0
102
RTVSPost2010PropOp56
 70
     1
102
RTVSPost2010Prop57
140
1.0
102
RTVSPost2010PropOp57
 70
     1
  0
XRECORD
  5
511
102
{ACAD_REACTORS
330
510
102
}
330
510
100
AcDbXrecord
280
     1
102
RTVSPropertyOp0
 70
     0
102
RTVSPropertyOp1
 70
     0
102
RTVSPropertyOp2
 70
     0
102
RTVSPropertyOp3
 70
     0
102
RTVSPropertyOp4
 70
     0
102
RTVSPropertyOp5
 70
     0
102
RTVSPropertyOp6
 70
     0
102
RTVSPropertyOp7
 70
     0
102
RTVSPropertyOp8
 70
     0
102
RTVSPropertyOp9
 70
     0
102
RTVSPropertyOp10
 70
     0
102
RTVSPropertyOp11
 70
     0
102
RTVSPropertyOp12
 70
     0
102
RTVSPropertyOp13
 70
     0
102
RTVSPropertyOp14
 70
     2
102
RTVSPropertyOp15
 70
     0
102
RTVSPropertyOp16
 70
     0
102
RTVSPropertyOp17
 70
     0
102
RTVSPropertyOp18
 70
     0
102
RTVSPropertyOp19
 70
     0
102
RTVSPropertyOp20
 70
     0
102
RTVSPropertyOp21
 70
     0
102
RTVSPropertyOp22
 70
     0
102
RTVSPropertyOp23
 70
     0
102
RTVSPropertyOp24
 70
     0
102
RTVSPropertyOp25
 70
     0
102
RTVSPropertyOp26
 70
     0
102
RTVSPropertyOp27
 70
     0
102
RTVSPropertyOp28
 70
     0
102
RTVSPropertyOp29
 70
     0
102
RTVSPropertyOp30
 70
     0
102
RTVSPropertyOp31
 70
     0
102
RTVSPropertyOp32
 70
     0
102
RTVSPropertyOp33
 70
     0
102
RTVSPropertyOp34
 70
     0
102
RTVSPropertyOp35
 70
     0
102
RTVSPropertyOp36
 70
     0
102
RTVSPropertyOp37
 70
     0
102
RTVSPropertyOp38
 70
     0
102
RTVSPropertyOp39
 70
     0
102
RTVSPropertyOp40
 70
     0
102
RTVSPropertyOp41
 70
     0
102
RTVSPropertyOp42
 70
     0
102
RTVSPropertyOp43
 70
     0
102
RTVSPropertyOp44
 70
     0
102
RTVSPropertyOp45
 70
     0
102
RTVSPropertyOp46
 70
     0
102
RTVSPropertyOp47
 70
     0
102
RTVSPropertyOp48
 70
     0
102
RTVSPropertyOp49
 70
     0
102
RTVSPropertyOp50
 70
     0
102
RTVSPropertyOp51
 70
     0
102
RTVSPropertyOp52
 70
     0
102
RTVSPropertyOp53
 70
     0
102
RTVSPropertyOp54
 70
     0
102
RTVSPropertyOp55
 70
     0
102
RTVSPropertyOp56
 70
     0
102
RTVSPropertyOp57
 70
     0
102
RTVSPost2010Prop28
280
     0
102
RTVSPost2010PropOp28
 70
     0
102
RTVSPost2010Prop29
280
     1
102
RTVSPost2010PropOp29
 70
     0
102
RTVSPost2010Prop30
280
     1
102
RTVSPost2010PropOp30
 70
     0
102
RTVSPost2010Prop31
280
     0
102
RTVSPost2010PropOp31
 70
     0
102
RTVSPost2010Prop32
280
     0
102
RTVSPost2010PropOp32
 70
     0
102
RTVSPost2010Prop33
280
     0
102
RTVSPost2010PropOp33
 70
     0
102
RTVSPost2010Prop34
280
     0
102
RTVSPost2010PropOp34
 70
     0
102
RTVSPost2010Prop35
280
     0
102
RTVSPost2010PropOp35
 70
     0
102
RTVSPost2010Prop36
280
     0
102
RTVSPost2010PropOp36
 70
     0
102
RTVSPost2010Prop37
 90
       50
102
RTVSPost2010PropOp37
 70
     0
102
RTVSPost2010Prop38
140
0.0
102
RTVSPost2010PropOp38
 70
     0
102
RTVSPost2010Prop39
140
1.0
102
RTVSPost2010PropOp39
 70
     0
102
RTVSPost2010Prop40
 90
        0
102
RTVSPost2010PropOp40
 70
     0
102
RTVSPost2010Prop41ColorIndex
 90
       18
102
RTVSPost2010Prop41ColorRGB
 90
        0
102
RTVSPost2010PropOp41
 70
     0
102
RTVSPost2010Prop42
 90
       50
102
RTVSPost2010PropOp42
 70
     0
102
RTVSPost2010Prop43
 90
        3
102
RTVSPost2010PropOp43
 70
     0
102
RTVSPost2010Prop44ColorIndex
 90
        5
102
RTVSPost2010Prop44ColorRGB
 90
      255
102
RTVSPost2010PropOp44
 70
     0
102
RTVSPost2010Prop45
280
     0
102
RTVSPost2010PropOp45
 70
     0
102
RTVSPost2010Prop46
 90
       50
102
RTVSPost2010PropOp46
 70
     0
102
RTVSPost2010Prop47
 90
       50
102
RTVSPost2010PropOp47
 70
     0
102
RTVSPost2010Prop48
 90
       50
102
RTVSPost2010PropOp48
 70
     0
102
RTVSPost2010Prop49
280
     0
102
RTVSPost2010PropOp49
 70
     0
102
RTVSPost2010Prop50
 90
       50
102
RTVSPost2010PropOp50
 70
     0
102
RTVSPost2010Prop51ColorIndex
 90
      256
102
RTVSPost2010Prop51ColorRGB
 90
-16777216
102
RTVSPost2010PropOp51
 70
     0
102
RTVSPost2010Prop52
140
1.0
102
RTVSPost2010PropOp52
 70
     0
102
RTVSPost2010Prop53
 90
        2
102
RTVSPost2010PropOp53
 70
     0
102
RTVSPost2010Prop54
  1
strokes_ogs.tif
102
RTVSPost2010PropOp54
 70
     0
102
RTVSPost2010Prop55
280
     0
102
RTVSPost2010PropOp55
 70
     0
102
RTVSPost2010Prop56
140
1.0
102
RTVSPost2010PropOp56
 70
     0
102
RTVSPost2010Prop57
140
1.0
102
RTVSPost2010PropOp57
 70
     0
  0
XRECORD
  5
4FF
102
{ACAD_REACTORS
330
4FE
102
}
330
4FE
100
AcDbXrecord
280
     1
102
RTVSPropertyOp0
 70
     1
102
RTVSPropertyOp1
 70
     1
102
RTVSPropertyOp2
 70
     1
102
RTVSPropertyOp3
 70
     1
102
RTVSPropertyOp4
 70
     1
102
RTVSPropertyOp5
 70
     1
102
RTVSPropertyOp6
 70
     1
102
RTVSPropertyOp7
 70
     1
102
RTVSPropertyOp8
 70
     1
102
RTVSPropertyOp9
 70
     1
102
RTVSPropertyOp10
 70
     1
102
RTVSPropertyOp11
 70
     1
102
RTVSPropertyOp12
 70
     1
102
RTVSPropertyOp13
 70
     1
102
RTVSPropertyOp14
 70
     1
102
RTVSPropertyOp15
 70
     1
102
RTVSPropertyOp16
 70
     1
102
RTVSPropertyOp17
 70
     1
102
RTVSPropertyOp18
 70
     1
102
RTVSPropertyOp19
 70
     1
102
RTVSPropertyOp20
 70
     1
102
RTVSPropertyOp21
 70
     1
102
RTVSPropertyOp22
 70
     1
102
RTVSPropertyOp23
 70
     1
102
RTVSPropertyOp24
 70
     1
102
RTVSPropertyOp25
 70
     1
102
RTVSPropertyOp26
 70
     1
102
RTVSPropertyOp27
 70
     1
102
RTVSPropertyOp28
 70
     1
102
RTVSPropertyOp29
 70
     1
102
RTVSPropertyOp30
 70
     1
102
RTVSPropertyOp31
 70
     1
102
RTVSPropertyOp32
 70
     1
102
RTVSPropertyOp33
 70
     1
102
RTVSPropertyOp34
 70
     1
102
RTVSPropertyOp35
 70
     1
102
RTVSPropertyOp36
 70
     1
102
RTVSPropertyOp37
 70
     1
102
RTVSPropertyOp38
 70
     1
102
RTVSPropertyOp39
 70
     1
102
RTVSPropertyOp40
 70
     1
102
RTVSPropertyOp41
 70
     1
102
RTVSPropertyOp42
 70
     1
102
RTVSPropertyOp43
 70
     1
102
RTVSPropertyOp44
 70
     1
102
RTVSPropertyOp45
 70
     1
102
RTVSPropertyOp46
 70
     1
102
RTVSPropertyOp47
 70
     1
102
RTVSPropertyOp48
 70
     1
102
RTVSPropertyOp49
 70
     1
102
RTVSPropertyOp50
 70
     1
102
RTVSPropertyOp51
 70
     0
102
RTVSPropertyOp52
 70
     0
102
RTVSPropertyOp53
 70
     1
102
RTVSPropertyOp54
 70
     1
102
RTVSPropertyOp55
 70
     1
102
RTVSPropertyOp56
 70
     1
102
RTVSPropertyOp57
 70
     1
102
RTVSPost2010Prop28
280
     0
102
RTVSPost2010PropOp28
 70
     1
102
RTVSPost2010Prop29
280
     1
102
RTVSPost2010PropOp29
 70
     1
102
RTVSPost2010Prop30
280
     1
102
RTVSPost2010PropOp30
 70
     1
102
RTVSPost2010Prop31
280
     0
102
RTVSPost2010PropOp31
 70
     1
102
RTVSPost2010Prop32
280
     0
102
RTVSPost2010PropOp32
 70
     1
102
RTVSPost2010Prop33
280
     0
102
RTVSPost2010PropOp33
 70
     1
102
RTVSPost2010Prop34
280
     0
102
RTVSPost2010PropOp34
 70
     1
102
RTVSPost2010Prop35
280
     0
102
RTVSPost2010PropOp35
 70
     1
102
RTVSPost2010Prop36
280
     0
102
RTVSPost2010PropOp36
 70
     1
102
RTVSPost2010Prop37
 90
       50
102
RTVSPost2010PropOp37
 70
     1
102
RTVSPost2010Prop38
140
0.0
102
RTVSPost2010PropOp38
 70
     1
102
RTVSPost2010Prop39
140
1.0
102
RTVSPost2010PropOp39
 70
     1
102
RTVSPost2010Prop40
 90
        0
102
RTVSPost2010PropOp40
 70
     1
102
RTVSPost2010Prop41ColorIndex
 90
       18
102
RTVSPost2010Prop41ColorRGB
 90
        0
102
RTVSPost2010PropOp41
 70
     1
102
RTVSPost2010Prop42
 90
       50
102
RTVSPost2010PropOp42
 70
     1
102
RTVSPost2010Prop43
 90
        3
102
RTVSPost2010PropOp43
 70
     1
102
RTVSPost2010Prop44ColorIndex
 90
        5
102
RTVSPost2010Prop44ColorRGB
 90
      255
102
RTVSPost2010PropOp44
 70
     1
102
RTVSPost2010Prop45
280
     0
102
RTVSPost2010PropOp45
 70
     1
102
RTVSPost2010Prop46
 90
       50
102
RTVSPost2010PropOp46
 70
     1
102
RTVSPost2010Prop47
 90
       50
102
RTVSPost2010PropOp47
 70
     1
102
RTVSPost2010Prop48
 90
       50
102
RTVSPost2010PropOp48
 70
     1
102
RTVSPost2010Prop49
280
     0
102
RTVSPost2010PropOp49
 70
     1
102
RTVSPost2010Prop50
 90
       50
102
RTVSPost2010PropOp50
 70
     1
102
RTVSPost2010Prop51ColorIndex
 90
      256
102
RTVSPost2010Prop51ColorRGB
 90
-16777216
102
RTVSPost2010PropOp51
 70
     0
102
RTVSPost2010Prop52
140
1.0
102
RTVSPost2010PropOp52
 70
     0
102
RTVSPost2010Prop53
 90
        2
102
RTVSPost2010PropOp53
 70
     1
102
RTVSPost2010Prop54
  1
strokes_ogs.tif
102
RTVSPost2010PropOp54
 70
     1
102
RTVSPost2010Prop55
280
     0
102
RTVSPost2010PropOp55
 70
     1
102
RTVSPost2010Prop56
140
1.0
102
RTVSPost2010PropOp56
 70
     1
102
RTVSPost2010Prop57
140
1.0
102
RTVSPost2010PropOp57
 70
     1
  0
XRECORD
  5
51D
102
{ACAD_REACTORS
330
51C
102
}
330
51C
100
AcDbXrecord
280
     1
102
RTVSPropertyOp0
 70
     1
102
RTVSPropertyOp1
 70
     1
102
RTVSPropertyOp2
 70
     1
102
RTVSPropertyOp3
 70
     1
102
RTVSPropertyOp4
 70
     1
102
RTVSPropertyOp5
 70
     1
102
RTVSPropertyOp6
 70
     1
102
RTVSPropertyOp7
 70
     1
102
RTVSPropertyOp8
 70
     1
102
RTVSPropertyOp9
 70
     1
102
RTVSPropertyOp10
 70
     1
102
RTVSPropertyOp11
 70
     1
102
RTVSPropertyOp12
 70
     1
102
RTVSPropertyOp13
 70
     1
102
RTVSPropertyOp14
 70
     1
102
RTVSPropertyOp15
 70
     1
102
RTVSPropertyOp16
 70
     1
102
RTVSPropertyOp17
 70
     1
102
RTVSPropertyOp18
 70
     1
102
RTVSPropertyOp19
 70
     1
102
RTVSPropertyOp20
 70
     1
102
RTVSPropertyOp21
 70
     1
102
RTVSPropertyOp22
 70
     1
102
RTVSPropertyOp23
 70
     1
102
RTVSPropertyOp24
 70
     1
102
RTVSPropertyOp25
 70
     1
102
RTVSPropertyOp26
 70
     1
102
RTVSPropertyOp27
 70
     1
102
RTVSPropertyOp28
 70
     1
102
RTVSPropertyOp29
 70
     1
102
RTVSPropertyOp30
 70
     1
102
RTVSPropertyOp31
 70
     1
102
RTVSPropertyOp32
 70
     1
102
RTVSPropertyOp33
 70
     1
102
RTVSPropertyOp34
 70
     1
102
RTVSPropertyOp35
 70
     1
102
RTVSPropertyOp36
 70
     1
102
RTVSPropertyOp37
 70
     1
102
RTVSPropertyOp38
 70
     1
102
RTVSPropertyOp39
 70
     1
102
RTVSPropertyOp40
 70
     1
102
RTVSPropertyOp41
 70
     1
102
RTVSPropertyOp42
 70
     1
102
RTVSPropertyOp43
 70
     1
102
RTVSPropertyOp44
 70
     1
102
RTVSPropertyOp45
 70
     1
102
RTVSPropertyOp46
 70
     1
102
RTVSPropertyOp47
 70
     1
102
RTVSPropertyOp48
 70
     1
102
RTVSPropertyOp49
 70
     1
102
RTVSPropertyOp50
 70
     1
102
RTVSPropertyOp51
 70
     0
102
RTVSPropertyOp52
 70
     0
102
RTVSPropertyOp53
 70
     1
102
RTVSPropertyOp54
 70
     1
102
RTVSPropertyOp55
 70
     1
102
RTVSPropertyOp56
 70
     1
102
RTVSPropertyOp57
 70
     1
102
RTVSPost2010Prop28
280
     0
102
RTVSPost2010PropOp28
 70
     1
102
RTVSPost2010Prop29
280
     1
102
RTVSPost2010PropOp29
 70
     1
102
RTVSPost2010Prop30
280
     1
102
RTVSPost2010PropOp30
 70
     1
102
RTVSPost2010Prop31
280
     0
102
RTVSPost2010PropOp31
 70
     1
102
RTVSPost2010Prop32
280
     0
102
RTVSPost2010PropOp32
 70
     1
102
RTVSPost2010Prop33
280
     0
102
RTVSPost2010PropOp33
 70
     1
102
RTVSPost2010Prop34
280
     0
102
RTVSPost2010PropOp34
 70
     1
102
RTVSPost2010Prop35
280
     0
102
RTVSPost2010PropOp35
 70
     1
102
RTVSPost2010Prop36
280
     0
102
RTVSPost2010PropOp36
 70
     1
102
RTVSPost2010Prop37
 90
       50
102
RTVSPost2010PropOp37
 70
     1
102
RTVSPost2010Prop38
140
0.0
102
RTVSPost2010PropOp38
 70
     1
102
RTVSPost2010Prop39
140
1.0
102
RTVSPost2010PropOp39
 70
     1
102
RTVSPost2010Prop40
 90
        0
102
RTVSPost2010PropOp40
 70
     1
102
RTVSPost2010Prop41ColorIndex
 90
       18
102
RTVSPost2010Prop41ColorRGB
 90
        0
102
RTVSPost2010PropOp41
 70
     1
102
RTVSPost2010Prop42
 90
       50
102
RTVSPost2010PropOp42
 70
     1
102
RTVSPost2010Prop43
 90
        3
102
RTVSPost2010PropOp43
 70
     1
102
RTVSPost2010Prop44ColorIndex
 90
        5
102
RTVSPost2010Prop44ColorRGB
 90
      255
102
RTVSPost2010PropOp44
 70
     1
102
RTVSPost2010Prop45
280
     0
102
RTVSPost2010PropOp45
 70
     1
102
RTVSPost2010Prop46
 90
       50
102
RTVSPost2010PropOp46
 70
     1
102
RTVSPost2010Prop47
 90
       50
102
RTVSPost2010PropOp47
 70
     1
102
RTVSPost2010Prop48
 90
       50
102
RTVSPost2010PropOp48
 70
     1
102
RTVSPost2010Prop49
280
     0
102
RTVSPost2010PropOp49
 70
     1
102
RTVSPost2010Prop50
 90
       50
102
RTVSPost2010PropOp50
 70
     1
102
RTVSPost2010Prop51ColorIndex
 90
      256
102
RTVSPost2010Prop51ColorRGB
 90
-16777216
102
RTVSPost2010PropOp51
 70
     0
102
RTVSPost2010Prop52
140
1.0
102
RTVSPost2010PropOp52
 70
     0
102
RTVSPost2010Prop53
 90
        2
102
RTVSPost2010PropOp53
 70
     1
102
RTVSPost2010Prop54
  1
strokes_ogs.tif
102
RTVSPost2010PropOp54
 70
     1
102
RTVSPost2010Prop55
280
     0
102
RTVSPost2010PropOp55
 70
     1
102
RTVSPost2010Prop56
140
1.0
102
RTVSPost2010PropOp56
 70
     1
102
RTVSPost2010Prop57
140
1.0
102
RTVSPost2010PropOp57
 70
     1
  0
XRECORD
  5
51B
102
{ACAD_REACTORS
330
51A
102
}
330
51A
100
AcDbXrecord
280
     1
102
RTVSPropertyOp0
 70
     1
102
RTVSPropertyOp1
 70
     1
102
RTVSPropertyOp2
 70
     1
102
RTVSPropertyOp3
 70
     1
102
RTVSPropertyOp4
 70
     1
102
RTVSPropertyOp5
 70
     1
102
RTVSPropertyOp6
 70
     1
102
RTVSPropertyOp7
 70
     1
102
RTVSPropertyOp8
 70
     1
102
RTVSPropertyOp9
 70
     1
102
RTVSPropertyOp10
 70
     1
102
RTVSPropertyOp11
 70
     1
102
RTVSPropertyOp12
 70
     1
102
RTVSPropertyOp13
 70
     1
102
RTVSPropertyOp14
 70
     1
102
RTVSPropertyOp15
 70
     1
102
RTVSPropertyOp16
 70
     1
102
RTVSPropertyOp17
 70
     1
102
RTVSPropertyOp18
 70
     1
102
RTVSPropertyOp19
 70
     1
102
RTVSPropertyOp20
 70
     1
102
RTVSPropertyOp21
 70
     1
102
RTVSPropertyOp22
 70
     1
102
RTVSPropertyOp23
 70
     1
102
RTVSPropertyOp24
 70
     1
102
RTVSPropertyOp25
 70
     1
102
RTVSPropertyOp26
 70
     1
102
RTVSPropertyOp27
 70
     1
102
RTVSPropertyOp28
 70
     1
102
RTVSPropertyOp29
 70
     1
102
RTVSPropertyOp30
 70
     1
102
RTVSPropertyOp31
 70
     1
102
RTVSPropertyOp32
 70
     1
102
RTVSPropertyOp33
 70
     1
102
RTVSPropertyOp34
 70
     1
102
RTVSPropertyOp35
 70
     1
102
RTVSPropertyOp36
 70
     1
102
RTVSPropertyOp37
 70
     1
102
RTVSPropertyOp38
 70
     1
102
RTVSPropertyOp39
 70
     1
102
RTVSPropertyOp40
 70
     1
102
RTVSPropertyOp41
 70
     1
102
RTVSPropertyOp42
 70
     1
102
RTVSPropertyOp43
 70
     1
102
RTVSPropertyOp44
 70
     1
102
RTVSPropertyOp45
 70
     1
102
RTVSPropertyOp46
 70
     1
102
RTVSPropertyOp47
 70
     1
102
RTVSPropertyOp48
 70
     1
102
RTVSPropertyOp49
 70
     1
102
RTVSPropertyOp50
 70
     1
102
RTVSPropertyOp51
 70
     0
102
RTVSPropertyOp52
 70
     0
102
RTVSPropertyOp53
 70
     1
102
RTVSPropertyOp54
 70
     1
102
RTVSPropertyOp55
 70
     1
102
RTVSPropertyOp56
 70
     1
102
RTVSPropertyOp57
 70
     1
102
RTVSPost2010Prop28
280
     0
102
RTVSPost2010PropOp28
 70
     1
102
RTVSPost2010Prop29
280
     1
102
RTVSPost2010PropOp29
 70
     1
102
RTVSPost2010Prop30
280
     1
102
RTVSPost2010PropOp30
 70
     1
102
RTVSPost2010Prop31
280
     0
102
RTVSPost2010PropOp31
 70
     1
102
RTVSPost2010Prop32
280
     0
102
RTVSPost2010PropOp32
 70
     1
102
RTVSPost2010Prop33
280
     0
102
RTVSPost2010PropOp33
 70
     1
102
RTVSPost2010Prop34
280
     0
102
RTVSPost2010PropOp34
 70
     1
102
RTVSPost2010Prop35
280
     0
102
RTVSPost2010PropOp35
 70
     1
102
RTVSPost2010Prop36
280
     0
102
RTVSPost2010PropOp36
 70
     1
102
RTVSPost2010Prop37
 90
       50
102
RTVSPost2010PropOp37
 70
     1
102
RTVSPost2010Prop38
140
0.0
102
RTVSPost2010PropOp38
 70
     1
102
RTVSPost2010Prop39
140
1.0
102
RTVSPost2010PropOp39
 70
     1
102
RTVSPost2010Prop40
 90
        0
102
RTVSPost2010PropOp40
 70
     1
102
RTVSPost2010Prop41ColorIndex
 90
       18
102
RTVSPost2010Prop41ColorRGB
 90
        0
102
RTVSPost2010PropOp41
 70
     1
102
RTVSPost2010Prop42
 90
       50
102
RTVSPost2010PropOp42
 70
     1
102
RTVSPost2010Prop43
 90
        3
102
RTVSPost2010PropOp43
 70
     1
102
RTVSPost2010Prop44ColorIndex
 90
        5
102
RTVSPost2010Prop44ColorRGB
 90
      255
102
RTVSPost2010PropOp44
 70
     1
102
RTVSPost2010Prop45
280
     0
102
RTVSPost2010PropOp45
 70
     1
102
RTVSPost2010Prop46
 90
       50
102
RTVSPost2010PropOp46
 70
     1
102
RTVSPost2010Prop47
 90
       50
102
RTVSPost2010PropOp47
 70
     1
102
RTVSPost2010Prop48
 90
       50
102
RTVSPost2010PropOp48
 70
     1
102
RTVSPost2010Prop49
280
     0
102
RTVSPost2010PropOp49
 70
     1
102
RTVSPost2010Prop50
 90
       50
102
RTVSPost2010PropOp50
 70
     1
102
RTVSPost2010Prop51ColorIndex
 90
      256
102
RTVSPost2010Prop51ColorRGB
 90
-16777216
102
RTVSPost2010PropOp51
 70
     0
102
RTVSPost2010Prop52
140
1.0
102
RTVSPost2010PropOp52
 70
     0
102
RTVSPost2010Prop53
 90
        2
102
RTVSPost2010PropOp53
 70
     1
102
RTVSPost2010Prop54
  1
strokes_ogs.tif
102
RTVSPost2010PropOp54
 70
     1
102
RTVSPost2010Prop55
280
     0
102
RTVSPost2010PropOp55
 70
     1
102
RTVSPost2010Prop56
140
1.0
102
RTVSPost2010PropOp56
 70
     1
102
RTVSPost2010Prop57
140
1.0
102
RTVSPost2010PropOp57
 70
     1
  0
XRECORD
  5
515
102
{ACAD_REACTORS
330
514
102
}
330
514
100
AcDbXrecord
280
     1
102
RTVSPropertyOp0
 70
     1
102
RTVSPropertyOp1
 70
     1
102
RTVSPropertyOp2
 70
     1
102
RTVSPropertyOp3
 70
     1
102
RTVSPropertyOp4
 70
     1
102
RTVSPropertyOp5
 70
     1
102
RTVSPropertyOp6
 70
     1
102
RTVSPropertyOp7
 70
     1
102
RTVSPropertyOp8
 70
     1
102
RTVSPropertyOp9
 70
     1
102
RTVSPropertyOp10
 70
     1
102
RTVSPropertyOp11
 70
     1
102
RTVSPropertyOp12
 70
     1
102
RTVSPropertyOp13
 70
     1
102
RTVSPropertyOp14
 70
     1
102
RTVSPropertyOp15
 70
     1
102
RTVSPropertyOp16
 70
     1
102
RTVSPropertyOp17
 70
     1
102
RTVSPropertyOp18
 70
     1
102
RTVSPropertyOp19
 70
     1
102
RTVSPropertyOp20
 70
     1
102
RTVSPropertyOp21
 70
     1
102
RTVSPropertyOp22
 70
     1
102
RTVSPropertyOp23
 70
     1
102
RTVSPropertyOp24
 70
     1
102
RTVSPropertyOp25
 70
     1
102
RTVSPropertyOp26
 70
     1
102
RTVSPropertyOp27
 70
     1
102
RTVSPropertyOp28
 70
     1
102
RTVSPropertyOp29
 70
     1
102
RTVSPropertyOp30
 70
     1
102
RTVSPropertyOp31
 70
     1
102
RTVSPropertyOp32
 70
     1
102
RTVSPropertyOp33
 70
     1
102
RTVSPropertyOp34
 70
     1
102
RTVSPropertyOp35
 70
     1
102
RTVSPropertyOp36
 70
     1
102
RTVSPropertyOp37
 70
     1
102
RTVSPropertyOp38
 70
     1
102
RTVSPropertyOp39
 70
     1
102
RTVSPropertyOp40
 70
     1
102
RTVSPropertyOp41
 70
     1
102
RTVSPropertyOp42
 70
     1
102
RTVSPropertyOp43
 70
     1
102
RTVSPropertyOp44
 70
     1
102
RTVSPropertyOp45
 70
     1
102
RTVSPropertyOp46
 70
     1
102
RTVSPropertyOp47
 70
     1
102
RTVSPropertyOp48
 70
     1
102
RTVSPropertyOp49
 70
     1
102
RTVSPropertyOp50
 70
     1
102
RTVSPropertyOp51
 70
     0
102
RTVSPropertyOp52
 70
     0
102
RTVSPropertyOp53
 70
     1
102
RTVSPropertyOp54
 70
     1
102
RTVSPropertyOp55
 70
     1
102
RTVSPropertyOp56
 70
     1
102
RTVSPropertyOp57
 70
     1
102
RTVSPost2010Prop28
280
     0
102
RTVSPost2010PropOp28
 70
     1
102
RTVSPost2010Prop29
280
     1
102
RTVSPost2010PropOp29
 70
     1
102
RTVSPost2010Prop30
280
     1
102
RTVSPost2010PropOp30
 70
     1
102
RTVSPost2010Prop31
280
     0
102
RTVSPost2010PropOp31
 70
     1
102
RTVSPost2010Prop32
280
     0
102
RTVSPost2010PropOp32
 70
     1
102
RTVSPost2010Prop33
280
     0
102
RTVSPost2010PropOp33
 70
     1
102
RTVSPost2010Prop34
280
     0
102
RTVSPost2010PropOp34
 70
     1
102
RTVSPost2010Prop35
280
     0
102
RTVSPost2010PropOp35
 70
     1
102
RTVSPost2010Prop36
280
     0
102
RTVSPost2010PropOp36
 70
     1
102
RTVSPost2010Prop37
 90
       50
102
RTVSPost2010PropOp37
 70
     1
102
RTVSPost2010Prop38
140
0.0
102
RTVSPost2010PropOp38
 70
     1
102
RTVSPost2010Prop39
140
1.0
102
RTVSPost2010PropOp39
 70
     1
102
RTVSPost2010Prop40
 90
        0
102
RTVSPost2010PropOp40
 70
     1
102
RTVSPost2010Prop41ColorIndex
 90
       18
102
RTVSPost2010Prop41ColorRGB
 90
        0
102
RTVSPost2010PropOp41
 70
     1
102
RTVSPost2010Prop42
 90
       50
102
RTVSPost2010PropOp42
 70
     1
102
RTVSPost2010Prop43
 90
        3
102
RTVSPost2010PropOp43
 70
     1
102
RTVSPost2010Prop44ColorIndex
 90
        5
102
RTVSPost2010Prop44ColorRGB
 90
      255
102
RTVSPost2010PropOp44
 70
     1
102
RTVSPost2010Prop45
280
     0
102
RTVSPost2010PropOp45
 70
     1
102
RTVSPost2010Prop46
 90
       50
102
RTVSPost2010PropOp46
 70
     1
102
RTVSPost2010Prop47
 90
       50
102
RTVSPost2010PropOp47
 70
     1
102
RTVSPost2010Prop48
 90
       50
102
RTVSPost2010PropOp48
 70
     1
102
RTVSPost2010Prop49
280
     0
102
RTVSPost2010PropOp49
 70
     1
102
RTVSPost2010Prop50
 90
       50
102
RTVSPost2010PropOp50
 70
     1
102
RTVSPost2010Prop51ColorIndex
 90
      256
102
RTVSPost2010Prop51ColorRGB
 90
-16777216
102
RTVSPost2010PropOp51
 70
     0
102
RTVSPost2010Prop52
140
1.0
102
RTVSPost2010PropOp52
 70
     0
102
RTVSPost2010Prop53
 90
        2
102
RTVSPost2010PropOp53
 70
     1
102
RTVSPost2010Prop54
  1
strokes_ogs.tif
102
RTVSPost2010PropOp54
 70
     1
102
RTVSPost2010Prop55
280
     0
102
RTVSPost2010PropOp55
 70
     1
102
RTVSPost2010Prop56
140
1.0
102
RTVSPost2010PropOp56
 70
     1
102
RTVSPost2010Prop57
140
1.0
102
RTVSPost2010PropOp57
 70
     1
  0
XRECORD
  5
517
102
{ACAD_REACTORS
330
516
102
}
330
516
100
AcDbXrecord
280
     1
102
RTVSPropertyOp0
 70
     1
102
RTVSPropertyOp1
 70
     1
102
RTVSPropertyOp2
 70
     1
102
RTVSPropertyOp3
 70
     1
102
RTVSPropertyOp4
 70
     1
102
RTVSPropertyOp5
 70
     1
102
RTVSPropertyOp6
 70
     1
102
RTVSPropertyOp7
 70
     1
102
RTVSPropertyOp8
 70
     1
102
RTVSPropertyOp9
 70
     1
102
RTVSPropertyOp10
 70
     1
102
RTVSPropertyOp11
 70
     1
102
RTVSPropertyOp12
 70
     1
102
RTVSPropertyOp13
 70
     1
102
RTVSPropertyOp14
 70
     1
102
RTVSPropertyOp15
 70
     1
102
RTVSPropertyOp16
 70
     1
102
RTVSPropertyOp17
 70
     1
102
RTVSPropertyOp18
 70
     1
102
RTVSPropertyOp19
 70
     1
102
RTVSPropertyOp20
 70
     1
102
RTVSPropertyOp21
 70
     1
102
RTVSPropertyOp22
 70
     1
102
RTVSPropertyOp23
 70
     1
102
RTVSPropertyOp24
 70
     1
102
RTVSPropertyOp25
 70
     1
102
RTVSPropertyOp26
 70
     1
102
RTVSPropertyOp27
 70
     1
102
RTVSPropertyOp28
 70
     1
102
RTVSPropertyOp29
 70
     1
102
RTVSPropertyOp30
 70
     1
102
RTVSPropertyOp31
 70
     1
102
RTVSPropertyOp32
 70
     1
102
RTVSPropertyOp33
 70
     1
102
RTVSPropertyOp34
 70
     1
102
RTVSPropertyOp35
 70
     1
102
RTVSPropertyOp36
 70
     1
102
RTVSPropertyOp37
 70
     1
102
RTVSPropertyOp38
 70
     1
102
RTVSPropertyOp39
 70
     1
102
RTVSPropertyOp40
 70
     1
102
RTVSPropertyOp41
 70
     1
102
RTVSPropertyOp42
 70
     1
102
RTVSPropertyOp43
 70
     1
102
RTVSPropertyOp44
 70
     1
102
RTVSPropertyOp45
 70
     1
102
RTVSPropertyOp46
 70
     1
102
RTVSPropertyOp47
 70
     1
102
RTVSPropertyOp48
 70
     1
102
RTVSPropertyOp49
 70
     1
102
RTVSPropertyOp50
 70
     1
102
RTVSPropertyOp51
 70
     0
102
RTVSPropertyOp52
 70
     0
102
RTVSPropertyOp53
 70
     1
102
RTVSPropertyOp54
 70
     1
102
RTVSPropertyOp55
 70
     1
102
RTVSPropertyOp56
 70
     1
102
RTVSPropertyOp57
 70
     1
102
RTVSPost2010Prop28
280
     0
102
RTVSPost2010PropOp28
 70
     1
102
RTVSPost2010Prop29
280
     1
102
RTVSPost2010PropOp29
 70
     1
102
RTVSPost2010Prop30
280
     1
102
RTVSPost2010PropOp30
 70
     1
102
RTVSPost2010Prop31
280
     0
102
RTVSPost2010PropOp31
 70
     1
102
RTVSPost2010Prop32
280
     0
102
RTVSPost2010PropOp32
 70
     1
102
RTVSPost2010Prop33
280
     0
102
RTVSPost2010PropOp33
 70
     1
102
RTVSPost2010Prop34
280
     0
102
RTVSPost2010PropOp34
 70
     1
102
RTVSPost2010Prop35
280
     0
102
RTVSPost2010PropOp35
 70
     1
102
RTVSPost2010Prop36
280
     0
102
RTVSPost2010PropOp36
 70
     1
102
RTVSPost2010Prop37
 90
       50
102
RTVSPost2010PropOp37
 70
     1
102
RTVSPost2010Prop38
140
0.0
102
RTVSPost2010PropOp38
 70
     1
102
RTVSPost2010Prop39
140
1.0
102
RTVSPost2010PropOp39
 70
     1
102
RTVSPost2010Prop40
 90
        0
102
RTVSPost2010PropOp40
 70
     1
102
RTVSPost2010Prop41ColorIndex
 90
       18
102
RTVSPost2010Prop41ColorRGB
 90
        0
102
RTVSPost2010PropOp41
 70
     1
102
RTVSPost2010Prop42
 90
       50
102
RTVSPost2010PropOp42
 70
     1
102
RTVSPost2010Prop43
 90
        3
102
RTVSPost2010PropOp43
 70
     1
102
RTVSPost2010Prop44ColorIndex
 90
        5
102
RTVSPost2010Prop44ColorRGB
 90
      255
102
RTVSPost2010PropOp44
 70
     1
102
RTVSPost2010Prop45
280
     0
102
RTVSPost2010PropOp45
 70
     1
102
RTVSPost2010Prop46
 90
       50
102
RTVSPost2010PropOp46
 70
     1
102
RTVSPost2010Prop47
 90
       50
102
RTVSPost2010PropOp47
 70
     1
102
RTVSPost2010Prop48
 90
       50
102
RTVSPost2010PropOp48
 70
     1
102
RTVSPost2010Prop49
280
     0
102
RTVSPost2010PropOp49
 70
     1
102
RTVSPost2010Prop50
 90
       50
102
RTVSPost2010PropOp50
 70
     1
102
RTVSPost2010Prop51ColorIndex
 90
      256
102
RTVSPost2010Prop51ColorRGB
 90
-16777216
102
RTVSPost2010PropOp51
 70
     0
102
RTVSPost2010Prop52
140
1.0
102
RTVSPost2010PropOp52
 70
     0
102
RTVSPost2010Prop53
 90
        2
102
RTVSPost2010PropOp53
 70
     1
102
RTVSPost2010Prop54
  1
strokes_ogs.tif
102
RTVSPost2010PropOp54
 70
     1
102
RTVSPost2010Prop55
280
     0
102
RTVSPost2010PropOp55
 70
     1
102
RTVSPost2010Prop56
140
1.0
102
RTVSPost2010PropOp56
 70
     1
102
RTVSPost2010Prop57
140
1.0
102
RTVSPost2010PropOp57
 70
     1
  0
XRECORD
  5
507
102
{ACAD_REACTORS
330
506
102
}
330
506
100
AcDbXrecord
280
     1
102
RTVSPropertyOp0
 70
     1
102
RTVSPropertyOp1
 70
     1
102
RTVSPropertyOp2
 70
     1
102
RTVSPropertyOp3
 70
     1
102
RTVSPropertyOp4
 70
     1
102
RTVSPropertyOp5
 70
     1
102
RTVSPropertyOp6
 70
     1
102
RTVSPropertyOp7
 70
     1
102
RTVSPropertyOp8
 70
     1
102
RTVSPropertyOp9
 70
     1
102
RTVSPropertyOp10
 70
     1
102
RTVSPropertyOp11
 70
     1
102
RTVSPropertyOp12
 70
     1
102
RTVSPropertyOp13
 70
     1
102
RTVSPropertyOp14
 70
     1
102
RTVSPropertyOp15
 70
     1
102
RTVSPropertyOp16
 70
     1
102
RTVSPropertyOp17
 70
     1
102
RTVSPropertyOp18
 70
     1
102
RTVSPropertyOp19
 70
     1
102
RTVSPropertyOp20
 70
     1
102
RTVSPropertyOp21
 70
     1
102
RTVSPropertyOp22
 70
     1
102
RTVSPropertyOp23
 70
     1
102
RTVSPropertyOp24
 70
     1
102
RTVSPropertyOp25
 70
     1
102
RTVSPropertyOp26
 70
     1
102
RTVSPropertyOp27
 70
     1
102
RTVSPropertyOp28
 70
     1
102
RTVSPropertyOp29
 70
     1
102
RTVSPropertyOp30
 70
     1
102
RTVSPropertyOp31
 70
     1
102
RTVSPropertyOp32
 70
     1
102
RTVSPropertyOp33
 70
     1
102
RTVSPropertyOp34
 70
     1
102
RTVSPropertyOp35
 70
     1
102
RTVSPropertyOp36
 70
     1
102
RTVSPropertyOp37
 70
     1
102
RTVSPropertyOp38
 70
     1
102
RTVSPropertyOp39
 70
     1
102
RTVSPropertyOp40
 70
     1
102
RTVSPropertyOp41
 70
     1
102
RTVSPropertyOp42
 70
     1
102
RTVSPropertyOp43
 70
     1
102
RTVSPropertyOp44
 70
     1
102
RTVSPropertyOp45
 70
     1
102
RTVSPropertyOp46
 70
     1
102
RTVSPropertyOp47
 70
     1
102
RTVSPropertyOp48
 70
     1
102
RTVSPropertyOp49
 70
     1
102
RTVSPropertyOp50
 70
     1
102
RTVSPropertyOp51
 70
     0
102
RTVSPropertyOp52
 70
     0
102
RTVSPropertyOp53
 70
     1
102
RTVSPropertyOp54
 70
     1
102
RTVSPropertyOp55
 70
     1
102
RTVSPropertyOp56
 70
     1
102
RTVSPropertyOp57
 70
     1
102
RTVSPost2010Prop28
280
     0
102
RTVSPost2010PropOp28
 70
     1
102
RTVSPost2010Prop29
280
     1
102
RTVSPost2010PropOp29
 70
     1
102
RTVSPost2010Prop30
280
     1
102
RTVSPost2010PropOp30
 70
     1
102
RTVSPost2010Prop31
280
     0
102
RTVSPost2010PropOp31
 70
     1
102
RTVSPost2010Prop32
280
     0
102
RTVSPost2010PropOp32
 70
     1
102
RTVSPost2010Prop33
280
     0
102
RTVSPost2010PropOp33
 70
     1
102
RTVSPost2010Prop34
280
     0
102
RTVSPost2010PropOp34
 70
     1
102
RTVSPost2010Prop35
280
     0
102
RTVSPost2010PropOp35
 70
     1
102
RTVSPost2010Prop36
280
     0
102
RTVSPost2010PropOp36
 70
     1
102
RTVSPost2010Prop37
 90
       50
102
RTVSPost2010PropOp37
 70
     1
102
RTVSPost2010Prop38
140
0.0
102
RTVSPost2010PropOp38
 70
     1
102
RTVSPost2010Prop39
140
1.0
102
RTVSPost2010PropOp39
 70
     1
102
RTVSPost2010Prop40
 90
        0
102
RTVSPost2010PropOp40
 70
     1
102
RTVSPost2010Prop41ColorIndex
 90
       18
102
RTVSPost2010Prop41ColorRGB
 90
        0
102
RTVSPost2010PropOp41
 70
     1
102
RTVSPost2010Prop42
 90
       50
102
RTVSPost2010PropOp42
 70
     1
102
RTVSPost2010Prop43
 90
        3
102
RTVSPost2010PropOp43
 70
     1
102
RTVSPost2010Prop44ColorIndex
 90
        5
102
RTVSPost2010Prop44ColorRGB
 90
      255
102
RTVSPost2010PropOp44
 70
     1
102
RTVSPost2010Prop45
280
     0
102
RTVSPost2010PropOp45
 70
     1
102
RTVSPost2010Prop46
 90
       50
102
RTVSPost2010PropOp46
 70
     1
102
RTVSPost2010Prop47
 90
       50
102
RTVSPost2010PropOp47
 70
     1
102
RTVSPost2010Prop48
 90
       50
102
RTVSPost2010PropOp48
 70
     1
102
RTVSPost2010Prop49
280
     0
102
RTVSPost2010PropOp49
 70
     1
102
RTVSPost2010Prop50
 90
       50
102
RTVSPost2010PropOp50
 70
     1
102
RTVSPost2010Prop51ColorIndex
 90
      256
102
RTVSPost2010Prop51ColorRGB
 90
-16777216
102
RTVSPost2010PropOp51
 70
     0
102
RTVSPost2010Prop52
140
1.0
102
RTVSPost2010PropOp52
 70
     0
102
RTVSPost2010Prop53
 90
        2
102
RTVSPost2010PropOp53
 70
     1
102
RTVSPost2010Prop54
  1
strokes_ogs.tif
102
RTVSPost2010PropOp54
 70
     1
102
RTVSPost2010Prop55
280
     0
102
RTVSPost2010PropOp55
 70
     1
102
RTVSPost2010Prop56
140
1.0
102
RTVSPost2010PropOp56
 70
     1
102
RTVSPost2010Prop57
140
1.0
102
RTVSPost2010PropOp57
 70
     1
  0
XRECORD
  5
4F9
102
{ACAD_REACTORS
330
4F8
102
}
330
4F8
100
AcDbXrecord
280
     1
102
RTVSPropertyOp0
 70
     1
102
RTVSPropertyOp1
 70
     1
102
RTVSPropertyOp2
 70
     1
102
RTVSPropertyOp3
 70
     1
102
RTVSPropertyOp4
 70
     1
102
RTVSPropertyOp5
 70
     1
102
RTVSPropertyOp6
 70
     1
102
RTVSPropertyOp7
 70
     1
102
RTVSPropertyOp8
 70
     1
102
RTVSPropertyOp9
 70
     1
102
RTVSPropertyOp10
 70
     1
102
RTVSPropertyOp11
 70
     1
102
RTVSPropertyOp12
 70
     1
102
RTVSPropertyOp13
 70
     1
102
RTVSPropertyOp14
 70
     1
102
RTVSPropertyOp15
 70
     1
102
RTVSPropertyOp16
 70
     1
102
RTVSPropertyOp17
 70
     1
102
RTVSPropertyOp18
 70
     1
102
RTVSPropertyOp19
 70
     1
102
RTVSPropertyOp20
 70
     1
102
RTVSPropertyOp21
 70
     1
102
RTVSPropertyOp22
 70
     1
102
RTVSPropertyOp23
 70
     1
102
RTVSPropertyOp24
 70
     1
102
RTVSPropertyOp25
 70
     1
102
RTVSPropertyOp26
 70
     1
102
RTVSPropertyOp27
 70
     1
102
RTVSPropertyOp28
 70
     1
102
RTVSPropertyOp29
 70
     1
102
RTVSPropertyOp30
 70
     1
102
RTVSPropertyOp31
 70
     1
102
RTVSPropertyOp32
 70
     1
102
RTVSPropertyOp33
 70
     1
102
RTVSPropertyOp34
 70
     1
102
RTVSPropertyOp35
 70
     1
102
RTVSPropertyOp36
 70
     1
102
RTVSPropertyOp37
 70
     1
102
RTVSPropertyOp38
 70
     1
102
RTVSPropertyOp39
 70
     1
102
RTVSPropertyOp40
 70
     1
102
RTVSPropertyOp41
 70
     1
102
RTVSPropertyOp42
 70
     1
102
RTVSPropertyOp43
 70
     1
102
RTVSPropertyOp44
 70
     1
102
RTVSPropertyOp45
 70
     1
102
RTVSPropertyOp46
 70
     1
102
RTVSPropertyOp47
 70
     1
102
RTVSPropertyOp48
 70
     1
102
RTVSPropertyOp49
 70
     1
102
RTVSPropertyOp50
 70
     1
102
RTVSPropertyOp51
 70
     0
102
RTVSPropertyOp52
 70
     0
102
RTVSPropertyOp53
 70
     1
102
RTVSPropertyOp54
 70
     1
102
RTVSPropertyOp55
 70
     1
102
RTVSPropertyOp56
 70
     1
102
RTVSPropertyOp57
 70
     1
102
RTVSPost2010Prop28
280
     0
102
RTVSPost2010PropOp28
 70
     1
102
RTVSPost2010Prop29
280
     1
102
RTVSPost2010PropOp29
 70
     1
102
RTVSPost2010Prop30
280
     1
102
RTVSPost2010PropOp30
 70
     1
102
RTVSPost2010Prop31
280
     0
102
RTVSPost2010PropOp31
 70
     1
102
RTVSPost2010Prop32
280
     0
102
RTVSPost2010PropOp32
 70
     1
102
RTVSPost2010Prop33
280
     0
102
RTVSPost2010PropOp33
 70
     1
102
RTVSPost2010Prop34
280
     0
102
RTVSPost2010PropOp34
 70
     1
102
RTVSPost2010Prop35
280
     0
102
RTVSPost2010PropOp35
 70
     1
102
RTVSPost2010Prop36
280
     0
102
RTVSPost2010PropOp36
 70
     1
102
RTVSPost2010Prop37
 90
       50
102
RTVSPost2010PropOp37
 70
     1
102
RTVSPost2010Prop38
140
0.0
102
RTVSPost2010PropOp38
 70
     1
102
RTVSPost2010Prop39
140
1.0
102
RTVSPost2010PropOp39
 70
     1
102
RTVSPost2010Prop40
 90
        0
102
RTVSPost2010PropOp40
 70
     1
102
RTVSPost2010Prop41ColorIndex
 90
       18
102
RTVSPost2010Prop41ColorRGB
 90
        0
102
RTVSPost2010PropOp41
 70
     1
102
RTVSPost2010Prop42
 90
       50
102
RTVSPost2010PropOp42
 70
     1
102
RTVSPost2010Prop43
 90
        3
102
RTVSPost2010PropOp43
 70
     1
102
RTVSPost2010Prop44ColorIndex
 90
        5
102
RTVSPost2010Prop44ColorRGB
 90
      255
102
RTVSPost2010PropOp44
 70
     1
102
RTVSPost2010Prop45
280
     0
102
RTVSPost2010PropOp45
 70
     1
102
RTVSPost2010Prop46
 90
       50
102
RTVSPost2010PropOp46
 70
     1
102
RTVSPost2010Prop47
 90
       50
102
RTVSPost2010PropOp47
 70
     1
102
RTVSPost2010Prop48
 90
       50
102
RTVSPost2010PropOp48
 70
     1
102
RTVSPost2010Prop49
280
     0
102
RTVSPost2010PropOp49
 70
     1
102
RTVSPost2010Prop50
 90
       50
102
RTVSPost2010PropOp50
 70
     1
102
RTVSPost2010Prop51ColorIndex
 90
      256
102
RTVSPost2010Prop51ColorRGB
 90
-16777216
102
RTVSPost2010PropOp51
 70
     0
102
RTVSPost2010Prop52
140
1.0
102
RTVSPost2010PropOp52
 70
     0
102
RTVSPost2010Prop53
 90
        2
102
RTVSPost2010PropOp53
 70
     1
102
RTVSPost2010Prop54
  1
strokes_ogs.tif
102
RTVSPost2010PropOp54
 70
     1
102
RTVSPost2010Prop55
280
     0
102
RTVSPost2010PropOp55
 70
     1
102
RTVSPost2010Prop56
140
1.0
102
RTVSPost2010PropOp56
 70
     1
102
RTVSPost2010Prop57
140
1.0
102
RTVSPost2010PropOp57
 70
     1
  0
XRECORD
  5
519
102
{ACAD_REACTORS
330
518
102
}
330
518
100
AcDbXrecord
280
     1
102
RTVSPropertyOp0
 70
     1
102
RTVSPropertyOp1
 70
     1
102
RTVSPropertyOp2
 70
     1
102
RTVSPropertyOp3
 70
     1
102
RTVSPropertyOp4
 70
     1
102
RTVSPropertyOp5
 70
     1
102
RTVSPropertyOp6
 70
     1
102
RTVSPropertyOp7
 70
     1
102
RTVSPropertyOp8
 70
     1
102
RTVSPropertyOp9
 70
     1
102
RTVSPropertyOp10
 70
     1
102
RTVSPropertyOp11
 70
     1
102
RTVSPropertyOp12
 70
     1
102
RTVSPropertyOp13
 70
     1
102
RTVSPropertyOp14
 70
     1
102
RTVSPropertyOp15
 70
     1
102
RTVSPropertyOp16
 70
     1
102
RTVSPropertyOp17
 70
     1
102
RTVSPropertyOp18
 70
     1
102
RTVSPropertyOp19
 70
     1
102
RTVSPropertyOp20
 70
     1
102
RTVSPropertyOp21
 70
     1
102
RTVSPropertyOp22
 70
     1
102
RTVSPropertyOp23
 70
     1
102
RTVSPropertyOp24
 70
     1
102
RTVSPropertyOp25
 70
     1
102
RTVSPropertyOp26
 70
     1
102
RTVSPropertyOp27
 70
     1
102
RTVSPropertyOp28
 70
     1
102
RTVSPropertyOp29
 70
     1
102
RTVSPropertyOp30
 70
     1
102
RTVSPropertyOp31
 70
     1
102
RTVSPropertyOp32
 70
     1
102
RTVSPropertyOp33
 70
     1
102
RTVSPropertyOp34
 70
     1
102
RTVSPropertyOp35
 70
     1
102
RTVSPropertyOp36
 70
     1
102
RTVSPropertyOp37
 70
     1
102
RTVSPropertyOp38
 70
     1
102
RTVSPropertyOp39
 70
     1
102
RTVSPropertyOp40
 70
     1
102
RTVSPropertyOp41
 70
     1
102
RTVSPropertyOp42
 70
     1
102
RTVSPropertyOp43
 70
     1
102
RTVSPropertyOp44
 70
     1
102
RTVSPropertyOp45
 70
     1
102
RTVSPropertyOp46
 70
     1
102
RTVSPropertyOp47
 70
     1
102
RTVSPropertyOp48
 70
     1
102
RTVSPropertyOp49
 70
     1
102
RTVSPropertyOp50
 70
     1
102
RTVSPropertyOp51
 70
     0
102
RTVSPropertyOp52
 70
     0
102
RTVSPropertyOp53
 70
     1
102
RTVSPropertyOp54
 70
     1
102
RTVSPropertyOp55
 70
     1
102
RTVSPropertyOp56
 70
     1
102
RTVSPropertyOp57
 70
     1
102
RTVSPost2010Prop28
280
     0
102
RTVSPost2010PropOp28
 70
     1
102
RTVSPost2010Prop29
280
     1
102
RTVSPost2010PropOp29
 70
     1
102
RTVSPost2010Prop30
280
     1
102
RTVSPost2010PropOp30
 70
     1
102
RTVSPost2010Prop31
280
     0
102
RTVSPost2010PropOp31
 70
     1
102
RTVSPost2010Prop32
280
     0
102
RTVSPost2010PropOp32
 70
     1
102
RTVSPost2010Prop33
280
     0
102
RTVSPost2010PropOp33
 70
     1
102
RTVSPost2010Prop34
280
     0
102
RTVSPost2010PropOp34
 70
     1
102
RTVSPost2010Prop35
280
     0
102
RTVSPost2010PropOp35
 70
     1
102
RTVSPost2010Prop36
280
     0
102
RTVSPost2010PropOp36
 70
     1
102
RTVSPost2010Prop37
 90
       50
102
RTVSPost2010PropOp37
 70
     1
102
RTVSPost2010Prop38
140
0.0
102
RTVSPost2010PropOp38
 70
     1
102
RTVSPost2010Prop39
140
1.0
102
RTVSPost2010PropOp39
 70
     1
102
RTVSPost2010Prop40
 90
        0
102
RTVSPost2010PropOp40
 70
     1
102
RTVSPost2010Prop41ColorIndex
 90
       18
102
RTVSPost2010Prop41ColorRGB
 90
        0
102
RTVSPost2010PropOp41
 70
     1
102
RTVSPost2010Prop42
 90
       50
102
RTVSPost2010PropOp42
 70
     1
102
RTVSPost2010Prop43
 90
        3
102
RTVSPost2010PropOp43
 70
     1
102
RTVSPost2010Prop44ColorIndex
 90
        5
102
RTVSPost2010Prop44ColorRGB
 90
      255
102
RTVSPost2010PropOp44
 70
     1
102
RTVSPost2010Prop45
280
     0
102
RTVSPost2010PropOp45
 70
     1
102
RTVSPost2010Prop46
 90
       50
102
RTVSPost2010PropOp46
 70
     1
102
RTVSPost2010Prop47
 90
       50
102
RTVSPost2010PropOp47
 70
     1
102
RTVSPost2010Prop48
 90
       50
102
RTVSPost2010PropOp48
 70
     1
102
RTVSPost2010Prop49
280
     0
102
RTVSPost2010PropOp49
 70
     1
102
RTVSPost2010Prop50
 90
       50
102
RTVSPost2010PropOp50
 70
     1
102
RTVSPost2010Prop51ColorIndex
 90
      256
102
RTVSPost2010Prop51ColorRGB
 90
-16777216
102
RTVSPost2010PropOp51
 70
     0
102
RTVSPost2010Prop52
140
1.0
102
RTVSPost2010PropOp52
 70
     0
102
RTVSPost2010Prop53
 90
        2
102
RTVSPost2010PropOp53
 70
     1
102
RTVSPost2010Prop54
  1
strokes_ogs.tif
102
RTVSPost2010PropOp54
 70
     1
102
RTVSPost2010Prop55
280
     0
102
RTVSPost2010PropOp55
 70
     1
102
RTVSPost2010Prop56
140
1.0
102
RTVSPost2010PropOp56
 70
     1
102
RTVSPost2010Prop57
140
1.0
102
RTVSPost2010PropOp57
 70
     1
  0
ENDSEC
  0
EOF
