  0
SECTION
  2
HEADER
  9
$ACADVER
  1
AC1015
  9
$ACADMAINTVER
 70
     6
  9
$DWGCODEPAGE
  3
ANSI_932
  9
$INSBASE
 10
0.0
 20
0.0
 30
0.0
  9
$EXTMIN
 10
-481.4658907655743
 20
-11.70034369712238
 30
0.0
  9
$EXTMAX
 10
18.53410923442567
 20
368.2996563028776
 30
0.0
  9
$LIMMIN
 10
-481.4658907655743
 20
-11.70034369712238
  9
$LIMMAX
 10
18.53410923442567
 20
368.2996563028776
  9
$ORTHOMODE
 70
     0
  9
$REGENMODE
 70
     1
  9
$FILLMODE
 70
     1
  9
$QTEXTMODE
 70
     0
  9
$MIRRTEXT
 70
     1
  9
$LTSCALE
 40
1.0
  9
$ATTMODE
 70
     1
  9
$TEXTSIZE
 40
2.5
  9
$TRACEWID
 40
1.0
  9
$TEXTSTYLE
  7
Standard
  9
$CLAYER
  8
0
  9
$CELTYPE
  6
ByLayer
  9
$CECOLOR
 62
   256
  9
$CELTSCALE
 40
1.0
  9
$DISPSILH
 70
     0
  9
$DIMSCALE
 40
1.0
  9
$DIMASZ
 40
2.5
  9
$DIMEXO
 40
0.625
  9
$DIMDLI
 40
3.75
  9
$DIMRND
 40
0.0
  9
$DIMDLE
 40
0.0
  9
$DIMEXE
 40
1.25
  9
$DIMTP
 40
0.0
  9
$DIMTM
 40
0.0
  9
$DIMTXT
 40
2.5
  9
$DIMCEN
 40
2.5
  9
$DIMTSZ
 40
0.0
  9
$DIMTOL
 70
     0
  9
$DIMLIM
 70
     0
  9
$DIMTIH
 70
     0
  9
$DIMTOH
 70
     0
  9
$DIMSE1
 70
     0
  9
$DIMSE2
 70
     0
  9
$DIMTAD
 70
     1
  9
$DIMZIN
 70
     8
  9
$DIMBLK
  1
Closed
  9
$DIMASO
 70
     1
  9
$DIMSHO
 70
     1
  9
$DIMPOST
  1

  9
$DIMAPOST
  1

  9
$DIMALT
 70
     0
  9
$DIMALTD
 70
     3
  9
$DIMALTF
 40
0.039370079
  9
$DIMLFAC
 40
1.0
  9
$DIMTOFL
 70
     1
  9
$DIMTVP
 40
0.0
  9
$DIMTIX
 70
     0
  9
$DIMSOXD
 70
     0
  9
$DIMSAH
 70
     0
  9
$DIMBLK1
  1

  9
$DIMBLK2
  1

  9
$DIMSTYLE
  2
DIMSTYLE_FULLSCALE
  9
$DIMCLRD
 70
     0
  9
$DIMCLRE
 70
     0
  9
$DIMCLRT
 70
     0
  9
$DIMTFAC
 40
1.0
  9
$DIMGAP
 40
0.625
  9
$DIMJUST
 70
     0
  9
$DIMSD1
 70
     0
  9
$DIMSD2
 70
     0
  9
$DIMTOLJ
 70
     0
  9
$DIMTZIN
 70
     8
  9
$DIMALTZ
 70
     0
  9
$DIMALTTZ
 70
     0
  9
$DIMUPT
 70
     0
  9
$DIMDEC
 70
     2
  9
$DIMTDEC
 70
     2
  9
$DIMALTU
 70
     2
  9
$DIMALTTD
 70
     3
  9
$DIMTXSTY
  7
Standard
  9
$DIMAUNIT
 70
     0
  9
$DIMADEC
 70
     0
  9
$DIMALTRND
 40
0.0
  9
$DIMAZIN
 70
     0
  9
$DIMDSEP
 70
    44
  9
$DIMATFIT
 70
     3
  9
$DIMFRAC
 70
     0
  9
$DIMLDRBLK
  1
Closed
  9
$DIMLUNIT
 70
     2
  9
$DIMLWD
 70
    -2
  9
$DIMLWE
 70
    -2
  9
$DIMTMOVE
 70
     0
  9
$LUNITS
 70
     2
  9
$LUPREC
 70
     4
  9
$SKETCHINC
 40
1.0
  9
$FILLETRAD
 40
10.0
  9
$AUNITS
 70
     0
  9
$AUPREC
 70
     0
  9
$MENU
  1
.
  9
$ELEVATION
 40
0.0
  9
$PELEVATION
 40
0.0
  9
$THICKNESS
 40
0.0
  9
$LIMCHECK
 70
     0
  9
$CHAMFERA
 40
0.0
  9
$CHAMFERB
 40
0.0
  9
$CHAMFERC
 40
0.0
  9
$CHAMFERD
 40
0.0
  9
$SKPOLY
 70
     0
  9
$TDCREATE
 40
2459037.380763032
  9
$TDUCREATE
 40
2459037.005763032
  9
$TDUPDATE
 40
2459037.380763576
  9
$TDUUPDATE
 40
2459037.005763576
  9
$TDINDWG
 40
0.0000000116
  9
$TDUSRTIMER
 40
0.0000000116
  9
$USRTIMER
 70
     1
  9
$ANGBASE
 50
0.0
  9
$ANGDIR
 70
     0
  9
$PDMODE
 70
     0
  9
$PDSIZE
 40
0.0
  9
$PLINEWID
 40
0.0
  9
$SPLFRAME
 70
     0
  9
$SPLINETYPE
 70
     6
  9
$SPLINESEGS
 70
     8
  9
$HANDSEED
  5
406
  9
$SURFTAB1
 70
     6
  9
$SURFTAB2
 70
     6
  9
$SURFTYPE
 70
     6
  9
$SURFU
 70
     6
  9
$SURFV
 70
     6
  9
$UCSBASE
  2

  9
$UCSNAME
  2

  9
$UCSORG
 10
0.0
 20
0.0
 30
0.0
  9
$UCSXDIR
 10
1.0
 20
0.0
 30
0.0
  9
$UCSYDIR
 10
0.0
 20
1.0
 30
0.0
  9
$UCSORTHOREF
  2

  9
$UCSORTHOVIEW
 70
     0
  9
$UCSORGTOP
 10
0.0
 20
0.0
 30
0.0
  9
$UCSORGBOTTOM
 10
0.0
 20
0.0
 30
0.0
  9
$UCSORGLEFT
 10
0.0
 20
0.0
 30
0.0
  9
$UCSORGRIGHT
 10
0.0
 20
0.0
 30
0.0
  9
$UCSORGFRONT
 10
0.0
 20
0.0
 30
0.0
  9
$UCSORGBACK
 10
0.0
 20
0.0
 30
0.0
  9
$PUCSBASE
  2

  9
$PUCSNAME
  2

  9
$PUCSORG
 10
0.0
 20
0.0
 30
0.0
  9
$PUCSXDIR
 10
1.0
 20
0.0
 30
0.0
  9
$PUCSYDIR
 10
0.0
 20
1.0
 30
0.0
  9
$PUCSORTHOREF
  2

  9
$PUCSORTHOVIEW
 70
     0
  9
$PUCSORGTOP
 10
0.0
 20
0.0
 30
0.0
  9
$PUCSORGBOTTOM
 10
0.0
 20
0.0
 30
0.0
  9
$PUCSORGLEFT
 10
0.0
 20
0.0
 30
0.0
  9
$PUCSORGRIGHT
 10
0.0
 20
0.0
 30
0.0
  9
$PUCSORGFRONT
 10
0.0
 20
0.0
 30
0.0
  9
$PUCSORGBACK
 10
0.0
 20
0.0
 30
0.0
  9
$USERI1
 70
     0
  9
$USERI2
 70
     0
  9
$USERI3
 70
     0
  9
$USERI4
 70
     0
  9
$USERI5
 70
     0
  9
$USERR1
 40
0.0
  9
$USERR2
 40
0.0
  9
$USERR3
 40
0.0
  9
$USERR4
 40
0.0
  9
$USERR5
 40
0.0
  9
$WORLDVIEW
 70
     1
  9
$SHADEDGE
 70
     3
  9
$SHADEDIF
 70
    70
  9
$TILEMODE
 70
     1
  9
$MAXACTVP
 70
    64
  9
$PINSBASE
 10
0.0
 20
0.0
 30
0.0
  9
$PLIMCHECK
 70
     0
  9
$PEXTMIN
 10
1.000000000000000E+20
 20
1.000000000000000E+20
 30
1.000000000000000E+20
  9
$PEXTMAX
 10
-1.000000000000000E+20
 20
-1.000000000000000E+20
 30
-1.000000000000000E+20
  9
$PLIMMIN
 10
-481.4658907655743
 20
-11.70034369712238
  9
$PLIMMAX
 10
18.53410923442567
 20
368.2996563028776
  9
$UNITMODE
 70
     0
  9
$VISRETAIN
 70
     1
  9
$PLINEGEN
 70
     0
  9
$PSLTSCALE
 70
     1
  9
$TREEDEPTH
 70
  3020
  9
$CMLSTYLE
  2
Standard
  9
$CMLJUST
 70
     0
  9
$CMLSCALE
 40
20.0
  9
$PROXYGRAPHICS
 70
     1
  9
$MEASUREMENT
 70
     1
  9
$CELWEIGHT
370
    -1
  9
$ENDCAPS
280
     0
  9
$JOINSTYLE
280
     0
  9
$LWDISPLAY
290
     0
  9
$INSUNITS
 70
     4
  9
$HYPERLINKBASE
  1

  9
$STYLESHEET
  1

  9
$XEDIT
290
     1
  9
$CEPSNTYPE
380
     0
  9
$PSTYLEMODE
290
     1
  9
$FINGERPRINTGUID
  2
{dc67d3d9-3443-40e4-9987-19a5cb340a27}
  9
$VERSIONGUID
  2
{FAEB1C32-E019-11D5-929B-00C0DF256EC4}
  9
$EXTNAMES
290
     1
  9
$PSVPSCALE
 40
0.0
  9
$OLESTARTUP
290
     0
  0
ENDSEC
  0
SECTION
  2
CLASSES
  0
CLASS
  1
ACDBDICTIONARYWDFLT
  2
AcDbDictionaryWithDefault
  3
ObjectDBX Classes
 90
        0
280
     0
281
     0
  0
CLASS
  1
VISUALSTYLE
  2
AcDbVisualStyle
  3
ObjectDBX Classes
 90
     4095
280
     0
281
     0
  0
CLASS
  1
MATERIAL
  2
AcDbMaterial
  3
ObjectDBX Classes
 90
     1153
280
     0
281
     0
  0
CLASS
  1
SCALE
  2
AcDbScale
  3
ObjectDBX Classes
 90
     1153
280
     0
281
     0
  0
CLASS
  1
TABLESTYLE
  2
AcDbTableStyle
  3
ObjectDBX Classes
 90
     4095
280
     0
281
     0
  0
CLASS
  1
MLEADERSTYLE
  2
AcDbMLeaderStyle
  3
ACDB_MLEADERSTYLE_CLASS
 90
     4095
280
     0
281
     0
  0
CLASS
  1
SUN
  2
AcDbSun
  3
SCENEOE
 90
     1153
280
     0
281
     0
  0
CLASS
  1
DICTIONARYVAR
  2
AcDbDictionaryVar
  3
ObjectDBX Classes
 90
        0
280
     0
281
     0
  0
CLASS
  1
ACDBPLACEHOLDER
  2
AcDbPlaceHolder
  3
ObjectDBX Classes
 90
        0
280
     0
281
     0
  0
CLASS
  1
LAYOUT
  2
AcDbLayout
  3
ObjectDBX Classes
 90
        0
280
     0
281
     0
  0
ENDSEC
  0
SECTION
  2
TABLES
  0
TABLE
  2
VPORT
  5
8
102
{ACAD_XDICTIONARY
360
3C5
102
}
330
0
100
AcDbSymbolTable
 70
     1
  0
VPORT
  5
29
330
8
100
AcDbSymbolTableRecord
100
AcDbViewportTableRecord
  2
*Active
 70
     0
 10
0.0
 20
0.0
 11
1.0
 21
1.0
 12
344.1869158878504
 22
148.5
 13
0.0
 23
0.0
 14
10.0
 24
10.0
 15
10.0
 25
10.0
 16
0.0
 26
0.0
 36
1.0
 17
0.0
 27
0.0
 37
0.0
 40
297.0
 41
1.972972972850329
 42
50.0
 43
0.0
 44
0.0
 50
0.0
 51
0.0
 71
     0
 72
   100
 73
     1
 74
     3
 75
     0
 76
     0
 77
     0
 78
     0
281
     0
 65
     1
110
0.0
120
0.0
130
0.0
111
1.0
121
0.0
131
0.0
112
0.0
122
1.0
132
0.0
 79
     0
146
0.0
  0
ENDTAB
  0
TABLE
  2
LTYPE
  5
5
330
0
100
AcDbSymbolTable
 70
     5
  0
LTYPE
  5
14
330
5
100
AcDbSymbolTableRecord
100
AcDbLinetypeTableRecord
  2
ByBlock
 70
     0
  3

 72
    65
 73
     0
 40
0.0
  0
LTYPE
  5
15
330
5
100
AcDbSymbolTableRecord
100
AcDbLinetypeTableRecord
  2
ByLayer
 70
     0
  3

 72
    65
 73
     0
 40
0.0
  0
LTYPE
  5
16
330
5
100
AcDbSymbolTableRecord
100
AcDbLinetypeTableRecord
  2
Continuous
 70
     0
  3
Solid line
 72
    65
 73
     0
 40
0.0
  0
LTYPE
  5
6E
330
5
100
AcDbSymbolTableRecord
100
AcDbLinetypeTableRecord
  2
CONTINOUS
 70
     0
  3
______________________________
 72
    65
 73
     0
 40
0.0
  0
LTYPE
  5
6F
330
5
100
AcDbSymbolTableRecord
100
AcDbLinetypeTableRecord
  2
DASHED
 70
     0
  3
__ __ __ __ __ __ __ __ __ __ __ __ __ __ __ __
 72
    65
 73
     2
 40
4.5
 49
3.0
 74
     0
 49
-1.5
 74
     0
  0
LTYPE
  5
70
330
5
100
AcDbSymbolTableRecord
100
AcDbLinetypeTableRecord
  2
PHANTOM
 70
     0
  3
______  __  __  ______  __  __  _____
 72
    65
 73
     6
 40
15.0
 49
7.5
 74
     0
 49
-1.5
 74
     0
 49
1.5
 74
     0
 49
-1.5
 74
     0
 49
1.5
 74
     0
 49
-1.5
 74
     0
  0
LTYPE
  5
71
330
5
100
AcDbSymbolTableRecord
100
AcDbLinetypeTableRecord
  2
CENTER
 70
     0
  3
____ _ ____ _ ____ _ ____ _ ____ _ ____
 72
    65
 73
     4
 40
12.0
 49
7.5
 74
     0
 49
-1.5
 74
     0
 49
1.5
 74
     0
 49
-1.5
 74
     0
  0
ENDTAB
  0
TABLE
  2
LAYER
  5
2
330
0
100
AcDbSymbolTable
 70
     2
  0
LAYER
  5
10
330
2
100
AcDbSymbolTableRecord
100
AcDbLayerTableRecord
  2
0
 70
     0
 62
     7
  6
Continuous
370
    -3
390
F
  0
LAYER
  5
28D
330
2
100
AcDbSymbolTableRecord
100
AcDbLayerTableRecord
  2
Defpoints
 70
     0
 62
     7
  6
Continuous
290
     0
370
    -3
390
F
  0
ENDTAB
  0
TABLE
  2
STYLE
  5
3
330
0
100
AcDbSymbolTable
 70
     1
  0
STYLE
  5
11
330
3
100
AcDbSymbolTableRecord
100
AcDbTextStyleTableRecord
  2
Standard
 70
     0
 40
0.0
 41
1.0
 50
0.0
 71
     0
 42
2.5
  3
ROMANS
  4
EXTFONT
  0
ENDTAB
  0
TABLE
  2
VIEW
  5
6
330
0
100
AcDbSymbolTable
 70
     0
  0
ENDTAB
  0
TABLE
  2
UCS
  5
7
330
0
100
AcDbSymbolTable
 70
     0
  0
ENDTAB
  0
TABLE
  2
APPID
  5
9
330
0
100
AcDbSymbolTable
 70
     7
  0
APPID
  5
12
330
9
100
AcDbSymbolTableRecord
100
AcDbRegAppTableRecord
  2
ACAD
 70
     0
  0
APPID
  5
276
330
9
100
AcDbSymbolTableRecord
100
AcDbRegAppTableRecord
  2
ACAD_DSTYLE_DIMJAG
 70
     0
  0
APPID
  5
3C7
330
9
100
AcDbSymbolTableRecord
100
AcDbRegAppTableRecord
  2
ACAD_DSTYLE_DIMJOGGED_JOGANGLE_SYMBOL
 70
     0
  0
APPID
  5
3C8
330
9
100
AcDbSymbolTableRecord
100
AcDbRegAppTableRecord
  2
ACAD_DSTYLE_DIM_LINETYPE
 70
     0
  0
APPID
  5
3C9
330
9
100
AcDbSymbolTableRecord
100
AcDbRegAppTableRecord
  2
ACAD_DSTYLE_DIM_EXT1_LINETYPE
 70
     0
  0
APPID
  5
3CA
330
9
100
AcDbSymbolTableRecord
100
AcDbRegAppTableRecord
  2
ACAD_DSTYLE_DIM_EXT2_LINETYPE
 70
     0
  0
APPID
  5
403
330
9
100
AcDbSymbolTableRecord
100
AcDbRegAppTableRecord
  2
ACAD_MLEADERVER
 70
     0
  0
ENDTAB
  0
TABLE
  2
DIMSTYLE
  5
A
330
0
100
AcDbSymbolTable
 70
     2
100
AcDbDimStyleTable
  0
DIMSTYLE
105
27
330
A
100
AcDbSymbolTableRecord
100
AcDbDimStyleTableRecord
  2
ISO-25
 70
     0
 41
2.5
 42
0.625
 43
3.75
 44
1.25
 73
     0
 74
     0
 77
     1
 78
     8
140
2.5
141
2.5
143
0.03937007874016
147
0.625
171
     3
172
     1
178
     0
271
     2
272
     2
274
     3
278
    44
283
     0
284
     8
340
11
  0
DIMSTYLE
105
26E
102
{ACAD_REACTORS
330
286
330
29A
330
2A7
330
2B4
330
2C1
330
2CD
330
2DA
330
2E8
330
307
330
314
330
333
330
340
330
356
330
36C
330
379
330
386
330
392
330
39F
330
3AC
102
}
330
A
100
AcDbSymbolTableRecord
100
AcDbDimStyleTableRecord
  2
DIMSTYLE_FULLSCALE
 70
     0
 41
2.5
 42
0.625
 43
3.75
 44
1.25
 73
     0
 74
     0
 77
     1
 78
     8
140
2.5
141
2.5
143
0.039370079
147
0.625
171
     3
172
     1
178
     0
271
     2
272
     2
274
     3
278
    44
283
     0
284
     8
340
11
341
26F
342
26F
1001
ACAD_DSTYLE_DIMJAG
1070
   388
1040
1.5
1001
ACAD_DSTYLE_DIMJOGGED_JOGANGLE_SYMBOL
1070
   384
1040
1.570796326794897
1001
ACAD_DSTYLE_DIM_LINETYPE
1070
   380
1005
14
1001
ACAD_DSTYLE_DIM_EXT1_LINETYPE
1070
   381
1005
14
1001
ACAD_DSTYLE_DIM_EXT2_LINETYPE
1070
   382
1005
14
  0
ENDTAB
  0
TABLE
  2
BLOCK_RECORD
  5
1
330
0
100
AcDbSymbolTable
 70
    29
  0
BLOCK_RECORD
  5
1F
330
1
100
AcDbSymbolTableRecord
100
AcDbBlockTableRecord
  2
*Model_Space
340
22
  0
BLOCK_RECORD
  5
1B
330
1
100
AcDbSymbolTableRecord
100
AcDbBlockTableRecord
  2
*Paper_Space
340
1E
  0
BLOCK_RECORD
  5
23
330
1
100
AcDbSymbolTableRecord
100
AcDbBlockTableRecord
  2
*Paper_Space0
340
26
  0
BLOCK_RECORD
  5
72
330
1
100
AcDbSymbolTableRecord
100
AcDbBlockTableRecord
  2
USER0001
340
0
  0
BLOCK_RECORD
  5
75
330
1
100
AcDbSymbolTableRecord
100
AcDbBlockTableRecord
  2
DTL0001
340
0
102
{BLKREFS
331
283
102
}
  0
BLOCK_RECORD
  5
78
330
1
100
AcDbSymbolTableRecord
100
AcDbBlockTableRecord
  2
DTL0002
340
0
102
{BLKREFS
331
284
102
}
  0
BLOCK_RECORD
  5
7B
330
1
100
AcDbSymbolTableRecord
100
AcDbBlockTableRecord
  2
DTL0003
340
0
102
{BLKREFS
331
285
102
}
  0
BLOCK_RECORD
  5
26F
330
1
100
AcDbSymbolTableRecord
100
AcDbBlockTableRecord
  2
_Closed
340
0
  0
BLOCK_RECORD
  5
287
330
1
100
AcDbSymbolTableRecord
100
AcDbBlockTableRecord
  2
_Open
340
0
102
{BLKREFS
331
295
331
294
331
2A2
331
2A1
331
2AF
331
2AE
331
2BC
331
2BB
331
2C8
331
2C7
331
2D5
331
2D4
331
2E3
331
2E2
331
0
331
0
331
30F
331
30E
331
31C
331
31B
331
33B
331
33A
331
0
331
0
331
0
331
0
331
374
331
373
331
381
331
380
331
38D
331
38C
331
39A
331
399
331
3A7
331
3A6
331
3B4
331
3B3
102
}
  0
BLOCK_RECORD
  5
28E
330
1
100
AcDbSymbolTableRecord
100
AcDbBlockTableRecord
  2
*D7
340
0
  0
BLOCK_RECORD
  5
29B
330
1
100
AcDbSymbolTableRecord
100
AcDbBlockTableRecord
  2
*D8
340
0
  0
BLOCK_RECORD
  5
2A8
330
1
100
AcDbSymbolTableRecord
100
AcDbBlockTableRecord
  2
*D9
340
0
  0
BLOCK_RECORD
  5
2B5
330
1
100
AcDbSymbolTableRecord
100
AcDbBlockTableRecord
  2
*D10
340
0
  0
BLOCK_RECORD
  5
2C2
330
1
100
AcDbSymbolTableRecord
100
AcDbBlockTableRecord
  2
*D11
340
0
  0
BLOCK_RECORD
  5
2CE
330
1
100
AcDbSymbolTableRecord
100
AcDbBlockTableRecord
  2
*D12
340
0
  0
BLOCK_RECORD
  5
2DB
330
1
100
AcDbSymbolTableRecord
100
AcDbBlockTableRecord
  2
*D13
340
0
  0
BLOCK_RECORD
  5
2E9
330
1
100
AcDbSymbolTableRecord
100
AcDbBlockTableRecord
  2
*D14
340
0
  0
BLOCK_RECORD
  5
2FE
330
1
100
AcDbSymbolTableRecord
100
AcDbBlockTableRecord
  2
SYM0001
340
0
102
{BLKREFS
331
304
102
}
  0
BLOCK_RECORD
  5
308
330
1
100
AcDbSymbolTableRecord
100
AcDbBlockTableRecord
  2
*D16
340
0
  0
BLOCK_RECORD
  5
315
330
1
100
AcDbSymbolTableRecord
100
AcDbBlockTableRecord
  2
*D17
340
0
  0
BLOCK_RECORD
  5
321
330
1
100
AcDbSymbolTableRecord
100
AcDbBlockTableRecord
  2
SYM0002
340
0
102
{BLKREFS
331
327
102
}
  0
BLOCK_RECORD
  5
32A
330
1
100
AcDbSymbolTableRecord
100
AcDbBlockTableRecord
  2
SYM0003
340
0
102
{BLKREFS
331
330
102
}
  0
BLOCK_RECORD
  5
334
330
1
100
AcDbSymbolTableRecord
100
AcDbBlockTableRecord
  2
*D20
340
0
  0
BLOCK_RECORD
  5
341
330
1
100
AcDbSymbolTableRecord
100
AcDbBlockTableRecord
  2
*D21
340
0
  0
BLOCK_RECORD
  5
357
330
1
100
AcDbSymbolTableRecord
100
AcDbBlockTableRecord
  2
*D22
340
0
  0
BLOCK_RECORD
  5
36D
330
1
100
AcDbSymbolTableRecord
100
AcDbBlockTableRecord
  2
*D23
340
0
  0
BLOCK_RECORD
  5
37A
330
1
100
AcDbSymbolTableRecord
100
AcDbBlockTableRecord
  2
*D24
340
0
  0
BLOCK_RECORD
  5
387
330
1
100
AcDbSymbolTableRecord
100
AcDbBlockTableRecord
  2
*D25
340
0
  0
BLOCK_RECORD
  5
393
330
1
100
AcDbSymbolTableRecord
100
AcDbBlockTableRecord
  2
*D26
340
0
  0
BLOCK_RECORD
  5
3A0
330
1
100
AcDbSymbolTableRecord
100
AcDbBlockTableRecord
  2
*D27
340
0
  0
BLOCK_RECORD
  5
3AD
330
1
100
AcDbSymbolTableRecord
100
AcDbBlockTableRecord
  2
*D28
340
0
  0
ENDTAB
  0
ENDSEC
  0
SECTION
  2
BLOCKS
  0
BLOCK
  5
20
330
1F
100
AcDbEntity
  8
0
100
AcDbBlockBegin
  2
*Model_Space
 70
     0
 10
0.0
 20
0.0
 30
0.0
  3
*Model_Space
  1

  0
ENDBLK
  5
21
330
1F
100
AcDbEntity
  8
0
100
AcDbBlockEnd
  0
BLOCK
  5
1C
330
1B
100
AcDbEntity
 67
     1
  8
0
100
AcDbBlockBegin
  2
*Paper_Space
 70
     0
 10
0.0
 20
0.0
 30
0.0
  3
*Paper_Space
  1

  0
ENDBLK
  5
1D
330
1B
100
AcDbEntity
 67
     1
  8
0
100
AcDbBlockEnd
  0
BLOCK
  5
24
330
23
100
AcDbEntity
  8
0
100
AcDbBlockBegin
  2
*Paper_Space0
 70
     0
 10
0.0
 20
0.0
 30
0.0
  3
*Paper_Space0
  1

  0
ENDBLK
  5
25
330
23
100
AcDbEntity
  8
0
100
AcDbBlockEnd
  0
BLOCK
  5
73
330
72
100
AcDbEntity
  8
0
100
AcDbBlockBegin
  2
USER0001
 70
     0
 10
0.0
 20
0.0
 30
0.0
  3
USER0001
  1

  0
POINT
  5
7E
330
72
100
AcDbEntity
  8
0
 62
     0
100
AcDbPoint
 10
447.0
 20
49.0
 30
0.0
  0
POINT
  5
7F
330
72
100
AcDbEntity
  8
0
 62
     0
100
AcDbPoint
 10
0.0
 20
0.0
 30
0.0
  0
POINT
  5
80
330
72
100
AcDbEntity
  8
0
 62
     0
100
AcDbPoint
 10
527.0
 20
0.0
 30
0.0
  0
POINT
  5
81
330
72
100
AcDbEntity
  8
0
 62
     0
100
AcDbPoint
 10
0.0
 20
380.0
 30
0.0
  0
POINT
  5
82
330
72
100
AcDbEntity
  8
0
 62
     0
100
AcDbPoint
 10
527.0
 20
380.0
 30
0.0
  0
POINT
  5
83
330
72
100
AcDbEntity
  8
0
 62
     0
100
AcDbPoint
 10
0.0
 20
373.0
 30
0.0
  0
POINT
  5
84
330
72
100
AcDbEntity
  8
0
 62
     0
100
AcDbPoint
 10
70.0
 20
373.0
 30
0.0
  0
POINT
  5
85
330
72
100
AcDbEntity
  8
0
 62
     0
100
AcDbPoint
 10
447.0
 20
0.0
 30
0.0
  0
POINT
  5
86
330
72
100
AcDbEntity
  8
0
 62
     0
100
AcDbPoint
 10
407.0
 20
373.0
 30
0.0
  0
POINT
  5
87
330
72
100
AcDbEntity
  8
0
 62
     0
100
AcDbPoint
 10
424.0
 20
43.0
 30
0.0
  0
POINT
  5
88
330
72
100
AcDbEntity
  8
0
 62
     0
100
AcDbPoint
 10
424.0
 20
37.0
 30
0.0
  0
POINT
  5
89
330
72
100
AcDbEntity
  8
0
 62
     0
100
AcDbPoint
 10
424.0
 20
31.0
 30
0.0
  0
POINT
  5
8A
330
72
100
AcDbEntity
  8
0
 62
     0
100
AcDbPoint
 10
424.0
 20
25.0
 30
0.0
  0
POINT
  5
8B
330
72
100
AcDbEntity
  8
0
 62
     0
100
AcDbPoint
 10
424.0
 20
0.0
 30
0.0
  0
POINT
  5
8C
330
72
100
AcDbEntity
  8
0
 62
     0
100
AcDbPoint
 10
527.0
 20
49.0
 30
0.0
  0
POINT
  5
8D
330
72
100
AcDbEntity
  8
0
 62
     0
100
AcDbPoint
 10
500.333251953125
 20
37.0
 30
0.0
  0
POINT
  5
8E
330
72
100
AcDbEntity
  8
0
 62
     0
100
AcDbPoint
 10
411.0
 20
49.0
 30
0.0
  0
POINT
  5
8F
330
72
100
AcDbEntity
  8
0
 62
     0
100
AcDbPoint
 10
424.0
 20
7.0
 30
0.0
  0
POINT
  5
90
330
72
100
AcDbEntity
  8
0
 62
     0
100
AcDbPoint
 10
431.22216796875
 20
10.17052841186523
 30
0.0
  0
POINT
  5
91
330
72
100
AcDbEntity
  8
0
 62
     0
100
AcDbPoint
 10
425.550048828125
 20
3.5
 30
0.0
  0
POINT
  5
92
330
72
100
AcDbEntity
  8
0
 62
     0
100
AcDbPoint
 10
424.0
 20
49.0
 30
0.0
  0
POINT
  5
93
330
72
100
AcDbEntity
  8
0
 62
     0
100
AcDbPoint
 10
425.550048828125
 20
46.0
 30
0.0
  0
POINT
  5
94
330
72
100
AcDbEntity
  8
0
 62
     0
100
AcDbPoint
 10
425.550048828125
 20
40.0
 30
0.0
  0
POINT
  5
95
330
72
100
AcDbEntity
  8
0
 62
     0
100
AcDbPoint
 10
425.550048828125
 20
34.0
 30
0.0
  0
POINT
  5
96
330
72
100
AcDbEntity
  8
0
 62
     0
100
AcDbPoint
 10
425.550048828125
 20
28.0
 30
0.0
  0
POINT
  5
97
330
72
100
AcDbEntity
  8
0
 62
     0
100
AcDbPoint
 10
447.0
 20
9.9374418258667
 30
0.0
  0
POINT
  5
98
330
72
100
AcDbEntity
  8
0
 62
     0
100
AcDbPoint
 10
500.333251953125
 20
49.0
 30
0.0
  0
POINT
  5
99
330
72
100
AcDbEntity
  8
0
 62
     0
100
AcDbPoint
 10
527.0
 20
55.0
 30
0.0
  0
POINT
  5
9A
330
72
100
AcDbEntity
  8
0
 62
     0
100
AcDbPoint
 10
527.0
 20
61.0
 30
0.0
  0
POINT
  5
9B
330
72
100
AcDbEntity
  8
0
 62
     0
100
AcDbPoint
 10
527.0
 20
67.0
 30
0.0
  0
POINT
  5
9C
330
72
100
AcDbEntity
  8
0
 62
     0
100
AcDbPoint
 10
527.0
 20
73.0
 30
0.0
  0
POINT
  5
9D
330
72
100
AcDbEntity
  8
0
 62
     0
100
AcDbPoint
 10
527.0
 20
79.0
 30
0.0
  0
POINT
  5
9E
330
72
100
AcDbEntity
  8
0
 62
     0
100
AcDbPoint
 10
411.0
 20
55.0
 30
0.0
  0
POINT
  5
9F
330
72
100
AcDbEntity
  8
0
 62
     0
100
AcDbPoint
 10
411.0
 20
61.0
 30
0.0
  0
POINT
  5
A0
330
72
100
AcDbEntity
  8
0
 62
     0
100
AcDbPoint
 10
411.0
 20
67.0
 30
0.0
  0
POINT
  5
A1
330
72
100
AcDbEntity
  8
0
 62
     0
100
AcDbPoint
 10
411.0
 20
73.0
 30
0.0
  0
POINT
  5
A2
330
72
100
AcDbEntity
  8
0
 62
     0
100
AcDbPoint
 10
411.0
 20
79.0
 30
0.0
  0
POINT
  5
A3
330
72
100
AcDbEntity
  8
0
 62
     0
100
AcDbPoint
 10
0.0
 20
8.0
 30
0.0
  0
POINT
  5
A4
330
72
100
AcDbEntity
  8
0
 62
     0
100
AcDbPoint
 10
2.600000381469727
 20
4.0
 30
0.0
  0
POINT
  5
A5
330
72
100
AcDbEntity
  8
0
 62
     0
100
AcDbPoint
 10
45.0
 20
0.0
 30
0.0
  0
POINT
  5
A6
330
72
100
AcDbEntity
  8
0
 62
     0
100
AcDbPoint
 10
450.636474609375
 20
4.968721389770508
 30
0.0
  0
POINT
  5
A7
330
72
100
AcDbEntity
  8
0
 62
     0
100
AcDbPoint
 10
450.636474609375
 20
43.0
 30
0.0
  0
POINT
  5
A8
330
72
100
AcDbEntity
  8
0
 62
     0
100
AcDbPoint
 10
450.636474609375
 20
31.0
 30
0.0
  0
POINT
  5
A9
330
72
100
AcDbEntity
  8
0
 62
     0
100
AcDbPoint
 10
427.0
 20
-9.0
 30
0.0
  0
POINT
  5
AA
330
72
100
AcDbEntity
  8
0
 62
     0
100
AcDbPoint
 10
527.0
 20
-9.0
 30
0.0
  0
POINT
  5
AB
330
72
100
AcDbEntity
  8
0
 62
     0
100
AcDbPoint
 10
429.40380859375
 20
-6.0
 30
0.0
  0
POINT
  5
AC
330
72
100
AcDbEntity
  8
0
 62
     0
100
AcDbPoint
 10
427.0
 20
-3.0
 30
0.0
  0
POINT
  5
AD
330
72
100
AcDbEntity
  8
0
 62
     0
100
AcDbPoint
 10
527.0
 20
-3.0
 30
0.0
  0
LINE
  5
AE
330
72
100
AcDbEntity
  8
0
  6
Continuous
 62
     0
100
AcDbLine
 10
0.0
 20
0.0
 30
0.0
 11
527.0
 21
0.0
 31
0.0
  0
LINE
  5
AF
330
72
100
AcDbEntity
  8
0
  6
Continuous
 62
     0
100
AcDbLine
 10
0.0
 20
380.0
 30
0.0
 11
527.0
 21
380.0
 31
0.0
  0
LINE
  5
B0
330
72
100
AcDbEntity
  8
0
  6
Continuous
 62
     0
100
AcDbLine
 10
0.0
 20
380.0
 30
0.0
 11
0.0
 21
0.0
 31
0.0
  0
LINE
  5
B1
330
72
100
AcDbEntity
  8
0
  6
Continuous
 62
     0
100
AcDbLine
 10
527.0
 20
380.0
 30
0.0
 11
527.0
 21
0.0
 31
0.0
  0
LINE
  5
B2
330
72
100
AcDbEntity
  8
0
  6
Continuous
 62
     0
100
AcDbLine
 10
411.0
 20
7.0
 30
0.0
 11
447.0
 21
7.0
 31
0.0
  0
LINE
  5
B3
330
72
100
AcDbEntity
  8
0
  6
Continuous
 62
     0
100
AcDbLine
 10
411.0
 20
13.0
 30
0.0
 11
447.0
 21
13.0
 31
0.0
  0
LINE
  5
B4
330
72
100
AcDbEntity
  8
0
  6
Continuous
 62
     0
100
AcDbLine
 10
411.0
 20
25.0
 30
0.0
 11
447.0
 21
25.0
 31
0.0
  0
LINE
  5
B5
330
72
100
AcDbEntity
  8
0
  6
Continuous
 62
     0
100
AcDbLine
 10
411.0
 20
31.0
 30
0.0
 11
447.0
 21
31.0
 31
0.0
  0
LINE
  5
B6
330
72
100
AcDbEntity
  8
0
  6
Continuous
 62
     0
100
AcDbLine
 10
411.0
 20
37.0
 30
0.0
 11
447.0
 21
37.0
 31
0.0
  0
LINE
  5
B7
330
72
100
AcDbEntity
  8
0
  6
Continuous
 62
     0
100
AcDbLine
 10
411.0
 20
43.0
 30
0.0
 11
447.0
 21
43.0
 31
0.0
  0
LINE
  5
B8
330
72
100
AcDbEntity
  8
0
  6
Continuous
 62
     0
100
AcDbLine
 10
411.0
 20
49.0
 30
0.0
 11
527.0
 21
49.0
 31
0.0
  0
LINE
  5
B9
330
72
100
AcDbEntity
  8
0
  6
Continuous
 62
     0
100
AcDbLine
 10
447.0
 20
49.0
 30
0.0
 11
447.0
 21
0.0
 31
0.0
  0
LINE
  5
BA
330
72
100
AcDbEntity
  8
0
  6
Continuous
 62
     0
100
AcDbLine
 10
411.0
 20
49.0
 30
0.0
 11
411.0
 21
0.0
 31
0.0
  0
LINE
  5
BB
330
72
100
AcDbEntity
  8
0
  6
Continuous
 62
     0
100
AcDbLine
 10
45.0
 20
8.0
 30
0.0
 11
45.0
 21
0.0
 31
0.0
  0
LINE
  5
BC
330
72
100
AcDbEntity
  8
0
  6
Continuous
 62
     0
100
AcDbLine
 10
449.423828125
 20
37.0
 30
0.0
 11
524.23974609375
 21
37.0
 31
0.0
  0
LINE
  5
BD
330
72
100
AcDbEntity
  8
0
  6
Continuous
 62
     0
100
AcDbLine
 10
415.949462890625
 20
19.0
 30
0.0
 11
441.424560546875
 21
19.0
 31
0.0
  0
LINE
  5
BE
330
72
100
AcDbEntity
  8
0
  6
Continuous
 62
     0
100
AcDbLine
 10
421.7021484375
 20
24.13919067382812
 30
0.0
 11
421.7021484375
 21
13.96968555450439
 31
0.0
  0
LINE
  5
BF
330
72
100
AcDbEntity
  8
0
  6
Continuous
 62
     0
100
AcDbLine
 10
430.19384765625
 20
21.0
 30
0.0
 11
430.19384765625
 21
17.0
 31
0.0
  0
LINE
  5
C0
330
72
100
AcDbEntity
  8
0
  6
Continuous
 62
     0
100
AcDbLine
 10
439.712646484375
 20
23.0
 30
0.0
 11
439.712646484375
 21
15.00000286102295
 31
0.0
  0
LINE
  5
C1
330
72
100
AcDbEntity
  8
0
  6
Continuous
 62
     0
100
AcDbLine
 10
430.1940341656595
 20
21.00003876867466
 30
0.0
 11
439.7127569170142
 21
23.00002258092114
 31
0.0
  0
LINE
  5
C2
330
72
100
AcDbEntity
  8
0
  6
Continuous
 62
     0
100
AcDbLine
 10
430.1939070971576
 20
16.99998542216311
 30
0.0
 11
439.7126298485124
 21
15.00000160991664
 31
0.0
  0
LINE
  5
C3
330
72
100
AcDbEntity
  8
0
  6
Continuous
 62
     0
100
AcDbLine
 10
0.0
 20
8.0
 30
0.0
 11
45.0
 21
8.0
 31
0.0
  0
LINE
  5
C4
330
72
100
AcDbEntity
  8
0
  6
Continuous
 62
     0
100
AcDbLine
 10
7.0
 20
380.0
 30
0.0
 11
7.0
 21
373.0
 31
0.0
  0
LINE
  5
C5
330
72
100
AcDbEntity
  8
0
  6
Continuous
 62
     0
100
AcDbLine
 10
40.0
 20
380.0
 30
0.0
 11
40.0
 21
373.0
 31
0.0
  0
LINE
  5
C6
330
72
100
AcDbEntity
  8
0
  6
Continuous
 62
     0
100
AcDbLine
 10
55.0
 20
380.0
 30
0.0
 11
55.0
 21
373.0
 31
0.0
  0
LINE
  5
C7
330
72
100
AcDbEntity
  8
0
  6
Continuous
 62
     0
100
AcDbLine
 10
70.0
 20
380.0
 30
0.0
 11
70.0
 21
373.0
 31
0.0
  0
LINE
  5
C8
330
72
100
AcDbEntity
  8
0
  6
Continuous
 62
     0
100
AcDbLine
 10
0.0
 20
373.0
 30
0.0
 11
70.0
 21
373.0
 31
0.0
  0
LINE
  5
C9
330
72
100
AcDbEntity
  8
0
  6
Continuous
 62
     0
100
AcDbLine
 10
447.0
 20
13.0
 30
0.0
 11
527.0
 21
13.0
 31
0.0
  0
LINE
  5
CA
330
72
100
AcDbEntity
  8
0
  6
Continuous
 62
     0
100
AcDbLine
 10
447.0
 20
25.0
 30
0.0
 11
527.0
 21
25.0
 31
0.0
  0
LINE
  5
CB
330
72
100
AcDbEntity
  8
0
  6
Continuous
 62
     0
100
AcDbLine
 10
454.272705078125
 20
1.0
 30
0.0
 11
454.272705078125
 21
0.0
 31
0.0
  0
LINE
  5
CC
330
72
100
AcDbEntity
  8
0
  6
Continuous
 62
     0
100
AcDbLine
 10
461.54541015625
 20
1.0
 30
0.0
 11
461.54541015625
 21
0.0
 31
0.0
  0
LINE
  5
CD
330
72
100
AcDbEntity
  8
0
  6
Continuous
 62
     0
100
AcDbLine
 10
468.818115234375
 20
1.0
 30
0.0
 11
468.818115234375
 21
0.0
 31
0.0
  0
LINE
  5
CE
330
72
100
AcDbEntity
  8
0
  6
Continuous
 62
     0
100
AcDbLine
 10
476.0908203125
 20
1.0
 30
0.0
 11
476.0908203125
 21
0.0
 31
0.0
  0
LINE
  5
CF
330
72
100
AcDbEntity
  8
0
  6
Continuous
 62
     0
100
AcDbLine
 10
483.363525390625
 20
1.0
 30
0.0
 11
483.363525390625
 21
0.0
 31
0.0
  0
LINE
  5
D0
330
72
100
AcDbEntity
  8
0
  6
Continuous
 62
     0
100
AcDbLine
 10
490.636474609375
 20
1.0
 30
0.0
 11
490.636474609375
 21
0.0
 31
0.0
  0
LINE
  5
D1
330
72
100
AcDbEntity
  8
0
  6
Continuous
 62
     0
100
AcDbLine
 10
497.9091796875
 20
1.0
 30
0.0
 11
497.9091796875
 21
0.0
 31
0.0
  0
LINE
  5
D2
330
72
100
AcDbEntity
  8
0
  6
Continuous
 62
     0
100
AcDbLine
 10
505.181884765625
 20
1.0
 30
0.0
 11
505.181884765625
 21
0.0
 31
0.0
  0
LINE
  5
D3
330
72
100
AcDbEntity
  8
0
  6
Continuous
 62
     0
100
AcDbLine
 10
512.45458984375
 20
1.0
 30
0.0
 11
512.45458984375
 21
0.0
 31
0.0
  0
LINE
  5
D4
330
72
100
AcDbEntity
  8
0
  6
DASHED
 62
     0
100
AcDbLine
 10
519.727294921875
 20
13.0
 30
0.0
 11
519.727294921875
 21
0.0
 31
0.0
  0
LINE
  5
D5
330
72
100
AcDbEntity
  8
0
  6
CENTER
 62
     0
100
AcDbLine
 10
424.0
 20
49.0
 30
0.0
 11
424.0
 21
0.0
 31
0.0
  0
LINE
  5
D6
330
72
100
AcDbEntity
  8
0
  6
CENTER
 62
     0
100
AcDbLine
 10
447.0
 20
9.9374418258667
 30
0.0
 11
475.025634765625
 21
9.9374418258667
 31
0.0
  0
LINE
  5
D7
330
72
100
AcDbEntity
  8
0
  6
CENTER
 62
     0
100
AcDbLine
 10
475.025634765625
 20
13.0
 30
0.0
 11
475.025634765625
 21
9.9374418258667
 31
0.0
  0
LINE
  5
D8
330
72
100
AcDbEntity
  8
0
  6
Continuous
 62
     0
100
AcDbLine
 10
433.4462714913551
 20
7.946146980282123
 30
0.0
 11
437.3804161291628
 21
11.88029161808979
 31
0.0
  0
LINE
  5
D9
330
72
100
AcDbEntity
  8
0
  6
Continuous
 62
     0
100
AcDbLine
 10
407.0
 20
373.0
 30
0.0
 11
527.0
 21
373.0
 31
0.0
  0
LINE
  5
DA
330
72
100
AcDbEntity
  8
0
  6
Continuous
 62
     0
100
AcDbLine
 10
407.0
 20
380.0
 30
0.0
 11
407.0
 21
373.0
 31
0.0
  0
LINE
  5
DB
330
72
100
AcDbEntity
  8
0
  6
Continuous
 62
     0
100
AcDbLine
 10
446.9999092572222
 20
25.00000404161395
 30
0.0
 11
526.9999347315648
 21
12.99999949720473
 31
0.0
  0
LINE
  5
DC
330
72
100
AcDbEntity
  8
0
  6
Continuous
 62
     0
100
AcDbLine
 10
526.9999608030269
 20
24.99999756353523
 30
0.0
 11
446.9999353286841
 21
12.99999301912601
 31
0.0
  0
LINE
  5
DD
330
72
100
AcDbEntity
  8
0
  6
Continuous
 62
     0
100
AcDbLine
 10
427.0
 20
-9.0
 30
0.0
 11
527.0
 21
-9.0
 31
0.0
  0
LINE
  5
DE
330
72
100
AcDbEntity
  8
0
  6
Continuous
 62
     0
100
AcDbLine
 10
427.0
 20
-3.0
 30
0.0
 11
427.0
 21
-9.0
 31
0.0
  0
LINE
  5
DF
330
72
100
AcDbEntity
  8
0
  6
Continuous
 62
     0
100
AcDbLine
 10
527.0
 20
-3.0
 30
0.0
 11
527.0
 21
-9.0
 31
0.0
  0
LINE
  5
E0
330
72
100
AcDbEntity
  8
0
  6
Continuous
 62
     0
100
AcDbLine
 10
427.0
 20
-3.0
 30
0.0
 11
527.0
 21
-3.0
 31
0.0
  0
CIRCLE
  5
E1
330
72
100
AcDbEntity
  8
0
  6
Continuous
 62
     0
100
AcDbCircle
 10
421.7021484375
 20
19.0
 30
0.0
 40
2.0
  0
CIRCLE
  5
E2
330
72
100
AcDbEntity
  8
0
  6
Continuous
 62
     0
100
AcDbCircle
 10
421.7021484375
 20
19.0
 30
0.0
 40
4.0
  0
ENDBLK
  5
74
330
72
100
AcDbEntity
  8
0
100
AcDbBlockEnd
  0
BLOCK
  5
76
330
75
100
AcDbEntity
  8
0
100
AcDbBlockBegin
  2
DTL0001
 70
     0
 10
0.0
 20
0.0
 30
0.0
  3
DTL0001
  1

  0
POINT
  5
E3
330
75
100
AcDbEntity
  8
0
 62
     0
100
AcDbPoint
 10
83.99999904632543
 20
-31.99999523162865
 30
0.0
  0
POINT
  5
E4
330
75
100
AcDbEntity
  8
0
 62
     0
100
AcDbPoint
 10
33.99999904632585
 20
-34.99999523162853
 30
0.0
  0
POINT
  5
E5
330
75
100
AcDbEntity
  8
0
 62
     0
100
AcDbPoint
 10
83.99999904632568
 20
-17.99999618530285
 30
0.0
  0
POINT
  5
E6
330
75
100
AcDbEntity
  8
0
 62
     0
100
AcDbPoint
 10
-119.0000162124632
 20
-34.99999523162853
 30
0.0
  0
POINT
  5
E7
330
75
100
AcDbEntity
  8
0
 62
     0
100
AcDbPoint
 10
0.0
 20
0.0
 30
0.0
  0
POINT
  5
E8
330
75
100
AcDbEntity
  8
0
 62
     0
100
AcDbPoint
 10
-108.0000162124634
 20
0.0
 30
0.0
  0
POINT
  5
E9
330
75
100
AcDbEntity
  8
0
 62
     0
100
AcDbPoint
 10
0.0
 20
0.0
 30
0.0
  0
LINE
  5
EA
330
75
100
AcDbEntity
  8
0
  6
Continuous
 62
     0
100
AcDbLine
 10
-124.0000162124632
 20
-64.99999523162853
 30
0.0
 11
-90.00001621246324
 21
-64.99999523162853
 31
0.0
  0
LINE
  5
EB
330
75
100
AcDbEntity
  8
0
  6
Continuous
 62
     7
100
AcDbLine
 10
43.99999904632585
 20
-49.24999523162842
 30
0.0
 11
38.99999904632585
 21
-49.24999523162842
 31
0.0
  0
LINE
  5
EC
330
75
100
AcDbEntity
  8
0
  6
Continuous
 62
     0
100
AcDbLine
 10
-119.0000162124632
 20
-49.99999523162853
 30
0.0
 11
-94.00001621246324
 21
-49.99999523162853
 31
0.0
  0
LINE
  5
ED
330
75
100
AcDbEntity
  8
0
  6
Continuous
 62
     0
100
AcDbLine
 10
-124.0000162124632
 20
-58.99999523162842
 30
0.0
 11
-90.00001621246324
 21
-58.99999523162842
 31
0.0
  0
LINE
  5
EE
330
75
100
AcDbEntity
  8
0
  6
Continuous
 62
     0
100
AcDbLine
 10
-90.0000162124633
 20
-58.99999523162842
 30
0.0
 11
-90.0000162124633
 21
-64.99999523162853
 31
0.0
  0
LINE
  5
EF
330
75
100
AcDbEntity
  8
0
  6
Continuous
 62
     7
100
AcDbLine
 10
-129.0000162124632
 20
-49.24999523162842
 30
0.0
 11
-129.0000162124632
 21
-37.74999713897705
 31
0.0
  0
LINE
  5
F0
330
75
100
AcDbEntity
  8
0
  6
DASHED
 62
     0
100
AcDbLine
 10
-110.0000162124633
 20
-58.99999523162842
 30
0.0
 11
-110.0000162124633
 21
-64.99999523162853
 31
0.0
  0
LINE
  5
F1
330
75
100
AcDbEntity
  8
0
  6
Continuous
 62
     7
100
AcDbLine
 10
-129.0000162124632
 20
-37.74999713897716
 30
0.0
 11
-124.0000162124632
 21
-37.74999713897716
 31
0.0
  0
LINE
  5
F2
330
75
100
AcDbEntity
  8
0
  6
Continuous
 62
     7
100
AcDbLine
 10
-129.000016212463
 20
-46.49999523162842
 30
0.0
 11
-131.0000162124633
 21
-46.49999523162842
 31
0.0
  0
LINE
  5
F3
330
75
100
AcDbEntity
  8
0
  6
Continuous
 62
     7
100
AcDbLine
 10
43.99999904632585
 20
-46.374987602234
 30
0.0
 11
38.99999904632585
 21
-46.374987602234
 31
0.0
  0
LINE
  5
F4
330
75
100
AcDbEntity
  8
0
  6
DASHED
 62
     0
100
AcDbLine
 10
-100.0000162124633
 20
-58.99999523162842
 30
0.0
 11
-100.0000162124633
 21
-64.99999523162853
 31
0.0
  0
LINE
  5
F5
330
75
100
AcDbEntity
  8
0
  6
Continuous
 62
     0
100
AcDbLine
 10
-124.0000162124632
 20
-64.99999523162853
 30
0.0
 11
-124.0000162124632
 21
-34.99999523162853
 31
0.0
  0
LINE
  5
F6
330
75
100
AcDbEntity
  8
0
  6
Continuous
 62
     7
100
AcDbLine
 10
43.99999904632852
 20
-46.49999523162857
 30
0.0
 11
45.9999990463259
 21
-46.49999523162857
 31
0.0
  0
LINE
  5
F7
330
75
100
AcDbEntity
  8
0
  6
Continuous
 62
     4
100
AcDbLine
 10
69.99999904632574
 20
-30.99999523162853
 30
0.0
 11
63.59997844696062
 21
-30.99999523162853
 31
0.0
  0
LINE
  5
F8
330
75
100
AcDbEntity
  8
0
  6
Continuous
 62
     7
100
AcDbLine
 10
69.99999904632574
 20
-31.99999523162842
 30
0.0
 11
64.5999898910523
 21
-31.99999523162842
 31
0.0
  0
LINE
  5
F9
330
75
100
AcDbEntity
  8
0
  6
Continuous
 62
     4
100
AcDbLine
 10
69.99999904632598
 20
-18.99999618530277
 30
0.0
 11
63.59999370574975
 21
-18.99999618530278
 31
0.0
  0
LINE
  5
FA
330
75
100
AcDbEntity
  8
0
  6
Continuous
 62
     0
100
AcDbLine
 10
-119.0000162124632
 20
0.0
 30
0.0
 11
-119.0000162124632
 21
-49.99999523162853
 31
0.0
  0
LINE
  5
FB
330
75
100
AcDbEntity
  8
0
  6
Continuous
 62
     7
100
AcDbLine
 10
-129.0000162124632
 20
-49.24999523162842
 30
0.0
 11
-124.0000162124632
 21
-49.24999523162842
 31
0.0
  0
LINE
  5
FC
330
75
100
AcDbEntity
  8
0
  6
Continuous
 62
     7
100
AcDbLine
 10
45.99999904632591
 20
-43.49999523162842
 30
0.0
 11
45.99999904632591
 21
-46.49999523162853
 31
0.0
  0
LINE
  5
FD
330
75
100
AcDbEntity
  8
0
  6
Continuous
 62
     7
100
AcDbLine
 10
63.47497714688583
 20
-30.87499684084453
 30
0.0
 11
63.47499449268023
 21
-19.12499303871701
 31
0.0
  0
LINE
  5
FE
330
75
100
AcDbEntity
  8
0
  6
Continuous
 62
     7
100
AcDbLine
 10
83.99999904632564
 20
-31.99999523162861
 30
0.0
 11
77.99999928474476
 21
-31.99999523162861
 31
0.0
  0
LINE
  5
FF
330
75
100
AcDbEntity
  8
0
  6
CENTER
 62
     4
100
AcDbLine
 10
43.93972167907786
 20
-6.499996185302734
 30
0.0
 11
-128.4200901246765
 21
-6.499996185302734
 31
0.0
  0
LINE
  5
100
330
75
100
AcDbEntity
  8
0
  6
CENTER
 62
     4
100
AcDbLine
 10
49.20488636602164
 20
-43.49999618530273
 30
0.0
 11
-134.5183784744709
 21
-43.49999618530273
 31
0.0
  0
LINE
  5
101
330
75
100
AcDbEntity
  8
0
  6
Continuous
 62
     0
100
AcDbLine
 10
84.99999904632574
 20
-30.9999952316285
 30
0.0
 11
83.99999904632548
 21
-31.99999523162875
 31
0.0
  0
LINE
  5
102
330
75
100
AcDbEntity
  8
0
  6
Continuous
 62
     7
100
AcDbLine
 10
43.99999904632585
 20
-37.74999523162853
 30
0.0
 11
38.99999904632585
 21
-37.74999523162853
 31
0.0
  0
LINE
  5
103
330
75
100
AcDbEntity
  8
0
  6
CENTER
 62
     4
100
AcDbLine
 10
-105.0000162124633
 20
-57.53437956451933
 30
0.0
 11
-105.0000162124633
 21
-66.53421720305869
 31
0.0
  0
LINE
  5
104
330
75
100
AcDbEntity
  8
0
  6
Continuous
 62
     7
100
AcDbLine
 10
-129.000016212463
 20
-40.49999523162842
 30
0.0
 11
-131.0000162124633
 21
-40.49999523162842
 31
0.0
  0
LINE
  5
105
330
75
100
AcDbEntity
  8
0
  6
Continuous
 62
     0
100
AcDbLine
 10
-124.0000162124632
 20
-34.99999523162853
 30
0.0
 11
-119.0000162124632
 21
-34.99999523162853
 31
0.0
  0
LINE
  5
106
330
75
100
AcDbEntity
  8
0
  6
Continuous
 62
     0
100
AcDbLine
 10
-118.0000162124632
 20
-49.99999523162853
 30
0.0
 11
-118.0000162124632
 21
-50.49999523162853
 31
0.0
  0
LINE
  5
107
330
75
100
AcDbEntity
  8
0
  6
Continuous
 62
     7
100
AcDbLine
 10
-131.0000162124633
 20
-43.4999952316283
 30
0.0
 11
-131.0000162124633
 21
-40.49999523162842
 31
0.0
  0
LINE
  5
108
330
75
100
AcDbEntity
  8
0
  6
Continuous
 62
     7
100
AcDbLine
 10
-119.0000162124634
 20
0.0
 30
0.0
 11
-94.00001621246344
 21
0.0
 31
0.0
  0
LINE
  5
109
330
75
100
AcDbEntity
  8
0
  6
Continuous
 62
     7
100
AcDbLine
 10
43.99999904632616
 20
-40.49999523162849
 30
0.0
 11
45.99999904632593
 21
-40.49999523162849
 31
0.0
  0
LINE
  5
10A
330
75
100
AcDbEntity
  8
0
  6
Continuous
 62
     7
100
AcDbLine
 10
38.99999904632614
 20
-9.499996185302813
 30
0.0
 11
40.99999904632594
 21
-9.499996185302809
 31
0.0
  0
LINE
  5
10B
330
75
100
AcDbEntity
  8
0
  6
Continuous
 62
     7
100
AcDbLine
 10
38.99999904632613
 20
-3.499996185302925
 30
0.0
 11
40.99999904632593
 21
-3.499996185302922
 31
0.0
  0
LINE
  5
10C
330
75
100
AcDbEntity
  8
0
  6
Continuous
 62
     7
100
AcDbLine
 10
38.9999990463258
 20
-9.374988555908317
 30
0.0
 11
33.9999990463258
 21
-9.374988555908317
 31
0.0
  0
LINE
  5
10D
330
75
100
AcDbEntity
  8
0
  6
Continuous
 62
     7
100
AcDbLine
 10
38.99999904632585
 20
-0.749996185302734
 30
0.0
 11
38.99999904632585
 21
-12.24999618530273
 31
0.0
  0
LINE
  5
10E
330
75
100
AcDbEntity
  8
0
  6
Continuous
 62
     7
100
AcDbLine
 10
-14.00000095367406
 20
-46.4999952316284
 30
0.0
 11
-94.00001621246317
 21
-46.49999523162842
 31
0.0
  0
LINE
  5
10F
330
75
100
AcDbEntity
  8
0
  6
Continuous
 62
     7
100
AcDbLine
 10
-14.00000095367406
 20
-40.49999523162855
 30
0.0
 11
-94.00001621246325
 21
-40.49999523162853
 31
0.0
  0
LINE
  5
110
330
75
100
AcDbEntity
  8
0
  6
Continuous
 62
     7
100
AcDbLine
 10
38.9999990463258
 20
-12.24999618530285
 30
0.0
 11
33.9999990463258
 21
-12.24999618530285
 31
0.0
  0
LINE
  5
111
330
75
100
AcDbEntity
  8
0
  6
Continuous
 62
     7
100
AcDbLine
 10
38.99999904632585
 20
-64.99999523162853
 30
0.0
 11
38.99999904632585
 21
-12.24999618530273
 31
0.0
  0
LINE
  5
112
330
75
100
AcDbEntity
  8
0
  6
Continuous
 62
     7
100
AcDbLine
 10
64.59998564320657
 20
-32.00000320836729
 30
0.0
 11
63.47497912969902
 21
-30.87499650519779
 31
0.0
  0
LINE
  5
113
330
75
100
AcDbEntity
  8
0
  6
Continuous
 62
     7
100
AcDbLine
 10
56.99999904632585
 20
-19.70849227905285
 30
0.0
 11
52.49999904632574
 21
-19.70849227905285
 31
0.0
  0
LINE
  5
114
330
75
100
AcDbEntity
  8
0
  6
Continuous
 62
     7
100
AcDbLine
 10
56.99999904632585
 20
-30.29149913787853
 30
0.0
 11
52.49999904632574
 21
-30.29149913787853
 31
0.0
  0
LINE
  5
115
330
75
100
AcDbEntity
  8
0
  6
Continuous
 62
     7
100
AcDbLine
 10
52.49999904632585
 20
-30.2914991378783
 30
0.0
 11
52.49999904632585
 21
-19.70849227905251
 31
0.0
  0
LINE
  5
116
330
75
100
AcDbEntity
  8
0
  6
Continuous
 62
     7
100
AcDbLine
 10
69.99999904632574
 20
-17.99999618530285
 30
0.0
 11
64.60000514984159
 21
-17.99999618530285
 31
0.0
  0
LINE
  5
117
330
75
100
AcDbEntity
  8
0
  6
Continuous
 62
     7
100
AcDbLine
 10
64.59998989105222
 20
-17.99999618530262
 30
0.0
 11
64.59998989105222
 21
-31.9999952316283
 31
0.0
  0
LINE
  5
118
330
75
100
AcDbEntity
  8
0
  6
Continuous
 62
     7
100
AcDbLine
 10
56.99999904632588
 20
-32.99999523162846
 30
0.0
 11
38.99999904632588
 21
-32.99999523162847
 31
0.0
  0
LINE
  5
119
330
75
100
AcDbEntity
  8
0
  6
Continuous
 62
     7
100
AcDbLine
 10
64.5999920654028
 20
-17.99999527633999
 30
0.0
 11
63.47499094669147
 21
-19.12499658471234
 31
0.0
  0
LINE
  5
11A
330
75
100
AcDbEntity
  8
0
  6
Continuous
 62
     7
100
AcDbLine
 10
63.47497844696051
 20
-29.87499523162842
 30
0.0
 11
60.99999904632597
 21
-29.87499523162842
 31
0.0
  0
LINE
  5
11B
330
75
100
AcDbEntity
  8
0
  6
Continuous
 62
     7
100
AcDbLine
 10
60.00006821948811
 20
-32.19611615930264
 30
0.0
 11
56.99998832591915
 21
-32.9999851507509
 31
0.0
  0
LINE
  5
11C
330
75
100
AcDbEntity
  8
0
  6
Continuous
 62
     4
100
AcDbLine
 10
84.9999990463256
 20
-18.9999961853029
 30
0.0
 11
77.99999928474452
 21
-18.9999961853029
 31
0.0
  0
LINE
  5
11D
330
75
100
AcDbEntity
  8
0
  6
Continuous
 62
     7
100
AcDbLine
 10
56.99999904632574
 20
-32.99999523162842
 30
0.0
 11
56.99999904632574
 21
-30.2914991378783
 31
0.0
  0
LINE
  5
11E
330
75
100
AcDbEntity
  8
0
  6
Continuous
 62
     7
100
AcDbLine
 10
56.99999904632563
 20
-16.99999618530262
 30
0.0
 11
38.99999904632585
 21
-16.99999618530262
 31
0.0
  0
LINE
  5
11F
330
75
100
AcDbEntity
  8
0
  6
Continuous
 62
     7
100
AcDbLine
 10
83.99999904632568
 20
-17.99999618530273
 30
0.0
 11
83.99999904632568
 21
-31.99999523162842
 31
0.0
  0
LINE
  5
120
330
75
100
AcDbEntity
  8
0
  6
Continuous
 62
     7
100
AcDbLine
 10
63.4749937057498
 20
-19.12499618530285
 30
0.0
 11
60.99999904632597
 21
-19.12499618530285
 31
0.0
  0
LINE
  5
121
330
75
100
AcDbEntity
  8
0
  6
Continuous
 62
     7
100
AcDbLine
 10
56.99999904632574
 20
-16.99999618530251
 30
0.0
 11
56.99999904632574
 21
-19.70849227905251
 31
0.0
  0
LINE
  5
122
330
75
100
AcDbEntity
  8
0
  6
Continuous
 62
     7
100
AcDbLine
 10
59.99999179333242
 20
-17.80385761248139
 30
0.0
 11
57.00000033291418
 21
-17.00001231662464
 31
0.0
  0
LINE
  5
123
330
75
100
AcDbEntity
  8
0
  6
Continuous
 62
     4
100
AcDbLine
 10
84.99999904632561
 20
-30.99999523162847
 30
0.0
 11
77.99999928474448
 21
-30.99999523162847
 31
0.0
  0
LINE
  5
124
330
75
100
AcDbEntity
  8
0
  6
Continuous
 62
     7
100
AcDbLine
 10
59.99999904632566
 20
-17.80384445190418
 30
0.0
 11
59.99999904632566
 21
-32.19614696502674
 31
0.0
  0
LINE
  5
125
330
75
100
AcDbEntity
  8
0
  6
Continuous
 62
     7
100
AcDbLine
 10
83.99999904632568
 20
-17.99999618530285
 30
0.0
 11
77.99999928474443
 21
-17.99999618530285
 31
0.0
  0
LINE
  5
126
330
75
100
AcDbEntity
  8
0
  6
Continuous
 62
     7
100
AcDbLine
 10
84.99999904632566
 20
-18.99999618530285
 30
0.0
 11
84.99999904632566
 21
-30.99999523162842
 31
0.0
  0
LINE
  5
127
330
75
100
AcDbEntity
  8
0
  6
Continuous
 62
     0
100
AcDbLine
 10
-94.00001621246341
 20
-9.49999618530262
 30
0.0
 11
-14.00000095367406
 21
-9.49999618530262
 31
0.0
  0
LINE
  5
128
330
75
100
AcDbEntity
  8
0
  6
Continuous
 62
     0
100
AcDbLine
 10
-94.00001621246341
 20
-3.499996185302848
 30
0.0
 11
-14.00000095367406
 21
-3.499996185302848
 31
0.0
  0
LINE
  5
129
330
75
100
AcDbEntity
  8
0
  6
Continuous
 62
     0
100
AcDbLine
 10
84.99999904632563
 20
-18.99999618530292
 30
0.0
 11
83.99999904632563
 21
-17.99999618530291
 31
0.0
  0
LINE
  5
12A
330
75
100
AcDbEntity
  8
0
  6
Continuous
 62
     7
100
AcDbLine
 10
43.99999904632585
 20
-37.74999523162842
 30
0.0
 11
43.99999904632585
 21
-49.24999523162842
 31
0.0
  0
LINE
  5
12B
330
75
100
AcDbEntity
  8
0
  6
Continuous
 62
     7
100
AcDbLine
 10
33.99999904632585
 20
0.000003814697266
 30
0.0
 11
33.99999904632585
 21
-49.99999523162853
 31
0.0
  0
LINE
  5
12C
330
75
100
AcDbEntity
  8
0
  6
Continuous
 62
     7
100
AcDbLine
 10
43.99999904632585
 20
-40.62500286102295
 30
0.0
 11
38.99999904632585
 21
-40.62500286102295
 31
0.0
  0
LINE
  5
12D
330
75
100
AcDbEntity
  8
0
  6
Continuous
 62
     7
100
AcDbLine
 10
-129.0000162124632
 20
-40.62500286102295
 30
0.0
 11
-124.0000162124632
 21
-40.62500286102295
 31
0.0
  0
LINE
  5
12E
330
75
100
AcDbEntity
  8
0
  6
Continuous
 62
     7
100
AcDbLine
 10
38.9999990463258
 20
-0.749996185302848
 30
0.0
 11
33.9999990463258
 21
-0.749996185302848
 31
0.0
  0
LINE
  5
12F
330
75
100
AcDbEntity
  8
0
  6
Continuous
 62
     7
100
AcDbLine
 10
-129.0000162124632
 20
-46.37498760223389
 30
0.0
 11
-124.0000162124632
 21
-46.37498760223389
 31
0.0
  0
LINE
  5
130
330
75
100
AcDbEntity
  8
0
  6
Continuous
 62
     7
100
AcDbLine
 10
45.99999904632591
 20
-43.49999523162842
 30
0.0
 11
45.99999904632591
 21
-40.49999523162842
 31
0.0
  0
LINE
  5
131
330
75
100
AcDbEntity
  8
0
  6
CENTER
 62
     4
100
AcDbLine
 10
89.30344833586844
 20
-24.99999618530273
 30
0.0
 11
-122.0027933120724
 21
-24.99999618530273
 31
0.0
  0
LINE
  5
132
330
75
100
AcDbEntity
  8
0
  6
Continuous
 62
     7
100
AcDbLine
 10
38.9999990463258
 20
-3.625003814697379
 30
0.0
 11
33.9999990463258
 21
-3.625003814697379
 31
0.0
  0
LINE
  5
133
330
75
100
AcDbEntity
  8
0
  6
Continuous
 62
     0
100
AcDbLine
 10
32.9999990463258
 20
-49.99999523162853
 30
0.0
 11
32.9999990463258
 21
-50.49999523162853
 31
0.0
  0
LINE
  5
134
330
75
100
AcDbEntity
  8
0
  6
Continuous
 62
     0
100
AcDbLine
 10
33.99999904632585
 20
-49.99999523162853
 30
0.0
 11
24.0000000000002
 21
-49.99999523162853
 31
0.0
  0
LINE
  5
135
330
75
100
AcDbEntity
  8
0
  6
Continuous
 62
     7
100
AcDbLine
 10
24.0000000000002
 20
0.000003814697266
 30
0.0
 11
24.0000000000002
 21
-49.99999523162842
 31
0.0
  0
LINE
  5
136
330
75
100
AcDbEntity
  8
0
  6
Continuous
 62
     7
100
AcDbLine
 10
24.00000000000011
 20
0.0
 30
0.0
 11
-14.0000009536742
 21
0.0
 31
0.0
  0
LINE
  5
137
330
75
100
AcDbEntity
  8
0
  6
Continuous
 62
     7
100
AcDbLine
 10
-14.00000095367406
 20
0.0
 30
0.0
 11
-14.00000095367406
 21
-49.99999523162842
 31
0.0
  0
LINE
  5
138
330
75
100
AcDbEntity
  8
0
  6
Continuous
 62
     7
100
AcDbLine
 10
24.00000000000011
 20
-49.99999523162853
 30
0.0
 11
-14.0000009536742
 21
-49.99999523162853
 31
0.0
  0
LINE
  5
139
330
75
100
AcDbEntity
  8
0
  6
Continuous
 62
     7
100
AcDbLine
 10
-131.0000162124633
 20
-43.4999952316283
 30
0.0
 11
-131.0000162124633
 21
-46.49999523162842
 31
0.0
  0
LINE
  5
13A
330
75
100
AcDbEntity
  8
0
  6
Continuous
 62
     0
100
AcDbLine
 10
38.99999904632585
 20
-58.99999523162853
 30
0.0
 11
4.999999046325883
 21
-58.99999523162853
 31
0.0
  0
LINE
  5
13B
330
75
100
AcDbEntity
  8
0
  6
DASHED
 62
     0
100
AcDbLine
 10
24.99999904632588
 20
-58.99999523162853
 30
0.0
 11
24.99999904632588
 21
-64.99999523162853
 31
0.0
  0
LINE
  5
13C
330
75
100
AcDbEntity
  8
0
  6
DASHED
 62
     0
100
AcDbLine
 10
14.99999904632588
 20
-58.99999523162853
 30
0.0
 11
14.99999904632588
 21
-64.99999523162853
 31
0.0
  0
LINE
  5
13D
330
75
100
AcDbEntity
  8
0
  6
Continuous
 62
     7
100
AcDbLine
 10
77.99999928474443
 20
-37.70170211791992
 30
0.0
 11
69.99999904632557
 21
-37.70170211791992
 31
0.0
  0
LINE
  5
13E
330
75
100
AcDbEntity
  8
0
  6
Continuous
 62
     7
100
AcDbLine
 10
77.99999928474443
 20
-31.3508415222168
 30
0.0
 11
69.99999904632557
 21
-31.3508415222168
 31
0.0
  0
LINE
  5
13F
330
75
100
AcDbEntity
  8
0
  6
Continuous
 62
     7
100
AcDbLine
 10
77.99999928474443
 20
-18.64914321899425
 30
0.0
 11
69.99999904632557
 21
-18.64914321899425
 31
0.0
  0
LINE
  5
140
330
75
100
AcDbEntity
  8
0
  6
Continuous
 62
     7
100
AcDbLine
 10
77.99999928474443
 20
-12.29829025268566
 30
0.0
 11
69.99999904632557
 21
-12.29829025268566
 31
0.0
  0
LINE
  5
141
330
75
100
AcDbEntity
  8
0
  6
Continuous
 62
     7
100
AcDbLine
 10
69.99999904632566
 20
-12.29829025268555
 30
0.0
 11
69.99999904632566
 21
-37.70170211791992
 31
0.0
  0
LINE
  5
142
330
75
100
AcDbEntity
  8
0
  6
Continuous
 62
     7
100
AcDbLine
 10
77.99999928474449
 20
-12.29829025268555
 30
0.0
 11
77.99999928474449
 21
-37.70170211791992
 31
0.0
  0
LINE
  5
143
330
75
100
AcDbEntity
  8
0
  6
Continuous
 62
     7
100
AcDbLine
 10
52.49999991781178
 20
-30.29149974118889
 30
0.0
 11
56.9999998907485
 21
-19.70849137649856
 31
0.0
  0
LINE
  5
144
330
75
100
AcDbEntity
  8
0
  6
Continuous
 62
     7
100
AcDbLine
 10
52.49999880721273
 20
-19.7084940209633
 30
0.0
 11
56.99999840697277
 21
-30.29150150802431
 31
0.0
  0
LINE
  5
145
330
75
100
AcDbEntity
  8
0
  6
Continuous
 62
     7
100
AcDbLine
 10
-84.13002109527557
 20
-5.299996376037598
 30
0.0
 11
-84.13002109527557
 21
-5.299996376037598
 31
0.0
  0
LINE
  5
146
330
75
100
AcDbEntity
  8
0
  6
Continuous
 62
     7
100
AcDbLine
 10
-14.00000095367406
 20
-46.99999523162843
 30
0.0
 11
-94.00000095367407
 21
-46.99999523162842
 31
0.0
  0
LINE
  5
147
330
75
100
AcDbEntity
  8
0
  6
Continuous
 62
     7
100
AcDbLine
 10
-14.00000095367406
 20
-2.999996185302734
 30
0.0
 11
-94.00000095367423
 21
-2.999996185302734
 31
0.0
  0
LINE
  5
148
330
75
100
AcDbEntity
  8
0
  6
Continuous
 62
     7
100
AcDbLine
 10
-124.0000162124631
 20
-3.499996185302848
 30
0.0
 11
-126.0000162124633
 21
-3.499996185302848
 31
0.0
  0
LINE
  5
149
330
75
100
AcDbEntity
  8
0
  6
Continuous
 62
     7
100
AcDbLine
 10
-124.0000162124631
 20
-9.49999618530262
 30
0.0
 11
-126.0000162124633
 21
-9.49999618530262
 31
0.0
  0
LINE
  5
14A
330
75
100
AcDbEntity
  8
0
  6
Continuous
 62
     0
100
AcDbLine
 10
40.99999904632594
 20
-3.499996185302962
 30
0.0
 11
40.99999904632594
 21
-9.499996185302734
 31
0.0
  0
LINE
  5
14B
330
75
100
AcDbEntity
  8
0
  6
Continuous
 62
     7
100
AcDbLine
 10
-124.0000162124633
 20
-0.749997138977051
 30
0.0
 11
-119.0000162124634
 21
-0.749997138977051
 31
0.0
  0
LINE
  5
14C
330
75
100
AcDbEntity
  8
0
  6
Continuous
 62
     7
100
AcDbLine
 10
-124.0000162124633
 20
-3.625003814697379
 30
0.0
 11
-119.0000162124634
 21
-3.625003814697379
 31
0.0
  0
LINE
  5
14D
330
75
100
AcDbEntity
  8
0
  6
Continuous
 62
     7
100
AcDbLine
 10
-124.0000162124632
 20
-12.24999618530273
 30
0.0
 11
-124.0000162124632
 21
-0.749997138977051
 31
0.0
  0
LINE
  5
14E
330
75
100
AcDbEntity
  8
0
  6
Continuous
 62
     7
100
AcDbLine
 10
-124.0000162124633
 20
-12.24999618530285
 30
0.0
 11
-119.0000162124634
 21
-12.24999618530285
 31
0.0
  0
LINE
  5
14F
330
75
100
AcDbEntity
  8
0
  6
Continuous
 62
     7
100
AcDbLine
 10
-94.00001621246324
 20
0.0
 30
0.0
 11
-94.00001621246324
 21
-49.99999523162842
 31
0.0
  0
LINE
  5
150
330
75
100
AcDbEntity
  8
0
  6
Continuous
 62
     7
100
AcDbLine
 10
-124.0000162124633
 20
-9.37498855590809
 30
0.0
 11
-119.0000162124634
 21
-9.37498855590809
 31
0.0
  0
LINE
  5
151
330
75
100
AcDbEntity
  8
0
  6
Continuous
 62
     7
100
AcDbLine
 10
24.00000000000011
 20
0.000003814697266
 30
0.0
 11
33.9999990463258
 21
0.000003814697266
 31
0.0
  0
LINE
  5
152
330
75
100
AcDbEntity
  8
0
  6
Continuous
 62
     0
100
AcDbLine
 10
4.999999046325883
 20
-58.99999523162853
 30
0.0
 11
4.999999046325883
 21
-64.99999523162853
 31
0.0
  0
LINE
  5
153
330
75
100
AcDbEntity
  8
0
  6
Continuous
 62
     0
100
AcDbLine
 10
38.99999904632585
 20
-64.99999523162853
 30
0.0
 11
4.999999046325883
 21
-64.99999523162853
 31
0.0
  0
LINE
  5
154
330
75
100
AcDbEntity
  8
0
  6
CENTER
 62
     4
100
AcDbLine
 10
19.99999904632588
 20
-57.53437956451944
 30
0.0
 11
19.99999904632588
 21
-66.5342172030588
 31
0.0
  0
LINE
  5
155
330
75
100
AcDbEntity
  8
0
  6
Continuous
 62
     0
100
AcDbLine
 10
38.99999904632585
 20
-34.99999523162853
 30
0.0
 11
33.99999904632585
 21
-34.99999523162853
 31
0.0
  0
LINE
  5
156
330
75
100
AcDbEntity
  8
0
  6
Continuous
 62
     0
100
AcDbLine
 10
-126.0000162124633
 20
-3.499996185302848
 30
0.0
 11
-126.0000162124633
 21
-9.49999618530262
 31
0.0
  0
LINE
  5
157
330
75
100
AcDbEntity
  8
0
  6
DASHED
 62
     0
100
AcDbLine
 10
-113.4500160217285
 20
-13.0
 30
0.0
 11
-102.5500164031982
 21
-13.0
 31
0.0
  0
LINE
  5
158
330
75
100
AcDbEntity
  8
0
  6
DASHED
 62
     0
100
AcDbLine
 10
-5.449999809265137
 20
-13.0
 30
0.0
 11
5.449999809265137
 21
-13.0
 31
0.0
  0
LINE
  5
159
330
75
100
AcDbEntity
  8
0
  6
DASHED
 62
     0
100
AcDbLine
 10
-5.450000000507305
 20
-13.00000042557035
 30
0.0
 11
-5.903969991154003
 21
-0.000000182548558
 31
0.0
  0
LINE
  5
15A
330
75
100
AcDbEntity
  8
0
  6
DASHED
 62
     0
100
AcDbLine
 10
5.449999080696747
 20
-12.99999943919412
 30
0.0
 11
5.903969038060694
 21
-0.000000149265694
 31
0.0
  0
LINE
  5
15B
330
75
100
AcDbEntity
  8
0
  6
DASHED
 62
     4
100
AcDbLine
 10
-6.376363235194791
 20
-11.00000092562104
 30
0.0
 11
-6.759448485757866
 21
-0.029874148466311
 31
0.0
  0
LINE
  5
15C
330
75
100
AcDbEntity
  8
0
  6
DASHED
 62
     4
100
AcDbLine
 10
6.37636228210142
 20
-11.0000008923384
 30
0.0
 11
6.759447532664494
 21
-0.029874115183672
 31
0.0
  0
LINE
  5
15D
330
75
100
AcDbEntity
  8
0
  6
DASHED
 62
     0
100
AcDbLine
 10
-6.376362800598145
 20
-11.0
 30
0.0
 11
6.376362800598145
 21
-11.0
 31
0.0
  0
LINE
  5
15E
330
75
100
AcDbEntity
  8
0
  6
DASHED
 62
     4
100
AcDbLine
 10
-5.469141445996192
 20
-12.45185746247937
 30
0.0
 11
-6.376362671447092
 21
-11.00000002561135
 31
0.0
  0
LINE
  5
15F
330
75
100
AcDbEntity
  8
0
  6
DASHED
 62
     4
100
AcDbLine
 10
5.469140940625874
 20
-12.45185827124104
 30
0.0
 11
6.37636267144717
 21
-11.00000002561133
 31
0.0
  0
LINE
  5
160
330
75
100
AcDbEntity
  8
0
  6
CENTER
 62
     4
100
AcDbLine
 10
0.0
 20
0.931477546691895
 30
0.0
 11
0.0
 21
-13.71783542633057
 31
0.0
  0
LINE
  5
161
330
75
100
AcDbEntity
  8
0
  6
DASHED
 62
     0
100
AcDbLine
 10
-113.4500162129707
 20
-13.00000042557028
 30
0.0
 11
-113.9039862036174
 21
-0.000000182548497
 31
0.0
  0
LINE
  5
162
330
75
100
AcDbEntity
  8
0
  6
DASHED
 62
     0
100
AcDbLine
 10
-102.5500171317667
 20
-12.99999943919418
 30
0.0
 11
-102.0960471744027
 21
-0.000000149265756
 31
0.0
  0
LINE
  5
163
330
75
100
AcDbEntity
  8
0
  6
DASHED
 62
     4
100
AcDbLine
 10
-114.3763794476582
 20
-11.0000009256212
 30
0.0
 11
-114.7594646982213
 21
-0.029874148466477
 31
0.0
  0
LINE
  5
164
330
75
100
AcDbEntity
  8
0
  6
DASHED
 62
     4
100
AcDbLine
 10
-101.6236539303619
 20
-11.00000089233858
 30
0.0
 11
-101.2405686797989
 21
-0.029874115183849
 31
0.0
  0
LINE
  5
165
330
75
100
AcDbEntity
  8
0
  6
DASHED
 62
     0
100
AcDbLine
 10
-114.3763790130615
 20
-11.0
 30
0.0
 11
-101.6236534118652
 21
-11.0
 31
0.0
  0
LINE
  5
166
330
75
100
AcDbEntity
  8
0
  6
DASHED
 62
     4
100
AcDbLine
 10
-113.4691576584597
 20
-12.45185746247928
 30
0.0
 11
-114.3763788839106
 21
-11.00000002561126
 31
0.0
  0
LINE
  5
167
330
75
100
AcDbEntity
  8
0
  6
DASHED
 62
     4
100
AcDbLine
 10
-102.5308752718377
 20
-12.45185827124097
 30
0.0
 11
-101.6236535410164
 21
-11.00000002561126
 31
0.0
  0
LINE
  5
168
330
75
100
AcDbEntity
  8
0
  6
CENTER
 62
     4
100
AcDbLine
 10
-108.0000162124634
 20
0.931477546691895
 30
0.0
 11
-108.0000162124634
 21
-13.71783542633057
 31
0.0
  0
ARC
  5
169
330
75
100
AcDbEntity
  8
0
  6
Continuous
 62
     7
100
AcDbCircle
 10
61.08395290374764
 20
-24.99999618530273
 30
0.0
 40
10.08386135101318
100
AcDbArc
 50
148.3485994427429
 51
180.0
  0
ARC
  5
16A
330
75
100
AcDbEntity
  8
0
  6
Continuous
 62
     7
100
AcDbCircle
 10
60.99999904632588
 20
-30.87499523162853
 30
0.0
 40
1.0
100
AcDbArc
 50
90.0000179860894
 51
180.0
  0
ARC
  5
16B
330
75
100
AcDbEntity
  8
0
  6
Continuous
 62
     7
100
AcDbCircle
 10
60.99999904632588
 20
-18.12499618530273
 30
0.0
 40
1.0
100
AcDbArc
 50
180.0
 51
269.9999820139107
  0
ARC
  5
16C
330
75
100
AcDbEntity
  8
0
  6
Continuous
 62
     0
100
AcDbCircle
 10
-109.5000162124632
 20
-50.49999523162842
 30
0.0
 40
8.5
100
AcDbArc
 50
180.0
 51
270.0
  0
ARC
  5
16D
330
75
100
AcDbEntity
  8
0
  6
Continuous
 62
     0
100
AcDbCircle
 10
24.49999904632577
 20
-50.49999523162853
 30
0.0
 40
8.5
100
AcDbArc
 50
270.0
 51
0.0
  0
ARC
  5
16E
330
75
100
AcDbEntity
  8
0
  6
Continuous
 62
     7
100
AcDbCircle
 10
61.08395290374764
 20
-24.99999618530273
 30
0.0
 40
10.08386135101318
100
AcDbArc
 50
180.0000173028428
 51
211.6514005572572
  0
ELLIPSE
  5
16F
330
75
100
AcDbEntity
  8
0
  6
Continuous
 62
     7
100
AcDbEllipse
 10
57.00000000000009
 20
-24.99999618530273
 30
0.0
 11
5.598017248971153
 21
0.0
 31
0.0
210
0.0
220
0.0
230
1.0
 40
0.9452460669688
 41
4.712389197903915
 42
5.277967108171266
  0
ELLIPSE
  5
170
330
75
100
AcDbEntity
  8
0
  6
Continuous
 62
     7
100
AcDbEllipse
 10
57.00000000000009
 20
-24.99999618530273
 30
0.0
 11
5.598017248971153
 21
0.0
 31
0.0
210
0.0
220
0.0
230
1.0
 40
0.9452460669688
 41
1.005218261752726
 42
1.570796326794897
  0
MTEXT
  5
171
330
75
100
AcDbEntity
  8
0
 62
     0
100
AcDbMText
 10
-12.47002428575525
 20
-23.54144374180191
 30
0.0
 40
0.5
 41
0.0
 71
     7
 72
     1
  1
{\W1;BN-6102A-LA-40}
 73
     1
 44
1.0
  0
ENDBLK
  5
77
330
75
100
AcDbEntity
  8
0
100
AcDbBlockEnd
  0
BLOCK
  5
79
330
78
100
AcDbEntity
  8
0
100
AcDbBlockBegin
  2
DTL0002
 70
     0
 10
0.0
 20
0.0
 30
0.0
  3
DTL0002
  1

  0
POINT
  5
172
330
78
100
AcDbEntity
  8
0
 62
     0
100
AcDbPoint
 10
-108.0000162124634
 20
0.0
 30
0.0
  0
POINT
  5
173
330
78
100
AcDbEntity
  8
0
 62
     0
100
AcDbPoint
 10
83.99999904632546
 20
-6.999999046325797
 30
0.0
  0
POINT
  5
174
330
78
100
AcDbEntity
  8
0
 62
     0
100
AcDbPoint
 10
83.99999904632554
 20
7.000000000000114
 30
0.0
  0
POINT
  5
175
330
78
100
AcDbEntity
  8
0
 62
     0
100
AcDbPoint
 10
0.0
 20
0.0
 30
0.0
  0
LINE
  5
176
330
78
100
AcDbEntity
  8
0
  6
Continuous
 62
     0
100
AcDbLine
 10
-124.0000162124632
 20
55.0
 30
0.0
 11
-90.0000162124633
 21
55.0
 31
0.0
  0
LINE
  5
177
330
78
100
AcDbEntity
  8
0
  6
Continuous
 62
     7
100
AcDbLine
 10
83.99999904632554
 20
7.000000000000114
 30
0.0
 11
83.99999904632554
 21
-6.99999904632557
 31
0.0
  0
LINE
  5
178
330
78
100
AcDbEntity
  8
0
  6
Continuous
 62
     0
100
AcDbLine
 10
84.99999904632575
 20
-5.999999046325627
 30
0.0
 11
83.99999904632554
 21
-6.99999904632584
 31
0.0
  0
LINE
  5
179
330
78
100
AcDbEntity
  8
0
  6
Continuous
 62
     0
100
AcDbLine
 10
84.99999904632567
 20
5.999999999999886
 30
0.0
 11
83.9999990463255
 21
7.000000000000057
 31
0.0
  0
LINE
  5
17A
330
78
100
AcDbEntity
  8
0
  6
Continuous
 62
     7
100
AcDbLine
 10
-102.2500162124634
 20
29.49999618530296
 30
0.0
 11
-102.2500162124634
 21
24.99999618530296
 31
0.0
  0
LINE
  5
17B
330
78
100
AcDbEntity
  8
0
  6
Continuous
 62
     7
100
AcDbLine
 10
2.850000000000023
 20
29.49999618530296
 30
0.0
 11
2.850000000000023
 21
24.99999618530296
 31
0.0
  0
LINE
  5
17C
330
78
100
AcDbEntity
  8
0
  6
Continuous
 62
     7
100
AcDbLine
 10
-113.7500162124634
 20
29.49999618530296
 30
0.0
 11
-113.7500162124634
 21
24.99999618530296
 31
0.0
  0
LINE
  5
17D
330
78
100
AcDbEntity
  8
0
  6
Continuous
 62
     7
100
AcDbLine
 10
5.75
 20
29.49999618530296
 30
0.0
 11
5.75
 21
24.99999618530296
 31
0.0
  0
LINE
  5
17E
330
78
100
AcDbEntity
  8
0
  6
Continuous
 62
     7
100
AcDbLine
 10
-5.75
 20
29.49999618530296
 30
0.0
 11
-5.75
 21
24.99999618530296
 31
0.0
  0
LINE
  5
17F
330
78
100
AcDbEntity
  8
0
  6
Continuous
 62
     7
100
AcDbLine
 10
-111.0000162124634
 20
34.99999618530285
 30
0.0
 11
-111.0000162124634
 21
29.49999618530296
 31
0.0
  0
LINE
  5
180
330
78
100
AcDbEntity
  8
0
  6
Continuous
 62
     7
100
AcDbLine
 10
-105.0000171661378
 20
34.99999618530285
 30
0.0
 11
-111.0000162124635
 21
34.99999618530285
 31
0.0
  0
LINE
  5
181
330
78
100
AcDbEntity
  8
0
  6
Continuous
 62
     7
100
AcDbLine
 10
-105.0000171661377
 20
34.99999618530285
 30
0.0
 11
-105.0000171661377
 21
29.49999618530296
 31
0.0
  0
LINE
  5
182
330
78
100
AcDbEntity
  8
0
  6
Continuous
 62
     7
100
AcDbLine
 10
-105.1500162124634
 20
29.49999618530296
 30
0.0
 11
-105.1500162124634
 21
24.99999618530296
 31
0.0
  0
LINE
  5
183
330
78
100
AcDbEntity
  8
0
  6
Continuous
 62
     7
100
AcDbLine
 10
-110.8500162124634
 20
29.49999618530296
 30
0.0
 11
-110.8500162124634
 21
24.99999618530296
 31
0.0
  0
LINE
  5
184
330
78
100
AcDbEntity
  8
0
  6
Continuous
 62
     7
100
AcDbLine
 10
-119.0000162124632
 20
24.99999618530285
 30
0.0
 11
-94.00001621246324
 21
24.99999618530285
 31
0.0
  0
LINE
  5
185
330
78
100
AcDbEntity
  8
0
  6
Continuous
 62
     7
100
AcDbLine
 10
-113.7500162124635
 20
29.49999618530285
 30
0.0
 11
-102.2500162124635
 21
29.49999618530285
 31
0.0
  0
LINE
  5
186
330
78
100
AcDbEntity
  8
0
  6
Continuous
 62
     7
100
AcDbLine
 10
-3.0
 20
34.99999618530285
 30
0.0
 11
-3.0
 21
29.49999618530302
 31
0.0
  0
LINE
  5
187
330
78
100
AcDbEntity
  8
0
  6
Continuous
 62
     7
100
AcDbLine
 10
2.999999046325684
 20
34.99999618530285
 30
0.0
 11
-3.0
 21
34.99999618530285
 31
0.0
  0
LINE
  5
188
330
78
100
AcDbEntity
  8
0
  6
Continuous
 62
     7
100
AcDbLine
 10
2.999999046325684
 20
34.99999618530285
 30
0.0
 11
2.999999046325684
 21
29.49999618530302
 31
0.0
  0
LINE
  5
189
330
78
100
AcDbEntity
  8
0
  6
Continuous
 62
     7
100
AcDbLine
 10
-2.850000000000023
 20
29.49999618530296
 30
0.0
 11
-2.850000000000023
 21
24.99999618530296
 31
0.0
  0
LINE
  5
18A
330
78
100
AcDbEntity
  8
0
  6
Continuous
 62
     7
100
AcDbLine
 10
-14.00000095367406
 20
24.99999618530285
 30
0.0
 11
24.0000000000002
 21
24.99999618530285
 31
0.0
  0
LINE
  5
18B
330
78
100
AcDbEntity
  8
0
  6
Continuous
 62
     7
100
AcDbLine
 10
-5.75
 20
29.49999618530285
 30
0.0
 11
5.75
 21
29.49999618530285
 31
0.0
  0
LINE
  5
18C
330
78
100
AcDbEntity
  8
0
  6
Continuous
 62
     0
100
AcDbLine
 10
69.99999904632557
 20
-10.99999999999989
 30
0.0
 11
77.99999928474443
 21
-10.99999999999989
 31
0.0
  0
LINE
  5
18D
330
78
100
AcDbEntity
  8
0
  6
Continuous
 62
     0
100
AcDbLine
 10
-131.0000162124633
 20
21.5
 30
0.0
 11
-131.0000162124633
 21
15.50000000000017
 31
0.0
  0
LINE
  5
18E
330
78
100
AcDbEntity
  8
0
  6
Continuous
 62
     0
100
AcDbLine
 10
-94.0000162124633
 20
15.50000000000011
 30
0.0
 11
-14.00000095367409
 21
15.50000000000011
 31
0.0
  0
LINE
  5
18F
330
78
100
AcDbEntity
  8
0
  6
Continuous
 62
     0
100
AcDbLine
 10
-94.0000162124633
 20
21.5
 30
0.0
 11
-14.00000095367409
 21
21.5
 31
0.0
  0
LINE
  5
190
330
78
100
AcDbEntity
  8
0
  6
Continuous
 62
     0
100
AcDbLine
 10
69.99999904632557
 20
0.0
 30
0.0
 11
77.99999928474443
 21
0.0
 31
0.0
  0
LINE
  5
191
330
78
100
AcDbEntity
  8
0
  6
Continuous
 62
     7
100
AcDbLine
 10
69.99999904632568
 20
11.00000000000011
 30
0.0
 11
69.99999904632568
 21
-10.99999999999983
 31
0.0
  0
LINE
  5
192
330
78
100
AcDbEntity
  8
0
  6
Continuous
 62
     7
100
AcDbLine
 10
77.99999928474449
 20
11.00000000000023
 30
0.0
 11
77.99999928474449
 21
-10.99999999999983
 31
0.0
  0
LINE
  5
193
330
78
100
AcDbEntity
  8
0
  6
Continuous
 62
     7
100
AcDbLine
 10
52.49999991781138
 20
-5.291503555885905
 30
0.0
 11
56.99999989074813
 21
5.291504808804479
 31
0.0
  0
LINE
  5
194
330
78
100
AcDbEntity
  8
0
  6
Continuous
 62
     7
100
AcDbLine
 10
52.49999880721317
 20
5.291502164339645
 30
0.0
 11
56.99999840697316
 21
-5.291505322721267
 31
0.0
  0
LINE
  5
195
330
78
100
AcDbEntity
  8
0
  6
Continuous
 62
     7
100
AcDbLine
 10
-84.13002109527557
 20
19.69999980926514
 30
0.0
 11
-84.13002109527557
 21
19.69999980926514
 31
0.0
  0
LINE
  5
196
330
78
100
AcDbEntity
  8
0
  6
Continuous
 62
     7
100
AcDbLine
 10
-14.00000095367409
 20
-21.99999904632558
 30
0.0
 11
-94.00000095367389
 21
-21.99999904632557
 31
0.0
  0
LINE
  5
197
330
78
100
AcDbEntity
  8
0
  6
Continuous
 62
     7
100
AcDbLine
 10
-14.00000095367409
 20
22.0
 30
0.0
 11
-94.00000095367412
 21
22.0
 31
0.0
  0
LINE
  5
198
330
78
100
AcDbEntity
  8
0
  6
Continuous
 62
     7
100
AcDbLine
 10
-129.0000162124632
 20
-23.49999904632568
 30
0.0
 11
-124.0000162124632
 21
-23.49999904632568
 31
0.0
  0
LINE
  5
199
330
78
100
AcDbEntity
  8
0
  6
Continuous
 62
     7
100
AcDbLine
 10
-129.0000162124634
 20
-13.49999904632557
 30
0.0
 11
-129.0000162124634
 21
-23.49999904632557
 31
0.0
  0
LINE
  5
19A
330
78
100
AcDbEntity
  8
0
  6
Continuous
 62
     7
100
AcDbLine
 10
-129.0000162124632
 20
-13.49999904632568
 30
0.0
 11
-124.0000162124632
 21
-13.49999904632568
 31
0.0
  0
LINE
  5
19B
330
78
100
AcDbEntity
  8
0
  6
Continuous
 62
     7
100
AcDbLine
 10
-124.0000162124633
 20
-55.0
 30
0.0
 11
-124.0000162124633
 21
55.0
 31
0.0
  0
LINE
  5
19C
330
78
100
AcDbEntity
  8
0
  6
Continuous
 62
     7
100
AcDbLine
 10
33.99999904632591
 20
25.00000000000011
 30
0.0
 11
33.99999904632591
 21
-24.99999904632557
 31
0.0
  0
LINE
  5
19D
330
78
100
AcDbEntity
  8
0
  6
Continuous
 62
     7
100
AcDbLine
 10
24.00000000000011
 20
25.0
 30
0.0
 11
33.9999990463258
 21
25.0
 31
0.0
  0
LINE
  5
19E
330
78
100
AcDbEntity
  8
0
  6
Continuous
 62
     7
100
AcDbLine
 10
24.00000000000011
 20
-24.99999904632568
 30
0.0
 11
33.9999990463258
 21
-24.99999904632568
 31
0.0
  0
LINE
  5
19F
330
78
100
AcDbEntity
  8
0
  6
Continuous
 62
     7
100
AcDbLine
 10
-94.00001621246327
 20
24.99999618530296
 30
0.0
 11
-94.00001621246327
 21
-24.99999904632557
 31
0.0
  0
LINE
  5
1A0
330
78
100
AcDbEntity
  8
0
  6
CENTER
 62
     4
100
AcDbLine
 10
-108.0000162124634
 20
8.87784125317097
 30
0.0
 11
-108.0000162124634
 21
-9.060209163782247
 31
0.0
  0
LINE
  5
1A1
330
78
100
AcDbEntity
  8
0
  6
Continuous
 62
     7
100
AcDbLine
 10
-119.0000162124633
 20
-24.99999904632557
 30
0.0
 11
-94.0000162124633
 21
-24.99999904632557
 31
0.0
  0
LINE
  5
1A2
330
78
100
AcDbEntity
  8
0
  6
Continuous
 62
     7
100
AcDbLine
 10
24.00000000000023
 20
25.00000000000011
 30
0.0
 11
24.00000000000023
 21
-24.99999904632557
 31
0.0
  0
LINE
  5
1A3
330
78
100
AcDbEntity
  8
0
  6
CENTER
 62
     4
100
AcDbLine
 10
0.0
 20
8.710554546821754
 30
0.0
 11
0.0
 21
-9.640136412459526
 31
0.0
  0
LINE
  5
1A4
330
78
100
AcDbEntity
  8
0
  6
Continuous
 62
     7
100
AcDbLine
 10
-14.00000095367409
 20
24.99999618530296
 30
0.0
 11
-14.00000095367409
 21
-24.99999904632557
 31
0.0
  0
LINE
  5
1A5
330
78
100
AcDbEntity
  8
0
  6
Continuous
 62
     7
100
AcDbLine
 10
24.00000000000011
 20
-24.99999904632568
 30
0.0
 11
-14.0000009536742
 21
-24.99999904632568
 31
0.0
  0
LINE
  5
1A6
330
78
100
AcDbEntity
  8
0
  6
Continuous
 62
     7
100
AcDbLine
 10
69.99999904632574
 20
-6.99999904632557
 30
0.0
 11
64.5999898910523
 21
-6.99999904632557
 31
0.0
  0
LINE
  5
1A7
330
78
100
AcDbEntity
  8
0
  6
Continuous
 62
     4
100
AcDbLine
 10
69.99999904632577
 20
6.000000000000075
 30
0.0
 11
63.59999370574955
 21
6.000000000000066
 31
0.0
  0
LINE
  5
1A8
330
78
100
AcDbEntity
  8
0
  6
Continuous
 62
     4
100
AcDbLine
 10
69.99999904632574
 20
-5.999999046325684
 30
0.0
 11
63.59997844696062
 21
-5.999999046325684
 31
0.0
  0
LINE
  5
1A9
330
78
100
AcDbEntity
  8
0
  6
Continuous
 62
     7
100
AcDbLine
 10
69.99999904632574
 20
7.000000000000114
 30
0.0
 11
64.60000514984159
 21
7.000000000000114
 31
0.0
  0
LINE
  5
1AA
330
78
100
AcDbEntity
  8
0
  6
Continuous
 62
     7
100
AcDbLine
 10
52.49999904632591
 20
-5.291502952575399
 30
0.0
 11
52.49999904632591
 21
5.291503906250284
 31
0.0
  0
LINE
  5
1AB
330
78
100
AcDbEntity
  8
0
  6
Continuous
 62
     7
100
AcDbLine
 10
56.99999904632585
 20
-5.29150295257557
 30
0.0
 11
52.49999904632574
 21
-5.29150295257557
 31
0.0
  0
LINE
  5
1AC
330
78
100
AcDbEntity
  8
0
  6
Continuous
 62
     7
100
AcDbLine
 10
56.99999904632585
 20
5.29150390625
 30
0.0
 11
52.49999904632574
 21
5.29150390625
 31
0.0
  0
LINE
  5
1AD
330
78
100
AcDbEntity
  8
0
  6
Continuous
 62
     7
100
AcDbLine
 10
64.59998564320674
 20
-7.000007023064082
 30
0.0
 11
63.47497912969925
 21
-5.875000319894664
 31
0.0
  0
LINE
  5
1AE
330
78
100
AcDbEntity
  8
0
  6
Continuous
 62
     7
100
AcDbLine
 10
64.59998989105225
 20
7.000000000000227
 30
0.0
 11
64.59998989105225
 21
-6.999999046325456
 31
0.0
  0
LINE
  5
1AF
330
78
100
AcDbEntity
  8
0
  6
Continuous
 62
     7
100
AcDbLine
 10
64.59999206540266
 20
7.000000908963084
 30
0.0
 11
63.47499094669138
 21
5.874999600590773
 31
0.0
  0
LINE
  5
1B0
330
78
100
AcDbEntity
  8
0
  6
Continuous
 62
     7
100
AcDbLine
 10
56.99999904632541
 20
-7.999999046325608
 30
0.0
 11
38.99999904632555
 21
-7.999999046325627
 31
0.0
  0
LINE
  5
1B1
330
78
100
AcDbEntity
  8
0
  6
Continuous
 62
     7
100
AcDbLine
 10
63.47497844696051
 20
-4.87499904632557
 30
0.0
 11
60.99999904632597
 21
-4.87499904632557
 31
0.0
  0
LINE
  5
1B2
330
78
100
AcDbEntity
  8
0
  6
Continuous
 62
     7
100
AcDbLine
 10
60.00006821948806
 20
-7.19611997399883
 30
0.0
 11
56.99998832591909
 21
-7.999988965447093
 31
0.0
  0
LINE
  5
1B3
330
78
100
AcDbEntity
  8
0
  6
Continuous
 62
     7
100
AcDbLine
 10
56.99999904632568
 20
-7.999999046325456
 30
0.0
 11
56.99999904632568
 21
-5.291502952575399
 31
0.0
  0
LINE
  5
1B4
330
78
100
AcDbEntity
  8
0
  6
Continuous
 62
     4
100
AcDbLine
 10
84.99999904632556
 20
6.000000000000008
 30
0.0
 11
77.99999928474442
 21
6.000000000000002
 31
0.0
  0
LINE
  5
1B5
330
78
100
AcDbEntity
  8
0
  6
Continuous
 62
     7
100
AcDbLine
 10
83.99999904632556
 20
-6.999999046325823
 30
0.0
 11
77.99999928474502
 21
-6.999999046325818
 31
0.0
  0
LINE
  5
1B6
330
78
100
AcDbEntity
  8
0
  6
Continuous
 62
     7
100
AcDbLine
 10
63.47497714688583
 20
-5.875000655541332
 30
0.0
 11
63.47499449268024
 21
5.875003146586136
 31
0.0
  0
LINE
  5
1B7
330
78
100
AcDbEntity
  8
0
  6
CENTER
 62
     4
100
AcDbLine
 10
49.35246116063853
 20
-18.5
 30
0.0
 11
-132.8068502526822
 21
-18.5
 31
0.0
  0
LINE
  5
1B8
330
78
100
AcDbEntity
  8
0
  6
Continuous
 62
     7
100
AcDbLine
 10
56.99999904632563
 20
8.000000000000227
 30
0.0
 11
38.99999904632585
 21
8.000000000000227
 31
0.0
  0
LINE
  5
1B9
330
78
100
AcDbEntity
  8
0
  6
Continuous
 62
     7
100
AcDbLine
 10
63.4749937057498
 20
5.875
 30
0.0
 11
60.99999904632597
 21
5.875
 31
0.0
  0
LINE
  5
1BA
330
78
100
AcDbEntity
  8
0
  6
Continuous
 62
     7
100
AcDbLine
 10
59.99999179333238
 20
7.196138572822704
 30
0.0
 11
57.00000033291424
 21
7.999983868679422
 31
0.0
  0
LINE
  5
1BB
330
78
100
AcDbEntity
  8
0
  6
Continuous
 62
     7
100
AcDbLine
 10
56.99999904632568
 20
8.000000000000284
 30
0.0
 11
56.99999904632568
 21
5.291503906250284
 31
0.0
  0
LINE
  5
1BC
330
78
100
AcDbEntity
  8
0
  6
Continuous
 62
     4
100
AcDbLine
 10
84.99999904632568
 20
-5.999999046325562
 30
0.0
 11
77.99999928474449
 21
-5.999999046325568
 31
0.0
  0
LINE
  5
1BD
330
78
100
AcDbEntity
  8
0
  6
Continuous
 62
     7
100
AcDbLine
 10
83.99999904632554
 20
7.000000000000114
 30
0.0
 11
77.99999928474443
 21
7.000000000000114
 31
0.0
  0
LINE
  5
1BE
330
78
100
AcDbEntity
  8
0
  6
CENTER
 62
     4
100
AcDbLine
 10
-105.0000162124633
 20
-35.89541805220875
 30
0.0
 11
-105.0000162124633
 21
-49.54601329030396
 31
0.0
  0
LINE
  5
1BF
330
78
100
AcDbEntity
  8
0
  6
Continuous
 62
     7
100
AcDbLine
 10
59.99999904632568
 20
7.196151733398665
 30
0.0
 11
59.99999904632568
 21
-7.196150779723894
 31
0.0
  0
LINE
  5
1C0
330
78
100
AcDbEntity
  8
0
  6
Continuous
 62
     7
100
AcDbLine
 10
84.99999904632568
 20
6.0
 30
0.0
 11
84.99999904632568
 21
-5.99999904632557
 31
0.0
  0
LINE
  5
1C1
330
78
100
AcDbEntity
  8
0
  6
Continuous
 62
     7
100
AcDbLine
 10
38.99999904632819
 20
-21.49999904632561
 30
0.0
 11
40.99999904632586
 21
-21.49999904632561
 31
0.0
  0
LINE
  5
1C2
330
78
100
AcDbEntity
  8
0
  6
Continuous
 62
     7
100
AcDbLine
 10
38.99999904632628
 20
-15.49999904632565
 30
0.0
 11
40.99999904632608
 21
-15.49999904632564
 31
0.0
  0
LINE
  5
1C3
330
78
100
AcDbEntity
  8
0
  6
Continuous
 62
     7
100
AcDbLine
 10
38.9999990463258
 20
-23.49999904632568
 30
0.0
 11
33.9999990463258
 21
-23.49999904632568
 31
0.0
  0
LINE
  5
1C4
330
78
100
AcDbEntity
  8
0
  6
Continuous
 62
     7
100
AcDbLine
 10
38.9999990463258
 20
-13.49999904632568
 30
0.0
 11
33.9999990463258
 21
-13.49999904632568
 31
0.0
  0
LINE
  5
1C5
330
78
100
AcDbEntity
  8
0
  6
Continuous
 62
     7
100
AcDbLine
 10
38.99999904632591
 20
55.0
 30
0.0
 11
38.99999904632591
 21
-55.0
 31
0.0
  0
LINE
  5
1C6
330
78
100
AcDbEntity
  8
0
  6
Continuous
 62
     7
100
AcDbLine
 10
-119.0000162124633
 20
-24.99999904632557
 30
0.0
 11
-119.0000162124633
 21
24.99999618530285
 31
0.0
  0
LINE
  5
1C7
330
78
100
AcDbEntity
  8
0
  6
Continuous
 62
     7
100
AcDbLine
 10
-129.0000162124632
 20
-18.49999904632568
 30
0.0
 11
-126.0000162124633
 21
-18.49999904632568
 31
0.0
  0
LINE
  5
1C8
330
78
100
AcDbEntity
  8
0
  6
Continuous
 62
     7
100
AcDbLine
 10
-129.0000162124637
 20
-21.49999904632542
 30
0.0
 11
-131.0000162124633
 21
-21.49999904632542
 31
0.0
  0
LINE
  5
1C9
330
78
100
AcDbEntity
  8
0
  6
Continuous
 62
     7
100
AcDbLine
 10
-129.0000162124632
 20
18.5
 30
0.0
 11
-126.0000162124633
 21
18.5
 31
0.0
  0
LINE
  5
1CA
330
78
100
AcDbEntity
  8
0
  6
Continuous
 62
     7
100
AcDbLine
 10
-14.00000095367409
 20
-21.49999904632556
 30
0.0
 11
-94.00001621246307
 21
-21.49999904632557
 31
0.0
  0
LINE
  5
1CB
330
78
100
AcDbEntity
  8
0
  6
Continuous
 62
     7
100
AcDbLine
 10
-14.00000095367409
 20
-15.49999904632558
 30
0.0
 11
-94.00001621246307
 21
-15.49999904632557
 31
0.0
  0
LINE
  5
1CC
330
78
100
AcDbEntity
  8
0
  6
Continuous
 62
     7
100
AcDbLine
 10
-129.0000162124635
 20
15.50000000000015
 30
0.0
 11
-131.0000162124631
 21
15.50000000000015
 31
0.0
  0
LINE
  5
1CD
330
78
100
AcDbEntity
  8
0
  6
Continuous
 62
     0
100
AcDbLine
 10
-131.0000162124633
 20
-15.49999904632563
 30
0.0
 11
-131.0000162124633
 21
-21.49999904632546
 31
0.0
  0
LINE
  5
1CE
330
78
100
AcDbEntity
  8
0
  6
CENTER
 62
     4
100
AcDbLine
 10
88.70587744924497
 20
0.0
 30
0.0
 11
-126.3955001539775
 21
0.0
 31
0.0
  0
LINE
  5
1CF
330
78
100
AcDbEntity
  8
0
  6
Continuous
 62
     7
100
AcDbLine
 10
-129.0000162124639
 20
-15.49999904632565
 30
0.0
 11
-131.0000162124635
 21
-15.49999904632565
 31
0.0
  0
LINE
  5
1D0
330
78
100
AcDbEntity
  8
0
  6
Continuous
 62
     7
100
AcDbLine
 10
-129.0000162124632
 20
23.5
 30
0.0
 11
-124.0000162124632
 21
23.5
 31
0.0
  0
LINE
  5
1D1
330
78
100
AcDbEntity
  8
0
  6
CENTER
 62
     4
100
AcDbLine
 10
49.35246116063853
 20
18.5
 30
0.0
 11
-132.8068502526822
 21
18.5
 31
0.0
  0
LINE
  5
1D2
330
78
100
AcDbEntity
  8
0
  6
Continuous
 62
     7
100
AcDbLine
 10
-129.0000162124634
 20
23.50000000000006
 30
0.0
 11
-129.0000162124634
 21
13.50000000000006
 31
0.0
  0
LINE
  5
1D3
330
78
100
AcDbEntity
  8
0
  6
Continuous
 62
     7
100
AcDbLine
 10
-129.0000162124636
 20
21.50000000000004
 30
0.0
 11
-131.0000162124632
 21
21.50000000000004
 31
0.0
  0
LINE
  5
1D4
330
78
100
AcDbEntity
  8
0
  6
CENTER
 62
     4
100
AcDbLine
 10
-111.9885356462255
 20
42.5
 30
0.0
 11
-98.13719636051124
 21
42.5
 31
0.0
  0
LINE
  5
1D5
330
78
100
AcDbEntity
  8
0
  6
CENTER
 62
     4
100
AcDbLine
 10
-111.9885356462255
 20
-42.5
 30
0.0
 11
-97.5349642176541
 21
-42.5
 31
0.0
  0
LINE
  5
1D6
330
78
100
AcDbEntity
  8
0
  6
CENTER
 62
     4
100
AcDbLine
 10
-105.0000162124633
 20
49.42080218588615
 30
0.0
 11
-105.0000162124633
 21
35.97095099541002
 31
0.0
  0
LINE
  5
1D7
330
78
100
AcDbEntity
  8
0
  6
Continuous
 62
     0
100
AcDbLine
 10
-124.0000162124632
 20
-25.0
 30
0.0
 11
-119.0000162124632
 21
-25.0
 31
0.0
  0
LINE
  5
1D8
330
78
100
AcDbEntity
  8
0
  6
Continuous
 62
     0
100
AcDbLine
 10
-124.0000162124632
 20
25.0
 30
0.0
 11
-119.0000162124632
 21
25.0
 31
0.0
  0
LINE
  5
1D9
330
78
100
AcDbEntity
  8
0
  6
Continuous
 62
     0
100
AcDbLine
 10
-90.00001621246327
 20
55.0
 30
0.0
 11
-90.00001621246327
 21
22.0
 31
0.0
  0
LINE
  5
1DA
330
78
100
AcDbEntity
  8
0
  6
Continuous
 62
     7
100
AcDbLine
 10
-129.0000162124632
 20
13.5
 30
0.0
 11
-124.0000162124632
 21
13.5
 31
0.0
  0
LINE
  5
1DB
330
78
100
AcDbEntity
  8
0
  6
Continuous
 62
     7
100
AcDbLine
 10
38.9999990463258
 20
-18.49999904632568
 30
0.0
 11
33.9999990463258
 21
-18.49999904632568
 31
0.0
  0
LINE
  5
1DC
330
78
100
AcDbEntity
  8
0
  6
Continuous
 62
     0
100
AcDbLine
 10
4.999999046325911
 20
55.0
 30
0.0
 11
4.999999046325911
 21
29.4999961853029
 31
0.0
  0
LINE
  5
1DD
330
78
100
AcDbEntity
  8
0
  6
Continuous
 62
     0
100
AcDbLine
 10
69.99999904632557
 20
11.00000000000011
 30
0.0
 11
77.99999928474443
 21
11.00000000000011
 31
0.0
  0
LINE
  5
1DE
330
78
100
AcDbEntity
  8
0
  6
Continuous
 62
     0
100
AcDbLine
 10
-124.0000162124632
 20
-55.0
 30
0.0
 11
-90.0000162124633
 21
-55.0
 31
0.0
  0
LINE
  5
1DF
330
78
100
AcDbEntity
  8
0
  6
Continuous
 62
     0
100
AcDbLine
 10
4.999999046325883
 20
-55.0
 30
0.0
 11
38.99999904632585
 21
-55.0
 31
0.0
  0
LINE
  5
1E0
330
78
100
AcDbEntity
  8
0
  6
Continuous
 62
     7
100
AcDbLine
 10
-124.0000162124632
 20
-23.49999904632568
 30
0.0
 11
-119.0000162124632
 21
-23.49999904632568
 31
0.0
  0
LINE
  5
1E1
330
78
100
AcDbEntity
  8
0
  6
Continuous
 62
     7
100
AcDbLine
 10
-124.0000162124632
 20
-13.49999904632568
 30
0.0
 11
-119.0000162124632
 21
-13.49999904632568
 31
0.0
  0
LINE
  5
1E2
330
78
100
AcDbEntity
  8
0
  6
Continuous
 62
     7
100
AcDbLine
 10
-124.0000162124632
 20
-18.49999904632568
 30
0.0
 11
-119.0000162124632
 21
-18.49999904632568
 31
0.0
  0
LINE
  5
1E3
330
78
100
AcDbEntity
  8
0
  6
Continuous
 62
     7
100
AcDbLine
 10
-124.0000162124637
 20
-21.49999904632543
 30
0.0
 11
-126.0000162124633
 21
-21.49999904632543
 31
0.0
  0
LINE
  5
1E4
330
78
100
AcDbEntity
  8
0
  6
Continuous
 62
     0
100
AcDbLine
 10
-126.0000162124633
 20
-15.49999904632563
 30
0.0
 11
-126.0000162124633
 21
-21.49999904632546
 31
0.0
  0
LINE
  5
1E5
330
78
100
AcDbEntity
  8
0
  6
Continuous
 62
     7
100
AcDbLine
 10
-124.0000162124639
 20
-15.49999904632566
 30
0.0
 11
-126.0000162124635
 21
-15.49999904632566
 31
0.0
  0
LINE
  5
1E6
330
78
100
AcDbEntity
  8
0
  6
Continuous
 62
     7
100
AcDbLine
 10
-124.0000162124632
 20
13.5
 30
0.0
 11
-119.0000162124632
 21
13.5
 31
0.0
  0
LINE
  5
1E7
330
78
100
AcDbEntity
  8
0
  6
Continuous
 62
     7
100
AcDbLine
 10
-124.0000162124632
 20
23.5
 30
0.0
 11
-119.0000162124632
 21
23.5
 31
0.0
  0
LINE
  5
1E8
330
78
100
AcDbEntity
  8
0
  6
Continuous
 62
     7
100
AcDbLine
 10
-124.0000162124632
 20
18.5
 30
0.0
 11
-119.0000162124632
 21
18.5
 31
0.0
  0
LINE
  5
1E9
330
78
100
AcDbEntity
  8
0
  6
Continuous
 62
     7
100
AcDbLine
 10
-124.0000162124635
 20
15.50000000000014
 30
0.0
 11
-126.0000162124631
 21
15.50000000000014
 31
0.0
  0
LINE
  5
1EA
330
78
100
AcDbEntity
  8
0
  6
Continuous
 62
     0
100
AcDbLine
 10
-126.0000162124633
 20
21.5
 30
0.0
 11
-126.0000162124633
 21
15.50000000000017
 31
0.0
  0
LINE
  5
1EB
330
78
100
AcDbEntity
  8
0
  6
Continuous
 62
     7
100
AcDbLine
 10
-124.0000162124636
 20
21.50000000000002
 30
0.0
 11
-126.0000162124632
 21
21.50000000000003
 31
0.0
  0
LINE
  5
1EC
330
78
100
AcDbEntity
  8
0
  6
Continuous
 62
     7
100
AcDbLine
 10
38.99999904632851
 20
15.50000000000008
 30
0.0
 11
40.99999904632615
 21
15.50000000000007
 31
0.0
  0
LINE
  5
1ED
330
78
100
AcDbEntity
  8
0
  6
Continuous
 62
     0
100
AcDbLine
 10
4.999999046325883
 20
55.0
 30
0.0
 11
38.99999904632585
 21
55.0
 31
0.0
  0
LINE
  5
1EE
330
78
100
AcDbEntity
  8
0
  6
Continuous
 62
     7
100
AcDbLine
 10
38.99999904632599
 20
21.50000000000004
 30
0.0
 11
40.99999904632573
 21
21.50000000000004
 31
0.0
  0
LINE
  5
1EF
330
78
100
AcDbEntity
  8
0
  6
Continuous
 62
     7
100
AcDbLine
 10
43.99999904632605
 20
21.50000000000004
 30
0.0
 11
45.99999904632579
 21
21.50000000000005
 31
0.0
  0
LINE
  5
1F0
330
78
100
AcDbEntity
  8
0
  6
CENTER
 62
     4
100
AcDbLine
 10
19.99999904632591
 20
49.42304816481357
 30
0.0
 11
19.99999904632591
 21
35.97319697433744
 31
0.0
  0
LINE
  5
1F1
330
78
100
AcDbEntity
  8
0
  6
CENTER
 62
     4
100
AcDbLine
 10
12.93633879573829
 20
-42.5
 30
0.0
 11
27.38991022430966
 21
-42.5
 31
0.0
  0
LINE
  5
1F2
330
78
100
AcDbEntity
  8
0
  6
CENTER
 62
     4
100
AcDbLine
 10
13.3378268909764
 20
42.5
 30
0.0
 11
27.38991022430966
 21
42.5
 31
0.0
  0
LINE
  5
1F3
330
78
100
AcDbEntity
  8
0
  6
Continuous
 62
     0
100
AcDbLine
 10
-90.00001621246327
 20
-21.99999904632546
 30
0.0
 11
-90.00001621246327
 21
-54.99999999999994
 31
0.0
  0
LINE
  5
1F4
330
78
100
AcDbEntity
  8
0
  6
Continuous
 62
     0
100
AcDbLine
 10
40.99999904632591
 20
-15.49999904632557
 30
0.0
 11
40.99999904632591
 21
-21.49999904632557
 31
0.0
  0
LINE
  5
1F5
330
78
100
AcDbEntity
  8
0
  6
CENTER
 62
     4
100
AcDbLine
 10
19.99999904632591
 20
-35.89317207328133
 30
0.0
 11
19.99999904632591
 21
-49.14227921613843
 31
0.0
  0
LINE
  5
1F6
330
78
100
AcDbEntity
  8
0
  6
Continuous
 62
     0
100
AcDbLine
 10
4.999999046325911
 20
-24.99999904632568
 30
0.0
 11
4.999999046325911
 21
-54.99999999999994
 31
0.0
  0
LINE
  5
1F7
330
78
100
AcDbEntity
  8
0
  6
Continuous
 62
     0
100
AcDbLine
 10
33.99999904632585
 20
25.0
 30
0.0
 11
38.99999904632585
 21
25.0
 31
0.0
  0
LINE
  5
1F8
330
78
100
AcDbEntity
  8
0
  6
Continuous
 62
     7
100
AcDbLine
 10
38.99999904632585
 20
13.5
 30
0.0
 11
33.97908820803227
 21
13.5
 31
0.0
  0
LINE
  5
1F9
330
78
100
AcDbEntity
  8
0
  6
Continuous
 62
     7
100
AcDbLine
 10
38.99999904632585
 20
23.5
 30
0.0
 11
33.99999904632585
 21
23.5
 31
0.0
  0
LINE
  5
1FA
330
78
100
AcDbEntity
  8
0
  6
Continuous
 62
     7
100
AcDbLine
 10
38.99999904632585
 20
18.5
 30
0.0
 11
33.99999904632585
 21
18.5
 31
0.0
  0
LINE
  5
1FB
330
78
100
AcDbEntity
  8
0
  6
Continuous
 62
     7
100
AcDbLine
 10
43.99999904632857
 20
15.50000000000007
 30
0.0
 11
45.99999904632621
 21
15.50000000000007
 31
0.0
  0
LINE
  5
1FC
330
78
100
AcDbEntity
  8
0
  6
Continuous
 62
     0
100
AcDbLine
 10
40.99999904632591
 20
21.5
 30
0.0
 11
40.99999904632591
 21
15.50000000000011
 31
0.0
  0
LINE
  5
1FD
330
78
100
AcDbEntity
  8
0
  6
Continuous
 62
     7
100
AcDbLine
 10
43.99999904632591
 20
13.5
 30
0.0
 11
38.97908820803232
 21
13.5
 31
0.0
  0
LINE
  5
1FE
330
78
100
AcDbEntity
  8
0
  6
Continuous
 62
     7
100
AcDbLine
 10
43.99999904632591
 20
23.5
 30
0.0
 11
38.99999904632591
 21
23.5
 31
0.0
  0
LINE
  5
1FF
330
78
100
AcDbEntity
  8
0
  6
Continuous
 62
     7
100
AcDbLine
 10
43.99999904632591
 20
18.5
 30
0.0
 11
40.99999904632594
 21
18.5
 31
0.0
  0
LINE
  5
200
330
78
100
AcDbEntity
  8
0
  6
Continuous
 62
     0
100
AcDbLine
 10
33.99999904632585
 20
-25.0
 30
0.0
 11
38.99999904632585
 21
-25.0
 31
0.0
  0
LINE
  5
201
330
78
100
AcDbEntity
  8
0
  6
Continuous
 62
     0
100
AcDbLine
 10
43.99999904632591
 20
23.5
 30
0.0
 11
43.99999904632591
 21
13.5
 31
0.0
  0
LINE
  5
202
330
78
100
AcDbEntity
  8
0
  6
Continuous
 62
     0
100
AcDbLine
 10
45.99999904632602
 20
21.5
 30
0.0
 11
45.99999904632602
 21
15.50000000000011
 31
0.0
  0
LINE
  5
203
330
78
100
AcDbEntity
  8
0
  6
Continuous
 62
     7
100
AcDbLine
 10
43.99999904632634
 20
-15.49999904632564
 30
0.0
 11
45.99999904632608
 21
-15.49999904632564
 31
0.0
  0
LINE
  5
204
330
78
100
AcDbEntity
  8
0
  6
Continuous
 62
     7
100
AcDbLine
 10
43.99999904632822
 20
-21.4999990463255
 30
0.0
 11
45.99999904632586
 21
-21.4999990463255
 31
0.0
  0
LINE
  5
205
330
78
100
AcDbEntity
  8
0
  6
Continuous
 62
     7
100
AcDbLine
 10
43.99999904632585
 20
-23.49999904632568
 30
0.0
 11
38.97908820803227
 21
-23.49999904632568
 31
0.0
  0
LINE
  5
206
330
78
100
AcDbEntity
  8
0
  6
Continuous
 62
     7
100
AcDbLine
 10
43.99999904632585
 20
-13.49999904632568
 30
0.0
 11
38.99999904632585
 21
-13.49999904632568
 31
0.0
  0
LINE
  5
207
330
78
100
AcDbEntity
  8
0
  6
Continuous
 62
     7
100
AcDbLine
 10
43.99999904632585
 20
-18.49999904632568
 30
0.0
 11
40.99999904632594
 21
-18.49999904632568
 31
0.0
  0
LINE
  5
208
330
78
100
AcDbEntity
  8
0
  6
Continuous
 62
     0
100
AcDbLine
 10
43.99999904632591
 20
-13.49999904632563
 30
0.0
 11
43.99999904632591
 21
-23.49999904632563
 31
0.0
  0
LINE
  5
209
330
78
100
AcDbEntity
  8
0
  6
Continuous
 62
     0
100
AcDbLine
 10
45.99999904632591
 20
-15.49999904632563
 30
0.0
 11
45.99999904632591
 21
-21.49999904632551
 31
0.0
  0
LINE
  5
20A
330
78
100
AcDbEntity
  8
0
  6
CENTER
 62
     4
100
AcDbLine
 10
0.0
 20
37.37588384525179
 30
0.0
 11
0.0
 21
21.06275261525519
 31
0.0
  0
LINE
  5
20B
330
78
100
AcDbEntity
  8
0
  6
CENTER
 62
     4
100
AcDbLine
 10
-108.0000166893007
 20
37.37588384525179
 30
0.0
 11
-108.0000166893007
 21
21.06275261525519
 31
0.0
  0
CIRCLE
  5
20C
330
78
100
AcDbEntity
  8
0
  6
Continuous
 62
     4
100
AcDbCircle
 10
-108.0000162124634
 20
0.0
 30
0.0
 40
6.750000000000001
  0
CIRCLE
  5
20D
330
78
100
AcDbEntity
  8
0
  6
Continuous
 62
     4
100
AcDbCircle
 10
0.0
 20
0.0
 30
0.0
 40
6.750000000000001
  0
CIRCLE
  5
20E
330
78
100
AcDbEntity
  8
0
  6
Continuous
 62
     0
100
AcDbCircle
 10
-108.0000162124634
 20
0.0
 30
0.0
 40
5.900000000000001
  0
CIRCLE
  5
20F
330
78
100
AcDbEntity
  8
0
  6
Continuous
 62
     0
100
AcDbCircle
 10
0.0
 20
0.0
 30
0.0
 40
5.900000000000001
  0
ARC
  5
210
330
78
100
AcDbEntity
  8
0
  6
Continuous
 62
     7
100
AcDbCircle
 10
61.08395290374767
 20
0.0
 30
0.0
 40
10.08386135101318
100
AcDbArc
 50
180.0000173028428
 51
211.6514005572572
  0
ARC
  5
211
330
78
100
AcDbEntity
  8
0
  6
Continuous
 62
     7
100
AcDbCircle
 10
61.08395290374767
 20
0.0
 30
0.0
 40
10.08386135101318
100
AcDbArc
 50
148.3485994427429
 51
180.0
  0
ARC
  5
212
330
78
100
AcDbEntity
  8
0
  6
Continuous
 62
     7
100
AcDbCircle
 10
60.99999904632591
 20
-5.87499904632557
 30
0.0
 40
1.0
100
AcDbArc
 50
90.0000179860894
 51
180.0
  0
ARC
  5
213
330
78
100
AcDbEntity
  8
0
  6
Continuous
 62
     7
100
AcDbCircle
 10
60.99999904632591
 20
6.875000000000114
 30
0.0
 40
1.0
100
AcDbArc
 50
180.0
 51
269.9999820139107
  0
CIRCLE
  5
214
330
78
100
AcDbEntity
  8
0
  6
Continuous
 62
     0
100
AcDbCircle
 10
-105.0000162124633
 20
42.5
 30
0.0
 40
5.0
  0
CIRCLE
  5
215
330
78
100
AcDbEntity
  8
0
  6
Continuous
 62
     0
100
AcDbCircle
 10
-105.0000162124633
 20
-42.5
 30
0.0
 40
5.0
  0
CIRCLE
  5
216
330
78
100
AcDbEntity
  8
0
  6
Continuous
 62
     0
100
AcDbCircle
 10
19.99999904632591
 20
-42.5
 30
0.0
 40
5.0
  0
CIRCLE
  5
217
330
78
100
AcDbEntity
  8
0
  6
Continuous
 62
     0
100
AcDbCircle
 10
19.99999904632591
 20
42.5
 30
0.0
 40
5.0
  0
ELLIPSE
  5
218
330
78
100
AcDbEntity
  8
0
  6
Continuous
 62
     7
100
AcDbEllipse
 10
57.00000000000011
 20
0.0
 30
0.0
 11
5.598017248971153
 21
0.0
 31
0.0
210
0.0
220
0.0
230
1.0
 40
0.9452460669688
 41
4.712389197903951
 42
5.27796710817127
  0
ELLIPSE
  5
219
330
78
100
AcDbEntity
  8
0
  6
Continuous
 62
     7
100
AcDbEllipse
 10
57.00000000000011
 20
0.0
 30
0.0
 11
5.598017248971153
 21
0.0
 31
0.0
210
0.0
220
0.0
230
1.0
 40
0.9452460669688
 41
1.005218261752743
 42
1.570796326794897
  0
MTEXT
  5
21A
330
78
100
AcDbEntity
  8
0
 62
     0
100
AcDbMText
 10
16.36318087707873
 20
0.799285558609711
 30
0.0
 40
0.5
 41
0.0
 71
     7
 72
     1
  1
{\W1;BN-6102A-LA-40}
 73
     1
 44
1.0
  0
ENDBLK
  5
7A
330
78
100
AcDbEntity
  8
0
100
AcDbBlockEnd
  0
BLOCK
  5
7C
330
7B
100
AcDbEntity
  8
0
100
AcDbBlockBegin
  2
DTL0003
 70
     0
 10
0.0
 20
0.0
 30
0.0
  3
DTL0003
  1

  0
POINT
  5
21B
330
7B
100
AcDbEntity
  8
0
 62
     0
100
AcDbPoint
 10
0.0
 20
0.0
 30
0.0
  0
POINT
  5
21C
330
7B
100
AcDbEntity
  8
0
 62
     0
100
AcDbPoint
 10
0.0
 20
0.0
 30
0.0
  0
POINT
  5
21D
330
7B
100
AcDbEntity
  8
0
 62
     0
100
AcDbPoint
 10
0.0
 20
0.0
 30
0.0
  0
LINE
  5
21E
330
7B
100
AcDbEntity
  8
0
  6
Continuous
 62
     7
100
AcDbLine
 10
-25.0
 20
20.00000000000011
 30
0.0
 11
-25.0
 21
-34.0
 31
0.0
  0
LINE
  5
21F
330
7B
100
AcDbEntity
  8
0
  6
Continuous
 62
     7
100
AcDbLine
 10
25.0
 20
20.00000000000011
 30
0.0
 11
25.0
 21
-34.0
 31
0.0
  0
LINE
  5
220
330
7B
100
AcDbEntity
  8
0
  6
Continuous
 62
     7
100
AcDbLine
 10
-20.0
 20
25.0
 30
0.0
 11
20.0
 21
25.0
 31
0.0
  0
LINE
  5
221
330
7B
100
AcDbEntity
  8
0
  6
Continuous
 62
     7
100
AcDbLine
 10
-13.50000000000006
 20
-15.61324977874756
 30
0.0
 11
-13.50000000000006
 21
-21.38674831390369
 31
0.0
  0
LINE
  5
222
330
7B
100
AcDbEntity
  8
0
  6
Continuous
 62
     7
100
AcDbLine
 10
-23.50000000000006
 20
-15.61324596405018
 30
0.0
 11
-23.50000000000006
 21
-21.38674831390369
 31
0.0
  0
LINE
  5
223
330
7B
100
AcDbEntity
  8
0
  6
Continuous
 62
     7
100
AcDbLine
 10
-18.49999547245383
 20
-12.72649172592335
 30
0.0
 11
-13.49999893419387
 21
-15.61324075430132
 31
0.0
  0
LINE
  5
224
330
7B
100
AcDbEntity
  8
0
  6
Continuous
 62
     7
100
AcDbLine
 10
-23.50000268754031
 20
-21.38675921746735
 30
0.0
 11
-18.50000614928035
 21
-24.27350824584531
 31
0.0
  0
LINE
  5
225
330
7B
100
AcDbEntity
  8
0
  6
Continuous
 62
     7
100
AcDbLine
 10
-18.50001097846988
 20
-24.27350779930336
 30
0.0
 11
-13.50000122571074
 21
-21.38675114153158
 31
0.0
  0
LINE
  5
226
330
7B
100
AcDbEntity
  8
0
  6
Continuous
 62
     7
100
AcDbLine
 10
-23.49999544231452
 20
-15.61324919648953
 30
0.0
 11
-18.49999890405459
 21
-12.72650016811158
 31
0.0
  0
LINE
  5
227
330
7B
100
AcDbEntity
  8
0
  6
Continuous
 62
     7
100
AcDbLine
 10
-18.50000086213174
 20
12.72650826213815
 30
0.0
 11
-13.50000432387182
 21
15.61325729051609
 31
0.0
  0
LINE
  5
228
330
7B
100
AcDbEntity
  8
0
  6
Continuous
 62
     7
100
AcDbLine
 10
-23.50000044782426
 20
21.38676253918347
 30
0.0
 11
-18.50000390956465
 21
24.27351156756124
 31
0.0
  0
LINE
  5
229
330
7B
100
AcDbEntity
  8
0
  6
Continuous
 62
     7
100
AcDbLine
 10
-13.50000000000006
 20
21.38675117492687
 30
0.0
 11
-13.50000000000006
 21
15.61324977874767
 31
0.0
  0
LINE
  5
22A
330
7B
100
AcDbEntity
  8
0
  6
Continuous
 62
     7
100
AcDbLine
 10
-23.50000000000006
 20
21.3867530822755
 30
0.0
 11
-23.50000000000006
 21
15.61324882507336
 31
0.0
  0
LINE
  5
22B
330
7B
100
AcDbEntity
  8
0
  6
Continuous
 62
     7
100
AcDbLine
 10
-18.50000191103441
 20
24.27350018799966
 30
0.0
 11
-13.50000537277445
 21
21.3867511596217
 31
0.0
  0
LINE
  5
22C
330
7B
100
AcDbEntity
  8
0
  6
Continuous
 62
     7
100
AcDbLine
 10
-23.49999768203035
 20
15.61325251820469
 30
0.0
 11
-18.50000114377039
 21
12.72650348982673
 31
0.0
  0
LINE
  5
22D
330
7B
100
AcDbEntity
  8
0
  6
Continuous
 62
     7
100
AcDbLine
 10
18.5000014737385
 20
12.72649903100469
 30
0.0
 11
23.4999980119984
 21
15.61324805938262
 31
0.0
  0
LINE
  5
22E
330
7B
100
AcDbEntity
  8
0
  6
Continuous
 62
     7
100
AcDbLine
 10
13.49999807334847
 20
21.38675991529909
 30
0.0
 11
18.49999461160823
 21
24.27350894367694
 31
0.0
  0
LINE
  5
22F
330
7B
100
AcDbEntity
  8
0
  6
Continuous
 62
     7
100
AcDbLine
 10
23.50000000000006
 20
21.38675117492687
 30
0.0
 11
23.50000000000006
 21
15.61324977874767
 31
0.0
  0
LINE
  5
230
330
7B
100
AcDbEntity
  8
0
  6
Continuous
 62
     7
100
AcDbLine
 10
13.50000000000006
 20
21.3867530822755
 30
0.0
 11
13.50000000000006
 21
15.61324882507336
 31
0.0
  0
LINE
  5
231
330
7B
100
AcDbEntity
  8
0
  6
Continuous
 62
     7
100
AcDbLine
 10
18.49999851748685
 20
24.27350611550839
 30
0.0
 11
23.49999505574691
 21
21.38675708713037
 31
0.0
  0
LINE
  5
232
330
7B
100
AcDbEntity
  8
0
  6
Continuous
 62
     7
100
AcDbLine
 10
13.49999893179432
 20
15.61325183846359
 30
0.0
 11
18.50000207730384
 21
12.72649899538873
 31
0.0
  0
LINE
  5
233
330
7B
100
AcDbEntity
  8
0
  6
Continuous
 62
     7
100
AcDbLine
 10
18.49999605730142
 20
-24.2735099121149
 30
0.0
 11
23.49999920281094
 21
-21.38675706904004
 31
0.0
  0
LINE
  5
234
330
7B
100
AcDbEntity
  8
0
  6
Continuous
 62
     7
100
AcDbLine
 10
13.50000307885831
 20
-15.61325182037327
 30
0.0
 11
18.49999961711822
 21
-12.72650279199534
 31
0.0
  0
LINE
  5
235
330
7B
100
AcDbEntity
  8
0
  6
Continuous
 62
     7
100
AcDbLine
 10
23.50000000000006
 20
-15.61324977874756
 30
0.0
 11
23.50000000000006
 21
-21.38674831390369
 31
0.0
  0
LINE
  5
236
330
7B
100
AcDbEntity
  8
0
  6
Continuous
 62
     7
100
AcDbLine
 10
13.50000000000006
 20
-15.61324596405018
 30
0.0
 11
13.50000000000006
 21
-21.38674831390369
 31
0.0
  0
LINE
  5
237
330
7B
100
AcDbEntity
  8
0
  6
Continuous
 62
     7
100
AcDbLine
 10
18.49999923402227
 20
-12.72649570928926
 30
0.0
 11
23.50000237953189
 21
-15.61324855236417
 31
0.0
  0
LINE
  5
238
330
7B
100
AcDbEntity
  8
0
  6
Continuous
 62
     7
100
AcDbLine
 10
13.49999964832936
 20
-21.38674998633358
 30
0.0
 11
18.50000279383888
 21
-24.27350282940844
 31
0.0
  0
LINE
  5
239
330
7B
100
AcDbEntity
  8
0
  6
CENTER
 62
     4
100
AcDbLine
 10
0.0
 20
28.30000019073498
 30
0.0
 11
0.0
 21
-44.59845884137769
 31
0.0
  0
LINE
  5
23A
330
7B
100
AcDbEntity
  8
0
  6
CENTER
 62
     4
100
AcDbLine
 10
-28.30000305175776
 20
0.0
 30
0.0
 11
38.30000305175798
 21
0.0
 31
0.0
  0
LINE
  5
23B
330
7B
100
AcDbEntity
  8
0
  6
Continuous
 62
     7
100
AcDbLine
 10
29.50000000000011
 20
0.0
 30
0.0
 11
25.0
 21
0.0
 31
0.0
  0
LINE
  5
23C
330
7B
100
AcDbEntity
  8
0
  6
Continuous
 62
     7
100
AcDbLine
 10
29.50000000000011
 20
-4.999999046325684
 30
0.0
 11
25.0
 21
-4.999999046325684
 31
0.0
  0
LINE
  5
23D
330
7B
100
AcDbEntity
  8
0
  6
Continuous
 62
     7
100
AcDbLine
 10
29.50000000000011
 20
5.0
 30
0.0
 11
25.0
 21
5.0
 31
0.0
  0
LINE
  5
23E
330
7B
100
AcDbEntity
  8
0
  6
Continuous
 62
     7
100
AcDbLine
 10
29.50000000000006
 20
5.000000000000114
 30
0.0
 11
29.50000000000006
 21
-4.99999904632557
 31
0.0
  0
LINE
  5
23F
330
7B
100
AcDbEntity
  8
0
  6
Continuous
 62
     7
100
AcDbLine
 10
35.0
 20
-2.999999046325684
 30
0.0
 11
29.50000000000011
 21
-2.999999046325684
 31
0.0
  0
LINE
  5
240
330
7B
100
AcDbEntity
  8
0
  6
Continuous
 62
     7
100
AcDbLine
 10
35.0
 20
-2.99999904632557
 30
0.0
 11
35.0
 21
3.000000000000114
 31
0.0
  0
LINE
  5
241
330
7B
100
AcDbEntity
  8
0
  6
Continuous
 62
     7
100
AcDbLine
 10
35.0
 20
3.0
 30
0.0
 11
29.50000000000011
 21
3.0
 31
0.0
  0
LINE
  5
242
330
7B
100
AcDbEntity
  8
0
  6
Continuous
 62
     7
100
AcDbLine
 10
-10.99987506294539
 20
6.350895370837215
 30
0.0
 11
0.000124896742919
 21
12.70174842263572
 31
0.0
  0
LINE
  5
243
330
7B
100
AcDbEntity
  8
0
  6
Continuous
 62
     7
100
AcDbLine
 10
11.00000000000006
 20
6.350830078125114
 30
0.0
 11
11.00000000000006
 21
-6.350868225097543
 31
0.0
  0
LINE
  5
244
330
7B
100
AcDbEntity
  8
0
  6
Continuous
 62
     7
100
AcDbLine
 10
-11.00000000000006
 20
6.35086822509777
 30
0.0
 11
-11.00000000000006
 21
-6.350830078124886
 31
0.0
  0
LINE
  5
245
330
7B
100
AcDbEntity
  8
0
  6
Continuous
 62
     7
100
AcDbLine
 10
-0.000025622275635
 20
-12.70171519922706
 30
0.0
 11
10.99997433741253
 21
-6.350862147428644
 31
0.0
  0
LINE
  5
246
330
7B
100
AcDbEntity
  8
0
  6
Continuous
 62
     7
100
AcDbLine
 10
0.000080028481279
 20
12.7017163615295
 30
0.0
 11
11.00010422379973
 21
6.350859510712674
 31
0.0
  0
LINE
  5
247
330
7B
100
AcDbEntity
  8
0
  6
Continuous
 62
     7
100
AcDbLine
 10
-11.00000614672952
 20
-6.350826093820507
 30
0.0
 11
-0.000006187041258
 21
-12.70167914561898
 31
0.0
  0
LINE
  5
248
330
7B
100
AcDbEntity
  8
0
  6
CENTER
 62
     4
100
AcDbLine
 10
18.50000000000006
 20
10.66548261074979
 30
0.0
 11
18.50000000000006
 21
26.33451738925021
 31
0.0
  0
LINE
  5
249
330
7B
100
AcDbEntity
  8
0
  6
CENTER
 62
     4
100
AcDbLine
 10
-18.50000000000006
 20
-26.33451643557589
 30
0.0
 11
-18.50000000000006
 21
-10.66548165707547
 31
0.0
  0
LINE
  5
24A
330
7B
100
AcDbEntity
  8
0
  6
CENTER
 62
     4
100
AcDbLine
 10
-12.14383167366367
 20
-18.49999904632568
 30
0.0
 11
-24.85616832633644
 21
-18.49999904632568
 31
0.0
  0
LINE
  5
24B
330
7B
100
AcDbEntity
  8
0
  6
Continuous
 62
     0
100
AcDbLine
 10
55.0
 20
-33.99999999999989
 30
0.0
 11
55.0
 21
-39.99999999999989
 31
0.0
  0
LINE
  5
24C
330
7B
100
AcDbEntity
  8
0
  6
Continuous
 62
     0
100
AcDbLine
 10
-55.0
 20
-34.0
 30
0.0
 11
-25.0
 21
-34.0
 31
0.0
  0
LINE
  5
24D
330
7B
100
AcDbEntity
  8
0
  6
Continuous
 62
     0
100
AcDbLine
 10
25.0
 20
-34.0
 30
0.0
 11
55.0
 21
-34.0
 31
0.0
  0
LINE
  5
24E
330
7B
100
AcDbEntity
  8
0
  6
Continuous
 62
     0
100
AcDbLine
 10
-55.0
 20
-40.0
 30
0.0
 11
55.0
 21
-40.0
 31
0.0
  0
LINE
  5
24F
330
7B
100
AcDbEntity
  8
0
  6
CENTER
 62
     4
100
AcDbLine
 10
-42.5
 20
-28.83749658415616
 30
0.0
 11
-42.5
 21
-45.47432694574456
 31
0.0
  0
LINE
  5
250
330
7B
100
AcDbEntity
  8
0
  6
Continuous
 62
     0
100
AcDbLine
 10
23.00000000000007
 20
-10.00000000000034
 30
0.0
 11
24.9999999999999
 21
-12.00000000000022
 31
0.0
  0
LINE
  5
251
330
7B
100
AcDbEntity
  8
0
  6
CENTER
 62
     4
100
AcDbLine
 10
42.5
 20
-29.57691126689349
 30
0.0
 11
42.5
 21
-45.1046196043759
 31
0.0
  0
LINE
  5
252
330
7B
100
AcDbEntity
  8
0
  6
Continuous
 62
     0
100
AcDbLine
 10
-22.99999999999989
 20
-10.0
 30
0.0
 11
-16.15549442140349
 21
-10.0
 31
0.0
  0
LINE
  5
253
330
7B
100
AcDbEntity
  8
0
  6
Continuous
 62
     0
100
AcDbLine
 10
-55.0
 20
-33.99999999999989
 30
0.0
 11
-55.0
 21
-39.99999999999989
 31
0.0
  0
LINE
  5
254
330
7B
100
AcDbEntity
  8
0
  6
Continuous
 62
     0
100
AcDbLine
 10
16.15549442140355
 20
-10.0
 30
0.0
 11
22.99999999999994
 21
-10.0
 31
0.0
  0
LINE
  5
255
330
7B
100
AcDbEntity
  8
0
  6
Continuous
 62
     0
100
AcDbLine
 10
-22.99999999999987
 20
-10.00000000000028
 30
0.0
 11
-24.99999999999983
 21
-12.0000000000002
 31
0.0
  0
LINE
  5
256
330
7B
100
AcDbEntity
  8
0
  6
CENTER
 62
     4
100
AcDbLine
 10
24.85616832633644
 20
-18.49999904632568
 30
0.0
 11
12.14383167366367
 21
-18.49999904632568
 31
0.0
  0
LINE
  5
257
330
7B
100
AcDbEntity
  8
0
  6
CENTER
 62
     4
100
AcDbLine
 10
24.85616832633644
 20
18.5
 30
0.0
 11
12.14383167366367
 21
18.5
 31
0.0
  0
LINE
  5
258
330
7B
100
AcDbEntity
  8
0
  6
CENTER
 62
     4
100
AcDbLine
 10
-18.50000000000006
 20
10.66548261074979
 30
0.0
 11
-18.50000000000006
 21
26.33451738925021
 31
0.0
  0
LINE
  5
259
330
7B
100
AcDbEntity
  8
0
  6
CENTER
 62
     4
100
AcDbLine
 10
-12.14383167366367
 20
18.5
 30
0.0
 11
-24.85616832633644
 21
18.5
 31
0.0
  0
LINE
  5
25A
330
7B
100
AcDbEntity
  8
0
  6
CENTER
 62
     4
100
AcDbLine
 10
18.50000000000006
 20
-26.33451643557589
 30
0.0
 11
18.50000000000006
 21
-10.66548165707547
 31
0.0
  0
LINE
  5
25B
330
7B
100
AcDbEntity
  8
0
  6
DASHED
 62
     7
100
AcDbLine
 10
-20.0
 20
-25.0
 30
0.0
 11
20.0
 21
-25.0
 31
0.0
  0
ARC
  5
25C
330
7B
100
AcDbEntity
  8
0
  6
Continuous
 62
     7
100
AcDbCircle
 10
-20.0
 20
20.0
 30
0.0
 40
5.0
100
AcDbArc
 50
89.99998201391067
 51
179.9999640278213
  0
ARC
  5
25D
330
7B
100
AcDbEntity
  8
0
  6
Continuous
 62
     7
100
AcDbCircle
 10
20.0
 20
20.0
 30
0.0
 40
5.0
100
AcDbArc
 50
0.0
 51
89.99998201391067
  0
CIRCLE
  5
25E
330
7B
100
AcDbEntity
  8
0
  6
Continuous
 62
     7
100
AcDbCircle
 10
18.50000000000006
 20
18.5
 30
0.0
 40
3.0
  0
CIRCLE
  5
25F
330
7B
100
AcDbEntity
  8
0
  6
Continuous
 62
     7
100
AcDbCircle
 10
0.0
 20
0.0
 30
0.0
 40
6.0
  0
CIRCLE
  5
260
330
7B
100
AcDbEntity
  8
0
  6
Continuous
 62
     7
100
AcDbCircle
 10
0.0
 20
0.0
 30
0.0
 40
15.0
  0
CIRCLE
  5
261
330
7B
100
AcDbEntity
  8
0
  6
Continuous
 62
     7
100
AcDbCircle
 10
-18.50000000000006
 20
18.5
 30
0.0
 40
3.0
  0
CIRCLE
  5
262
330
7B
100
AcDbEntity
  8
0
  6
Continuous
 62
     7
100
AcDbCircle
 10
18.50000000000006
 20
-18.49999904632568
 30
0.0
 40
3.0
  0
CIRCLE
  5
263
330
7B
100
AcDbEntity
  8
0
  6
Continuous
 62
     7
100
AcDbCircle
 10
-18.50000000000006
 20
-18.49999904632568
 30
0.0
 40
3.0
  0
CIRCLE
  5
264
330
7B
100
AcDbEntity
  8
0
  6
Continuous
 62
     7
100
AcDbCircle
 10
0.0
 20
0.0
 30
0.0
 40
7.000000000000001
  0
CIRCLE
  5
265
330
7B
100
AcDbEntity
  8
0
  6
Continuous
 62
     7
100
AcDbCircle
 10
0.0
 20
0.0
 30
0.0
 40
11.0
  0
CIRCLE
  5
266
330
7B
100
AcDbEntity
  8
0
  6
Continuous
 62
     4
100
AcDbCircle
 10
-18.50000000000006
 20
-18.49999904632568
 30
0.0
 40
2.4585
  0
ARC
  5
267
330
7B
100
AcDbEntity
  8
0
  6
Continuous
 62
     0
100
AcDbCircle
 10
0.0
 20
0.0
 30
0.0
 40
19.0
100
AcDbArc
 50
211.7568638592972
 51
328.2431361407029
  0
CIRCLE
  5
268
330
7B
100
AcDbEntity
  8
0
  6
Continuous
 62
     4
100
AcDbCircle
 10
18.50000000000006
 20
-18.49999904632568
 30
0.0
 40
2.4585
  0
CIRCLE
  5
269
330
7B
100
AcDbEntity
  8
0
  6
Continuous
 62
     4
100
AcDbCircle
 10
-18.50000000000006
 20
18.5
 30
0.0
 40
2.4585
  0
CIRCLE
  5
26A
330
7B
100
AcDbEntity
  8
0
  6
Continuous
 62
     4
100
AcDbCircle
 10
18.50000000000006
 20
18.5
 30
0.0
 40
2.4585
  0
ARC
  5
26B
330
7B
100
AcDbEntity
  8
0
  6
DASHED
 62
     7
100
AcDbCircle
 10
-20.0
 20
-20.0
 30
0.0
 40
5.0
100
AcDbArc
 50
180.0000359721787
 51
270.0000179860893
  0
ARC
  5
26C
330
7B
100
AcDbEntity
  8
0
  6
DASHED
 62
     7
100
AcDbCircle
 10
20.0
 20
-20.0
 30
0.0
 40
5.0
100
AcDbArc
 50
270.0000179860893
 51
0.0
  0
MTEXT
  5
26D
330
7B
100
AcDbEntity
  8
0
 62
     0
100
AcDbMText
 10
16.80834861809326
 20
0.619111225333199
 30
0.0
 40
0.5
 41
0.0
 71
     7
 72
     1
  1
{\W1;BN-6102A-LA-40}
 73
     1
 44
1.0
  0
ENDBLK
  5
7D
330
7B
100
AcDbEntity
  8
0
100
AcDbBlockEnd
  0
BLOCK
  5
270
330
26F
100
AcDbEntity
  8
0
100
AcDbBlockBegin
  2
_Closed
 70
     0
 10
0.0
 20
0.0
 30
0.0
  3
_Closed
  1

  0
LINE
  5
272
330
26F
100
AcDbEntity
  8
0
  6
ByBlock
 62
     0
370
    -2
100
AcDbLine
 10
-1.0
 20
0.166667
 30
0.0
 11
0.0
 21
0.0
 31
0.0
  0
LINE
  5
273
330
26F
100
AcDbEntity
  8
0
  6
ByBlock
 62
     0
370
    -2
100
AcDbLine
 10
0.0
 20
0.0
 30
0.0
 11
-1.0
 21
-0.166667
 31
0.0
  0
LINE
  5
274
330
26F
100
AcDbEntity
  8
0
  6
ByBlock
 62
     0
370
    -2
100
AcDbLine
 10
-1.0
 20
0.166667
 30
0.0
 11
-1.0
 21
-0.166667
 31
0.0
  0
LINE
  5
275
330
26F
100
AcDbEntity
  8
0
  6
ByBlock
 62
     0
370
    -2
100
AcDbLine
 10
0.0
 20
0.0
 30
0.0
 11
-1.0
 21
0.0
 31
0.0
  0
ENDBLK
  5
271
330
26F
100
AcDbEntity
  8
0
100
AcDbBlockEnd
  0
BLOCK
  5
288
330
287
100
AcDbEntity
  8
0
100
AcDbBlockBegin
  2
_Open
 70
     0
 10
0.0
 20
0.0
 30
0.0
  3
_Open
  1

  0
LINE
  5
28A
330
287
100
AcDbEntity
  8
0
  6
ByBlock
 62
     0
370
    -2
100
AcDbLine
 10
-1.0
 20
0.166667
 30
0.0
 11
0.0
 21
0.0
 31
0.0
  0
LINE
  5
28B
330
287
100
AcDbEntity
  8
0
  6
ByBlock
 62
     0
370
    -2
100
AcDbLine
 10
-1.0
 20
-0.166667
 30
0.0
 11
0.0
 21
0.0
 31
0.0
  0
LINE
  5
28C
330
287
100
AcDbEntity
  8
0
  6
ByBlock
 62
     0
370
    -2
100
AcDbLine
 10
0.0
 20
0.0
 30
0.0
 11
-1.0
 21
0.0
 31
0.0
  0
ENDBLK
  5
289
330
287
100
AcDbEntity
  8
0
100
AcDbBlockEnd
  0
BLOCK
  5
28F
330
28E
100
AcDbEntity
  8
0
100
AcDbBlockBegin
  2
*D7
 70
     1
 10
0.0
 20
0.0
 30
0.0
  3
*D7
  1

  0
LINE
  5
291
330
28E
100
AcDbEntity
  8
0
  6
ByBlock
 62
     0
370
    -2
100
AcDbLine
 10
-230.6821470652189
 20
-64.60031818915877
 30
0.0
 11
-230.6821470652189
 21
-37.86194372913324
 31
0.0
  0
LINE
  5
292
330
28E
100
AcDbEntity
  8
0
  6
ByBlock
 62
     0
370
    -2
100
AcDbLine
 10
-77.68213180642988
 20
-64.6003143744615
 30
0.0
 11
-77.68213180642988
 21
-37.86194372913327
 31
0.0
  0
LINE
  5
293
330
28E
100
AcDbEntity
  8
0
  6
ByBlock
 62
     0
370
    -2
100
AcDbLine
 10
-227.5681470652189
 20
-40.14794372913325
 30
0.0
 11
-80.79613180642988
 21
-40.14794372913327
 31
0.0
  0
INSERT
  5
294
330
28E
100
AcDbEntity
  8
0
 62
     0
370
    -2
100
AcDbBlockReference
  2
_Open
 10
-230.6821470652189
 20
-40.14794372913325
 30
0.0
 41
3.114
 42
3.114
 43
3.114
 50
180.0
  0
INSERT
  5
295
330
28E
100
AcDbEntity
  8
0
 62
     0
370
    -2
100
AcDbBlockReference
  2
_Open
 10
-77.68213180642988
 20
-40.14794372913327
 30
0.0
 41
3.114
 42
3.114
 43
3.114
 50
360.0
  0
MTEXT
  5
296
330
28E
100
AcDbEntity
  8
0
 62
     0
100
AcDbMText
 10
-154.1811394358244
 20
-36.65901037912701
 30
0.0
 40
4.0
 41
0.0
 71
     5
 72
     1
  1
103+ストローク
 73
     1
 44
1.0
  0
POINT
  5
297
330
28E
100
AcDbEntity
  8
Defpoints
 62
     0
100
AcDbPoint
 10
-230.6821470652189
 20
-64.60031818915877
 30
0.0
  0
POINT
  5
298
330
28E
100
AcDbEntity
  8
Defpoints
 62
     0
100
AcDbPoint
 10
-77.68213180642988
 20
-64.6003143744615
 30
0.0
  0
POINT
  5
299
330
28E
100
AcDbEntity
  8
Defpoints
 62
     0
100
AcDbPoint
 10
-77.68213180642988
 20
-40.14794372913326
 30
0.0
  0
ENDBLK
  5
290
330
28E
100
AcDbEntity
  8
0
100
AcDbBlockEnd
  0
BLOCK
  5
29C
330
29B
100
AcDbEntity
  8
0
100
AcDbBlockBegin
  2
*D8
 70
     1
 10
0.0
 20
0.0
 30
0.0
  3
*D8
  1

  0
LINE
  5
29E
330
29B
100
AcDbEntity
  8
0
  6
ByBlock
 62
     0
370
    -2
100
AcDbLine
 10
-77.68213180642988
 20
-64.6003143744615
 30
0.0
 11
-77.68213180642988
 21
-48.10818989878709
 31
0.0
  0
LINE
  5
29F
330
29B
100
AcDbEntity
  8
0
  6
ByBlock
 62
     0
370
    -2
100
AcDbLine
 10
-111.6821308527557
 20
-63.66884064246688
 30
0.0
 11
-111.6821308527557
 21
-48.10818989878709
 31
0.0
  0
LINE
  5
2A0
330
29B
100
AcDbEntity
  8
0
  6
ByBlock
 62
     0
370
    -2
100
AcDbLine
 10
-80.79613180642988
 20
-50.39418989878709
 30
0.0
 11
-108.5681308527557
 21
-50.39418989878709
 31
0.0
  0
INSERT
  5
2A1
330
29B
100
AcDbEntity
  8
0
 62
     0
370
    -2
100
AcDbBlockReference
  2
_Open
 10
-77.68213180642988
 20
-50.39418989878709
 30
0.0
 41
3.114
 42
3.114
 43
3.114
  0
INSERT
  5
2A2
330
29B
100
AcDbEntity
  8
0
 62
     0
370
    -2
100
AcDbBlockReference
  2
_Open
 10
-111.6821308527557
 20
-50.39418989878709
 30
0.0
 41
3.114
 42
3.114
 43
3.114
 50
180.0
  0
MTEXT
  5
2A3
330
29B
100
AcDbEntity
  8
0
 62
     0
100
AcDbMText
 10
-94.68013132959283
 20
-47.39418989878709
 30
0.0
 40
4.0
 41
0.0
 71
     5
 72
     1
  1
34
 73
     1
 44
1.0
  0
POINT
  5
2A4
330
29B
100
AcDbEntity
  8
Defpoints
 62
     0
100
AcDbPoint
 10
-77.68213180642988
 20
-64.6003143744615
 30
0.0
  0
POINT
  5
2A5
330
29B
100
AcDbEntity
  8
Defpoints
 62
     0
100
AcDbPoint
 10
-111.6821308527557
 20
-63.66884064246688
 30
0.0
  0
POINT
  5
2A6
330
29B
100
AcDbEntity
  8
Defpoints
 62
     0
100
AcDbPoint
 10
-111.6821308527557
 20
-50.39418989878709
 30
0.0
  0
ENDBLK
  5
29D
330
29B
100
AcDbEntity
  8
0
100
AcDbBlockEnd
  0
BLOCK
  5
2A9
330
2A8
100
AcDbEntity
  8
0
100
AcDbBlockBegin
  2
*D9
 70
     1
 10
0.0
 20
0.0
 30
0.0
  3
*D9
  1

  0
LINE
  5
2AB
330
2A8
100
AcDbEntity
  8
0
  6
ByBlock
 62
     0
370
    -2
100
AcDbLine
 10
-230.6821470652189
 20
-64.60031818915877
 30
0.0
 11
-230.6821470652189
 21
-48.10818989878709
 31
0.0
  0
LINE
  5
2AC
330
2A8
100
AcDbEntity
  8
0
  6
ByBlock
 62
     0
370
    -2
100
AcDbLine
 10
-219.6821470652191
 20
-63.66884064246688
 30
0.0
 11
-219.6821470652191
 21
-48.10818989878709
 31
0.0
  0
LINE
  5
2AD
330
2A8
100
AcDbEntity
  8
0
  6
ByBlock
 62
     0
370
    -2
100
AcDbLine
 10
-227.5681470652189
 20
-50.39418989878709
 30
0.0
 11
-222.7961470652191
 21
-50.39418989878709
 31
0.0
  0
INSERT
  5
2AE
330
2A8
100
AcDbEntity
  8
0
 62
     0
370
    -2
100
AcDbBlockReference
  2
_Open
 10
-230.6821470652189
 20
-50.39418989878709
 30
0.0
 41
3.114
 42
3.114
 43
3.114
 50
180.0
  0
INSERT
  5
2AF
330
2A8
100
AcDbEntity
  8
0
 62
     0
370
    -2
100
AcDbBlockReference
  2
_Open
 10
-219.6821470652191
 20
-50.39418989878709
 30
0.0
 41
3.114
 42
3.114
 43
3.114
  0
MTEXT
  5
2B0
330
2A8
100
AcDbEntity
  8
0
 62
     0
100
AcDbMText
 10
-225.1811470652191
 20
-47.39418989878709
 30
0.0
 40
4.0
 41
0.0
 71
     5
 72
     1
  1
11
 73
     1
 44
1.0
  0
POINT
  5
2B1
330
2A8
100
AcDbEntity
  8
Defpoints
 62
     0
100
AcDbPoint
 10
-230.6821470652189
 20
-64.60031818915877
 30
0.0
  0
POINT
  5
2B2
330
2A8
100
AcDbEntity
  8
Defpoints
 62
     0
100
AcDbPoint
 10
-219.6821470652191
 20
-63.66884064246688
 30
0.0
  0
POINT
  5
2B3
330
2A8
100
AcDbEntity
  8
Defpoints
 62
     0
100
AcDbPoint
 10
-219.6821470652191
 20
-50.39418989878709
 30
0.0
  0
ENDBLK
  5
2AA
330
2A8
100
AcDbEntity
  8
0
100
AcDbBlockEnd
  0
BLOCK
  5
2B6
330
2B5
100
AcDbEntity
  8
0
100
AcDbBlockBegin
  2
*D10
 70
     1
 10
0.0
 20
0.0
 30
0.0
  3
*D10
  1

  0
LINE
  5
2B8
330
2B5
100
AcDbEntity
  8
0
  6
ByBlock
 62
     0
370
    -2
100
AcDbLine
 10
-51.68213180643011
 20
-82.40416264106295
 30
0.0
 11
-51.68213180643011
 21
-48.10818989878709
 31
0.0
  0
LINE
  5
2B9
330
2B5
100
AcDbEntity
  8
0
  6
ByBlock
 62
     0
370
    -2
100
AcDbLine
 10
-26.68213180643008
 20
-83.60031437446162
 30
0.0
 11
-26.68213180643008
 21
-48.10818989878709
 31
0.0
  0
LINE
  5
2BA
330
2B5
100
AcDbEntity
  8
0
  6
ByBlock
 62
     0
370
    -2
100
AcDbLine
 10
-48.56813180643011
 20
-50.39418989878709
 30
0.0
 11
-29.79613180643008
 21
-50.39418989878709
 31
0.0
  0
INSERT
  5
2BB
330
2B5
100
AcDbEntity
  8
0
 62
     0
370
    -2
100
AcDbBlockReference
  2
_Open
 10
-51.68213180643011
 20
-50.39418989878709
 30
0.0
 41
3.114
 42
3.114
 43
3.114
 50
180.0
  0
INSERT
  5
2BC
330
2B5
100
AcDbEntity
  8
0
 62
     0
370
    -2
100
AcDbBlockReference
  2
_Open
 10
-26.68213180643008
 20
-50.39418989878709
 30
0.0
 41
3.114
 42
3.114
 43
3.114
  0
MTEXT
  5
2BD
330
2B5
100
AcDbEntity
  8
0
 62
     0
100
AcDbMText
 10
-39.18113180643008
 20
-47.39418989878709
 30
0.0
 40
4.0
 41
0.0
 71
     5
 72
     1
  1
25
 73
     1
 44
1.0
  0
POINT
  5
2BE
330
2B5
100
AcDbEntity
  8
Defpoints
 62
     0
100
AcDbPoint
 10
-51.68213180643011
 20
-82.40416264106295
 30
0.0
  0
POINT
  5
2BF
330
2B5
100
AcDbEntity
  8
Defpoints
 62
     0
100
AcDbPoint
 10
-26.68213180643008
 20
-83.60031437446162
 30
0.0
  0
POINT
  5
2C0
330
2B5
100
AcDbEntity
  8
Defpoints
 62
     0
100
AcDbPoint
 10
-26.68213180643008
 20
-50.39418989878709
 30
0.0
  0
ENDBLK
  5
2B7
330
2B5
100
AcDbEntity
  8
0
100
AcDbBlockEnd
  0
BLOCK
  5
2C3
330
2C2
100
AcDbEntity
  8
0
100
AcDbBlockBegin
  2
*D11
 70
     1
 10
0.0
 20
0.0
 30
0.0
  3
*D11
  1

  0
LINE
  5
2C5
330
2C2
100
AcDbEntity
  8
0
  6
ByBlock
 62
     0
370
    -2
100
AcDbLine
 10
-26.68213180643008
 20
-83.60031437446162
 30
0.0
 11
-26.68213180643008
 21
-37.86194372913326
 31
0.0
  0
LINE
  5
2C6
330
2C2
100
AcDbEntity
  8
0
  6
ByBlock
 62
     0
370
    -2
100
AcDbLine
 10
-74.56813180642988
 20
-40.14794372913325
 30
0.0
 11
-29.79613180643008
 21
-40.14794372913326
 31
0.0
  0
INSERT
  5
2C7
330
2C2
100
AcDbEntity
  8
0
 62
     0
370
    -2
100
AcDbBlockReference
  2
_Open
 10
-77.68213180642988
 20
-40.14794372913325
 30
0.0
 41
3.114
 42
3.114
 43
3.114
 50
180.0
  0
INSERT
  5
2C8
330
2C2
100
AcDbEntity
  8
0
 62
     0
370
    -2
100
AcDbBlockReference
  2
_Open
 10
-26.68213180643008
 20
-40.14794372913326
 30
0.0
 41
3.114
 42
3.114
 43
3.114
 50
360.0
  0
MTEXT
  5
2C9
330
2C2
100
AcDbEntity
  8
0
 62
     0
100
AcDbMText
 10
-52.18113180643
 20
-37.14794372913326
 30
0.0
 40
4.0
 41
0.0
 71
     5
 72
     1
  1
51
 73
     1
 44
1.0
  0
POINT
  5
2CA
330
2C2
100
AcDbEntity
  8
Defpoints
 62
     0
100
AcDbPoint
 10
-77.68213180642988
 20
-64.6003143744615
 30
0.0
  0
POINT
  5
2CB
330
2C2
100
AcDbEntity
  8
Defpoints
 62
     0
100
AcDbPoint
 10
-26.68213180643008
 20
-83.60031437446162
 30
0.0
  0
POINT
  5
2CC
330
2C2
100
AcDbEntity
  8
Defpoints
 62
     0
100
AcDbPoint
 10
-26.68213180643008
 20
-40.14794372913326
 30
0.0
  0
ENDBLK
  5
2C4
330
2C2
100
AcDbEntity
  8
0
100
AcDbBlockEnd
  0
BLOCK
  5
2CF
330
2CE
100
AcDbEntity
  8
0
100
AcDbBlockBegin
  2
*D12
 70
     1
 10
0.0
 20
0.0
 30
0.0
  3
*D12
  1

  0
LINE
  5
2D1
330
2CE
100
AcDbEntity
  8
0
  6
ByBlock
 62
     0
370
    -2
100
AcDbLine
 10
-26.68213180643008
 20
-83.60031437446162
 30
0.0
 11
-26.68213180643008
 21
-28.21398103401381
 31
0.0
  0
LINE
  5
2D2
330
2CE
100
AcDbEntity
  8
0
  6
ByBlock
 62
     0
370
    -2
100
AcDbLine
 10
-230.6821470652189
 20
-64.60031818915877
 30
0.0
 11
-230.6821470652189
 21
-28.21398103401381
 31
0.0
  0
LINE
  5
2D3
330
2CE
100
AcDbEntity
  8
0
  6
ByBlock
 62
     0
370
    -2
100
AcDbLine
 10
-29.79613180643008
 20
-30.49998103401381
 30
0.0
 11
-227.5681470652189
 21
-30.49998103401381
 31
0.0
  0
INSERT
  5
2D4
330
2CE
100
AcDbEntity
  8
0
 62
     0
370
    -2
100
AcDbBlockReference
  2
_Open
 10
-26.68213180643008
 20
-30.49998103401381
 30
0.0
 41
3.114
 42
3.114
 43
3.114
  0
INSERT
  5
2D5
330
2CE
100
AcDbEntity
  8
0
 62
     0
370
    -2
100
AcDbBlockReference
  2
_Open
 10
-230.6821470652189
 20
-30.49998103401381
 30
0.0
 41
3.114
 42
3.114
 43
3.114
 50
180.0
  0
MTEXT
  5
2D6
330
2CE
100
AcDbEntity
  8
0
 62
     0
100
AcDbMText
 10
-128.6801394358245
 20
-27.01104768400756
 30
0.0
 40
4.0
 41
0.0
 71
     5
 72
     1
  1
154+ストローク
 73
     1
 44
1.0
  0
POINT
  5
2D7
330
2CE
100
AcDbEntity
  8
Defpoints
 62
     0
100
AcDbPoint
 10
-26.68213180643008
 20
-83.60031437446162
 30
0.0
  0
POINT
  5
2D8
330
2CE
100
AcDbEntity
  8
Defpoints
 62
     0
100
AcDbPoint
 10
-230.6821470652189
 20
-64.60031818915877
 30
0.0
  0
POINT
  5
2D9
330
2CE
100
AcDbEntity
  8
Defpoints
 62
     0
100
AcDbPoint
 10
-230.6821470652189
 20
-30.49998103401381
 30
0.0
  0
ENDBLK
  5
2D0
330
2CE
100
AcDbEntity
  8
0
100
AcDbBlockEnd
  0
BLOCK
  5
2DC
330
2DB
100
AcDbEntity
  8
0
100
AcDbBlockBegin
  2
*D13
 70
     1
 10
0.0
 20
0.0
 30
0.0
  3
*D13
  1

  0
LINE
  5
2DE
330
2DB
100
AcDbEntity
  8
0
  6
ByBlock
 62
     0
370
    -2
100
AcDbLine
 10
-54.68213180643011
 20
-81.60031437446139
 30
0.0
 11
-64.38331356094795
 21
-81.60031437446139
 31
0.0
  0
LINE
  5
2DF
330
2DB
100
AcDbEntity
  8
0
  6
ByBlock
 62
     0
370
    -2
100
AcDbLine
 10
-54.68213180642988
 20
-97.60031342078724
 30
0.0
 11
-64.38331356094795
 21
-97.60031342078724
 31
0.0
  0
LINE
  5
2E0
330
2DB
100
AcDbEntity
  8
0
  6
ByBlock
 62
     0
370
    -2
100
AcDbLine
 10
-62.09731356094795
 20
-97.60031342078724
 30
0.0
 11
-62.09731356094793
 21
-129.2120215838807
 31
0.0
  0
LINE
  5
2E1
330
2DB
100
AcDbEntity
  8
0
  6
ByBlock
 62
     0
370
    -2
100
AcDbLine
 10
-62.09731356094795
 20
-84.7143143744614
 30
0.0
 11
-62.09731356094795
 21
-94.48631342078724
 31
0.0
  0
INSERT
  5
2E2
330
2DB
100
AcDbEntity
  8
0
 62
     0
370
    -2
100
AcDbBlockReference
  2
_Open
 10
-62.09731356094795
 20
-81.60031437446139
 30
0.0
 41
3.114
 42
3.114
 43
3.114
 50
90.00000000000001
  0
INSERT
  5
2E3
330
2DB
100
AcDbEntity
  8
0
 62
     0
370
    -2
100
AcDbBlockReference
  2
_Open
 10
-62.09731356094795
 20
-97.60031342078724
 30
0.0
 41
3.114
 42
3.114
 43
3.114
 50
270.0
  0
MTEXT
  5
2E4
330
2DB
100
AcDbEntity
  8
0
 62
     0
100
AcDbMText
 10
-65.09731356094792
 20
-123.1644025362617
 30
0.0
 40
4.0
 41
0.0
 71
     5
 72
     1
  1
\U+220516
 11
-4.440892363198391E-16
 21
1.0
 31
0.0
 73
     1
 44
1.0
  0
POINT
  5
2E5
330
2DB
100
AcDbEntity
  8
Defpoints
 62
     0
100
AcDbPoint
 10
-54.68213180643011
 20
-81.60031437446139
 30
0.0
  0
POINT
  5
2E6
330
2DB
100
AcDbEntity
  8
Defpoints
 62
     0
100
AcDbPoint
 10
-54.68213180642988
 20
-97.60031342078724
 30
0.0
  0
POINT
  5
2E7
330
2DB
100
AcDbEntity
  8
Defpoints
 62
     0
100
AcDbPoint
 10
-62.09831356094793
 20
-97.60031342078724
 30
0.0
  0
ENDBLK
  5
2DD
330
2DB
100
AcDbEntity
  8
0
100
AcDbBlockEnd
  0
BLOCK
  5
2EA
330
2E9
100
AcDbEntity
  8
0
100
AcDbBlockBegin
  2
*D14
 70
     1
 10
0.0
 20
0.0
 30
0.0
  3
*D14
  1

  0
MTEXT
  5
2F3
330
2E9
100
AcDbEntity
  8
0
 62
     0
100
AcDbMText
 10
-37.68013168722065
 20
-117.7513168245615
 30
0.0
 40
4.0
 41
0.0
 71
     5
 72
     1
  1
8
 73
     1
 44
1.0
  0
POINT
  5
2F4
330
2E9
100
AcDbEntity
  8
Defpoints
 62
     0
100
AcDbPoint
 10
-33.68213156801124
 20
-102.3020203070787
 30
0.0
  0
POINT
  5
2F5
330
2E9
100
AcDbEntity
  8
Defpoints
 62
     0
100
AcDbPoint
 10
-41.68213180643008
 20
-102.3020203070787
 30
0.0
  0
POINT
  5
2F6
330
2E9
100
AcDbEntity
  8
Defpoints
 62
     0
100
AcDbPoint
 10
-41.68213180643008
 20
-120.7523168245615
 30
0.0
  0
LINE
  5
2F7
330
2E9
100
AcDbEntity
  8
0
  6
Continuous
 62
     7
100
AcDbLine
 10
-33.68213156801124
 20
-102.3020203070787
 30
0.0
 11
-33.68213156801124
 21
-123.0383168245615
 31
0.0
  0
LINE
  5
2F8
330
2E9
100
AcDbEntity
  8
0
  6
Continuous
 62
     7
100
AcDbLine
 10
-41.68213180643008
 20
-102.3020203070787
 30
0.0
 11
-41.68213180643008
 21
-123.0383168245615
 31
0.0
  0
LINE
  5
2F9
330
2E9
100
AcDbEntity
  8
0
  6
Continuous
 62
     7
100
AcDbLine
 10
-27.33213156801124
 20
-120.7523168245615
 30
0.0
 11
-48.03213180643008
 21
-120.7523168245615
 31
0.0
  0
LINE
  5
2FA
330
2E9
100
AcDbEntity
  8
0
  6
Continuous
 62
     7
100
AcDbLine
 10
-33.68213156801124
 20
-120.7523168245615
 30
0.0
 11
-30.56813156801124
 21
-120.2033168245615
 31
0.0
  0
LINE
  5
2FB
330
2E9
100
AcDbEntity
  8
0
  6
Continuous
 62
     7
100
AcDbLine
 10
-33.68213156801124
 20
-120.7523168245615
 30
0.0
 11
-30.56813156801124
 21
-121.3013168245616
 31
0.0
  0
LINE
  5
2FC
330
2E9
100
AcDbEntity
  8
0
  6
Continuous
 62
     7
100
AcDbLine
 10
-41.68213180643008
 20
-120.7523168245615
 30
0.0
 11
-44.79613180643008
 21
-121.3013168245616
 31
0.0
  0
LINE
  5
2FD
330
2E9
100
AcDbEntity
  8
0
  6
Continuous
 62
     7
100
AcDbLine
 10
-41.68213180643008
 20
-120.7523168245615
 30
0.0
 11
-44.79613180643008
 21
-120.2033168245615
 31
0.0
  0
ENDBLK
  5
2EB
330
2E9
100
AcDbEntity
  8
0
100
AcDbBlockEnd
  0
BLOCK
  5
305
330
2FE
100
AcDbEntity
  8
0
100
AcDbBlockBegin
  2
SYM0001
 70
     0
 10
0.0
 20
0.0
 30
0.0
  3
SYM0001
  1

  0
LINE
  5
2FF
330
2FE
100
AcDbEntity
  8
0
  6
Continuous
 62
     7
100
AcDbLine
 10
0.0
 20
0.0
 30
0.0
 11
7.970769217518452
 21
11.69448768664441
 31
0.0
  0
LINE
  5
300
330
2FE
100
AcDbEntity
  8
0
  6
Continuous
 62
     7
100
AcDbLine
 10
0.0
 20
0.0
 30
0.0
 11
1.044016311333149
 21
2.984967326874937
 31
0.0
  0
LINE
  5
301
330
2FE
100
AcDbEntity
  8
0
  6
Continuous
 62
     7
100
AcDbLine
 10
0.0
 20
0.0
 30
0.0
 11
2.396628310898141
 21
2.063049379012085
 31
0.0
  0
LINE
  5
302
330
2FE
100
AcDbEntity
  8
0
  6
Continuous
 62
     7
100
AcDbLine
 10
7.970769217518441
 20
11.69448768664439
 30
0.0
 11
13.66168355947743
 21
11.69448768664436
 31
0.0
  0
MTEXT
  5
303
330
2FE
100
AcDbEntity
  8
0
 62
     7
100
AcDbMText
 10
15.94768357282885
 20
9.694487686644365
 30
0.0
 40
4.0
 41
0.0
 71
     7
 72
     1
  1
{\W0.833333;M14×1.5}
 73
     1
 44
1.0
  0
ENDBLK
  5
306
330
2FE
100
AcDbEntity
  8
0
100
AcDbBlockEnd
  0
BLOCK
  5
309
330
308
100
AcDbEntity
  8
0
100
AcDbBlockBegin
  2
*D16
 70
     1
 10
0.0
 20
0.0
 30
0.0
  3
*D16
  1

  0
LINE
  5
30B
330
308
100
AcDbEntity
  8
0
  6
ByBlock
 62
     0
370
    -2
100
AcDbLine
 10
-84.2922206284461
 20
127.8996818108412
 30
0.0
 11
-9.118089055757245
 21
127.8996818108413
 31
0.0
  0
LINE
  5
30C
330
308
100
AcDbEntity
  8
0
  6
ByBlock
 62
     0
370
    -2
100
AcDbLine
 10
-84.2922206284461
 20
42.89968181084123
 30
0.0
 11
-9.118089055757213
 21
42.89968181084126
 31
0.0
  0
LINE
  5
30D
330
308
100
AcDbEntity
  8
0
  6
ByBlock
 62
     0
370
    -2
100
AcDbLine
 10
-11.40408905575724
 20
124.7856818108413
 30
0.0
 11
-11.40408905575722
 21
46.01368181084126
 31
0.0
  0
INSERT
  5
30E
330
308
100
AcDbEntity
  8
0
 62
     0
370
    -2
100
AcDbBlockReference
  2
_Open
 10
-11.40408905575725
 20
127.8996818108413
 30
0.0
 41
3.114
 42
3.114
 43
3.114
 50
90.00000000000001
  0
INSERT
  5
30F
330
308
100
AcDbEntity
  8
0
 62
     0
370
    -2
100
AcDbBlockReference
  2
_Open
 10
-11.40408905575721
 20
42.89968181084126
 30
0.0
 41
3.114
 42
3.114
 43
3.114
 50
270.0
  0
MTEXT
  5
310
330
308
100
AcDbEntity
  8
0
 62
     0
100
AcDbMText
 10
-14.40408905575723
 20
85.40068181084123
 30
0.0
 40
4.0
 41
0.0
 71
     5
 72
     1
  1
85
 11
-3.761696836377000E-16
 21
1.0
 31
0.0
 73
     1
 44
1.0
  0
POINT
  5
311
330
308
100
AcDbEntity
  8
Defpoints
 62
     0
100
AcDbPoint
 10
-84.2922206284461
 20
127.8996818108412
 30
0.0
  0
POINT
  5
312
330
308
100
AcDbEntity
  8
Defpoints
 62
     0
100
AcDbPoint
 10
-84.2922206284461
 20
42.89968181084123
 30
0.0
  0
POINT
  5
313
330
308
100
AcDbEntity
  8
Defpoints
 62
     0
100
AcDbPoint
 10
-11.40508905575723
 20
42.89968181084123
 30
0.0
  0
ENDBLK
  5
30A
330
308
100
AcDbEntity
  8
0
100
AcDbBlockEnd
  0
BLOCK
  5
316
330
315
100
AcDbEntity
  8
0
100
AcDbBlockBegin
  2
*D17
 70
     1
 10
0.0
 20
0.0
 30
0.0
  3
*D17
  1

  0
LINE
  5
318
330
315
100
AcDbEntity
  8
0
  6
ByBlock
 62
     0
370
    -2
100
AcDbLine
 10
-216.682147065219
 20
35.85366852053727
 30
0.0
 11
-216.682147065219
 21
15.17371212412363
 31
0.0
  0
LINE
  5
319
330
315
100
AcDbEntity
  8
0
  6
ByBlock
 62
     0
370
    -2
100
AcDbLine
 10
-91.68213180642982
 20
36.2574025947028
 30
0.0
 11
-91.68213180642982
 21
15.17371212412361
 31
0.0
  0
LINE
  5
31A
330
315
100
AcDbEntity
  8
0
  6
ByBlock
 62
     0
370
    -2
100
AcDbLine
 10
-213.568147065219
 20
17.45971212412363
 30
0.0
 11
-94.79613180642983
 21
17.45971212412362
 31
0.0
  0
INSERT
  5
31B
330
315
100
AcDbEntity
  8
0
 62
     0
370
    -2
100
AcDbBlockReference
  2
_Open
 10
-216.682147065219
 20
17.45971212412363
 30
0.0
 41
3.114
 42
3.114
 43
3.114
 50
180.0
  0
INSERT
  5
31C
330
315
100
AcDbEntity
  8
0
 62
     0
370
    -2
100
AcDbBlockReference
  2
_Open
 10
-91.68213180642982
 20
17.45971212412362
 30
0.0
 41
3.114
 42
3.114
 43
3.114
 50
360.0
  0
MTEXT
  5
31D
330
315
100
AcDbEntity
  8
0
 62
     0
100
AcDbMText
 10
-154.1811394358244
 20
20.94864547412988
 30
0.0
 40
4.0
 41
0.0
 71
     5
 72
     1
  1
75+ストローク
 73
     1
 44
1.0
  0
POINT
  5
31E
330
315
100
AcDbEntity
  8
Defpoints
 62
     0
100
AcDbPoint
 10
-216.682147065219
 20
35.85366852053727
 30
0.0
  0
POINT
  5
31F
330
315
100
AcDbEntity
  8
Defpoints
 62
     0
100
AcDbPoint
 10
-91.68213180642982
 20
36.2574025947028
 30
0.0
  0
POINT
  5
320
330
315
100
AcDbEntity
  8
Defpoints
 62
     0
100
AcDbPoint
 10
-91.68213180642982
 20
17.45871212412362
 30
0.0
  0
ENDBLK
  5
317
330
315
100
AcDbEntity
  8
0
100
AcDbBlockEnd
  0
BLOCK
  5
328
330
321
100
AcDbEntity
  8
0
100
AcDbBlockBegin
  2
SYM0002
 70
     0
 10
0.0
 20
0.0
 30
0.0
  3
SYM0002
  1

  0
LINE
  5
322
330
321
100
AcDbEntity
  8
0
  6
Continuous
 62
     7
100
AcDbLine
 10
0.0
 20
0.0
 30
0.0
 11
21.07867885192985
 21
-24.96062023583348
 31
0.0
  0
LINE
  5
323
330
321
100
AcDbEntity
  8
0
  6
Continuous
 62
     7
100
AcDbLine
 10
0.0
 20
0.0
 30
0.0
 11
2.596082221500424
 21
-1.805645895531576
 31
0.0
  0
LINE
  5
324
330
321
100
AcDbEntity
  8
0
  6
Continuous
 62
     7
100
AcDbLine
 10
0.0
 20
0.0
 30
0.0
 11
1.345450206532021
 21
-2.861776326441948
 31
0.0
  0
LINE
  5
325
330
321
100
AcDbEntity
  8
0
  6
Continuous
 62
     7
100
AcDbLine
 10
21.07867885192984
 20
-24.96062023583348
 30
0.0
 11
28.50781663390088
 21
-24.96062023583343
 31
0.0
  0
MTEXT
  5
326
330
321
100
AcDbEntity
  8
0
 62
     7
100
AcDbMText
 10
30.79381664725234
 20
-26.96062023583334
 30
0.0
 40
4.0
 41
0.0
 71
     7
 72
     1
  1
{\W0.833333;4-\U+220510}
 73
     1
 44
1.0
  0
ENDBLK
  5
329
330
321
100
AcDbEntity
  8
0
100
AcDbBlockEnd
  0
BLOCK
  5
331
330
32A
100
AcDbEntity
  8
0
100
AcDbBlockBegin
  2
SYM0003
 70
     0
 10
0.0
 20
0.0
 30
0.0
  3
SYM0003
  1

  0
LINE
  5
32B
330
32A
100
AcDbEntity
  8
0
  6
Continuous
 62
     7
100
AcDbLine
 10
0.0
 20
0.0
 30
0.0
 11
7.113523499622431
 21
11.07958920890744
 31
0.0
  0
LINE
  5
32C
330
32A
100
AcDbEntity
  8
0
  6
Continuous
 62
     7
100
AcDbLine
 10
0.0
 20
0.0
 30
0.0
 11
0.961543555554101
 21
3.012546097840328
 31
0.0
  0
LINE
  5
32D
330
32A
100
AcDbEntity
  8
0
  6
Continuous
 62
     7
100
AcDbLine
 10
0.0
 20
0.0
 30
0.0
 11
2.338994194752331
 21
2.128169673159448
 31
0.0
  0
LINE
  5
32E
330
32A
100
AcDbEntity
  8
0
  6
Continuous
 62
     7
100
AcDbLine
 10
7.113523499622431
 20
11.07958920890745
 30
0.0
 11
11.81987849193627
 21
11.07958920890744
 31
0.0
  0
MTEXT
  5
32F
330
32A
100
AcDbEntity
  8
0
 62
     7
100
AcDbMText
 10
14.10587850528765
 20
9.07958920890745
 30
0.0
 40
4.0
 41
0.0
 71
     7
 72
     1
  1
{\W0.833333;2-Ｒc1/4}
 73
     1
 44
1.0
  0
ENDBLK
  5
332
330
32A
100
AcDbEntity
  8
0
100
AcDbBlockEnd
  0
BLOCK
  5
335
330
334
100
AcDbEntity
  8
0
100
AcDbBlockBegin
  2
*D20
 70
     1
 10
0.0
 20
0.0
 30
0.0
  3
*D20
  1

  0
LINE
  5
337
330
334
100
AcDbEntity
  8
0
  6
ByBlock
 62
     0
370
    -2
100
AcDbLine
 10
-72.68213180642988
 20
140.3996818108412
 30
0.0
 11
6.161110152254511
 21
140.3996818108413
 31
0.0
  0
LINE
  5
338
330
334
100
AcDbEntity
  8
0
  6
ByBlock
 62
     0
370
    -2
100
AcDbLine
 10
-72.68213180642988
 20
30.39968181084123
 30
0.0
 11
6.161110152254553
 21
30.39968181084126
 31
0.0
  0
LINE
  5
339
330
334
100
AcDbEntity
  8
0
  6
ByBlock
 62
     0
370
    -2
100
AcDbLine
 10
3.875110152254511
 20
137.2856818108413
 30
0.0
 11
3.875110152254551
 21
33.51368181084126
 31
0.0
  0
INSERT
  5
33A
330
334
100
AcDbEntity
  8
0
 62
     0
370
    -2
100
AcDbBlockReference
  2
_Open
 10
3.87511015225451
 20
140.3996818108413
 30
0.0
 41
3.114
 42
3.114
 43
3.114
 50
90.00000000000001
  0
INSERT
  5
33B
330
334
100
AcDbEntity
  8
0
 62
     0
370
    -2
100
AcDbBlockReference
  2
_Open
 10
3.875110152254552
 20
30.39968181084126
 30
0.0
 41
3.114
 42
3.114
 43
3.114
 50
270.0
  0
MTEXT
  5
33C
330
334
100
AcDbEntity
  8
0
 62
     0
100
AcDbMText
 10
0.875110152254531
 20
85.40068181084123
 30
0.0
 40
4.0
 41
0.0
 71
     5
 72
     1
  1
110
 11
-3.835315903250540E-16
 21
1.0
 31
0.0
 73
     1
 44
1.0
  0
POINT
  5
33D
330
334
100
AcDbEntity
  8
Defpoints
 62
     0
100
AcDbPoint
 10
-72.68213180642988
 20
140.3996818108412
 30
0.0
  0
POINT
  5
33E
330
334
100
AcDbEntity
  8
Defpoints
 62
     0
100
AcDbPoint
 10
-72.68213180642988
 20
30.39968181084123
 30
0.0
  0
POINT
  5
33F
330
334
100
AcDbEntity
  8
Defpoints
 62
     0
100
AcDbPoint
 10
3.874110152254531
 20
30.39968181084123
 30
0.0
  0
ENDBLK
  5
336
330
334
100
AcDbEntity
  8
0
100
AcDbBlockEnd
  0
BLOCK
  5
342
330
341
100
AcDbEntity
  8
0
100
AcDbBlockBegin
  2
*D21
 70
     1
 10
0.0
 20
0.0
 30
0.0
  3
*D21
  1

  0
MTEXT
  5
34B
330
341
100
AcDbEntity
  8
0
 62
     0
100
AcDbMText
 10
-246.2434803985524
 20
-47.39418989878709
 30
0.0
 40
4.0
 41
0.0
 71
     5
 72
     1
  1
7
 73
     1
 44
1.0
  0
POINT
  5
34C
330
341
100
AcDbEntity
  8
Defpoints
 62
     0
100
AcDbPoint
 10
-230.6821470652189
 20
-64.60031818915877
 30
0.0
  0
POINT
  5
34D
330
341
100
AcDbEntity
  8
Defpoints
 62
     0
100
AcDbPoint
 10
-237.6821470652191
 20
-68.10031437446162
 30
0.0
  0
POINT
  5
34E
330
341
100
AcDbEntity
  8
Defpoints
 62
     0
100
AcDbPoint
 10
-237.6821470652191
 20
-50.39418989878709
 30
0.0
  0
LINE
  5
34F
330
341
100
AcDbEntity
  8
0
  6
Continuous
 62
     7
100
AcDbLine
 10
-237.6821470652191
 20
-68.10031437446162
 30
0.0
 11
-237.6821470652191
 21
-48.10818989878709
 31
0.0
  0
LINE
  5
350
330
341
100
AcDbEntity
  8
0
  6
Continuous
 62
     7
100
AcDbLine
 10
-224.3321470652189
 20
-50.39418989878709
 30
0.0
 11
-244.032147065219
 21
-50.39418989878709
 31
0.0
  0
LINE
  5
351
330
341
100
AcDbEntity
  8
0
  6
Continuous
 62
     7
100
AcDbLine
 10
-230.6821470652189
 20
-50.39418989878709
 30
0.0
 11
-227.5681470652189
 21
-49.84518989878709
 31
0.0
  0
LINE
  5
352
330
341
100
AcDbEntity
  8
0
  6
Continuous
 62
     7
100
AcDbLine
 10
-230.6821470652189
 20
-50.39418989878709
 30
0.0
 11
-227.5681470652189
 21
-50.94318989878709
 31
0.0
  0
LINE
  5
353
330
341
100
AcDbEntity
  8
0
  6
Continuous
 62
     7
100
AcDbLine
 10
-237.6821470652191
 20
-50.39418989878709
 30
0.0
 11
-240.7961470652191
 21
-50.94318989878709
 31
0.0
  0
LINE
  5
354
330
341
100
AcDbEntity
  8
0
  6
Continuous
 62
     7
100
AcDbLine
 10
-237.6821470652191
 20
-50.39418989878709
 30
0.0
 11
-240.7961470652191
 21
-49.84518989878709
 31
0.0
  0
LINE
  5
355
330
341
100
AcDbEntity
  8
0
  6
Continuous
 62
     7
100
AcDbLine
 10
-237.6821470652191
 20
-50.39418989878709
 30
0.0
 11
-247.0064216579511
 21
-50.39418989878709
 31
0.0
  0
ENDBLK
  5
343
330
341
100
AcDbEntity
  8
0
100
AcDbBlockEnd
  0
BLOCK
  5
358
330
357
100
AcDbEntity
  8
0
100
AcDbBlockBegin
  2
*D22
 70
     1
 10
0.0
 20
0.0
 30
0.0
  3
*D22
  1

  0
MTEXT
  5
361
330
357
100
AcDbEntity
  8
0
 62
     0
100
AcDbMText
 10
-62.12079847309643
 20
-47.39418989878709
 30
0.0
 40
4.0
 41
0.0
 71
     5
 72
     1
  1
7
 73
     1
 44
1.0
  0
POINT
  5
362
330
357
100
AcDbEntity
  8
Defpoints
 62
     0
100
AcDbPoint
 10
-77.68213180642988
 20
-64.6003143744615
 30
0.0
  0
POINT
  5
363
330
357
100
AcDbEntity
  8
Defpoints
 62
     0
100
AcDbPoint
 10
-70.68213180642977
 20
-68.10031437446173
 30
0.0
  0
POINT
  5
364
330
357
100
AcDbEntity
  8
Defpoints
 62
     0
100
AcDbPoint
 10
-70.68213180642977
 20
-50.39418989878709
 30
0.0
  0
LINE
  5
365
330
357
100
AcDbEntity
  8
0
  6
Continuous
 62
     7
100
AcDbLine
 10
-70.68213180642977
 20
-68.10031437446173
 30
0.0
 11
-70.68213180642977
 21
-48.10818989878709
 31
0.0
  0
LINE
  5
366
330
357
100
AcDbEntity
  8
0
  6
Continuous
 62
     7
100
AcDbLine
 10
-84.03213180642987
 20
-50.39418989878709
 30
0.0
 11
-64.33213180642977
 21
-50.39418989878709
 31
0.0
  0
LINE
  5
367
330
357
100
AcDbEntity
  8
0
  6
Continuous
 62
     7
100
AcDbLine
 10
-77.68213180642988
 20
-50.39418989878709
 30
0.0
 11
-80.79613180642988
 21
-50.94318989878709
 31
0.0
  0
LINE
  5
368
330
357
100
AcDbEntity
  8
0
  6
Continuous
 62
     7
100
AcDbLine
 10
-77.68213180642988
 20
-50.39418989878709
 30
0.0
 11
-80.79613180642988
 21
-49.84518989878709
 31
0.0
  0
LINE
  5
369
330
357
100
AcDbEntity
  8
0
  6
Continuous
 62
     7
100
AcDbLine
 10
-70.68213180642977
 20
-50.39418989878709
 30
0.0
 11
-67.56813180642976
 21
-49.84518989878709
 31
0.0
  0
LINE
  5
36A
330
357
100
AcDbEntity
  8
0
  6
Continuous
 62
     7
100
AcDbLine
 10
-70.68213180642977
 20
-50.39418989878709
 30
0.0
 11
-67.56813180642976
 21
-50.94318989878709
 31
0.0
  0
LINE
  5
36B
330
357
100
AcDbEntity
  8
0
  6
Continuous
 62
     7
100
AcDbLine
 10
-70.68213180642977
 20
-50.39418989878709
 30
0.0
 11
-61.31049563918054
 21
-50.39418989878709
 31
0.0
  0
ENDBLK
  5
359
330
357
100
AcDbEntity
  8
0
100
AcDbBlockEnd
  0
BLOCK
  5
36E
330
36D
100
AcDbEntity
  8
0
100
AcDbBlockBegin
  2
*D23
 70
     1
 10
0.0
 20
0.0
 30
0.0
  3
*D23
  1

  0
LINE
  5
370
330
36D
100
AcDbEntity
  8
0
  6
ByBlock
 62
     0
370
    -2
100
AcDbLine
 10
98.10914728984386
 20
-63.2657969852113
 30
0.0
 11
98.10914728984386
 21
-45.40196774280187
 31
0.0
  0
LINE
  5
371
330
36D
100
AcDbEntity
  8
0
  6
ByBlock
 62
     0
370
    -2
100
AcDbLine
 10
135.109147289844
 20
-63.2657969852113
 30
0.0
 11
135.109147289844
 21
-45.40196774280187
 31
0.0
  0
LINE
  5
372
330
36D
100
AcDbEntity
  8
0
  6
ByBlock
 62
     0
370
    -2
100
AcDbLine
 10
101.2231472898439
 20
-47.68796774280185
 30
0.0
 11
131.995147289844
 21
-47.68796774280186
 31
0.0
  0
INSERT
  5
373
330
36D
100
AcDbEntity
  8
0
 62
     0
370
    -2
100
AcDbBlockReference
  2
_Open
 10
98.10914728984386
 20
-47.68796774280185
 30
0.0
 41
3.114
 42
3.114
 43
3.114
 50
180.0
  0
INSERT
  5
374
330
36D
100
AcDbEntity
  8
0
 62
     0
370
    -2
100
AcDbBlockReference
  2
_Open
 10
135.109147289844
 20
-47.68796774280186
 30
0.0
 41
3.114
 42
3.114
 43
3.114
 50
360.0
  0
MTEXT
  5
375
330
36D
100
AcDbEntity
  8
0
 62
     0
100
AcDbMText
 10
116.6101472898439
 20
-44.68796774280186
 30
0.0
 40
4.0
 41
0.0
 71
     5
 72
     1
  1
37
 73
     1
 44
1.0
  0
POINT
  5
376
330
36D
100
AcDbEntity
  8
Defpoints
 62
     0
100
AcDbPoint
 10
98.10914728984386
 20
-63.2657969852113
 30
0.0
  0
POINT
  5
377
330
36D
100
AcDbEntity
  8
Defpoints
 62
     0
100
AcDbPoint
 10
135.109147289844
 20
-63.2657969852113
 30
0.0
  0
POINT
  5
378
330
36D
100
AcDbEntity
  8
Defpoints
 62
     0
100
AcDbPoint
 10
135.109147289844
 20
-47.68796774280186
 30
0.0
  0
ENDBLK
  5
36F
330
36D
100
AcDbEntity
  8
0
100
AcDbBlockEnd
  0
BLOCK
  5
37B
330
37A
100
AcDbEntity
  8
0
100
AcDbBlockBegin
  2
*D24
 70
     1
 10
0.0
 20
0.0
 30
0.0
  3
*D24
  1

  0
LINE
  5
37D
330
37A
100
AcDbEntity
  8
0
  6
ByBlock
 62
     0
370
    -2
100
AcDbLine
 10
91.60914728984392
 20
-69.60031437446139
 30
0.0
 11
91.60914728984392
 21
-36.75121943423459
 31
0.0
  0
LINE
  5
37E
330
37A
100
AcDbEntity
  8
0
  6
ByBlock
 62
     0
370
    -2
100
AcDbLine
 10
141.6091472898439
 20
-69.60031437446139
 30
0.0
 11
141.6091472898439
 21
-36.7512194342346
 31
0.0
  0
LINE
  5
37F
330
37A
100
AcDbEntity
  8
0
  6
ByBlock
 62
     0
370
    -2
100
AcDbLine
 10
94.72314728984392
 20
-39.03721943423459
 30
0.0
 11
138.4951472898439
 21
-39.0372194342346
 31
0.0
  0
INSERT
  5
380
330
37A
100
AcDbEntity
  8
0
 62
     0
370
    -2
100
AcDbBlockReference
  2
_Open
 10
91.60914728984392
 20
-39.03721943423459
 30
0.0
 41
3.114
 42
3.114
 43
3.114
 50
180.0
  0
INSERT
  5
381
330
37A
100
AcDbEntity
  8
0
 62
     0
370
    -2
100
AcDbBlockReference
  2
_Open
 10
141.6091472898439
 20
-39.0372194342346
 30
0.0
 41
3.114
 42
3.114
 43
3.114
 50
360.0
  0
MTEXT
  5
382
330
37A
100
AcDbEntity
  8
0
 62
     0
100
AcDbMText
 10
116.6101472898439
 20
-36.0372194342346
 30
0.0
 40
4.0
 41
0.0
 71
     5
 72
     1
  1
50
 73
     1
 44
1.0
  0
POINT
  5
383
330
37A
100
AcDbEntity
  8
Defpoints
 62
     0
100
AcDbPoint
 10
91.60914728984392
 20
-69.60031437446139
 30
0.0
  0
POINT
  5
384
330
37A
100
AcDbEntity
  8
Defpoints
 62
     0
100
AcDbPoint
 10
141.6091472898439
 20
-69.60031437446139
 30
0.0
  0
POINT
  5
385
330
37A
100
AcDbEntity
  8
Defpoints
 62
     0
100
AcDbPoint
 10
141.6091472898439
 20
-39.0372194342346
 30
0.0
  0
ENDBLK
  5
37C
330
37A
100
AcDbEntity
  8
0
100
AcDbBlockEnd
  0
BLOCK
  5
388
330
387
100
AcDbEntity
  8
0
100
AcDbBlockBegin
  2
*D25
 70
     1
 10
0.0
 20
0.0
 30
0.0
  3
*D25
  1

  0
LINE
  5
38A
330
387
100
AcDbEntity
  8
0
  6
ByBlock
 62
     0
370
    -2
100
AcDbLine
 10
151.6091472898439
 20
-86.60031437446139
 30
0.0
 11
151.6091472898439
 21
-36.7512194342346
 31
0.0
  0
LINE
  5
38B
330
387
100
AcDbEntity
  8
0
  6
ByBlock
 62
     0
370
    -2
100
AcDbLine
 10
144.7231472898439
 20
-39.0372194342346
 30
0.0
 11
148.4951472898439
 21
-39.0372194342346
 31
0.0
  0
INSERT
  5
38C
330
387
100
AcDbEntity
  8
0
 62
     0
370
    -2
100
AcDbBlockReference
  2
_Open
 10
141.6091472898439
 20
-39.0372194342346
 30
0.0
 41
3.114
 42
3.114
 43
3.114
 50
180.0
  0
INSERT
  5
38D
330
387
100
AcDbEntity
  8
0
 62
     0
370
    -2
100
AcDbBlockReference
  2
_Open
 10
151.6091472898439
 20
-39.0372194342346
 30
0.0
 41
3.114
 42
3.114
 43
3.114
  0
MTEXT
  5
38E
330
387
100
AcDbEntity
  8
0
 62
     0
100
AcDbMText
 10
146.6101472898439
 20
-36.0372194342346
 30
0.0
 40
4.0
 41
0.0
 71
     5
 72
     1
  1
10
 73
     1
 44
1.0
  0
POINT
  5
38F
330
387
100
AcDbEntity
  8
Defpoints
 62
     0
100
AcDbPoint
 10
141.6091472898439
 20
-69.60031437446139
 30
0.0
  0
POINT
  5
390
330
387
100
AcDbEntity
  8
Defpoints
 62
     0
100
AcDbPoint
 10
151.6091472898439
 20
-86.60031437446139
 30
0.0
  0
POINT
  5
391
330
387
100
AcDbEntity
  8
Defpoints
 62
     0
100
AcDbPoint
 10
151.6091472898439
 20
-39.0372194342346
 30
0.0
  0
ENDBLK
  5
389
330
387
100
AcDbEntity
  8
0
100
AcDbBlockEnd
  0
BLOCK
  5
394
330
393
100
AcDbEntity
  8
0
100
AcDbBlockBegin
  2
*D26
 70
     1
 10
0.0
 20
0.0
 30
0.0
  3
*D26
  1

  0
LINE
  5
396
330
393
100
AcDbEntity
  8
0
  6
ByBlock
 62
     0
370
    -2
100
AcDbLine
 10
91.75297896350747
 20
-71.1003143744615
 30
0.0
 11
76.93332563855634
 21
-71.1003143744615
 31
0.0
  0
LINE
  5
397
330
393
100
AcDbEntity
  8
0
  6
ByBlock
 62
     0
370
    -2
100
AcDbLine
 10
91.75297896350747
 20
-108.1003134207872
 30
0.0
 11
76.93332563855635
 21
-108.1003134207872
 31
0.0
  0
LINE
  5
398
330
393
100
AcDbEntity
  8
0
  6
ByBlock
 62
     0
370
    -2
100
AcDbLine
 10
79.21932563855634
 20
-74.21431437446151
 30
0.0
 11
79.21932563855636
 21
-104.9863134207872
 31
0.0
  0
INSERT
  5
399
330
393
100
AcDbEntity
  8
0
 62
     0
370
    -2
100
AcDbBlockReference
  2
_Open
 10
79.21932563855634
 20
-71.1003143744615
 30
0.0
 41
3.114
 42
3.114
 43
3.114
 50
90.00000000000001
  0
INSERT
  5
39A
330
393
100
AcDbEntity
  8
0
 62
     0
370
    -2
100
AcDbBlockReference
  2
_Open
 10
79.21932563855636
 20
-108.1003134207872
 30
0.0
 41
3.114
 42
3.114
 43
3.114
 50
270.0
  0
MTEXT
  5
39B
330
393
100
AcDbEntity
  8
0
 62
     0
100
AcDbMText
 10
76.21932563855634
 20
-89.59931389762434
 30
0.0
 40
4.0
 41
0.0
 71
     5
 72
     1
  1
37
 11
-3.840771643645008E-16
 21
1.0
 31
0.0
 73
     1
 44
1.0
  0
POINT
  5
39C
330
393
100
AcDbEntity
  8
Defpoints
 62
     0
100
AcDbPoint
 10
91.75297896350747
 20
-71.1003143744615
 30
0.0
  0
POINT
  5
39D
330
393
100
AcDbEntity
  8
Defpoints
 62
     0
100
AcDbPoint
 10
91.75297896350747
 20
-108.1003134207872
 30
0.0
  0
POINT
  5
39E
330
393
100
AcDbEntity
  8
Defpoints
 62
     0
100
AcDbPoint
 10
79.21732563855633
 20
-108.1003134207872
 30
0.0
  0
ENDBLK
  5
395
330
393
100
AcDbEntity
  8
0
100
AcDbBlockEnd
  0
BLOCK
  5
3A1
330
3A0
100
AcDbEntity
  8
0
100
AcDbBlockBegin
  2
*D27
 70
     1
 10
0.0
 20
0.0
 30
0.0
  3
*D27
  1

  0
LINE
  5
3A3
330
3A0
100
AcDbEntity
  8
0
  6
ByBlock
 62
     0
370
    -2
100
AcDbLine
 10
96.60914728984392
 20
-64.6003143744615
 30
0.0
 11
66.26800646309019
 21
-64.60031437446152
 31
0.0
  0
LINE
  5
3A4
330
3A0
100
AcDbEntity
  8
0
  6
ByBlock
 62
     0
370
    -2
100
AcDbLine
 10
96.60914728984392
 20
-114.6003143744615
 30
0.0
 11
66.2680064630902
 21
-114.6003143744615
 31
0.0
  0
LINE
  5
3A5
330
3A0
100
AcDbEntity
  8
0
  6
ByBlock
 62
     0
370
    -2
100
AcDbLine
 10
68.55400646309019
 20
-67.71431437446152
 30
0.0
 11
68.5540064630902
 21
-111.4863143744615
 31
0.0
  0
INSERT
  5
3A6
330
3A0
100
AcDbEntity
  8
0
 62
     0
370
    -2
100
AcDbBlockReference
  2
_Open
 10
68.55400646309019
 20
-64.60031437446152
 30
0.0
 41
3.114
 42
3.114
 43
3.114
 50
90.00000000000001
  0
INSERT
  5
3A7
330
3A0
100
AcDbEntity
  8
0
 62
     0
370
    -2
100
AcDbBlockReference
  2
_Open
 10
68.5540064630902
 20
-114.6003143744615
 30
0.0
 41
3.114
 42
3.114
 43
3.114
 50
270.0
  0
MTEXT
  5
3A8
330
3A0
100
AcDbEntity
  8
0
 62
     0
100
AcDbMText
 10
65.55400646309019
 20
-89.5993143744615
 30
0.0
 40
4.0
 41
0.0
 71
     5
 72
     1
  1
50
 11
-2.842170943040402E-16
 21
1.0
 31
0.0
 73
     1
 44
1.0
  0
POINT
  5
3A9
330
3A0
100
AcDbEntity
  8
Defpoints
 62
     0
100
AcDbPoint
 10
96.60914728984392
 20
-64.6003143744615
 30
0.0
  0
POINT
  5
3AA
330
3A0
100
AcDbEntity
  8
Defpoints
 62
     0
100
AcDbPoint
 10
96.60914728984392
 20
-114.6003143744615
 30
0.0
  0
POINT
  5
3AB
330
3A0
100
AcDbEntity
  8
Defpoints
 62
     0
100
AcDbPoint
 10
68.55200646309018
 20
-114.6003143744615
 30
0.0
  0
ENDBLK
  5
3A2
330
3A0
100
AcDbEntity
  8
0
100
AcDbBlockEnd
  0
BLOCK
  5
3AE
330
3AD
100
AcDbEntity
  8
0
100
AcDbBlockBegin
  2
*D28
 70
     1
 10
0.0
 20
0.0
 30
0.0
  3
*D28
  1

  0
LINE
  5
3B0
330
3AD
100
AcDbEntity
  8
0
  6
ByBlock
 62
     0
370
    -2
100
AcDbLine
 10
-242.6821470652191
 20
-108.1003134207871
 30
0.0
 11
-242.6821470652191
 21
-19.06903848642735
 31
0.0
  0
LINE
  5
3B1
330
3AD
100
AcDbEntity
  8
0
  6
ByBlock
 62
     0
370
    -2
100
AcDbLine
 10
-26.68213180643008
 20
-83.60031437446162
 30
0.0
 11
-26.68213180643008
 21
-19.06903848642737
 31
0.0
  0
LINE
  5
3B2
330
3AD
100
AcDbEntity
  8
0
  6
ByBlock
 62
     0
370
    -2
100
AcDbLine
 10
-239.5681470652191
 20
-21.35503848642735
 30
0.0
 11
-29.79613180643008
 21
-21.35503848642737
 31
0.0
  0
INSERT
  5
3B3
330
3AD
100
AcDbEntity
  8
0
 62
     0
370
    -2
100
AcDbBlockReference
  2
_Open
 10
-242.6821470652191
 20
-21.35503848642735
 30
0.0
 41
3.114
 42
3.114
 43
3.114
 50
180.0
  0
INSERT
  5
3B4
330
3AD
100
AcDbEntity
  8
0
 62
     0
370
    -2
100
AcDbBlockReference
  2
_Open
 10
-26.68213180643008
 20
-21.35503848642737
 30
0.0
 41
3.114
 42
3.114
 43
3.114
 50
360.0
  0
MTEXT
  5
3B5
330
3AD
100
AcDbEntity
  8
0
 62
     0
100
AcDbMText
 10
-134.6811394358246
 20
-17.86610513642111
 30
0.0
 40
4.0
 41
0.0
 71
     5
 72
     1
  1
166+ストローク
 73
     1
 44
1.0
  0
POINT
  5
3B6
330
3AD
100
AcDbEntity
  8
Defpoints
 62
     0
100
AcDbPoint
 10
-242.6821470652191
 20
-108.1003134207871
 30
0.0
  0
POINT
  5
3B7
330
3AD
100
AcDbEntity
  8
Defpoints
 62
     0
100
AcDbPoint
 10
-26.68213180643008
 20
-83.60031437446162
 30
0.0
  0
POINT
  5
3B8
330
3AD
100
AcDbEntity
  8
Defpoints
 62
     0
100
AcDbPoint
 10
-26.68213180643008
 20
-21.35503848642736
 30
0.0
  0
ENDBLK
  5
3AF
330
3AD
100
AcDbEntity
  8
0
100
AcDbBlockEnd
  0
ENDSEC
  0
SECTION
  2
ENTITIES
  0
LINE
  5
277
330
1F
100
AcDbEntity
  8
0
  6
Continuous
 62
     7
100
AcDbLine
 10
-195.3553838735629
 20
162.6673651010616
 30
0.0
 11
-94.8744269188648
 21
162.6673651010616
 31
0.0
  0
LINE
  5
278
330
1F
100
AcDbEntity
  8
0
  6
Continuous
 62
     7
100
AcDbLine
 10
-278.4658907655743
 20
194.2996563028776
 30
0.0
 11
221.5341092344257
 21
194.2996563028776
 31
0.0
  0
LINE
  5
279
330
1F
100
AcDbEntity
  8
0
  6
Continuous
 62
     7
100
AcDbLine
 10
-278.4658907655743
 20
224.2996563028776
 30
0.0
 11
-278.4658907655743
 21
-155.7003436971224
 31
0.0
  0
LINE
  5
27A
330
1F
100
AcDbEntity
  8
0
  6
Continuous
 62
     7
100
AcDbLine
 10
-278.4658907655743
 20
-155.7003436971224
 30
0.0
 11
221.5341092344257
 21
-155.7003436971224
 31
0.0
  0
LINE
  5
27B
330
1F
100
AcDbEntity
  8
0
  6
Continuous
 62
     7
100
AcDbLine
 10
221.5341092344257
 20
224.2996563028776
 30
0.0
 11
221.5341092344257
 21
-155.7003436971224
 31
0.0
  0
LINE
  5
27C
330
1F
100
AcDbEntity
  8
0
  6
Continuous
 62
     7
100
AcDbLine
 10
-278.4658907655743
 20
224.2996563028776
 30
0.0
 11
221.5341092344257
 21
224.2996563028776
 31
0.0
  0
MTEXT
  5
27D
330
1F
100
AcDbEntity
  8
0
 62
     7
100
AcDbMText
 10
-14.02384491229623
 20
-51.50724940147506
 30
0.0
 40
6.0
 41
0.0
 71
     7
 72
     1
  1
{\W1;*1}
 73
     1
 44
1.0
  0
MTEXT
  5
27E
330
1F
100
AcDbEntity
  8
0
 62
     7
100
AcDbMText
 10
-15.89184507191578
 20
20.91860111124635
 30
0.0
 40
6.0
 41
0.0
 71
     7
 72
     1
  1
{\W1;*2}
 73
     1
 44
1.0
  0
MTEXT
  5
27F
330
1F
100
AcDbEntity
  8
0
 62
     7
100
AcDbMText
 10
71.21280019309503
 20
-51.05590572738595
 30
0.0
 40
6.0
 41
0.0
 71
     7
 72
     1
  1
{\W1;*3}
 73
     1
 44
1.0
  0
MTEXT
  5
280
330
1F
100
AcDbEntity
  8
0
 62
     7
100
AcDbMText
 10
-186.3994982745381
 20
166.6673651010616
 30
0.0
 40
8.0
 41
0.0
 71
     7
 72
     1
  1
{\W0.833333;※作図は50ストローク}
 73
     1
 44
1.0
  0
MTEXT
  5
281
330
1F
100
AcDbEntity
  8
0
 62
     7
100
AcDbMText
 10
214.8003798663193
 20
-154.779043037544
 30
0.0
 40
0.5
 41
0.0
 71
     7
 72
     1
  1
{\W0.833333;ＧＱＡＧ－０００２－Ａ}
 73
     1
 44
1.0
  0
MTEXT
  5
282
330
1F
100
AcDbEntity
  8
0
 62
     7
100
AcDbMText
 10
-248.8944408182172
 20
203.2996563028776
 30
0.0
 40
12.0
 41
0.0
 71
     7
 72
     1
  1
{\W0.833333;ＮＩＨＯＮ　ＳＥＩＫＩ　ＢＮ－６１０２－ＬＡ-40}
 73
     1
 44
1.0
  0
INSERT
  5
283
330
1F
100
AcDbEntity
  8
0
 62
     7
100
AcDbBlockReference
  2
DTL0001
 10
-111.6821308527557
 20
-64.60031818915877
 30
0.0
  0
INSERT
  5
284
330
1F
100
AcDbEntity
  8
0
 62
     7
100
AcDbBlockReference
  2
DTL0002
 10
-111.6821308527557
 20
85.39968181084123
 30
0.0
  0
INSERT
  5
285
330
1F
100
AcDbEntity
  8
0
 62
     7
100
AcDbBlockReference
  2
DTL0003
 10
116.6091472898439
 20
-89.6003143744615
 30
0.0
  0
DIMENSION
  5
286
330
1F
100
AcDbEntity
  8
0
 62
     7
100
AcDbDimension
  2
*D7
 10
-77.68213180642988
 20
-40.14794372913327
 30
0.0
 11
-154.1811394358244
 21
-40.14794372913326
 31
0.0
 70
   160
  1
103+ストローク
 71
     5
 42
153.0000152587891
  3
DIMSTYLE_FULLSCALE
100
AcDbAlignedDimension
 13
-230.6821470652189
 23
-64.60031818915877
 33
0.0
 14
-77.68213180642988
 24
-64.6003143744615
 34
0.0
 50
180.0
100
AcDbRotatedDimension
1001
ACAD
1000
DSTYLE
1002
{
1070
    40
1040
1.0
1070
   278
1070
    46
1070
   147
1040
1.0
1070
    77
1070
     1
1070
    74
1070
     0
1070
    73
1070
     0
1070
    42
1040
0.0
1070
    44
1040
2.286000000000001
1070
    76
1070
     0
1070
    75
1070
     0
1070
   279
1070
     0
1070
   271
1070
     0
1070
   173
1070
     1
1070
    41
1040
3.114
1070
   140
1040
4.0
1070
   344
1005
287
1070
   343
1005
287
1002
}
  0
DIMENSION
  5
29A
330
1F
100
AcDbEntity
  8
0
 62
     7
100
AcDbDimension
  2
*D8
 10
-111.6821308527557
 20
-50.39418989878709
 30
0.0
 11
-94.68013132959283
 21
-50.39418989878709
 31
0.0
 70
   160
 71
     5
 42
33.99999904632585
  3
DIMSTYLE_FULLSCALE
100
AcDbAlignedDimension
 13
-77.68213180642988
 23
-64.6003143744615
 33
0.0
 14
-111.6821308527557
 24
-63.66884064246688
 34
0.0
100
AcDbRotatedDimension
1001
ACAD
1000
DSTYLE
1002
{
1070
    40
1040
1.0
1070
   278
1070
    46
1070
   147
1040
1.0
1070
    77
1070
     1
1070
    74
1070
     0
1070
    73
1070
     0
1070
    42
1040
0.0
1070
    44
1040
2.286000000000001
1070
    76
1070
     0
1070
    75
1070
     0
1070
   279
1070
     0
1070
   271
1070
     0
1070
   144
1040
1.0
1070
   173
1070
     1
1070
    41
1040
3.114
1070
   140
1040
4.0
1070
   344
1005
287
1070
   343
1005
287
1002
}
  0
DIMENSION
  5
2A7
330
1F
100
AcDbEntity
  8
0
 62
     7
100
AcDbDimension
  2
*D9
 10
-219.6821470652191
 20
-50.39418989878709
 30
0.0
 11
-225.1811470652191
 21
-50.39418989878709
 31
0.0
 70
   160
 71
     5
 42
10.99999999999983
  3
DIMSTYLE_FULLSCALE
100
AcDbAlignedDimension
 13
-230.6821470652189
 23
-64.60031818915877
 33
0.0
 14
-219.6821470652191
 24
-63.66884064246688
 34
0.0
 50
180.0
100
AcDbRotatedDimension
1001
ACAD
1000
DSTYLE
1002
{
1070
    40
1040
1.0
1070
   278
1070
    46
1070
   147
1040
1.0
1070
    77
1070
     1
1070
    74
1070
     0
1070
    73
1070
     0
1070
    42
1040
0.0
1070
    44
1040
2.286000000000001
1070
    76
1070
     0
1070
    75
1070
     0
1070
   279
1070
     0
1070
   271
1070
     0
1070
   144
1040
1.0
1070
   173
1070
     1
1070
    41
1040
3.114
1070
   140
1040
4.0
1070
   344
1005
287
1070
   343
1005
287
1002
}
  0
DIMENSION
  5
2B4
330
1F
100
AcDbEntity
  8
0
 62
     7
100
AcDbDimension
  2
*D10
 10
-26.68213180643008
 20
-50.39418989878709
 30
0.0
 11
-39.18113180643008
 21
-50.39418989878709
 31
0.0
 70
   160
 71
     5
 42
25.0
  3
DIMSTYLE_FULLSCALE
100
AcDbAlignedDimension
 13
-51.68213180643011
 23
-82.40416264106295
 33
0.0
 14
-26.68213180643008
 24
-83.60031437446162
 34
0.0
 50
180.0
100
AcDbRotatedDimension
1001
ACAD
1000
DSTYLE
1002
{
1070
    40
1040
1.0
1070
   278
1070
    46
1070
   147
1040
1.0
1070
    77
1070
     1
1070
    74
1070
     0
1070
    73
1070
     0
1070
    42
1040
0.0
1070
    44
1040
2.286000000000001
1070
    76
1070
     0
1070
    75
1070
     0
1070
   279
1070
     0
1070
   271
1070
     0
1070
   144
1040
0.999999999999999
1070
   173
1070
     1
1070
    41
1040
3.114
1070
   140
1040
4.0
1070
   344
1005
287
1070
   343
1005
287
1002
}
  0
DIMENSION
  5
2C1
330
1F
100
AcDbEntity
  8
0
 62
     7
100
AcDbDimension
  2
*D11
 10
-26.68213180643008
 20
-40.14794372913326
 30
0.0
 11
-52.18113180643
 21
-40.14794372913326
 31
0.0
 70
   160
 71
     5
 42
50.9999999999998
  3
DIMSTYLE_FULLSCALE
100
AcDbAlignedDimension
 13
-77.68213180642988
 23
-64.6003143744615
 33
0.0
 14
-26.68213180643008
 24
-83.60031437446162
 34
0.0
 50
180.0
100
AcDbRotatedDimension
1001
ACAD
1000
DSTYLE
1002
{
1070
    40
1040
1.0
1070
   278
1070
    46
1070
   147
1040
1.0
1070
    77
1070
     1
1070
    74
1070
     0
1070
    73
1070
     0
1070
    42
1040
0.0
1070
    44
1040
2.286000000000001
1070
    76
1070
     0
1070
    75
1070
     1
1070
   279
1070
     0
1070
   271
1070
     0
1070
   144
1040
1.0
1070
   173
1070
     1
1070
    41
1040
3.114
1070
   140
1040
4.0
1070
   344
1005
287
1070
   343
1005
287
1002
}
  0
DIMENSION
  5
2CD
330
1F
100
AcDbEntity
  8
0
 62
     7
100
AcDbDimension
  2
*D12
 10
-230.6821470652189
 20
-30.49998103401381
 30
0.0
 11
-128.6801394358245
 21
-30.49998103401381
 31
0.0
 70
   160
  1
154+ストローク
 71
     5
 42
204.0000152587889
  3
DIMSTYLE_FULLSCALE
100
AcDbAlignedDimension
 13
-26.68213180643008
 23
-83.60031437446162
 33
0.0
 14
-230.6821470652189
 24
-64.60031818915877
 34
0.0
100
AcDbRotatedDimension
1001
ACAD
1000
DSTYLE
1002
{
1070
    40
1040
1.0
1070
   278
1070
    46
1070
   147
1040
1.0
1070
    77
1070
     1
1070
    74
1070
     0
1070
    73
1070
     0
1070
    42
1040
0.0
1070
    44
1040
2.286000000000001
1070
    76
1070
     0
1070
    75
1070
     0
1070
   279
1070
     0
1070
   271
1070
     0
1070
   173
1070
     1
1070
    41
1040
3.114
1070
   140
1040
4.0
1070
   344
1005
287
1070
   343
1005
287
1002
}
  0
DIMENSION
  5
2DA
330
1F
100
AcDbEntity
  8
0
 62
     7
100
AcDbDimension
  2
*D13
 10
-62.09731356094795
 20
-97.60031342078724
 30
0.0
 11
-62.09731356094793
 21
-123.1644025362617
 31
0.0
 70
   160
  1
\U+2205<>
 71
     5
 42
15.99999904632584
  3
DIMSTYLE_FULLSCALE
100
AcDbAlignedDimension
 13
-54.68213180643011
 23
-81.60031437446139
 33
0.0
 14
-54.68213180642988
 24
-97.60031342078724
 34
0.0
 50
90.00000000000001
100
AcDbRotatedDimension
1001
ACAD
1000
DSTYLE
1002
{
1070
    40
1040
1.0
1070
   278
1070
    46
1070
   147
1040
1.0
1070
    77
1070
     1
1070
    74
1070
     0
1070
    73
1070
     0
1070
    42
1040
0.0
1070
    44
1040
2.286000000000001
1070
    76
1070
     0
1070
    75
1070
     0
1070
   279
1070
     0
1070
   271
1070
     0
1070
   144
1040
0.999999999999999
1070
   173
1070
     1
1070
    41
1040
3.114
1070
   140
1040
4.0
1070
   344
1005
287
1070
   343
1005
287
1002
}
  0
DIMENSION
  5
2E8
330
1F
100
AcDbEntity
  8
0
 62
     7
100
AcDbDimension
  2
*D14
 10
-41.68213180643008
 20
-120.7513168245615
 30
0.0
 11
-37.68013168722065
 21
-120.7513168245615
 31
0.0
 70
   160
 71
     5
 42
8.000000238418835
  3
DIMSTYLE_FULLSCALE
100
AcDbAlignedDimension
 13
-33.68213156801124
 23
-102.3020203070787
 33
0.0
 14
-41.68213180643008
 24
-102.3020203070787
 34
0.0
100
AcDbRotatedDimension
1001
ACAD
1000
DSTYLE
1002
{
1070
    40
1040
1.0
1070
   278
1070
    46
1070
   147
1040
1.0
1070
    77
1070
     1
1070
    74
1070
     0
1070
    73
1070
     0
1070
    42
1040
0.0
1070
    44
1040
2.286000000000001
1070
    76
1070
     0
1070
    75
1070
     0
1070
   279
1070
     0
1070
   271
1070
     0
1070
   144
1040
1.0
1070
   173
1070
     1
1070
    41
1040
3.114
1070
   140
1040
4.0
1070
   344
1005
287
1070
   343
1005
287
1002
}
  0
INSERT
  5
304
330
1F
100
AcDbEntity
  8
0
 62
     7
100
AcDbBlockReference
  2
SYM0001
 10
-30.68213168722075
 20
-82.60031437446153
 30
0.0
  0
DIMENSION
  5
307
330
1F
100
AcDbEntity
  8
0
 62
     7
100
AcDbDimension
  2
*D16
 10
-11.40408905575721
 20
42.89968181084126
 30
0.0
 11
-11.40408905575723
 21
85.40068181084123
 31
0.0
 70
   160
 71
     5
 42
85.0
  3
DIMSTYLE_FULLSCALE
100
AcDbAlignedDimension
 13
-84.2922206284461
 23
127.8996818108412
 33
0.0
 14
-84.2922206284461
 24
42.89968181084123
 34
0.0
 50
90.00000000000001
100
AcDbRotatedDimension
1001
ACAD
1000
DSTYLE
1002
{
1070
    40
1040
1.0
1070
   278
1070
    46
1070
   147
1040
1.0
1070
    77
1070
     1
1070
    74
1070
     0
1070
    73
1070
     0
1070
    42
1040
0.0
1070
    44
1040
2.286000000000001
1070
    76
1070
     0
1070
    75
1070
     0
1070
   279
1070
     0
1070
   271
1070
     0
1070
   144
1040
1.0
1070
   173
1070
     1
1070
    41
1040
3.114
1070
   140
1040
4.0
1070
   344
1005
287
1070
   343
1005
287
1002
}
  0
DIMENSION
  5
314
330
1F
100
AcDbEntity
  8
0
 62
     7
100
AcDbDimension
  2
*D17
 10
-91.68213180642982
 20
17.45971212412362
 30
0.0
 11
-154.1811394358244
 21
17.45971212412362
 31
0.0
 70
   160
  1
75+ストローク
 71
     5
 42
125.0000152587892
  3
DIMSTYLE_FULLSCALE
100
AcDbAlignedDimension
 13
-216.682147065219
 23
35.85366852053727
 33
0.0
 14
-91.68213180642982
 24
36.2574025947028
 34
0.0
 50
180.0
100
AcDbRotatedDimension
1001
ACAD
1000
DSTYLE
1002
{
1070
    40
1040
1.0
1070
   278
1070
    46
1070
   147
1040
1.0
1070
    77
1070
     1
1070
    74
1070
     0
1070
    73
1070
     0
1070
    42
1040
0.0
1070
    44
1040
2.286000000000001
1070
    76
1070
     0
1070
    75
1070
     0
1070
   279
1070
     0
1070
   271
1070
     0
1070
   173
1070
     1
1070
    41
1040
3.114
1070
   140
1040
4.0
1070
   344
1005
287
1070
   343
1005
287
1002
}
  0
INSERT
  5
327
330
1F
100
AcDbEntity
  8
0
 62
     7
100
AcDbBlockReference
  2
SYM0002
 10
-88.45615430273736
 20
39.07959422733325
 30
0.0
  0
INSERT
  5
330
330
1F
100
AcDbEntity
  8
0
 62
     7
100
AcDbBlockReference
  2
SYM0003
 10
-219.6821470652191
 20
-64.60031818915881
 30
0.0
  0
DIMENSION
  5
333
330
1F
100
AcDbEntity
  8
0
 62
     7
100
AcDbDimension
  2
*D20
 10
3.875110152254552
 20
30.39968181084126
 30
0.0
 11
3.875110152254531
 21
85.40068181084123
 31
0.0
 70
   160
 71
     5
 42
110.0
  3
DIMSTYLE_FULLSCALE
100
AcDbAlignedDimension
 13
-72.68213180642988
 23
140.3996818108412
 33
0.0
 14
-72.68213180642988
 24
30.39968181084123
 34
0.0
 50
90.00000000000001
100
AcDbRotatedDimension
1001
ACAD
1000
DSTYLE
1002
{
1070
    40
1040
1.0
1070
   278
1070
    46
1070
   147
1040
1.0
1070
    77
1070
     1
1070
    74
1070
     0
1070
    73
1070
     0
1070
    42
1040
0.0
1070
    44
1040
2.286000000000001
1070
    76
1070
     0
1070
    75
1070
     0
1070
   279
1070
     0
1070
   271
1070
     0
1070
   144
1040
1.0
1070
   173
1070
     1
1070
    41
1040
3.114
1070
   140
1040
4.0
1070
   344
1005
287
1070
   343
1005
287
1002
}
  0
DIMENSION
  5
340
330
1F
100
AcDbEntity
  8
0
 62
     7
100
AcDbDimension
  2
*D21
 10
-237.6821470652191
 20
-50.39418989878709
 30
0.0
 11
-246.2434803985524
 21
-50.39418989878709
 31
0.0
 70
   160
 71
     5
 42
7.000000000000114
  3
DIMSTYLE_FULLSCALE
100
AcDbAlignedDimension
 13
-230.6821470652189
 23
-64.60031818915877
 33
0.0
 14
-237.6821470652191
 24
-68.10031437446162
 34
0.0
100
AcDbRotatedDimension
1001
ACAD
1000
DSTYLE
1002
{
1070
    40
1040
1.0
1070
   278
1070
    46
1070
   147
1040
1.0
1070
    77
1070
     1
1070
    74
1070
     0
1070
    73
1070
     0
1070
    42
1040
0.0
1070
    44
1040
2.286000000000001
1070
    76
1070
     0
1070
    75
1070
     1
1070
   279
1070
     0
1070
   271
1070
     0
1070
   144
1040
1.0
1070
   173
1070
     1
1070
    41
1040
3.114
1070
   140
1040
4.0
1070
   344
1005
287
1070
   343
1005
287
1002
}
  0
DIMENSION
  5
356
330
1F
100
AcDbEntity
  8
0
 62
     7
100
AcDbDimension
  2
*D22
 10
-70.68213180642977
 20
-50.39418989878709
 30
0.0
 11
-62.12079847309643
 21
-50.39418989878709
 31
0.0
 70
   160
 71
     5
 42
7.000000000000114
  3
DIMSTYLE_FULLSCALE
100
AcDbAlignedDimension
 13
-77.68213180642988
 23
-64.6003143744615
 33
0.0
 14
-70.68213180642977
 24
-68.10031437446173
 34
0.0
 50
180.0
100
AcDbRotatedDimension
1001
ACAD
1000
DSTYLE
1002
{
1070
    40
1040
1.0
1070
   278
1070
    46
1070
   147
1040
1.0
1070
    77
1070
     1
1070
    74
1070
     0
1070
    73
1070
     0
1070
    42
1040
0.0
1070
    44
1040
2.286000000000001
1070
    76
1070
     0
1070
    75
1070
     1
1070
   279
1070
     0
1070
   271
1070
     0
1070
   144
1040
1.0
1070
   173
1070
     1
1070
    41
1040
3.114
1070
   140
1040
4.0
1070
   344
1005
287
1070
   343
1005
287
1002
}
  0
DIMENSION
  5
36C
330
1F
100
AcDbEntity
  8
0
 62
     7
100
AcDbDimension
  2
*D23
 10
135.109147289844
 20
-47.68796774280186
 30
0.0
 11
116.6101472898439
 21
-47.68796774280186
 31
0.0
 70
   160
 71
     5
 42
37.00000000000011
  3
DIMSTYLE_FULLSCALE
100
AcDbAlignedDimension
 13
98.10914728984386
 23
-63.2657969852113
 33
0.0
 14
135.109147289844
 24
-63.2657969852113
 34
0.0
 50
180.0
100
AcDbRotatedDimension
1001
ACAD
1000
DSTYLE
1002
{
1070
    40
1040
1.0
1070
   278
1070
    46
1070
   147
1040
1.0
1070
    77
1070
     1
1070
    74
1070
     0
1070
    73
1070
     0
1070
    42
1040
0.0
1070
    44
1040
2.285999999999987
1070
    76
1070
     0
1070
    75
1070
     0
1070
   279
1070
     0
1070
   271
1070
     0
1070
   144
1040
1.0
1070
   173
1070
     1
1070
    41
1040
3.114
1070
   140
1040
4.0
1070
   344
1005
287
1070
   343
1005
287
1002
}
  0
DIMENSION
  5
379
330
1F
100
AcDbEntity
  8
0
 62
     7
100
AcDbDimension
  2
*D24
 10
141.6091472898439
 20
-39.0372194342346
 30
0.0
 11
116.6101472898439
 21
-39.0372194342346
 31
0.0
 70
   160
 71
     5
 42
50.0
  3
DIMSTYLE_FULLSCALE
100
AcDbAlignedDimension
 13
91.60914728984392
 23
-69.60031437446139
 33
0.0
 14
141.6091472898439
 24
-69.60031437446139
 34
0.0
 50
180.0
100
AcDbRotatedDimension
1001
ACAD
1000
DSTYLE
1002
{
1070
    40
1040
1.0
1070
   278
1070
    46
1070
   147
1040
1.0
1070
    77
1070
     1
1070
    74
1070
     0
1070
    73
1070
     0
1070
    42
1040
0.0
1070
    44
1040
2.286000000000001
1070
    76
1070
     0
1070
    75
1070
     0
1070
   279
1070
     0
1070
   271
1070
     0
1070
   144
1040
1.0
1070
   173
1070
     1
1070
    41
1040
3.114
1070
   140
1040
4.0
1070
   344
1005
287
1070
   343
1005
287
1002
}
  0
DIMENSION
  5
386
330
1F
100
AcDbEntity
  8
0
 62
     7
100
AcDbDimension
  2
*D25
 10
151.6091472898439
 20
-39.0372194342346
 30
0.0
 11
146.6101472898439
 21
-39.0372194342346
 31
0.0
 70
   160
 71
     5
 42
10.0
  3
DIMSTYLE_FULLSCALE
100
AcDbAlignedDimension
 13
141.6091472898439
 23
-69.60031437446139
 33
0.0
 14
151.6091472898439
 24
-86.60031437446139
 34
0.0
 50
180.0
100
AcDbRotatedDimension
1001
ACAD
1000
DSTYLE
1002
{
1070
    40
1040
1.0
1070
   278
1070
    46
1070
   147
1040
1.0
1070
    77
1070
     1
1070
    74
1070
     0
1070
    73
1070
     0
1070
    42
1040
0.0
1070
    44
1040
2.286000000000001
1070
    76
1070
     0
1070
    75
1070
     1
1070
   279
1070
     0
1070
   271
1070
     0
1070
   144
1040
1.0
1070
   173
1070
     1
1070
    41
1040
3.114
1070
   140
1040
4.0
1070
   344
1005
287
1070
   343
1005
287
1002
}
  0
DIMENSION
  5
392
330
1F
100
AcDbEntity
  8
0
 62
     7
100
AcDbDimension
  2
*D26
 10
79.21932563855636
 20
-108.1003134207872
 30
0.0
 11
79.21932563855634
 21
-89.59931389762434
 31
0.0
 70
   160
 71
     5
 42
36.99999904632568
  3
DIMSTYLE_FULLSCALE
100
AcDbAlignedDimension
 13
91.75297896350747
 23
-71.1003143744615
 33
0.0
 14
91.75297896350747
 24
-108.1003134207872
 34
0.0
 50
90.00000000000001
100
AcDbRotatedDimension
1001
ACAD
1000
DSTYLE
1002
{
1070
    40
1040
1.0
1070
   278
1070
    46
1070
   147
1040
1.0
1070
    77
1070
     1
1070
    74
1070
     0
1070
    73
1070
     0
1070
    42
1040
0.0
1070
    44
1040
2.286000000000001
1070
    76
1070
     0
1070
    75
1070
     0
1070
   279
1070
     0
1070
   271
1070
     0
1070
   144
1040
1.0
1070
   173
1070
     1
1070
    41
1040
3.114
1070
   140
1040
4.0
1070
   344
1005
287
1070
   343
1005
287
1002
}
  0
DIMENSION
  5
39F
330
1F
100
AcDbEntity
  8
0
 62
     7
100
AcDbDimension
  2
*D27
 10
68.5540064630902
 20
-114.6003143744615
 30
0.0
 11
68.55400646309019
 21
-89.5993143744615
 31
0.0
 70
   160
 71
     5
 42
50.0
  3
DIMSTYLE_FULLSCALE
100
AcDbAlignedDimension
 13
96.60914728984392
 23
-64.6003143744615
 33
0.0
 14
96.60914728984392
 24
-114.6003143744615
 34
0.0
 50
90.00000000000001
100
AcDbRotatedDimension
1001
ACAD
1000
DSTYLE
1002
{
1070
    40
1040
1.0
1070
   278
1070
    46
1070
   147
1040
1.0
1070
    77
1070
     1
1070
    74
1070
     0
1070
    73
1070
     0
1070
    42
1040
0.0
1070
    44
1040
2.286000000000001
1070
    76
1070
     0
1070
    75
1070
     0
1070
   279
1070
     0
1070
   271
1070
     0
1070
   144
1040
1.0
1070
   173
1070
     1
1070
    41
1040
3.114
1070
   140
1040
4.0
1070
   344
1005
287
1070
   343
1005
287
1002
}
  0
DIMENSION
  5
3AC
330
1F
100
AcDbEntity
  8
0
 62
     7
100
AcDbDimension
  2
*D28
 10
-26.68213180643008
 20
-21.35503848642737
 30
0.0
 11
-134.6811394358246
 21
-21.35503848642736
 31
0.0
 70
   160
  1
166+ストローク
 71
     5
 42
216.000015258789
  3
DIMSTYLE_FULLSCALE
100
AcDbAlignedDimension
 13
-242.6821470652191
 23
-108.1003134207871
 33
0.0
 14
-26.68213180643008
 24
-83.60031437446162
 34
0.0
 50
180.0
100
AcDbRotatedDimension
1001
ACAD
1000
DSTYLE
1002
{
1070
    40
1040
1.0
1070
   278
1070
    46
1070
   147
1040
1.0
1070
    77
1070
     1
1070
    74
1070
     0
1070
    73
1070
     0
1070
    42
1040
0.0
1070
    44
1040
2.286000000000001
1070
    76
1070
     0
1070
    75
1070
     0
1070
   279
1070
     0
1070
   271
1070
     0
1070
   173
1070
     1
1070
    41
1040
3.114
1070
   140
1040
4.0
1070
   344
1005
287
1070
   343
1005
287
1002
}
  0
ENDSEC
  0
SECTION
  2
OBJECTS
  0
DICTIONARY
  5
C
330
0
100
AcDbDictionary
281
     1
  3
ACAD_GROUP
350
D
  3
ACAD_LAYOUT
350
1A
  3
ACAD_MATERIAL
350
43
  3
ACAD_MLEADERSTYLE
350
6B
  3
ACAD_MLINESTYLE
350
17
  3
ACAD_PLOTSETTINGS
350
19
  3
ACAD_PLOTSTYLENAME
350
E
  3
ACAD_SCALELIST
350
47
  3
ACAD_TABLESTYLE
350
69
  3
ACAD_VISUALSTYLE
350
2A
  3
AcDbVariableDictionary
350
3B9
  3
DWGPROPS
350
3C4
  0
DICTIONARY
  5
3C5
330
8
100
AcDbDictionary
280
     1
281
     1
  3
ACAD_XREC_ROUNDTRIP
360
3C6
  0
DICTIONARY
  5
D
102
{ACAD_REACTORS
330
C
102
}
330
C
100
AcDbDictionary
281
     1
  0
DICTIONARY
  5
1A
102
{ACAD_REACTORS
330
C
102
}
330
C
100
AcDbDictionary
281
     1
  3
Layout1
350
1E
  3
Layout2
350
26
  3
Model
350
22
  0
DICTIONARY
  5
43
102
{ACAD_REACTORS
330
C
102
}
330
C
100
AcDbDictionary
281
     1
  3
ByBlock
350
45
  3
ByLayer
350
44
  3
Global
350
46
  0
DICTIONARY
  5
6B
102
{ACAD_REACTORS
330
C
102
}
330
C
100
AcDbDictionary
281
     1
  3
Standard
350
6C
  0
DICTIONARY
  5
17
102
{ACAD_REACTORS
330
C
102
}
330
C
100
AcDbDictionary
281
     1
  3
Standard
350
18
  0
DICTIONARY
  5
19
102
{ACAD_REACTORS
330
C
102
}
330
C
100
AcDbDictionary
281
     1
  0
ACDBDICTIONARYWDFLT
  5
E
102
{ACAD_REACTORS
330
C
102
}
330
C
100
AcDbDictionary
281
     1
  3
Normal
350
F
100
AcDbDictionaryWithDefault
340
F
  0
DICTIONARY
  5
47
102
{ACAD_REACTORS
330
C
102
}
330
C
100
AcDbDictionary
281
     1
  3
A0
350
48
  3
A1
350
49
  3
A2
350
4A
  3
A3
350
4B
  3
A4
350
4C
  3
A5
350
4D
  3
A6
350
4E
  3
A7
350
4F
  3
A8
350
50
  3
A9
350
51
  3
B0
350
52
  3
B1
350
53
  3
B2
350
54
  3
B3
350
55
  3
B4
350
56
  3
B5
350
57
  3
B6
350
58
  3
B7
350
59
  3
B8
350
5A
  3
B9
350
5B
  3
C0
350
5C
  3
C1
350
5D
  3
C2
350
5E
  3
C3
350
5F
  3
C4
350
60
  3
C5
350
61
  3
C6
350
62
  3
C7
350
63
  3
C8
350
64
  3
C9
350
65
  3
D0
350
66
  3
D1
350
67
  3
D2
350
68
  0
DICTIONARY
  5
69
102
{ACAD_REACTORS
330
C
102
}
330
C
100
AcDbDictionary
281
     1
  3
Standard
350
6A
  0
DICTIONARY
  5
2A
102
{ACAD_REACTORS
330
C
102
}
330
C
100
AcDbDictionary
281
     1
  3
2dWireframe
350
2F
  3
Basic
350
32
  3
Brighten
350
36
  3
ColorChange
350
3A
  3
Conceptual
350
34
  3
Dim
350
35
  3
EdgeColorOff
350
3D
  3
Facepattern
350
39
  3
Flat
350
2B
  3
FlatWithEdges
350
2C
  3
Gouraud
350
2D
  3
GouraudWithEdges
350
2E
  3
Hidden
350
31
  3
JitterOff
350
3B
  3
Linepattern
350
38
  3
OverhangOff
350
3C
  3
Realistic
350
33
  3
Shaded
350
42
  3
Shaded with edges
350
41
  3
Shades of Gray
350
3E
  3
Sketchy
350
3F
  3
Thicken
350
37
  3
Wireframe
350
30
  3
X-Ray
350
40
  0
DICTIONARY
  5
3B9
102
{ACAD_REACTORS
330
C
102
}
330
C
100
AcDbDictionary
281
     1
  3
CANNOSCALE
350
3CB
  3
CENTEREXE
350
3C0
  3
CENTERLTYPEFILE
350
3C1
  3
CMLEADERSTYLE
350
3BB
  3
CTABLESTYLE
350
3BA
  3
DIMASSOC
350
3C2
  3
HIDETEXT
350
3C3
  3
MSLTSCALE
350
3CC
  3
PSOLHEIGHT
350
3BD
  3
PSOLWIDTH
350
3BC
  0
XRECORD
  5
3C4
102
{ACAD_REACTORS
330
C
102
}
330
C
100
AcDbXrecord
280
     1
  1
DWGPROPS COOKIE
  2

  3

  4

  6

  7

  8
CADAM
  9

300
=
301
=
302
=
303
=
304
=
305
=
306
=
307
=
308
=
309
=
 40
0.0
 41
2459037.005763032
 42
2459037.005763576
  1

 90
        0
  0
XRECORD
  5
3C6
102
{ACAD_REACTORS
330
3C5
102
}
330
3C5
100
AcDbXrecord
280
     1
102
VTR_0.000_0.000_1.000_1.000_VISUALSTYLE
340
2F
102
VTR_0.000_0.000_1.000_1.000_GRIDDISPLAY
 70
     3
102
VTR_0.000_0.000_1.000_1.000_GRIDMAJOR
 70
     5
102
VTR_0.000_0.000_1.000_1.000_DEFAULTLIGHTING
280
     1
102
VTR_0.000_0.000_1.000_1.000_DEFAULTLIGHTINGTYPE
 70
     1
102
VTR_0.000_0.000_1.000_1.000_BRIGHTNESS
141
0.0
102
VTR_0.000_0.000_1.000_1.000_CONTRAST
142
0.0
  0
LAYOUT
  5
1E
102
{ACAD_REACTORS
330
1A
102
}
330
1A
100
AcDbPlotSettings
  1

  2
none_device
  4

  6

 40
0.0
 41
0.0
 42
0.0
 43
0.0
 44
0.0
 45
0.0
 46
0.0
 47
0.0
 48
0.0
 49
0.0
140
0.0
141
0.0
142
1.0
143
1.0
 70
   688
 72
     1
 73
     0
 74
     5
  7

 75
    16
147
1.0
148
0.0
149
0.0
100
AcDbLayout
  1
Layout1
 70
     1
 71
     1
 10
-481.4658907655743
 20
-11.70034369712238
 11
18.53410923442567
 21
368.2996563028776
 12
0.0
 22
0.0
 32
0.0
 14
1.000000000000000E+20
 24
1.000000000000000E+20
 34
1.000000000000000E+20
 15
-1.000000000000000E+20
 25
-1.000000000000000E+20
 35
-1.000000000000000E+20
146
0.0
 13
0.0
 23
0.0
 33
0.0
 16
1.0
 26
0.0
 36
0.0
 17
0.0
 27
1.0
 37
0.0
 76
     0
330
1B
  0
LAYOUT
  5
26
102
{ACAD_REACTORS
330
1A
102
}
330
1A
100
AcDbPlotSettings
  1

  2
none_device
  4

  6

 40
0.0
 41
0.0
 42
0.0
 43
0.0
 44
0.0
 45
0.0
 46
0.0
 47
0.0
 48
0.0
 49
0.0
140
0.0
141
0.0
142
1.0
143
1.0
 70
   688
 72
     1
 73
     0
 74
     5
  7

 75
    16
147
1.0
148
0.0
149
0.0
100
AcDbLayout
  1
Layout2
 70
     1
 71
     2
 10
0.0
 20
0.0
 11
0.0
 21
0.0
 12
0.0
 22
0.0
 32
0.0
 14
0.0
 24
0.0
 34
0.0
 15
0.0
 25
0.0
 35
0.0
146
0.0
 13
0.0
 23
0.0
 33
0.0
 16
1.0
 26
0.0
 36
0.0
 17
0.0
 27
1.0
 37
0.0
 76
     0
330
23
  0
LAYOUT
  5
22
102
{ACAD_REACTORS
330
1A
102
}
330
1A
100
AcDbPlotSettings
  1

  2
none_device
  4
Letter_(8.50_x_11.00_Inches)
  6

 40
6.35
 41
6.35
 42
6.35000508
 43
6.35000508
 44
215.9
 45
279.4
 46
0.0
 47
0.0
 48
0.0
 49
0.0
140
0.0
141
0.0
142
1.0
143
1.0
 70
  1712
 72
     1
 73
     0
 74
     0
  7

 75
     0
147
1.0
148
0.0
149
0.0
100
AcDbLayout
  1
Model
 70
     1
 71
     0
 10
-481.4658907655743
 20
-11.70034369712238
 11
18.53410923442567
 21
368.2996563028776
 12
0.0
 22
0.0
 32
0.0
 14
-481.4658907655743
 24
-11.70034369712238
 34
0.0
 15
18.53410923442567
 25
368.2996563028776
 35
0.0
146
0.0
 13
0.0
 23
0.0
 33
0.0
 16
1.0
 26
0.0
 36
0.0
 17
0.0
 27
1.0
 37
0.0
 76
     0
330
1F
331
29
  0
MATERIAL
  5
45
102
{ACAD_REACTORS
330
43
102
}
102
{ACAD_XDICTIONARY
360
3FF
102
}
330
43
100
AcDbMaterial
  1
ByBlock
  0
MATERIAL
  5
44
102
{ACAD_REACTORS
330
43
102
}
102
{ACAD_XDICTIONARY
360
3FD
102
}
330
43
100
AcDbMaterial
  1
ByLayer
  0
MATERIAL
  5
46
102
{ACAD_REACTORS
330
43
102
}
102
{ACAD_XDICTIONARY
360
401
102
}
330
43
100
AcDbMaterial
  1
Global
  0
MLEADERSTYLE
  5
6C
102
{ACAD_REACTORS
330
6B
102
}
102
{ACAD_XDICTIONARY
360
404
102
}
330
6B
100
AcDbMLeaderStyle
170
     2
171
     1
172
     0
 90
        2
 40
0.0
 41
0.0
173
     1
 91
-1056964608
340
14
 92
       -2
290
     1
 42
2.0
291
     1
 43
8.0
  3
Standard
341
0
 44
4.0
300

342
11
174
     1
178
     6
175
     1
176
     0
 93
-1056964608
 45
4.0
292
     0
297
     0
 46
4.0
343
0
 94
-1056964608
 47
1.0
 49
1.0
140
1.0
293
     1
141
0.0
294
     1
177
     0
142
1.0
295
     0
296
     0
143
3.75
1001
ACAD_MLEADERVER
1070
     2
  0
MLINESTYLE
  5
18
102
{ACAD_REACTORS
330
17
102
}
330
17
100
AcDbMlineStyle
  2
Standard
 70
     0
  3

 62
   256
 51
90.0
 52
90.0
 71
     2
 49
0.5
 62
   256
  6
BYLAYER
 49
-0.5
 62
   256
  6
BYLAYER
  0
ACDBPLACEHOLDER
  5
F
102
{ACAD_REACTORS
330
E
102
}
330
E
  0
SCALE
  5
48
102
{ACAD_REACTORS
330
47
102
}
330
47
100
AcDbScale
 70
     0
300
1:1
140
1.0
141
1.0
290
     1
  0
SCALE
  5
49
102
{ACAD_REACTORS
330
47
102
}
330
47
100
AcDbScale
 70
     0
300
1:2
140
1.0
141
2.0
290
     0
  0
SCALE
  5
4A
102
{ACAD_REACTORS
330
47
102
}
330
47
100
AcDbScale
 70
     0
300
1:4
140
1.0
141
4.0
290
     0
  0
SCALE
  5
4B
102
{ACAD_REACTORS
330
47
102
}
330
47
100
AcDbScale
 70
     0
300
1:5
140
1.0
141
5.0
290
     0
  0
SCALE
  5
4C
102
{ACAD_REACTORS
330
47
102
}
330
47
100
AcDbScale
 70
     0
300
1:8
140
1.0
141
8.0
290
     0
  0
SCALE
  5
4D
102
{ACAD_REACTORS
330
47
102
}
330
47
100
AcDbScale
 70
     0
300
1:10
140
1.0
141
10.0
290
     0
  0
SCALE
  5
4E
102
{ACAD_REACTORS
330
47
102
}
330
47
100
AcDbScale
 70
     0
300
1:16
140
1.0
141
16.0
290
     0
  0
SCALE
  5
4F
102
{ACAD_REACTORS
330
47
102
}
330
47
100
AcDbScale
 70
     0
300
1:20
140
1.0
141
20.0
290
     0
  0
SCALE
  5
50
102
{ACAD_REACTORS
330
47
102
}
330
47
100
AcDbScale
 70
     0
300
1:30
140
1.0
141
30.0
290
     0
  0
SCALE
  5
51
102
{ACAD_REACTORS
330
47
102
}
330
47
100
AcDbScale
 70
     0
300
1:40
140
1.0
141
40.0
290
     0
  0
SCALE
  5
52
102
{ACAD_REACTORS
330
47
102
}
330
47
100
AcDbScale
 70
     0
300
1:50
140
1.0
141
50.0
290
     0
  0
SCALE
  5
53
102
{ACAD_REACTORS
330
47
102
}
330
47
100
AcDbScale
 70
     0
300
1:100
140
1.0
141
100.0
290
     0
  0
SCALE
  5
54
102
{ACAD_REACTORS
330
47
102
}
330
47
100
AcDbScale
 70
     0
300
2:1
140
2.0
141
1.0
290
     0
  0
SCALE
  5
55
102
{ACAD_REACTORS
330
47
102
}
330
47
100
AcDbScale
 70
     0
300
4:1
140
4.0
141
1.0
290
     0
  0
SCALE
  5
56
102
{ACAD_REACTORS
330
47
102
}
330
47
100
AcDbScale
 70
     0
300
8:1
140
8.0
141
1.0
290
     0
  0
SCALE
  5
57
102
{ACAD_REACTORS
330
47
102
}
330
47
100
AcDbScale
 70
     0
300
10:1
140
10.0
141
1.0
290
     0
  0
SCALE
  5
58
102
{ACAD_REACTORS
330
47
102
}
330
47
100
AcDbScale
 70
     0
300
100:1
140
100.0
141
1.0
290
     0
  0
SCALE
  5
59
102
{ACAD_REACTORS
330
47
102
}
330
47
100
AcDbScale
 70
     0
300
1/128" = 1'-0"
140
0.0078125
141
12.0
290
     0
  0
SCALE
  5
5A
102
{ACAD_REACTORS
330
47
102
}
330
47
100
AcDbScale
 70
     0
300
1/64" = 1'-0"
140
0.015625
141
12.0
290
     0
  0
SCALE
  5
5B
102
{ACAD_REACTORS
330
47
102
}
330
47
100
AcDbScale
 70
     0
300
1/32" = 1'-0"
140
0.03125
141
12.0
290
     0
  0
SCALE
  5
5C
102
{ACAD_REACTORS
330
47
102
}
330
47
100
AcDbScale
 70
     0
300
1/16" = 1'-0"
140
0.0625
141
12.0
290
     0
  0
SCALE
  5
5D
102
{ACAD_REACTORS
330
47
102
}
330
47
100
AcDbScale
 70
     0
300
3/32" = 1'-0"
140
0.09375
141
12.0
290
     0
  0
SCALE
  5
5E
102
{ACAD_REACTORS
330
47
102
}
330
47
100
AcDbScale
 70
     0
300
1/8" = 1'-0"
140
0.125
141
12.0
290
     0
  0
SCALE
  5
5F
102
{ACAD_REACTORS
330
47
102
}
330
47
100
AcDbScale
 70
     0
300
3/16" = 1'-0"
140
0.1875
141
12.0
290
     0
  0
SCALE
  5
60
102
{ACAD_REACTORS
330
47
102
}
330
47
100
AcDbScale
 70
     0
300
1/4" = 1'-0"
140
0.25
141
12.0
290
     0
  0
SCALE
  5
61
102
{ACAD_REACTORS
330
47
102
}
330
47
100
AcDbScale
 70
     0
300
3/8" = 1'-0"
140
0.375
141
12.0
290
     0
  0
SCALE
  5
62
102
{ACAD_REACTORS
330
47
102
}
330
47
100
AcDbScale
 70
     0
300
1/2" = 1'-0"
140
0.5
141
12.0
290
     0
  0
SCALE
  5
63
102
{ACAD_REACTORS
330
47
102
}
330
47
100
AcDbScale
 70
     0
300
3/4" = 1'-0"
140
0.75
141
12.0
290
     0
  0
SCALE
  5
64
102
{ACAD_REACTORS
330
47
102
}
330
47
100
AcDbScale
 70
     0
300
1" = 1'-0"
140
1.0
141
12.0
290
     0
  0
SCALE
  5
65
102
{ACAD_REACTORS
330
47
102
}
330
47
100
AcDbScale
 70
     0
300
1-1/2" = 1'-0"
140
1.5
141
12.0
290
     0
  0
SCALE
  5
66
102
{ACAD_REACTORS
330
47
102
}
330
47
100
AcDbScale
 70
     0
300
3" = 1'-0"
140
3.0
141
12.0
290
     0
  0
SCALE
  5
67
102
{ACAD_REACTORS
330
47
102
}
330
47
100
AcDbScale
 70
     0
300
6" = 1'-0"
140
6.0
141
12.0
290
     0
  0
SCALE
  5
68
102
{ACAD_REACTORS
330
47
102
}
330
47
100
AcDbScale
 70
     0
300
1'-0" = 1'-0"
140
12.0
141
12.0
290
     0
  0
TABLESTYLE
  5
6A
102
{ACAD_REACTORS
330
69
102
}
330
69
100
AcDbTableStyle
  3
Standard
 70
     0
 71
     0
 40
1.5
 41
1.5
280
     0
281
     0
  7
Standard
140
4.5
170
     2
 62
     0
 63
   257
283
     0
274
    -2
284
     1
 64
     0
275
    -2
285
     1
 65
     0
276
    -2
286
     1
 66
     0
277
    -2
287
     1
 67
     0
278
    -2
288
     1
 68
     0
279
    -2
289
     1
 69
     0
  7
Standard
140
6.0
170
     5
 62
     0
 63
   257
283
     0
274
    -2
284
     1
 64
     0
275
    -2
285
     1
 65
     0
276
    -2
286
     1
 66
     0
277
    -2
287
     1
 67
     0
278
    -2
288
     1
 68
     0
279
    -2
289
     1
 69
     0
  7
Standard
140
4.5
170
     5
 62
     0
 63
   257
283
     0
274
    -2
284
     1
 64
     0
275
    -2
285
     1
 65
     0
276
    -2
286
     1
 66
     0
277
    -2
287
     1
 67
     0
278
    -2
288
     1
 68
     0
279
    -2
289
     1
 69
     0
  0
VISUALSTYLE
  5
2F
102
{ACAD_REACTORS
330
2A
102
}
102
{ACAD_XDICTIONARY
360
3D5
102
}
330
2A
100
AcDbVisualStyle
  2
2dWireframe
 70
     4
 71
     0
 72
     2
 73
     0
 90
        0
 40
0.6
 41
30.0
 62
     5
 63
     7
 74
     1
 91
        4
 64
     7
 65
   257
 75
     1
175
     1
 42
1.0
 92
        0
 66
   257
 43
1.0
 76
     1
 77
     6
 78
     2
 67
     7
 79
     5
170
     0
171
     0
290
     0
174
     0
 93
        1
 44
0.0
173
     0
291
     0
 45
0.0
1001
ACAD
1000
AcDbSavedByObjectVersion
1070
     0
  0
VISUALSTYLE
  5
32
102
{ACAD_REACTORS
330
2A
102
}
102
{ACAD_XDICTIONARY
360
3DB
102
}
330
2A
100
AcDbVisualStyle
  2
Basic
 70
     7
 71
     1
 72
     0
 73
     1
 90
        0
 40
0.6
 41
30.0
 62
     5
 63
     7
 74
     0
 91
        4
 64
     7
 65
   257
 75
     1
175
     1
 42
1.0
 92
        8
 66
     7
 43
1.0
 76
     1
 77
     6
 78
     2
 67
     7
 79
     5
170
     0
171
     0
290
     0
174
     0
 93
        1
 44
0.0
173
     0
291
     1
 45
0.0
1001
ACAD
1000
AcDbSavedByObjectVersion
1070
     0
  0
VISUALSTYLE
  5
36
102
{ACAD_REACTORS
330
2A
102
}
102
{ACAD_XDICTIONARY
360
3E3
102
}
330
2A
100
AcDbVisualStyle
  2
Brighten
 70
    12
 71
     2
 72
     2
 73
     0
 90
        0
 40
0.6
 41
30.0
 62
     5
 63
     7
 74
     1
 91
        4
 64
     7
 65
   257
 75
     1
175
     1
 42
1.0
 92
        8
 66
     7
 43
1.0
 76
     1
 77
     6
 78
     2
 67
     7
 79
     5
170
     0
171
     0
290
     0
174
     0
 93
        1
 44
50.0
173
     0
291
     1
 45
0.0
1001
ACAD
1000
AcDbSavedByObjectVersion
1070
     0
  0
VISUALSTYLE
  5
3A
102
{ACAD_REACTORS
330
2A
102
}
102
{ACAD_XDICTIONARY
360
3EB
102
}
330
2A
100
AcDbVisualStyle
  2
ColorChange
 70
    16
 71
     2
 72
     2
 73
     3
 90
        0
 40
0.6
 41
30.0
 62
     5
 63
     8
 74
     1
 91
        4
 64
     7
 65
   257
 75
     1
175
     1
 42
1.0
 92
        8
 66
     8
 43
1.0
 76
     1
 77
     6
 78
     2
 67
     7
 79
     5
170
     0
171
     0
290
     0
174
     0
 93
        1
 44
0.0
173
     0
291
     1
 45
0.0
1001
ACAD
1000
AcDbSavedByObjectVersion
1070
     0
  0
VISUALSTYLE
  5
34
102
{ACAD_REACTORS
330
2A
102
}
102
{ACAD_XDICTIONARY
360
3DF
102
}
330
2A
100
AcDbVisualStyle
  2
Conceptual
 70
     9
 71
     3
 72
     2
 73
     0
 90
        0
 40
0.6
 41
30.0
 62
     5
 63
     7
 74
     2
 91
        2
 64
     7
 65
   257
 75
     1
175
     1
 42
179.0
 92
        8
 66
     7
 43
1.0
 76
     1
 77
     6
 78
     2
 67
     7
 79
     3
170
     0
171
     0
290
     0
174
     0
 93
        1
 44
0.0
173
     0
291
     0
 45
0.0
1001
ACAD
1000
AcDbSavedByObjectVersion
1070
     0
  0
VISUALSTYLE
  5
35
102
{ACAD_REACTORS
330
2A
102
}
102
{ACAD_XDICTIONARY
360
3E1
102
}
330
2A
100
AcDbVisualStyle
  2
Dim
 70
    11
 71
     2
 72
     2
 73
     0
 90
        0
 40
0.6
 41
30.0
 62
     5
 63
     7
 74
     1
 91
        4
 64
     7
 65
   257
 75
     1
175
     1
 42
1.0
 92
        8
 66
     7
 43
1.0
 76
     1
 77
     6
 78
     2
 67
     7
 79
     5
170
     0
171
     0
290
     0
174
     0
 93
        1
 44
-50.0
173
     0
291
     1
 45
0.0
1001
ACAD
1000
AcDbSavedByObjectVersion
1070
     0
  0
VISUALSTYLE
  5
3D
102
{ACAD_REACTORS
330
2A
102
}
102
{ACAD_XDICTIONARY
360
3F1
102
}
330
2A
100
AcDbVisualStyle
  2
EdgeColorOff
 70
    22
 71
     2
 72
     2
 73
     0
 90
        0
 40
0.6
 41
30.0
 62
     5
 63
     7
 74
     1
 91
        4
 64
     7
 65
   257
 75
     1
175
     1
 42
1.0
 92
        8
 66
     7
 43
1.0
 76
     1
 77
     6
 78
     2
 67
     7
 79
     5
170
     0
171
     0
290
     0
174
     0
 93
        1
 44
0.0
173
     0
291
     1
 45
0.0
1001
ACAD
1000
AcDbSavedByObjectVersion
1070
     0
  0
VISUALSTYLE
  5
39
102
{ACAD_REACTORS
330
2A
102
}
102
{ACAD_XDICTIONARY
360
3E9
102
}
330
2A
100
AcDbVisualStyle
  2
Facepattern
 70
    15
 71
     2
 72
     2
 73
     0
 90
        0
 40
0.6
 41
30.0
 62
     5
 63
     7
 74
     1
 91
        4
 64
     7
 65
   257
 75
     1
175
     1
 42
1.0
 92
        8
 66
     7
 43
1.0
 76
     1
 77
     6
 78
     2
 67
     7
 79
     5
170
     0
171
     0
290
     0
174
     0
 93
        1
 44
0.0
173
     0
291
     1
 45
0.0
1001
ACAD
1000
AcDbSavedByObjectVersion
1070
     0
  0
VISUALSTYLE
  5
2B
102
{ACAD_REACTORS
330
2A
102
}
102
{ACAD_XDICTIONARY
360
3CD
102
}
330
2A
100
AcDbVisualStyle
  2
Flat
 70
     0
 71
     2
 72
     1
 73
     1
 90
        2
 40
0.6
 41
30.0
 62
     5
 63
     7
 74
     0
 91
        0
 64
     7
 65
   257
 75
     1
175
     1
 42
1.0
 92
        8
 66
     7
 43
1.0
 76
     1
 77
     6
 78
     2
 67
     7
 79
     5
170
     0
171
     0
290
     0
174
     0
 93
       13
 44
0.0
173
     0
291
     1
 45
0.0
1001
ACAD
1000
AcDbSavedByObjectVersion
1070
     0
  0
VISUALSTYLE
  5
2C
102
{ACAD_REACTORS
330
2A
102
}
102
{ACAD_XDICTIONARY
360
3CF
102
}
330
2A
100
AcDbVisualStyle
  2
FlatWithEdges
 70
     1
 71
     2
 72
     1
 73
     1
 90
        2
 40
0.6
 41
30.0
 62
     5
 63
     7
 74
     1
 91
        0
 64
     7
 65
   257
 75
     1
175
     1
 42
1.0
 92
        0
 66
   257
 43
1.0
 76
     1
 77
     6
 78
     2
 67
     7
 79
     5
170
     0
171
     0
290
     0
174
     0
 93
       13
 44
0.0
173
     0
291
     1
 45
0.0
1001
ACAD
1000
AcDbSavedByObjectVersion
1070
     0
  0
VISUALSTYLE
  5
2D
102
{ACAD_REACTORS
330
2A
102
}
102
{ACAD_XDICTIONARY
360
3D1
102
}
330
2A
100
AcDbVisualStyle
  2
Gouraud
 70
     2
 71
     2
 72
     2
 73
     1
 90
        2
 40
0.6
 41
30.0
 62
     5
 63
     7
 74
     0
 91
        0
 64
     7
 65
   257
 75
     1
175
     1
 42
1.0
 92
        0
 66
     7
 43
1.0
 76
     1
 77
     6
 78
     2
 67
     7
 79
     5
170
     0
171
     0
290
     0
174
     0
 93
       13
 44
0.0
173
     0
291
     1
 45
0.0
1001
ACAD
1000
AcDbSavedByObjectVersion
1070
     0
  0
VISUALSTYLE
  5
2E
102
{ACAD_REACTORS
330
2A
102
}
102
{ACAD_XDICTIONARY
360
3D3
102
}
330
2A
100
AcDbVisualStyle
  2
GouraudWithEdges
 70
     3
 71
     2
 72
     2
 73
     1
 90
        2
 40
0.6
 41
30.0
 62
     5
 63
     7
 74
     1
 91
        0
 64
     7
 65
   257
 75
     1
175
     1
 42
1.0
 92
        0
 66
   257
 43
1.0
 76
     1
 77
     6
 78
     2
 67
     7
 79
     5
170
     0
171
     0
290
     0
174
     0
 93
       13
 44
0.0
173
     0
291
     1
 45
0.0
1001
ACAD
1000
AcDbSavedByObjectVersion
1070
     0
  0
VISUALSTYLE
  5
31
102
{ACAD_REACTORS
330
2A
102
}
102
{ACAD_XDICTIONARY
360
3D9
102
}
330
2A
100
AcDbVisualStyle
  2
Hidden
 70
     6
 71
     1
 72
     2
 73
     2
 90
        0
 40
0.6
 41
30.0
 62
     5
 63
     7
 74
     2
 91
        2
 64
     7
 65
   257
 75
     2
175
     1
 42
40.0
 92
        0
 66
   257
 43
1.0
 76
     1
 77
     6
 78
     2
 67
     7
 79
     3
170
     0
171
     0
290
     0
174
     0
 93
        1
 44
0.0
173
     0
291
     0
 45
0.0
1001
ACAD
1000
AcDbSavedByObjectVersion
1070
     0
  0
VISUALSTYLE
  5
3B
102
{ACAD_REACTORS
330
2A
102
}
102
{ACAD_XDICTIONARY
360
3ED
102
}
330
2A
100
AcDbVisualStyle
  2
JitterOff
 70
    20
 71
     2
 72
     2
 73
     0
 90
        0
 40
0.6
 41
30.0
 62
     5
 63
     7
 74
     1
 91
        4
 64
     7
 65
   257
 75
     1
175
     1
 42
1.0
 92
       10
 66
     7
 43
1.0
 76
     1
 77
     6
 78
     2
 67
     7
 79
     5
170
     0
171
     0
290
     0
174
     0
 93
        1
 44
0.0
173
     0
291
     1
 45
0.0
1001
ACAD
1000
AcDbSavedByObjectVersion
1070
     0
  0
VISUALSTYLE
  5
38
102
{ACAD_REACTORS
330
2A
102
}
102
{ACAD_XDICTIONARY
360
3E7
102
}
330
2A
100
AcDbVisualStyle
  2
Linepattern
 70
    14
 71
     2
 72
     2
 73
     0
 90
        0
 40
0.6
 41
30.0
 62
     5
 63
     7
 74
     1
 91
        4
 64
     7
 65
   257
 75
     7
175
     7
 42
1.0
 92
        8
 66
     7
 43
1.0
 76
     1
 77
     6
 78
     2
 67
     7
 79
     5
170
     0
171
     0
290
     0
174
     0
 93
        1
 44
0.0
173
     0
291
     1
 45
0.0
1001
ACAD
1000
AcDbSavedByObjectVersion
1070
     0
  0
VISUALSTYLE
  5
3C
102
{ACAD_REACTORS
330
2A
102
}
102
{ACAD_XDICTIONARY
360
3EF
102
}
330
2A
100
AcDbVisualStyle
  2
OverhangOff
 70
    21
 71
     2
 72
     2
 73
     0
 90
        0
 40
0.6
 41
30.0
 62
     5
 63
     7
 74
     1
 91
        4
 64
     7
 65
   257
 75
     1
175
     1
 42
1.0
 92
        9
 66
     7
 43
1.0
 76
     1
 77
     6
 78
     2
 67
     7
 79
     5
170
     0
171
     0
290
     0
174
     0
 93
        1
 44
0.0
173
     0
291
     1
 45
0.0
1001
ACAD
1000
AcDbSavedByObjectVersion
1070
     0
  0
VISUALSTYLE
  5
33
102
{ACAD_REACTORS
330
2A
102
}
102
{ACAD_XDICTIONARY
360
3DD
102
}
330
2A
100
AcDbVisualStyle
  2
Realistic
 70
     8
 71
     2
 72
     3
 73
     0
 90
        2
 40
0.6
 41
30.0
 62
     5
 63
     7
 74
     0
 91
        0
 64
     7
 65
   257
 75
     1
175
     1
 42
1.0
 92
        8
 66
   257
 43
1.0
 76
     1
 77
     6
 78
     2
 67
     7
 79
     3
170
     0
171
     0
290
     0
174
     0
 93
       13
 44
0.0
173
     0
291
     0
 45
0.0
1001
ACAD
1000
AcDbSavedByObjectVersion
1070
     0
  0
VISUALSTYLE
  5
42
102
{ACAD_REACTORS
330
2A
102
}
102
{ACAD_XDICTIONARY
360
3FB
102
}
330
2A
100
AcDbVisualStyle
  2
Shaded
 70
    27
 71
     2
 72
     2
 73
     1
 90
        2
 40
0.6
 41
30.0
 62
     5
 63
     7
 74
     0
 91
        4
 64
     7
 65
   257
 75
     1
175
     1
 42
1.0
 92
        8
 66
   257
 43
1.0
 76
     1
 77
     6
 78
     2
 67
     8
 79
     3
170
     0
171
     0
290
     0
174
     0
 93
        5
 44
0.0
173
     0
291
     0
 45
0.0
1001
ACAD
1000
AcDbSavedByObjectVersion
1070
     0
  0
VISUALSTYLE
  5
41
102
{ACAD_REACTORS
330
2A
102
}
102
{ACAD_XDICTIONARY
360
3F9
102
}
330
2A
100
AcDbVisualStyle
  2
Shaded with edges
 70
    26
 71
     2
 72
     2
 73
     1
 90
        2
 40
0.6
 41
30.0
 62
     5
 63
     7
 74
     1
 91
       10
 64
     7
 65
   257
 75
     2
175
     1
 42
1.0
 92
        8
 66
   257
 43
1.0
 76
     1
 77
     6
 78
     2
 67
     7
 79
     3
170
     0
171
     0
290
     0
174
     0
 93
        5
 44
0.0
173
     0
291
     0
 45
0.0
1001
ACAD
1000
AcDbSavedByObjectVersion
1070
     0
  0
VISUALSTYLE
  5
3E
102
{ACAD_REACTORS
330
2A
102
}
102
{ACAD_XDICTIONARY
360
3F3
102
}
330
2A
100
AcDbVisualStyle
  2
Shades of Gray
 70
    23
 71
     2
 72
     2
 73
     3
 90
        0
 40
0.6
 41
30.0
 62
     5
 63
     7
 74
     2
 91
        2
 64
     7
 65
     7
 75
     1
175
     1
 42
40.0
 92
        8
 66
     7
 43
1.0
 76
     1
 77
     6
 78
     2
 67
     7
 79
     3
170
     0
171
     0
290
     0
174
     0
 93
        1
 44
0.0
173
     0
291
     0
 45
0.0
1001
ACAD
1000
AcDbSavedByObjectVersion
1070
     0
  0
VISUALSTYLE
  5
3F
102
{ACAD_REACTORS
330
2A
102
}
102
{ACAD_XDICTIONARY
360
3F5
102
}
330
2A
100
AcDbVisualStyle
  2
Sketchy
 70
    24
 71
     1
 72
     2
 73
     2
 90
        0
 40
0.6
 41
30.0
 62
     5
 63
     7
 74
     2
 91
        2
 64
     7
 65
     7
 75
     1
175
     1
 42
40.0
 92
       11
 66
     7
 43
1.0
 76
     1
 77
     6
 78
     2
 67
     7
 79
     6
170
     0
171
     0
290
     0
174
     0
 93
        1
 44
0.0
173
     0
291
     0
 45
0.0
1001
ACAD
1000
AcDbSavedByObjectVersion
1070
     0
  0
VISUALSTYLE
  5
37
102
{ACAD_REACTORS
330
2A
102
}
102
{ACAD_XDICTIONARY
360
3E5
102
}
330
2A
100
AcDbVisualStyle
  2
Thicken
 70
    13
 71
     2
 72
     2
 73
     0
 90
        0
 40
0.6
 41
30.0
 62
     5
 63
     7
 74
     1
 91
        4
 64
     7
 65
   257
 75
     1
175
     1
 42
1.0
 92
       12
 66
     7
 43
1.0
 76
     1
 77
     6
 78
     2
 67
     7
 79
     5
170
     0
171
     0
290
     0
174
     0
 93
        1
 44
0.0
173
     0
291
     1
 45
0.0
1001
ACAD
1000
AcDbSavedByObjectVersion
1070
     0
  0
VISUALSTYLE
  5
30
102
{ACAD_REACTORS
330
2A
102
}
102
{ACAD_XDICTIONARY
360
3D7
102
}
330
2A
100
AcDbVisualStyle
  2
Wireframe
 70
     5
 71
     0
 72
     2
 73
     0
 90
        0
 40
0.6
 41
30.0
 62
     5
 63
     7
 74
     1
 91
        4
 64
     7
 65
   257
 75
     1
175
     1
 42
1.0
 92
        0
 66
   257
 43
1.0
 76
     1
 77
     6
 78
     2
 67
     7
 79
     3
170
     0
171
     0
290
     0
174
     0
 93
        1
 44
0.0
173
     0
291
     0
 45
0.0
1001
ACAD
1000
AcDbSavedByObjectVersion
1070
     0
  0
VISUALSTYLE
  5
40
102
{ACAD_REACTORS
330
2A
102
}
102
{ACAD_XDICTIONARY
360
3F7
102
}
330
2A
100
AcDbVisualStyle
  2
X-Ray
 70
    25
 71
     2
 72
     2
 73
     1
 90
        1
 40
0.5
 41
30.0
 62
     5
 63
     7
 74
     1
 91
        0
 64
     7
 65
   257
 75
     1
175
     1
 42
1.0
 92
        8
 66
     7
 43
1.0
 76
     1
 77
     6
 78
     2
 67
     7
 79
     3
170
     0
171
     0
290
     0
174
     0
 93
       13
 44
0.0
173
     0
291
     0
 45
0.0
1001
ACAD
1000
AcDbSavedByObjectVersion
1070
     0
  0
DICTIONARYVAR
  5
3CB
102
{ACAD_REACTORS
330
3B9
102
}
330
3B9
100
DictionaryVariables
280
     0
  1
1:1
  0
DICTIONARYVAR
  5
3C0
102
{ACAD_REACTORS
330
3B9
102
}
330
3B9
100
DictionaryVariables
280
     0
  1
3.500000
  0
DICTIONARYVAR
  5
3C1
102
{ACAD_REACTORS
330
3B9
102
}
330
3B9
100
DictionaryVariables
280
     0
  1
acadiso.lin
  0
DICTIONARYVAR
  5
3BB
102
{ACAD_REACTORS
330
3B9
102
}
330
3B9
100
DictionaryVariables
280
     0
  1
Standard
  0
DICTIONARYVAR
  5
3BA
102
{ACAD_REACTORS
330
3B9
102
}
330
3B9
100
DictionaryVariables
280
     0
  1
Standard
  0
DICTIONARYVAR
  5
3C2
102
{ACAD_REACTORS
330
3B9
102
}
330
3B9
100
DictionaryVariables
280
     0
  1
2
  0
DICTIONARYVAR
  5
3C3
102
{ACAD_REACTORS
330
3B9
102
}
330
3B9
100
DictionaryVariables
280
     0
  1
1
  0
DICTIONARYVAR
  5
3CC
102
{ACAD_REACTORS
330
3B9
102
}
330
3B9
100
DictionaryVariables
280
     0
  1
1
  0
DICTIONARYVAR
  5
3BD
102
{ACAD_REACTORS
330
3B9
102
}
330
3B9
100
DictionaryVariables
280
     0
  1
80.000000
  0
DICTIONARYVAR
  5
3BC
102
{ACAD_REACTORS
330
3B9
102
}
330
3B9
100
DictionaryVariables
280
     0
  1
5.000000
  0
DICTIONARY
  5
3FF
330
45
100
AcDbDictionary
280
     1
281
     1
  3
ACAD_XREC_ROUNDTRIP
360
400
  0
DICTIONARY
  5
3FD
330
44
100
AcDbDictionary
280
     1
281
     1
  3
ACAD_XREC_ROUNDTRIP
360
3FE
  0
DICTIONARY
  5
401
330
46
100
AcDbDictionary
280
     1
281
     1
  3
ACAD_XREC_ROUNDTRIP
360
402
  0
DICTIONARY
  5
404
330
6C
100
AcDbDictionary
280
     1
281
     1
  3
ACAD_XREC_ROUNDTRIP
360
405
  0
DICTIONARY
  5
3D5
330
2F
100
AcDbDictionary
280
     1
281
     1
  3
ACAD_XREC_ROUNDTRIP
360
3D6
  0
DICTIONARY
  5
3DB
330
32
100
AcDbDictionary
280
     1
281
     1
  3
ACAD_XREC_ROUNDTRIP
360
3DC
  0
DICTIONARY
  5
3E3
330
36
100
AcDbDictionary
280
     1
281
     1
  3
ACAD_XREC_ROUNDTRIP
360
3E4
  0
DICTIONARY
  5
3EB
330
3A
100
AcDbDictionary
280
     1
281
     1
  3
ACAD_XREC_ROUNDTRIP
360
3EC
  0
DICTIONARY
  5
3DF
330
34
100
AcDbDictionary
280
     1
281
     1
  3
ACAD_XREC_ROUNDTRIP
360
3E0
  0
DICTIONARY
  5
3E1
330
35
100
AcDbDictionary
280
     1
281
     1
  3
ACAD_XREC_ROUNDTRIP
360
3E2
  0
DICTIONARY
  5
3F1
330
3D
100
AcDbDictionary
280
     1
281
     1
  3
ACAD_XREC_ROUNDTRIP
360
3F2
  0
DICTIONARY
  5
3E9
330
39
100
AcDbDictionary
280
     1
281
     1
  3
ACAD_XREC_ROUNDTRIP
360
3EA
  0
DICTIONARY
  5
3CD
330
2B
100
AcDbDictionary
280
     1
281
     1
  3
ACAD_XREC_ROUNDTRIP
360
3CE
  0
DICTIONARY
  5
3CF
330
2C
100
AcDbDictionary
280
     1
281
     1
  3
ACAD_XREC_ROUNDTRIP
360
3D0
  0
DICTIONARY
  5
3D1
330
2D
100
AcDbDictionary
280
     1
281
     1
  3
ACAD_XREC_ROUNDTRIP
360
3D2
  0
DICTIONARY
  5
3D3
330
2E
100
AcDbDictionary
280
     1
281
     1
  3
ACAD_XREC_ROUNDTRIP
360
3D4
  0
DICTIONARY
  5
3D9
330
31
100
AcDbDictionary
280
     1
281
     1
  3
ACAD_XREC_ROUNDTRIP
360
3DA
  0
DICTIONARY
  5
3ED
330
3B
100
AcDbDictionary
280
     1
281
     1
  3
ACAD_XREC_ROUNDTRIP
360
3EE
  0
DICTIONARY
  5
3E7
330
38
100
AcDbDictionary
280
     1
281
     1
  3
ACAD_XREC_ROUNDTRIP
360
3E8
  0
DICTIONARY
  5
3EF
330
3C
100
AcDbDictionary
280
     1
281
     1
  3
ACAD_XREC_ROUNDTRIP
360
3F0
  0
DICTIONARY
  5
3DD
330
33
100
AcDbDictionary
280
     1
281
     1
  3
ACAD_XREC_ROUNDTRIP
360
3DE
  0
DICTIONARY
  5
3FB
330
42
100
AcDbDictionary
280
     1
281
     1
  3
ACAD_XREC_ROUNDTRIP
360
3FC
  0
DICTIONARY
  5
3F9
330
41
100
AcDbDictionary
280
     1
281
     1
  3
ACAD_XREC_ROUNDTRIP
360
3FA
  0
DICTIONARY
  5
3F3
330
3E
100
AcDbDictionary
280
     1
281
     1
  3
ACAD_XREC_ROUNDTRIP
360
3F4
  0
DICTIONARY
  5
3F5
330
3F
100
AcDbDictionary
280
     1
281
     1
  3
ACAD_XREC_ROUNDTRIP
360
3F6
  0
DICTIONARY
  5
3E5
330
37
100
AcDbDictionary
280
     1
281
     1
  3
ACAD_XREC_ROUNDTRIP
360
3E6
  0
DICTIONARY
  5
3D7
330
30
100
AcDbDictionary
280
     1
281
     1
  3
ACAD_XREC_ROUNDTRIP
360
3D8
  0
DICTIONARY
  5
3F7
330
40
100
AcDbDictionary
280
     1
281
     1
  3
ACAD_XREC_ROUNDTRIP
360
3F8
  0
XRECORD
  5
400
102
{ACAD_REACTORS
330
3FF
102
}
330
3FF
100
AcDbXrecord
280
     1
102
MATERIAL
148
0.0
149
0.0
149
0.0
 93
        0
 94
      127
282
     0
 72
     1
 77
     1
171
     1
175
     1
179
     1
273
     0
  0
XRECORD
  5
3FE
102
{ACAD_REACTORS
330
3FD
102
}
330
3FD
100
AcDbXrecord
280
     1
102
MATERIAL
148
0.0
149
0.0
149
0.0
 93
        0
 94
      127
282
     0
 72
     1
 77
     1
171
     1
175
     1
179
     1
273
     0
  0
XRECORD
  5
402
102
{ACAD_REACTORS
330
401
102
}
330
401
100
AcDbXrecord
280
     1
102
MATERIAL
148
0.0
149
0.0
149
0.0
 93
        0
 94
      127
282
     0
 72
     1
 77
     1
171
     1
175
     1
179
     1
273
     0
  0
XRECORD
  5
405
102
{ACAD_REACTORS
330
404
102
}
330
404
100
AcDbXrecord
280
     1
102
ACAD_ROUNDTRIP_2010_MLEADER_STYLE
  0
XRECORD
  5
3D6
102
{ACAD_REACTORS
330
3D5
102
}
330
3D5
100
AcDbXrecord
280
     1
102
RTVSPropertyOp0
 70
     1
102
RTVSPropertyOp1
 70
     1
102
RTVSPropertyOp2
 70
     1
102
RTVSPropertyOp3
 70
     1
102
RTVSPropertyOp4
 70
     1
102
RTVSPropertyOp5
 70
     1
102
RTVSPropertyOp6
 70
     1
102
RTVSPropertyOp7
 70
     1
102
RTVSPropertyOp8
 70
     1
102
RTVSPropertyOp9
 70
     1
102
RTVSPropertyOp10
 70
     1
102
RTVSPropertyOp11
 70
     1
102
RTVSPropertyOp12
 70
     1
102
RTVSPropertyOp13
 70
     1
102
RTVSPropertyOp14
 70
     1
102
RTVSPropertyOp15
 70
     1
102
RTVSPropertyOp16
 70
     1
102
RTVSPropertyOp17
 70
     1
102
RTVSPropertyOp18
 70
     1
102
RTVSPropertyOp19
 70
     1
102
RTVSPropertyOp20
 70
     1
102
RTVSPropertyOp21
 70
     1
102
RTVSPropertyOp22
 70
     1
102
RTVSPropertyOp23
 70
     1
102
RTVSPropertyOp24
 70
     1
102
RTVSPropertyOp25
 70
     1
102
RTVSPropertyOp26
 70
     1
102
RTVSPropertyOp27
 70
     1
102
RTVSPropertyOp28
 70
     1
102
RTVSPropertyOp29
 70
     1
102
RTVSPropertyOp30
 70
     1
102
RTVSPropertyOp31
 70
     1
102
RTVSPropertyOp32
 70
     1
102
RTVSPropertyOp33
 70
     1
102
RTVSPropertyOp34
 70
     1
102
RTVSPropertyOp35
 70
     1
102
RTVSPropertyOp36
 70
     1
102
RTVSPropertyOp37
 70
     1
102
RTVSPropertyOp38
 70
     1
102
RTVSPropertyOp39
 70
     1
102
RTVSPropertyOp40
 70
     1
102
RTVSPropertyOp41
 70
     1
102
RTVSPropertyOp42
 70
     1
102
RTVSPropertyOp43
 70
     1
102
RTVSPropertyOp44
 70
     1
102
RTVSPropertyOp45
 70
     1
102
RTVSPropertyOp46
 70
     1
102
RTVSPropertyOp47
 70
     1
102
RTVSPropertyOp48
 70
     1
102
RTVSPropertyOp49
 70
     1
102
RTVSPropertyOp50
 70
     1
102
RTVSPropertyOp51
 70
     0
102
RTVSPropertyOp52
 70
     0
102
RTVSPropertyOp53
 70
     1
102
RTVSPropertyOp54
 70
     1
102
RTVSPropertyOp55
 70
     1
102
RTVSPropertyOp56
 70
     1
102
RTVSPropertyOp57
 70
     1
102
RTVSPost2010Prop28
280
     1
102
RTVSPost2010PropOp28
 70
     1
102
RTVSPost2010Prop29
280
     1
102
RTVSPost2010PropOp29
 70
     1
102
RTVSPost2010Prop30
280
     0
102
RTVSPost2010PropOp30
 70
     1
102
RTVSPost2010Prop31
280
     0
102
RTVSPost2010PropOp31
 70
     1
102
RTVSPost2010Prop32
280
     0
102
RTVSPost2010PropOp32
 70
     1
102
RTVSPost2010Prop33
280
     0
102
RTVSPost2010PropOp33
 70
     1
102
RTVSPost2010Prop34
280
     0
102
RTVSPost2010PropOp34
 70
     1
102
RTVSPost2010Prop35
280
     0
102
RTVSPost2010PropOp35
 70
     1
102
RTVSPost2010Prop36
280
     0
102
RTVSPost2010PropOp36
 70
     1
102
RTVSPost2010Prop37
 90
       50
102
RTVSPost2010PropOp37
 70
     1
102
RTVSPost2010Prop38
140
0.0
102
RTVSPost2010PropOp38
 70
     1
102
RTVSPost2010Prop39
140
1.0
102
RTVSPost2010PropOp39
 70
     1
102
RTVSPost2010Prop40
 90
        0
102
RTVSPost2010PropOp40
 70
     1
102
RTVSPost2010Prop41ColorIndex
 90
       18
102
RTVSPost2010Prop41ColorRGB
 90
        0
102
RTVSPost2010PropOp41
 70
     1
102
RTVSPost2010Prop42
 90
       50
102
RTVSPost2010PropOp42
 70
     1
102
RTVSPost2010Prop43
 90
        3
102
RTVSPost2010PropOp43
 70
     1
102
RTVSPost2010Prop44ColorIndex
 90
        5
102
RTVSPost2010Prop44ColorRGB
 90
      255
102
RTVSPost2010PropOp44
 70
     1
102
RTVSPost2010Prop45
280
     0
102
RTVSPost2010PropOp45
 70
     1
102
RTVSPost2010Prop46
 90
       50
102
RTVSPost2010PropOp46
 70
     1
102
RTVSPost2010Prop47
 90
       50
102
RTVSPost2010PropOp47
 70
     1
102
RTVSPost2010Prop48
 90
       50
102
RTVSPost2010PropOp48
 70
     1
102
RTVSPost2010Prop49
280
     0
102
RTVSPost2010PropOp49
 70
     1
102
RTVSPost2010Prop50
 90
       50
102
RTVSPost2010PropOp50
 70
     1
102
RTVSPost2010Prop51ColorIndex
 90
      256
102
RTVSPost2010Prop51ColorRGB
 90
-16777216
102
RTVSPost2010PropOp51
 70
     0
102
RTVSPost2010Prop52
140
1.0
102
RTVSPost2010PropOp52
 70
     0
102
RTVSPost2010Prop53
 90
        2
102
RTVSPost2010PropOp53
 70
     1
102
RTVSPost2010Prop54
  1
strokes_ogs.tif
102
RTVSPost2010PropOp54
 70
     1
102
RTVSPost2010Prop55
280
     0
102
RTVSPost2010PropOp55
 70
     1
102
RTVSPost2010Prop56
140
1.0
102
RTVSPost2010PropOp56
 70
     1
102
RTVSPost2010Prop57
140
1.0
102
RTVSPost2010PropOp57
 70
     1
  0
XRECORD
  5
3DC
102
{ACAD_REACTORS
330
3DB
102
}
330
3DB
100
AcDbXrecord
280
     1
102
RTVSPropertyOp0
 70
     1
102
RTVSPropertyOp1
 70
     1
102
RTVSPropertyOp2
 70
     1
102
RTVSPropertyOp3
 70
     1
102
RTVSPropertyOp4
 70
     1
102
RTVSPropertyOp5
 70
     1
102
RTVSPropertyOp6
 70
     1
102
RTVSPropertyOp7
 70
     1
102
RTVSPropertyOp8
 70
     1
102
RTVSPropertyOp9
 70
     1
102
RTVSPropertyOp10
 70
     1
102
RTVSPropertyOp11
 70
     1
102
RTVSPropertyOp12
 70
     1
102
RTVSPropertyOp13
 70
     1
102
RTVSPropertyOp14
 70
     1
102
RTVSPropertyOp15
 70
     1
102
RTVSPropertyOp16
 70
     1
102
RTVSPropertyOp17
 70
     1
102
RTVSPropertyOp18
 70
     1
102
RTVSPropertyOp19
 70
     1
102
RTVSPropertyOp20
 70
     1
102
RTVSPropertyOp21
 70
     1
102
RTVSPropertyOp22
 70
     1
102
RTVSPropertyOp23
 70
     1
102
RTVSPropertyOp24
 70
     1
102
RTVSPropertyOp25
 70
     1
102
RTVSPropertyOp26
 70
     1
102
RTVSPropertyOp27
 70
     1
102
RTVSPropertyOp28
 70
     1
102
RTVSPropertyOp29
 70
     1
102
RTVSPropertyOp30
 70
     1
102
RTVSPropertyOp31
 70
     1
102
RTVSPropertyOp32
 70
     1
102
RTVSPropertyOp33
 70
     1
102
RTVSPropertyOp34
 70
     1
102
RTVSPropertyOp35
 70
     1
102
RTVSPropertyOp36
 70
     1
102
RTVSPropertyOp37
 70
     1
102
RTVSPropertyOp38
 70
     1
102
RTVSPropertyOp39
 70
     1
102
RTVSPropertyOp40
 70
     1
102
RTVSPropertyOp41
 70
     1
102
RTVSPropertyOp42
 70
     1
102
RTVSPropertyOp43
 70
     1
102
RTVSPropertyOp44
 70
     1
102
RTVSPropertyOp45
 70
     1
102
RTVSPropertyOp46
 70
     1
102
RTVSPropertyOp47
 70
     1
102
RTVSPropertyOp48
 70
     1
102
RTVSPropertyOp49
 70
     1
102
RTVSPropertyOp50
 70
     1
102
RTVSPropertyOp51
 70
     0
102
RTVSPropertyOp52
 70
     0
102
RTVSPropertyOp53
 70
     1
102
RTVSPropertyOp54
 70
     1
102
RTVSPropertyOp55
 70
     1
102
RTVSPropertyOp56
 70
     1
102
RTVSPropertyOp57
 70
     1
102
RTVSPost2010Prop28
280
     0
102
RTVSPost2010PropOp28
 70
     1
102
RTVSPost2010Prop29
280
     1
102
RTVSPost2010PropOp29
 70
     1
102
RTVSPost2010Prop30
280
     1
102
RTVSPost2010PropOp30
 70
     1
102
RTVSPost2010Prop31
280
     0
102
RTVSPost2010PropOp31
 70
     1
102
RTVSPost2010Prop32
280
     0
102
RTVSPost2010PropOp32
 70
     1
102
RTVSPost2010Prop33
280
     0
102
RTVSPost2010PropOp33
 70
     1
102
RTVSPost2010Prop34
280
     0
102
RTVSPost2010PropOp34
 70
     1
102
RTVSPost2010Prop35
280
     0
102
RTVSPost2010PropOp35
 70
     1
102
RTVSPost2010Prop36
280
     0
102
RTVSPost2010PropOp36
 70
     1
102
RTVSPost2010Prop37
 90
       50
102
RTVSPost2010PropOp37
 70
     1
102
RTVSPost2010Prop38
140
0.0
102
RTVSPost2010PropOp38
 70
     1
102
RTVSPost2010Prop39
140
1.0
102
RTVSPost2010PropOp39
 70
     1
102
RTVSPost2010Prop40
 90
        0
102
RTVSPost2010PropOp40
 70
     1
102
RTVSPost2010Prop41ColorIndex
 90
       18
102
RTVSPost2010Prop41ColorRGB
 90
        0
102
RTVSPost2010PropOp41
 70
     1
102
RTVSPost2010Prop42
 90
       50
102
RTVSPost2010PropOp42
 70
     1
102
RTVSPost2010Prop43
 90
        3
102
RTVSPost2010PropOp43
 70
     1
102
RTVSPost2010Prop44ColorIndex
 90
        5
102
RTVSPost2010Prop44ColorRGB
 90
      255
102
RTVSPost2010PropOp44
 70
     1
102
RTVSPost2010Prop45
280
     0
102
RTVSPost2010PropOp45
 70
     1
102
RTVSPost2010Prop46
 90
       50
102
RTVSPost2010PropOp46
 70
     1
102
RTVSPost2010Prop47
 90
       50
102
RTVSPost2010PropOp47
 70
     1
102
RTVSPost2010Prop48
 90
       50
102
RTVSPost2010PropOp48
 70
     1
102
RTVSPost2010Prop49
280
     0
102
RTVSPost2010PropOp49
 70
     1
102
RTVSPost2010Prop50
 90
       50
102
RTVSPost2010PropOp50
 70
     1
102
RTVSPost2010Prop51ColorIndex
 90
      256
102
RTVSPost2010Prop51ColorRGB
 90
-16777216
102
RTVSPost2010PropOp51
 70
     0
102
RTVSPost2010Prop52
140
1.0
102
RTVSPost2010PropOp52
 70
     0
102
RTVSPost2010Prop53
 90
        2
102
RTVSPost2010PropOp53
 70
     1
102
RTVSPost2010Prop54
  1
strokes_ogs.tif
102
RTVSPost2010PropOp54
 70
     1
102
RTVSPost2010Prop55
280
     0
102
RTVSPost2010PropOp55
 70
     1
102
RTVSPost2010Prop56
140
1.0
102
RTVSPost2010PropOp56
 70
     1
102
RTVSPost2010Prop57
140
1.0
102
RTVSPost2010PropOp57
 70
     1
  0
XRECORD
  5
3E4
102
{ACAD_REACTORS
330
3E3
102
}
330
3E3
100
AcDbXrecord
280
     1
102
RTVSPropertyOp0
 70
     1
102
RTVSPropertyOp1
 70
     1
102
RTVSPropertyOp2
 70
     1
102
RTVSPropertyOp3
 70
     1
102
RTVSPropertyOp4
 70
     1
102
RTVSPropertyOp5
 70
     1
102
RTVSPropertyOp6
 70
     1
102
RTVSPropertyOp7
 70
     1
102
RTVSPropertyOp8
 70
     1
102
RTVSPropertyOp9
 70
     1
102
RTVSPropertyOp10
 70
     1
102
RTVSPropertyOp11
 70
     1
102
RTVSPropertyOp12
 70
     1
102
RTVSPropertyOp13
 70
     1
102
RTVSPropertyOp14
 70
     1
102
RTVSPropertyOp15
 70
     1
102
RTVSPropertyOp16
 70
     1
102
RTVSPropertyOp17
 70
     1
102
RTVSPropertyOp18
 70
     1
102
RTVSPropertyOp19
 70
     1
102
RTVSPropertyOp20
 70
     1
102
RTVSPropertyOp21
 70
     1
102
RTVSPropertyOp22
 70
     1
102
RTVSPropertyOp23
 70
     1
102
RTVSPropertyOp24
 70
     1
102
RTVSPropertyOp25
 70
     1
102
RTVSPropertyOp26
 70
     1
102
RTVSPropertyOp27
 70
     1
102
RTVSPropertyOp28
 70
     1
102
RTVSPropertyOp29
 70
     1
102
RTVSPropertyOp30
 70
     1
102
RTVSPropertyOp31
 70
     1
102
RTVSPropertyOp32
 70
     1
102
RTVSPropertyOp33
 70
     1
102
RTVSPropertyOp34
 70
     1
102
RTVSPropertyOp35
 70
     1
102
RTVSPropertyOp36
 70
     1
102
RTVSPropertyOp37
 70
     1
102
RTVSPropertyOp38
 70
     1
102
RTVSPropertyOp39
 70
     1
102
RTVSPropertyOp40
 70
     1
102
RTVSPropertyOp41
 70
     1
102
RTVSPropertyOp42
 70
     1
102
RTVSPropertyOp43
 70
     1
102
RTVSPropertyOp44
 70
     1
102
RTVSPropertyOp45
 70
     1
102
RTVSPropertyOp46
 70
     1
102
RTVSPropertyOp47
 70
     1
102
RTVSPropertyOp48
 70
     1
102
RTVSPropertyOp49
 70
     1
102
RTVSPropertyOp50
 70
     1
102
RTVSPropertyOp51
 70
     0
102
RTVSPropertyOp52
 70
     0
102
RTVSPropertyOp53
 70
     1
102
RTVSPropertyOp54
 70
     1
102
RTVSPropertyOp55
 70
     1
102
RTVSPropertyOp56
 70
     1
102
RTVSPropertyOp57
 70
     1
102
RTVSPost2010Prop28
280
     0
102
RTVSPost2010PropOp28
 70
     1
102
RTVSPost2010Prop29
280
     1
102
RTVSPost2010PropOp29
 70
     1
102
RTVSPost2010Prop30
280
     1
102
RTVSPost2010PropOp30
 70
     1
102
RTVSPost2010Prop31
280
     0
102
RTVSPost2010PropOp31
 70
     1
102
RTVSPost2010Prop32
280
     0
102
RTVSPost2010PropOp32
 70
     1
102
RTVSPost2010Prop33
280
     0
102
RTVSPost2010PropOp33
 70
     1
102
RTVSPost2010Prop34
280
     0
102
RTVSPost2010PropOp34
 70
     1
102
RTVSPost2010Prop35
280
     0
102
RTVSPost2010PropOp35
 70
     1
102
RTVSPost2010Prop36
280
     0
102
RTVSPost2010PropOp36
 70
     1
102
RTVSPost2010Prop37
 90
       50
102
RTVSPost2010PropOp37
 70
     1
102
RTVSPost2010Prop38
140
0.0
102
RTVSPost2010PropOp38
 70
     1
102
RTVSPost2010Prop39
140
1.0
102
RTVSPost2010PropOp39
 70
     1
102
RTVSPost2010Prop40
 90
        0
102
RTVSPost2010PropOp40
 70
     1
102
RTVSPost2010Prop41ColorIndex
 90
       18
102
RTVSPost2010Prop41ColorRGB
 90
        0
102
RTVSPost2010PropOp41
 70
     1
102
RTVSPost2010Prop42
 90
       50
102
RTVSPost2010PropOp42
 70
     1
102
RTVSPost2010Prop43
 90
        3
102
RTVSPost2010PropOp43
 70
     1
102
RTVSPost2010Prop44ColorIndex
 90
        5
102
RTVSPost2010Prop44ColorRGB
 90
      255
102
RTVSPost2010PropOp44
 70
     1
102
RTVSPost2010Prop45
280
     0
102
RTVSPost2010PropOp45
 70
     1
102
RTVSPost2010Prop46
 90
       50
102
RTVSPost2010PropOp46
 70
     1
102
RTVSPost2010Prop47
 90
       50
102
RTVSPost2010PropOp47
 70
     1
102
RTVSPost2010Prop48
 90
       50
102
RTVSPost2010PropOp48
 70
     1
102
RTVSPost2010Prop49
280
     0
102
RTVSPost2010PropOp49
 70
     1
102
RTVSPost2010Prop50
 90
       50
102
RTVSPost2010PropOp50
 70
     1
102
RTVSPost2010Prop51ColorIndex
 90
      256
102
RTVSPost2010Prop51ColorRGB
 90
-16777216
102
RTVSPost2010PropOp51
 70
     0
102
RTVSPost2010Prop52
140
1.0
102
RTVSPost2010PropOp52
 70
     0
102
RTVSPost2010Prop53
 90
        2
102
RTVSPost2010PropOp53
 70
     1
102
RTVSPost2010Prop54
  1
strokes_ogs.tif
102
RTVSPost2010PropOp54
 70
     1
102
RTVSPost2010Prop55
280
     0
102
RTVSPost2010PropOp55
 70
     1
102
RTVSPost2010Prop56
140
1.0
102
RTVSPost2010PropOp56
 70
     1
102
RTVSPost2010Prop57
140
1.0
102
RTVSPost2010PropOp57
 70
     1
  0
XRECORD
  5
3EC
102
{ACAD_REACTORS
330
3EB
102
}
330
3EB
100
AcDbXrecord
280
     1
102
RTVSPropertyOp0
 70
     1
102
RTVSPropertyOp1
 70
     1
102
RTVSPropertyOp2
 70
     1
102
RTVSPropertyOp3
 70
     1
102
RTVSPropertyOp4
 70
     1
102
RTVSPropertyOp5
 70
     1
102
RTVSPropertyOp6
 70
     1
102
RTVSPropertyOp7
 70
     1
102
RTVSPropertyOp8
 70
     1
102
RTVSPropertyOp9
 70
     1
102
RTVSPropertyOp10
 70
     1
102
RTVSPropertyOp11
 70
     1
102
RTVSPropertyOp12
 70
     1
102
RTVSPropertyOp13
 70
     1
102
RTVSPropertyOp14
 70
     1
102
RTVSPropertyOp15
 70
     1
102
RTVSPropertyOp16
 70
     1
102
RTVSPropertyOp17
 70
     1
102
RTVSPropertyOp18
 70
     1
102
RTVSPropertyOp19
 70
     1
102
RTVSPropertyOp20
 70
     1
102
RTVSPropertyOp21
 70
     1
102
RTVSPropertyOp22
 70
     1
102
RTVSPropertyOp23
 70
     1
102
RTVSPropertyOp24
 70
     1
102
RTVSPropertyOp25
 70
     1
102
RTVSPropertyOp26
 70
     1
102
RTVSPropertyOp27
 70
     1
102
RTVSPropertyOp28
 70
     1
102
RTVSPropertyOp29
 70
     1
102
RTVSPropertyOp30
 70
     1
102
RTVSPropertyOp31
 70
     1
102
RTVSPropertyOp32
 70
     1
102
RTVSPropertyOp33
 70
     1
102
RTVSPropertyOp34
 70
     1
102
RTVSPropertyOp35
 70
     1
102
RTVSPropertyOp36
 70
     1
102
RTVSPropertyOp37
 70
     1
102
RTVSPropertyOp38
 70
     1
102
RTVSPropertyOp39
 70
     1
102
RTVSPropertyOp40
 70
     1
102
RTVSPropertyOp41
 70
     1
102
RTVSPropertyOp42
 70
     1
102
RTVSPropertyOp43
 70
     1
102
RTVSPropertyOp44
 70
     1
102
RTVSPropertyOp45
 70
     1
102
RTVSPropertyOp46
 70
     1
102
RTVSPropertyOp47
 70
     1
102
RTVSPropertyOp48
 70
     1
102
RTVSPropertyOp49
 70
     1
102
RTVSPropertyOp50
 70
     1
102
RTVSPropertyOp51
 70
     0
102
RTVSPropertyOp52
 70
     0
102
RTVSPropertyOp53
 70
     1
102
RTVSPropertyOp54
 70
     1
102
RTVSPropertyOp55
 70
     1
102
RTVSPropertyOp56
 70
     1
102
RTVSPropertyOp57
 70
     1
102
RTVSPost2010Prop28
280
     0
102
RTVSPost2010PropOp28
 70
     1
102
RTVSPost2010Prop29
280
     1
102
RTVSPost2010PropOp29
 70
     1
102
RTVSPost2010Prop30
280
     1
102
RTVSPost2010PropOp30
 70
     1
102
RTVSPost2010Prop31
280
     0
102
RTVSPost2010PropOp31
 70
     1
102
RTVSPost2010Prop32
280
     0
102
RTVSPost2010PropOp32
 70
     1
102
RTVSPost2010Prop33
280
     0
102
RTVSPost2010PropOp33
 70
     1
102
RTVSPost2010Prop34
280
     0
102
RTVSPost2010PropOp34
 70
     1
102
RTVSPost2010Prop35
280
     0
102
RTVSPost2010PropOp35
 70
     1
102
RTVSPost2010Prop36
280
     0
102
RTVSPost2010PropOp36
 70
     1
102
RTVSPost2010Prop37
 90
       50
102
RTVSPost2010PropOp37
 70
     1
102
RTVSPost2010Prop38
140
0.0
102
RTVSPost2010PropOp38
 70
     1
102
RTVSPost2010Prop39
140
1.0
102
RTVSPost2010PropOp39
 70
     1
102
RTVSPost2010Prop40
 90
        0
102
RTVSPost2010PropOp40
 70
     1
102
RTVSPost2010Prop41ColorIndex
 90
       18
102
RTVSPost2010Prop41ColorRGB
 90
        0
102
RTVSPost2010PropOp41
 70
     1
102
RTVSPost2010Prop42
 90
       50
102
RTVSPost2010PropOp42
 70
     1
102
RTVSPost2010Prop43
 90
        3
102
RTVSPost2010PropOp43
 70
     1
102
RTVSPost2010Prop44ColorIndex
 90
        5
102
RTVSPost2010Prop44ColorRGB
 90
      255
102
RTVSPost2010PropOp44
 70
     1
102
RTVSPost2010Prop45
280
     0
102
RTVSPost2010PropOp45
 70
     1
102
RTVSPost2010Prop46
 90
       50
102
RTVSPost2010PropOp46
 70
     1
102
RTVSPost2010Prop47
 90
       50
102
RTVSPost2010PropOp47
 70
     1
102
RTVSPost2010Prop48
 90
       50
102
RTVSPost2010PropOp48
 70
     1
102
RTVSPost2010Prop49
280
     0
102
RTVSPost2010PropOp49
 70
     1
102
RTVSPost2010Prop50
 90
       50
102
RTVSPost2010PropOp50
 70
     1
102
RTVSPost2010Prop51ColorIndex
 90
      256
102
RTVSPost2010Prop51ColorRGB
 90
-16777216
102
RTVSPost2010PropOp51
 70
     0
102
RTVSPost2010Prop52
140
1.0
102
RTVSPost2010PropOp52
 70
     0
102
RTVSPost2010Prop53
 90
        2
102
RTVSPost2010PropOp53
 70
     1
102
RTVSPost2010Prop54
  1
strokes_ogs.tif
102
RTVSPost2010PropOp54
 70
     1
102
RTVSPost2010Prop55
280
     0
102
RTVSPost2010PropOp55
 70
     1
102
RTVSPost2010Prop56
140
1.0
102
RTVSPost2010PropOp56
 70
     1
102
RTVSPost2010Prop57
140
1.0
102
RTVSPost2010PropOp57
 70
     1
  0
XRECORD
  5
3E0
102
{ACAD_REACTORS
330
3DF
102
}
330
3DF
100
AcDbXrecord
280
     1
102
RTVSPropertyOp0
 70
     1
102
RTVSPropertyOp1
 70
     1
102
RTVSPropertyOp2
 70
     1
102
RTVSPropertyOp3
 70
     1
102
RTVSPropertyOp4
 70
     1
102
RTVSPropertyOp5
 70
     1
102
RTVSPropertyOp6
 70
     1
102
RTVSPropertyOp7
 70
     1
102
RTVSPropertyOp8
 70
     1
102
RTVSPropertyOp9
 70
     1
102
RTVSPropertyOp10
 70
     1
102
RTVSPropertyOp11
 70
     1
102
RTVSPropertyOp12
 70
     1
102
RTVSPropertyOp13
 70
     1
102
RTVSPropertyOp14
 70
     1
102
RTVSPropertyOp15
 70
     1
102
RTVSPropertyOp16
 70
     1
102
RTVSPropertyOp17
 70
     1
102
RTVSPropertyOp18
 70
     1
102
RTVSPropertyOp19
 70
     1
102
RTVSPropertyOp20
 70
     1
102
RTVSPropertyOp21
 70
     1
102
RTVSPropertyOp22
 70
     1
102
RTVSPropertyOp23
 70
     1
102
RTVSPropertyOp24
 70
     1
102
RTVSPropertyOp25
 70
     1
102
RTVSPropertyOp26
 70
     1
102
RTVSPropertyOp27
 70
     1
102
RTVSPropertyOp28
 70
     1
102
RTVSPropertyOp29
 70
     1
102
RTVSPropertyOp30
 70
     1
102
RTVSPropertyOp31
 70
     1
102
RTVSPropertyOp32
 70
     1
102
RTVSPropertyOp33
 70
     1
102
RTVSPropertyOp34
 70
     1
102
RTVSPropertyOp35
 70
     1
102
RTVSPropertyOp36
 70
     1
102
RTVSPropertyOp37
 70
     1
102
RTVSPropertyOp38
 70
     1
102
RTVSPropertyOp39
 70
     1
102
RTVSPropertyOp40
 70
     1
102
RTVSPropertyOp41
 70
     1
102
RTVSPropertyOp42
 70
     1
102
RTVSPropertyOp43
 70
     1
102
RTVSPropertyOp44
 70
     1
102
RTVSPropertyOp45
 70
     1
102
RTVSPropertyOp46
 70
     1
102
RTVSPropertyOp47
 70
     1
102
RTVSPropertyOp48
 70
     1
102
RTVSPropertyOp49
 70
     1
102
RTVSPropertyOp50
 70
     1
102
RTVSPropertyOp51
 70
     0
102
RTVSPropertyOp52
 70
     0
102
RTVSPropertyOp53
 70
     1
102
RTVSPropertyOp54
 70
     1
102
RTVSPropertyOp55
 70
     1
102
RTVSPropertyOp56
 70
     1
102
RTVSPropertyOp57
 70
     1
102
RTVSPost2010Prop28
280
     0
102
RTVSPost2010PropOp28
 70
     1
102
RTVSPost2010Prop29
280
     1
102
RTVSPost2010PropOp29
 70
     1
102
RTVSPost2010Prop30
280
     1
102
RTVSPost2010PropOp30
 70
     1
102
RTVSPost2010Prop31
280
     0
102
RTVSPost2010PropOp31
 70
     1
102
RTVSPost2010Prop32
280
     0
102
RTVSPost2010PropOp32
 70
     1
102
RTVSPost2010Prop33
280
     0
102
RTVSPost2010PropOp33
 70
     1
102
RTVSPost2010Prop34
280
     0
102
RTVSPost2010PropOp34
 70
     1
102
RTVSPost2010Prop35
280
     0
102
RTVSPost2010PropOp35
 70
     1
102
RTVSPost2010Prop36
280
     0
102
RTVSPost2010PropOp36
 70
     1
102
RTVSPost2010Prop37
 90
       50
102
RTVSPost2010PropOp37
 70
     1
102
RTVSPost2010Prop38
140
0.0
102
RTVSPost2010PropOp38
 70
     1
102
RTVSPost2010Prop39
140
1.0
102
RTVSPost2010PropOp39
 70
     1
102
RTVSPost2010Prop40
 90
        0
102
RTVSPost2010PropOp40
 70
     1
102
RTVSPost2010Prop41ColorIndex
 90
       18
102
RTVSPost2010Prop41ColorRGB
 90
        0
102
RTVSPost2010PropOp41
 70
     1
102
RTVSPost2010Prop42
 90
       50
102
RTVSPost2010PropOp42
 70
     1
102
RTVSPost2010Prop43
 90
        3
102
RTVSPost2010PropOp43
 70
     1
102
RTVSPost2010Prop44ColorIndex
 90
        5
102
RTVSPost2010Prop44ColorRGB
 90
      255
102
RTVSPost2010PropOp44
 70
     1
102
RTVSPost2010Prop45
280
     0
102
RTVSPost2010PropOp45
 70
     1
102
RTVSPost2010Prop46
 90
       50
102
RTVSPost2010PropOp46
 70
     1
102
RTVSPost2010Prop47
 90
       50
102
RTVSPost2010PropOp47
 70
     1
102
RTVSPost2010Prop48
 90
       50
102
RTVSPost2010PropOp48
 70
     1
102
RTVSPost2010Prop49
280
     0
102
RTVSPost2010PropOp49
 70
     1
102
RTVSPost2010Prop50
 90
       50
102
RTVSPost2010PropOp50
 70
     1
102
RTVSPost2010Prop51ColorIndex
 90
      256
102
RTVSPost2010Prop51ColorRGB
 90
-16777216
102
RTVSPost2010PropOp51
 70
     0
102
RTVSPost2010Prop52
140
1.0
102
RTVSPost2010PropOp52
 70
     0
102
RTVSPost2010Prop53
 90
        2
102
RTVSPost2010PropOp53
 70
     1
102
RTVSPost2010Prop54
  1
strokes_ogs.tif
102
RTVSPost2010PropOp54
 70
     1
102
RTVSPost2010Prop55
280
     0
102
RTVSPost2010PropOp55
 70
     1
102
RTVSPost2010Prop56
140
1.0
102
RTVSPost2010PropOp56
 70
     1
102
RTVSPost2010Prop57
140
1.0
102
RTVSPost2010PropOp57
 70
     1
  0
XRECORD
  5
3E2
102
{ACAD_REACTORS
330
3E1
102
}
330
3E1
100
AcDbXrecord
280
     1
102
RTVSPropertyOp0
 70
     1
102
RTVSPropertyOp1
 70
     1
102
RTVSPropertyOp2
 70
     1
102
RTVSPropertyOp3
 70
     1
102
RTVSPropertyOp4
 70
     1
102
RTVSPropertyOp5
 70
     1
102
RTVSPropertyOp6
 70
     1
102
RTVSPropertyOp7
 70
     1
102
RTVSPropertyOp8
 70
     1
102
RTVSPropertyOp9
 70
     1
102
RTVSPropertyOp10
 70
     1
102
RTVSPropertyOp11
 70
     1
102
RTVSPropertyOp12
 70
     1
102
RTVSPropertyOp13
 70
     1
102
RTVSPropertyOp14
 70
     1
102
RTVSPropertyOp15
 70
     1
102
RTVSPropertyOp16
 70
     1
102
RTVSPropertyOp17
 70
     1
102
RTVSPropertyOp18
 70
     1
102
RTVSPropertyOp19
 70
     1
102
RTVSPropertyOp20
 70
     1
102
RTVSPropertyOp21
 70
     1
102
RTVSPropertyOp22
 70
     1
102
RTVSPropertyOp23
 70
     1
102
RTVSPropertyOp24
 70
     1
102
RTVSPropertyOp25
 70
     1
102
RTVSPropertyOp26
 70
     1
102
RTVSPropertyOp27
 70
     1
102
RTVSPropertyOp28
 70
     1
102
RTVSPropertyOp29
 70
     1
102
RTVSPropertyOp30
 70
     1
102
RTVSPropertyOp31
 70
     1
102
RTVSPropertyOp32
 70
     1
102
RTVSPropertyOp33
 70
     1
102
RTVSPropertyOp34
 70
     1
102
RTVSPropertyOp35
 70
     1
102
RTVSPropertyOp36
 70
     1
102
RTVSPropertyOp37
 70
     1
102
RTVSPropertyOp38
 70
     1
102
RTVSPropertyOp39
 70
     1
102
RTVSPropertyOp40
 70
     1
102
RTVSPropertyOp41
 70
     1
102
RTVSPropertyOp42
 70
     1
102
RTVSPropertyOp43
 70
     1
102
RTVSPropertyOp44
 70
     1
102
RTVSPropertyOp45
 70
     1
102
RTVSPropertyOp46
 70
     1
102
RTVSPropertyOp47
 70
     1
102
RTVSPropertyOp48
 70
     1
102
RTVSPropertyOp49
 70
     1
102
RTVSPropertyOp50
 70
     1
102
RTVSPropertyOp51
 70
     0
102
RTVSPropertyOp52
 70
     0
102
RTVSPropertyOp53
 70
     1
102
RTVSPropertyOp54
 70
     1
102
RTVSPropertyOp55
 70
     1
102
RTVSPropertyOp56
 70
     1
102
RTVSPropertyOp57
 70
     1
102
RTVSPost2010Prop28
280
     0
102
RTVSPost2010PropOp28
 70
     1
102
RTVSPost2010Prop29
280
     1
102
RTVSPost2010PropOp29
 70
     1
102
RTVSPost2010Prop30
280
     1
102
RTVSPost2010PropOp30
 70
     1
102
RTVSPost2010Prop31
280
     0
102
RTVSPost2010PropOp31
 70
     1
102
RTVSPost2010Prop32
280
     0
102
RTVSPost2010PropOp32
 70
     1
102
RTVSPost2010Prop33
280
     0
102
RTVSPost2010PropOp33
 70
     1
102
RTVSPost2010Prop34
280
     0
102
RTVSPost2010PropOp34
 70
     1
102
RTVSPost2010Prop35
280
     0
102
RTVSPost2010PropOp35
 70
     1
102
RTVSPost2010Prop36
280
     0
102
RTVSPost2010PropOp36
 70
     1
102
RTVSPost2010Prop37
 90
       50
102
RTVSPost2010PropOp37
 70
     1
102
RTVSPost2010Prop38
140
0.0
102
RTVSPost2010PropOp38
 70
     1
102
RTVSPost2010Prop39
140
1.0
102
RTVSPost2010PropOp39
 70
     1
102
RTVSPost2010Prop40
 90
        0
102
RTVSPost2010PropOp40
 70
     1
102
RTVSPost2010Prop41ColorIndex
 90
       18
102
RTVSPost2010Prop41ColorRGB
 90
        0
102
RTVSPost2010PropOp41
 70
     1
102
RTVSPost2010Prop42
 90
       50
102
RTVSPost2010PropOp42
 70
     1
102
RTVSPost2010Prop43
 90
        3
102
RTVSPost2010PropOp43
 70
     1
102
RTVSPost2010Prop44ColorIndex
 90
        5
102
RTVSPost2010Prop44ColorRGB
 90
      255
102
RTVSPost2010PropOp44
 70
     1
102
RTVSPost2010Prop45
280
     0
102
RTVSPost2010PropOp45
 70
     1
102
RTVSPost2010Prop46
 90
       50
102
RTVSPost2010PropOp46
 70
     1
102
RTVSPost2010Prop47
 90
       50
102
RTVSPost2010PropOp47
 70
     1
102
RTVSPost2010Prop48
 90
       50
102
RTVSPost2010PropOp48
 70
     1
102
RTVSPost2010Prop49
280
     0
102
RTVSPost2010PropOp49
 70
     1
102
RTVSPost2010Prop50
 90
       50
102
RTVSPost2010PropOp50
 70
     1
102
RTVSPost2010Prop51ColorIndex
 90
      256
102
RTVSPost2010Prop51ColorRGB
 90
-16777216
102
RTVSPost2010PropOp51
 70
     0
102
RTVSPost2010Prop52
140
1.0
102
RTVSPost2010PropOp52
 70
     0
102
RTVSPost2010Prop53
 90
        2
102
RTVSPost2010PropOp53
 70
     1
102
RTVSPost2010Prop54
  1
strokes_ogs.tif
102
RTVSPost2010PropOp54
 70
     1
102
RTVSPost2010Prop55
280
     0
102
RTVSPost2010PropOp55
 70
     1
102
RTVSPost2010Prop56
140
1.0
102
RTVSPost2010PropOp56
 70
     1
102
RTVSPost2010Prop57
140
1.0
102
RTVSPost2010PropOp57
 70
     1
  0
XRECORD
  5
3F2
102
{ACAD_REACTORS
330
3F1
102
}
330
3F1
100
AcDbXrecord
280
     1
102
RTVSPropertyOp0
 70
     0
102
RTVSPropertyOp1
 70
     0
102
RTVSPropertyOp2
 70
     0
102
RTVSPropertyOp3
 70
     0
102
RTVSPropertyOp4
 70
     0
102
RTVSPropertyOp5
 70
     0
102
RTVSPropertyOp6
 70
     0
102
RTVSPropertyOp7
 70
     0
102
RTVSPropertyOp8
 70
     0
102
RTVSPropertyOp9
 70
     0
102
RTVSPropertyOp10
 70
     0
102
RTVSPropertyOp11
 70
     0
102
RTVSPropertyOp12
 70
     0
102
RTVSPropertyOp13
 70
     0
102
RTVSPropertyOp14
 70
     2
102
RTVSPropertyOp15
 70
     0
102
RTVSPropertyOp16
 70
     0
102
RTVSPropertyOp17
 70
     0
102
RTVSPropertyOp18
 70
     0
102
RTVSPropertyOp19
 70
     0
102
RTVSPropertyOp20
 70
     0
102
RTVSPropertyOp21
 70
     0
102
RTVSPropertyOp22
 70
     0
102
RTVSPropertyOp23
 70
     0
102
RTVSPropertyOp24
 70
     0
102
RTVSPropertyOp25
 70
     0
102
RTVSPropertyOp26
 70
     0
102
RTVSPropertyOp27
 70
     0
102
RTVSPropertyOp28
 70
     0
102
RTVSPropertyOp29
 70
     0
102
RTVSPropertyOp30
 70
     0
102
RTVSPropertyOp31
 70
     0
102
RTVSPropertyOp32
 70
     0
102
RTVSPropertyOp33
 70
     0
102
RTVSPropertyOp34
 70
     0
102
RTVSPropertyOp35
 70
     0
102
RTVSPropertyOp36
 70
     0
102
RTVSPropertyOp37
 70
     0
102
RTVSPropertyOp38
 70
     0
102
RTVSPropertyOp39
 70
     0
102
RTVSPropertyOp40
 70
     0
102
RTVSPropertyOp41
 70
     0
102
RTVSPropertyOp42
 70
     0
102
RTVSPropertyOp43
 70
     0
102
RTVSPropertyOp44
 70
     0
102
RTVSPropertyOp45
 70
     0
102
RTVSPropertyOp46
 70
     0
102
RTVSPropertyOp47
 70
     0
102
RTVSPropertyOp48
 70
     0
102
RTVSPropertyOp49
 70
     0
102
RTVSPropertyOp50
 70
     0
102
RTVSPropertyOp51
 70
     0
102
RTVSPropertyOp52
 70
     0
102
RTVSPropertyOp53
 70
     0
102
RTVSPropertyOp54
 70
     0
102
RTVSPropertyOp55
 70
     0
102
RTVSPropertyOp56
 70
     0
102
RTVSPropertyOp57
 70
     0
102
RTVSPost2010Prop28
280
     0
102
RTVSPost2010PropOp28
 70
     0
102
RTVSPost2010Prop29
280
     1
102
RTVSPost2010PropOp29
 70
     0
102
RTVSPost2010Prop30
280
     1
102
RTVSPost2010PropOp30
 70
     0
102
RTVSPost2010Prop31
280
     0
102
RTVSPost2010PropOp31
 70
     0
102
RTVSPost2010Prop32
280
     0
102
RTVSPost2010PropOp32
 70
     0
102
RTVSPost2010Prop33
280
     0
102
RTVSPost2010PropOp33
 70
     0
102
RTVSPost2010Prop34
280
     0
102
RTVSPost2010PropOp34
 70
     0
102
RTVSPost2010Prop35
280
     0
102
RTVSPost2010PropOp35
 70
     0
102
RTVSPost2010Prop36
280
     0
102
RTVSPost2010PropOp36
 70
     0
102
RTVSPost2010Prop37
 90
       50
102
RTVSPost2010PropOp37
 70
     0
102
RTVSPost2010Prop38
140
0.0
102
RTVSPost2010PropOp38
 70
     0
102
RTVSPost2010Prop39
140
1.0
102
RTVSPost2010PropOp39
 70
     0
102
RTVSPost2010Prop40
 90
        0
102
RTVSPost2010PropOp40
 70
     0
102
RTVSPost2010Prop41ColorIndex
 90
       18
102
RTVSPost2010Prop41ColorRGB
 90
        0
102
RTVSPost2010PropOp41
 70
     0
102
RTVSPost2010Prop42
 90
       50
102
RTVSPost2010PropOp42
 70
     0
102
RTVSPost2010Prop43
 90
        3
102
RTVSPost2010PropOp43
 70
     0
102
RTVSPost2010Prop44ColorIndex
 90
        5
102
RTVSPost2010Prop44ColorRGB
 90
      255
102
RTVSPost2010PropOp44
 70
     0
102
RTVSPost2010Prop45
280
     0
102
RTVSPost2010PropOp45
 70
     0
102
RTVSPost2010Prop46
 90
       50
102
RTVSPost2010PropOp46
 70
     0
102
RTVSPost2010Prop47
 90
       50
102
RTVSPost2010PropOp47
 70
     0
102
RTVSPost2010Prop48
 90
       50
102
RTVSPost2010PropOp48
 70
     0
102
RTVSPost2010Prop49
280
     0
102
RTVSPost2010PropOp49
 70
     0
102
RTVSPost2010Prop50
 90
       50
102
RTVSPost2010PropOp50
 70
     0
102
RTVSPost2010Prop51ColorIndex
 90
      256
102
RTVSPost2010Prop51ColorRGB
 90
-16777216
102
RTVSPost2010PropOp51
 70
     0
102
RTVSPost2010Prop52
140
1.0
102
RTVSPost2010PropOp52
 70
     0
102
RTVSPost2010Prop53
 90
        2
102
RTVSPost2010PropOp53
 70
     0
102
RTVSPost2010Prop54
  1
strokes_ogs.tif
102
RTVSPost2010PropOp54
 70
     0
102
RTVSPost2010Prop55
280
     0
102
RTVSPost2010PropOp55
 70
     0
102
RTVSPost2010Prop56
140
1.0
102
RTVSPost2010PropOp56
 70
     0
102
RTVSPost2010Prop57
140
1.0
102
RTVSPost2010PropOp57
 70
     0
  0
XRECORD
  5
3EA
102
{ACAD_REACTORS
330
3E9
102
}
330
3E9
100
AcDbXrecord
280
     1
102
RTVSPropertyOp0
 70
     1
102
RTVSPropertyOp1
 70
     1
102
RTVSPropertyOp2
 70
     1
102
RTVSPropertyOp3
 70
     1
102
RTVSPropertyOp4
 70
     1
102
RTVSPropertyOp5
 70
     1
102
RTVSPropertyOp6
 70
     1
102
RTVSPropertyOp7
 70
     1
102
RTVSPropertyOp8
 70
     1
102
RTVSPropertyOp9
 70
     1
102
RTVSPropertyOp10
 70
     1
102
RTVSPropertyOp11
 70
     1
102
RTVSPropertyOp12
 70
     1
102
RTVSPropertyOp13
 70
     1
102
RTVSPropertyOp14
 70
     1
102
RTVSPropertyOp15
 70
     1
102
RTVSPropertyOp16
 70
     1
102
RTVSPropertyOp17
 70
     1
102
RTVSPropertyOp18
 70
     1
102
RTVSPropertyOp19
 70
     1
102
RTVSPropertyOp20
 70
     1
102
RTVSPropertyOp21
 70
     1
102
RTVSPropertyOp22
 70
     1
102
RTVSPropertyOp23
 70
     1
102
RTVSPropertyOp24
 70
     1
102
RTVSPropertyOp25
 70
     1
102
RTVSPropertyOp26
 70
     1
102
RTVSPropertyOp27
 70
     1
102
RTVSPropertyOp28
 70
     1
102
RTVSPropertyOp29
 70
     1
102
RTVSPropertyOp30
 70
     1
102
RTVSPropertyOp31
 70
     1
102
RTVSPropertyOp32
 70
     1
102
RTVSPropertyOp33
 70
     1
102
RTVSPropertyOp34
 70
     1
102
RTVSPropertyOp35
 70
     1
102
RTVSPropertyOp36
 70
     1
102
RTVSPropertyOp37
 70
     1
102
RTVSPropertyOp38
 70
     1
102
RTVSPropertyOp39
 70
     1
102
RTVSPropertyOp40
 70
     1
102
RTVSPropertyOp41
 70
     1
102
RTVSPropertyOp42
 70
     1
102
RTVSPropertyOp43
 70
     1
102
RTVSPropertyOp44
 70
     1
102
RTVSPropertyOp45
 70
     1
102
RTVSPropertyOp46
 70
     1
102
RTVSPropertyOp47
 70
     1
102
RTVSPropertyOp48
 70
     1
102
RTVSPropertyOp49
 70
     1
102
RTVSPropertyOp50
 70
     1
102
RTVSPropertyOp51
 70
     0
102
RTVSPropertyOp52
 70
     0
102
RTVSPropertyOp53
 70
     1
102
RTVSPropertyOp54
 70
     1
102
RTVSPropertyOp55
 70
     1
102
RTVSPropertyOp56
 70
     1
102
RTVSPropertyOp57
 70
     1
102
RTVSPost2010Prop28
280
     0
102
RTVSPost2010PropOp28
 70
     1
102
RTVSPost2010Prop29
280
     1
102
RTVSPost2010PropOp29
 70
     1
102
RTVSPost2010Prop30
280
     1
102
RTVSPost2010PropOp30
 70
     1
102
RTVSPost2010Prop31
280
     0
102
RTVSPost2010PropOp31
 70
     1
102
RTVSPost2010Prop32
280
     0
102
RTVSPost2010PropOp32
 70
     1
102
RTVSPost2010Prop33
280
     0
102
RTVSPost2010PropOp33
 70
     1
102
RTVSPost2010Prop34
280
     0
102
RTVSPost2010PropOp34
 70
     1
102
RTVSPost2010Prop35
280
     0
102
RTVSPost2010PropOp35
 70
     1
102
RTVSPost2010Prop36
280
     0
102
RTVSPost2010PropOp36
 70
     1
102
RTVSPost2010Prop37
 90
       50
102
RTVSPost2010PropOp37
 70
     1
102
RTVSPost2010Prop38
140
0.0
102
RTVSPost2010PropOp38
 70
     1
102
RTVSPost2010Prop39
140
1.0
102
RTVSPost2010PropOp39
 70
     1
102
RTVSPost2010Prop40
 90
        0
102
RTVSPost2010PropOp40
 70
     1
102
RTVSPost2010Prop41ColorIndex
 90
       18
102
RTVSPost2010Prop41ColorRGB
 90
        0
102
RTVSPost2010PropOp41
 70
     1
102
RTVSPost2010Prop42
 90
       50
102
RTVSPost2010PropOp42
 70
     1
102
RTVSPost2010Prop43
 90
        3
102
RTVSPost2010PropOp43
 70
     1
102
RTVSPost2010Prop44ColorIndex
 90
        5
102
RTVSPost2010Prop44ColorRGB
 90
      255
102
RTVSPost2010PropOp44
 70
     1
102
RTVSPost2010Prop45
280
     0
102
RTVSPost2010PropOp45
 70
     1
102
RTVSPost2010Prop46
 90
       50
102
RTVSPost2010PropOp46
 70
     1
102
RTVSPost2010Prop47
 90
       50
102
RTVSPost2010PropOp47
 70
     1
102
RTVSPost2010Prop48
 90
       50
102
RTVSPost2010PropOp48
 70
     1
102
RTVSPost2010Prop49
280
     0
102
RTVSPost2010PropOp49
 70
     1
102
RTVSPost2010Prop50
 90
       50
102
RTVSPost2010PropOp50
 70
     1
102
RTVSPost2010Prop51ColorIndex
 90
      256
102
RTVSPost2010Prop51ColorRGB
 90
-16777216
102
RTVSPost2010PropOp51
 70
     0
102
RTVSPost2010Prop52
140
1.0
102
RTVSPost2010PropOp52
 70
     0
102
RTVSPost2010Prop53
 90
        2
102
RTVSPost2010PropOp53
 70
     1
102
RTVSPost2010Prop54
  1
strokes_ogs.tif
102
RTVSPost2010PropOp54
 70
     1
102
RTVSPost2010Prop55
280
     0
102
RTVSPost2010PropOp55
 70
     1
102
RTVSPost2010Prop56
140
1.0
102
RTVSPost2010PropOp56
 70
     1
102
RTVSPost2010Prop57
140
1.0
102
RTVSPost2010PropOp57
 70
     1
  0
XRECORD
  5
3CE
102
{ACAD_REACTORS
330
3CD
102
}
330
3CD
100
AcDbXrecord
280
     1
102
RTVSPropertyOp0
 70
     1
102
RTVSPropertyOp1
 70
     1
102
RTVSPropertyOp2
 70
     1
102
RTVSPropertyOp3
 70
     1
102
RTVSPropertyOp4
 70
     1
102
RTVSPropertyOp5
 70
     1
102
RTVSPropertyOp6
 70
     1
102
RTVSPropertyOp7
 70
     1
102
RTVSPropertyOp8
 70
     1
102
RTVSPropertyOp9
 70
     1
102
RTVSPropertyOp10
 70
     1
102
RTVSPropertyOp11
 70
     1
102
RTVSPropertyOp12
 70
     1
102
RTVSPropertyOp13
 70
     1
102
RTVSPropertyOp14
 70
     1
102
RTVSPropertyOp15
 70
     1
102
RTVSPropertyOp16
 70
     1
102
RTVSPropertyOp17
 70
     1
102
RTVSPropertyOp18
 70
     1
102
RTVSPropertyOp19
 70
     1
102
RTVSPropertyOp20
 70
     1
102
RTVSPropertyOp21
 70
     1
102
RTVSPropertyOp22
 70
     1
102
RTVSPropertyOp23
 70
     1
102
RTVSPropertyOp24
 70
     1
102
RTVSPropertyOp25
 70
     1
102
RTVSPropertyOp26
 70
     1
102
RTVSPropertyOp27
 70
     1
102
RTVSPropertyOp28
 70
     1
102
RTVSPropertyOp29
 70
     1
102
RTVSPropertyOp30
 70
     1
102
RTVSPropertyOp31
 70
     1
102
RTVSPropertyOp32
 70
     1
102
RTVSPropertyOp33
 70
     1
102
RTVSPropertyOp34
 70
     1
102
RTVSPropertyOp35
 70
     1
102
RTVSPropertyOp36
 70
     1
102
RTVSPropertyOp37
 70
     1
102
RTVSPropertyOp38
 70
     1
102
RTVSPropertyOp39
 70
     1
102
RTVSPropertyOp40
 70
     1
102
RTVSPropertyOp41
 70
     1
102
RTVSPropertyOp42
 70
     1
102
RTVSPropertyOp43
 70
     1
102
RTVSPropertyOp44
 70
     1
102
RTVSPropertyOp45
 70
     1
102
RTVSPropertyOp46
 70
     1
102
RTVSPropertyOp47
 70
     1
102
RTVSPropertyOp48
 70
     1
102
RTVSPropertyOp49
 70
     1
102
RTVSPropertyOp50
 70
     1
102
RTVSPropertyOp51
 70
     0
102
RTVSPropertyOp52
 70
     0
102
RTVSPropertyOp53
 70
     1
102
RTVSPropertyOp54
 70
     1
102
RTVSPropertyOp55
 70
     1
102
RTVSPropertyOp56
 70
     1
102
RTVSPropertyOp57
 70
     1
102
RTVSPost2010Prop28
280
     0
102
RTVSPost2010PropOp28
 70
     1
102
RTVSPost2010Prop29
280
     1
102
RTVSPost2010PropOp29
 70
     1
102
RTVSPost2010Prop30
280
     1
102
RTVSPost2010PropOp30
 70
     1
102
RTVSPost2010Prop31
280
     0
102
RTVSPost2010PropOp31
 70
     1
102
RTVSPost2010Prop32
280
     0
102
RTVSPost2010PropOp32
 70
     1
102
RTVSPost2010Prop33
280
     0
102
RTVSPost2010PropOp33
 70
     1
102
RTVSPost2010Prop34
280
     0
102
RTVSPost2010PropOp34
 70
     1
102
RTVSPost2010Prop35
280
     0
102
RTVSPost2010PropOp35
 70
     1
102
RTVSPost2010Prop36
280
     0
102
RTVSPost2010PropOp36
 70
     1
102
RTVSPost2010Prop37
 90
       50
102
RTVSPost2010PropOp37
 70
     1
102
RTVSPost2010Prop38
140
0.0
102
RTVSPost2010PropOp38
 70
     1
102
RTVSPost2010Prop39
140
1.0
102
RTVSPost2010PropOp39
 70
     1
102
RTVSPost2010Prop40
 90
        0
102
RTVSPost2010PropOp40
 70
     1
102
RTVSPost2010Prop41ColorIndex
 90
       18
102
RTVSPost2010Prop41ColorRGB
 90
        0
102
RTVSPost2010PropOp41
 70
     1
102
RTVSPost2010Prop42
 90
       50
102
RTVSPost2010PropOp42
 70
     1
102
RTVSPost2010Prop43
 90
        3
102
RTVSPost2010PropOp43
 70
     1
102
RTVSPost2010Prop44ColorIndex
 90
        5
102
RTVSPost2010Prop44ColorRGB
 90
      255
102
RTVSPost2010PropOp44
 70
     1
102
RTVSPost2010Prop45
280
     0
102
RTVSPost2010PropOp45
 70
     1
102
RTVSPost2010Prop46
 90
       50
102
RTVSPost2010PropOp46
 70
     1
102
RTVSPost2010Prop47
 90
       50
102
RTVSPost2010PropOp47
 70
     1
102
RTVSPost2010Prop48
 90
       50
102
RTVSPost2010PropOp48
 70
     1
102
RTVSPost2010Prop49
280
     0
102
RTVSPost2010PropOp49
 70
     1
102
RTVSPost2010Prop50
 90
       50
102
RTVSPost2010PropOp50
 70
     1
102
RTVSPost2010Prop51ColorIndex
 90
      256
102
RTVSPost2010Prop51ColorRGB
 90
-16777216
102
RTVSPost2010PropOp51
 70
     0
102
RTVSPost2010Prop52
140
1.0
102
RTVSPost2010PropOp52
 70
     0
102
RTVSPost2010Prop53
 90
        2
102
RTVSPost2010PropOp53
 70
     1
102
RTVSPost2010Prop54
  1
strokes_ogs.tif
102
RTVSPost2010PropOp54
 70
     1
102
RTVSPost2010Prop55
280
     0
102
RTVSPost2010PropOp55
 70
     1
102
RTVSPost2010Prop56
140
1.0
102
RTVSPost2010PropOp56
 70
     1
102
RTVSPost2010Prop57
140
1.0
102
RTVSPost2010PropOp57
 70
     1
  0
XRECORD
  5
3D0
102
{ACAD_REACTORS
330
3CF
102
}
330
3CF
100
AcDbXrecord
280
     1
102
RTVSPropertyOp0
 70
     1
102
RTVSPropertyOp1
 70
     1
102
RTVSPropertyOp2
 70
     1
102
RTVSPropertyOp3
 70
     1
102
RTVSPropertyOp4
 70
     1
102
RTVSPropertyOp5
 70
     1
102
RTVSPropertyOp6
 70
     1
102
RTVSPropertyOp7
 70
     1
102
RTVSPropertyOp8
 70
     1
102
RTVSPropertyOp9
 70
     1
102
RTVSPropertyOp10
 70
     1
102
RTVSPropertyOp11
 70
     1
102
RTVSPropertyOp12
 70
     1
102
RTVSPropertyOp13
 70
     1
102
RTVSPropertyOp14
 70
     1
102
RTVSPropertyOp15
 70
     1
102
RTVSPropertyOp16
 70
     1
102
RTVSPropertyOp17
 70
     1
102
RTVSPropertyOp18
 70
     1
102
RTVSPropertyOp19
 70
     1
102
RTVSPropertyOp20
 70
     1
102
RTVSPropertyOp21
 70
     1
102
RTVSPropertyOp22
 70
     1
102
RTVSPropertyOp23
 70
     1
102
RTVSPropertyOp24
 70
     1
102
RTVSPropertyOp25
 70
     1
102
RTVSPropertyOp26
 70
     1
102
RTVSPropertyOp27
 70
     1
102
RTVSPropertyOp28
 70
     1
102
RTVSPropertyOp29
 70
     1
102
RTVSPropertyOp30
 70
     1
102
RTVSPropertyOp31
 70
     1
102
RTVSPropertyOp32
 70
     1
102
RTVSPropertyOp33
 70
     1
102
RTVSPropertyOp34
 70
     1
102
RTVSPropertyOp35
 70
     1
102
RTVSPropertyOp36
 70
     1
102
RTVSPropertyOp37
 70
     1
102
RTVSPropertyOp38
 70
     1
102
RTVSPropertyOp39
 70
     1
102
RTVSPropertyOp40
 70
     1
102
RTVSPropertyOp41
 70
     1
102
RTVSPropertyOp42
 70
     1
102
RTVSPropertyOp43
 70
     1
102
RTVSPropertyOp44
 70
     1
102
RTVSPropertyOp45
 70
     1
102
RTVSPropertyOp46
 70
     1
102
RTVSPropertyOp47
 70
     1
102
RTVSPropertyOp48
 70
     1
102
RTVSPropertyOp49
 70
     1
102
RTVSPropertyOp50
 70
     1
102
RTVSPropertyOp51
 70
     0
102
RTVSPropertyOp52
 70
     0
102
RTVSPropertyOp53
 70
     1
102
RTVSPropertyOp54
 70
     1
102
RTVSPropertyOp55
 70
     1
102
RTVSPropertyOp56
 70
     1
102
RTVSPropertyOp57
 70
     1
102
RTVSPost2010Prop28
280
     0
102
RTVSPost2010PropOp28
 70
     1
102
RTVSPost2010Prop29
280
     1
102
RTVSPost2010PropOp29
 70
     1
102
RTVSPost2010Prop30
280
     1
102
RTVSPost2010PropOp30
 70
     1
102
RTVSPost2010Prop31
280
     0
102
RTVSPost2010PropOp31
 70
     1
102
RTVSPost2010Prop32
280
     0
102
RTVSPost2010PropOp32
 70
     1
102
RTVSPost2010Prop33
280
     0
102
RTVSPost2010PropOp33
 70
     1
102
RTVSPost2010Prop34
280
     0
102
RTVSPost2010PropOp34
 70
     1
102
RTVSPost2010Prop35
280
     0
102
RTVSPost2010PropOp35
 70
     1
102
RTVSPost2010Prop36
280
     0
102
RTVSPost2010PropOp36
 70
     1
102
RTVSPost2010Prop37
 90
       50
102
RTVSPost2010PropOp37
 70
     1
102
RTVSPost2010Prop38
140
0.0
102
RTVSPost2010PropOp38
 70
     1
102
RTVSPost2010Prop39
140
1.0
102
RTVSPost2010PropOp39
 70
     1
102
RTVSPost2010Prop40
 90
        0
102
RTVSPost2010PropOp40
 70
     1
102
RTVSPost2010Prop41ColorIndex
 90
       18
102
RTVSPost2010Prop41ColorRGB
 90
        0
102
RTVSPost2010PropOp41
 70
     1
102
RTVSPost2010Prop42
 90
       50
102
RTVSPost2010PropOp42
 70
     1
102
RTVSPost2010Prop43
 90
        3
102
RTVSPost2010PropOp43
 70
     1
102
RTVSPost2010Prop44ColorIndex
 90
        5
102
RTVSPost2010Prop44ColorRGB
 90
      255
102
RTVSPost2010PropOp44
 70
     1
102
RTVSPost2010Prop45
280
     0
102
RTVSPost2010PropOp45
 70
     1
102
RTVSPost2010Prop46
 90
       50
102
RTVSPost2010PropOp46
 70
     1
102
RTVSPost2010Prop47
 90
       50
102
RTVSPost2010PropOp47
 70
     1
102
RTVSPost2010Prop48
 90
       50
102
RTVSPost2010PropOp48
 70
     1
102
RTVSPost2010Prop49
280
     0
102
RTVSPost2010PropOp49
 70
     1
102
RTVSPost2010Prop50
 90
       50
102
RTVSPost2010PropOp50
 70
     1
102
RTVSPost2010Prop51ColorIndex
 90
      256
102
RTVSPost2010Prop51ColorRGB
 90
-16777216
102
RTVSPost2010PropOp51
 70
     0
102
RTVSPost2010Prop52
140
1.0
102
RTVSPost2010PropOp52
 70
     0
102
RTVSPost2010Prop53
 90
        2
102
RTVSPost2010PropOp53
 70
     1
102
RTVSPost2010Prop54
  1
strokes_ogs.tif
102
RTVSPost2010PropOp54
 70
     1
102
RTVSPost2010Prop55
280
     0
102
RTVSPost2010PropOp55
 70
     1
102
RTVSPost2010Prop56
140
1.0
102
RTVSPost2010PropOp56
 70
     1
102
RTVSPost2010Prop57
140
1.0
102
RTVSPost2010PropOp57
 70
     1
  0
XRECORD
  5
3D2
102
{ACAD_REACTORS
330
3D1
102
}
330
3D1
100
AcDbXrecord
280
     1
102
RTVSPropertyOp0
 70
     1
102
RTVSPropertyOp1
 70
     1
102
RTVSPropertyOp2
 70
     1
102
RTVSPropertyOp3
 70
     1
102
RTVSPropertyOp4
 70
     1
102
RTVSPropertyOp5
 70
     1
102
RTVSPropertyOp6
 70
     1
102
RTVSPropertyOp7
 70
     1
102
RTVSPropertyOp8
 70
     1
102
RTVSPropertyOp9
 70
     1
102
RTVSPropertyOp10
 70
     1
102
RTVSPropertyOp11
 70
     1
102
RTVSPropertyOp12
 70
     1
102
RTVSPropertyOp13
 70
     1
102
RTVSPropertyOp14
 70
     1
102
RTVSPropertyOp15
 70
     1
102
RTVSPropertyOp16
 70
     1
102
RTVSPropertyOp17
 70
     1
102
RTVSPropertyOp18
 70
     1
102
RTVSPropertyOp19
 70
     1
102
RTVSPropertyOp20
 70
     1
102
RTVSPropertyOp21
 70
     1
102
RTVSPropertyOp22
 70
     1
102
RTVSPropertyOp23
 70
     1
102
RTVSPropertyOp24
 70
     1
102
RTVSPropertyOp25
 70
     1
102
RTVSPropertyOp26
 70
     1
102
RTVSPropertyOp27
 70
     1
102
RTVSPropertyOp28
 70
     1
102
RTVSPropertyOp29
 70
     1
102
RTVSPropertyOp30
 70
     1
102
RTVSPropertyOp31
 70
     1
102
RTVSPropertyOp32
 70
     1
102
RTVSPropertyOp33
 70
     1
102
RTVSPropertyOp34
 70
     1
102
RTVSPropertyOp35
 70
     1
102
RTVSPropertyOp36
 70
     1
102
RTVSPropertyOp37
 70
     1
102
RTVSPropertyOp38
 70
     1
102
RTVSPropertyOp39
 70
     1
102
RTVSPropertyOp40
 70
     1
102
RTVSPropertyOp41
 70
     1
102
RTVSPropertyOp42
 70
     1
102
RTVSPropertyOp43
 70
     1
102
RTVSPropertyOp44
 70
     1
102
RTVSPropertyOp45
 70
     1
102
RTVSPropertyOp46
 70
     1
102
RTVSPropertyOp47
 70
     1
102
RTVSPropertyOp48
 70
     1
102
RTVSPropertyOp49
 70
     1
102
RTVSPropertyOp50
 70
     1
102
RTVSPropertyOp51
 70
     0
102
RTVSPropertyOp52
 70
     0
102
RTVSPropertyOp53
 70
     1
102
RTVSPropertyOp54
 70
     1
102
RTVSPropertyOp55
 70
     1
102
RTVSPropertyOp56
 70
     1
102
RTVSPropertyOp57
 70
     1
102
RTVSPost2010Prop28
280
     0
102
RTVSPost2010PropOp28
 70
     1
102
RTVSPost2010Prop29
280
     1
102
RTVSPost2010PropOp29
 70
     1
102
RTVSPost2010Prop30
280
     1
102
RTVSPost2010PropOp30
 70
     1
102
RTVSPost2010Prop31
280
     0
102
RTVSPost2010PropOp31
 70
     1
102
RTVSPost2010Prop32
280
     0
102
RTVSPost2010PropOp32
 70
     1
102
RTVSPost2010Prop33
280
     0
102
RTVSPost2010PropOp33
 70
     1
102
RTVSPost2010Prop34
280
     0
102
RTVSPost2010PropOp34
 70
     1
102
RTVSPost2010Prop35
280
     0
102
RTVSPost2010PropOp35
 70
     1
102
RTVSPost2010Prop36
280
     0
102
RTVSPost2010PropOp36
 70
     1
102
RTVSPost2010Prop37
 90
       50
102
RTVSPost2010PropOp37
 70
     1
102
RTVSPost2010Prop38
140
0.0
102
RTVSPost2010PropOp38
 70
     1
102
RTVSPost2010Prop39
140
1.0
102
RTVSPost2010PropOp39
 70
     1
102
RTVSPost2010Prop40
 90
        0
102
RTVSPost2010PropOp40
 70
     1
102
RTVSPost2010Prop41ColorIndex
 90
       18
102
RTVSPost2010Prop41ColorRGB
 90
        0
102
RTVSPost2010PropOp41
 70
     1
102
RTVSPost2010Prop42
 90
       50
102
RTVSPost2010PropOp42
 70
     1
102
RTVSPost2010Prop43
 90
        3
102
RTVSPost2010PropOp43
 70
     1
102
RTVSPost2010Prop44ColorIndex
 90
        5
102
RTVSPost2010Prop44ColorRGB
 90
      255
102
RTVSPost2010PropOp44
 70
     1
102
RTVSPost2010Prop45
280
     0
102
RTVSPost2010PropOp45
 70
     1
102
RTVSPost2010Prop46
 90
       50
102
RTVSPost2010PropOp46
 70
     1
102
RTVSPost2010Prop47
 90
       50
102
RTVSPost2010PropOp47
 70
     1
102
RTVSPost2010Prop48
 90
       50
102
RTVSPost2010PropOp48
 70
     1
102
RTVSPost2010Prop49
280
     0
102
RTVSPost2010PropOp49
 70
     1
102
RTVSPost2010Prop50
 90
       50
102
RTVSPost2010PropOp50
 70
     1
102
RTVSPost2010Prop51ColorIndex
 90
      256
102
RTVSPost2010Prop51ColorRGB
 90
-16777216
102
RTVSPost2010PropOp51
 70
     0
102
RTVSPost2010Prop52
140
1.0
102
RTVSPost2010PropOp52
 70
     0
102
RTVSPost2010Prop53
 90
        2
102
RTVSPost2010PropOp53
 70
     1
102
RTVSPost2010Prop54
  1
strokes_ogs.tif
102
RTVSPost2010PropOp54
 70
     1
102
RTVSPost2010Prop55
280
     0
102
RTVSPost2010PropOp55
 70
     1
102
RTVSPost2010Prop56
140
1.0
102
RTVSPost2010PropOp56
 70
     1
102
RTVSPost2010Prop57
140
1.0
102
RTVSPost2010PropOp57
 70
     1
  0
XRECORD
  5
3D4
102
{ACAD_REACTORS
330
3D3
102
}
330
3D3
100
AcDbXrecord
280
     1
102
RTVSPropertyOp0
 70
     1
102
RTVSPropertyOp1
 70
     1
102
RTVSPropertyOp2
 70
     1
102
RTVSPropertyOp3
 70
     1
102
RTVSPropertyOp4
 70
     1
102
RTVSPropertyOp5
 70
     1
102
RTVSPropertyOp6
 70
     1
102
RTVSPropertyOp7
 70
     1
102
RTVSPropertyOp8
 70
     1
102
RTVSPropertyOp9
 70
     1
102
RTVSPropertyOp10
 70
     1
102
RTVSPropertyOp11
 70
     1
102
RTVSPropertyOp12
 70
     1
102
RTVSPropertyOp13
 70
     1
102
RTVSPropertyOp14
 70
     1
102
RTVSPropertyOp15
 70
     1
102
RTVSPropertyOp16
 70
     1
102
RTVSPropertyOp17
 70
     1
102
RTVSPropertyOp18
 70
     1
102
RTVSPropertyOp19
 70
     1
102
RTVSPropertyOp20
 70
     1
102
RTVSPropertyOp21
 70
     1
102
RTVSPropertyOp22
 70
     1
102
RTVSPropertyOp23
 70
     1
102
RTVSPropertyOp24
 70
     1
102
RTVSPropertyOp25
 70
     1
102
RTVSPropertyOp26
 70
     1
102
RTVSPropertyOp27
 70
     1
102
RTVSPropertyOp28
 70
     1
102
RTVSPropertyOp29
 70
     1
102
RTVSPropertyOp30
 70
     1
102
RTVSPropertyOp31
 70
     1
102
RTVSPropertyOp32
 70
     1
102
RTVSPropertyOp33
 70
     1
102
RTVSPropertyOp34
 70
     1
102
RTVSPropertyOp35
 70
     1
102
RTVSPropertyOp36
 70
     1
102
RTVSPropertyOp37
 70
     1
102
RTVSPropertyOp38
 70
     1
102
RTVSPropertyOp39
 70
     1
102
RTVSPropertyOp40
 70
     1
102
RTVSPropertyOp41
 70
     1
102
RTVSPropertyOp42
 70
     1
102
RTVSPropertyOp43
 70
     1
102
RTVSPropertyOp44
 70
     1
102
RTVSPropertyOp45
 70
     1
102
RTVSPropertyOp46
 70
     1
102
RTVSPropertyOp47
 70
     1
102
RTVSPropertyOp48
 70
     1
102
RTVSPropertyOp49
 70
     1
102
RTVSPropertyOp50
 70
     1
102
RTVSPropertyOp51
 70
     0
102
RTVSPropertyOp52
 70
     0
102
RTVSPropertyOp53
 70
     1
102
RTVSPropertyOp54
 70
     1
102
RTVSPropertyOp55
 70
     1
102
RTVSPropertyOp56
 70
     1
102
RTVSPropertyOp57
 70
     1
102
RTVSPost2010Prop28
280
     0
102
RTVSPost2010PropOp28
 70
     1
102
RTVSPost2010Prop29
280
     1
102
RTVSPost2010PropOp29
 70
     1
102
RTVSPost2010Prop30
280
     1
102
RTVSPost2010PropOp30
 70
     1
102
RTVSPost2010Prop31
280
     0
102
RTVSPost2010PropOp31
 70
     1
102
RTVSPost2010Prop32
280
     0
102
RTVSPost2010PropOp32
 70
     1
102
RTVSPost2010Prop33
280
     0
102
RTVSPost2010PropOp33
 70
     1
102
RTVSPost2010Prop34
280
     0
102
RTVSPost2010PropOp34
 70
     1
102
RTVSPost2010Prop35
280
     0
102
RTVSPost2010PropOp35
 70
     1
102
RTVSPost2010Prop36
280
     0
102
RTVSPost2010PropOp36
 70
     1
102
RTVSPost2010Prop37
 90
       50
102
RTVSPost2010PropOp37
 70
     1
102
RTVSPost2010Prop38
140
0.0
102
RTVSPost2010PropOp38
 70
     1
102
RTVSPost2010Prop39
140
1.0
102
RTVSPost2010PropOp39
 70
     1
102
RTVSPost2010Prop40
 90
        0
102
RTVSPost2010PropOp40
 70
     1
102
RTVSPost2010Prop41ColorIndex
 90
       18
102
RTVSPost2010Prop41ColorRGB
 90
        0
102
RTVSPost2010PropOp41
 70
     1
102
RTVSPost2010Prop42
 90
       50
102
RTVSPost2010PropOp42
 70
     1
102
RTVSPost2010Prop43
 90
        3
102
RTVSPost2010PropOp43
 70
     1
102
RTVSPost2010Prop44ColorIndex
 90
        5
102
RTVSPost2010Prop44ColorRGB
 90
      255
102
RTVSPost2010PropOp44
 70
     1
102
RTVSPost2010Prop45
280
     0
102
RTVSPost2010PropOp45
 70
     1
102
RTVSPost2010Prop46
 90
       50
102
RTVSPost2010PropOp46
 70
     1
102
RTVSPost2010Prop47
 90
       50
102
RTVSPost2010PropOp47
 70
     1
102
RTVSPost2010Prop48
 90
       50
102
RTVSPost2010PropOp48
 70
     1
102
RTVSPost2010Prop49
280
     0
102
RTVSPost2010PropOp49
 70
     1
102
RTVSPost2010Prop50
 90
       50
102
RTVSPost2010PropOp50
 70
     1
102
RTVSPost2010Prop51ColorIndex
 90
      256
102
RTVSPost2010Prop51ColorRGB
 90
-16777216
102
RTVSPost2010PropOp51
 70
     0
102
RTVSPost2010Prop52
140
1.0
102
RTVSPost2010PropOp52
 70
     0
102
RTVSPost2010Prop53
 90
        2
102
RTVSPost2010PropOp53
 70
     1
102
RTVSPost2010Prop54
  1
strokes_ogs.tif
102
RTVSPost2010PropOp54
 70
     1
102
RTVSPost2010Prop55
280
     0
102
RTVSPost2010PropOp55
 70
     1
102
RTVSPost2010Prop56
140
1.0
102
RTVSPost2010PropOp56
 70
     1
102
RTVSPost2010Prop57
140
1.0
102
RTVSPost2010PropOp57
 70
     1
  0
XRECORD
  5
3DA
102
{ACAD_REACTORS
330
3D9
102
}
330
3D9
100
AcDbXrecord
280
     1
102
RTVSPropertyOp0
 70
     1
102
RTVSPropertyOp1
 70
     1
102
RTVSPropertyOp2
 70
     1
102
RTVSPropertyOp3
 70
     1
102
RTVSPropertyOp4
 70
     1
102
RTVSPropertyOp5
 70
     1
102
RTVSPropertyOp6
 70
     1
102
RTVSPropertyOp7
 70
     1
102
RTVSPropertyOp8
 70
     1
102
RTVSPropertyOp9
 70
     1
102
RTVSPropertyOp10
 70
     1
102
RTVSPropertyOp11
 70
     1
102
RTVSPropertyOp12
 70
     1
102
RTVSPropertyOp13
 70
     1
102
RTVSPropertyOp14
 70
     1
102
RTVSPropertyOp15
 70
     1
102
RTVSPropertyOp16
 70
     1
102
RTVSPropertyOp17
 70
     1
102
RTVSPropertyOp18
 70
     1
102
RTVSPropertyOp19
 70
     1
102
RTVSPropertyOp20
 70
     1
102
RTVSPropertyOp21
 70
     1
102
RTVSPropertyOp22
 70
     1
102
RTVSPropertyOp23
 70
     1
102
RTVSPropertyOp24
 70
     1
102
RTVSPropertyOp25
 70
     1
102
RTVSPropertyOp26
 70
     1
102
RTVSPropertyOp27
 70
     1
102
RTVSPropertyOp28
 70
     1
102
RTVSPropertyOp29
 70
     1
102
RTVSPropertyOp30
 70
     1
102
RTVSPropertyOp31
 70
     1
102
RTVSPropertyOp32
 70
     1
102
RTVSPropertyOp33
 70
     1
102
RTVSPropertyOp34
 70
     1
102
RTVSPropertyOp35
 70
     1
102
RTVSPropertyOp36
 70
     1
102
RTVSPropertyOp37
 70
     1
102
RTVSPropertyOp38
 70
     1
102
RTVSPropertyOp39
 70
     1
102
RTVSPropertyOp40
 70
     1
102
RTVSPropertyOp41
 70
     1
102
RTVSPropertyOp42
 70
     1
102
RTVSPropertyOp43
 70
     1
102
RTVSPropertyOp44
 70
     1
102
RTVSPropertyOp45
 70
     1
102
RTVSPropertyOp46
 70
     1
102
RTVSPropertyOp47
 70
     1
102
RTVSPropertyOp48
 70
     1
102
RTVSPropertyOp49
 70
     1
102
RTVSPropertyOp50
 70
     1
102
RTVSPropertyOp51
 70
     0
102
RTVSPropertyOp52
 70
     0
102
RTVSPropertyOp53
 70
     1
102
RTVSPropertyOp54
 70
     1
102
RTVSPropertyOp55
 70
     1
102
RTVSPropertyOp56
 70
     1
102
RTVSPropertyOp57
 70
     1
102
RTVSPost2010Prop28
280
     0
102
RTVSPost2010PropOp28
 70
     1
102
RTVSPost2010Prop29
280
     1
102
RTVSPost2010PropOp29
 70
     1
102
RTVSPost2010Prop30
280
     1
102
RTVSPost2010PropOp30
 70
     1
102
RTVSPost2010Prop31
280
     0
102
RTVSPost2010PropOp31
 70
     1
102
RTVSPost2010Prop32
280
     0
102
RTVSPost2010PropOp32
 70
     1
102
RTVSPost2010Prop33
280
     0
102
RTVSPost2010PropOp33
 70
     1
102
RTVSPost2010Prop34
280
     0
102
RTVSPost2010PropOp34
 70
     1
102
RTVSPost2010Prop35
280
     0
102
RTVSPost2010PropOp35
 70
     1
102
RTVSPost2010Prop36
280
     0
102
RTVSPost2010PropOp36
 70
     1
102
RTVSPost2010Prop37
 90
       50
102
RTVSPost2010PropOp37
 70
     1
102
RTVSPost2010Prop38
140
0.0
102
RTVSPost2010PropOp38
 70
     1
102
RTVSPost2010Prop39
140
1.0
102
RTVSPost2010PropOp39
 70
     1
102
RTVSPost2010Prop40
 90
        0
102
RTVSPost2010PropOp40
 70
     1
102
RTVSPost2010Prop41ColorIndex
 90
       18
102
RTVSPost2010Prop41ColorRGB
 90
        0
102
RTVSPost2010PropOp41
 70
     1
102
RTVSPost2010Prop42
 90
       50
102
RTVSPost2010PropOp42
 70
     1
102
RTVSPost2010Prop43
 90
        3
102
RTVSPost2010PropOp43
 70
     1
102
RTVSPost2010Prop44ColorIndex
 90
        5
102
RTVSPost2010Prop44ColorRGB
 90
      255
102
RTVSPost2010PropOp44
 70
     1
102
RTVSPost2010Prop45
280
     0
102
RTVSPost2010PropOp45
 70
     1
102
RTVSPost2010Prop46
 90
       50
102
RTVSPost2010PropOp46
 70
     1
102
RTVSPost2010Prop47
 90
       50
102
RTVSPost2010PropOp47
 70
     1
102
RTVSPost2010Prop48
 90
       50
102
RTVSPost2010PropOp48
 70
     1
102
RTVSPost2010Prop49
280
     0
102
RTVSPost2010PropOp49
 70
     1
102
RTVSPost2010Prop50
 90
       50
102
RTVSPost2010PropOp50
 70
     1
102
RTVSPost2010Prop51ColorIndex
 90
      256
102
RTVSPost2010Prop51ColorRGB
 90
-16777216
102
RTVSPost2010PropOp51
 70
     0
102
RTVSPost2010Prop52
140
1.0
102
RTVSPost2010PropOp52
 70
     0
102
RTVSPost2010Prop53
 90
        2
102
RTVSPost2010PropOp53
 70
     1
102
RTVSPost2010Prop54
  1
strokes_ogs.tif
102
RTVSPost2010PropOp54
 70
     1
102
RTVSPost2010Prop55
280
     0
102
RTVSPost2010PropOp55
 70
     1
102
RTVSPost2010Prop56
140
1.0
102
RTVSPost2010PropOp56
 70
     1
102
RTVSPost2010Prop57
140
1.0
102
RTVSPost2010PropOp57
 70
     1
  0
XRECORD
  5
3EE
102
{ACAD_REACTORS
330
3ED
102
}
330
3ED
100
AcDbXrecord
280
     1
102
RTVSPropertyOp0
 70
     0
102
RTVSPropertyOp1
 70
     0
102
RTVSPropertyOp2
 70
     0
102
RTVSPropertyOp3
 70
     0
102
RTVSPropertyOp4
 70
     0
102
RTVSPropertyOp5
 70
     0
102
RTVSPropertyOp6
 70
     0
102
RTVSPropertyOp7
 70
     0
102
RTVSPropertyOp8
 70
     0
102
RTVSPropertyOp9
 70
     0
102
RTVSPropertyOp10
 70
     0
102
RTVSPropertyOp11
 70
     0
102
RTVSPropertyOp12
 70
     0
102
RTVSPropertyOp13
 70
     0
102
RTVSPropertyOp14
 70
     2
102
RTVSPropertyOp15
 70
     0
102
RTVSPropertyOp16
 70
     0
102
RTVSPropertyOp17
 70
     0
102
RTVSPropertyOp18
 70
     0
102
RTVSPropertyOp19
 70
     0
102
RTVSPropertyOp20
 70
     0
102
RTVSPropertyOp21
 70
     0
102
RTVSPropertyOp22
 70
     0
102
RTVSPropertyOp23
 70
     0
102
RTVSPropertyOp24
 70
     0
102
RTVSPropertyOp25
 70
     0
102
RTVSPropertyOp26
 70
     0
102
RTVSPropertyOp27
 70
     0
102
RTVSPropertyOp28
 70
     0
102
RTVSPropertyOp29
 70
     0
102
RTVSPropertyOp30
 70
     0
102
RTVSPropertyOp31
 70
     0
102
RTVSPropertyOp32
 70
     0
102
RTVSPropertyOp33
 70
     0
102
RTVSPropertyOp34
 70
     0
102
RTVSPropertyOp35
 70
     0
102
RTVSPropertyOp36
 70
     0
102
RTVSPropertyOp37
 70
     0
102
RTVSPropertyOp38
 70
     0
102
RTVSPropertyOp39
 70
     0
102
RTVSPropertyOp40
 70
     0
102
RTVSPropertyOp41
 70
     0
102
RTVSPropertyOp42
 70
     0
102
RTVSPropertyOp43
 70
     0
102
RTVSPropertyOp44
 70
     0
102
RTVSPropertyOp45
 70
     0
102
RTVSPropertyOp46
 70
     0
102
RTVSPropertyOp47
 70
     0
102
RTVSPropertyOp48
 70
     0
102
RTVSPropertyOp49
 70
     0
102
RTVSPropertyOp50
 70
     0
102
RTVSPropertyOp51
 70
     0
102
RTVSPropertyOp52
 70
     0
102
RTVSPropertyOp53
 70
     0
102
RTVSPropertyOp54
 70
     0
102
RTVSPropertyOp55
 70
     0
102
RTVSPropertyOp56
 70
     0
102
RTVSPropertyOp57
 70
     0
102
RTVSPost2010Prop28
280
     0
102
RTVSPost2010PropOp28
 70
     0
102
RTVSPost2010Prop29
280
     1
102
RTVSPost2010PropOp29
 70
     0
102
RTVSPost2010Prop30
280
     1
102
RTVSPost2010PropOp30
 70
     0
102
RTVSPost2010Prop31
280
     0
102
RTVSPost2010PropOp31
 70
     0
102
RTVSPost2010Prop32
280
     0
102
RTVSPost2010PropOp32
 70
     0
102
RTVSPost2010Prop33
280
     0
102
RTVSPost2010PropOp33
 70
     0
102
RTVSPost2010Prop34
280
     0
102
RTVSPost2010PropOp34
 70
     0
102
RTVSPost2010Prop35
280
     0
102
RTVSPost2010PropOp35
 70
     0
102
RTVSPost2010Prop36
280
     0
102
RTVSPost2010PropOp36
 70
     0
102
RTVSPost2010Prop37
 90
       50
102
RTVSPost2010PropOp37
 70
     0
102
RTVSPost2010Prop38
140
0.0
102
RTVSPost2010PropOp38
 70
     0
102
RTVSPost2010Prop39
140
1.0
102
RTVSPost2010PropOp39
 70
     0
102
RTVSPost2010Prop40
 90
        0
102
RTVSPost2010PropOp40
 70
     0
102
RTVSPost2010Prop41ColorIndex
 90
       18
102
RTVSPost2010Prop41ColorRGB
 90
        0
102
RTVSPost2010PropOp41
 70
     0
102
RTVSPost2010Prop42
 90
       50
102
RTVSPost2010PropOp42
 70
     0
102
RTVSPost2010Prop43
 90
        3
102
RTVSPost2010PropOp43
 70
     0
102
RTVSPost2010Prop44ColorIndex
 90
        5
102
RTVSPost2010Prop44ColorRGB
 90
      255
102
RTVSPost2010PropOp44
 70
     0
102
RTVSPost2010Prop45
280
     0
102
RTVSPost2010PropOp45
 70
     0
102
RTVSPost2010Prop46
 90
       50
102
RTVSPost2010PropOp46
 70
     0
102
RTVSPost2010Prop47
 90
       50
102
RTVSPost2010PropOp47
 70
     0
102
RTVSPost2010Prop48
 90
       50
102
RTVSPost2010PropOp48
 70
     0
102
RTVSPost2010Prop49
280
     0
102
RTVSPost2010PropOp49
 70
     0
102
RTVSPost2010Prop50
 90
       50
102
RTVSPost2010PropOp50
 70
     0
102
RTVSPost2010Prop51ColorIndex
 90
      256
102
RTVSPost2010Prop51ColorRGB
 90
-16777216
102
RTVSPost2010PropOp51
 70
     0
102
RTVSPost2010Prop52
140
1.0
102
RTVSPost2010PropOp52
 70
     0
102
RTVSPost2010Prop53
 90
        2
102
RTVSPost2010PropOp53
 70
     0
102
RTVSPost2010Prop54
  1
strokes_ogs.tif
102
RTVSPost2010PropOp54
 70
     0
102
RTVSPost2010Prop55
280
     0
102
RTVSPost2010PropOp55
 70
     0
102
RTVSPost2010Prop56
140
1.0
102
RTVSPost2010PropOp56
 70
     0
102
RTVSPost2010Prop57
140
1.0
102
RTVSPost2010PropOp57
 70
     0
  0
XRECORD
  5
3E8
102
{ACAD_REACTORS
330
3E7
102
}
330
3E7
100
AcDbXrecord
280
     1
102
RTVSPropertyOp0
 70
     1
102
RTVSPropertyOp1
 70
     1
102
RTVSPropertyOp2
 70
     1
102
RTVSPropertyOp3
 70
     1
102
RTVSPropertyOp4
 70
     1
102
RTVSPropertyOp5
 70
     1
102
RTVSPropertyOp6
 70
     1
102
RTVSPropertyOp7
 70
     1
102
RTVSPropertyOp8
 70
     1
102
RTVSPropertyOp9
 70
     1
102
RTVSPropertyOp10
 70
     1
102
RTVSPropertyOp11
 70
     1
102
RTVSPropertyOp12
 70
     1
102
RTVSPropertyOp13
 70
     1
102
RTVSPropertyOp14
 70
     1
102
RTVSPropertyOp15
 70
     1
102
RTVSPropertyOp16
 70
     1
102
RTVSPropertyOp17
 70
     1
102
RTVSPropertyOp18
 70
     1
102
RTVSPropertyOp19
 70
     1
102
RTVSPropertyOp20
 70
     1
102
RTVSPropertyOp21
 70
     1
102
RTVSPropertyOp22
 70
     1
102
RTVSPropertyOp23
 70
     1
102
RTVSPropertyOp24
 70
     1
102
RTVSPropertyOp25
 70
     1
102
RTVSPropertyOp26
 70
     1
102
RTVSPropertyOp27
 70
     1
102
RTVSPropertyOp28
 70
     1
102
RTVSPropertyOp29
 70
     1
102
RTVSPropertyOp30
 70
     1
102
RTVSPropertyOp31
 70
     1
102
RTVSPropertyOp32
 70
     1
102
RTVSPropertyOp33
 70
     1
102
RTVSPropertyOp34
 70
     1
102
RTVSPropertyOp35
 70
     1
102
RTVSPropertyOp36
 70
     1
102
RTVSPropertyOp37
 70
     1
102
RTVSPropertyOp38
 70
     1
102
RTVSPropertyOp39
 70
     1
102
RTVSPropertyOp40
 70
     1
102
RTVSPropertyOp41
 70
     1
102
RTVSPropertyOp42
 70
     1
102
RTVSPropertyOp43
 70
     1
102
RTVSPropertyOp44
 70
     1
102
RTVSPropertyOp45
 70
     1
102
RTVSPropertyOp46
 70
     1
102
RTVSPropertyOp47
 70
     1
102
RTVSPropertyOp48
 70
     1
102
RTVSPropertyOp49
 70
     1
102
RTVSPropertyOp50
 70
     1
102
RTVSPropertyOp51
 70
     0
102
RTVSPropertyOp52
 70
     0
102
RTVSPropertyOp53
 70
     1
102
RTVSPropertyOp54
 70
     1
102
RTVSPropertyOp55
 70
     1
102
RTVSPropertyOp56
 70
     1
102
RTVSPropertyOp57
 70
     1
102
RTVSPost2010Prop28
280
     0
102
RTVSPost2010PropOp28
 70
     1
102
RTVSPost2010Prop29
280
     1
102
RTVSPost2010PropOp29
 70
     1
102
RTVSPost2010Prop30
280
     1
102
RTVSPost2010PropOp30
 70
     1
102
RTVSPost2010Prop31
280
     0
102
RTVSPost2010PropOp31
 70
     1
102
RTVSPost2010Prop32
280
     0
102
RTVSPost2010PropOp32
 70
     1
102
RTVSPost2010Prop33
280
     0
102
RTVSPost2010PropOp33
 70
     1
102
RTVSPost2010Prop34
280
     0
102
RTVSPost2010PropOp34
 70
     1
102
RTVSPost2010Prop35
280
     0
102
RTVSPost2010PropOp35
 70
     1
102
RTVSPost2010Prop36
280
     0
102
RTVSPost2010PropOp36
 70
     1
102
RTVSPost2010Prop37
 90
       50
102
RTVSPost2010PropOp37
 70
     1
102
RTVSPost2010Prop38
140
0.0
102
RTVSPost2010PropOp38
 70
     1
102
RTVSPost2010Prop39
140
1.0
102
RTVSPost2010PropOp39
 70
     1
102
RTVSPost2010Prop40
 90
        0
102
RTVSPost2010PropOp40
 70
     1
102
RTVSPost2010Prop41ColorIndex
 90
       18
102
RTVSPost2010Prop41ColorRGB
 90
        0
102
RTVSPost2010PropOp41
 70
     1
102
RTVSPost2010Prop42
 90
       50
102
RTVSPost2010PropOp42
 70
     1
102
RTVSPost2010Prop43
 90
        3
102
RTVSPost2010PropOp43
 70
     1
102
RTVSPost2010Prop44ColorIndex
 90
        5
102
RTVSPost2010Prop44ColorRGB
 90
      255
102
RTVSPost2010PropOp44
 70
     1
102
RTVSPost2010Prop45
280
     0
102
RTVSPost2010PropOp45
 70
     1
102
RTVSPost2010Prop46
 90
       50
102
RTVSPost2010PropOp46
 70
     1
102
RTVSPost2010Prop47
 90
       50
102
RTVSPost2010PropOp47
 70
     1
102
RTVSPost2010Prop48
 90
       50
102
RTVSPost2010PropOp48
 70
     1
102
RTVSPost2010Prop49
280
     0
102
RTVSPost2010PropOp49
 70
     1
102
RTVSPost2010Prop50
 90
       50
102
RTVSPost2010PropOp50
 70
     1
102
RTVSPost2010Prop51ColorIndex
 90
      256
102
RTVSPost2010Prop51ColorRGB
 90
-16777216
102
RTVSPost2010PropOp51
 70
     0
102
RTVSPost2010Prop52
140
1.0
102
RTVSPost2010PropOp52
 70
     0
102
RTVSPost2010Prop53
 90
        2
102
RTVSPost2010PropOp53
 70
     1
102
RTVSPost2010Prop54
  1
strokes_ogs.tif
102
RTVSPost2010PropOp54
 70
     1
102
RTVSPost2010Prop55
280
     0
102
RTVSPost2010PropOp55
 70
     1
102
RTVSPost2010Prop56
140
1.0
102
RTVSPost2010PropOp56
 70
     1
102
RTVSPost2010Prop57
140
1.0
102
RTVSPost2010PropOp57
 70
     1
  0
XRECORD
  5
3F0
102
{ACAD_REACTORS
330
3EF
102
}
330
3EF
100
AcDbXrecord
280
     1
102
RTVSPropertyOp0
 70
     0
102
RTVSPropertyOp1
 70
     0
102
RTVSPropertyOp2
 70
     0
102
RTVSPropertyOp3
 70
     0
102
RTVSPropertyOp4
 70
     0
102
RTVSPropertyOp5
 70
     0
102
RTVSPropertyOp6
 70
     0
102
RTVSPropertyOp7
 70
     0
102
RTVSPropertyOp8
 70
     0
102
RTVSPropertyOp9
 70
     0
102
RTVSPropertyOp10
 70
     0
102
RTVSPropertyOp11
 70
     0
102
RTVSPropertyOp12
 70
     0
102
RTVSPropertyOp13
 70
     0
102
RTVSPropertyOp14
 70
     2
102
RTVSPropertyOp15
 70
     0
102
RTVSPropertyOp16
 70
     0
102
RTVSPropertyOp17
 70
     0
102
RTVSPropertyOp18
 70
     0
102
RTVSPropertyOp19
 70
     0
102
RTVSPropertyOp20
 70
     0
102
RTVSPropertyOp21
 70
     0
102
RTVSPropertyOp22
 70
     0
102
RTVSPropertyOp23
 70
     0
102
RTVSPropertyOp24
 70
     0
102
RTVSPropertyOp25
 70
     0
102
RTVSPropertyOp26
 70
     0
102
RTVSPropertyOp27
 70
     0
102
RTVSPropertyOp28
 70
     0
102
RTVSPropertyOp29
 70
     0
102
RTVSPropertyOp30
 70
     0
102
RTVSPropertyOp31
 70
     0
102
RTVSPropertyOp32
 70
     0
102
RTVSPropertyOp33
 70
     0
102
RTVSPropertyOp34
 70
     0
102
RTVSPropertyOp35
 70
     0
102
RTVSPropertyOp36
 70
     0
102
RTVSPropertyOp37
 70
     0
102
RTVSPropertyOp38
 70
     0
102
RTVSPropertyOp39
 70
     0
102
RTVSPropertyOp40
 70
     0
102
RTVSPropertyOp41
 70
     0
102
RTVSPropertyOp42
 70
     0
102
RTVSPropertyOp43
 70
     0
102
RTVSPropertyOp44
 70
     0
102
RTVSPropertyOp45
 70
     0
102
RTVSPropertyOp46
 70
     0
102
RTVSPropertyOp47
 70
     0
102
RTVSPropertyOp48
 70
     0
102
RTVSPropertyOp49
 70
     0
102
RTVSPropertyOp50
 70
     0
102
RTVSPropertyOp51
 70
     0
102
RTVSPropertyOp52
 70
     0
102
RTVSPropertyOp53
 70
     0
102
RTVSPropertyOp54
 70
     0
102
RTVSPropertyOp55
 70
     0
102
RTVSPropertyOp56
 70
     0
102
RTVSPropertyOp57
 70
     0
102
RTVSPost2010Prop28
280
     0
102
RTVSPost2010PropOp28
 70
     0
102
RTVSPost2010Prop29
280
     1
102
RTVSPost2010PropOp29
 70
     0
102
RTVSPost2010Prop30
280
     1
102
RTVSPost2010PropOp30
 70
     0
102
RTVSPost2010Prop31
280
     0
102
RTVSPost2010PropOp31
 70
     0
102
RTVSPost2010Prop32
280
     0
102
RTVSPost2010PropOp32
 70
     0
102
RTVSPost2010Prop33
280
     0
102
RTVSPost2010PropOp33
 70
     0
102
RTVSPost2010Prop34
280
     0
102
RTVSPost2010PropOp34
 70
     0
102
RTVSPost2010Prop35
280
     0
102
RTVSPost2010PropOp35
 70
     0
102
RTVSPost2010Prop36
280
     0
102
RTVSPost2010PropOp36
 70
     0
102
RTVSPost2010Prop37
 90
       50
102
RTVSPost2010PropOp37
 70
     0
102
RTVSPost2010Prop38
140
0.0
102
RTVSPost2010PropOp38
 70
     0
102
RTVSPost2010Prop39
140
1.0
102
RTVSPost2010PropOp39
 70
     0
102
RTVSPost2010Prop40
 90
        0
102
RTVSPost2010PropOp40
 70
     0
102
RTVSPost2010Prop41ColorIndex
 90
       18
102
RTVSPost2010Prop41ColorRGB
 90
        0
102
RTVSPost2010PropOp41
 70
     0
102
RTVSPost2010Prop42
 90
       50
102
RTVSPost2010PropOp42
 70
     0
102
RTVSPost2010Prop43
 90
        3
102
RTVSPost2010PropOp43
 70
     0
102
RTVSPost2010Prop44ColorIndex
 90
        5
102
RTVSPost2010Prop44ColorRGB
 90
      255
102
RTVSPost2010PropOp44
 70
     0
102
RTVSPost2010Prop45
280
     0
102
RTVSPost2010PropOp45
 70
     0
102
RTVSPost2010Prop46
 90
       50
102
RTVSPost2010PropOp46
 70
     0
102
RTVSPost2010Prop47
 90
       50
102
RTVSPost2010PropOp47
 70
     0
102
RTVSPost2010Prop48
 90
       50
102
RTVSPost2010PropOp48
 70
     0
102
RTVSPost2010Prop49
280
     0
102
RTVSPost2010PropOp49
 70
     0
102
RTVSPost2010Prop50
 90
       50
102
RTVSPost2010PropOp50
 70
     0
102
RTVSPost2010Prop51ColorIndex
 90
      256
102
RTVSPost2010Prop51ColorRGB
 90
-16777216
102
RTVSPost2010PropOp51
 70
     0
102
RTVSPost2010Prop52
140
1.0
102
RTVSPost2010PropOp52
 70
     0
102
RTVSPost2010Prop53
 90
        2
102
RTVSPost2010PropOp53
 70
     0
102
RTVSPost2010Prop54
  1
strokes_ogs.tif
102
RTVSPost2010PropOp54
 70
     0
102
RTVSPost2010Prop55
280
     0
102
RTVSPost2010PropOp55
 70
     0
102
RTVSPost2010Prop56
140
1.0
102
RTVSPost2010PropOp56
 70
     0
102
RTVSPost2010Prop57
140
1.0
102
RTVSPost2010PropOp57
 70
     0
  0
XRECORD
  5
3DE
102
{ACAD_REACTORS
330
3DD
102
}
330
3DD
100
AcDbXrecord
280
     1
102
RTVSPropertyOp0
 70
     1
102
RTVSPropertyOp1
 70
     1
102
RTVSPropertyOp2
 70
     1
102
RTVSPropertyOp3
 70
     1
102
RTVSPropertyOp4
 70
     1
102
RTVSPropertyOp5
 70
     1
102
RTVSPropertyOp6
 70
     1
102
RTVSPropertyOp7
 70
     1
102
RTVSPropertyOp8
 70
     1
102
RTVSPropertyOp9
 70
     1
102
RTVSPropertyOp10
 70
     1
102
RTVSPropertyOp11
 70
     1
102
RTVSPropertyOp12
 70
     1
102
RTVSPropertyOp13
 70
     1
102
RTVSPropertyOp14
 70
     1
102
RTVSPropertyOp15
 70
     1
102
RTVSPropertyOp16
 70
     1
102
RTVSPropertyOp17
 70
     1
102
RTVSPropertyOp18
 70
     1
102
RTVSPropertyOp19
 70
     1
102
RTVSPropertyOp20
 70
     1
102
RTVSPropertyOp21
 70
     1
102
RTVSPropertyOp22
 70
     1
102
RTVSPropertyOp23
 70
     1
102
RTVSPropertyOp24
 70
     1
102
RTVSPropertyOp25
 70
     1
102
RTVSPropertyOp26
 70
     1
102
RTVSPropertyOp27
 70
     1
102
RTVSPropertyOp28
 70
     1
102
RTVSPropertyOp29
 70
     1
102
RTVSPropertyOp30
 70
     1
102
RTVSPropertyOp31
 70
     1
102
RTVSPropertyOp32
 70
     1
102
RTVSPropertyOp33
 70
     1
102
RTVSPropertyOp34
 70
     1
102
RTVSPropertyOp35
 70
     1
102
RTVSPropertyOp36
 70
     1
102
RTVSPropertyOp37
 70
     1
102
RTVSPropertyOp38
 70
     1
102
RTVSPropertyOp39
 70
     1
102
RTVSPropertyOp40
 70
     1
102
RTVSPropertyOp41
 70
     1
102
RTVSPropertyOp42
 70
     1
102
RTVSPropertyOp43
 70
     1
102
RTVSPropertyOp44
 70
     1
102
RTVSPropertyOp45
 70
     1
102
RTVSPropertyOp46
 70
     1
102
RTVSPropertyOp47
 70
     1
102
RTVSPropertyOp48
 70
     1
102
RTVSPropertyOp49
 70
     1
102
RTVSPropertyOp50
 70
     1
102
RTVSPropertyOp51
 70
     0
102
RTVSPropertyOp52
 70
     0
102
RTVSPropertyOp53
 70
     1
102
RTVSPropertyOp54
 70
     1
102
RTVSPropertyOp55
 70
     1
102
RTVSPropertyOp56
 70
     1
102
RTVSPropertyOp57
 70
     1
102
RTVSPost2010Prop28
280
     0
102
RTVSPost2010PropOp28
 70
     1
102
RTVSPost2010Prop29
280
     1
102
RTVSPost2010PropOp29
 70
     1
102
RTVSPost2010Prop30
280
     1
102
RTVSPost2010PropOp30
 70
     1
102
RTVSPost2010Prop31
280
     0
102
RTVSPost2010PropOp31
 70
     1
102
RTVSPost2010Prop32
280
     0
102
RTVSPost2010PropOp32
 70
     1
102
RTVSPost2010Prop33
280
     0
102
RTVSPost2010PropOp33
 70
     1
102
RTVSPost2010Prop34
280
     0
102
RTVSPost2010PropOp34
 70
     1
102
RTVSPost2010Prop35
280
     0
102
RTVSPost2010PropOp35
 70
     1
102
RTVSPost2010Prop36
280
     0
102
RTVSPost2010PropOp36
 70
     1
102
RTVSPost2010Prop37
 90
       50
102
RTVSPost2010PropOp37
 70
     1
102
RTVSPost2010Prop38
140
0.0
102
RTVSPost2010PropOp38
 70
     1
102
RTVSPost2010Prop39
140
1.0
102
RTVSPost2010PropOp39
 70
     1
102
RTVSPost2010Prop40
 90
        0
102
RTVSPost2010PropOp40
 70
     1
102
RTVSPost2010Prop41ColorIndex
 90
       18
102
RTVSPost2010Prop41ColorRGB
 90
        0
102
RTVSPost2010PropOp41
 70
     1
102
RTVSPost2010Prop42
 90
       50
102
RTVSPost2010PropOp42
 70
     1
102
RTVSPost2010Prop43
 90
        3
102
RTVSPost2010PropOp43
 70
     1
102
RTVSPost2010Prop44ColorIndex
 90
        5
102
RTVSPost2010Prop44ColorRGB
 90
      255
102
RTVSPost2010PropOp44
 70
     1
102
RTVSPost2010Prop45
280
     0
102
RTVSPost2010PropOp45
 70
     1
102
RTVSPost2010Prop46
 90
       50
102
RTVSPost2010PropOp46
 70
     1
102
RTVSPost2010Prop47
 90
       50
102
RTVSPost2010PropOp47
 70
     1
102
RTVSPost2010Prop48
 90
       50
102
RTVSPost2010PropOp48
 70
     1
102
RTVSPost2010Prop49
280
     0
102
RTVSPost2010PropOp49
 70
     1
102
RTVSPost2010Prop50
 90
       50
102
RTVSPost2010PropOp50
 70
     1
102
RTVSPost2010Prop51ColorIndex
 90
      256
102
RTVSPost2010Prop51ColorRGB
 90
-16777216
102
RTVSPost2010PropOp51
 70
     0
102
RTVSPost2010Prop52
140
1.0
102
RTVSPost2010PropOp52
 70
     0
102
RTVSPost2010Prop53
 90
        2
102
RTVSPost2010PropOp53
 70
     1
102
RTVSPost2010Prop54
  1
strokes_ogs.tif
102
RTVSPost2010PropOp54
 70
     1
102
RTVSPost2010Prop55
280
     0
102
RTVSPost2010PropOp55
 70
     1
102
RTVSPost2010Prop56
140
1.0
102
RTVSPost2010PropOp56
 70
     1
102
RTVSPost2010Prop57
140
1.0
102
RTVSPost2010PropOp57
 70
     1
  0
XRECORD
  5
3FC
102
{ACAD_REACTORS
330
3FB
102
}
330
3FB
100
AcDbXrecord
280
     1
102
RTVSPropertyOp0
 70
     1
102
RTVSPropertyOp1
 70
     1
102
RTVSPropertyOp2
 70
     1
102
RTVSPropertyOp3
 70
     1
102
RTVSPropertyOp4
 70
     1
102
RTVSPropertyOp5
 70
     1
102
RTVSPropertyOp6
 70
     1
102
RTVSPropertyOp7
 70
     1
102
RTVSPropertyOp8
 70
     1
102
RTVSPropertyOp9
 70
     1
102
RTVSPropertyOp10
 70
     1
102
RTVSPropertyOp11
 70
     1
102
RTVSPropertyOp12
 70
     1
102
RTVSPropertyOp13
 70
     1
102
RTVSPropertyOp14
 70
     1
102
RTVSPropertyOp15
 70
     1
102
RTVSPropertyOp16
 70
     1
102
RTVSPropertyOp17
 70
     1
102
RTVSPropertyOp18
 70
     1
102
RTVSPropertyOp19
 70
     1
102
RTVSPropertyOp20
 70
     1
102
RTVSPropertyOp21
 70
     1
102
RTVSPropertyOp22
 70
     1
102
RTVSPropertyOp23
 70
     1
102
RTVSPropertyOp24
 70
     1
102
RTVSPropertyOp25
 70
     1
102
RTVSPropertyOp26
 70
     1
102
RTVSPropertyOp27
 70
     1
102
RTVSPropertyOp28
 70
     1
102
RTVSPropertyOp29
 70
     1
102
RTVSPropertyOp30
 70
     1
102
RTVSPropertyOp31
 70
     1
102
RTVSPropertyOp32
 70
     1
102
RTVSPropertyOp33
 70
     1
102
RTVSPropertyOp34
 70
     1
102
RTVSPropertyOp35
 70
     1
102
RTVSPropertyOp36
 70
     1
102
RTVSPropertyOp37
 70
     1
102
RTVSPropertyOp38
 70
     1
102
RTVSPropertyOp39
 70
     1
102
RTVSPropertyOp40
 70
     1
102
RTVSPropertyOp41
 70
     1
102
RTVSPropertyOp42
 70
     1
102
RTVSPropertyOp43
 70
     1
102
RTVSPropertyOp44
 70
     1
102
RTVSPropertyOp45
 70
     1
102
RTVSPropertyOp46
 70
     1
102
RTVSPropertyOp47
 70
     1
102
RTVSPropertyOp48
 70
     1
102
RTVSPropertyOp49
 70
     1
102
RTVSPropertyOp50
 70
     1
102
RTVSPropertyOp51
 70
     0
102
RTVSPropertyOp52
 70
     0
102
RTVSPropertyOp53
 70
     1
102
RTVSPropertyOp54
 70
     1
102
RTVSPropertyOp55
 70
     1
102
RTVSPropertyOp56
 70
     1
102
RTVSPropertyOp57
 70
     1
102
RTVSPost2010Prop28
280
     0
102
RTVSPost2010PropOp28
 70
     1
102
RTVSPost2010Prop29
280
     1
102
RTVSPost2010PropOp29
 70
     1
102
RTVSPost2010Prop30
280
     1
102
RTVSPost2010PropOp30
 70
     1
102
RTVSPost2010Prop31
280
     0
102
RTVSPost2010PropOp31
 70
     1
102
RTVSPost2010Prop32
280
     0
102
RTVSPost2010PropOp32
 70
     1
102
RTVSPost2010Prop33
280
     0
102
RTVSPost2010PropOp33
 70
     1
102
RTVSPost2010Prop34
280
     0
102
RTVSPost2010PropOp34
 70
     1
102
RTVSPost2010Prop35
280
     0
102
RTVSPost2010PropOp35
 70
     1
102
RTVSPost2010Prop36
280
     0
102
RTVSPost2010PropOp36
 70
     1
102
RTVSPost2010Prop37
 90
       50
102
RTVSPost2010PropOp37
 70
     1
102
RTVSPost2010Prop38
140
0.0
102
RTVSPost2010PropOp38
 70
     1
102
RTVSPost2010Prop39
140
1.0
102
RTVSPost2010PropOp39
 70
     1
102
RTVSPost2010Prop40
 90
        0
102
RTVSPost2010PropOp40
 70
     1
102
RTVSPost2010Prop41ColorIndex
 90
       18
102
RTVSPost2010Prop41ColorRGB
 90
        0
102
RTVSPost2010PropOp41
 70
     1
102
RTVSPost2010Prop42
 90
       50
102
RTVSPost2010PropOp42
 70
     1
102
RTVSPost2010Prop43
 90
        3
102
RTVSPost2010PropOp43
 70
     1
102
RTVSPost2010Prop44ColorIndex
 90
        5
102
RTVSPost2010Prop44ColorRGB
 90
      255
102
RTVSPost2010PropOp44
 70
     1
102
RTVSPost2010Prop45
280
     0
102
RTVSPost2010PropOp45
 70
     1
102
RTVSPost2010Prop46
 90
       50
102
RTVSPost2010PropOp46
 70
     1
102
RTVSPost2010Prop47
 90
       50
102
RTVSPost2010PropOp47
 70
     1
102
RTVSPost2010Prop48
 90
       50
102
RTVSPost2010PropOp48
 70
     1
102
RTVSPost2010Prop49
280
     0
102
RTVSPost2010PropOp49
 70
     1
102
RTVSPost2010Prop50
 90
       50
102
RTVSPost2010PropOp50
 70
     1
102
RTVSPost2010Prop51ColorIndex
 90
      256
102
RTVSPost2010Prop51ColorRGB
 90
-16777216
102
RTVSPost2010PropOp51
 70
     0
102
RTVSPost2010Prop52
140
1.0
102
RTVSPost2010PropOp52
 70
     0
102
RTVSPost2010Prop53
 90
        2
102
RTVSPost2010PropOp53
 70
     1
102
RTVSPost2010Prop54
  1
strokes_ogs.tif
102
RTVSPost2010PropOp54
 70
     1
102
RTVSPost2010Prop55
280
     0
102
RTVSPost2010PropOp55
 70
     1
102
RTVSPost2010Prop56
140
1.0
102
RTVSPost2010PropOp56
 70
     1
102
RTVSPost2010Prop57
140
1.0
102
RTVSPost2010PropOp57
 70
     1
  0
XRECORD
  5
3FA
102
{ACAD_REACTORS
330
3F9
102
}
330
3F9
100
AcDbXrecord
280
     1
102
RTVSPropertyOp0
 70
     1
102
RTVSPropertyOp1
 70
     1
102
RTVSPropertyOp2
 70
     1
102
RTVSPropertyOp3
 70
     1
102
RTVSPropertyOp4
 70
     1
102
RTVSPropertyOp5
 70
     1
102
RTVSPropertyOp6
 70
     1
102
RTVSPropertyOp7
 70
     1
102
RTVSPropertyOp8
 70
     1
102
RTVSPropertyOp9
 70
     1
102
RTVSPropertyOp10
 70
     1
102
RTVSPropertyOp11
 70
     1
102
RTVSPropertyOp12
 70
     1
102
RTVSPropertyOp13
 70
     1
102
RTVSPropertyOp14
 70
     1
102
RTVSPropertyOp15
 70
     1
102
RTVSPropertyOp16
 70
     1
102
RTVSPropertyOp17
 70
     1
102
RTVSPropertyOp18
 70
     1
102
RTVSPropertyOp19
 70
     1
102
RTVSPropertyOp20
 70
     1
102
RTVSPropertyOp21
 70
     1
102
RTVSPropertyOp22
 70
     1
102
RTVSPropertyOp23
 70
     1
102
RTVSPropertyOp24
 70
     1
102
RTVSPropertyOp25
 70
     1
102
RTVSPropertyOp26
 70
     1
102
RTVSPropertyOp27
 70
     1
102
RTVSPropertyOp28
 70
     1
102
RTVSPropertyOp29
 70
     1
102
RTVSPropertyOp30
 70
     1
102
RTVSPropertyOp31
 70
     1
102
RTVSPropertyOp32
 70
     1
102
RTVSPropertyOp33
 70
     1
102
RTVSPropertyOp34
 70
     1
102
RTVSPropertyOp35
 70
     1
102
RTVSPropertyOp36
 70
     1
102
RTVSPropertyOp37
 70
     1
102
RTVSPropertyOp38
 70
     1
102
RTVSPropertyOp39
 70
     1
102
RTVSPropertyOp40
 70
     1
102
RTVSPropertyOp41
 70
     1
102
RTVSPropertyOp42
 70
     1
102
RTVSPropertyOp43
 70
     1
102
RTVSPropertyOp44
 70
     1
102
RTVSPropertyOp45
 70
     1
102
RTVSPropertyOp46
 70
     1
102
RTVSPropertyOp47
 70
     1
102
RTVSPropertyOp48
 70
     1
102
RTVSPropertyOp49
 70
     1
102
RTVSPropertyOp50
 70
     1
102
RTVSPropertyOp51
 70
     0
102
RTVSPropertyOp52
 70
     0
102
RTVSPropertyOp53
 70
     1
102
RTVSPropertyOp54
 70
     1
102
RTVSPropertyOp55
 70
     1
102
RTVSPropertyOp56
 70
     1
102
RTVSPropertyOp57
 70
     1
102
RTVSPost2010Prop28
280
     0
102
RTVSPost2010PropOp28
 70
     1
102
RTVSPost2010Prop29
280
     1
102
RTVSPost2010PropOp29
 70
     1
102
RTVSPost2010Prop30
280
     1
102
RTVSPost2010PropOp30
 70
     1
102
RTVSPost2010Prop31
280
     0
102
RTVSPost2010PropOp31
 70
     1
102
RTVSPost2010Prop32
280
     0
102
RTVSPost2010PropOp32
 70
     1
102
RTVSPost2010Prop33
280
     0
102
RTVSPost2010PropOp33
 70
     1
102
RTVSPost2010Prop34
280
     0
102
RTVSPost2010PropOp34
 70
     1
102
RTVSPost2010Prop35
280
     0
102
RTVSPost2010PropOp35
 70
     1
102
RTVSPost2010Prop36
280
     0
102
RTVSPost2010PropOp36
 70
     1
102
RTVSPost2010Prop37
 90
       50
102
RTVSPost2010PropOp37
 70
     1
102
RTVSPost2010Prop38
140
0.0
102
RTVSPost2010PropOp38
 70
     1
102
RTVSPost2010Prop39
140
1.0
102
RTVSPost2010PropOp39
 70
     1
102
RTVSPost2010Prop40
 90
        0
102
RTVSPost2010PropOp40
 70
     1
102
RTVSPost2010Prop41ColorIndex
 90
       18
102
RTVSPost2010Prop41ColorRGB
 90
        0
102
RTVSPost2010PropOp41
 70
     1
102
RTVSPost2010Prop42
 90
       50
102
RTVSPost2010PropOp42
 70
     1
102
RTVSPost2010Prop43
 90
        3
102
RTVSPost2010PropOp43
 70
     1
102
RTVSPost2010Prop44ColorIndex
 90
        5
102
RTVSPost2010Prop44ColorRGB
 90
      255
102
RTVSPost2010PropOp44
 70
     1
102
RTVSPost2010Prop45
280
     0
102
RTVSPost2010PropOp45
 70
     1
102
RTVSPost2010Prop46
 90
       50
102
RTVSPost2010PropOp46
 70
     1
102
RTVSPost2010Prop47
 90
       50
102
RTVSPost2010PropOp47
 70
     1
102
RTVSPost2010Prop48
 90
       50
102
RTVSPost2010PropOp48
 70
     1
102
RTVSPost2010Prop49
280
     0
102
RTVSPost2010PropOp49
 70
     1
102
RTVSPost2010Prop50
 90
       50
102
RTVSPost2010PropOp50
 70
     1
102
RTVSPost2010Prop51ColorIndex
 90
      256
102
RTVSPost2010Prop51ColorRGB
 90
-16777216
102
RTVSPost2010PropOp51
 70
     0
102
RTVSPost2010Prop52
140
1.0
102
RTVSPost2010PropOp52
 70
     0
102
RTVSPost2010Prop53
 90
        2
102
RTVSPost2010PropOp53
 70
     1
102
RTVSPost2010Prop54
  1
strokes_ogs.tif
102
RTVSPost2010PropOp54
 70
     1
102
RTVSPost2010Prop55
280
     0
102
RTVSPost2010PropOp55
 70
     1
102
RTVSPost2010Prop56
140
1.0
102
RTVSPost2010PropOp56
 70
     1
102
RTVSPost2010Prop57
140
1.0
102
RTVSPost2010PropOp57
 70
     1
  0
XRECORD
  5
3F4
102
{ACAD_REACTORS
330
3F3
102
}
330
3F3
100
AcDbXrecord
280
     1
102
RTVSPropertyOp0
 70
     1
102
RTVSPropertyOp1
 70
     1
102
RTVSPropertyOp2
 70
     1
102
RTVSPropertyOp3
 70
     1
102
RTVSPropertyOp4
 70
     1
102
RTVSPropertyOp5
 70
     1
102
RTVSPropertyOp6
 70
     1
102
RTVSPropertyOp7
 70
     1
102
RTVSPropertyOp8
 70
     1
102
RTVSPropertyOp9
 70
     1
102
RTVSPropertyOp10
 70
     1
102
RTVSPropertyOp11
 70
     1
102
RTVSPropertyOp12
 70
     1
102
RTVSPropertyOp13
 70
     1
102
RTVSPropertyOp14
 70
     1
102
RTVSPropertyOp15
 70
     1
102
RTVSPropertyOp16
 70
     1
102
RTVSPropertyOp17
 70
     1
102
RTVSPropertyOp18
 70
     1
102
RTVSPropertyOp19
 70
     1
102
RTVSPropertyOp20
 70
     1
102
RTVSPropertyOp21
 70
     1
102
RTVSPropertyOp22
 70
     1
102
RTVSPropertyOp23
 70
     1
102
RTVSPropertyOp24
 70
     1
102
RTVSPropertyOp25
 70
     1
102
RTVSPropertyOp26
 70
     1
102
RTVSPropertyOp27
 70
     1
102
RTVSPropertyOp28
 70
     1
102
RTVSPropertyOp29
 70
     1
102
RTVSPropertyOp30
 70
     1
102
RTVSPropertyOp31
 70
     1
102
RTVSPropertyOp32
 70
     1
102
RTVSPropertyOp33
 70
     1
102
RTVSPropertyOp34
 70
     1
102
RTVSPropertyOp35
 70
     1
102
RTVSPropertyOp36
 70
     1
102
RTVSPropertyOp37
 70
     1
102
RTVSPropertyOp38
 70
     1
102
RTVSPropertyOp39
 70
     1
102
RTVSPropertyOp40
 70
     1
102
RTVSPropertyOp41
 70
     1
102
RTVSPropertyOp42
 70
     1
102
RTVSPropertyOp43
 70
     1
102
RTVSPropertyOp44
 70
     1
102
RTVSPropertyOp45
 70
     1
102
RTVSPropertyOp46
 70
     1
102
RTVSPropertyOp47
 70
     1
102
RTVSPropertyOp48
 70
     1
102
RTVSPropertyOp49
 70
     1
102
RTVSPropertyOp50
 70
     1
102
RTVSPropertyOp51
 70
     0
102
RTVSPropertyOp52
 70
     0
102
RTVSPropertyOp53
 70
     1
102
RTVSPropertyOp54
 70
     1
102
RTVSPropertyOp55
 70
     1
102
RTVSPropertyOp56
 70
     1
102
RTVSPropertyOp57
 70
     1
102
RTVSPost2010Prop28
280
     0
102
RTVSPost2010PropOp28
 70
     1
102
RTVSPost2010Prop29
280
     1
102
RTVSPost2010PropOp29
 70
     1
102
RTVSPost2010Prop30
280
     1
102
RTVSPost2010PropOp30
 70
     1
102
RTVSPost2010Prop31
280
     0
102
RTVSPost2010PropOp31
 70
     1
102
RTVSPost2010Prop32
280
     0
102
RTVSPost2010PropOp32
 70
     1
102
RTVSPost2010Prop33
280
     0
102
RTVSPost2010PropOp33
 70
     1
102
RTVSPost2010Prop34
280
     0
102
RTVSPost2010PropOp34
 70
     1
102
RTVSPost2010Prop35
280
     0
102
RTVSPost2010PropOp35
 70
     1
102
RTVSPost2010Prop36
280
     0
102
RTVSPost2010PropOp36
 70
     1
102
RTVSPost2010Prop37
 90
       50
102
RTVSPost2010PropOp37
 70
     1
102
RTVSPost2010Prop38
140
0.0
102
RTVSPost2010PropOp38
 70
     1
102
RTVSPost2010Prop39
140
1.0
102
RTVSPost2010PropOp39
 70
     1
102
RTVSPost2010Prop40
 90
        0
102
RTVSPost2010PropOp40
 70
     1
102
RTVSPost2010Prop41ColorIndex
 90
       18
102
RTVSPost2010Prop41ColorRGB
 90
        0
102
RTVSPost2010PropOp41
 70
     1
102
RTVSPost2010Prop42
 90
       50
102
RTVSPost2010PropOp42
 70
     1
102
RTVSPost2010Prop43
 90
        3
102
RTVSPost2010PropOp43
 70
     1
102
RTVSPost2010Prop44ColorIndex
 90
        5
102
RTVSPost2010Prop44ColorRGB
 90
      255
102
RTVSPost2010PropOp44
 70
     1
102
RTVSPost2010Prop45
280
     0
102
RTVSPost2010PropOp45
 70
     1
102
RTVSPost2010Prop46
 90
       50
102
RTVSPost2010PropOp46
 70
     1
102
RTVSPost2010Prop47
 90
       50
102
RTVSPost2010PropOp47
 70
     1
102
RTVSPost2010Prop48
 90
       50
102
RTVSPost2010PropOp48
 70
     1
102
RTVSPost2010Prop49
280
     0
102
RTVSPost2010PropOp49
 70
     1
102
RTVSPost2010Prop50
 90
       50
102
RTVSPost2010PropOp50
 70
     1
102
RTVSPost2010Prop51ColorIndex
 90
      256
102
RTVSPost2010Prop51ColorRGB
 90
-16777216
102
RTVSPost2010PropOp51
 70
     0
102
RTVSPost2010Prop52
140
1.0
102
RTVSPost2010PropOp52
 70
     0
102
RTVSPost2010Prop53
 90
        2
102
RTVSPost2010PropOp53
 70
     1
102
RTVSPost2010Prop54
  1
strokes_ogs.tif
102
RTVSPost2010PropOp54
 70
     1
102
RTVSPost2010Prop55
280
     0
102
RTVSPost2010PropOp55
 70
     1
102
RTVSPost2010Prop56
140
1.0
102
RTVSPost2010PropOp56
 70
     1
102
RTVSPost2010Prop57
140
1.0
102
RTVSPost2010PropOp57
 70
     1
  0
XRECORD
  5
3F6
102
{ACAD_REACTORS
330
3F5
102
}
330
3F5
100
AcDbXrecord
280
     1
102
RTVSPropertyOp0
 70
     1
102
RTVSPropertyOp1
 70
     1
102
RTVSPropertyOp2
 70
     1
102
RTVSPropertyOp3
 70
     1
102
RTVSPropertyOp4
 70
     1
102
RTVSPropertyOp5
 70
     1
102
RTVSPropertyOp6
 70
     1
102
RTVSPropertyOp7
 70
     1
102
RTVSPropertyOp8
 70
     1
102
RTVSPropertyOp9
 70
     1
102
RTVSPropertyOp10
 70
     1
102
RTVSPropertyOp11
 70
     1
102
RTVSPropertyOp12
 70
     1
102
RTVSPropertyOp13
 70
     1
102
RTVSPropertyOp14
 70
     1
102
RTVSPropertyOp15
 70
     1
102
RTVSPropertyOp16
 70
     1
102
RTVSPropertyOp17
 70
     1
102
RTVSPropertyOp18
 70
     1
102
RTVSPropertyOp19
 70
     1
102
RTVSPropertyOp20
 70
     1
102
RTVSPropertyOp21
 70
     1
102
RTVSPropertyOp22
 70
     1
102
RTVSPropertyOp23
 70
     1
102
RTVSPropertyOp24
 70
     1
102
RTVSPropertyOp25
 70
     1
102
RTVSPropertyOp26
 70
     1
102
RTVSPropertyOp27
 70
     1
102
RTVSPropertyOp28
 70
     1
102
RTVSPropertyOp29
 70
     1
102
RTVSPropertyOp30
 70
     1
102
RTVSPropertyOp31
 70
     1
102
RTVSPropertyOp32
 70
     1
102
RTVSPropertyOp33
 70
     1
102
RTVSPropertyOp34
 70
     1
102
RTVSPropertyOp35
 70
     1
102
RTVSPropertyOp36
 70
     1
102
RTVSPropertyOp37
 70
     1
102
RTVSPropertyOp38
 70
     1
102
RTVSPropertyOp39
 70
     1
102
RTVSPropertyOp40
 70
     1
102
RTVSPropertyOp41
 70
     1
102
RTVSPropertyOp42
 70
     1
102
RTVSPropertyOp43
 70
     1
102
RTVSPropertyOp44
 70
     1
102
RTVSPropertyOp45
 70
     1
102
RTVSPropertyOp46
 70
     1
102
RTVSPropertyOp47
 70
     1
102
RTVSPropertyOp48
 70
     1
102
RTVSPropertyOp49
 70
     1
102
RTVSPropertyOp50
 70
     1
102
RTVSPropertyOp51
 70
     0
102
RTVSPropertyOp52
 70
     0
102
RTVSPropertyOp53
 70
     1
102
RTVSPropertyOp54
 70
     1
102
RTVSPropertyOp55
 70
     1
102
RTVSPropertyOp56
 70
     1
102
RTVSPropertyOp57
 70
     1
102
RTVSPost2010Prop28
280
     0
102
RTVSPost2010PropOp28
 70
     1
102
RTVSPost2010Prop29
280
     1
102
RTVSPost2010PropOp29
 70
     1
102
RTVSPost2010Prop30
280
     1
102
RTVSPost2010PropOp30
 70
     1
102
RTVSPost2010Prop31
280
     0
102
RTVSPost2010PropOp31
 70
     1
102
RTVSPost2010Prop32
280
     0
102
RTVSPost2010PropOp32
 70
     1
102
RTVSPost2010Prop33
280
     0
102
RTVSPost2010PropOp33
 70
     1
102
RTVSPost2010Prop34
280
     0
102
RTVSPost2010PropOp34
 70
     1
102
RTVSPost2010Prop35
280
     0
102
RTVSPost2010PropOp35
 70
     1
102
RTVSPost2010Prop36
280
     0
102
RTVSPost2010PropOp36
 70
     1
102
RTVSPost2010Prop37
 90
       50
102
RTVSPost2010PropOp37
 70
     1
102
RTVSPost2010Prop38
140
0.0
102
RTVSPost2010PropOp38
 70
     1
102
RTVSPost2010Prop39
140
1.0
102
RTVSPost2010PropOp39
 70
     1
102
RTVSPost2010Prop40
 90
        0
102
RTVSPost2010PropOp40
 70
     1
102
RTVSPost2010Prop41ColorIndex
 90
       18
102
RTVSPost2010Prop41ColorRGB
 90
        0
102
RTVSPost2010PropOp41
 70
     1
102
RTVSPost2010Prop42
 90
       50
102
RTVSPost2010PropOp42
 70
     1
102
RTVSPost2010Prop43
 90
        3
102
RTVSPost2010PropOp43
 70
     1
102
RTVSPost2010Prop44ColorIndex
 90
        5
102
RTVSPost2010Prop44ColorRGB
 90
      255
102
RTVSPost2010PropOp44
 70
     1
102
RTVSPost2010Prop45
280
     0
102
RTVSPost2010PropOp45
 70
     1
102
RTVSPost2010Prop46
 90
       50
102
RTVSPost2010PropOp46
 70
     1
102
RTVSPost2010Prop47
 90
       50
102
RTVSPost2010PropOp47
 70
     1
102
RTVSPost2010Prop48
 90
       50
102
RTVSPost2010PropOp48
 70
     1
102
RTVSPost2010Prop49
280
     0
102
RTVSPost2010PropOp49
 70
     1
102
RTVSPost2010Prop50
 90
       50
102
RTVSPost2010PropOp50
 70
     1
102
RTVSPost2010Prop51ColorIndex
 90
      256
102
RTVSPost2010Prop51ColorRGB
 90
-16777216
102
RTVSPost2010PropOp51
 70
     0
102
RTVSPost2010Prop52
140
1.0
102
RTVSPost2010PropOp52
 70
     0
102
RTVSPost2010Prop53
 90
        2
102
RTVSPost2010PropOp53
 70
     1
102
RTVSPost2010Prop54
  1
strokes_ogs.tif
102
RTVSPost2010PropOp54
 70
     1
102
RTVSPost2010Prop55
280
     0
102
RTVSPost2010PropOp55
 70
     1
102
RTVSPost2010Prop56
140
1.0
102
RTVSPost2010PropOp56
 70
     1
102
RTVSPost2010Prop57
140
1.0
102
RTVSPost2010PropOp57
 70
     1
  0
XRECORD
  5
3E6
102
{ACAD_REACTORS
330
3E5
102
}
330
3E5
100
AcDbXrecord
280
     1
102
RTVSPropertyOp0
 70
     1
102
RTVSPropertyOp1
 70
     1
102
RTVSPropertyOp2
 70
     1
102
RTVSPropertyOp3
 70
     1
102
RTVSPropertyOp4
 70
     1
102
RTVSPropertyOp5
 70
     1
102
RTVSPropertyOp6
 70
     1
102
RTVSPropertyOp7
 70
     1
102
RTVSPropertyOp8
 70
     1
102
RTVSPropertyOp9
 70
     1
102
RTVSPropertyOp10
 70
     1
102
RTVSPropertyOp11
 70
     1
102
RTVSPropertyOp12
 70
     1
102
RTVSPropertyOp13
 70
     1
102
RTVSPropertyOp14
 70
     1
102
RTVSPropertyOp15
 70
     1
102
RTVSPropertyOp16
 70
     1
102
RTVSPropertyOp17
 70
     1
102
RTVSPropertyOp18
 70
     1
102
RTVSPropertyOp19
 70
     1
102
RTVSPropertyOp20
 70
     1
102
RTVSPropertyOp21
 70
     1
102
RTVSPropertyOp22
 70
     1
102
RTVSPropertyOp23
 70
     1
102
RTVSPropertyOp24
 70
     1
102
RTVSPropertyOp25
 70
     1
102
RTVSPropertyOp26
 70
     1
102
RTVSPropertyOp27
 70
     1
102
RTVSPropertyOp28
 70
     1
102
RTVSPropertyOp29
 70
     1
102
RTVSPropertyOp30
 70
     1
102
RTVSPropertyOp31
 70
     1
102
RTVSPropertyOp32
 70
     1
102
RTVSPropertyOp33
 70
     1
102
RTVSPropertyOp34
 70
     1
102
RTVSPropertyOp35
 70
     1
102
RTVSPropertyOp36
 70
     1
102
RTVSPropertyOp37
 70
     1
102
RTVSPropertyOp38
 70
     1
102
RTVSPropertyOp39
 70
     1
102
RTVSPropertyOp40
 70
     1
102
RTVSPropertyOp41
 70
     1
102
RTVSPropertyOp42
 70
     1
102
RTVSPropertyOp43
 70
     1
102
RTVSPropertyOp44
 70
     1
102
RTVSPropertyOp45
 70
     1
102
RTVSPropertyOp46
 70
     1
102
RTVSPropertyOp47
 70
     1
102
RTVSPropertyOp48
 70
     1
102
RTVSPropertyOp49
 70
     1
102
RTVSPropertyOp50
 70
     1
102
RTVSPropertyOp51
 70
     0
102
RTVSPropertyOp52
 70
     0
102
RTVSPropertyOp53
 70
     1
102
RTVSPropertyOp54
 70
     1
102
RTVSPropertyOp55
 70
     1
102
RTVSPropertyOp56
 70
     1
102
RTVSPropertyOp57
 70
     1
102
RTVSPost2010Prop28
280
     0
102
RTVSPost2010PropOp28
 70
     1
102
RTVSPost2010Prop29
280
     1
102
RTVSPost2010PropOp29
 70
     1
102
RTVSPost2010Prop30
280
     1
102
RTVSPost2010PropOp30
 70
     1
102
RTVSPost2010Prop31
280
     0
102
RTVSPost2010PropOp31
 70
     1
102
RTVSPost2010Prop32
280
     0
102
RTVSPost2010PropOp32
 70
     1
102
RTVSPost2010Prop33
280
     0
102
RTVSPost2010PropOp33
 70
     1
102
RTVSPost2010Prop34
280
     0
102
RTVSPost2010PropOp34
 70
     1
102
RTVSPost2010Prop35
280
     0
102
RTVSPost2010PropOp35
 70
     1
102
RTVSPost2010Prop36
280
     0
102
RTVSPost2010PropOp36
 70
     1
102
RTVSPost2010Prop37
 90
       50
102
RTVSPost2010PropOp37
 70
     1
102
RTVSPost2010Prop38
140
0.0
102
RTVSPost2010PropOp38
 70
     1
102
RTVSPost2010Prop39
140
1.0
102
RTVSPost2010PropOp39
 70
     1
102
RTVSPost2010Prop40
 90
        0
102
RTVSPost2010PropOp40
 70
     1
102
RTVSPost2010Prop41ColorIndex
 90
       18
102
RTVSPost2010Prop41ColorRGB
 90
        0
102
RTVSPost2010PropOp41
 70
     1
102
RTVSPost2010Prop42
 90
       50
102
RTVSPost2010PropOp42
 70
     1
102
RTVSPost2010Prop43
 90
        3
102
RTVSPost2010PropOp43
 70
     1
102
RTVSPost2010Prop44ColorIndex
 90
        5
102
RTVSPost2010Prop44ColorRGB
 90
      255
102
RTVSPost2010PropOp44
 70
     1
102
RTVSPost2010Prop45
280
     0
102
RTVSPost2010PropOp45
 70
     1
102
RTVSPost2010Prop46
 90
       50
102
RTVSPost2010PropOp46
 70
     1
102
RTVSPost2010Prop47
 90
       50
102
RTVSPost2010PropOp47
 70
     1
102
RTVSPost2010Prop48
 90
       50
102
RTVSPost2010PropOp48
 70
     1
102
RTVSPost2010Prop49
280
     0
102
RTVSPost2010PropOp49
 70
     1
102
RTVSPost2010Prop50
 90
       50
102
RTVSPost2010PropOp50
 70
     1
102
RTVSPost2010Prop51ColorIndex
 90
      256
102
RTVSPost2010Prop51ColorRGB
 90
-16777216
102
RTVSPost2010PropOp51
 70
     0
102
RTVSPost2010Prop52
140
1.0
102
RTVSPost2010PropOp52
 70
     0
102
RTVSPost2010Prop53
 90
        2
102
RTVSPost2010PropOp53
 70
     1
102
RTVSPost2010Prop54
  1
strokes_ogs.tif
102
RTVSPost2010PropOp54
 70
     1
102
RTVSPost2010Prop55
280
     0
102
RTVSPost2010PropOp55
 70
     1
102
RTVSPost2010Prop56
140
1.0
102
RTVSPost2010PropOp56
 70
     1
102
RTVSPost2010Prop57
140
1.0
102
RTVSPost2010PropOp57
 70
     1
  0
XRECORD
  5
3D8
102
{ACAD_REACTORS
330
3D7
102
}
330
3D7
100
AcDbXrecord
280
     1
102
RTVSPropertyOp0
 70
     1
102
RTVSPropertyOp1
 70
     1
102
RTVSPropertyOp2
 70
     1
102
RTVSPropertyOp3
 70
     1
102
RTVSPropertyOp4
 70
     1
102
RTVSPropertyOp5
 70
     1
102
RTVSPropertyOp6
 70
     1
102
RTVSPropertyOp7
 70
     1
102
RTVSPropertyOp8
 70
     1
102
RTVSPropertyOp9
 70
     1
102
RTVSPropertyOp10
 70
     1
102
RTVSPropertyOp11
 70
     1
102
RTVSPropertyOp12
 70
     1
102
RTVSPropertyOp13
 70
     1
102
RTVSPropertyOp14
 70
     1
102
RTVSPropertyOp15
 70
     1
102
RTVSPropertyOp16
 70
     1
102
RTVSPropertyOp17
 70
     1
102
RTVSPropertyOp18
 70
     1
102
RTVSPropertyOp19
 70
     1
102
RTVSPropertyOp20
 70
     1
102
RTVSPropertyOp21
 70
     1
102
RTVSPropertyOp22
 70
     1
102
RTVSPropertyOp23
 70
     1
102
RTVSPropertyOp24
 70
     1
102
RTVSPropertyOp25
 70
     1
102
RTVSPropertyOp26
 70
     1
102
RTVSPropertyOp27
 70
     1
102
RTVSPropertyOp28
 70
     1
102
RTVSPropertyOp29
 70
     1
102
RTVSPropertyOp30
 70
     1
102
RTVSPropertyOp31
 70
     1
102
RTVSPropertyOp32
 70
     1
102
RTVSPropertyOp33
 70
     1
102
RTVSPropertyOp34
 70
     1
102
RTVSPropertyOp35
 70
     1
102
RTVSPropertyOp36
 70
     1
102
RTVSPropertyOp37
 70
     1
102
RTVSPropertyOp38
 70
     1
102
RTVSPropertyOp39
 70
     1
102
RTVSPropertyOp40
 70
     1
102
RTVSPropertyOp41
 70
     1
102
RTVSPropertyOp42
 70
     1
102
RTVSPropertyOp43
 70
     1
102
RTVSPropertyOp44
 70
     1
102
RTVSPropertyOp45
 70
     1
102
RTVSPropertyOp46
 70
     1
102
RTVSPropertyOp47
 70
     1
102
RTVSPropertyOp48
 70
     1
102
RTVSPropertyOp49
 70
     1
102
RTVSPropertyOp50
 70
     1
102
RTVSPropertyOp51
 70
     0
102
RTVSPropertyOp52
 70
     0
102
RTVSPropertyOp53
 70
     1
102
RTVSPropertyOp54
 70
     1
102
RTVSPropertyOp55
 70
     1
102
RTVSPropertyOp56
 70
     1
102
RTVSPropertyOp57
 70
     1
102
RTVSPost2010Prop28
280
     0
102
RTVSPost2010PropOp28
 70
     1
102
RTVSPost2010Prop29
280
     1
102
RTVSPost2010PropOp29
 70
     1
102
RTVSPost2010Prop30
280
     1
102
RTVSPost2010PropOp30
 70
     1
102
RTVSPost2010Prop31
280
     0
102
RTVSPost2010PropOp31
 70
     1
102
RTVSPost2010Prop32
280
     0
102
RTVSPost2010PropOp32
 70
     1
102
RTVSPost2010Prop33
280
     0
102
RTVSPost2010PropOp33
 70
     1
102
RTVSPost2010Prop34
280
     0
102
RTVSPost2010PropOp34
 70
     1
102
RTVSPost2010Prop35
280
     0
102
RTVSPost2010PropOp35
 70
     1
102
RTVSPost2010Prop36
280
     0
102
RTVSPost2010PropOp36
 70
     1
102
RTVSPost2010Prop37
 90
       50
102
RTVSPost2010PropOp37
 70
     1
102
RTVSPost2010Prop38
140
0.0
102
RTVSPost2010PropOp38
 70
     1
102
RTVSPost2010Prop39
140
1.0
102
RTVSPost2010PropOp39
 70
     1
102
RTVSPost2010Prop40
 90
        0
102
RTVSPost2010PropOp40
 70
     1
102
RTVSPost2010Prop41ColorIndex
 90
       18
102
RTVSPost2010Prop41ColorRGB
 90
        0
102
RTVSPost2010PropOp41
 70
     1
102
RTVSPost2010Prop42
 90
       50
102
RTVSPost2010PropOp42
 70
     1
102
RTVSPost2010Prop43
 90
        3
102
RTVSPost2010PropOp43
 70
     1
102
RTVSPost2010Prop44ColorIndex
 90
        5
102
RTVSPost2010Prop44ColorRGB
 90
      255
102
RTVSPost2010PropOp44
 70
     1
102
RTVSPost2010Prop45
280
     0
102
RTVSPost2010PropOp45
 70
     1
102
RTVSPost2010Prop46
 90
       50
102
RTVSPost2010PropOp46
 70
     1
102
RTVSPost2010Prop47
 90
       50
102
RTVSPost2010PropOp47
 70
     1
102
RTVSPost2010Prop48
 90
       50
102
RTVSPost2010PropOp48
 70
     1
102
RTVSPost2010Prop49
280
     0
102
RTVSPost2010PropOp49
 70
     1
102
RTVSPost2010Prop50
 90
       50
102
RTVSPost2010PropOp50
 70
     1
102
RTVSPost2010Prop51ColorIndex
 90
      256
102
RTVSPost2010Prop51ColorRGB
 90
-16777216
102
RTVSPost2010PropOp51
 70
     0
102
RTVSPost2010Prop52
140
1.0
102
RTVSPost2010PropOp52
 70
     0
102
RTVSPost2010Prop53
 90
        2
102
RTVSPost2010PropOp53
 70
     1
102
RTVSPost2010Prop54
  1
strokes_ogs.tif
102
RTVSPost2010PropOp54
 70
     1
102
RTVSPost2010Prop55
280
     0
102
RTVSPost2010PropOp55
 70
     1
102
RTVSPost2010Prop56
140
1.0
102
RTVSPost2010PropOp56
 70
     1
102
RTVSPost2010Prop57
140
1.0
102
RTVSPost2010PropOp57
 70
     1
  0
XRECORD
  5
3F8
102
{ACAD_REACTORS
330
3F7
102
}
330
3F7
100
AcDbXrecord
280
     1
102
RTVSPropertyOp0
 70
     1
102
RTVSPropertyOp1
 70
     1
102
RTVSPropertyOp2
 70
     1
102
RTVSPropertyOp3
 70
     1
102
RTVSPropertyOp4
 70
     1
102
RTVSPropertyOp5
 70
     1
102
RTVSPropertyOp6
 70
     1
102
RTVSPropertyOp7
 70
     1
102
RTVSPropertyOp8
 70
     1
102
RTVSPropertyOp9
 70
     1
102
RTVSPropertyOp10
 70
     1
102
RTVSPropertyOp11
 70
     1
102
RTVSPropertyOp12
 70
     1
102
RTVSPropertyOp13
 70
     1
102
RTVSPropertyOp14
 70
     1
102
RTVSPropertyOp15
 70
     1
102
RTVSPropertyOp16
 70
     1
102
RTVSPropertyOp17
 70
     1
102
RTVSPropertyOp18
 70
     1
102
RTVSPropertyOp19
 70
     1
102
RTVSPropertyOp20
 70
     1
102
RTVSPropertyOp21
 70
     1
102
RTVSPropertyOp22
 70
     1
102
RTVSPropertyOp23
 70
     1
102
RTVSPropertyOp24
 70
     1
102
RTVSPropertyOp25
 70
     1
102
RTVSPropertyOp26
 70
     1
102
RTVSPropertyOp27
 70
     1
102
RTVSPropertyOp28
 70
     1
102
RTVSPropertyOp29
 70
     1
102
RTVSPropertyOp30
 70
     1
102
RTVSPropertyOp31
 70
     1
102
RTVSPropertyOp32
 70
     1
102
RTVSPropertyOp33
 70
     1
102
RTVSPropertyOp34
 70
     1
102
RTVSPropertyOp35
 70
     1
102
RTVSPropertyOp36
 70
     1
102
RTVSPropertyOp37
 70
     1
102
RTVSPropertyOp38
 70
     1
102
RTVSPropertyOp39
 70
     1
102
RTVSPropertyOp40
 70
     1
102
RTVSPropertyOp41
 70
     1
102
RTVSPropertyOp42
 70
     1
102
RTVSPropertyOp43
 70
     1
102
RTVSPropertyOp44
 70
     1
102
RTVSPropertyOp45
 70
     1
102
RTVSPropertyOp46
 70
     1
102
RTVSPropertyOp47
 70
     1
102
RTVSPropertyOp48
 70
     1
102
RTVSPropertyOp49
 70
     1
102
RTVSPropertyOp50
 70
     1
102
RTVSPropertyOp51
 70
     0
102
RTVSPropertyOp52
 70
     0
102
RTVSPropertyOp53
 70
     1
102
RTVSPropertyOp54
 70
     1
102
RTVSPropertyOp55
 70
     1
102
RTVSPropertyOp56
 70
     1
102
RTVSPropertyOp57
 70
     1
102
RTVSPost2010Prop28
280
     0
102
RTVSPost2010PropOp28
 70
     1
102
RTVSPost2010Prop29
280
     1
102
RTVSPost2010PropOp29
 70
     1
102
RTVSPost2010Prop30
280
     1
102
RTVSPost2010PropOp30
 70
     1
102
RTVSPost2010Prop31
280
     0
102
RTVSPost2010PropOp31
 70
     1
102
RTVSPost2010Prop32
280
     0
102
RTVSPost2010PropOp32
 70
     1
102
RTVSPost2010Prop33
280
     0
102
RTVSPost2010PropOp33
 70
     1
102
RTVSPost2010Prop34
280
     0
102
RTVSPost2010PropOp34
 70
     1
102
RTVSPost2010Prop35
280
     0
102
RTVSPost2010PropOp35
 70
     1
102
RTVSPost2010Prop36
280
     0
102
RTVSPost2010PropOp36
 70
     1
102
RTVSPost2010Prop37
 90
       50
102
RTVSPost2010PropOp37
 70
     1
102
RTVSPost2010Prop38
140
0.0
102
RTVSPost2010PropOp38
 70
     1
102
RTVSPost2010Prop39
140
1.0
102
RTVSPost2010PropOp39
 70
     1
102
RTVSPost2010Prop40
 90
        0
102
RTVSPost2010PropOp40
 70
     1
102
RTVSPost2010Prop41ColorIndex
 90
       18
102
RTVSPost2010Prop41ColorRGB
 90
        0
102
RTVSPost2010PropOp41
 70
     1
102
RTVSPost2010Prop42
 90
       50
102
RTVSPost2010PropOp42
 70
     1
102
RTVSPost2010Prop43
 90
        3
102
RTVSPost2010PropOp43
 70
     1
102
RTVSPost2010Prop44ColorIndex
 90
        5
102
RTVSPost2010Prop44ColorRGB
 90
      255
102
RTVSPost2010PropOp44
 70
     1
102
RTVSPost2010Prop45
280
     0
102
RTVSPost2010PropOp45
 70
     1
102
RTVSPost2010Prop46
 90
       50
102
RTVSPost2010PropOp46
 70
     1
102
RTVSPost2010Prop47
 90
       50
102
RTVSPost2010PropOp47
 70
     1
102
RTVSPost2010Prop48
 90
       50
102
RTVSPost2010PropOp48
 70
     1
102
RTVSPost2010Prop49
280
     0
102
RTVSPost2010PropOp49
 70
     1
102
RTVSPost2010Prop50
 90
       50
102
RTVSPost2010PropOp50
 70
     1
102
RTVSPost2010Prop51ColorIndex
 90
      256
102
RTVSPost2010Prop51ColorRGB
 90
-16777216
102
RTVSPost2010PropOp51
 70
     0
102
RTVSPost2010Prop52
140
1.0
102
RTVSPost2010PropOp52
 70
     0
102
RTVSPost2010Prop53
 90
        2
102
RTVSPost2010PropOp53
 70
     1
102
RTVSPost2010Prop54
  1
strokes_ogs.tif
102
RTVSPost2010PropOp54
 70
     1
102
RTVSPost2010Prop55
280
     0
102
RTVSPost2010PropOp55
 70
     1
102
RTVSPost2010Prop56
140
1.0
102
RTVSPost2010PropOp56
 70
     1
102
RTVSPost2010Prop57
140
1.0
102
RTVSPost2010PropOp57
 70
     1
  0
ENDSEC
  0
EOF
