  0
SECTION
  2
HEADER
  9
$ACADVER
  1
AC1015
  9
$ACADMAINTVER
 70
     6
  9
$DWGCODEPAGE
  3
ANSI_932
  9
$INSBASE
 10
0.0
 20
0.0
 30
0.0
  9
$EXTMIN
 10
-630.0996999219584
 20
-74.19256992226315
 30
0.0
  9
$EXTMAX
 10
219.9003000780416
 20
365.8074300777369
 30
0.0
  9
$LIMMIN
 10
-630.0996999219584
 20
-74.19256992226315
  9
$LIMMAX
 10
219.9003000780416
 20
365.8074300777369
  9
$ORTHOMODE
 70
     0
  9
$REGENMODE
 70
     1
  9
$FILLMODE
 70
     1
  9
$QTEXTMODE
 70
     0
  9
$MIRRTEXT
 70
     1
  9
$LTSCALE
 40
1.0
  9
$ATTMODE
 70
     1
  9
$TEXTSIZE
 40
2.5
  9
$TRACEWID
 40
1.0
  9
$TEXTSTYLE
  7
Standard
  9
$CLAYER
  8
0
  9
$CELTYPE
  6
ByLayer
  9
$CECOLOR
 62
   256
  9
$CELTSCALE
 40
1.0
  9
$DISPSILH
 70
     0
  9
$DIMSCALE
 40
1.0
  9
$DIMASZ
 40
2.5
  9
$DIMEXO
 40
0.625
  9
$DIMDLI
 40
3.75
  9
$DIMRND
 40
0.0
  9
$DIMDLE
 40
0.0
  9
$DIMEXE
 40
1.25
  9
$DIMTP
 40
0.0
  9
$DIMTM
 40
0.0
  9
$DIMTXT
 40
2.5
  9
$DIMCEN
 40
2.5
  9
$DIMTSZ
 40
0.0
  9
$DIMTOL
 70
     0
  9
$DIMLIM
 70
     0
  9
$DIMTIH
 70
     0
  9
$DIMTOH
 70
     0
  9
$DIMSE1
 70
     0
  9
$DIMSE2
 70
     0
  9
$DIMTAD
 70
     1
  9
$DIMZIN
 70
     8
  9
$DIMBLK
  1
Closed
  9
$DIMASO
 70
     1
  9
$DIMSHO
 70
     1
  9
$DIMPOST
  1

  9
$DIMAPOST
  1

  9
$DIMALT
 70
     0
  9
$DIMALTD
 70
     3
  9
$DIMALTF
 40
0.039370079
  9
$DIMLFAC
 40
1.0
  9
$DIMTOFL
 70
     1
  9
$DIMTVP
 40
0.0
  9
$DIMTIX
 70
     0
  9
$DIMSOXD
 70
     0
  9
$DIMSAH
 70
     0
  9
$DIMBLK1
  1

  9
$DIMBLK2
  1

  9
$DIMSTYLE
  2
DIMSTYLE_FULLSCALE
  9
$DIMCLRD
 70
     0
  9
$DIMCLRE
 70
     0
  9
$DIMCLRT
 70
     0
  9
$DIMTFAC
 40
1.0
  9
$DIMGAP
 40
0.625
  9
$DIMJUST
 70
     0
  9
$DIMSD1
 70
     0
  9
$DIMSD2
 70
     0
  9
$DIMTOLJ
 70
     0
  9
$DIMTZIN
 70
     8
  9
$DIMALTZ
 70
     0
  9
$DIMALTTZ
 70
     0
  9
$DIMUPT
 70
     0
  9
$DIMDEC
 70
     2
  9
$DIMTDEC
 70
     2
  9
$DIMALTU
 70
     2
  9
$DIMALTTD
 70
     3
  9
$DIMTXSTY
  7
Standard
  9
$DIMAUNIT
 70
     0
  9
$DIMADEC
 70
     0
  9
$DIMALTRND
 40
0.0
  9
$DIMAZIN
 70
     0
  9
$DIMDSEP
 70
    44
  9
$DIMATFIT
 70
     3
  9
$DIMFRAC
 70
     0
  9
$DIMLDRBLK
  1
Closed
  9
$DIMLUNIT
 70
     2
  9
$DIMLWD
 70
    -2
  9
$DIMLWE
 70
    -2
  9
$DIMTMOVE
 70
     0
  9
$LUNITS
 70
     2
  9
$LUPREC
 70
     4
  9
$SKETCHINC
 40
1.0
  9
$FILLETRAD
 40
10.0
  9
$AUNITS
 70
     0
  9
$AUPREC
 70
     0
  9
$MENU
  1
.
  9
$ELEVATION
 40
0.0
  9
$PELEVATION
 40
0.0
  9
$THICKNESS
 40
0.0
  9
$LIMCHECK
 70
     0
  9
$CHAMFERA
 40
0.0
  9
$CHAMFERB
 40
0.0
  9
$CHAMFERC
 40
0.0
  9
$CHAMFERD
 40
0.0
  9
$SKPOLY
 70
     0
  9
$TDCREATE
 40
2459051.550211123
  9
$TDUCREATE
 40
2459051.175211123
  9
$TDUPDATE
 40
2459051.55021257
  9
$TDUUPDATE
 40
2459051.17521257
  9
$TDINDWG
 40
0.0000000116
  9
$TDUSRTIMER
 40
0.0000000116
  9
$USRTIMER
 70
     1
  9
$ANGBASE
 50
0.0
  9
$ANGDIR
 70
     0
  9
$PDMODE
 70
     0
  9
$PDSIZE
 40
0.0
  9
$PLINEWID
 40
0.0
  9
$SPLFRAME
 70
     0
  9
$SPLINETYPE
 70
     6
  9
$SPLINESEGS
 70
     8
  9
$HANDSEED
  5
41B
  9
$SURFTAB1
 70
     6
  9
$SURFTAB2
 70
     6
  9
$SURFTYPE
 70
     6
  9
$SURFU
 70
     6
  9
$SURFV
 70
     6
  9
$UCSBASE
  2

  9
$UCSNAME
  2

  9
$UCSORG
 10
0.0
 20
0.0
 30
0.0
  9
$UCSXDIR
 10
1.0
 20
0.0
 30
0.0
  9
$UCSYDIR
 10
0.0
 20
1.0
 30
0.0
  9
$UCSORTHOREF
  2

  9
$UCSORTHOVIEW
 70
     0
  9
$UCSORGTOP
 10
0.0
 20
0.0
 30
0.0
  9
$UCSORGBOTTOM
 10
0.0
 20
0.0
 30
0.0
  9
$UCSORGLEFT
 10
0.0
 20
0.0
 30
0.0
  9
$UCSORGRIGHT
 10
0.0
 20
0.0
 30
0.0
  9
$UCSORGFRONT
 10
0.0
 20
0.0
 30
0.0
  9
$UCSORGBACK
 10
0.0
 20
0.0
 30
0.0
  9
$PUCSBASE
  2

  9
$PUCSNAME
  2

  9
$PUCSORG
 10
0.0
 20
0.0
 30
0.0
  9
$PUCSXDIR
 10
1.0
 20
0.0
 30
0.0
  9
$PUCSYDIR
 10
0.0
 20
1.0
 30
0.0
  9
$PUCSORTHOREF
  2

  9
$PUCSORTHOVIEW
 70
     0
  9
$PUCSORGTOP
 10
0.0
 20
0.0
 30
0.0
  9
$PUCSORGBOTTOM
 10
0.0
 20
0.0
 30
0.0
  9
$PUCSORGLEFT
 10
0.0
 20
0.0
 30
0.0
  9
$PUCSORGRIGHT
 10
0.0
 20
0.0
 30
0.0
  9
$PUCSORGFRONT
 10
0.0
 20
0.0
 30
0.0
  9
$PUCSORGBACK
 10
0.0
 20
0.0
 30
0.0
  9
$USERI1
 70
     0
  9
$USERI2
 70
     0
  9
$USERI3
 70
     0
  9
$USERI4
 70
     0
  9
$USERI5
 70
     0
  9
$USERR1
 40
0.0
  9
$USERR2
 40
0.0
  9
$USERR3
 40
0.0
  9
$USERR4
 40
0.0
  9
$USERR5
 40
0.0
  9
$WORLDVIEW
 70
     1
  9
$SHADEDGE
 70
     3
  9
$SHADEDIF
 70
    70
  9
$TILEMODE
 70
     1
  9
$MAXACTVP
 70
    64
  9
$PINSBASE
 10
0.0
 20
0.0
 30
0.0
  9
$PLIMCHECK
 70
     0
  9
$PEXTMIN
 10
1.000000000000000E+20
 20
1.000000000000000E+20
 30
1.000000000000000E+20
  9
$PEXTMAX
 10
-1.000000000000000E+20
 20
-1.000000000000000E+20
 30
-1.000000000000000E+20
  9
$PLIMMIN
 10
-630.0996999219584
 20
-74.19256992226315
  9
$PLIMMAX
 10
219.9003000780416
 20
365.8074300777369
  9
$UNITMODE
 70
     0
  9
$VISRETAIN
 70
     1
  9
$PLINEGEN
 70
     0
  9
$PSLTSCALE
 70
     1
  9
$TREEDEPTH
 70
  3020
  9
$CMLSTYLE
  2
Standard
  9
$CMLJUST
 70
     0
  9
$CMLSCALE
 40
20.0
  9
$PROXYGRAPHICS
 70
     1
  9
$MEASUREMENT
 70
     1
  9
$CELWEIGHT
370
    -1
  9
$ENDCAPS
280
     0
  9
$JOINSTYLE
280
     0
  9
$LWDISPLAY
290
     0
  9
$INSUNITS
 70
     4
  9
$HYPERLINKBASE
  1

  9
$STYLESHEET
  1

  9
$XEDIT
290
     1
  9
$CEPSNTYPE
380
     0
  9
$PSTYLEMODE
290
     1
  9
$FINGERPRINTGUID
  2
{35207fe9-1c22-479a-99e0-dd524e74fe58}
  9
$VERSIONGUID
  2
{FAEB1C32-E019-11D5-929B-00C0DF256EC4}
  9
$EXTNAMES
290
     1
  9
$PSVPSCALE
 40
0.0
  9
$OLESTARTUP
290
     0
  0
ENDSEC
  0
SECTION
  2
CLASSES
  0
CLASS
  1
ACDBDICTIONARYWDFLT
  2
AcDbDictionaryWithDefault
  3
ObjectDBX Classes
 90
        0
280
     0
281
     0
  0
CLASS
  1
VISUALSTYLE
  2
AcDbVisualStyle
  3
ObjectDBX Classes
 90
     4095
280
     0
281
     0
  0
CLASS
  1
MATERIAL
  2
AcDbMaterial
  3
ObjectDBX Classes
 90
     1153
280
     0
281
     0
  0
CLASS
  1
SCALE
  2
AcDbScale
  3
ObjectDBX Classes
 90
     1153
280
     0
281
     0
  0
CLASS
  1
TABLESTYLE
  2
AcDbTableStyle
  3
ObjectDBX Classes
 90
     4095
280
     0
281
     0
  0
CLASS
  1
MLEADERSTYLE
  2
AcDbMLeaderStyle
  3
ACDB_MLEADERSTYLE_CLASS
 90
     4095
280
     0
281
     0
  0
CLASS
  1
SUN
  2
AcDbSun
  3
SCENEOE
 90
     1153
280
     0
281
     0
  0
CLASS
  1
DICTIONARYVAR
  2
AcDbDictionaryVar
  3
ObjectDBX Classes
 90
        0
280
     0
281
     0
  0
CLASS
  1
ACDBPLACEHOLDER
  2
AcDbPlaceHolder
  3
ObjectDBX Classes
 90
        0
280
     0
281
     0
  0
CLASS
  1
LAYOUT
  2
AcDbLayout
  3
ObjectDBX Classes
 90
        0
280
     0
281
     0
  0
ENDSEC
  0
SECTION
  2
TABLES
  0
TABLE
  2
VPORT
  5
8
102
{ACAD_XDICTIONARY
360
3DA
102
}
330
0
100
AcDbSymbolTable
 70
     1
  0
VPORT
  5
29
330
8
100
AcDbSymbolTableRecord
100
AcDbViewportTableRecord
  2
*Active
 70
     0
 10
0.0
 20
0.0
 11
1.0
 21
1.0
 12
344.1869158878504
 22
148.5
 13
0.0
 23
0.0
 14
10.0
 24
10.0
 15
10.0
 25
10.0
 16
0.0
 26
0.0
 36
1.0
 17
0.0
 27
0.0
 37
0.0
 40
297.0
 41
1.972972972850329
 42
50.0
 43
0.0
 44
0.0
 50
0.0
 51
0.0
 71
     0
 72
   100
 73
     1
 74
     3
 75
     0
 76
     0
 77
     0
 78
     0
281
     0
 65
     1
110
0.0
120
0.0
130
0.0
111
1.0
121
0.0
131
0.0
112
0.0
122
1.0
132
0.0
 79
     0
146
0.0
  0
ENDTAB
  0
TABLE
  2
LTYPE
  5
5
330
0
100
AcDbSymbolTable
 70
     5
  0
LTYPE
  5
14
330
5
100
AcDbSymbolTableRecord
100
AcDbLinetypeTableRecord
  2
ByBlock
 70
     0
  3

 72
    65
 73
     0
 40
0.0
  0
LTYPE
  5
15
330
5
100
AcDbSymbolTableRecord
100
AcDbLinetypeTableRecord
  2
ByLayer
 70
     0
  3

 72
    65
 73
     0
 40
0.0
  0
LTYPE
  5
16
330
5
100
AcDbSymbolTableRecord
100
AcDbLinetypeTableRecord
  2
Continuous
 70
     0
  3
Solid line
 72
    65
 73
     0
 40
0.0
  0
LTYPE
  5
6E
330
5
100
AcDbSymbolTableRecord
100
AcDbLinetypeTableRecord
  2
CONTINOUS
 70
     0
  3
______________________________
 72
    65
 73
     0
 40
0.0
  0
LTYPE
  5
6F
330
5
100
AcDbSymbolTableRecord
100
AcDbLinetypeTableRecord
  2
DASHED
 70
     0
  3
__ __ __ __ __ __ __ __ __ __ __ __ __ __ __ __
 72
    65
 73
     2
 40
4.5
 49
3.0
 74
     0
 49
-1.5
 74
     0
  0
LTYPE
  5
70
330
5
100
AcDbSymbolTableRecord
100
AcDbLinetypeTableRecord
  2
PHANTOM
 70
     0
  3
______  __  __  ______  __  __  _____
 72
    65
 73
     6
 40
15.0
 49
7.5
 74
     0
 49
-1.5
 74
     0
 49
1.5
 74
     0
 49
-1.5
 74
     0
 49
1.5
 74
     0
 49
-1.5
 74
     0
  0
LTYPE
  5
71
330
5
100
AcDbSymbolTableRecord
100
AcDbLinetypeTableRecord
  2
CENTER
 70
     0
  3
____ _ ____ _ ____ _ ____ _ ____ _ ____
 72
    65
 73
     4
 40
12.0
 49
7.5
 74
     0
 49
-1.5
 74
     0
 49
1.5
 74
     0
 49
-1.5
 74
     0
  0
ENDTAB
  0
TABLE
  2
LAYER
  5
2
330
0
100
AcDbSymbolTable
 70
     2
  0
LAYER
  5
10
330
2
100
AcDbSymbolTableRecord
100
AcDbLayerTableRecord
  2
0
 70
     0
 62
     7
  6
Continuous
370
    -3
390
F
  0
LAYER
  5
2B5
330
2
100
AcDbSymbolTableRecord
100
AcDbLayerTableRecord
  2
Defpoints
 70
     0
 62
     7
  6
Continuous
290
     0
370
    -3
390
F
  0
ENDTAB
  0
TABLE
  2
STYLE
  5
3
330
0
100
AcDbSymbolTable
 70
     1
  0
STYLE
  5
11
330
3
100
AcDbSymbolTableRecord
100
AcDbTextStyleTableRecord
  2
Standard
 70
     0
 40
0.0
 41
1.0
 50
0.0
 71
     0
 42
2.5
  3
ROMANS
  4
EXTFONT
  0
ENDTAB
  0
TABLE
  2
VIEW
  5
6
330
0
100
AcDbSymbolTable
 70
     0
  0
ENDTAB
  0
TABLE
  2
UCS
  5
7
330
0
100
AcDbSymbolTable
 70
     0
  0
ENDTAB
  0
TABLE
  2
APPID
  5
9
330
0
100
AcDbSymbolTable
 70
     7
  0
APPID
  5
12
330
9
100
AcDbSymbolTableRecord
100
AcDbRegAppTableRecord
  2
ACAD
 70
     0
  0
APPID
  5
29C
330
9
100
AcDbSymbolTableRecord
100
AcDbRegAppTableRecord
  2
ACAD_DSTYLE_DIMJAG
 70
     0
  0
APPID
  5
3DC
330
9
100
AcDbSymbolTableRecord
100
AcDbRegAppTableRecord
  2
ACAD_DSTYLE_DIMJOGGED_JOGANGLE_SYMBOL
 70
     0
  0
APPID
  5
3DD
330
9
100
AcDbSymbolTableRecord
100
AcDbRegAppTableRecord
  2
ACAD_DSTYLE_DIM_LINETYPE
 70
     0
  0
APPID
  5
3DE
330
9
100
AcDbSymbolTableRecord
100
AcDbRegAppTableRecord
  2
ACAD_DSTYLE_DIM_EXT1_LINETYPE
 70
     0
  0
APPID
  5
3DF
330
9
100
AcDbSymbolTableRecord
100
AcDbRegAppTableRecord
  2
ACAD_DSTYLE_DIM_EXT2_LINETYPE
 70
     0
  0
APPID
  5
418
330
9
100
AcDbSymbolTableRecord
100
AcDbRegAppTableRecord
  2
ACAD_MLEADERVER
 70
     0
  0
ENDTAB
  0
TABLE
  2
DIMSTYLE
  5
A
330
0
100
AcDbSymbolTable
 70
     2
100
AcDbDimStyleTable
  0
DIMSTYLE
105
27
330
A
100
AcDbSymbolTableRecord
100
AcDbDimStyleTableRecord
  2
ISO-25
 70
     0
 41
2.5
 42
0.625
 43
3.75
 44
1.25
 73
     0
 74
     0
 77
     1
 78
     8
140
2.5
141
2.5
143
0.03937007874016
147
0.625
171
     3
172
     1
178
     0
271
     2
272
     2
274
     3
278
    44
283
     0
284
     8
340
11
  0
DIMSTYLE
105
294
102
{ACAD_REACTORS
330
2AE
330
2C2
330
2E1
330
2EE
330
2FA
330
307
330
319
330
325
330
331
330
33E
330
34B
330
359
330
366
330
373
330
380
330
38D
330
39A
330
3A6
330
3B4
330
3C1
102
}
330
A
100
AcDbSymbolTableRecord
100
AcDbDimStyleTableRecord
  2
DIMSTYLE_FULLSCALE
 70
     0
 41
2.5
 42
0.625
 43
3.75
 44
1.25
 73
     0
 74
     0
 77
     1
 78
     8
140
2.5
141
2.5
143
0.039370079
147
0.625
171
     3
172
     1
178
     0
271
     2
272
     2
274
     3
278
    44
283
     0
284
     8
340
11
341
295
342
295
1001
ACAD_DSTYLE_DIMJAG
1070
   388
1040
1.5
1001
ACAD_DSTYLE_DIMJOGGED_JOGANGLE_SYMBOL
1070
   384
1040
1.570796326794897
1001
ACAD_DSTYLE_DIM_LINETYPE
1070
   380
1005
14
1001
ACAD_DSTYLE_DIM_EXT1_LINETYPE
1070
   381
1005
14
1001
ACAD_DSTYLE_DIM_EXT2_LINETYPE
1070
   382
1005
14
  0
ENDTAB
  0
TABLE
  2
BLOCK_RECORD
  5
1
330
0
100
AcDbSymbolTable
 70
    30
  0
BLOCK_RECORD
  5
1F
330
1
100
AcDbSymbolTableRecord
100
AcDbBlockTableRecord
  2
*Model_Space
340
22
  0
BLOCK_RECORD
  5
1B
330
1
100
AcDbSymbolTableRecord
100
AcDbBlockTableRecord
  2
*Paper_Space
340
1E
  0
BLOCK_RECORD
  5
23
330
1
100
AcDbSymbolTableRecord
100
AcDbBlockTableRecord
  2
*Paper_Space0
340
26
  0
BLOCK_RECORD
  5
72
330
1
100
AcDbSymbolTableRecord
100
AcDbBlockTableRecord
  2
DTL0001
340
0
102
{BLKREFS
331
2AA
102
}
  0
BLOCK_RECORD
  5
75
330
1
100
AcDbSymbolTableRecord
100
AcDbBlockTableRecord
  2
DTL0002
340
0
102
{BLKREFS
331
2AB
102
}
  0
BLOCK_RECORD
  5
78
330
1
100
AcDbSymbolTableRecord
100
AcDbBlockTableRecord
  2
DTL0003
340
0
102
{BLKREFS
331
2AC
102
}
  0
BLOCK_RECORD
  5
7B
330
1
100
AcDbSymbolTableRecord
100
AcDbBlockTableRecord
  2
DTL0004
340
0
102
{BLKREFS
331
2AD
102
}
  0
BLOCK_RECORD
  5
295
330
1
100
AcDbSymbolTableRecord
100
AcDbBlockTableRecord
  2
_Closed
340
0
  0
BLOCK_RECORD
  5
2AF
330
1
100
AcDbSymbolTableRecord
100
AcDbBlockTableRecord
  2
_Open
340
0
102
{BLKREFS
331
2BD
331
2BC
331
2CA
331
2C9
331
2E9
331
2E8
331
2F5
331
2F4
331
302
331
301
331
0
331
320
331
31F
331
32C
331
32B
331
339
331
338
331
346
331
345
331
354
331
353
331
361
331
360
331
36E
331
36D
331
37B
331
37A
331
388
331
387
331
395
331
394
331
3A1
331
3A0
331
3AF
331
3AE
331
3BC
331
3BB
331
3C9
331
3C8
102
}
  0
BLOCK_RECORD
  5
2B6
330
1
100
AcDbSymbolTableRecord
100
AcDbBlockTableRecord
  2
*D7
340
0
  0
BLOCK_RECORD
  5
2C3
330
1
100
AcDbSymbolTableRecord
100
AcDbBlockTableRecord
  2
*D8
340
0
  0
BLOCK_RECORD
  5
2CF
330
1
100
AcDbSymbolTableRecord
100
AcDbBlockTableRecord
  2
SYM0001
340
0
102
{BLKREFS
331
2D5
102
}
  0
BLOCK_RECORD
  5
2D8
330
1
100
AcDbSymbolTableRecord
100
AcDbBlockTableRecord
  2
SYM0002
340
0
102
{BLKREFS
331
2DE
102
}
  0
BLOCK_RECORD
  5
2E2
330
1
100
AcDbSymbolTableRecord
100
AcDbBlockTableRecord
  2
*D11
340
0
  0
BLOCK_RECORD
  5
2EF
330
1
100
AcDbSymbolTableRecord
100
AcDbBlockTableRecord
  2
*D12
340
0
  0
BLOCK_RECORD
  5
2FB
330
1
100
AcDbSymbolTableRecord
100
AcDbBlockTableRecord
  2
*D13
340
0
  0
BLOCK_RECORD
  5
308
330
1
100
AcDbSymbolTableRecord
100
AcDbBlockTableRecord
  2
_None
340
0
  0
BLOCK_RECORD
  5
30B
330
1
100
AcDbSymbolTableRecord
100
AcDbBlockTableRecord
  2
*D15
340
0
  0
BLOCK_RECORD
  5
31A
330
1
100
AcDbSymbolTableRecord
100
AcDbBlockTableRecord
  2
*D16
340
0
  0
BLOCK_RECORD
  5
326
330
1
100
AcDbSymbolTableRecord
100
AcDbBlockTableRecord
  2
*D17
340
0
  0
BLOCK_RECORD
  5
332
330
1
100
AcDbSymbolTableRecord
100
AcDbBlockTableRecord
  2
*D18
340
0
  0
BLOCK_RECORD
  5
33F
330
1
100
AcDbSymbolTableRecord
100
AcDbBlockTableRecord
  2
*D19
340
0
  0
BLOCK_RECORD
  5
34C
330
1
100
AcDbSymbolTableRecord
100
AcDbBlockTableRecord
  2
*D20
340
0
  0
BLOCK_RECORD
  5
35A
330
1
100
AcDbSymbolTableRecord
100
AcDbBlockTableRecord
  2
*D21
340
0
  0
BLOCK_RECORD
  5
367
330
1
100
AcDbSymbolTableRecord
100
AcDbBlockTableRecord
  2
*D22
340
0
  0
BLOCK_RECORD
  5
374
330
1
100
AcDbSymbolTableRecord
100
AcDbBlockTableRecord
  2
*D23
340
0
  0
BLOCK_RECORD
  5
381
330
1
100
AcDbSymbolTableRecord
100
AcDbBlockTableRecord
  2
*D24
340
0
  0
BLOCK_RECORD
  5
38E
330
1
100
AcDbSymbolTableRecord
100
AcDbBlockTableRecord
  2
*D25
340
0
  0
BLOCK_RECORD
  5
39B
330
1
100
AcDbSymbolTableRecord
100
AcDbBlockTableRecord
  2
*D26
340
0
  0
BLOCK_RECORD
  5
3A7
330
1
100
AcDbSymbolTableRecord
100
AcDbBlockTableRecord
  2
*D27
340
0
  0
BLOCK_RECORD
  5
3B5
330
1
100
AcDbSymbolTableRecord
100
AcDbBlockTableRecord
  2
*D28
340
0
  0
BLOCK_RECORD
  5
3C2
330
1
100
AcDbSymbolTableRecord
100
AcDbBlockTableRecord
  2
*D29
340
0
  0
ENDTAB
  0
ENDSEC
  0
SECTION
  2
BLOCKS
  0
BLOCK
  5
20
330
1F
100
AcDbEntity
  8
0
100
AcDbBlockBegin
  2
*Model_Space
 70
     0
 10
0.0
 20
0.0
 30
0.0
  3
*Model_Space
  1

  0
ENDBLK
  5
21
330
1F
100
AcDbEntity
  8
0
100
AcDbBlockEnd
  0
BLOCK
  5
1C
330
1B
100
AcDbEntity
 67
     1
  8
0
100
AcDbBlockBegin
  2
*Paper_Space
 70
     0
 10
0.0
 20
0.0
 30
0.0
  3
*Paper_Space
  1

  0
ENDBLK
  5
1D
330
1B
100
AcDbEntity
 67
     1
  8
0
100
AcDbBlockEnd
  0
BLOCK
  5
24
330
23
100
AcDbEntity
  8
0
100
AcDbBlockBegin
  2
*Paper_Space0
 70
     0
 10
0.0
 20
0.0
 30
0.0
  3
*Paper_Space0
  1

  0
ENDBLK
  5
25
330
23
100
AcDbEntity
  8
0
100
AcDbBlockEnd
  0
BLOCK
  5
73
330
72
100
AcDbEntity
  8
0
100
AcDbBlockBegin
  2
DTL0001
 70
     0
 10
0.0
 20
0.0
 30
0.0
  3
DTL0001
  1

  0
POINT
  5
7E
330
72
100
AcDbEntity
  8
0
 62
     0
100
AcDbPoint
 10
152.9997589985626
 20
-69.99998321135922
 30
0.0
  0
POINT
  5
7F
330
72
100
AcDbEntity
  8
0
 62
     0
100
AcDbPoint
 10
152.9997613827486
 20
-69.99998321135922
 30
0.0
  0
POINT
  5
80
330
72
100
AcDbEntity
  8
0
 62
     0
100
AcDbPoint
 10
-146.0002636512017
 20
-86.59998470147502
 30
0.0
  0
POINT
  5
81
330
72
100
AcDbEntity
  8
0
 62
     0
100
AcDbPoint
 10
152.9997589985626
 20
-43.99998460213396
 30
0.0
  0
POINT
  5
82
330
72
100
AcDbEntity
  8
0
 62
     0
100
AcDbPoint
 10
-117.0002489487233
 20
-0.000009536742709
 30
0.0
  0
POINT
  5
83
330
72
100
AcDbEntity
  8
0
 62
     0
100
AcDbPoint
 10
0.0
 20
0.0
 30
0.0
  0
POINT
  5
84
330
72
100
AcDbEntity
  8
0
 62
     0
100
AcDbPoint
 10
0.0
 20
0.0
 30
0.0
  0
LINE
  5
85
330
72
100
AcDbEntity
  8
0
  6
Continuous
 62
     7
100
AcDbLine
 10
-154.0002684195726
 20
-19.90747054785606
 30
0.0
 11
-146.0002636512015
 21
-19.90747054785606
 31
0.0
  0
LINE
  5
86
330
72
100
AcDbEntity
  8
0
  6
Continuous
 62
     7
100
AcDbLine
 10
-154.0002684195726
 20
-24.81494566540141
 30
0.0
 11
-146.0002636512015
 21
-24.81494566540141
 31
0.0
  0
LINE
  5
87
330
72
100
AcDbEntity
  8
0
  6
Continuous
 62
     7
100
AcDbLine
 10
126.6997107188022
 20
-36.21537776788136
 30
0.0
 11
126.6997107188022
 21
-77.78459163506886
 31
0.0
  0
LINE
  5
88
330
72
100
AcDbEntity
  8
0
  6
Continuous
 62
     7
100
AcDbLine
 10
140.6997107188024
 20
-67.39228816827199
 30
0.0
 11
126.6997107188024
 21
-67.39228816827199
 31
0.0
  0
LINE
  5
89
330
72
100
AcDbEntity
  8
0
  6
Continuous
 62
     4
100
AcDbLine
 10
126.6997107188024
 20
-68.99998579422709
 30
0.0
 11
113.9997597932913
 21
-68.99998579422709
 31
0.0
  0
LINE
  5
8A
330
72
100
AcDbEntity
  8
0
  6
Continuous
 62
     7
100
AcDbLine
 10
126.6997107188024
 20
-43.99998460213396
 30
0.0
 11
114.999759594609
 21
-43.99998460213396
 31
0.0
  0
LINE
  5
8B
330
72
100
AcDbEntity
  8
0
  6
Continuous
 62
     7
100
AcDbLine
 10
-154.0002429882586
 20
-94.09251157075118
 30
0.0
 11
-146.0002636512015
 21
-94.09251157075118
 31
0.0
  0
LINE
  5
8C
330
72
100
AcDbEntity
  8
0
  6
Continuous
 62
     7
100
AcDbLine
 10
-154.0002429882586
 20
-103.9074729320419
 30
0.0
 11
-146.0002636512015
 21
-103.9074729320419
 31
0.0
  0
LINE
  5
8D
330
72
100
AcDbEntity
  8
0
  6
Continuous
 62
     7
100
AcDbLine
 10
34.99975701174139
 20
-5.185031684834485
 30
0.0
 11
26.99975860119844
 21
-5.185031684834485
 31
0.0
  0
LINE
  5
8E
330
72
100
AcDbEntity
  8
0
  6
Continuous
 62
     0
100
AcDbLine
 10
152.9997589985626
 20
-43.99998460213396
 30
0.0
 11
152.9997589985626
 21
-69.99998321135922
 31
0.0
  0
LINE
  5
8F
330
72
100
AcDbEntity
  8
0
  6
Continuous
 62
     7
100
AcDbLine
 10
140.6997107188024
 20
-36.21537776788136
 30
0.0
 11
126.6997107188024
 21
-36.21537776788136
 31
0.0
  0
LINE
  5
90
330
72
100
AcDbEntity
  8
0
  6
Continuous
 62
     7
100
AcDbLine
 10
-156.0002636512015
 20
-9.999993244807229
 30
0.0
 11
-154.0002684195726
 21
-9.999993244807229
 31
0.0
  0
LINE
  5
91
330
72
100
AcDbEntity
  8
0
  6
Continuous
 62
     7
100
AcDbLine
 10
-156.0002636512015
 20
-103.9999920527143
 30
0.0
 11
-154.0002429882586
 21
-103.9999920527143
 31
0.0
  0
LINE
  5
92
330
72
100
AcDbEntity
  8
0
  6
Continuous
 62
     0
100
AcDbLine
 10
-153.2935252807171
 20
-108.8149472548508
 30
0.0
 11
-146.000263651196
 21
-112.7005809921782
 31
0.0
  0
LINE
  5
93
330
72
100
AcDbEntity
  8
0
  6
Continuous
 62
     7
100
AcDbLine
 10
-154.0002429882586
 20
-108.8149472548585
 30
0.0
 11
-146.0002636512015
 21
-108.8149472548585
 31
0.0
  0
LINE
  5
94
330
72
100
AcDbEntity
  8
0
  6
Continuous
 62
     7
100
AcDbLine
 10
-156.0002636512015
 20
-19.99999284744285
 30
0.0
 11
-154.0002684195726
 21
-19.99999284744285
 31
0.0
  0
LINE
  5
95
330
72
100
AcDbEntity
  8
0
  6
Continuous
 62
     7
100
AcDbLine
 10
-156.0002636512015
 20
-93.99999245007871
 30
0.0
 11
-154.0002429882586
 21
-93.99999245007871
 31
0.0
  0
LINE
  5
96
330
72
100
AcDbEntity
  8
0
  6
Continuous
 62
     7
100
AcDbLine
 10
-154.0002684195726
 20
-10.09251395493698
 30
0.0
 11
-146.0002636512015
 21
-10.09251395493698
 31
0.0
  0
LINE
  5
97
330
72
100
AcDbEntity
  8
0
  6
Continuous
 62
     0
100
AcDbLine
 10
-153.2935610813048
 20
-5.18504122156147
 30
0.0
 11
-146.0002636512098
 21
-1.299388410748989
 31
0.0
  0
LINE
  5
98
330
72
100
AcDbEntity
  8
0
  6
Continuous
 62
     7
100
AcDbLine
 10
-154.0002684195726
 20
-5.185041221577421
 30
0.0
 11
-146.0002636512015
 21
-5.185041221577421
 31
0.0
  0
LINE
  5
99
330
72
100
AcDbEntity
  8
0
  6
Continuous
 62
     7
100
AcDbLine
 10
-156.0002636512016
 20
-9.999993244807456
 30
0.0
 11
-156.0002636512016
 21
-19.99999284744308
 31
0.0
  0
LINE
  5
9A
330
72
100
AcDbEntity
  8
0
  6
Continuous
 62
     0
100
AcDbLine
 10
153.999758799881
 20
-68.99998579422756
 30
0.0
 11
152.9997613827489
 21
-69.99998321135958
 31
0.0
  0
LINE
  5
9B
330
72
100
AcDbEntity
  8
0
  6
Continuous
 62
     7
100
AcDbLine
 10
-131.0002636512015
 20
-0.000009536742709
 30
0.0
 11
-99.00024457771542
 21
-0.000009536742709
 31
0.0
  0
LINE
  5
9C
330
72
100
AcDbEntity
  8
0
  6
Continuous
 62
     7
100
AcDbLine
 10
34.99975701174139
 20
-10.09250441819427
 30
0.0
 11
26.99975860119844
 21
-10.09250441819427
 31
0.0
  0
LINE
  5
9D
330
72
100
AcDbEntity
  8
0
  6
Continuous
 62
     7
100
AcDbLine
 10
-156.0002636512016
 20
-93.99999245007893
 30
0.0
 11
-156.0002636512016
 21
-103.9999920527143
 31
0.0
  0
LINE
  5
9E
330
72
100
AcDbEntity
  8
0
  6
Continuous
 62
     7
100
AcDbLine
 10
114.9997591087195
 20
-69.99998511921342
 30
0.0
 11
113.9997594605982
 21
-68.99998538679841
 31
0.0
  0
LINE
  5
9F
330
72
100
AcDbEntity
  8
0
  6
Continuous
 62
     7
100
AcDbLine
 10
36.99975860119844
 20
-19.99998490015719
 30
0.0
 11
34.99975701174139
 21
-19.99998490015719
 31
0.0
  0
LINE
  5
A0
330
72
100
AcDbEntity
  8
0
  6
Continuous
 62
     7
100
AcDbLine
 10
37.99976197879505
 20
-24.49998440345189
 30
0.0
 11
34.99975701174139
 21
-24.49998440345189
 31
0.0
  0
LINE
  5
A1
330
72
100
AcDbEntity
  8
0
  6
Continuous
 62
     7
100
AcDbLine
 10
47.99976476034499
 20
-33.99998370806452
 30
0.0
 11
38.99976257484104
 21
-33.99998370806452
 31
0.0
  0
LINE
  5
A2
330
72
100
AcDbEntity
  8
0
  6
Continuous
 62
     7
100
AcDbLine
 10
-154.0002429882587
 20
-89.1850404268489
 30
0.0
 11
-154.0002429882587
 21
-108.8149472548587
 31
0.0
  0
LINE
  5
A3
330
72
100
AcDbEntity
  8
0
  6
Continuous
 62
     7
100
AcDbLine
 10
113.9997597932913
 20
-68.99998579422709
 30
0.0
 11
109.9997597932911
 21
-68.99998579422709
 31
0.0
  0
LINE
  5
A4
330
72
100
AcDbEntity
  8
0
  6
Continuous
 62
     7
100
AcDbLine
 10
37.99976197879505
 20
-89.49998499949834
 30
0.0
 11
34.99975701174139
 21
-89.49998499949834
 31
0.0
  0
LINE
  5
A5
330
72
100
AcDbEntity
  8
0
  6
Continuous
 62
     7
100
AcDbLine
 10
37.99976197879482
 20
-89.49998499949834
 30
0.0
 11
37.99976197879482
 21
-24.49998440345189
 31
0.0
  0
LINE
  5
A6
330
72
100
AcDbEntity
  8
0
  6
Continuous
 62
     7
100
AcDbLine
 10
47.99976476034499
 20
-79.99998410542867
 30
0.0
 11
47.99976476034499
 21
-33.99998370806452
 31
0.0
  0
LINE
  5
A7
330
72
100
AcDbEntity
  8
0
  6
Continuous
 62
     7
100
AcDbLine
 10
47.99976476034499
 20
-79.99998410542867
 30
0.0
 11
38.99976257484104
 21
-79.99998410542867
 31
0.0
  0
LINE
  5
A8
330
72
100
AcDbEntity
  8
0
  6
Continuous
 62
     0
100
AcDbLine
 10
-146.0002636512015
 20
-113.4999847014751
 30
0.0
 11
-131.0002636512015
 21
-113.4999847014751
 31
0.0
  0
LINE
  5
A9
330
72
100
AcDbEntity
  8
0
  6
Continuous
 62
     0
100
AcDbLine
 10
-146.0002636512015
 20
-0.499984701475114
 30
0.0
 11
-131.0002636512015
 21
-0.499984701475114
 31
0.0
  0
LINE
  5
AA
330
72
100
AcDbEntity
  8
0
  6
Continuous
 62
     0
100
AcDbLine
 10
-204.1659066119202
 20
-32.28831985489762
 30
0.0
 11
-154.000268419581
 21
-5.56155395557716
 31
0.0
  0
LINE
  5
AB
330
72
100
AcDbEntity
  8
0
  6
Continuous
 62
     0
100
AcDbLine
 10
-99.00024457771542
 20
-9.999993244807229
 30
0.0
 11
-18.00023961066245
 21
-9.999993244807229
 31
0.0
  0
LINE
  5
AC
330
72
100
AcDbEntity
  8
0
  6
Continuous
 62
     7
100
AcDbLine
 10
-99.50024964411045
 20
-19.49998142321988
 30
0.0
 11
-99.50009705622574
 21
-19.49998142321988
 31
0.0
  0
LINE
  5
AD
330
72
100
AcDbEntity
  8
0
  6
Continuous
 62
     7
100
AcDbLine
 10
36.99975860119844
 20
-103.9999856948857
 30
0.0
 11
34.99975701174139
 21
-103.9999856948857
 31
0.0
  0
LINE
  5
AE
330
72
100
AcDbEntity
  8
0
  6
Continuous
 62
     7
100
AcDbLine
 10
36.99975860119844
 20
-93.99998609225008
 30
0.0
 11
34.99975701174139
 21
-93.99998609225008
 31
0.0
  0
LINE
  5
AF
330
72
100
AcDbEntity
  8
0
  6
Continuous
 62
     0
100
AcDbLine
 10
-146.0002636512017
 20
-0.499984701475341
 30
0.0
 11
-146.0002636512017
 21
-113.4999847014751
 31
0.0
  0
LINE
  5
B0
330
72
100
AcDbEntity
  8
0
  6
Continuous
 62
     0
100
AcDbLine
 10
-204.1659066119066
 20
-81.71164954802937
 30
0.0
 11
-154.0002429882532
 21
-108.4384289964007
 31
0.0
  0
LINE
  5
B1
330
72
100
AcDbEntity
  8
0
  6
Continuous
 62
     0
100
AcDbLine
 10
-194.9898664028714
 20
-27.39959746670229
 30
0.0
 11
-148.0002636512015
 21
-27.39959746670229
 31
0.0
  0
LINE
  5
B2
330
72
100
AcDbEntity
  8
0
  6
Continuous
 62
     7
100
AcDbLine
 10
126.6997107188024
 20
-69.99998321135922
 30
0.0
 11
114.999759594609
 21
-69.99998321135922
 31
0.0
  0
LINE
  5
B3
330
72
100
AcDbEntity
  8
0
  6
Continuous
 62
     4
100
AcDbLine
 10
153.9997587998805
 20
-44.99998440345189
 30
0.0
 11
140.6997107188024
 21
-44.99998440345189
 31
0.0
  0
LINE
  5
B4
330
72
100
AcDbEntity
  8
0
  6
Continuous
 62
     7
100
AcDbLine
 10
34.99975701174139
 20
-19.9074626005704
 30
0.0
 11
26.99975860119844
 21
-19.9074626005704
 31
0.0
  0
LINE
  5
B5
330
72
100
AcDbEntity
  8
0
  6
Continuous
 62
     7
100
AcDbLine
 10
34.99975701174139
 20
-94.09250521292279
 30
0.0
 11
27.00000337759684
 21
-94.09250521292279
 31
0.0
  0
LINE
  5
B6
330
72
100
AcDbEntity
  8
0
  6
Continuous
 62
     0
100
AcDbLine
 10
36.99975860119821
 20
-93.99998609225031
 30
0.0
 11
36.99975860119821
 21
-103.9999856948859
 31
0.0
  0
LINE
  5
B7
330
72
100
AcDbEntity
  8
0
  6
Continuous
 62
     7
100
AcDbLine
 10
26.99975860119821
 20
-113.9999852975216
 30
0.0
 11
26.99975860119821
 21
0.0
 31
0.0
  0
LINE
  5
B8
330
72
100
AcDbEntity
  8
0
  6
Continuous
 62
     7
100
AcDbLine
 10
-17.50025361775351
 20
-19.49998142321988
 30
0.0
 11
-17.50040620563777
 21
-19.49998142321988
 31
0.0
  0
LINE
  5
B9
330
72
100
AcDbEntity
  8
0
  6
Continuous
 62
     7
100
AcDbLine
 10
34.99975701174139
 20
-89.18503406902028
 30
0.0
 11
27.00000337759684
 21
-89.18503406902028
 31
0.0
  0
LINE
  5
BA
330
72
100
AcDbEntity
  8
0
  6
Continuous
 62
     7
100
AcDbLine
 10
34.99975701174139
 20
-108.8149345392017
 30
0.0
 11
27.00000337759684
 21
-108.8149345392017
 31
0.0
  0
LINE
  5
BB
330
72
100
AcDbEntity
  8
0
  6
Continuous
 62
     7
100
AcDbLine
 10
34.99975701174139
 20
-103.9074665742132
 30
0.0
 11
27.00000337759684
 21
-103.9074665742132
 31
0.0
  0
LINE
  5
BC
330
72
100
AcDbEntity
  8
0
  6
Continuous
 62
     7
100
AcDbLine
 10
34.99975701174117
 20
-108.8149345392017
 30
0.0
 11
34.99975701174117
 21
-89.18503406902028
 31
0.0
  0
LINE
  5
BD
330
72
100
AcDbEntity
  8
0
  6
CENTER
 62
     4
100
AcDbLine
 10
161.7340295917345
 20
-56.99998470147511
 30
0.0
 11
-225.7451117137148
 21
-56.99998470147511
 31
0.0
  0
LINE
  5
BE
330
72
100
AcDbEntity
  8
0
  6
Continuous
 62
     7
100
AcDbLine
 10
-18.00023961066245
 20
-103.9999920527143
 30
0.0
 11
-99.00024457771588
 21
-103.9999920527143
 31
0.0
  0
LINE
  5
BF
330
72
100
AcDbEntity
  8
0
  6
Continuous
 62
     7
100
AcDbLine
 10
96.99976043890305
 20
-48.4122010345221
 30
0.0
 11
105.9997605421705
 21
-65.58776807766849
 31
0.0
  0
LINE
  5
C0
330
72
100
AcDbEntity
  8
0
  6
Continuous
 62
     7
100
AcDbLine
 10
-131.0002636512015
 20
-113.9999852975216
 30
0.0
 11
-99.00024457771542
 21
-113.9999852975216
 31
0.0
  0
LINE
  5
C1
330
72
100
AcDbEntity
  8
0
  6
CENTER
 62
     4
100
AcDbLine
 10
-191.0002636512017
 20
-21.65330501397534
 30
0.0
 11
-191.0002636512017
 21
-92.27223201592824
 31
0.0
  0
LINE
  5
C2
330
72
100
AcDbEntity
  8
0
  6
Continuous
 62
     7
100
AcDbLine
 10
140.6997107188022
 20
-36.21537776788136
 30
0.0
 11
140.6997107188022
 21
-77.78459163506886
 31
0.0
  0
LINE
  5
C3
330
72
100
AcDbEntity
  8
0
  6
Continuous
 62
     7
100
AcDbLine
 10
34.99975701174117
 20
-24.78503168483462
 30
0.0
 11
34.99975701174117
 21
-5.185031684834485
 31
0.0
  0
LINE
  5
C4
330
72
100
AcDbEntity
  8
0
  6
Continuous
 62
     0
100
AcDbLine
 10
-99.00024457771542
 20
-19.99999284744285
 30
0.0
 11
-18.00023961066245
 21
-19.99999284744285
 31
0.0
  0
LINE
  5
C5
330
72
100
AcDbEntity
  8
0
  6
Continuous
 62
     4
100
AcDbLine
 10
153.9997587998805
 20
-68.99998579422709
 30
0.0
 11
140.6997107188024
 21
-68.99998579422709
 31
0.0
  0
LINE
  5
C6
330
72
100
AcDbEntity
  8
0
  6
Continuous
 62
     7
100
AcDbLine
 10
-154.0002684195728
 20
-5.185041221577421
 30
0.0
 11
-154.0002684195728
 21
-24.81494566540164
 31
0.0
  0
LINE
  5
C7
330
72
100
AcDbEntity
  8
0
  6
Continuous
 62
     7
100
AcDbLine
 10
-154.0002429882586
 20
-89.1850404268489
 30
0.0
 11
-146.0002636512015
 21
-89.1850404268489
 31
0.0
  0
LINE
  5
C8
330
72
100
AcDbEntity
  8
0
  6
Continuous
 62
     7
100
AcDbLine
 10
113.9997597932913
 20
-44.99998440345189
 30
0.0
 11
109.9997597932911
 21
-44.99998440345189
 31
0.0
  0
LINE
  5
C9
330
72
100
AcDbEntity
  8
0
  6
Continuous
 62
     7
100
AcDbLine
 10
105.999759793291
 20
-72.99998311201782
 30
0.0
 11
47.99976476034494
 21
-72.99998311201777
 31
0.0
  0
LINE
  5
CA
330
72
100
AcDbEntity
  8
0
  6
Continuous
 62
     7
100
AcDbLine
 10
105.9997597932911
 20
-72.99998311201807
 30
0.0
 11
105.9997597932911
 21
-65.58776912737812
 31
0.0
  0
LINE
  5
CB
330
72
100
AcDbEntity
  8
0
  6
Continuous
 62
     7
100
AcDbLine
 10
114.999759594609
 20
-43.99998460213419
 30
0.0
 11
114.999759594609
 21
-69.99998321135922
 31
0.0
  0
LINE
  5
CC
330
72
100
AcDbEntity
  8
0
  6
Continuous
 62
     7
100
AcDbLine
 10
-131.0002636512017
 20
-0.000009536742709
 30
0.0
 11
-131.0002636512017
 21
-113.9999852975216
 31
0.0
  0
LINE
  5
CD
330
72
100
AcDbEntity
  8
0
  6
Continuous
 62
     7
100
AcDbLine
 10
140.6997107188024
 20
-77.78459163506886
 30
0.0
 11
126.6997107188024
 21
-77.78459163506886
 31
0.0
  0
LINE
  5
CE
330
72
100
AcDbEntity
  8
0
  6
Continuous
 62
     7
100
AcDbLine
 10
34.99975701174139
 20
-24.78503168483439
 30
0.0
 11
26.99975860119844
 21
-24.78503168483439
 31
0.0
  0
LINE
  5
CF
330
72
100
AcDbEntity
  8
0
  6
Continuous
 62
     7
100
AcDbLine
 10
152.9997589985626
 20
-43.99998460213396
 30
0.0
 11
140.6997107188024
 21
-43.99998460213396
 31
0.0
  0
LINE
  5
D0
330
72
100
AcDbEntity
  8
0
  6
Continuous
 62
     7
100
AcDbLine
 10
108.9997599919734
 20
-41.80383277718897
 30
0.0
 11
108.9997599919734
 21
-72.19613742049
 31
0.0
  0
LINE
  5
D1
330
72
100
AcDbEntity
  8
0
  6
Continuous
 62
     7
100
AcDbLine
 10
113.9997597932911
 20
-44.99998440345189
 30
0.0
 11
113.9997597932911
 21
-68.99998579422709
 31
0.0
  0
LINE
  5
D2
330
72
100
AcDbEntity
  8
0
  6
Continuous
 62
     7
100
AcDbLine
 10
153.9997587998805
 20
-44.99998440345189
 30
0.0
 11
153.9997587998805
 21
-68.99998579422709
 31
0.0
  0
LINE
  5
D3
330
72
100
AcDbEntity
  8
0
  6
Continuous
 62
     7
100
AcDbLine
 10
96.99975919724466
 20
-65.58776912737812
 30
0.0
 11
96.99975919724466
 21
-48.41220107030085
 31
0.0
  0
LINE
  5
D4
330
72
100
AcDbEntity
  8
0
  6
Continuous
 62
     7
100
AcDbLine
 10
113.9997597415996
 20
-44.9999844900107
 30
0.0
 11
114.9997594740147
 21
-43.99998484188929
 31
0.0
  0
LINE
  5
D5
330
72
100
AcDbEntity
  8
0
  6
Continuous
 62
     0
100
AcDbLine
 10
36.99975860119821
 20
-9.99998370806452
 30
0.0
 11
36.99975860119821
 21
-19.99998490015741
 31
0.0
  0
LINE
  5
D6
330
72
100
AcDbEntity
  8
0
  6
Continuous
 62
     7
100
AcDbLine
 10
-18.00023961066245
 20
-3.499984602133964
 30
0.0
 11
-99.00024457771542
 21
-3.499984602133964
 31
0.0
  0
LINE
  5
D7
330
72
100
AcDbEntity
  8
0
  6
Continuous
 62
     7
100
AcDbLine
 10
-18.00023961066245
 20
-113.9999852975216
 30
0.0
 11
-18.00023961066245
 21
0.0
 31
0.0
  0
LINE
  5
D8
330
72
100
AcDbEntity
  8
0
  6
Continuous
 62
     7
100
AcDbLine
 10
105.9997597932913
 20
-40.99998470147511
 30
0.0
 11
47.99976476034499
 21
-40.99998470147511
 31
0.0
  0
LINE
  5
D9
330
72
100
AcDbEntity
  8
0
  6
Continuous
 62
     7
100
AcDbLine
 10
36.99975860119844
 20
-9.999983708064292
 30
0.0
 11
34.99975701174139
 21
-9.999983708064292
 31
0.0
  0
LINE
  5
DA
330
72
100
AcDbEntity
  8
0
  6
Continuous
 62
     7
100
AcDbLine
 10
26.99975860119844
 20
0.0
 30
0.0
 11
-18.00023961066222
 21
0.0
 31
0.0
  0
LINE
  5
DB
330
72
100
AcDbEntity
  8
0
  6
Continuous
 62
     7
100
AcDbLine
 10
-99.00024457771565
 20
-113.9999852975216
 30
0.0
 11
-99.00024457771565
 21
-0.000009536742709
 31
0.0
  0
LINE
  5
DC
330
72
100
AcDbEntity
  8
0
  6
Continuous
 62
     7
100
AcDbLine
 10
140.6997107188024
 20
-46.60768123467824
 30
0.0
 11
126.6997107188024
 21
-46.60768123467824
 31
0.0
  0
LINE
  5
DD
330
72
100
AcDbEntity
  8
0
  6
Continuous
 62
     4
100
AcDbLine
 10
126.6997107188024
 20
-44.99998440345189
 30
0.0
 11
113.9997597932913
 21
-44.99998440345189
 31
0.0
  0
LINE
  5
DE
330
72
100
AcDbEntity
  8
0
  6
Continuous
 62
     7
100
AcDbLine
 10
105.9997597932911
 20
-48.41220107030063
 30
0.0
 11
96.99975919724488
 21
-48.41220107030063
 31
0.0
  0
LINE
  5
DF
330
72
100
AcDbEntity
  8
0
  6
Continuous
 62
     7
100
AcDbLine
 10
26.99975860119844
 20
-113.9999852975216
 30
0.0
 11
-18.00023961066222
 21
-113.9999852975216
 31
0.0
  0
LINE
  5
E0
330
72
100
AcDbEntity
  8
0
  6
Continuous
 62
     7
100
AcDbLine
 10
-18.20024139256472
 20
-110.4999837094163
 30
0.0
 11
-18.00023831597593
 21
-110.2999806159685
 31
0.0
  0
LINE
  5
E1
330
72
100
AcDbEntity
  8
0
  6
Continuous
 62
     7
100
AcDbLine
 10
108.9997924061271
 20
-72.19610567285005
 30
0.0
 11
105.9996687222569
 21
-72.99998639787428
 31
0.0
  0
LINE
  5
E2
330
72
100
AcDbEntity
  8
0
  6
Continuous
 62
     7
100
AcDbLine
 10
105.9997597932911
 20
-40.99998470147511
 30
0.0
 11
105.9997597932911
 21
-48.41220107030085
 31
0.0
  0
LINE
  5
E3
330
72
100
AcDbEntity
  8
0
  6
Continuous
 62
     7
100
AcDbLine
 10
108.9997096961982
 20
-41.80384834891842
 30
0.0
 11
105.9997188155784
 21
-41.00000320841819
 31
0.0
  0
LINE
  5
E4
330
72
100
AcDbEntity
  8
0
  6
Continuous
 62
     7
100
AcDbLine
 10
105.9997597932911
 20
-65.58776912737812
 30
0.0
 11
96.99975919724488
 21
-65.58776912737812
 31
0.0
  0
LINE
  5
E5
330
72
100
AcDbEntity
  8
0
  6
Continuous
 62
     7
100
AcDbLine
 10
152.9997589985626
 20
-69.99998321135922
 30
0.0
 11
140.6997107188024
 21
-69.99998321135922
 31
0.0
  0
LINE
  5
E6
330
72
100
AcDbEntity
  8
0
  6
Continuous
 62
     7
100
AcDbLine
 10
-18.00023961066265
 20
-110.4999816219019
 30
0.0
 11
-99.00024457772085
 21
-110.499981621902
 31
0.0
  0
LINE
  5
E7
330
72
100
AcDbEntity
  8
0
  6
Continuous
 62
     7
100
AcDbLine
 10
96.9997592391068
 20
-65.58776734425551
 30
0.0
 11
105.9997593423743
 21
-48.41220030110902
 31
0.0
  0
LINE
  5
E8
330
72
100
AcDbEntity
  8
0
  6
Continuous
 62
     7
100
AcDbLine
 10
-18.00023961066245
 20
-93.99999245007871
 30
0.0
 11
-99.00024457771588
 21
-93.99999245007871
 31
0.0
  0
LINE
  5
E9
330
72
100
AcDbEntity
  8
0
  6
Continuous
 62
     0
100
AcDbLine
 10
-194.9905932352755
 20
-86.59998470147502
 30
0.0
 11
-148.0002636512015
 21
-86.59998470147502
 31
0.0
  0
LINE
  5
EA
330
72
100
AcDbEntity
  8
0
  6
Continuous
 62
     0
100
AcDbLine
 10
153.9997587998805
 20
-44.99998440345186
 30
0.0
 11
152.9997589985626
 21
-43.99998460213389
 31
0.0
  0
LINE
  5
EB
330
72
100
AcDbEntity
  8
0
  6
CENTER
 62
     4
100
AcDbLine
 10
40.58593827238792
 20
-14.99998470147511
 30
0.0
 11
-161.6455736092803
 21
-14.99998470147511
 31
0.0
  0
LINE
  5
EC
330
72
100
AcDbEntity
  8
0
  6
CENTER
 62
     4
100
AcDbLine
 10
40.58593827238792
 20
-98.99998470147511
 30
0.0
 11
-161.6455736092803
 21
-98.99998470147511
 31
0.0
  0
LINE
  5
ED
330
72
100
AcDbEntity
  8
0
  6
DASHED
 62
     0
100
AcDbLine
 10
-126.0002489487233
 20
-17.00000953674271
 30
0.0
 11
-108.0002489487233
 21
-17.00000953674271
 31
0.0
  0
LINE
  5
EE
330
72
100
AcDbEntity
  8
0
  6
DASHED
 62
     0
100
AcDbLine
 10
-9.0
 20
-17.0
 30
0.0
 11
9.0
 21
-17.0
 31
0.0
  0
LINE
  5
EF
330
72
100
AcDbEntity
  8
0
  6
DASHED
 62
     0
100
AcDbLine
 10
-126.0002495197218
 20
-17.00001332249786
 30
0.0
 11
-126.5939026424984
 21
-0.000011341368929
 31
0.0
  0
LINE
  5
F0
330
72
100
AcDbEntity
  8
0
  6
DASHED
 62
     0
100
AcDbLine
 10
-108.0002550493789
 20
-17.0000130895186
 30
0.0
 11
-107.4066019890074
 21
-0.000012895439728
 31
0.0
  0
LINE
  5
F1
330
72
100
AcDbEntity
  8
0
  6
DASHED
 62
     4
100
AcDbLine
 10
-127.2327982167776
 20
-15.00000980272252
 30
0.0
 11
-127.7566095145078
 21
-0.000016106904898
 31
0.0
  0
LINE
  5
F2
330
72
100
AcDbEntity
  8
0
  6
DASHED
 62
     4
100
AcDbLine
 10
-106.76770290606
 20
-15.00002018690172
 30
0.0
 11
-106.2438907721006
 21
-0.000002544613332
 31
0.0
  0
LINE
  5
F3
330
72
100
AcDbEntity
  8
0
  6
DASHED
 62
     0
100
AcDbLine
 10
-127.2327986160817
 20
-15.00000953674271
 30
0.0
 11
-106.7677050034108
 21
-15.00000953674271
 31
0.0
  0
LINE
  5
F4
330
72
100
AcDbEntity
  8
0
  6
DASHED
 62
     4
100
AcDbLine
 10
-125.9830575012929
 20
-17.0000074090643
 30
0.0
 11
-127.2327960394837
 21
-15.00000769575173
 31
0.0
  0
LINE
  5
F5
330
72
100
AcDbEntity
  8
0
  6
DASHED
 62
     4
100
AcDbLine
 10
-108.0174259398553
 20
-17.00001306870601
 30
0.0
 11
-106.7676939714796
 21
-15.00002386929535
 31
0.0
  0
LINE
  5
F6
330
72
100
AcDbEntity
  8
0
  6
CENTER
 62
     4
100
AcDbLine
 10
-117.0002489487233
 20
1.085882186890103
 30
0.0
 11
-117.0002489487233
 21
-17.98594093322708
 31
0.0
  0
LINE
  5
F7
330
72
100
AcDbEntity
  8
0
  6
DASHED
 62
     0
100
AcDbLine
 10
-9.00000057099829
 20
-17.00000378575548
 30
0.0
 11
-9.59365369377493
 21
-0.000001804626552
 31
0.0
  0
LINE
  5
F8
330
72
100
AcDbEntity
  8
0
  6
DASHED
 62
     0
100
AcDbLine
 10
8.999993899344453
 20
-17.00000355277598
 30
0.0
 11
9.593646959715931
 21
-0.000003358697107
 31
0.0
  0
LINE
  5
F9
330
72
100
AcDbEntity
  8
0
  6
DASHED
 62
     4
100
AcDbLine
 10
-10.2325492680541
 20
-15.00000026598014
 30
0.0
 11
-10.75636056578435
 21
-0.00000657016252
 31
0.0
  0
LINE
  5
FA
330
72
100
AcDbEntity
  8
0
  6
DASHED
 62
     4
100
AcDbLine
 10
10.23254604266349
 20
-15.00001065015888
 30
0.0
 11
10.75635817662289
 21
0.000006992129509
 31
0.0
  0
LINE
  5
FB
330
72
100
AcDbEntity
  8
0
  6
DASHED
 62
     0
100
AcDbLine
 10
-10.2325496673584
 20
-15.0
 30
0.0
 11
10.2325439453125
 21
-15.0
 31
0.0
  0
LINE
  5
FC
330
72
100
AcDbEntity
  8
0
  6
DASHED
 62
     4
100
AcDbLine
 10
-8.982808552569256
 20
-16.99999787232176
 30
0.0
 11
-10.23254709076006
 21
-14.99999815900918
 31
0.0
  0
LINE
  5
FD
330
72
100
AcDbEntity
  8
0
  6
DASHED
 62
     4
100
AcDbLine
 10
8.98282300886812
 20
-17.00000353196321
 30
0.0
 11
10.23255497724377
 21
-15.00001433255255
 31
0.0
  0
LINE
  5
FE
330
72
100
AcDbEntity
  8
0
  6
CENTER
 62
     4
100
AcDbLine
 10
0.0
 20
1.085891723632812
 30
0.0
 11
0.0
 21
-17.98593139648438
 31
0.0
  0
LINE
  5
FF
330
72
100
AcDbEntity
  8
0
  6
DASHED
 62
     0
100
AcDbLine
 10
-151.0002636512017
 20
-3.963240288482972
 30
0.0
 11
-151.0002636512017
 21
-110.0367291144368
 31
0.0
  0
ARC
  5
100
330
72
100
AcDbEntity
  8
0
  6
Continuous
 62
     0
100
AcDbCircle
 10
-191.0002636512017
 20
-56.99998470147511
 30
0.0
 40
28.00000953674316
100
AcDbArc
 50
117.6687960536227
 51
242.3312039463773
  0
CIRCLE
  5
101
330
72
100
AcDbEntity
  8
0
  6
Continuous
 62
     0
100
AcDbCircle
 10
-191.0002636512017
 20
-56.99998470147511
 30
0.0
 40
13.75
  0
ARC
  5
102
330
72
100
AcDbEntity
  8
0
  6
Continuous
 62
     0
100
AcDbCircle
 10
-148.0002636512017
 20
-25.39959746670229
 30
0.0
 40
2.0
100
AcDbArc
 50
270.0
 51
0.0
  0
ARC
  5
103
330
72
100
AcDbEntity
  8
0
  6
Continuous
 62
     7
100
AcDbCircle
 10
38.99976257484127
 20
-80.99998470147511
 30
0.0
 40
0.9999999999999998
100
AcDbArc
 50
90.0000179860894
 51
180.0
  0
ARC
  5
104
330
72
100
AcDbEntity
  8
0
  6
Continuous
 62
     7
100
AcDbCircle
 10
38.99976257484127
 20
-32.9999827146537
 30
0.0
 40
0.9999999999999998
100
AcDbArc
 50
180.0
 51
269.9999820139107
  0
ARC
  5
105
330
72
100
AcDbEntity
  8
0
  6
Continuous
 62
     7
100
AcDbCircle
 10
110.4997592965858
 20
-56.99998470147511
 30
0.0
 40
16.0
100
AcDbArc
 50
180.0000173028428
 51
212.4617512758604
  0
ARC
  5
106
330
72
100
AcDbEntity
  8
0
  6
Continuous
 62
     7
100
AcDbCircle
 10
109.9997597932911
 20
-69.99998321135922
 30
0.0
 40
0.9999999999999998
100
AcDbArc
 50
89.99999749552188
 51
180.0
  0
ARC
  5
107
330
72
100
AcDbEntity
  8
0
  6
Continuous
 62
     7
100
AcDbCircle
 10
110.4997592965858
 20
-56.99998470147511
 30
0.0
 40
16.0
100
AcDbArc
 50
147.5382487241397
 51
180.0
  0
ARC
  5
108
330
72
100
AcDbEntity
  8
0
  6
Continuous
 62
     7
100
AcDbCircle
 10
109.9997597932911
 20
-43.99998460213396
 30
0.0
 40
0.9999999999999998
100
AcDbArc
 50
180.0
 51
270.0000025044782
  0
ARC
  5
109
330
72
100
AcDbEntity
  8
0
  6
Continuous
 62
     0
100
AcDbCircle
 10
-148.0002636512017
 20
-88.59998470147502
 30
0.0
 40
2.0
100
AcDbArc
 50
0.0
 51
90.00000000000001
  0
CIRCLE
  5
10A
330
72
100
AcDbEntity
  8
0
  6
Continuous
 62
     0
100
AcDbCircle
 10
-191.0002636512017
 20
-56.99998470147511
 30
0.0
 40
16.15
  0
ELLIPSE
  5
10B
330
72
100
AcDbEntity
  8
0
  6
Continuous
 62
     7
100
AcDbEllipse
 10
105.9997597932911
 20
-56.99998470147511
 30
0.0
 11
9.330016576426118
 21
0.0
 31
0.0
210
0.0
220
0.0
230
1.0
 40
0.920446770840518
 41
4.71238898038469
 42
5.039747378904799
  0
ELLIPSE
  5
10C
330
72
100
AcDbEntity
  8
0
  6
Continuous
 62
     7
100
AcDbEllipse
 10
105.9997597932911
 20
-56.99998470147511
 30
0.0
 11
9.330016576426118
 21
0.0
 31
0.0
210
0.0
220
0.0
230
1.0
 40
0.920446770840518
 41
1.243437928940142
 42
1.570796326794897
  0
MTEXT
  5
10D
330
72
100
AcDbEntity
  8
0
 62
     0
100
AcDbMText
 10
18.21418853369341
 20
-56.01342000136879
 30
0.0
 40
0.5
 41
0.0
 71
     7
 72
     1
  1
{\W1;BN-6102A-CB-100}
 73
     1
 44
1.0
  0
ENDBLK
  5
74
330
72
100
AcDbEntity
  8
0
100
AcDbBlockEnd
  0
BLOCK
  5
76
330
75
100
AcDbEntity
  8
0
100
AcDbBlockBegin
  2
DTL0002
 70
     0
 10
0.0
 20
0.0
 30
0.0
  3
DTL0002
  1

  0
POINT
  5
10E
330
75
100
AcDbEntity
  8
0
 62
     0
100
AcDbPoint
 10
152.9997613827486
 20
-12.99999850988411
 30
0.0
  0
POINT
  5
10F
330
75
100
AcDbEntity
  8
0
 62
     0
100
AcDbPoint
 10
152.9997589985628
 20
13.00000009934092
 30
0.0
  0
POINT
  5
110
330
75
100
AcDbEntity
  8
0
 62
     0
100
AcDbPoint
 10
152.9997589985628
 20
-12.99999850988411
 30
0.0
  0
POINT
  5
111
330
75
100
AcDbEntity
  8
0
 62
     0
100
AcDbPoint
 10
-191.0002636512017
 20
0.0
 30
0.0
  0
POINT
  5
112
330
75
100
AcDbEntity
  8
0
 62
     0
100
AcDbPoint
 10
0.0
 20
0.0
 30
0.0
  0
LINE
  5
113
330
75
100
AcDbEntity
  8
0
  6
Continuous
 62
     7
100
AcDbLine
 10
-18.00023961066245
 20
-57.00000059604668
 30
0.0
 11
-18.00023961066245
 21
56.99998470147489
 31
0.0
  0
LINE
  5
114
330
75
100
AcDbEntity
  8
0
  6
Continuous
 62
     7
100
AcDbLine
 10
-156.000018874803
 20
-37.0000013907752
 30
0.0
 11
-154.000017285346
 21
-37.0000013907752
 31
0.0
  0
LINE
  5
115
330
75
100
AcDbEntity
  8
0
  6
Continuous
 62
     7
100
AcDbLine
 10
-156.000018874803
 20
-47.00000099341082
 30
0.0
 11
-154.000017285346
 21
-47.00000099341082
 31
0.0
  0
LINE
  5
116
330
75
100
AcDbEntity
  8
0
  6
Continuous
 62
     7
100
AcDbLine
 10
-154.0000172853461
 20
-50.51494983772682
 30
0.0
 11
-154.0000172853461
 21
-33.51494983772682
 31
0.0
  0
LINE
  5
117
330
75
100
AcDbEntity
  8
0
  6
Continuous
 62
     7
100
AcDbLine
 10
-154.000017285346
 20
-33.51494983772659
 30
0.0
 11
-146.0002636512015
 21
-33.51494983772659
 31
0.0
  0
LINE
  5
118
330
75
100
AcDbEntity
  8
0
  6
Continuous
 62
     7
100
AcDbLine
 10
-154.000017285346
 20
-42.01494983772659
 30
0.0
 11
-146.0002636512015
 21
-42.01494983772659
 31
0.0
  0
LINE
  5
119
330
75
100
AcDbEntity
  8
0
  6
Continuous
 62
     0
100
AcDbLine
 10
-156.0000188748031
 20
-37.0000013907752
 30
0.0
 11
-156.0000188748031
 21
-47.00000099341105
 31
0.0
  0
LINE
  5
11A
330
75
100
AcDbEntity
  8
0
  6
Continuous
 62
     7
100
AcDbLine
 10
-154.000017285346
 20
-50.51494983772659
 30
0.0
 11
-146.0002636512015
 21
-50.51494983772659
 31
0.0
  0
LINE
  5
11B
330
75
100
AcDbEntity
  8
0
  6
Continuous
 62
     7
100
AcDbLine
 10
-156.000018874803
 20
47.02990146359207
 30
0.0
 11
-154.000017285346
 21
47.02990146359207
 31
0.0
  0
LINE
  5
11C
330
75
100
AcDbEntity
  8
0
  6
Continuous
 62
     7
100
AcDbLine
 10
-156.000018874803
 20
37.02990186095622
 30
0.0
 11
-154.000017285346
 21
37.02990186095622
 31
0.0
  0
LINE
  5
11D
330
75
100
AcDbEntity
  8
0
  6
Continuous
 62
     7
100
AcDbLine
 10
-154.0000172853461
 20
33.51495301664045
 30
0.0
 11
-154.0000172853461
 21
50.51495301664045
 31
0.0
  0
LINE
  5
11E
330
75
100
AcDbEntity
  8
0
  6
Continuous
 62
     7
100
AcDbLine
 10
-154.000017285346
 20
50.51495301664045
 30
0.0
 11
-146.0002636512015
 21
50.51495301664045
 31
0.0
  0
LINE
  5
11F
330
75
100
AcDbEntity
  8
0
  6
Continuous
 62
     7
100
AcDbLine
 10
-154.000017285346
 20
42.01495301664045
 30
0.0
 11
-146.0002636512015
 21
42.01495301664045
 31
0.0
  0
LINE
  5
120
330
75
100
AcDbEntity
  8
0
  6
Continuous
 62
     0
100
AcDbLine
 10
-156.0000188748031
 20
47.02990146359207
 30
0.0
 11
-156.0000188748031
 21
37.02990186095622
 31
0.0
  0
LINE
  5
121
330
75
100
AcDbEntity
  8
0
  6
Continuous
 62
     7
100
AcDbLine
 10
-154.000017285346
 20
33.51495301664045
 30
0.0
 11
-146.0002636512015
 21
33.51495301664045
 31
0.0
  0
LINE
  5
122
330
75
100
AcDbEntity
  8
0
  6
Continuous
 62
     0
100
AcDbLine
 10
-219.0002636512015
 20
-17.75
 30
0.0
 11
-151.0002636512015
 21
-17.75
 31
0.0
  0
LINE
  5
123
330
75
100
AcDbEntity
  8
0
  6
Continuous
 62
     0
100
AcDbLine
 10
-151.0002636512015
 20
-15.5
 30
0.0
 11
-146.0002636512015
 21
-15.5
 31
0.0
  0
LINE
  5
124
330
75
100
AcDbEntity
  8
0
  6
Continuous
 62
     0
100
AcDbLine
 10
36.99975860119821
 20
47.00000099341059
 30
0.0
 11
36.99975860119821
 21
36.9999998013177
 31
0.0
  0
LINE
  5
125
330
75
100
AcDbEntity
  8
0
  6
Continuous
 62
     7
100
AcDbLine
 10
-109.5002489487233
 20
56.99997516473218
 30
0.0
 11
-109.5002489487233
 21
62.99998509883903
 31
0.0
  0
LINE
  5
126
330
75
100
AcDbEntity
  8
0
  6
Continuous
 62
     7
100
AcDbLine
 10
96.99976043890462
 20
8.587783666952646
 30
0.0
 11
105.9997605421721
 21
-8.587783376193748
 31
0.0
  0
LINE
  5
127
330
75
100
AcDbEntity
  8
0
  6
Continuous
 62
     7
100
AcDbLine
 10
-124.5002489487233
 20
56.99997516473218
 30
0.0
 11
-124.5002489487233
 21
62.99998509883903
 31
0.0
  0
LINE
  5
128
330
75
100
AcDbEntity
  8
0
  6
Continuous
 62
     7
100
AcDbLine
 10
4.000000794728749
 20
66.99999066193914
 30
0.0
 11
4.000000794728749
 21
62.99998827775335
 31
0.0
  0
LINE
  5
129
330
75
100
AcDbEntity
  8
0
  6
Continuous
 62
     7
100
AcDbLine
 10
7.5
 20
56.99998470147489
 30
0.0
 11
7.5
 21
62.99999463558174
 31
0.0
  0
LINE
  5
12A
330
75
100
AcDbEntity
  8
0
  6
Continuous
 62
     7
100
AcDbLine
 10
-113.0002481539943
 20
66.99998112519665
 30
0.0
 11
-121.0002481539943
 21
66.99998112519665
 31
0.0
  0
LINE
  5
12B
330
75
100
AcDbEntity
  8
0
  6
Continuous
 62
     7
100
AcDbLine
 10
-3.999999205271251
 20
66.99999066193914
 30
0.0
 11
-3.999999205271251
 21
62.99999463558174
 31
0.0
  0
LINE
  5
12C
330
75
100
AcDbEntity
  8
0
  6
Continuous
 62
     0
100
AcDbLine
 10
-113.2530465422849
 20
62.99998509883903
 30
0.0
 11
-113.2530465422849
 21
56.99997516473218
 31
0.0
  0
LINE
  5
12D
330
75
100
AcDbEntity
  8
0
  6
Continuous
 62
     7
100
AcDbLine
 10
34.99975701174139
 20
-33.51494983772659
 30
0.0
 11
27.00000337759684
 21
-33.51494983772659
 31
0.0
  0
LINE
  5
12E
330
75
100
AcDbEntity
  8
0
  6
Continuous
 62
     0
100
AcDbLine
 10
-146.0002636512015
 20
56.49999999999977
 30
0.0
 11
-131.0002636512015
 21
56.49999999999977
 31
0.0
  0
LINE
  5
12F
330
75
100
AcDbEntity
  8
0
  6
Continuous
 62
     7
100
AcDbLine
 10
140.6997107188024
 20
18.0153930664062
 30
0.0
 11
126.6997107188024
 21
18.0153930664062
 31
0.0
  0
LINE
  5
130
330
75
100
AcDbEntity
  8
0
  6
Continuous
 62
     7
100
AcDbLine
 10
34.99975701174139
 20
-50.51494983772659
 30
0.0
 11
27.00000337759684
 21
-50.51494983772659
 31
0.0
  0
LINE
  5
131
330
75
100
AcDbEntity
  8
0
  6
Continuous
 62
     7
100
AcDbLine
 10
140.6997107188024
 20
-17.9846069335938
 30
0.0
 11
126.6997107188024
 21
-17.9846069335938
 31
0.0
  0
LINE
  5
132
330
75
100
AcDbEntity
  8
0
  6
Continuous
 62
     7
100
AcDbLine
 10
140.6997107188024
 20
0.015393066406205
 30
0.0
 11
126.6997107188024
 21
0.015393066406205
 31
0.0
  0
LINE
  5
133
330
75
100
AcDbEntity
  8
0
  6
Continuous
 62
     0
100
AcDbLine
 10
-219.0002636512015
 20
17.75
 30
0.0
 11
-151.0002636512015
 21
17.75
 31
0.0
  0
LINE
  5
134
330
75
100
AcDbEntity
  8
0
  6
Continuous
 62
     7
100
AcDbLine
 10
-121.0002481539946
 20
66.9999811251962
 30
0.0
 11
-121.0002481539946
 21
62.99998509883903
 31
0.0
  0
LINE
  5
135
330
75
100
AcDbEntity
  8
0
  6
Continuous
 62
     7
100
AcDbLine
 10
34.99975701174139
 20
50.51495301664045
 30
0.0
 11
26.99975860119844
 21
50.51495301664045
 31
0.0
  0
LINE
  5
136
330
75
100
AcDbEntity
  8
0
  6
Continuous
 62
     7
100
AcDbLine
 10
34.99975701174139
 20
42.01495301664045
 30
0.0
 11
26.99975860119844
 21
42.01495301664045
 31
0.0
  0
LINE
  5
137
330
75
100
AcDbEntity
  8
0
  6
Continuous
 62
     7
100
AcDbLine
 10
126.6997107188022
 20
18.01539306640598
 30
0.0
 11
126.6997107188022
 21
-17.98460693359402
 31
0.0
  0
LINE
  5
138
330
75
100
AcDbEntity
  8
0
  6
Continuous
 62
     7
100
AcDbLine
 10
113.9997597932913
 20
-12.00000109275197
 30
0.0
 11
109.9997597932911
 21
-12.00000109275197
 31
0.0
  0
LINE
  5
139
330
75
100
AcDbEntity
  8
0
  6
Continuous
 62
     7
100
AcDbLine
 10
114.9997591087266
 20
-13.00000041774341
 30
0.0
 11
113.9997594606053
 21
-12.00000068532841
 31
0.0
  0
LINE
  5
13A
330
75
100
AcDbEntity
  8
0
  6
Continuous
 62
     0
100
AcDbLine
 10
153.999758799881
 20
-12.00000109275237
 30
0.0
 11
152.9997613827489
 21
-12.99999850988446
 31
0.0
  0
LINE
  5
13B
330
75
100
AcDbEntity
  8
0
  6
Continuous
 62
     7
100
AcDbLine
 10
108.9997599919734
 20
15.19615192428591
 30
0.0
 11
108.9997599919734
 21
-15.19615271901512
 31
0.0
  0
LINE
  5
13C
330
75
100
AcDbEntity
  8
0
  6
Continuous
 62
     7
100
AcDbLine
 10
152.9997613827486
 20
-12.99999850988411
 30
0.0
 11
140.6997107188024
 21
-12.99999850988411
 31
0.0
  0
LINE
  5
13D
330
75
100
AcDbEntity
  8
0
  6
Continuous
 62
     7
100
AcDbLine
 10
105.9997597932911
 20
15.99999999999977
 30
0.0
 11
105.9997597932911
 21
8.587783631174261
 31
0.0
  0
LINE
  5
13E
330
75
100
AcDbEntity
  8
0
  6
Continuous
 62
     7
100
AcDbLine
 10
153.9997587998805
 20
12.00000029802322
 30
0.0
 11
153.9997587998805
 21
-12.32697627423113
 31
0.0
  0
LINE
  5
13F
330
75
100
AcDbEntity
  8
0
  6
Continuous
 62
     7
100
AcDbLine
 10
152.9997589985628
 20
13.00000009934092
 30
0.0
 11
140.6997107188024
 21
13.00000009934092
 31
0.0
  0
LINE
  5
140
330
75
100
AcDbEntity
  8
0
  6
Continuous
 62
     7
100
AcDbLine
 10
113.9997597932911
 20
12.000000298023
 30
0.0
 11
113.9997597932911
 21
-12.00000109275197
 31
0.0
  0
LINE
  5
141
330
75
100
AcDbEntity
  8
0
  6
Continuous
 62
     7
100
AcDbLine
 10
105.9997597932913
 20
16.0
 30
0.0
 11
47.99976476034499
 21
16.0
 31
0.0
  0
LINE
  5
142
330
75
100
AcDbEntity
  8
0
  6
Continuous
 62
     0
100
AcDbLine
 10
153.9997587998806
 20
12.00000029802324
 30
0.0
 11
152.999758998563
 21
13.00000009934088
 31
0.0
  0
LINE
  5
143
330
75
100
AcDbEntity
  8
0
  6
Continuous
 62
     7
100
AcDbLine
 10
-7.5
 20
56.99998470147489
 30
0.0
 11
-7.5
 21
62.99999463558174
 31
0.0
  0
LINE
  5
144
330
75
100
AcDbEntity
  8
0
  6
Continuous
 62
     7
100
AcDbLine
 10
96.99975923910642
 20
-8.587782642781
 30
0.0
 11
105.9997593423739
 21
8.587784400365393
 31
0.0
  0
LINE
  5
145
330
75
100
AcDbEntity
  8
0
  6
CENTER
 62
     4
100
AcDbLine
 10
161.7340295917345
 20
0.0
 30
0.0
 11
-225.8845759855902
 21
0.0
 31
0.0
  0
LINE
  5
146
330
75
100
AcDbEntity
  8
0
  6
Continuous
 62
     7
100
AcDbLine
 10
-151.0002636512017
 20
-15.50000000000023
 30
0.0
 11
-151.0002636512017
 21
-17.75000000000023
 31
0.0
  0
LINE
  5
147
330
75
100
AcDbEntity
  8
0
  6
Continuous
 62
     7
100
AcDbLine
 10
-151.0002636512017
 20
17.74999999999977
 30
0.0
 11
-151.0002636512017
 21
15.49999999999977
 31
0.0
  0
LINE
  5
148
330
75
100
AcDbEntity
  8
0
  6
Continuous
 62
     7
100
AcDbLine
 10
-18.00023961066245
 20
-47.00000735123922
 30
0.0
 11
-99.00024457771588
 21
-47.00000735123922
 31
0.0
  0
LINE
  5
149
330
75
100
AcDbEntity
  8
0
  6
Continuous
 62
     7
100
AcDbLine
 10
-18.00023961066245
 20
-37.00000774860359
 30
0.0
 11
-99.00024457771588
 21
-37.00000774860359
 31
0.0
  0
LINE
  5
14A
330
75
100
AcDbEntity
  8
0
  6
Continuous
 62
     7
100
AcDbLine
 10
-195.0002636512017
 20
-28.00000000000023
 30
0.0
 11
-195.0002636512017
 21
-35.50000000000023
 31
0.0
  0
LINE
  5
14B
330
75
100
AcDbEntity
  8
0
  6
Continuous
 62
     7
100
AcDbLine
 10
-146.0002636512017
 20
56.49999999999977
 30
0.0
 11
-146.0002636512017
 21
-56.50000000000023
 31
0.0
  0
LINE
  5
14C
330
75
100
AcDbEntity
  8
0
  6
CENTER
 62
     4
100
AcDbLine
 10
-191.0002636512017
 20
49.89369570006806
 30
0.0
 11
-191.0002636512017
 21
-49.47460787136038
 31
0.0
  0
LINE
  5
14D
330
75
100
AcDbEntity
  8
0
  6
Continuous
 62
     7
100
AcDbLine
 10
-219.0002636512016
 20
35.49999999999977
 30
0.0
 11
-219.0002636512016
 21
17.75
 31
0.0
  0
LINE
  5
14E
330
75
100
AcDbEntity
  8
0
  6
Continuous
 62
     0
100
AcDbLine
 10
-195.0002636512015
 20
-28.0
 30
0.0
 11
-146.0002636512015
 21
-28.0
 31
0.0
  0
LINE
  5
14F
330
75
100
AcDbEntity
  8
0
  6
Continuous
 62
     0
100
AcDbLine
 10
-146.0002636512015
 20
-56.5
 30
0.0
 11
-131.0002636512015
 21
-56.5
 31
0.0
  0
LINE
  5
150
330
75
100
AcDbEntity
  8
0
  6
Continuous
 62
     4
100
AcDbLine
 10
153.9997587998805
 20
-12.00000109275197
 30
0.0
 11
140.6997107188024
 21
-12.00000109275197
 31
0.0
  0
LINE
  5
151
330
75
100
AcDbEntity
  8
0
  6
Continuous
 62
     4
100
AcDbLine
 10
153.9997587998805
 20
12.00000029802322
 30
0.0
 11
140.6997107188024
 21
12.00000029802322
 31
0.0
  0
LINE
  5
152
330
75
100
AcDbEntity
  8
0
  6
Continuous
 62
     7
100
AcDbLine
 10
126.6997107188024
 20
13.00000009934092
 30
0.0
 11
114.999759594609
 21
13.00000009934092
 31
0.0
  0
LINE
  5
153
330
75
100
AcDbEntity
  8
0
  6
Continuous
 62
     4
100
AcDbLine
 10
126.6997107188024
 20
-12.00000109275197
 30
0.0
 11
113.9997597932913
 21
-12.00000109275197
 31
0.0
  0
LINE
  5
154
330
75
100
AcDbEntity
  8
0
  6
Continuous
 62
     0
100
AcDbLine
 10
-195.0002636512015
 20
27.99999999999977
 30
0.0
 11
-146.0002636512015
 21
27.99999999999977
 31
0.0
  0
LINE
  5
155
330
75
100
AcDbEntity
  8
0
  6
Continuous
 62
     0
100
AcDbLine
 10
-151.0002636512015
 20
15.5
 30
0.0
 11
-146.0002636512015
 21
15.5
 31
0.0
  0
LINE
  5
156
330
75
100
AcDbEntity
  8
0
  6
Continuous
 62
     7
100
AcDbLine
 10
140.6997107188022
 20
18.01539306640598
 30
0.0
 11
140.6997107188022
 21
-17.98460693359402
 31
0.0
  0
LINE
  5
157
330
75
100
AcDbEntity
  8
0
  6
Continuous
 62
     4
100
AcDbLine
 10
126.6997107188024
 20
12.00000029802322
 30
0.0
 11
113.9997597932913
 21
12.00000029802322
 31
0.0
  0
LINE
  5
158
330
75
100
AcDbEntity
  8
0
  6
Continuous
 62
     7
100
AcDbLine
 10
126.6997107188024
 20
-12.99999850988411
 30
0.0
 11
114.999759594609
 21
-12.99999850988411
 31
0.0
  0
LINE
  5
159
330
75
100
AcDbEntity
  8
0
  6
Continuous
 62
     0
100
AcDbLine
 10
3.746986240268143
 20
62.99999463558174
 30
0.0
 11
3.746986240268143
 21
56.99998470147489
 31
0.0
  0
LINE
  5
15A
330
75
100
AcDbEntity
  8
0
  6
Continuous
 62
     7
100
AcDbLine
 10
105.9997597932911
 20
8.587783631174261
 30
0.0
 11
96.99975919724488
 21
8.587783631174261
 31
0.0
  0
LINE
  5
15B
330
75
100
AcDbEntity
  8
0
  6
Continuous
 62
     7
100
AcDbLine
 10
114.999759594609
 20
13.00000009934092
 30
0.0
 11
114.999759594609
 21
-12.99999850988434
 31
0.0
  0
LINE
  5
15C
330
75
100
AcDbEntity
  8
0
  6
Continuous
 62
     7
100
AcDbLine
 10
113.9997597415968
 20
12.00000021146458
 30
0.0
 11
114.999759474012
 21
12.99999985958607
 31
0.0
  0
LINE
  5
15D
330
75
100
AcDbEntity
  8
0
  6
Continuous
 62
     7
100
AcDbLine
 10
96.99975919724466
 20
-8.587784425903237
 30
0.0
 11
96.99975919724466
 21
8.587783631174261
 31
0.0
  0
LINE
  5
15E
330
75
100
AcDbEntity
  8
0
  6
Continuous
 62
     7
100
AcDbLine
 10
108.9997924061281
 20
-15.19612097137296
 30
0.0
 11
105.9996687222578
 21
-16.00000169639718
 31
0.0
  0
LINE
  5
15F
330
75
100
AcDbEntity
  8
0
  6
Continuous
 62
     7
100
AcDbLine
 10
105.9997597932911
 20
-15.9999984105427
 30
0.0
 11
47.99976476034497
 21
-15.99999841054266
 31
0.0
  0
LINE
  5
160
330
75
100
AcDbEntity
  8
0
  6
Continuous
 62
     7
100
AcDbLine
 10
105.9997597932911
 20
-15.99999841054296
 30
0.0
 11
105.9997597932911
 21
-8.587784425903237
 31
0.0
  0
LINE
  5
161
330
75
100
AcDbEntity
  8
0
  6
Continuous
 62
     7
100
AcDbLine
 10
108.9997096961993
 20
15.19613635256089
 30
0.0
 11
105.9997188155795
 21
15.99998149306111
 31
0.0
  0
LINE
  5
162
330
75
100
AcDbEntity
  8
0
  6
Continuous
 62
     7
100
AcDbLine
 10
105.9997597932911
 20
-8.58778442590301
 30
0.0
 11
96.99975919724488
 21
-8.58778442590301
 31
0.0
  0
LINE
  5
163
330
75
100
AcDbEntity
  8
0
  6
Continuous
 62
     7
100
AcDbLine
 10
113.9997597932913
 20
12.00000029802322
 30
0.0
 11
109.9997597932911
 21
12.00000029802322
 31
0.0
  0
LINE
  5
164
330
75
100
AcDbEntity
  8
0
  6
Continuous
 62
     7
100
AcDbLine
 10
34.99975701174139
 20
33.51495301664045
 30
0.0
 11
26.99975860119844
 21
33.51495301664045
 31
0.0
  0
LINE
  5
165
330
75
100
AcDbEntity
  8
0
  6
Continuous
 62
     7
100
AcDbLine
 10
34.99975701174139
 20
-42.01494983772659
 30
0.0
 11
27.00000337759684
 21
-42.01494983772659
 31
0.0
  0
LINE
  5
166
330
75
100
AcDbEntity
  8
0
  6
Continuous
 62
     7
100
AcDbLine
 10
36.99975860119844
 20
-47.00000099341082
 30
0.0
 11
34.99975701174139
 21
-47.00000099341082
 31
0.0
  0
LINE
  5
167
330
75
100
AcDbEntity
  8
0
  6
Continuous
 62
     0
100
AcDbLine
 10
-99.00024457771542
 20
46.99999145666766
 30
0.0
 11
-18.00023961066245
 21
46.99999145666766
 31
0.0
  0
LINE
  5
168
330
75
100
AcDbEntity
  8
0
  6
Continuous
 62
     7
100
AcDbLine
 10
-219.0002636512016
 20
-17.75
 30
0.0
 11
-219.0002636512016
 21
-35.50000000000023
 31
0.0
  0
LINE
  5
169
330
75
100
AcDbEntity
  8
0
  6
Continuous
 62
     7
100
AcDbLine
 10
36.99975860119844
 20
-37.0000013907752
 30
0.0
 11
34.99975701174139
 21
-37.0000013907752
 31
0.0
  0
LINE
  5
16A
330
75
100
AcDbEntity
  8
0
  6
Continuous
 62
     0
100
AcDbLine
 10
36.99975860119821
 20
-37.0000013907752
 30
0.0
 11
36.99975860119821
 21
-47.00000099341105
 31
0.0
  0
LINE
  5
16B
330
75
100
AcDbEntity
  8
0
  6
Continuous
 62
     7
100
AcDbLine
 10
34.99975701174117
 20
-50.51494983772682
 30
0.0
 11
34.99975701174117
 21
-33.51494983772682
 31
0.0
  0
LINE
  5
16C
330
75
100
AcDbEntity
  8
0
  6
Continuous
 62
     0
100
AcDbLine
 10
152.9997589985628
 20
13.00000009934092
 30
0.0
 11
152.9997589985628
 21
-12.99999850988411
 31
0.0
  0
LINE
  5
16D
330
75
100
AcDbEntity
  8
0
  6
Continuous
 62
     7
100
AcDbLine
 10
26.99975860119821
 20
-57.00000059604668
 30
0.0
 11
26.99975860119821
 21
56.99998470147489
 31
0.0
  0
LINE
  5
16E
330
75
100
AcDbEntity
  8
0
  6
Continuous
 62
     7
100
AcDbLine
 10
-17.50025361775351
 20
37.50000327825501
 30
0.0
 11
-17.50040620563777
 21
37.50000327825501
 31
0.0
  0
LINE
  5
16F
330
75
100
AcDbEntity
  8
0
  6
Continuous
 62
     0
100
AcDbLine
 10
-124.5002489487231
 20
62.99998509883903
 30
0.0
 11
-109.5002489487231
 21
62.99998509883903
 31
0.0
  0
LINE
  5
170
330
75
100
AcDbEntity
  8
0
  6
Continuous
 62
     7
100
AcDbLine
 10
-99.50024964411045
 20
37.50000327825501
 30
0.0
 11
-99.50009705622574
 21
37.50000327825501
 31
0.0
  0
LINE
  5
171
330
75
100
AcDbEntity
  8
0
  6
CENTER
 62
     4
100
AcDbLine
 10
-117.0002489487233
 20
12.2961924970607
 30
0.0
 11
-117.0002489487233
 21
-12.26149599500263
 31
0.0
  0
LINE
  5
172
330
75
100
AcDbEntity
  8
0
  6
Continuous
 62
     7
100
AcDbLine
 10
-99.00024457771565
 20
-57.00000059604668
 30
0.0
 11
-99.00024457771565
 21
56.99997516473218
 31
0.0
  0
LINE
  5
173
330
75
100
AcDbEntity
  8
0
  6
Continuous
 62
     7
100
AcDbLine
 10
-131.0002636512015
 20
-57.00000059604645
 30
0.0
 11
-99.00024457771542
 21
-57.00000059604645
 31
0.0
  0
LINE
  5
174
330
75
100
AcDbEntity
  8
0
  6
Continuous
 62
     0
100
AcDbLine
 10
-120.7474767864753
 20
62.99998509883903
 30
0.0
 11
-120.7474767864753
 21
56.99997516473218
 31
0.0
  0
LINE
  5
175
330
75
100
AcDbEntity
  8
0
  6
Continuous
 62
     7
100
AcDbLine
 10
-131.0002636512017
 20
56.99997516473218
 30
0.0
 11
-131.0002636512017
 21
-57.00000059604668
 31
0.0
  0
LINE
  5
176
330
75
100
AcDbEntity
  8
0
  6
Continuous
 62
     7
100
AcDbLine
 10
-131.0002636512015
 20
56.99997516473218
 30
0.0
 11
-99.00024457771542
 21
56.99997516473218
 31
0.0
  0
LINE
  5
177
330
75
100
AcDbEntity
  8
0
  6
Continuous
 62
     7
100
AcDbLine
 10
34.99975701174117
 20
33.51495301664045
 30
0.0
 11
34.99975701174117
 21
50.51495301664045
 31
0.0
  0
LINE
  5
178
330
75
100
AcDbEntity
  8
0
  6
Continuous
 62
     7
100
AcDbLine
 10
36.99975860119844
 20
47.00000099341059
 30
0.0
 11
34.99975701174139
 21
47.00000099341059
 31
0.0
  0
LINE
  5
179
330
75
100
AcDbEntity
  8
0
  6
Continuous
 62
     0
100
AcDbLine
 10
-3.747463077407701
 20
62.99999463558174
 30
0.0
 11
-3.747463077407701
 21
56.99998470147489
 31
0.0
  0
LINE
  5
17A
330
75
100
AcDbEntity
  8
0
  6
Continuous
 62
     7
100
AcDbLine
 10
36.99975860119844
 20
36.9999998013177
 30
0.0
 11
34.99975701174139
 21
36.9999998013177
 31
0.0
  0
LINE
  5
17B
330
75
100
AcDbEntity
  8
0
  6
Continuous
 62
     7
100
AcDbLine
 10
37.99976197879505
 20
32.500000298023
 30
0.0
 11
26.99975860119844
 21
32.500000298023
 31
0.0
  0
LINE
  5
17C
330
75
100
AcDbEntity
  8
0
  6
Continuous
 62
     7
100
AcDbLine
 10
47.99976476034499
 20
23.00000099341059
 30
0.0
 11
38.99976257484104
 21
23.00000099341059
 31
0.0
  0
LINE
  5
17D
330
75
100
AcDbEntity
  8
0
  6
Continuous
 62
     7
100
AcDbLine
 10
4.000000794728749
 20
66.99999066193914
 30
0.0
 11
-3.999999205271251
 21
66.99999066193914
 31
0.0
  0
LINE
  5
17E
330
75
100
AcDbEntity
  8
0
  6
Continuous
 62
     7
100
AcDbLine
 10
-18.00023961066245
 20
53.50000009934092
 30
0.0
 11
-99.00024457771542
 21
53.50000009934092
 31
0.0
  0
LINE
  5
17F
330
75
100
AcDbEntity
  8
0
  6
Continuous
 62
     0
100
AcDbLine
 10
-99.00024457771542
 20
36.99999185403203
 30
0.0
 11
-18.00023961066245
 21
36.99999185403203
 31
0.0
  0
LINE
  5
180
330
75
100
AcDbEntity
  8
0
  6
Continuous
 62
     7
100
AcDbLine
 10
-18.00023961066244
 20
-53.49999692042682
 30
0.0
 11
-99.00024457771586
 21
-53.49999692042683
 31
0.0
  0
LINE
  5
181
330
75
100
AcDbEntity
  8
0
  6
Continuous
 62
     7
100
AcDbLine
 10
-7.499999999999773
 20
62.99999463558174
 30
0.0
 11
7.500000000000227
 21
62.99999463558174
 31
0.0
  0
LINE
  5
182
330
75
100
AcDbEntity
  8
0
  6
Continuous
 62
     7
100
AcDbLine
 10
-18.20024139256497
 20
-53.49999900793985
 30
0.0
 11
-18.00023831597619
 21
-53.29999591449207
 31
0.0
  0
LINE
  5
183
330
75
100
AcDbEntity
  8
0
  6
CENTER
 62
     4
100
AcDbLine
 10
0.0
 20
12.47463165049976
 30
0.0
 11
0.0
 21
-12.01614215902373
 31
0.0
  0
LINE
  5
184
330
75
100
AcDbEntity
  8
0
  6
Continuous
 62
     7
100
AcDbLine
 10
26.99975860119844
 20
56.99998470147489
 30
0.0
 11
-18.00023961066222
 21
56.99998470147489
 31
0.0
  0
LINE
  5
185
330
75
100
AcDbEntity
  8
0
  6
Continuous
 62
     7
100
AcDbLine
 10
26.99975860119844
 20
-57.00000059604645
 30
0.0
 11
-18.00023961066222
 21
-57.00000059604645
 31
0.0
  0
LINE
  5
186
330
75
100
AcDbEntity
  8
0
  6
Continuous
 62
     7
100
AcDbLine
 10
37.99976197879505
 20
-32.50000029802345
 30
0.0
 11
37.99976197879505
 21
32.500000298023
 31
0.0
  0
LINE
  5
187
330
75
100
AcDbEntity
  8
0
  6
Continuous
 62
     7
100
AcDbLine
 10
37.99976197879505
 20
-32.50000029802322
 30
0.0
 11
26.99975860119844
 21
-32.50000029802322
 31
0.0
  0
LINE
  5
188
330
75
100
AcDbEntity
  8
0
  6
Continuous
 62
     7
100
AcDbLine
 10
47.99976476034499
 20
-22.99999940395378
 30
0.0
 11
47.99976476034499
 21
23.00000099341037
 31
0.0
  0
LINE
  5
189
330
75
100
AcDbEntity
  8
0
  6
Continuous
 62
     7
100
AcDbLine
 10
47.99976476034499
 20
-22.99999940395355
 30
0.0
 11
38.99976257484104
 21
-22.99999940395355
 31
0.0
  0
LINE
  5
18A
330
75
100
AcDbEntity
  8
0
  6
Continuous
 62
     7
100
AcDbLine
 10
-113.0002481539946
 20
66.9999811251962
 30
0.0
 11
-113.0002481539946
 21
62.99997874101041
 31
0.0
  0
LINE
  5
18B
330
75
100
AcDbEntity
  8
0
  6
Continuous
 62
     7
100
AcDbLine
 10
-195.0002636512017
 20
35.49999999999977
 30
0.0
 11
-195.0002636512017
 21
27.99999999999977
 31
0.0
  0
LINE
  5
18C
330
75
100
AcDbEntity
  8
0
  6
Continuous
 62
     0
100
AcDbLine
 10
-219.0002636512015
 20
-35.5
 30
0.0
 11
-154.000017285346
 21
-35.5
 31
0.0
  0
LINE
  5
18D
330
75
100
AcDbEntity
  8
0
  6
Continuous
 62
     0
100
AcDbLine
 10
-219.0002636512015
 20
35.49999999999977
 30
0.0
 11
-154.000017285346
 21
35.49999999999977
 31
0.0
  0
LINE
  5
18E
330
75
100
AcDbEntity
  8
0
  6
Continuous
 62
     7
100
AcDbLine
 10
-207.1502636512016
 20
-37.0
 30
0.0
 11
-174.8502636512017
 21
-37.0
 31
0.0
  0
LINE
  5
18F
330
75
100
AcDbEntity
  8
0
  6
Continuous
 62
     0
100
AcDbLine
 10
-174.8502636512017
 20
37.0
 30
0.0
 11
-174.8502636512017
 21
38.5
 31
0.0
  0
LINE
  5
190
330
75
100
AcDbEntity
  8
0
  6
Continuous
 62
     0
100
AcDbLine
 10
-207.1502636512016
 20
37.0
 30
0.0
 11
-207.1502636512016
 21
38.5
 31
0.0
  0
LINE
  5
191
330
75
100
AcDbEntity
  8
0
  6
Continuous
 62
     0
100
AcDbLine
 10
-174.8502636512017
 20
-38.5
 30
0.0
 11
-174.8502636512017
 21
-37.0
 31
0.0
  0
LINE
  5
192
330
75
100
AcDbEntity
  8
0
  6
Continuous
 62
     0
100
AcDbLine
 10
-207.1502636512016
 20
-38.5
 30
0.0
 11
-207.1502636512016
 21
-37.0
 31
0.0
  0
LINE
  5
193
330
75
100
AcDbEntity
  8
0
  6
Continuous
 62
     0
100
AcDbLine
 10
-177.2502636512017
 20
38.5
 30
0.0
 11
-177.2502636512017
 21
41.0
 31
0.0
  0
LINE
  5
194
330
75
100
AcDbEntity
  8
0
  6
Continuous
 62
     7
100
AcDbLine
 10
-207.1502636512016
 20
37.0
 30
0.0
 11
-174.8502636512017
 21
37.0
 31
0.0
  0
LINE
  5
195
330
75
100
AcDbEntity
  8
0
  6
Continuous
 62
     7
100
AcDbLine
 10
-204.7502636512015
 20
-41.0
 30
0.0
 11
-177.2502636512015
 21
-41.0
 31
0.0
  0
LINE
  5
196
330
75
100
AcDbEntity
  8
0
  6
Continuous
 62
     0
100
AcDbLine
 10
-204.7502636512017
 20
-37.0
 30
0.0
 11
-204.7502636512017
 21
-35.5
 31
0.0
  0
LINE
  5
197
330
75
100
AcDbEntity
  8
0
  6
Continuous
 62
     7
100
AcDbLine
 10
-207.1502636512016
 20
38.5
 30
0.0
 11
-174.8502636512017
 21
38.5
 31
0.0
  0
LINE
  5
198
330
75
100
AcDbEntity
  8
0
  6
Continuous
 62
     0
100
AcDbLine
 10
-204.7502636512017
 20
38.5
 30
0.0
 11
-204.7502636512017
 21
41.0
 31
0.0
  0
LINE
  5
199
330
75
100
AcDbEntity
  8
0
  6
Continuous
 62
     0
100
AcDbLine
 10
-177.2502636512017
 20
-37.0
 30
0.0
 11
-177.2502636512017
 21
-35.5
 31
0.0
  0
LINE
  5
19A
330
75
100
AcDbEntity
  8
0
  6
Continuous
 62
     7
100
AcDbLine
 10
-204.7502636512015
 20
41.0
 30
0.0
 11
-177.2502636512015
 21
41.0
 31
0.0
  0
LINE
  5
19B
330
75
100
AcDbEntity
  8
0
  6
Continuous
 62
     0
100
AcDbLine
 10
-204.7502636512017
 20
-41.0
 30
0.0
 11
-204.7502636512017
 21
-38.5
 31
0.0
  0
LINE
  5
19C
330
75
100
AcDbEntity
  8
0
  6
Continuous
 62
     0
100
AcDbLine
 10
-204.7502636512017
 20
35.50003051757812
 30
0.0
 11
-204.7502636512017
 21
37.0
 31
0.0
  0
LINE
  5
19D
330
75
100
AcDbEntity
  8
0
  6
Continuous
 62
     0
100
AcDbLine
 10
-177.2502636512017
 20
-41.0
 30
0.0
 11
-177.2502636512017
 21
-38.5
 31
0.0
  0
LINE
  5
19E
330
75
100
AcDbEntity
  8
0
  6
Continuous
 62
     0
100
AcDbLine
 10
-204.7502636512017
 20
-17.74996948242188
 30
0.0
 11
-204.7502636512017
 21
17.75
 31
0.0
  0
LINE
  5
19F
330
75
100
AcDbEntity
  8
0
  6
Continuous
 62
     0
100
AcDbLine
 10
-177.2502636512017
 20
-17.74996948242188
 30
0.0
 11
-177.2502636512017
 21
17.75
 31
0.0
  0
LINE
  5
1A0
330
75
100
AcDbEntity
  8
0
  6
Continuous
 62
     0
100
AcDbLine
 10
-177.2502636512017
 20
35.50003051757812
 30
0.0
 11
-177.2502636512017
 21
37.0
 31
0.0
  0
LINE
  5
1A1
330
75
100
AcDbEntity
  8
0
  6
Continuous
 62
     7
100
AcDbLine
 10
-207.1502636512016
 20
-38.5
 30
0.0
 11
-174.8502636512017
 21
-38.5
 31
0.0
  0
LINE
  5
1A2
330
75
100
AcDbEntity
  8
0
  6
CENTER
 62
     4
100
AcDbLine
 10
43.30923837958858
 20
42.0
 30
0.0
 11
-159.998032788094
 21
42.0
 31
0.0
  0
LINE
  5
1A3
330
75
100
AcDbEntity
  8
0
  6
CENTER
 62
     4
100
AcDbLine
 10
43.30923837958858
 20
-42.0
 30
0.0
 11
-159.998032788094
 21
-42.0
 31
0.0
  0
LINE
  5
1A4
330
75
100
AcDbEntity
  8
0
  6
CENTER
 62
     4
100
AcDbLine
 10
0.000000000000227
 20
47.84999344535936
 30
0.0
 11
0.000000000000227
 21
70.22361969666235
 31
0.0
  0
LINE
  5
1A5
330
75
100
AcDbEntity
  8
0
  6
CENTER
 62
     4
100
AcDbLine
 10
-117.0002489487231
 20
47.84999344535936
 30
0.0
 11
-117.0002489487231
 21
70.22361969666235
 31
0.0
  0
ARC
  5
1A6
330
75
100
AcDbEntity
  8
0
  6
Continuous
 62
     7
100
AcDbCircle
 10
109.9997597932911
 20
13.00000009934092
 30
0.0
 40
0.9999999999999998
100
AcDbArc
 50
180.0
 51
270.0000025044782
  0
ARC
  5
1A7
330
75
100
AcDbEntity
  8
0
  6
Continuous
 62
     7
100
AcDbCircle
 10
109.9997597932911
 20
-12.99999850988411
 30
0.0
 40
0.9999999999999998
100
AcDbArc
 50
89.99999749552188
 51
180.0
  0
ARC
  5
1A8
330
75
100
AcDbEntity
  8
0
  6
Continuous
 62
     7
100
AcDbCircle
 10
38.9997625748415
 20
-24.0
 30
0.0
 40
0.9999999999999998
100
AcDbArc
 50
90.0000179860894
 51
180.0
  0
ARC
  5
1A9
330
75
100
AcDbEntity
  8
0
  6
Continuous
 62
     7
100
AcDbCircle
 10
38.9997625748415
 20
24.00000198682142
 30
0.0
 40
0.9999999999999998
100
AcDbArc
 50
180.0
 51
269.9999820139107
  0
CIRCLE
  5
1AA
330
75
100
AcDbEntity
  8
0
  6
Continuous
 62
     4
100
AcDbCircle
 10
-0.000235239655012
 20
0.0
 30
0.0
 40
10.5
  0
CIRCLE
  5
1AB
330
75
100
AcDbEntity
  8
0
  6
Continuous
 62
     0
100
AcDbCircle
 10
-117.0002489487233
 20
0.0
 30
0.0
 40
9.3
  0
CIRCLE
  5
1AC
330
75
100
AcDbEntity
  8
0
  6
Continuous
 62
     4
100
AcDbCircle
 10
-117.0002489487233
 20
0.0
 30
0.0
 40
10.5
  0
ARC
  5
1AD
330
75
100
AcDbEntity
  8
0
  6
Continuous
 62
     7
100
AcDbCircle
 10
110.4997592965858
 20
0.0
 30
0.0
 40
16.0
100
AcDbArc
 50
147.5382487241397
 51
180.0
  0
ARC
  5
1AE
330
75
100
AcDbEntity
  8
0
  6
Continuous
 62
     7
100
AcDbCircle
 10
110.4997592965858
 20
0.0
 30
0.0
 40
16.0
100
AcDbArc
 50
180.0000173028428
 51
212.4617512758604
  0
CIRCLE
  5
1AF
330
75
100
AcDbEntity
  8
0
  6
Continuous
 62
     0
100
AcDbCircle
 10
-0.000235239655012
 20
0.0
 30
0.0
 40
9.3
  0
ELLIPSE
  5
1B0
330
75
100
AcDbEntity
  8
0
  6
Continuous
 62
     7
100
AcDbEllipse
 10
105.9997597932911
 20
0.0
 30
0.0
 11
9.330016576426118
 21
0.0
 31
0.0
210
0.0
220
0.0
230
1.0
 40
0.920446770840516
 41
1.243437928940137
 42
1.570796326794897
  0
ELLIPSE
  5
1B1
330
75
100
AcDbEntity
  8
0
  6
Continuous
 62
     7
100
AcDbEllipse
 10
105.9997597932911
 20
0.0
 30
0.0
 11
9.330016576426118
 21
0.0
 31
0.0
210
0.0
220
0.0
230
1.0
 40
0.920446770840516
 41
4.71238898038469
 42
5.039747378904798
  0
MTEXT
  5
1B2
330
75
100
AcDbEntity
  8
0
 62
     0
100
AcDbMText
 10
17.87624741660575
 20
1.614410852395395
 30
0.0
 40
0.5
 41
0.0
 71
     7
 72
     1
  1
{\W1;BN-6102A-CB-100}
 73
     1
 44
1.0
  0
ENDBLK
  5
77
330
75
100
AcDbEntity
  8
0
100
AcDbBlockEnd
  0
BLOCK
  5
79
330
78
100
AcDbEntity
  8
0
100
AcDbBlockBegin
  2
DTL0003
 70
     0
 10
0.0
 20
0.0
 30
0.0
  3
DTL0003
  1

  0
POINT
  5
1B3
330
78
100
AcDbEntity
  8
0
 62
     0
100
AcDbPoint
 10
0.0
 20
0.0
 30
0.0
  0
POINT
  5
1B4
330
78
100
AcDbEntity
  8
0
 62
     0
100
AcDbPoint
 10
0.0
 20
0.0
 30
0.0
  0
LINE
  5
1B5
330
78
100
AcDbEntity
  8
0
  6
CENTER
 62
     4
100
AcDbLine
 10
-70.77654001200824
 20
0.0
 30
0.0
 11
62.74801158898993
 21
0.0
 31
0.0
  0
LINE
  5
1B6
330
78
100
AcDbEntity
  8
0
  6
CENTER
 62
     4
100
AcDbLine
 10
0.0
 20
60.9999998013177
 30
0.0
 11
0.0
 21
-60.99999662240361
 31
0.0
  0
LINE
  5
1B7
330
78
100
AcDbEntity
  8
0
  6
Continuous
 62
     7
100
AcDbLine
 10
-43.00000337759627
 20
-57.00000059604645
 30
0.0
 11
42.99999066193936
 21
-57.00000059604645
 31
0.0
  0
LINE
  5
1B8
330
78
100
AcDbEntity
  8
0
  6
Continuous
 62
     7
100
AcDbLine
 10
56.99997993310387
 20
42.9999986092248
 30
0.0
 11
56.99997993310387
 21
-42.99999860922526
 31
0.0
  0
LINE
  5
1B9
330
78
100
AcDbEntity
  8
0
  6
Continuous
 62
     7
100
AcDbLine
 10
-57.0000053644178
 20
42.9999986092248
 30
0.0
 11
-57.0000053644178
 21
-42.99999860922526
 31
0.0
  0
LINE
  5
1BA
330
78
100
AcDbEntity
  8
0
  6
Continuous
 62
     7
100
AcDbLine
 10
-43.00000337759627
 20
57.00000059604645
 30
0.0
 11
42.99999066193936
 21
57.00000059604645
 31
0.0
  0
LINE
  5
1BB
330
78
100
AcDbEntity
  8
0
  6
CENTER
 62
     4
100
AcDbLine
 10
-42.00006953874924
 20
30.29945888918792
 30
0.0
 11
-42.00006953874924
 21
53.02799808867758
 31
0.0
  0
LINE
  5
1BC
330
78
100
AcDbEntity
  8
0
  6
Continuous
 62
     7
100
AcDbLine
 10
-33.50000884135522
 20
-46.90748187273812
 30
0.0
 11
-33.50000884135522
 21
-37.0925268692763
 31
0.0
  0
LINE
  5
1BD
330
78
100
AcDbEntity
  8
0
  6
Continuous
 62
     7
100
AcDbLine
 10
-42.00005038816664
 20
-51.81495839027914
 30
0.0
 11
-50.50008140764309
 21
-46.90747039671701
 31
0.0
  0
LINE
  5
1BE
330
78
100
AcDbEntity
  8
0
  6
Continuous
 62
     7
100
AcDbLine
 10
-42.00007093562172
 20
32.18505955577277
 30
0.0
 11
-50.50009094301134
 21
37.09254119151294
 31
0.0
  0
LINE
  5
1BF
330
78
100
AcDbEntity
  8
0
  6
Continuous
 62
     7
100
AcDbLine
 10
-33.49998362516678
 20
37.09249528324324
 30
0.0
 11
-42.0000219727342
 21
32.18501998234898
 31
0.0
  0
LINE
  5
1C0
330
78
100
AcDbEntity
  8
0
  6
Continuous
 62
     7
100
AcDbLine
 10
-42.00006454725246
 20
51.81493502813716
 30
0.0
 11
-50.50004469695094
 21
46.90746065079439
 31
0.0
  0
LINE
  5
1C1
330
78
100
AcDbEntity
  8
0
  6
Continuous
 62
     7
100
AcDbLine
 10
33.4999834100413
 20
-46.90747551490972
 30
0.0
 11
33.4999834100413
 21
-37.09251415361905
 31
0.0
  0
LINE
  5
1C2
330
78
100
AcDbEntity
  8
0
  6
Continuous
 62
     7
100
AcDbLine
 10
50.50001076043658
 20
37.0925045520718
 30
0.0
 11
41.99997241286916
 21
32.18502925117755
 31
0.0
  0
LINE
  5
1C3
330
78
100
AcDbEntity
  8
0
  6
CENTER
 62
     4
100
AcDbLine
 10
52.2737100810325
 20
41.99999483426427
 30
0.0
 11
32.07055282312433
 21
41.99999483426427
 31
0.0
  0
LINE
  5
1C4
330
78
100
AcDbEntity
  8
0
  6
CENTER
 62
     4
100
AcDbLine
 10
41.99994238217903
 20
30.29945968391644
 30
0.0
 11
41.99994238217903
 21
53.02799808867758
 31
0.0
  0
LINE
  5
1C5
330
78
100
AcDbEntity
  8
0
  6
Continuous
 62
     7
100
AcDbLine
 10
41.99995399182657
 20
32.18505404837057
 30
0.0
 11
33.49991196026467
 21
37.09254839975388
 31
0.0
  0
LINE
  5
1C6
330
78
100
AcDbEntity
  8
0
  6
Continuous
 62
     7
100
AcDbLine
 10
50.49996126200647
 20
46.90746873690227
 30
0.0
 11
41.99996668950762
 21
51.81494356454184
 31
0.0
  0
LINE
  5
1C7
330
78
100
AcDbEntity
  8
0
  6
Continuous
 62
     7
100
AcDbLine
 10
50.49996493260221
 20
37.09251415361882
 30
0.0
 11
50.49996493260221
 21
46.90746915708087
 31
0.0
  0
LINE
  5
1C8
330
78
100
AcDbEntity
  8
0
  6
Continuous
 62
     7
100
AcDbLine
 10
-50.50001579523007
 20
37.09252051144745
 30
0.0
 11
-50.50001579523007
 21
46.90747710436654
 31
0.0
  0
LINE
  5
1C9
330
78
100
AcDbEntity
  8
0
  6
Continuous
 62
     7
100
AcDbLine
 10
-33.50002926795656
 20
46.9074650463555
 30
0.0
 11
-42.00002384045521
 21
51.81493987399496
 31
0.0
  0
LINE
  5
1CA
330
78
100
AcDbEntity
  8
0
  6
Continuous
 62
     7
100
AcDbLine
 10
-33.50000884135522
 20
37.09251415361882
 30
0.0
 11
-33.50000884135522
 21
46.90746915708087
 31
0.0
  0
LINE
  5
1CB
330
78
100
AcDbEntity
  8
0
  6
Continuous
 62
     7
100
AcDbLine
 10
50.49996493260221
 20
-46.90748187273812
 30
0.0
 11
50.49996493260221
 21
-37.0925268692763
 31
0.0
  0
LINE
  5
1CC
330
78
100
AcDbEntity
  8
0
  6
Continuous
 62
     7
100
AcDbLine
 10
-50.50001579523007
 20
-46.90747551490972
 30
0.0
 11
-50.50001579523007
 21
-37.09251415361905
 31
0.0
  0
LINE
  5
1CD
330
78
100
AcDbEntity
  8
0
  6
CENTER
 62
     4
100
AcDbLine
 10
-31.72628912423886
 20
41.99995032946458
 30
0.0
 11
-51.92943366649013
 21
41.99995032946458
 31
0.0
  0
LINE
  5
1CE
330
78
100
AcDbEntity
  8
0
  6
Continuous
 62
     7
100
AcDbLine
 10
-42.00005370804467
 20
-32.18503677070992
 30
0.0
 11
-50.50004486982031
 21
-37.09251750588948
 31
0.0
  0
LINE
  5
1CF
330
78
100
AcDbEntity
  8
0
  6
Continuous
 62
     7
100
AcDbLine
 10
-33.49999564283311
 20
-46.90750037999352
 30
0.0
 11
-42.00002297830503
 21
-51.81496932308274
 31
0.0
  0
LINE
  5
1D0
330
78
100
AcDbEntity
  8
0
  6
CENTER
 62
     4
100
AcDbLine
 10
42.00003139177829
 20
-53.70053554771221
 30
0.0
 11
42.00003139177829
 21
-30.97199793767959
 31
0.0
  0
LINE
  5
1D1
330
78
100
AcDbEntity
  8
0
  6
Continuous
 62
     7
100
AcDbLine
 10
41.99994383016165
 20
-51.81495350917385
 30
0.0
 11
33.4999128106856
 21
-46.90746551561194
 31
0.0
  0
LINE
  5
1D2
330
78
100
AcDbEntity
  8
0
  6
CENTER
 62
     4
100
AcDbLine
 10
-31.72628912423886
 20
-42.00004569689236
 30
0.0
 11
-51.92943366649013
 21
-42.00004569689236
 31
0.0
  0
LINE
  5
1D3
330
78
100
AcDbEntity
  8
0
  6
CENTER
 62
     4
100
AcDbLine
 10
-41.99996781349307
 20
-53.70053554771221
 30
0.0
 11
-41.99996781349307
 21
-30.97200111659367
 31
0.0
  0
LINE
  5
1D4
330
78
100
AcDbEntity
  8
0
  6
Continuous
 62
     7
100
AcDbLine
 10
41.9999418185524
 20
-32.18504159781993
 30
0.0
 11
33.49993964469945
 21
-37.09252869083636
 31
0.0
  0
LINE
  5
1D5
330
78
100
AcDbEntity
  8
0
  6
Continuous
 62
     7
100
AcDbLine
 10
-33.50003236113675
 20
-37.09254359118727
 30
0.0
 11
-42.00003794571703
 21
-32.18506240571865
 31
0.0
  0
LINE
  5
1D6
330
78
100
AcDbEntity
  8
0
  6
Continuous
 62
     7
100
AcDbLine
 10
50.50001295860211
 20
-46.90749030242247
 30
0.0
 11
41.9999746110346
 21
-51.81496560331679
 31
0.0
  0
LINE
  5
1D7
330
78
100
AcDbEntity
  8
0
  6
Continuous
 62
     7
100
AcDbLine
 10
50.49996526432688
 20
-37.09254032653421
 30
0.0
 11
41.99995967974661
 21
-32.18505914106559
 31
0.0
  0
LINE
  5
1D8
330
78
100
AcDbEntity
  8
0
  6
CENTER
 62
     4
100
AcDbLine
 10
52.2737100810325
 20
-42.00000754992152
 30
0.0
 11
32.07055282312433
 21
-42.00000754992152
 31
0.0
  0
LINE
  5
1D9
330
78
100
AcDbEntity
  8
0
  6
Continuous
 62
     7
100
AcDbLine
 10
33.4999834100413
 20
37.09252051144745
 30
0.0
 11
33.4999834100413
 21
46.90747710436654
 31
0.0
  0
LINE
  5
1DA
330
78
100
AcDbEntity
  8
0
  6
Continuous
 62
     7
100
AcDbLine
 10
41.99993796070534
 20
51.81495625589897
 30
0.0
 11
33.49994129289099
 21
46.90747234180095
 31
0.0
  0
LINE
  5
1DB
330
78
100
AcDbEntity
  8
0
  6
Continuous
 62
     0
100
AcDbLine
 10
-62.9999898672105
 20
6.499999105930328
 30
0.0
 11
-62.9999898672105
 21
-6.500000695387598
 31
0.0
  0
LINE
  5
1DC
330
78
100
AcDbEntity
  8
0
  6
Continuous
 62
     7
100
AcDbLine
 10
-66.99998589356778
 20
3.999999205271479
 30
0.0
 11
-62.99998986721039
 21
3.999999205271479
 31
0.0
  0
LINE
  5
1DD
330
78
100
AcDbEntity
  8
0
  6
Continuous
 62
     7
100
AcDbLine
 10
-66.9999858935679
 20
-4.000000794728749
 30
0.0
 11
-66.9999858935679
 21
3.999999205271251
 31
0.0
  0
LINE
  5
1DE
330
78
100
AcDbEntity
  8
0
  6
Continuous
 62
     7
100
AcDbLine
 10
-66.99998589356778
 20
-4.000000794728521
 30
0.0
 11
-62.99998350938199
 21
-4.000000794728521
 31
0.0
  0
LINE
  5
1DF
330
78
100
AcDbEntity
  8
0
  6
Continuous
 62
     7
100
AcDbLine
 10
-56.9999799331033
 20
-6.500000695387598
 30
0.0
 11
-62.99998986721039
 21
-6.500000695387598
 31
0.0
  0
LINE
  5
1E0
330
78
100
AcDbEntity
  8
0
  6
Continuous
 62
     7
100
AcDbLine
 10
-56.9999799331033
 20
6.499999105930328
 30
0.0
 11
-62.99998986721039
 21
6.499999105930328
 31
0.0
  0
LINE
  5
1E1
330
78
100
AcDbEntity
  8
0
  6
Continuous
 62
     7
100
AcDbLine
 10
-56.99997993310365
 20
0.0
 30
0.0
 11
-62.9999898672105
 21
0.0
 31
0.0
  0
LINE
  5
1E2
330
78
100
AcDbEntity
  8
0
  6
Continuous
 62
     0
100
AcDbLine
 10
15.50003051757812
 20
57.00000059604622
 30
0.0
 11
15.50003051757812
 21
13.75
 31
0.0
  0
LINE
  5
1E3
330
78
100
AcDbEntity
  8
0
  6
Continuous
 62
     0
100
AcDbLine
 10
15.50003051757835
 20
52.58801649143152
 30
0.0
 11
17.75000000000023
 21
52.58801649143152
 31
0.0
  0
LINE
  5
1E4
330
78
100
AcDbEntity
  8
0
  6
Continuous
 62
     0
100
AcDbLine
 10
-15.5
 20
57.00000059604622
 30
0.0
 11
-15.5
 21
13.75
 31
0.0
  0
LINE
  5
1E5
330
78
100
AcDbEntity
  8
0
  6
Continuous
 62
     0
100
AcDbLine
 10
28.0
 20
-42.0
 30
0.0
 11
28.0
 21
-57.00000059604645
 31
0.0
  0
LINE
  5
1E6
330
78
100
AcDbEntity
  8
0
  6
Continuous
 62
     0
100
AcDbLine
 10
-27.99999999999989
 20
-42.0
 30
0.0
 11
-27.99999999999989
 21
-57.00000059604645
 31
0.0
  0
LINE
  5
1E7
330
78
100
AcDbEntity
  8
0
  6
Continuous
 62
     0
100
AcDbLine
 10
-27.99999999999989
 20
57.00000059604622
 30
0.0
 11
-27.99999999999989
 21
42.0
 31
0.0
  0
LINE
  5
1E8
330
78
100
AcDbEntity
  8
0
  6
Continuous
 62
     0
100
AcDbLine
 10
28.0
 20
57.00000059604622
 30
0.0
 11
28.0
 21
42.0
 31
0.0
  0
LINE
  5
1E9
330
78
100
AcDbEntity
  8
0
  6
Continuous
 62
     0
100
AcDbLine
 10
-17.74996948242165
 20
-52.58801649143152
 30
0.0
 11
-15.49999999999977
 21
-52.58801649143152
 31
0.0
  0
LINE
  5
1EA
330
78
100
AcDbEntity
  8
0
  6
Continuous
 62
     0
100
AcDbLine
 10
35.50003051757812
 20
29.60038723477282
 30
0.0
 11
35.50003051757812
 21
-29.60038723477282
 31
0.0
  0
LINE
  5
1EB
330
78
100
AcDbEntity
  8
0
  6
Continuous
 62
     0
100
AcDbLine
 10
-17.74996948242188
 20
52.58801649143152
 30
0.0
 11
-17.74996948242188
 21
-52.58801649143174
 31
0.0
  0
LINE
  5
1EC
330
78
100
AcDbEntity
  8
0
  6
Continuous
 62
     0
100
AcDbLine
 10
-17.74996948242165
 20
52.58801649143152
 30
0.0
 11
-15.49999999999977
 21
52.58801649143152
 31
0.0
  0
LINE
  5
1ED
330
78
100
AcDbEntity
  8
0
  6
Continuous
 62
     0
100
AcDbLine
 10
17.75
 20
52.58801649143152
 30
0.0
 11
17.75
 21
-52.58801649143174
 31
0.0
  0
LINE
  5
1EE
330
78
100
AcDbEntity
  8
0
  6
Continuous
 62
     0
100
AcDbLine
 10
15.50003051757835
 20
-52.58801649143152
 30
0.0
 11
17.75000000000023
 21
-52.58801649143152
 31
0.0
  0
LINE
  5
1EF
330
78
100
AcDbEntity
  8
0
  6
Continuous
 62
     0
100
AcDbLine
 10
-35.49999999999989
 20
29.60040323236262
 30
0.0
 11
-35.49999999999989
 21
-29.60040323236285
 31
0.0
  0
LINE
  5
1F0
330
78
100
AcDbEntity
  8
0
  6
Continuous
 62
     7
100
AcDbLine
 10
41.0
 20
13.75
 30
0.0
 11
41.0
 21
-13.75
 31
0.0
  0
LINE
  5
1F1
330
78
100
AcDbEntity
  8
0
  6
Continuous
 62
     7
100
AcDbLine
 10
-40.99999999999989
 20
13.75
 30
0.0
 11
-40.99999999999989
 21
-13.75
 31
0.0
  0
LINE
  5
1F2
330
78
100
AcDbEntity
  8
0
  6
Continuous
 62
     0
100
AcDbLine
 10
-40.99999999999977
 20
13.75
 30
0.0
 11
-38.49999999999977
 21
13.75
 31
0.0
  0
LINE
  5
1F3
330
78
100
AcDbEntity
  8
0
  6
Continuous
 62
     0
100
AcDbLine
 10
-40.99999999999977
 20
-13.75
 30
0.0
 11
-38.49999999999977
 21
-13.75
 31
0.0
  0
LINE
  5
1F4
330
78
100
AcDbEntity
  8
0
  6
Continuous
 62
     0
100
AcDbLine
 10
-17.74996948242165
 20
13.75
 30
0.0
 11
17.75000000000023
 21
13.75
 31
0.0
  0
LINE
  5
1F5
330
78
100
AcDbEntity
  8
0
  6
Continuous
 62
     0
100
AcDbLine
 10
-17.74996948242165
 20
-13.75
 30
0.0
 11
17.75000000000023
 21
-13.75
 31
0.0
  0
LINE
  5
1F6
330
78
100
AcDbEntity
  8
0
  6
Continuous
 62
     0
100
AcDbLine
 10
35.50003051757835
 20
13.75
 30
0.0
 11
37.00000000000023
 21
13.75
 31
0.0
  0
LINE
  5
1F7
330
78
100
AcDbEntity
  8
0
  6
Continuous
 62
     0
100
AcDbLine
 10
35.50003051757835
 20
-13.75
 30
0.0
 11
37.00000000000023
 21
-13.75
 31
0.0
  0
LINE
  5
1F8
330
78
100
AcDbEntity
  8
0
  6
Continuous
 62
     7
100
AcDbLine
 10
-38.49999999999989
 20
16.14999999999986
 30
0.0
 11
-38.49999999999989
 21
-16.15000000000009
 31
0.0
  0
LINE
  5
1F9
330
78
100
AcDbEntity
  8
0
  6
Continuous
 62
     0
100
AcDbLine
 10
-36.99999999999977
 20
-13.75
 30
0.0
 11
-35.49999999999977
 21
-13.75
 31
0.0
  0
LINE
  5
1FA
330
78
100
AcDbEntity
  8
0
  6
Continuous
 62
     0
100
AcDbLine
 10
38.50000000000023
 20
13.75
 30
0.0
 11
41.00000000000011
 21
13.75
 31
0.0
  0
LINE
  5
1FB
330
78
100
AcDbEntity
  8
0
  6
Continuous
 62
     7
100
AcDbLine
 10
38.5
 20
16.14999999999986
 30
0.0
 11
38.5
 21
-16.15000000000009
 31
0.0
  0
LINE
  5
1FC
330
78
100
AcDbEntity
  8
0
  6
Continuous
 62
     0
100
AcDbLine
 10
-36.99999999999977
 20
13.75
 30
0.0
 11
-35.49999999999977
 21
13.75
 31
0.0
  0
LINE
  5
1FD
330
78
100
AcDbEntity
  8
0
  6
Continuous
 62
     0
100
AcDbLine
 10
-15.5
 20
-13.75
 30
0.0
 11
-15.5
 21
-57.00000059604645
 31
0.0
  0
LINE
  5
1FE
330
78
100
AcDbEntity
  8
0
  6
Continuous
 62
     0
100
AcDbLine
 10
15.50003051757812
 20
-13.75
 30
0.0
 11
15.50003051757812
 21
-57.00000059604645
 31
0.0
  0
LINE
  5
1FF
330
78
100
AcDbEntity
  8
0
  6
Continuous
 62
     7
100
AcDbLine
 10
37.0
 20
16.14999999999986
 30
0.0
 11
37.0
 21
-16.15000000000009
 31
0.0
  0
LINE
  5
200
330
78
100
AcDbEntity
  8
0
  6
Continuous
 62
     7
100
AcDbLine
 10
-36.99999999999989
 20
16.14999999999986
 30
0.0
 11
-36.99999999999989
 21
-16.15000000000009
 31
0.0
  0
LINE
  5
201
330
78
100
AcDbEntity
  8
0
  6
Continuous
 62
     0
100
AcDbLine
 10
38.50000000000011
 20
-13.75
 30
0.0
 11
41.00000000000011
 21
-13.75
 31
0.0
  0
LINE
  5
202
330
78
100
AcDbEntity
  8
0
  6
Continuous
 62
     0
100
AcDbLine
 10
-38.49999999999977
 20
16.15000000000009
 30
0.0
 11
-36.99999999999977
 21
16.15000000000009
 31
0.0
  0
LINE
  5
203
330
78
100
AcDbEntity
  8
0
  6
Continuous
 62
     0
100
AcDbLine
 10
-38.49999999999977
 20
-16.15000000000009
 30
0.0
 11
-36.99999999999977
 21
-16.15000000000009
 31
0.0
  0
LINE
  5
204
330
78
100
AcDbEntity
  8
0
  6
Continuous
 62
     0
100
AcDbLine
 10
37.00000000000023
 20
16.15000000000009
 30
0.0
 11
38.50000000000023
 21
16.15000000000009
 31
0.0
  0
LINE
  5
205
330
78
100
AcDbEntity
  8
0
  6
Continuous
 62
     0
100
AcDbLine
 10
37.00000000000023
 20
-16.15000000000009
 30
0.0
 11
38.50000000000023
 21
-16.15000000000009
 31
0.0
  0
CIRCLE
  5
206
330
78
100
AcDbEntity
  8
0
  6
Continuous
 62
     7
100
AcDbCircle
 10
41.99998052915032
 20
41.99999960263563
 30
0.0
 40
4.999999801317858
  0
CIRCLE
  5
207
330
78
100
AcDbEntity
  8
0
  6
Continuous
 62
     7
100
AcDbCircle
 10
41.99998052915032
 20
-42.0000011920929
 30
0.0
 40
4.999999801317858
  0
CIRCLE
  5
208
330
78
100
AcDbEntity
  8
0
  6
Continuous
 62
     7
100
AcDbCircle
 10
-42.00003139177818
 20
-42.0000011920929
 30
0.0
 40
4.999999801317858
  0
CIRCLE
  5
209
330
78
100
AcDbEntity
  8
0
  6
Continuous
 62
     7
100
AcDbCircle
 10
-42.00003139177818
 20
41.99999960263563
 30
0.0
 40
4.999999801317858
  0
ARC
  5
20A
330
78
100
AcDbEntity
  8
0
  6
Continuous
 62
     7
100
AcDbCircle
 10
42.99999066193948
 20
-42.99999860922503
 30
0.0
 40
13.99999880790715
100
AcDbArc
 50
270.0000179860893
 51
0.0
  0
ARC
  5
20B
330
78
100
AcDbEntity
  8
0
  6
Continuous
 62
     7
100
AcDbCircle
 10
-43.00000337759627
 20
-42.99999860922503
 30
0.0
 40
13.99999880790715
100
AcDbArc
 50
179.9999776881997
 51
270.000028004002
  0
ARC
  5
20C
330
78
100
AcDbEntity
  8
0
  6
Continuous
 62
     7
100
AcDbCircle
 10
-43.00000337759627
 20
42.99999860922503
 30
0.0
 40
13.99999880790715
100
AcDbArc
 50
89.99998201391067
 51
179.9999640278213
  0
ARC
  5
20D
330
78
100
AcDbEntity
  8
0
  6
Continuous
 62
     7
100
AcDbCircle
 10
42.99999066193948
 20
42.99999860922503
 30
0.0
 40
13.99999880790715
100
AcDbArc
 50
0.0
 51
89.99998201391067
  0
ARC
  5
20E
330
78
100
AcDbEntity
  8
0
  6
Continuous
 62
     7
100
AcDbCircle
 10
-65.93604143714742
 20
-3.250001142422434
 30
0.0
 40
9.436062596795454
100
AcDbArc
 50
339.85340582552
 51
341.2645638891796
  0
ARC
  5
20F
330
78
100
AcDbEntity
  8
0
  6
Continuous
 62
     7
100
AcDbCircle
 10
-65.93604143714742
 20
3.249999552965164
 30
0.0
 40
9.436062596795454
100
AcDbArc
 50
18.73543611082047
 51
20.14659417448012
  0
ARC
  5
210
330
78
100
AcDbEntity
  8
0
  6
Continuous
 62
     0
100
AcDbCircle
 10
-41.99999999999989
 20
-42.0
 30
0.0
 40
14.0
100
AcDbArc
 50
0.0
 51
62.33599550381065
  0
ARC
  5
211
330
78
100
AcDbEntity
  8
0
  6
Continuous
 62
     0
100
AcDbCircle
 10
42.0
 20
-42.0
 30
0.0
 40
14.0
100
AcDbArc
 50
117.6638634813376
 51
180.0
  0
ARC
  5
212
330
78
100
AcDbEntity
  8
0
  6
Continuous
 62
     0
100
AcDbCircle
 10
42.0
 20
42.0
 30
0.0
 40
14.0
100
AcDbArc
 50
180.0
 51
242.3361365186624
  0
ARC
  5
213
330
78
100
AcDbEntity
  8
0
  6
Continuous
 62
     0
100
AcDbCircle
 10
-41.99999999999989
 20
42.0
 30
0.0
 40
14.0
100
AcDbArc
 50
297.6640044961894
 51
0.0
  0
CIRCLE
  5
214
330
78
100
AcDbEntity
  8
0
  6
Continuous
 62
     4
100
AcDbCircle
 10
41.99994238217903
 20
41.99999483426427
 30
0.0
 40
4.3235
  0
CIRCLE
  5
215
330
78
100
AcDbEntity
  8
0
  6
Continuous
 62
     4
100
AcDbCircle
 10
-42.00006953874924
 20
41.99995032946458
 30
0.0
 40
4.3235
  0
CIRCLE
  5
216
330
78
100
AcDbEntity
  8
0
  6
Continuous
 62
     4
100
AcDbCircle
 10
-41.99996781349307
 20
-42.00004569689236
 30
0.0
 40
4.3235
  0
CIRCLE
  5
217
330
78
100
AcDbEntity
  8
0
  6
Continuous
 62
     4
100
AcDbCircle
 10
42.00003139177829
 20
-42.00000754992152
 30
0.0
 40
4.3235
  0
MTEXT
  5
218
330
78
100
AcDbEntity
  8
0
 62
     0
100
AcDbMText
 10
26.66489491924126
 20
1.288117614055182
 30
0.0
 40
0.5
 41
0.0
 71
     7
 72
     1
  1
{\W1;BN-6102A-CB-100}
 73
     1
 44
1.0
  0
ENDBLK
  5
7A
330
78
100
AcDbEntity
  8
0
100
AcDbBlockEnd
  0
BLOCK
  5
7C
330
7B
100
AcDbEntity
  8
0
100
AcDbBlockBegin
  2
DTL0004
 70
     0
 10
0.0
 20
0.0
 30
0.0
  3
DTL0004
  1

  0
POINT
  5
219
330
7B
100
AcDbEntity
  8
0
 62
     0
100
AcDbPoint
 10
0.0
 20
0.0
 30
0.0
  0
LINE
  5
21A
330
7B
100
AcDbEntity
  8
0
  6
Continuous
 62
     7
100
AcDbLine
 10
-24.49993036190949
 20
-32.50000029802322
 30
0.0
 11
-0.000000000000227
 21
-32.50000029802322
 31
0.0
  0
LINE
  5
21B
330
7B
100
AcDbEntity
  8
0
  6
Continuous
 62
     7
100
AcDbLine
 10
-32.49993513028085
 20
-24.49999870856618
 30
0.0
 11
-32.49993513028085
 21
-0.000000000000227
 31
0.0
  0
LINE
  5
21C
330
7B
100
AcDbEntity
  8
0
  6
CENTER
 62
     4
100
AcDbLine
 10
-30.91462492553478
 20
-24.49999870856618
 30
0.0
 11
-17.94804644228952
 21
-24.49999870856618
 31
0.0
  0
LINE
  5
21D
330
7B
100
AcDbEntity
  8
0
  6
CENTER
 62
     4
100
AcDbLine
 10
24.4999939401946
 20
31.01348545818178
 30
0.0
 11
24.4999939401946
 21
18.07664683384314
 31
0.0
  0
LINE
  5
21E
330
7B
100
AcDbEntity
  8
0
  6
Continuous
 62
     7
100
AcDbLine
 10
-18.00008649657785
 20
-10.3922779512037
 30
0.0
 11
-0.000094726271819
 21
-20.78457627761031
 31
0.0
  0
LINE
  5
21F
330
7B
100
AcDbEntity
  8
0
  6
Continuous
 62
     7
100
AcDbLine
 10
18.0
 20
10.39230346679665
 30
0.0
 11
18.0
 21
-10.3923034667971
 31
0.0
  0
LINE
  5
220
330
7B
100
AcDbEntity
  8
0
  6
Continuous
 62
     7
100
AcDbLine
 10
-0.000141447786898
 20
20.78460774467359
 30
0.0
 11
17.99986353701865
 21
10.39230178887341
 31
0.0
  0
LINE
  5
221
330
7B
100
AcDbEntity
  8
0
  6
Continuous
 62
     7
100
AcDbLine
 10
32.49993513028062
 20
24.49999990065885
 30
0.0
 11
32.49993513028062
 21
-0.000000000000227
 31
0.0
  0
LINE
  5
222
330
7B
100
AcDbEntity
  8
0
  6
Continuous
 62
     7
100
AcDbLine
 10
24.49994307756651
 20
32.50000029802322
 30
0.0
 11
-0.000000000000227
 21
32.50000029802322
 31
0.0
  0
LINE
  5
223
330
7B
100
AcDbEntity
  8
0
  6
CENTER
 62
     4
100
AcDbLine
 10
17.88104857534699
 20
-24.49999870856618
 30
0.0
 11
30.99632635312491
 21
-24.49999870856618
 31
0.0
  0
LINE
  5
224
330
7B
100
AcDbEntity
  8
0
  6
Continuous
 62
     7
100
AcDbLine
 10
32.49993513028062
 20
-24.49999870856618
 30
0.0
 11
32.49993513028062
 21
-0.000000000000227
 31
0.0
  0
LINE
  5
225
330
7B
100
AcDbEntity
  8
0
  6
CENTER
 62
     4
100
AcDbLine
 10
24.4999939401946
 20
-17.7896230074266
 30
0.0
 11
24.4999939401946
 21
-31.03873015028375
 31
0.0
  0
LINE
  5
226
330
7B
100
AcDbEntity
  8
0
  6
Continuous
 62
     7
100
AcDbLine
 10
24.49994307756651
 20
-32.50000029802322
 30
0.0
 11
-0.000000000000227
 21
-32.50000029802322
 31
0.0
  0
LINE
  5
227
330
7B
100
AcDbEntity
  8
0
  6
CENTER
 62
     4
100
AcDbLine
 10
-30.91462492553478
 20
24.49999990065885
 30
0.0
 11
-17.94804644228952
 21
24.49999990065885
 31
0.0
  0
LINE
  5
228
330
7B
100
AcDbEntity
  8
0
  6
CENTER
 62
     4
100
AcDbLine
 10
17.88104857534699
 20
24.49999990065885
 30
0.0
 11
30.99632635312491
 21
24.49999990065885
 31
0.0
  0
LINE
  5
229
330
7B
100
AcDbEntity
  8
0
  6
CENTER
 62
     4
100
AcDbLine
 10
-24.4999939401946
 20
31.01348545818178
 30
0.0
 11
-24.4999939401946
 21
18.07664683384314
 31
0.0
  0
LINE
  5
22A
330
7B
100
AcDbEntity
  8
0
  6
Continuous
 62
     7
100
AcDbLine
 10
-21.99999403953575
 20
-23.08337596720958
 30
0.0
 11
-21.99999403953575
 21
-25.9166246288371
 31
0.0
  0
LINE
  5
22B
330
7B
100
AcDbEntity
  8
0
  6
Continuous
 62
     7
100
AcDbLine
 10
-26.99999384085368
 20
-23.08337596720958
 30
0.0
 11
-26.99999384085368
 21
-25.9166246288371
 31
0.0
  0
LINE
  5
22C
330
7B
100
AcDbEntity
  8
0
  6
Continuous
 62
     7
100
AcDbLine
 10
-21.99999067357035
 20
-25.91662514577833
 30
0.0
 11
-24.49998656067413
 21
-27.35999847007665
 31
0.0
  0
LINE
  5
22D
330
7B
100
AcDbEntity
  8
0
  6
Continuous
 62
     7
100
AcDbLine
 10
-21.99999129759869
 20
-23.08337849939833
 30
0.0
 11
-24.49999819678424
 21
-21.63999881727152
 31
0.0
  0
LINE
  5
22E
330
7B
100
AcDbEntity
  8
0
  6
Continuous
 62
     7
100
AcDbLine
 10
-26.99999631682405
 20
25.91662510593328
 30
0.0
 11
-24.4999894176384
 21
27.36000478806015
 31
0.0
  0
LINE
  5
22F
330
7B
100
AcDbEntity
  8
0
  6
Continuous
 62
     7
100
AcDbLine
 10
-26.99998861204476
 20
-25.91662710440377
 30
0.0
 11
-24.49999272494097
 21
-27.36000042870209
 31
0.0
  0
LINE
  5
230
330
7B
100
AcDbEntity
  8
0
  6
Continuous
 62
     7
100
AcDbLine
 10
-21.99999403953575
 20
25.91662542356539
 30
0.0
 11
-21.99999403953575
 21
23.08337696062017
 31
0.0
  0
LINE
  5
231
330
7B
100
AcDbEntity
  8
0
  6
Continuous
 62
     7
100
AcDbLine
 10
-26.99999447423776
 20
23.08337539408994
 30
0.0
 11
-24.49999858713398
 21
21.64000206979161
 31
0.0
  0
LINE
  5
232
330
7B
100
AcDbEntity
  8
0
  6
Continuous
 62
     7
100
AcDbLine
 10
-26.99999384085368
 20
25.91662542356539
 30
0.0
 11
-26.99999384085368
 21
23.08337696062017
 31
0.0
  0
LINE
  5
233
330
7B
100
AcDbEntity
  8
0
  6
Continuous
 62
     7
100
AcDbLine
 10
26.99999665374902
 20
25.91662753415998
 30
0.0
 11
24.50000076664523
 21
27.36000085845831
 31
0.0
  0
LINE
  5
234
330
7B
100
AcDbEntity
  8
0
  6
Continuous
 62
     7
100
AcDbLine
 10
-26.99998798801898
 20
-23.08337654077346
 30
0.0
 11
-24.49999210091539
 21
-21.64000321647524
 31
0.0
  0
LINE
  5
235
330
7B
100
AcDbEntity
  8
0
  6
Continuous
 62
     7
100
AcDbLine
 10
22.00000675519277
 20
25.91662542356539
 30
0.0
 11
22.00000675519277
 21
23.08337696062017
 31
0.0
  0
LINE
  5
236
330
7B
100
AcDbEntity
  8
0
  6
Continuous
 62
     7
100
AcDbLine
 10
-21.99998481138064
 20
23.08337735271517
 30
0.0
 11
-24.49999171056619
 21
21.63999767058836
 31
0.0
  0
LINE
  5
237
330
7B
100
AcDbEntity
  8
0
  6
Continuous
 62
     7
100
AcDbLine
 10
27.0000065565107
 20
-23.08337596720958
 30
0.0
 11
27.0000065565107
 21
-25.9166246288371
 31
0.0
  0
LINE
  5
238
330
7B
100
AcDbEntity
  8
0
  6
Continuous
 62
     7
100
AcDbLine
 10
-21.99999398087622
 20
25.91662950513567
 30
0.0
 11
-24.49998986797961
 21
27.36000282943377
 31
0.0
  0
LINE
  5
239
330
7B
100
AcDbEntity
  8
0
  6
Continuous
 62
     7
100
AcDbLine
 10
27.00000582324499
 20
23.08337932369132
 30
0.0
 11
24.49999892405924
 21
21.63999964156439
 31
0.0
  0
LINE
  5
23A
330
7B
100
AcDbEntity
  8
0
  6
Continuous
 62
     7
100
AcDbLine
 10
22.00000850879683
 20
25.91662792869742
 30
0.0
 11
24.50000439590052
 21
27.36000125299568
 31
0.0
  0
LINE
  5
23B
330
7B
100
AcDbEntity
  8
0
  6
Continuous
 62
     7
100
AcDbLine
 10
22.00000202257703
 20
-25.91662907538179
 30
0.0
 11
24.49999790968081
 21
-27.36000239968012
 31
0.0
  0
LINE
  5
23C
330
7B
100
AcDbEntity
  8
0
  6
Continuous
 62
     7
100
AcDbLine
 10
27.0000065565107
 20
25.91662542356539
 30
0.0
 11
27.0000065565107
 21
23.08337696062017
 31
0.0
  0
LINE
  5
23D
330
7B
100
AcDbEntity
  8
0
  6
Continuous
 62
     7
100
AcDbLine
 10
22.00000264660612
 20
-23.08337456979549
 30
0.0
 11
24.49999853370981
 21
-21.64000124549722
 31
0.0
  0
LINE
  5
23E
330
7B
100
AcDbEntity
  8
0
  6
Continuous
 62
     7
100
AcDbLine
 10
26.99999933702643
 20
-23.08338047037513
 30
0.0
 11
24.49999794388136
 21
-21.64000396716234
 31
0.0
  0
LINE
  5
23F
330
7B
100
AcDbEntity
  8
0
  6
Continuous
 62
     7
100
AcDbLine
 10
22.00000675519277
 20
-23.08337596720958
 30
0.0
 11
22.00000675519277
 21
-25.9166246288371
 31
0.0
  0
LINE
  5
240
330
7B
100
AcDbEntity
  8
0
  6
Continuous
 62
     7
100
AcDbLine
 10
21.99999933930032
 20
23.08337892915226
 30
0.0
 11
24.50000623848587
 21
21.63999924702545
 31
0.0
  0
LINE
  5
241
330
7B
100
AcDbEntity
  8
0
  6
CENTER
 62
     4
100
AcDbLine
 10
-63.97743783136661
 20
0.0
 30
0.0
 11
70.99998827775357
 21
0.0
 31
0.0
  0
LINE
  5
242
330
7B
100
AcDbEntity
  8
0
  6
CENTER
 62
     4
100
AcDbLine
 10
0.0
 20
60.9999998013177
 30
0.0
 11
0.0
 21
-60.99999662240361
 31
0.0
  0
LINE
  5
243
330
7B
100
AcDbEntity
  8
0
  6
Continuous
 62
     7
100
AcDbLine
 10
-43.00000337759639
 20
-57.00000059604645
 30
0.0
 11
42.99999066193914
 21
-57.00000059604645
 31
0.0
  0
LINE
  5
244
330
7B
100
AcDbEntity
  8
0
  6
Continuous
 62
     7
100
AcDbLine
 10
-57.00000536441803
 20
42.9999986092248
 30
0.0
 11
-57.00000536441803
 21
-42.99999860922526
 31
0.0
  0
LINE
  5
245
330
7B
100
AcDbEntity
  8
0
  6
Continuous
 62
     7
100
AcDbLine
 10
-43.00000337759639
 20
57.00000059604645
 30
0.0
 11
42.99999066193914
 21
57.00000059604645
 31
0.0
  0
LINE
  5
246
330
7B
100
AcDbEntity
  8
0
  6
Continuous
 62
     7
100
AcDbLine
 10
-33.50000884135534
 20
-46.90748187273834
 30
0.0
 11
-33.50000884135534
 21
-37.0925268692763
 31
0.0
  0
LINE
  5
247
330
7B
100
AcDbEntity
  8
0
  6
Continuous
 62
     7
100
AcDbLine
 10
-42.00005038816366
 20
-51.81495839027942
 30
0.0
 11
-50.50008140763931
 21
-46.90747039671774
 31
0.0
  0
LINE
  5
248
330
7B
100
AcDbEntity
  8
0
  6
Continuous
 62
     7
100
AcDbLine
 10
-42.00007093562145
 20
32.18505955577642
 30
0.0
 11
-50.50009094301127
 21
37.09254119151671
 31
0.0
  0
LINE
  5
249
330
7B
100
AcDbEntity
  8
0
  6
Continuous
 62
     7
100
AcDbLine
 10
-33.49998362516131
 20
37.09249528323577
 30
0.0
 11
-42.00002197272867
 21
32.18501998234154
 31
0.0
  0
LINE
  5
24A
330
7B
100
AcDbEntity
  8
0
  6
Continuous
 62
     7
100
AcDbLine
 10
-42.00006454725114
 20
51.81493502813606
 30
0.0
 11
-50.50004469694971
 21
46.90746065079324
 31
0.0
  0
LINE
  5
24B
330
7B
100
AcDbEntity
  8
0
  6
Continuous
 62
     7
100
AcDbLine
 10
33.49998341004107
 20
-46.90747551490972
 30
0.0
 11
33.49998341004107
 21
-37.09251415361905
 31
0.0
  0
LINE
  5
24C
330
7B
100
AcDbEntity
  8
0
  6
Continuous
 62
     7
100
AcDbLine
 10
50.50001076044014
 20
37.09250455206535
 30
0.0
 11
41.99997241287277
 21
32.18502925117112
 31
0.0
  0
LINE
  5
24D
330
7B
100
AcDbEntity
  8
0
  6
Continuous
 62
     7
100
AcDbLine
 10
41.99995399182852
 20
32.18505404837575
 30
0.0
 11
33.49991196026662
 21
37.09254839975906
 31
0.0
  0
LINE
  5
24E
330
7B
100
AcDbEntity
  8
0
  6
Continuous
 62
     7
100
AcDbLine
 10
50.49996126200541
 20
46.90746873690774
 30
0.0
 11
41.99996668950656
 21
51.81494356454731
 31
0.0
  0
LINE
  5
24F
330
7B
100
AcDbEntity
  8
0
  6
Continuous
 62
     7
100
AcDbLine
 10
50.4999649326021
 20
37.09251415361882
 30
0.0
 11
50.4999649326021
 21
46.90746915708087
 31
0.0
  0
LINE
  5
250
330
7B
100
AcDbEntity
  8
0
  6
Continuous
 62
     7
100
AcDbLine
 10
-50.50001579522996
 20
37.09252051144745
 30
0.0
 11
-50.50001579522996
 21
46.90747710436654
 31
0.0
  0
LINE
  5
251
330
7B
100
AcDbEntity
  8
0
  6
Continuous
 62
     7
100
AcDbLine
 10
-33.50002926795803
 20
46.90746504635976
 30
0.0
 11
-42.00002384045688
 21
51.81493987399934
 31
0.0
  0
LINE
  5
252
330
7B
100
AcDbEntity
  8
0
  6
Continuous
 62
     7
100
AcDbLine
 10
-33.50000884135534
 20
37.09251415361882
 30
0.0
 11
-33.50000884135534
 21
46.90746915708087
 31
0.0
  0
LINE
  5
253
330
7B
100
AcDbEntity
  8
0
  6
Continuous
 62
     7
100
AcDbLine
 10
50.4999649326021
 20
-46.90748187273834
 30
0.0
 11
50.4999649326021
 21
-37.0925268692763
 31
0.0
  0
LINE
  5
254
330
7B
100
AcDbEntity
  8
0
  6
Continuous
 62
     7
100
AcDbLine
 10
-50.50001579522996
 20
-46.90747551490972
 30
0.0
 11
-50.50001579522996
 21
-37.09251415361905
 31
0.0
  0
LINE
  5
255
330
7B
100
AcDbEntity
  8
0
  6
Continuous
 62
     7
100
AcDbLine
 10
-42.00005370804472
 20
-32.18503677071058
 30
0.0
 11
-50.50004486982031
 21
-37.09251750589011
 31
0.0
  0
LINE
  5
256
330
7B
100
AcDbEntity
  8
0
  6
Continuous
 62
     7
100
AcDbLine
 10
-33.49999564282973
 20
-46.90750037999867
 30
0.0
 11
-42.00002297830166
 21
-51.81496932308788
 31
0.0
  0
LINE
  5
257
330
7B
100
AcDbEntity
  8
0
  6
Continuous
 62
     7
100
AcDbLine
 10
41.99994383016184
 20
-51.81495350916989
 30
0.0
 11
33.49991281068579
 21
-46.90746551560798
 31
0.0
  0
LINE
  5
258
330
7B
100
AcDbEntity
  8
0
  6
Continuous
 62
     7
100
AcDbLine
 10
41.99994181855359
 20
-32.18504159782012
 30
0.0
 11
33.49993964470059
 21
-37.09252869083657
 31
0.0
  0
LINE
  5
259
330
7B
100
AcDbEntity
  8
0
  6
Continuous
 62
     7
100
AcDbLine
 10
-33.50003236113521
 20
-37.09254359118462
 30
0.0
 11
-42.00003794571549
 21
-32.185062405716
 31
0.0
  0
LINE
  5
25A
330
7B
100
AcDbEntity
  8
0
  6
Continuous
 62
     7
100
AcDbLine
 10
50.50001295860513
 20
-46.90749030243078
 30
0.0
 11
41.99997461103766
 21
-51.81496560332507
 31
0.0
  0
LINE
  5
25B
330
7B
100
AcDbEntity
  8
0
  6
Continuous
 62
     7
100
AcDbLine
 10
50.49996526432684
 20
-37.09254032653156
 30
0.0
 11
41.99995967974656
 21
-32.18505914106294
 31
0.0
  0
LINE
  5
25C
330
7B
100
AcDbEntity
  8
0
  6
Continuous
 62
     7
100
AcDbLine
 10
33.49998341004107
 20
37.09252051144745
 30
0.0
 11
33.49998341004107
 21
46.90747710436654
 31
0.0
  0
LINE
  5
25D
330
7B
100
AcDbEntity
  8
0
  6
Continuous
 62
     7
100
AcDbLine
 10
41.99993796070586
 20
51.81495625589653
 30
0.0
 11
33.49994129289137
 21
46.90747234179844
 31
0.0
  0
LINE
  5
25E
330
7B
100
AcDbEntity
  8
0
  6
Continuous
 62
     7
100
AcDbLine
 10
-32.49993513028085
 20
24.49999990065885
 30
0.0
 11
-32.49993513028085
 21
-0.000000000000227
 31
0.0
  0
LINE
  5
25F
330
7B
100
AcDbEntity
  8
0
  6
CENTER
 62
     4
100
AcDbLine
 10
-24.4999939401946
 20
-17.7896230074266
 30
0.0
 11
-24.4999939401946
 21
-31.03873015028375
 31
0.0
  0
LINE
  5
260
330
7B
100
AcDbEntity
  8
0
  6
Continuous
 62
     7
100
AcDbLine
 10
66.99998589356801
 20
3.999999205271479
 30
0.0
 11
62.99998986721084
 21
3.999999205271479
 31
0.0
  0
LINE
  5
261
330
7B
100
AcDbEntity
  8
0
  6
Continuous
 62
     7
100
AcDbLine
 10
66.99998589356801
 20
-4.000000794728749
 30
0.0
 11
66.99998589356801
 21
3.999999205271251
 31
0.0
  0
LINE
  5
262
330
7B
100
AcDbEntity
  8
0
  6
Continuous
 62
     7
100
AcDbLine
 10
66.99998589356801
 20
-4.000000794728749
 30
0.0
 11
62.99998350938222
 21
-4.000000794728749
 31
0.0
  0
LINE
  5
263
330
7B
100
AcDbEntity
  8
0
  6
Continuous
 62
     7
100
AcDbLine
 10
56.99997993310353
 20
-6.500000695387598
 30
0.0
 11
62.99998986721084
 21
-6.500000695387598
 31
0.0
  0
LINE
  5
264
330
7B
100
AcDbEntity
  8
0
  6
Continuous
 62
     7
100
AcDbLine
 10
56.99997993310353
 20
6.499999105930328
 30
0.0
 11
62.99998986721084
 21
6.499999105930328
 31
0.0
  0
LINE
  5
265
330
7B
100
AcDbEntity
  8
0
  6
Continuous
 62
     7
100
AcDbLine
 10
62.99998986721062
 20
6.499999105930328
 30
0.0
 11
62.99998986721062
 21
-6.500000695387598
 31
0.0
  0
LINE
  5
266
330
7B
100
AcDbEntity
  8
0
  6
Continuous
 62
     7
100
AcDbLine
 10
56.99997993310399
 20
0.0
 30
0.0
 11
62.99998986721084
 21
0.0
 31
0.0
  0
LINE
  5
267
330
7B
100
AcDbEntity
  8
0
  6
Continuous
 62
     7
100
AcDbLine
 10
56.99997993310376
 20
43.01633962154256
 30
0.0
 11
56.99997993310376
 21
-43.01633962154301
 31
0.0
  0
LINE
  5
268
330
7B
100
AcDbEntity
  8
0
  6
Continuous
 62
     7
100
AcDbLine
 10
-24.49993036190949
 20
32.50000029802322
 30
0.0
 11
-0.000000000000227
 21
32.50000029802322
 31
0.0
  0
LINE
  5
269
330
7B
100
AcDbEntity
  8
0
  6
Continuous
 62
     7
100
AcDbLine
 10
-0.000077524399853
 20
-20.784627562119
 30
0.0
 11
17.99992415678082
 21
-10.39232351366721
 31
0.0
  0
LINE
  5
26A
330
7B
100
AcDbEntity
  8
0
  6
Continuous
 62
     7
100
AcDbLine
 10
27.00000155050999
 20
-25.91662592782254
 30
0.0
 11
24.5000056634063
 21
-27.35999925212081
 31
0.0
  0
LINE
  5
26B
330
7B
100
AcDbEntity
  8
0
  6
Continuous
 62
     7
100
AcDbLine
 10
-18.00006378414147
 20
10.3922684780654
 30
0.0
 11
-0.000062102960792
 21
20.78457252651718
 31
0.0
  0
LINE
  5
26C
330
7B
100
AcDbEntity
  8
0
  6
Continuous
 62
     7
100
AcDbLine
 10
-18.00000762939453
 20
10.39230346679665
 30
0.0
 11
-18.00000762939453
 21
-10.3923034667971
 31
0.0
  0
LINE
  5
26D
330
7B
100
AcDbEntity
  8
0
  6
CENTER
 62
     4
100
AcDbLine
 10
-42.00003139177807
 20
-56.87523365283778
 30
0.0
 11
-42.00003139177807
 21
-27.12476873134801
 31
0.0
  0
LINE
  5
26E
330
7B
100
AcDbEntity
  8
0
  6
CENTER
 62
     4
100
AcDbLine
 10
55.96975964432681
 20
-42.0000011920929
 30
0.0
 11
28.0302014139736
 21
-42.0000011920929
 31
0.0
  0
LINE
  5
26F
330
7B
100
AcDbEntity
  8
0
  6
CENTER
 62
     4
100
AcDbLine
 10
-28.03025227660146
 20
-42.0000011920929
 30
0.0
 11
-55.96981050695467
 21
-42.0000011920929
 31
0.0
  0
LINE
  5
270
330
7B
100
AcDbEntity
  8
0
  6
CENTER
 62
     4
100
AcDbLine
 10
55.96975964432681
 20
41.99999960263563
 30
0.0
 11
28.0302014139736
 21
41.99999960263563
 31
0.0
  0
LINE
  5
271
330
7B
100
AcDbEntity
  8
0
  6
CENTER
 62
     4
100
AcDbLine
 10
41.99998052915021
 20
-56.87523365283778
 30
0.0
 11
41.99998052915021
 21
-27.12476873134801
 31
0.0
  0
LINE
  5
272
330
7B
100
AcDbEntity
  8
0
  6
CENTER
 62
     4
100
AcDbLine
 10
41.99998052915021
 20
27.12476714189074
 30
0.0
 11
41.99998052915021
 21
56.87523206338051
 31
0.0
  0
LINE
  5
273
330
7B
100
AcDbEntity
  8
0
  6
CENTER
 62
     4
100
AcDbLine
 10
-28.03025227660146
 20
41.99999960263563
 30
0.0
 11
-55.96981050695467
 21
41.99999960263563
 31
0.0
  0
LINE
  5
274
330
7B
100
AcDbEntity
  8
0
  6
CENTER
 62
     4
100
AcDbLine
 10
-42.00003139177807
 20
27.12476714189074
 30
0.0
 11
-42.00003139177807
 21
56.87523206338051
 31
0.0
  0
CIRCLE
  5
275
330
7B
100
AcDbEntity
  8
0
  6
Continuous
 62
     4
100
AcDbCircle
 10
0.0
 20
0.0
 30
0.0
 40
12.00000029802322
  0
CIRCLE
  5
276
330
7B
100
AcDbEntity
  8
0
  6
Continuous
 62
     7
100
AcDbCircle
 10
41.99998052915021
 20
-42.0000011920929
 30
0.0
 40
4.999999801317858
  0
CIRCLE
  5
277
330
7B
100
AcDbEntity
  8
0
  6
Continuous
 62
     7
100
AcDbCircle
 10
41.99998052915021
 20
41.99999960263563
 30
0.0
 40
4.999999801317858
  0
CIRCLE
  5
278
330
7B
100
AcDbEntity
  8
0
  6
Continuous
 62
     7
100
AcDbCircle
 10
-42.00003139177807
 20
-42.0000011920929
 30
0.0
 40
4.999999801317858
  0
CIRCLE
  5
279
330
7B
100
AcDbEntity
  8
0
  6
Continuous
 62
     7
100
AcDbCircle
 10
-42.00003139177807
 20
41.99999960263563
 30
0.0
 40
4.999999801317858
  0
ARC
  5
27A
330
7B
100
AcDbEntity
  8
0
  6
Continuous
 62
     7
100
AcDbCircle
 10
42.99999066193936
 20
-42.99999860922526
 30
0.0
 40
13.99999880790715
100
AcDbArc
 50
270.0000179860893
 51
0.0
  0
CIRCLE
  5
27B
330
7B
100
AcDbEntity
  8
0
  6
Continuous
 62
     7
100
AcDbCircle
 10
0.0
 20
0.0
 30
0.0
 40
13.0
  0
CIRCLE
  5
27C
330
7B
100
AcDbEntity
  8
0
  6
Continuous
 62
     7
100
AcDbCircle
 10
0.0
 20
0.0
 30
0.0
 40
18.0
  0
ARC
  5
27D
330
7B
100
AcDbEntity
  8
0
  6
Continuous
 62
     7
100
AcDbCircle
 10
-24.49993036190972
 20
24.49999990065885
 30
0.0
 40
7.999999999999998
100
AcDbArc
 50
89.99998201391067
 51
180.0000186693347
  0
ARC
  5
27E
330
7B
100
AcDbEntity
  8
0
  6
Continuous
 62
     7
100
AcDbCircle
 10
24.49994307756629
 20
24.49999990065885
 30
0.0
 40
7.999999999999998
100
AcDbArc
 50
359.9999813306647
 51
90.00003665542401
  0
ARC
  5
27F
330
7B
100
AcDbEntity
  8
0
  6
Continuous
 62
     7
100
AcDbCircle
 10
-24.49993036190972
 20
-24.49999870856618
 30
0.0
 40
7.999999999999998
100
AcDbArc
 50
179.9999640278213
 51
270.0000006832453
  0
CIRCLE
  5
280
330
7B
100
AcDbEntity
  8
0
  6
Continuous
 62
     7
100
AcDbCircle
 10
-24.4999939401946
 20
-24.49999870856618
 30
0.0
 40
5.500000099341069
  0
CIRCLE
  5
281
330
7B
100
AcDbEntity
  8
0
  6
Continuous
 62
     7
100
AcDbCircle
 10
-24.4999939401946
 20
24.49999990065885
 30
0.0
 40
5.500000099341069
  0
ARC
  5
282
330
7B
100
AcDbEntity
  8
0
  6
Continuous
 62
     7
100
AcDbCircle
 10
24.49994307756629
 20
-24.49999870856618
 30
0.0
 40
7.999999999999998
100
AcDbArc
 50
270.0000179860893
 51
0.000035972178075
  0
CIRCLE
  5
283
330
7B
100
AcDbEntity
  8
0
  6
Continuous
 62
     7
100
AcDbCircle
 10
24.4999939401946
 20
-24.49999870856618
 30
0.0
 40
5.500000099341069
  0
CIRCLE
  5
284
330
7B
100
AcDbEntity
  8
0
  6
Continuous
 62
     7
100
AcDbCircle
 10
24.4999939401946
 20
24.49999990065885
 30
0.0
 40
5.500000099341069
  0
CIRCLE
  5
285
330
7B
100
AcDbEntity
  8
0
  6
Continuous
 62
     7
100
AcDbCircle
 10
0.0
 20
0.0
 30
0.0
 40
22.99999940395358
  0
CIRCLE
  5
286
330
7B
100
AcDbEntity
  8
0
  6
Continuous
 62
     7
100
AcDbCircle
 10
-24.4999939401946
 20
-24.49999870856618
 30
0.0
 40
4.999999801317858
  0
CIRCLE
  5
287
330
7B
100
AcDbEntity
  8
0
  6
Continuous
 62
     7
100
AcDbCircle
 10
-24.4999939401946
 20
24.50000109275175
 30
0.0
 40
4.999999801317858
  0
CIRCLE
  5
288
330
7B
100
AcDbEntity
  8
0
  6
Continuous
 62
     7
100
AcDbCircle
 10
24.50000665585162
 20
24.50000109275175
 30
0.0
 40
4.999999801317858
  0
ARC
  5
289
330
7B
100
AcDbEntity
  8
0
  6
Continuous
 62
     7
100
AcDbCircle
 10
-43.00000337759639
 20
-42.99999860922526
 30
0.0
 40
13.99999880790715
100
AcDbArc
 50
179.9999776881997
 51
270.000028004002
  0
ARC
  5
28A
330
7B
100
AcDbEntity
  8
0
  6
Continuous
 62
     7
100
AcDbCircle
 10
-43.00000337759639
 20
42.99999860922503
 30
0.0
 40
13.99999880790715
100
AcDbArc
 50
89.99998201391067
 51
179.9999640278213
  0
ARC
  5
28B
330
7B
100
AcDbEntity
  8
0
  6
Continuous
 62
     7
100
AcDbCircle
 10
42.99999066193936
 20
42.99999860922503
 30
0.0
 40
13.99999880790715
100
AcDbArc
 50
0.0
 51
89.99998201391067
  0
ARC
  5
28C
330
7B
100
AcDbEntity
  8
0
  6
Continuous
 62
     7
100
AcDbCircle
 10
65.93604143714742
 20
-3.250001142422434
 30
0.0
 40
9.436062596795454
100
AcDbArc
 50
198.7354361108204
 51
200.1465941744801
  0
ARC
  5
28D
330
7B
100
AcDbEntity
  8
0
  6
Continuous
 62
     7
100
AcDbCircle
 10
65.93604143714742
 20
3.249999552965164
 30
0.0
 40
9.436062596795454
100
AcDbArc
 50
159.8534058255199
 51
161.2645638891796
  0
CIRCLE
  5
28E
330
7B
100
AcDbEntity
  8
0
  6
Continuous
 62
     7
100
AcDbCircle
 10
24.50000665585162
 20
-24.49999870856618
 30
0.0
 40
4.999999801317858
  0
CIRCLE
  5
28F
330
7B
100
AcDbEntity
  8
0
  6
Continuous
 62
     4
100
AcDbCircle
 10
41.99998052915021
 20
-42.0000011920929
 30
0.0
 40
4.3235
  0
CIRCLE
  5
290
330
7B
100
AcDbEntity
  8
0
  6
Continuous
 62
     4
100
AcDbCircle
 10
-42.00003139177807
 20
-42.0000011920929
 30
0.0
 40
4.3235
  0
CIRCLE
  5
291
330
7B
100
AcDbEntity
  8
0
  6
Continuous
 62
     4
100
AcDbCircle
 10
41.99998052915021
 20
41.99999960263563
 30
0.0
 40
4.3235
  0
CIRCLE
  5
292
330
7B
100
AcDbEntity
  8
0
  6
Continuous
 62
     4
100
AcDbCircle
 10
-42.00003139177807
 20
41.99999960263563
 30
0.0
 40
4.3235
  0
MTEXT
  5
293
330
7B
100
AcDbEntity
  8
0
 62
     0
100
AcDbMText
 10
24.41955329404568
 20
1.167814649573756
 30
0.0
 40
0.5
 41
0.0
 71
     7
 72
     1
  1
{\W1;BN-6102A-CB-100}
 73
     1
 44
1.0
  0
ENDBLK
  5
7D
330
7B
100
AcDbEntity
  8
0
100
AcDbBlockEnd
  0
BLOCK
  5
296
330
295
100
AcDbEntity
  8
0
100
AcDbBlockBegin
  2
_Closed
 70
     0
 10
0.0
 20
0.0
 30
0.0
  3
_Closed
  1

  0
LINE
  5
298
330
295
100
AcDbEntity
  8
0
  6
ByBlock
 62
     0
370
    -2
100
AcDbLine
 10
-1.0
 20
0.166667
 30
0.0
 11
0.0
 21
0.0
 31
0.0
  0
LINE
  5
299
330
295
100
AcDbEntity
  8
0
  6
ByBlock
 62
     0
370
    -2
100
AcDbLine
 10
0.0
 20
0.0
 30
0.0
 11
-1.0
 21
-0.166667
 31
0.0
  0
LINE
  5
29A
330
295
100
AcDbEntity
  8
0
  6
ByBlock
 62
     0
370
    -2
100
AcDbLine
 10
-1.0
 20
0.166667
 30
0.0
 11
-1.0
 21
-0.166667
 31
0.0
  0
LINE
  5
29B
330
295
100
AcDbEntity
  8
0
  6
ByBlock
 62
     0
370
    -2
100
AcDbLine
 10
0.0
 20
0.0
 30
0.0
 11
-1.0
 21
0.0
 31
0.0
  0
ENDBLK
  5
297
330
295
100
AcDbEntity
  8
0
100
AcDbBlockEnd
  0
BLOCK
  5
2B0
330
2AF
100
AcDbEntity
  8
0
100
AcDbBlockBegin
  2
_Open
 70
     0
 10
0.0
 20
0.0
 30
0.0
  3
_Open
  1

  0
LINE
  5
2B2
330
2AF
100
AcDbEntity
  8
0
  6
ByBlock
 62
     0
370
    -2
100
AcDbLine
 10
-1.0
 20
0.166667
 30
0.0
 11
0.0
 21
0.0
 31
0.0
  0
LINE
  5
2B3
330
2AF
100
AcDbEntity
  8
0
  6
ByBlock
 62
     0
370
    -2
100
AcDbLine
 10
-1.0
 20
-0.166667
 30
0.0
 11
0.0
 21
0.0
 31
0.0
  0
LINE
  5
2B4
330
2AF
100
AcDbEntity
  8
0
  6
ByBlock
 62
     0
370
    -2
100
AcDbLine
 10
0.0
 20
0.0
 30
0.0
 11
-1.0
 21
0.0
 31
0.0
  0
ENDBLK
  5
2B1
330
2AF
100
AcDbEntity
  8
0
100
AcDbBlockEnd
  0
BLOCK
  5
2B7
330
2B6
100
AcDbEntity
  8
0
100
AcDbBlockBegin
  2
*D7
 70
     1
 10
0.0
 20
0.0
 30
0.0
  3
*D7
  1

  0
LINE
  5
2B9
330
2B6
100
AcDbEntity
  8
0
  6
ByBlock
 62
     0
370
    -2
100
AcDbLine
 10
-91.64914835581322
 20
-77.3439790377877
 30
0.0
 11
-91.64914835581322
 21
-53.89319440340671
 31
0.0
  0
LINE
  5
2BA
330
2B6
100
AcDbEntity
  8
0
  6
ByBlock
 62
     0
370
    -2
100
AcDbLine
 10
-77.64913365333479
 20
-76.25808731415489
 30
0.0
 11
-77.64913365333479
 21
-53.89319440340671
 31
0.0
  0
LINE
  5
2BB
330
2B6
100
AcDbEntity
  8
0
  6
ByBlock
 62
     0
370
    -2
100
AcDbLine
 10
-88.53514835581322
 20
-56.17919440340671
 30
0.0
 11
-80.76313365333479
 21
-56.17919440340671
 31
0.0
  0
INSERT
  5
2BC
330
2B6
100
AcDbEntity
  8
0
 62
     0
370
    -2
100
AcDbBlockReference
  2
_Open
 10
-91.64914835581322
 20
-56.17919440340671
 30
0.0
 41
3.114
 42
3.114
 43
3.114
 50
180.0
  0
INSERT
  5
2BD
330
2B6
100
AcDbEntity
  8
0
 62
     0
370
    -2
100
AcDbBlockReference
  2
_Open
 10
-77.64913365333479
 20
-56.17919440340671
 30
0.0
 41
3.114
 42
3.114
 43
3.114
  0
MTEXT
  5
2BE
330
2B6
100
AcDbEntity
  8
0
 62
     0
100
AcDbMText
 10
-84.648141004574
 20
-53.17919440340671
 30
0.0
 40
4.0
 41
0.0
 71
     5
 72
     1
  1
14
 73
     1
 44
1.0
  0
POINT
  5
2BF
330
2B6
100
AcDbEntity
  8
Defpoints
 62
     0
100
AcDbPoint
 10
-91.64914835581322
 20
-77.3439790377877
 30
0.0
  0
POINT
  5
2C0
330
2B6
100
AcDbEntity
  8
Defpoints
 62
     0
100
AcDbPoint
 10
-77.64913365333479
 20
-76.25808731415489
 30
0.0
  0
POINT
  5
2C1
330
2B6
100
AcDbEntity
  8
Defpoints
 62
     0
100
AcDbPoint
 10
-77.64913365333479
 20
-56.17919440340671
 30
0.0
  0
ENDBLK
  5
2B8
330
2B6
100
AcDbEntity
  8
0
100
AcDbBlockEnd
  0
BLOCK
  5
2C4
330
2C3
100
AcDbEntity
  8
0
100
AcDbBlockBegin
  2
*D8
 70
     1
 10
0.0
 20
0.0
 30
0.0
  3
*D8
  1

  0
LINE
  5
2C6
330
2C3
100
AcDbEntity
  8
0
  6
ByBlock
 62
     0
370
    -2
100
AcDbLine
 10
66.35087389658673
 20
-77.343969501045
 30
0.0
 11
66.35087389658673
 21
-53.89319440340671
 31
0.0
  0
LINE
  5
2C7
330
2C3
100
AcDbEntity
  8
0
  6
ByBlock
 62
     0
370
    -2
100
AcDbLine
 10
39.35111529538852
 20
-76.25807777741218
 30
0.0
 11
39.35111529538852
 21
-53.89319440340671
 31
0.0
  0
LINE
  5
2C8
330
2C3
100
AcDbEntity
  8
0
  6
ByBlock
 62
     0
370
    -2
100
AcDbLine
 10
63.23687389658674
 20
-56.17919440340671
 30
0.0
 11
42.46511529538852
 21
-56.17919440340671
 31
0.0
  0
INSERT
  5
2C9
330
2C3
100
AcDbEntity
  8
0
 62
     0
370
    -2
100
AcDbBlockReference
  2
_Open
 10
66.35087389658673
 20
-56.17919440340671
 30
0.0
 41
3.114
 42
3.114
 43
3.114
  0
INSERT
  5
2CA
330
2C3
100
AcDbEntity
  8
0
 62
     0
370
    -2
100
AcDbBlockReference
  2
_Open
 10
39.35111529538852
 20
-56.17919440340671
 30
0.0
 41
3.114
 42
3.114
 43
3.114
 50
180.0
  0
MTEXT
  5
2CB
330
2C3
100
AcDbEntity
  8
0
 62
     0
100
AcDbMText
 10
52.85299459598762
 20
-53.17919440340671
 30
0.0
 40
4.0
 41
0.0
 71
     5
 72
     1
  1
27
 73
     1
 44
1.0
  0
POINT
  5
2CC
330
2C3
100
AcDbEntity
  8
Defpoints
 62
     0
100
AcDbPoint
 10
66.35087389658673
 20
-77.343969501045
 30
0.0
  0
POINT
  5
2CD
330
2C3
100
AcDbEntity
  8
Defpoints
 62
     0
100
AcDbPoint
 10
39.35111529538852
 20
-76.25807777741218
 30
0.0
  0
POINT
  5
2CE
330
2C3
100
AcDbEntity
  8
Defpoints
 62
     0
100
AcDbPoint
 10
39.35111529538852
 20
-56.17919440340671
 30
0.0
  0
ENDBLK
  5
2C5
330
2C3
100
AcDbEntity
  8
0
100
AcDbBlockEnd
  0
BLOCK
  5
2D6
330
2CF
100
AcDbEntity
  8
0
100
AcDbBlockBegin
  2
SYM0001
 70
     0
 10
0.0
 20
0.0
 30
0.0
  3
SYM0001
  1

  0
LINE
  5
2D0
330
2CF
100
AcDbEntity
  8
0
  6
Continuous
 62
     7
100
AcDbLine
 10
0.0
 20
0.0
 30
0.0
 11
10.34250727198172
 21
10.88760807520323
 31
0.0
  0
LINE
  5
2D1
330
2CF
100
AcDbEntity
  8
0
  6
Continuous
 62
     7
100
AcDbLine
 10
0.0
 20
0.0
 30
0.0
 11
1.510324920189973
 21
2.778294195418084
 31
0.0
  0
LINE
  5
2D2
330
2CF
100
AcDbEntity
  8
0
  6
Continuous
 62
     7
100
AcDbLine
 10
0.0
 20
0.0
 30
0.0
 11
2.697126846466901
 21
1.650910892479715
 31
0.0
  0
LINE
  5
2D3
330
2CF
100
AcDbEntity
  8
0
  6
Continuous
 62
     7
100
AcDbLine
 10
10.34250727198172
 20
10.88760807520322
 30
0.0
 11
19.21762905415668
 21
10.88760807520329
 31
0.0
  0
MTEXT
  5
2D4
330
2CF
100
AcDbEntity
  8
0
 62
     7
100
AcDbMText
 10
21.50362906750813
 20
8.887608075203246
 30
0.0
 40
4.0
 41
0.0
 71
     7
 72
     1
  1
{\W1;2-Rc1/2}
 73
     1
 44
1.0
  0
ENDBLK
  5
2D7
330
2CF
100
AcDbEntity
  8
0
100
AcDbBlockEnd
  0
BLOCK
  5
2DF
330
2D8
100
AcDbEntity
  8
0
100
AcDbBlockBegin
  2
SYM0002
 70
     0
 10
0.0
 20
0.0
 30
0.0
  3
SYM0002
  1

  0
LINE
  5
2D9
330
2D8
100
AcDbEntity
  8
0
  6
Continuous
 62
     7
100
AcDbLine
 10
0.0
 20
0.0
 30
0.0
 11
6.003304249760589
 21
8.512637249916693
 31
0.0
  0
LINE
  5
2DA
330
2D8
100
AcDbEntity
  8
0
  6
Continuous
 62
     7
100
AcDbLine
 10
0.0
 20
0.0
 30
0.0
 11
1.09153281377408
 21
2.967921177742951
 31
0.0
  0
LINE
  5
2DB
330
2D8
100
AcDbEntity
  8
0
  6
Continuous
 62
     7
100
AcDbLine
 10
0.0
 20
0.0
 30
0.0
 11
2.429255734547183
 21
2.024528729608491
 31
0.0
  0
LINE
  5
2DC
330
2D8
100
AcDbEntity
  8
0
  6
Continuous
 62
     7
100
AcDbLine
 10
6.003304249760617
 20
8.512637249916693
 30
0.0
 11
15.53287474936471
 21
8.512637249916708
 31
0.0
  0
MTEXT
  5
2DD
330
2D8
100
AcDbEntity
  8
0
 62
     7
100
AcDbMText
 10
17.81887476271612
 20
6.512637249916708
 30
0.0
 40
4.0
 41
0.0
 71
     7
 72
     1
  1
{\W0.833333;M26×1.5}
 73
     1
 44
1.0
  0
ENDBLK
  5
2E0
330
2D8
100
AcDbEntity
  8
0
100
AcDbBlockEnd
  0
BLOCK
  5
2E3
330
2E2
100
AcDbEntity
  8
0
100
AcDbBlockBegin
  2
*D11
 70
     1
 10
0.0
 20
0.0
 30
0.0
  3
*D11
  1

  0
LINE
  5
2E5
330
2E2
100
AcDbEntity
  8
0
  6
ByBlock
 62
     0
370
    -2
100
AcDbLine
 10
-91.64914835581322
 20
-77.3439790377877
 30
0.0
 11
-91.64914835581322
 21
-44.31960048007984
 31
0.0
  0
LINE
  5
2E6
330
2E2
100
AcDbEntity
  8
0
  6
ByBlock
 62
     0
370
    -2
100
AcDbLine
 10
66.35087389658673
 20
-77.343969501045
 30
0.0
 11
66.35087389658673
 21
-44.31960048007986
 31
0.0
  0
LINE
  5
2E7
330
2E2
100
AcDbEntity
  8
0
  6
ByBlock
 62
     0
370
    -2
100
AcDbLine
 10
-88.53514835581322
 20
-46.60560048007984
 30
0.0
 11
63.23687389658674
 21
-46.60560048007986
 31
0.0
  0
INSERT
  5
2E8
330
2E2
100
AcDbEntity
  8
0
 62
     0
370
    -2
100
AcDbBlockReference
  2
_Open
 10
-91.64914835581322
 20
-46.60560048007984
 30
0.0
 41
3.114
 42
3.114
 43
3.114
 50
180.0
  0
INSERT
  5
2E9
330
2E2
100
AcDbEntity
  8
0
 62
     0
370
    -2
100
AcDbBlockReference
  2
_Open
 10
66.35087389658673
 20
-46.60560048007986
 30
0.0
 41
3.114
 42
3.114
 43
3.114
 50
360.0
  0
MTEXT
  5
2EA
330
2E2
100
AcDbEntity
  8
0
 62
     0
100
AcDbMText
 10
-12.64813722961325
 20
-43.11666713007361
 30
0.0
 40
4.0
 41
0.0
 71
     5
 72
     1
  1
108+ストローク
 73
     1
 44
1.0
  0
POINT
  5
2EB
330
2E2
100
AcDbEntity
  8
Defpoints
 62
     0
100
AcDbPoint
 10
-91.64914835581322
 20
-77.3439790377877
 30
0.0
  0
POINT
  5
2EC
330
2E2
100
AcDbEntity
  8
Defpoints
 62
     0
100
AcDbPoint
 10
66.35087389658673
 20
-77.343969501045
 30
0.0
  0
POINT
  5
2ED
330
2E2
100
AcDbEntity
  8
Defpoints
 62
     0
100
AcDbPoint
 10
66.35087389658673
 20
-46.60560048007986
 30
0.0
  0
ENDBLK
  5
2E4
330
2E2
100
AcDbEntity
  8
0
100
AcDbBlockEnd
  0
BLOCK
  5
2F0
330
2EF
100
AcDbEntity
  8
0
100
AcDbBlockBegin
  2
*D12
 70
     1
 10
0.0
 20
0.0
 30
0.0
  3
*D12
  1

  0
LINE
  5
2F2
330
2EF
100
AcDbEntity
  8
0
  6
ByBlock
 62
     0
370
    -2
100
AcDbLine
 10
-151.6491483558132
 20
-98.99727451502034
 30
0.0
 11
-151.6491483558132
 21
-44.31960048007985
 31
0.0
  0
LINE
  5
2F3
330
2EF
100
AcDbEntity
  8
0
  6
ByBlock
 62
     0
370
    -2
100
AcDbLine
 10
-148.5351483558132
 20
-46.60560048007985
 30
0.0
 11
-94.76314835581323
 21
-46.60560048007986
 31
0.0
  0
INSERT
  5
2F4
330
2EF
100
AcDbEntity
  8
0
 62
     0
370
    -2
100
AcDbBlockReference
  2
_Open
 10
-151.6491483558132
 20
-46.60560048007985
 30
0.0
 41
3.114
 42
3.114
 43
3.114
 50
180.0
  0
INSERT
  5
2F5
330
2EF
100
AcDbEntity
  8
0
 62
     0
370
    -2
100
AcDbBlockReference
  2
_Open
 10
-91.64914835581322
 20
-46.60560048007986
 30
0.0
 41
3.114
 42
3.114
 43
3.114
 50
360.0
  0
MTEXT
  5
2F6
330
2EF
100
AcDbEntity
  8
0
 62
     0
100
AcDbMText
 10
-121.6481483558132
 20
-43.60560048007986
 30
0.0
 40
4.0
 41
0.0
 71
     5
 72
     1
  1
60
 73
     1
 44
1.0
  0
POINT
  5
2F7
330
2EF
100
AcDbEntity
  8
Defpoints
 62
     0
100
AcDbPoint
 10
-151.6491483558132
 20
-98.99727451502034
 30
0.0
  0
POINT
  5
2F8
330
2EF
100
AcDbEntity
  8
Defpoints
 62
     0
100
AcDbPoint
 10
-91.64914835581322
 20
-77.3439790377877
 30
0.0
  0
POINT
  5
2F9
330
2EF
100
AcDbEntity
  8
Defpoints
 62
     0
100
AcDbPoint
 10
-91.64914835581322
 20
-46.60560048007986
 30
0.0
  0
ENDBLK
  5
2F1
330
2EF
100
AcDbEntity
  8
0
100
AcDbBlockEnd
  0
BLOCK
  5
2FC
330
2FB
100
AcDbEntity
  8
0
100
AcDbBlockBegin
  2
*D13
 70
     1
 10
0.0
 20
0.0
 30
0.0
  3
*D13
  1

  0
LINE
  5
2FE
330
2FB
100
AcDbEntity
  8
0
  6
ByBlock
 62
     0
370
    -2
100
AcDbLine
 10
-151.6491483558132
 20
-98.99727451502034
 30
0.0
 11
-151.6491483558132
 21
-53.8931944034067
 31
0.0
  0
LINE
  5
2FF
330
2FB
100
AcDbEntity
  8
0
  6
ByBlock
 62
     0
370
    -2
100
AcDbLine
 10
-111.6491483558132
 20
-81.30720978952797
 30
0.0
 11
-111.6491483558132
 21
-53.89319440340671
 31
0.0
  0
LINE
  5
300
330
2FB
100
AcDbEntity
  8
0
  6
ByBlock
 62
     0
370
    -2
100
AcDbLine
 10
-148.5351483558132
 20
-56.1791944034067
 30
0.0
 11
-114.7631483558132
 21
-56.17919440340671
 31
0.0
  0
INSERT
  5
301
330
2FB
100
AcDbEntity
  8
0
 62
     0
370
    -2
100
AcDbBlockReference
  2
_Open
 10
-151.6491483558132
 20
-56.1791944034067
 30
0.0
 41
3.114
 42
3.114
 43
3.114
 50
180.0
  0
INSERT
  5
302
330
2FB
100
AcDbEntity
  8
0
 62
     0
370
    -2
100
AcDbBlockReference
  2
_Open
 10
-111.6491483558132
 20
-56.17919440340671
 30
0.0
 41
3.114
 42
3.114
 43
3.114
 50
360.0
  0
MTEXT
  5
303
330
2FB
100
AcDbEntity
  8
0
 62
     0
100
AcDbMText
 10
-131.6481483558132
 20
-53.17919440340671
 30
0.0
 40
4.0
 41
0.0
 71
     5
 72
     1
  1
40
 73
     1
 44
1.0
  0
POINT
  5
304
330
2FB
100
AcDbEntity
  8
Defpoints
 62
     0
100
AcDbPoint
 10
-151.6491483558132
 20
-98.99727451502034
 30
0.0
  0
POINT
  5
305
330
2FB
100
AcDbEntity
  8
Defpoints
 62
     0
100
AcDbPoint
 10
-111.6491483558132
 20
-81.30720978952797
 30
0.0
  0
POINT
  5
306
330
2FB
100
AcDbEntity
  8
Defpoints
 62
     0
100
AcDbPoint
 10
-111.6491483558132
 20
-56.17919440340671
 30
0.0
  0
ENDBLK
  5
2FD
330
2FB
100
AcDbEntity
  8
0
100
AcDbBlockEnd
  0
BLOCK
  5
309
330
308
100
AcDbEntity
  8
0
100
AcDbBlockBegin
  2
_None
 70
     0
 10
0.0
 20
0.0
 30
0.0
  3
_None
  1

  0
ENDBLK
  5
30A
330
308
100
AcDbEntity
  8
0
100
AcDbBlockEnd
  0
BLOCK
  5
30C
330
30B
100
AcDbEntity
  8
0
100
AcDbBlockBegin
  2
*D15
 70
     1
 10
0.0
 20
0.0
 30
0.0
  3
*D15
  1

  0
POINT
  5
312
330
30B
100
AcDbEntity
  8
Defpoints
 62
     0
100
AcDbPoint
 10
-178.6085887238897
 20
-126.7816060818742
 30
0.0
  0
POINT
  5
313
330
30B
100
AcDbEntity
  8
Defpoints
 62
     0
100
AcDbPoint
 10
-151.6491483558132
 20
-134.34395420252
 30
0.0
  0
LINE
  5
314
330
30B
100
AcDbEntity
  8
0
  6
Continuous
 62
     7
100
AcDbLine
 10
-151.6491483558132
 20
-134.34395420252
 30
0.0
 11
-184.7226025820863
 21
-125.0665741457927
 31
0.0
  0
LINE
  5
315
330
30B
100
AcDbEntity
  8
0
  6
Continuous
 62
     7
100
AcDbLine
 10
-178.6085887238897
 20
-126.7816060818742
 30
0.0
 11
-181.7551385959106
 21
-126.4691626423769
 31
0.0
  0
LINE
  5
316
330
30B
100
AcDbEntity
  8
0
  6
Continuous
 62
     7
100
AcDbLine
 10
-178.6085887238897
 20
-126.7816060818742
 30
0.0
 11
-181.4585866170417
 21
-125.4119678051643
 31
0.0
  0
LINE
  5
317
330
30B
100
AcDbEntity
  8
0
  6
Continuous
 62
     7
100
AcDbLine
 10
-178.6085887238896
 20
-126.7816060818742
 30
0.0
 11
-199.7291144619512
 21
-120.8571222668684
 31
0.0
  0
MTEXT
  5
318
330
30B
100
AcDbEntity
  8
0
 62
     7
100
AcDbMText
 10
-194.5023545718594
 20
-121.3232720567843
 30
0.0
 40
4.0
 41
0.0
 71
     8
 72
     1
  1
\W1;R28
 11
0.9626917464264785
 21
-0.2706004459758645
 31
0.0
 73
     1
 44
1.0
  0
ENDBLK
  5
30D
330
30B
100
AcDbEntity
  8
0
100
AcDbBlockEnd
  0
BLOCK
  5
31B
330
31A
100
AcDbEntity
  8
0
100
AcDbBlockBegin
  2
*D16
 70
     1
 10
0.0
 20
0.0
 30
0.0
  3
*D16
  1

  0
LINE
  5
31D
330
31A
100
AcDbEntity
  8
0
  6
ByBlock
 62
     0
370
    -2
100
AcDbLine
 10
76.35087389658673
 20
-87.34395320910951
 30
0.0
 11
76.35087389658673
 21
-53.89319440340671
 31
0.0
  0
LINE
  5
31E
330
31A
100
AcDbEntity
  8
0
  6
ByBlock
 62
     0
370
    -2
100
AcDbLine
 10
69.46487389658674
 20
-56.17919440340671
 30
0.0
 11
73.23687389658673
 21
-56.17919440340671
 31
0.0
  0
INSERT
  5
31F
330
31A
100
AcDbEntity
  8
0
 62
     0
370
    -2
100
AcDbBlockReference
  2
_Open
 10
66.35087389658673
 20
-56.17919440340671
 30
0.0
 41
3.114
 42
3.114
 43
3.114
 50
180.0
  0
INSERT
  5
320
330
31A
100
AcDbEntity
  8
0
 62
     0
370
    -2
100
AcDbBlockReference
  2
_Open
 10
76.35087389658673
 20
-56.17919440340671
 30
0.0
 41
3.114
 42
3.114
 43
3.114
  0
MTEXT
  5
321
330
31A
100
AcDbEntity
  8
0
 62
     0
100
AcDbMText
 10
71.35187389658674
 20
-53.17919440340671
 30
0.0
 40
4.0
 41
0.0
 71
     5
 72
     1
  1
10
 73
     1
 44
1.0
  0
POINT
  5
322
330
31A
100
AcDbEntity
  8
Defpoints
 62
     0
100
AcDbPoint
 10
66.35087389658673
 20
-77.343969501045
 30
0.0
  0
POINT
  5
323
330
31A
100
AcDbEntity
  8
Defpoints
 62
     0
100
AcDbPoint
 10
76.35087389658673
 20
-87.34395320910951
 30
0.0
  0
POINT
  5
324
330
31A
100
AcDbEntity
  8
Defpoints
 62
     0
100
AcDbPoint
 10
76.35087389658673
 20
-56.17919440340671
 30
0.0
  0
ENDBLK
  5
31C
330
31A
100
AcDbEntity
  8
0
100
AcDbBlockEnd
  0
BLOCK
  5
327
330
326
100
AcDbEntity
  8
0
100
AcDbBlockBegin
  2
*D17
 70
     1
 10
0.0
 20
0.0
 30
0.0
  3
*D17
  1

  0
LINE
  5
329
330
326
100
AcDbEntity
  8
0
  6
ByBlock
 62
     0
370
    -2
100
AcDbLine
 10
193.350874095269
 20
-122.3439539044969
 30
0.0
 11
193.350874095269
 21
-44.31960048007986
 31
0.0
  0
LINE
  5
32A
330
326
100
AcDbEntity
  8
0
  6
ByBlock
 62
     0
370
    -2
100
AcDbLine
 10
69.46487389658674
 20
-46.60560048007985
 30
0.0
 11
190.236874095269
 21
-46.60560048007986
 31
0.0
  0
INSERT
  5
32B
330
326
100
AcDbEntity
  8
0
 62
     0
370
    -2
100
AcDbBlockReference
  2
_Open
 10
66.35087389658673
 20
-46.60560048007985
 30
0.0
 41
3.114
 42
3.114
 43
3.114
 50
180.0
  0
INSERT
  5
32C
330
326
100
AcDbEntity
  8
0
 62
     0
370
    -2
100
AcDbBlockReference
  2
_Open
 10
193.350874095269
 20
-46.60560048007986
 30
0.0
 41
3.114
 42
3.114
 43
3.114
 50
360.0
  0
MTEXT
  5
32D
330
326
100
AcDbEntity
  8
0
 62
     0
100
AcDbMText
 10
129.8518739959279
 20
-43.60560048007986
 30
0.0
 40
4.0
 41
0.0
 71
     5
 72
     1
  1
127
 73
     1
 44
1.0
  0
POINT
  5
32E
330
326
100
AcDbEntity
  8
Defpoints
 62
     0
100
AcDbPoint
 10
66.35087389658673
 20
-77.343969501045
 30
0.0
  0
POINT
  5
32F
330
326
100
AcDbEntity
  8
Defpoints
 62
     0
100
AcDbPoint
 10
193.350874095269
 20
-122.3439539044969
 30
0.0
  0
POINT
  5
330
330
326
100
AcDbEntity
  8
Defpoints
 62
     0
100
AcDbPoint
 10
193.350874095269
 20
-46.60560048007986
 30
0.0
  0
ENDBLK
  5
328
330
326
100
AcDbEntity
  8
0
100
AcDbBlockEnd
  0
BLOCK
  5
333
330
332
100
AcDbEntity
  8
0
100
AcDbBlockBegin
  2
*D18
 70
     1
 10
0.0
 20
0.0
 30
0.0
  3
*D18
  1

  0
LINE
  5
335
330
332
100
AcDbEntity
  8
0
  6
ByBlock
 62
     0
370
    -2
100
AcDbLine
 10
193.350874095269
 20
-122.3439539044969
 30
0.0
 11
193.350874095269
 21
-53.89319440340671
 31
0.0
  0
LINE
  5
336
330
332
100
AcDbEntity
  8
0
  6
ByBlock
 62
     0
370
    -2
100
AcDbLine
 10
148.3508752873619
 20
-119.147802278234
 30
0.0
 11
148.3508752873619
 21
-53.89319440340671
 31
0.0
  0
LINE
  5
337
330
332
100
AcDbEntity
  8
0
  6
ByBlock
 62
     0
370
    -2
100
AcDbLine
 10
190.236874095269
 20
-56.17919440340671
 30
0.0
 11
151.4648752873619
 21
-56.17919440340671
 31
0.0
  0
INSERT
  5
338
330
332
100
AcDbEntity
  8
0
 62
     0
370
    -2
100
AcDbBlockReference
  2
_Open
 10
193.350874095269
 20
-56.17919440340671
 30
0.0
 41
3.114
 42
3.114
 43
3.114
  0
INSERT
  5
339
330
332
100
AcDbEntity
  8
0
 62
     0
370
    -2
100
AcDbBlockReference
  2
_Open
 10
148.3508752873619
 20
-56.17919440340671
 30
0.0
 41
3.114
 42
3.114
 43
3.114
 50
180.0
  0
MTEXT
  5
33A
330
332
100
AcDbEntity
  8
0
 62
     0
100
AcDbMText
 10
170.8528746913155
 20
-53.17919440340671
 30
0.0
 40
4.0
 41
0.0
 71
     5
 72
     1
  1
45
 73
     1
 44
1.0
  0
POINT
  5
33B
330
332
100
AcDbEntity
  8
Defpoints
 62
     0
100
AcDbPoint
 10
193.350874095269
 20
-122.3439539044969
 30
0.0
  0
POINT
  5
33C
330
332
100
AcDbEntity
  8
Defpoints
 62
     0
100
AcDbPoint
 10
148.3508752873619
 20
-119.147802278234
 30
0.0
  0
POINT
  5
33D
330
332
100
AcDbEntity
  8
Defpoints
 62
     0
100
AcDbPoint
 10
148.3508752873619
 20
-56.17919440340671
 30
0.0
  0
ENDBLK
  5
334
330
332
100
AcDbEntity
  8
0
100
AcDbBlockEnd
  0
BLOCK
  5
340
330
33F
100
AcDbEntity
  8
0
100
AcDbBlockBegin
  2
*D19
 70
     1
 10
0.0
 20
0.0
 30
0.0
  3
*D19
  1

  0
LINE
  5
342
330
33F
100
AcDbEntity
  8
0
  6
ByBlock
 62
     0
370
    -2
100
AcDbLine
 10
180.0508260141907
 20
-155.1285611361139
 30
0.0
 11
180.0508260141907
 21
-182.6276370806092
 31
0.0
  0
LINE
  5
343
330
33F
100
AcDbEntity
  8
0
  6
ByBlock
 62
     0
370
    -2
100
AcDbLine
 10
166.0508260141907
 20
-155.1285611361139
 30
0.0
 11
166.0508260141907
 21
-182.6276370806092
 31
0.0
  0
LINE
  5
344
330
33F
100
AcDbEntity
  8
0
  6
ByBlock
 62
     0
370
    -2
100
AcDbLine
 10
176.9368260141907
 20
-180.3416370806092
 30
0.0
 11
169.1648260141907
 21
-180.3416370806092
 31
0.0
  0
INSERT
  5
345
330
33F
100
AcDbEntity
  8
0
 62
     0
370
    -2
100
AcDbBlockReference
  2
_Open
 10
180.0508260141907
 20
-180.3416370806092
 30
0.0
 41
3.114
 42
3.114
 43
3.114
  0
INSERT
  5
346
330
33F
100
AcDbEntity
  8
0
 62
     0
370
    -2
100
AcDbBlockReference
  2
_Open
 10
166.0508260141907
 20
-180.3416370806092
 30
0.0
 41
3.114
 42
3.114
 43
3.114
 50
180.0
  0
MTEXT
  5
347
330
33F
100
AcDbEntity
  8
0
 62
     0
100
AcDbMText
 10
173.0528260141907
 20
-177.3416370806092
 30
0.0
 40
4.0
 41
0.0
 71
     5
 72
     1
  1
14
 73
     1
 44
1.0
  0
POINT
  5
348
330
33F
100
AcDbEntity
  8
Defpoints
 62
     0
100
AcDbPoint
 10
180.0508260141907
 20
-155.1285611361139
 30
0.0
  0
POINT
  5
349
330
33F
100
AcDbEntity
  8
Defpoints
 62
     0
100
AcDbPoint
 10
166.0508260141907
 20
-155.1285611361139
 30
0.0
  0
POINT
  5
34A
330
33F
100
AcDbEntity
  8
Defpoints
 62
     0
100
AcDbPoint
 10
166.0508260141907
 20
-180.3426370806092
 30
0.0
  0
ENDBLK
  5
341
330
33F
100
AcDbEntity
  8
0
100
AcDbBlockEnd
  0
BLOCK
  5
34D
330
34C
100
AcDbEntity
  8
0
100
AcDbBlockBegin
  2
*D20
 70
     1
 10
0.0
 20
0.0
 30
0.0
  3
*D20
  1

  0
LINE
  5
34F
330
34C
100
AcDbEntity
  8
0
  6
ByBlock
 62
     0
370
    -2
100
AcDbLine
 10
145.3508750886799
 20
-118.3439542025201
 30
0.0
 11
116.319225393505
 21
-118.3439542025201
 31
0.0
  0
LINE
  5
350
330
34C
100
AcDbEntity
  8
0
  6
ByBlock
 62
     0
370
    -2
100
AcDbLine
 10
145.3508750886796
 20
-150.3439526130628
 30
0.0
 11
116.319225393505
 21
-150.3439526130628
 31
0.0
  0
LINE
  5
351
330
34C
100
AcDbEntity
  8
0
  6
ByBlock
 62
     0
370
    -2
100
AcDbLine
 10
118.6052253935049
 20
-150.3439526130628
 30
0.0
 11
118.6052253935049
 21
-172.0403505626658
 31
0.0
  0
LINE
  5
352
330
34C
100
AcDbEntity
  8
0
  6
ByBlock
 62
     0
370
    -2
100
AcDbLine
 10
118.6052253935049
 20
-121.4579542025201
 30
0.0
 11
118.6052253935049
 21
-147.2299526130628
 31
0.0
  0
INSERT
  5
353
330
34C
100
AcDbEntity
  8
0
 62
     0
370
    -2
100
AcDbBlockReference
  2
_Open
 10
118.6052253935049
 20
-118.3439542025201
 30
0.0
 41
3.114
 42
3.114
 43
3.114
 50
90.00000000000001
  0
INSERT
  5
354
330
34C
100
AcDbEntity
  8
0
 62
     0
370
    -2
100
AcDbBlockReference
  2
_Open
 10
118.6052253935049
 20
-150.3439526130628
 30
0.0
 41
3.114
 42
3.114
 43
3.114
 50
270.0
  0
MTEXT
  5
355
330
34C
100
AcDbEntity
  8
0
 62
     0
100
AcDbMText
 10
115.6052253935049
 20
-165.9927315150467
 30
0.0
 40
4.0
 41
0.0
 71
     5
 72
     1
  1
\U+220532
 11
-4.440892319082150E-16
 21
1.0
 31
0.0
 73
     1
 44
1.0
  0
POINT
  5
356
330
34C
100
AcDbEntity
  8
Defpoints
 62
     0
100
AcDbPoint
 10
145.3508750886799
 20
-118.3439542025201
 30
0.0
  0
POINT
  5
357
330
34C
100
AcDbEntity
  8
Defpoints
 62
     0
100
AcDbPoint
 10
145.3508750886796
 20
-150.3439526130628
 30
0.0
  0
POINT
  5
358
330
34C
100
AcDbEntity
  8
Defpoints
 62
     0
100
AcDbPoint
 10
118.6042253935049
 20
-150.3439526130628
 30
0.0
  0
ENDBLK
  5
34E
330
34C
100
AcDbEntity
  8
0
100
AcDbBlockEnd
  0
BLOCK
  5
35B
330
35A
100
AcDbEntity
  8
0
100
AcDbBlockBegin
  2
*D21
 70
     1
 10
0.0
 20
0.0
 30
0.0
  3
*D21
  1

  0
LINE
  5
35D
330
35A
100
AcDbEntity
  8
0
  6
ByBlock
 62
     0
370
    -2
100
AcDbLine
 10
-179.6491578925564
 20
-134.3439542025201
 30
0.0
 11
-179.6491578925564
 21
-33.24189975762355
 31
0.0
  0
LINE
  5
35E
330
35A
100
AcDbEntity
  8
0
  6
ByBlock
 62
     0
370
    -2
100
AcDbLine
 10
193.350874095269
 20
-122.3439539044969
 30
0.0
 11
193.350874095269
 21
-33.24189975762359
 31
0.0
  0
LINE
  5
35F
330
35A
100
AcDbEntity
  8
0
  6
ByBlock
 62
     0
370
    -2
100
AcDbLine
 10
-176.5351578925564
 20
-35.52789975762355
 30
0.0
 11
190.236874095269
 21
-35.52789975762359
 31
0.0
  0
INSERT
  5
360
330
35A
100
AcDbEntity
  8
0
 62
     0
370
    -2
100
AcDbBlockReference
  2
_Open
 10
-179.6491578925564
 20
-35.52789975762355
 30
0.0
 41
3.114
 42
3.114
 43
3.114
 50
180.0
  0
INSERT
  5
361
330
35A
100
AcDbEntity
  8
0
 62
     0
370
    -2
100
AcDbBlockReference
  2
_Open
 10
193.350874095269
 20
-35.52789975762359
 30
0.0
 41
3.114
 42
3.114
 43
3.114
 50
360.0
  0
MTEXT
  5
362
330
35A
100
AcDbEntity
  8
0
 62
     0
100
AcDbMText
 10
6.851858101356323
 20
-32.03896640761732
 30
0.0
 40
4.0
 41
0.0
 71
     5
 72
     1
  1
323+ストローク
 73
     1
 44
1.0
  0
POINT
  5
363
330
35A
100
AcDbEntity
  8
Defpoints
 62
     0
100
AcDbPoint
 10
-179.6491578925564
 20
-134.3439542025201
 30
0.0
  0
POINT
  5
364
330
35A
100
AcDbEntity
  8
Defpoints
 62
     0
100
AcDbPoint
 10
193.350874095269
 20
-122.3439539044969
 30
0.0
  0
POINT
  5
365
330
35A
100
AcDbEntity
  8
Defpoints
 62
     0
100
AcDbPoint
 10
193.350874095269
 20
-35.52789975762357
 30
0.0
  0
ENDBLK
  5
35C
330
35A
100
AcDbEntity
  8
0
100
AcDbBlockEnd
  0
BLOCK
  5
368
330
367
100
AcDbEntity
  8
0
100
AcDbBlockBegin
  2
*D22
 70
     1
 10
0.0
 20
0.0
 30
0.0
  3
*D22
  1

  0
LINE
  5
36A
330
367
100
AcDbEntity
  8
0
  6
ByBlock
 62
     0
370
    -2
100
AcDbLine
 10
-294.1439659007481
 20
-81.75593771108859
 30
0.0
 11
-294.1439659007481
 21
-53.8931944034067
 31
0.0
  0
LINE
  5
36B
330
367
100
AcDbEntity
  8
0
  6
ByBlock
 62
     0
370
    -2
100
AcDbLine
 10
-258.6439964183263
 20
-81.75593771108859
 30
0.0
 11
-258.6439964183263
 21
-53.89319440340671
 31
0.0
  0
LINE
  5
36C
330
367
100
AcDbEntity
  8
0
  6
ByBlock
 62
     0
370
    -2
100
AcDbLine
 10
-291.0299659007482
 20
-56.1791944034067
 30
0.0
 11
-261.7579964183262
 21
-56.17919440340671
 31
0.0
  0
INSERT
  5
36D
330
367
100
AcDbEntity
  8
0
 62
     0
370
    -2
100
AcDbBlockReference
  2
_Open
 10
-294.1439659007481
 20
-56.1791944034067
 30
0.0
 41
3.114
 42
3.114
 43
3.114
 50
180.0
  0
INSERT
  5
36E
330
367
100
AcDbEntity
  8
0
 62
     0
370
    -2
100
AcDbBlockReference
  2
_Open
 10
-258.6439964183263
 20
-56.17919440340671
 30
0.0
 41
3.114
 42
3.114
 43
3.114
 50
360.0
  0
MTEXT
  5
36F
330
367
100
AcDbEntity
  8
0
 62
     0
100
AcDbMText
 10
-276.3929811595372
 20
-52.84586107007338
 30
0.0
 40
4.0
 41
0.0
 71
     5
 72
     1
  1
\A1;35.5{\H2.000000;\S+0.3^ +0.1;}
 73
     1
 44
1.0
  0
POINT
  5
370
330
367
100
AcDbEntity
  8
Defpoints
 62
     0
100
AcDbPoint
 10
-294.1439659007481
 20
-81.75593771108859
 30
0.0
  0
POINT
  5
371
330
367
100
AcDbEntity
  8
Defpoints
 62
     0
100
AcDbPoint
 10
-258.6439964183263
 20
-81.75593771108859
 30
0.0
  0
POINT
  5
372
330
367
100
AcDbEntity
  8
Defpoints
 62
     0
100
AcDbPoint
 10
-258.6439964183263
 20
-56.17919440340671
 30
0.0
  0
ENDBLK
  5
369
330
367
100
AcDbEntity
  8
0
100
AcDbBlockEnd
  0
BLOCK
  5
375
330
374
100
AcDbEntity
  8
0
100
AcDbBlockBegin
  2
*D23
 70
     1
 10
0.0
 20
0.0
 30
0.0
  3
*D23
  1

  0
LINE
  5
377
330
374
100
AcDbEntity
  8
0
  6
ByBlock
 62
     0
370
    -2
100
AcDbLine
 10
-311.8939964183262
 20
-104.7435509701575
 30
0.0
 11
-311.8939964183262
 21
-44.31960048007985
 31
0.0
  0
LINE
  5
378
330
374
100
AcDbEntity
  8
0
  6
ByBlock
 62
     0
370
    -2
100
AcDbLine
 10
-240.8939659007481
 20
-104.7435669677473
 30
0.0
 11
-240.8939659007481
 21
-44.31960048007986
 31
0.0
  0
LINE
  5
379
330
374
100
AcDbEntity
  8
0
  6
ByBlock
 62
     0
370
    -2
100
AcDbLine
 10
-308.7799964183262
 20
-46.60560048007985
 30
0.0
 11
-244.0079659007481
 21
-46.60560048007986
 31
0.0
  0
INSERT
  5
37A
330
374
100
AcDbEntity
  8
0
 62
     0
370
    -2
100
AcDbBlockReference
  2
_Open
 10
-311.8939964183262
 20
-46.60560048007985
 30
0.0
 41
3.114
 42
3.114
 43
3.114
 50
180.0
  0
INSERT
  5
37B
330
374
100
AcDbEntity
  8
0
 62
     0
370
    -2
100
AcDbBlockReference
  2
_Open
 10
-240.8939659007481
 20
-46.60560048007986
 30
0.0
 41
3.114
 42
3.114
 43
3.114
 50
360.0
  0
MTEXT
  5
37C
330
374
100
AcDbEntity
  8
0
 62
     0
100
AcDbMText
 10
-276.3929811595372
 20
-43.60560048007986
 30
0.0
 40
4.0
 41
0.0
 71
     5
 72
     1
  1
71
 73
     1
 44
1.0
  0
POINT
  5
37D
330
374
100
AcDbEntity
  8
Defpoints
 62
     0
100
AcDbPoint
 10
-311.8939964183262
 20
-104.7435509701575
 30
0.0
  0
POINT
  5
37E
330
374
100
AcDbEntity
  8
Defpoints
 62
     0
100
AcDbPoint
 10
-240.8939659007481
 20
-104.7435669677473
 30
0.0
  0
POINT
  5
37F
330
374
100
AcDbEntity
  8
Defpoints
 62
     0
100
AcDbPoint
 10
-240.8939659007481
 20
-46.60560048007986
 30
0.0
  0
ENDBLK
  5
376
330
374
100
AcDbEntity
  8
0
100
AcDbBlockEnd
  0
BLOCK
  5
382
330
381
100
AcDbEntity
  8
0
100
AcDbBlockBegin
  2
*D24
 70
     1
 10
0.0
 20
0.0
 30
0.0
  3
*D24
  1

  0
LINE
  5
384
330
381
100
AcDbEntity
  8
0
  6
ByBlock
 62
     0
370
    -2
100
AcDbLine
 10
-318.3940659570756
 20
-81.31595611384253
 30
0.0
 11
-318.3940659570756
 21
-33.24189975762356
 31
0.0
  0
LINE
  5
385
330
381
100
AcDbEntity
  8
0
  6
ByBlock
 62
     0
370
    -2
100
AcDbLine
 10
-234.3940540361472
 20
-81.31595611384253
 30
0.0
 11
-234.3940540361472
 21
-33.24189975762357
 31
0.0
  0
LINE
  5
386
330
381
100
AcDbEntity
  8
0
  6
ByBlock
 62
     0
370
    -2
100
AcDbLine
 10
-315.2800659570756
 20
-35.52789975762357
 30
0.0
 11
-237.5080540361472
 21
-35.52789975762357
 31
0.0
  0
INSERT
  5
387
330
381
100
AcDbEntity
  8
0
 62
     0
370
    -2
100
AcDbBlockReference
  2
_Open
 10
-318.3940659570756
 20
-35.52789975762357
 30
0.0
 41
3.114
 42
3.114
 43
3.114
 50
180.0
  0
INSERT
  5
388
330
381
100
AcDbEntity
  8
0
 62
     0
370
    -2
100
AcDbBlockReference
  2
_Open
 10
-234.3940540361472
 20
-35.52789975762357
 30
0.0
 41
3.114
 42
3.114
 43
3.114
 50
360.0
  0
MTEXT
  5
389
330
381
100
AcDbEntity
  8
0
 62
     0
100
AcDbMText
 10
-276.3930599966114
 20
-32.52789975762357
 30
0.0
 40
4.0
 41
0.0
 71
     5
 72
     1
  1
84
 73
     1
 44
1.0
  0
POINT
  5
38A
330
381
100
AcDbEntity
  8
Defpoints
 62
     0
100
AcDbPoint
 10
-318.3940659570756
 20
-81.31595611384253
 30
0.0
  0
POINT
  5
38B
330
381
100
AcDbEntity
  8
Defpoints
 62
     0
100
AcDbPoint
 10
-234.3940540361472
 20
-81.31595611384253
 30
0.0
  0
POINT
  5
38C
330
381
100
AcDbEntity
  8
Defpoints
 62
     0
100
AcDbPoint
 10
-234.3940540361472
 20
-35.52789975762357
 30
0.0
  0
ENDBLK
  5
383
330
381
100
AcDbEntity
  8
0
100
AcDbBlockEnd
  0
BLOCK
  5
38F
330
38E
100
AcDbEntity
  8
0
100
AcDbBlockBegin
  2
*D25
 70
     1
 10
0.0
 20
0.0
 30
0.0
  3
*D25
  1

  0
LINE
  5
391
330
38E
100
AcDbEntity
  8
0
  6
ByBlock
 62
     0
370
    -2
100
AcDbLine
 10
-333.394001782744
 20
-91.3439555932953
 30
0.0
 11
-333.394001782744
 21
-23.48365555576898
 31
0.0
  0
LINE
  5
392
330
38E
100
AcDbEntity
  8
0
  6
ByBlock
 62
     0
370
    -2
100
AcDbLine
 10
-219.3940164852224
 20
-91.3439555932953
 30
0.0
 11
-219.3940164852224
 21
-23.483655555769
 31
0.0
  0
LINE
  5
393
330
38E
100
AcDbEntity
  8
0
  6
ByBlock
 62
     0
370
    -2
100
AcDbLine
 10
-330.280001782744
 20
-25.76965555576898
 30
0.0
 11
-222.5080164852224
 21
-25.769655555769
 31
0.0
  0
INSERT
  5
394
330
38E
100
AcDbEntity
  8
0
 62
     0
370
    -2
100
AcDbBlockReference
  2
_Open
 10
-333.394001782744
 20
-25.76965555576898
 30
0.0
 41
3.114
 42
3.114
 43
3.114
 50
180.0
  0
INSERT
  5
395
330
38E
100
AcDbEntity
  8
0
 62
     0
370
    -2
100
AcDbBlockReference
  2
_Open
 10
-219.3940164852224
 20
-25.769655555769
 30
0.0
 41
3.114
 42
3.114
 43
3.114
 50
360.0
  0
MTEXT
  5
396
330
38E
100
AcDbEntity
  8
0
 62
     0
100
AcDbMText
 10
-276.3930091339833
 20
-22.76965555576899
 30
0.0
 40
4.0
 41
0.0
 71
     5
 72
     1
  1
114
 73
     1
 44
1.0
  0
POINT
  5
397
330
38E
100
AcDbEntity
  8
Defpoints
 62
     0
100
AcDbPoint
 10
-333.394001782744
 20
-91.3439555932953
 30
0.0
  0
POINT
  5
398
330
38E
100
AcDbEntity
  8
Defpoints
 62
     0
100
AcDbPoint
 10
-219.3940164852224
 20
-91.3439555932953
 30
0.0
  0
POINT
  5
399
330
38E
100
AcDbEntity
  8
Defpoints
 62
     0
100
AcDbPoint
 10
-219.3940164852224
 20
-25.76965555576899
 30
0.0
  0
ENDBLK
  5
390
330
38E
100
AcDbEntity
  8
0
100
AcDbBlockEnd
  0
BLOCK
  5
39C
330
39B
100
AcDbEntity
  8
0
100
AcDbBlockBegin
  2
*D26
 70
     1
 10
0.0
 20
0.0
 30
0.0
  3
*D26
  1

  0
LINE
  5
39E
330
39B
100
AcDbEntity
  8
0
  6
ByBlock
 62
     0
370
    -2
100
AcDbLine
 10
-343.393982311894
 20
-130.3439549972489
 30
0.0
 11
-343.393982311894
 21
-23.48365555576899
 31
0.0
  0
LINE
  5
39F
330
39B
100
AcDbEntity
  8
0
  6
ByBlock
 62
     0
370
    -2
100
AcDbLine
 10
-336.508001782744
 20
-25.76965555576899
 30
0.0
 11
-340.279982311894
 21
-25.76965555576899
 31
0.0
  0
INSERT
  5
3A0
330
39B
100
AcDbEntity
  8
0
 62
     0
370
    -2
100
AcDbBlockReference
  2
_Open
 10
-333.394001782744
 20
-25.76965555576899
 30
0.0
 41
3.114
 42
3.114
 43
3.114
  0
INSERT
  5
3A1
330
39B
100
AcDbEntity
  8
0
 62
     0
370
    -2
100
AcDbBlockReference
  2
_Open
 10
-343.393982311894
 20
-25.76965555576899
 30
0.0
 41
3.114
 42
3.114
 43
3.114
 50
180.0
  0
MTEXT
  5
3A2
330
39B
100
AcDbEntity
  8
0
 62
     0
100
AcDbMText
 10
-338.391992047319
 20
-22.76965555576899
 30
0.0
 40
4.0
 41
0.0
 71
     5
 72
     1
  1
10
 73
     1
 44
1.0
  0
POINT
  5
3A3
330
39B
100
AcDbEntity
  8
Defpoints
 62
     0
100
AcDbPoint
 10
-333.394001782744
 20
-91.3439555932953
 30
0.0
  0
POINT
  5
3A4
330
39B
100
AcDbEntity
  8
Defpoints
 62
     0
100
AcDbPoint
 10
-343.393982311894
 20
-130.3439549972489
 30
0.0
  0
POINT
  5
3A5
330
39B
100
AcDbEntity
  8
Defpoints
 62
     0
100
AcDbPoint
 10
-343.393982311894
 20
-25.76965555576899
 30
0.0
  0
ENDBLK
  5
39D
330
39B
100
AcDbEntity
  8
0
100
AcDbBlockEnd
  0
BLOCK
  5
3A8
330
3A7
100
AcDbEntity
  8
0
100
AcDbBlockBegin
  2
*D27
 70
     1
 10
0.0
 20
0.0
 30
0.0
  3
*D27
  1

  0
LINE
  5
3AA
330
3A7
100
AcDbEntity
  8
0
  6
ByBlock
 62
     0
370
    -2
100
AcDbLine
 10
-317.393996418326
 20
-120.5939542025201
 30
0.0
 11
-366.0302667603653
 21
-120.5939542025201
 31
0.0
  0
LINE
  5
3AB
330
3A7
100
AcDbEntity
  8
0
  6
ByBlock
 62
     0
370
    -2
100
AcDbLine
 10
-317.393996418326
 20
-148.0939542025201
 30
0.0
 11
-366.0302667603653
 21
-148.0939542025201
 31
0.0
  0
LINE
  5
3AC
330
3A7
100
AcDbEntity
  8
0
  6
ByBlock
 62
     0
370
    -2
100
AcDbLine
 10
-363.7442667603652
 20
-120.5939542025201
 30
0.0
 11
-363.7442667603652
 21
-26.55550453466658
 31
0.0
  0
LINE
  5
3AD
330
3A7
100
AcDbEntity
  8
0
  6
ByBlock
 62
     0
370
    -2
100
AcDbLine
 10
-363.7442667603652
 20
-123.7079542025201
 30
0.0
 11
-363.7442667603652
 21
-144.9799542025201
 31
0.0
  0
INSERT
  5
3AE
330
3A7
100
AcDbEntity
  8
0
 62
     0
370
    -2
100
AcDbBlockReference
  2
_Open
 10
-363.7442667603652
 20
-120.5939542025201
 30
0.0
 41
3.114
 42
3.114
 43
3.114
 50
90.0
  0
INSERT
  5
3AF
330
3A7
100
AcDbEntity
  8
0
 62
     0
370
    -2
100
AcDbBlockReference
  2
_Open
 10
-363.7442667603652
 20
-148.0939542025201
 30
0.0
 41
3.114
 42
3.114
 43
3.114
 50
270.0
  0
MTEXT
  5
3B0
330
3A7
100
AcDbEntity
  8
0
 62
     0
100
AcDbMText
 10
-367.7918858079843
 20
-47.0793140584761
 30
0.0
 40
4.0
 41
0.0
 71
     5
 72
     1
  1
\A1;\U+220527.5d9({\H0.5x;\S-0.065^ -0.117;})
 11
0.0
 21
1.0
 31
0.0
 73
     1
 44
1.0
  0
POINT
  5
3B1
330
3A7
100
AcDbEntity
  8
Defpoints
 62
     0
100
AcDbPoint
 10
-317.393996418326
 20
-120.5939542025201
 30
0.0
  0
POINT
  5
3B2
330
3A7
100
AcDbEntity
  8
Defpoints
 62
     0
100
AcDbPoint
 10
-317.393996418326
 20
-148.0939542025201
 30
0.0
  0
POINT
  5
3B3
330
3A7
100
AcDbEntity
  8
Defpoints
 62
     0
100
AcDbPoint
 10
-363.7462667603652
 20
-148.0939542025201
 30
0.0
  0
ENDBLK
  5
3A9
330
3A7
100
AcDbEntity
  8
0
100
AcDbBlockEnd
  0
BLOCK
  5
3B6
330
3B5
100
AcDbEntity
  8
0
100
AcDbBlockBegin
  2
*D28
 70
     1
 10
0.0
 20
0.0
 30
0.0
  3
*D28
  1

  0
LINE
  5
3B8
330
3B5
100
AcDbEntity
  8
0
  6
ByBlock
 62
     0
370
    -2
100
AcDbLine
 10
-328.3234300848162
 20
-92.34400387305553
 30
0.0
 11
-379.7352504928472
 21
-92.34400387305554
 31
0.0
  0
LINE
  5
3B9
330
3B5
100
AcDbEntity
  8
0
  6
ByBlock
 62
     0
370
    -2
100
AcDbLine
 10
-328.3234300848162
 20
-176.3439998994125
 30
0.0
 11
-379.7352504928471
 21
-176.3439998994125
 31
0.0
  0
LINE
  5
3BA
330
3B5
100
AcDbEntity
  8
0
  6
ByBlock
 62
     0
370
    -2
100
AcDbLine
 10
-377.4492504928471
 20
-95.45800387305555
 30
0.0
 11
-377.4492504928471
 21
-173.2299998994125
 31
0.0
  0
INSERT
  5
3BB
330
3B5
100
AcDbEntity
  8
0
 62
     0
370
    -2
100
AcDbBlockReference
  2
_Open
 10
-377.4492504928471
 20
-92.34400387305554
 30
0.0
 41
3.114
 42
3.114
 43
3.114
 50
90.00000000000004
  0
INSERT
  5
3BC
330
3B5
100
AcDbEntity
  8
0
 62
     0
370
    -2
100
AcDbBlockReference
  2
_Open
 10
-377.4492504928471
 20
-176.3439998994125
 30
0.0
 41
3.114
 42
3.114
 43
3.114
 50
270.0000000000001
  0
MTEXT
  5
3BD
330
3B5
100
AcDbEntity
  8
0
 62
     0
100
AcDbMText
 10
-380.4492504928471
 20
-134.343001886234
 30
0.0
 40
4.0
 41
0.0
 71
     5
 72
     1
  1
84
 11
-6.767073994024011E-16
 21
1.0
 31
0.0
 73
     1
 44
1.0
  0
POINT
  5
3BE
330
3B5
100
AcDbEntity
  8
Defpoints
 62
     0
100
AcDbPoint
 10
-328.3234300848162
 20
-92.34400387305553
 30
0.0
  0
POINT
  5
3BF
330
3B5
100
AcDbEntity
  8
Defpoints
 62
     0
100
AcDbPoint
 10
-328.3234300848162
 20
-176.3439998994125
 30
0.0
  0
POINT
  5
3C0
330
3B5
100
AcDbEntity
  8
Defpoints
 62
     0
100
AcDbPoint
 10
-377.4512504928471
 20
-176.3439998994125
 30
0.0
  0
ENDBLK
  5
3B7
330
3B5
100
AcDbEntity
  8
0
100
AcDbBlockEnd
  0
BLOCK
  5
3C3
330
3C2
100
AcDbEntity
  8
0
100
AcDbBlockBegin
  2
*D29
 70
     1
 10
0.0
 20
0.0
 30
0.0
  3
*D29
  1

  0
LINE
  5
3C5
330
3C2
100
AcDbEntity
  8
0
  6
ByBlock
 62
     0
370
    -2
100
AcDbLine
 10
-319.3939997959226
 20
-77.34395360647366
 30
0.0
 11
-389.6857469904992
 21
-77.34395360647369
 31
0.0
  0
LINE
  5
3C6
330
3C2
100
AcDbEntity
  8
0
  6
ByBlock
 62
     0
370
    -2
100
AcDbLine
 10
-319.3939997959226
 20
-191.3439547985666
 30
0.0
 11
-389.6857469904991
 21
-191.3439547985666
 31
0.0
  0
LINE
  5
3C7
330
3C2
100
AcDbEntity
  8
0
  6
ByBlock
 62
     0
370
    -2
100
AcDbLine
 10
-387.3997469904991
 20
-80.4579536064737
 30
0.0
 11
-387.3997469904991
 21
-188.2299547985666
 31
0.0
  0
INSERT
  5
3C8
330
3C2
100
AcDbEntity
  8
0
 62
     0
370
    -2
100
AcDbBlockReference
  2
_Open
 10
-387.3997469904991
 20
-77.34395360647369
 30
0.0
 41
3.114
 42
3.114
 43
3.114
 50
90.00000000000004
  0
INSERT
  5
3C9
330
3C2
100
AcDbEntity
  8
0
 62
     0
370
    -2
100
AcDbBlockReference
  2
_Open
 10
-387.3997469904991
 20
-191.3439547985666
 30
0.0
 41
3.114
 42
3.114
 43
3.114
 50
270.0
  0
MTEXT
  5
3CA
330
3C2
100
AcDbEntity
  8
0
 62
     0
100
AcDbMText
 10
-390.3997469904991
 20
-134.3429542025201
 30
0.0
 40
4.0
 41
0.0
 71
     5
 72
     1
  1
114
 11
-4.986264760210434E-16
 21
1.0
 31
0.0
 73
     1
 44
1.0
  0
POINT
  5
3CB
330
3C2
100
AcDbEntity
  8
Defpoints
 62
     0
100
AcDbPoint
 10
-319.3939997959226
 20
-77.34395360647366
 30
0.0
  0
POINT
  5
3CC
330
3C2
100
AcDbEntity
  8
Defpoints
 62
     0
100
AcDbPoint
 10
-319.3939997959226
 20
-191.3439547985666
 30
0.0
  0
POINT
  5
3CD
330
3C2
100
AcDbEntity
  8
Defpoints
 62
     0
100
AcDbPoint
 10
-387.4017469904991
 20
-191.3439547985666
 30
0.0
  0
ENDBLK
  5
3C4
330
3C2
100
AcDbEntity
  8
0
100
AcDbBlockEnd
  0
ENDSEC
  0
SECTION
  2
ENTITIES
  0
LINE
  5
29D
330
1F
100
AcDbEntity
  8
0
  6
Continuous
 62
     7
100
AcDbLine
 10
-64.64923071418082
 20
152.1370264926087
 30
0.0
 11
35.27327874184508
 21
152.1370264926087
 31
0.0
  0
LINE
  5
29E
330
1F
100
AcDbEntity
  8
0
  6
Continuous
 62
     7
100
AcDbLine
 10
-427.0996999219584
 20
181.8074300777369
 30
0.0
 11
422.9003000780416
 21
181.8074300777369
 31
0.0
  0
LINE
  5
29F
330
1F
100
AcDbEntity
  8
0
  6
Continuous
 62
     7
100
AcDbLine
 10
-427.0996999219584
 20
221.8074300777369
 30
0.0
 11
-427.0996999219584
 21
-218.1925699222631
 31
0.0
  0
LINE
  5
2A0
330
1F
100
AcDbEntity
  8
0
  6
Continuous
 62
     7
100
AcDbLine
 10
422.9003000780416
 20
221.8074300777369
 30
0.0
 11
422.9003000780416
 21
-218.1925699222631
 31
0.0
  0
LINE
  5
2A1
330
1F
100
AcDbEntity
  8
0
  6
Continuous
 62
     7
100
AcDbLine
 10
-427.0996999219584
 20
-218.1925699222631
 30
0.0
 11
422.9003000780416
 21
-218.1925699222631
 31
0.0
  0
LINE
  5
2A2
330
1F
100
AcDbEntity
  8
0
  6
Continuous
 62
     7
100
AcDbLine
 10
-427.0996999219584
 20
221.8074300777369
 30
0.0
 11
422.9003000780416
 21
221.8074300777369
 31
0.0
  0
MTEXT
  5
2A3
330
1F
100
AcDbEntity
  8
0
 62
     7
100
AcDbMText
 10
211.5047748586591
 20
-76.7291909734715
 30
0.0
 40
6.0
 41
0.0
 71
     7
 72
     1
  1
{\W1;*1}
 73
     1
 44
1.0
  0
MTEXT
  5
2A4
330
1F
100
AcDbEntity
  8
0
 62
     7
100
AcDbMText
 10
280.1189632527988
 20
-58.71364685266303
 30
0.0
 40
6.0
 41
0.0
 71
     7
 72
     1
  1
{\W1;*4}
 73
     1
 44
1.0
  0
MTEXT
  5
2A5
330
1F
100
AcDbEntity
  8
0
 62
     7
100
AcDbMText
 10
166.7873913326395
 20
31.57534916805332
 30
0.0
 40
6.0
 41
0.0
 71
     7
 72
     1
  1
{\W1;*2}
 73
     1
 44
1.0
  0
MTEXT
  5
2A6
330
1F
100
AcDbEntity
  8
0
 62
     7
100
AcDbMText
 10
-211.6785810415336
 20
-60.56780376328277
 30
0.0
 40
6.0
 41
0.0
 71
     7
 72
     1
  1
{\W1;*3}
 73
     1
 44
1.0
  0
MTEXT
  5
2A7
330
1F
100
AcDbEntity
  8
0
 62
     7
100
AcDbMText
 10
-55.66329518164314
 20
156.1370264926087
 30
0.0
 40
8.0
 41
0.0
 71
     7
 72
     1
  1
{\W0.833333;※作図は50ストローク}
 73
     1
 44
1.0
  0
MTEXT
  5
2A8
330
1F
100
AcDbEntity
  8
0
 62
     7
100
AcDbMText
 10
417.0586994397685
 20
-217.7977126959985
 30
0.0
 40
0.5
 41
0.0
 71
     7
 72
     1
  1
{\W0.833333;ＧＱＡＬ－０００７－Ａ}
 73
     1
 44
1.0
  0
MTEXT
  5
2A9
330
1F
100
AcDbEntity
  8
0
 62
     7
100
AcDbMText
 10
-347.6353874639201
 20
194.3074300777369
 30
0.0
 40
15.0
 41
0.0
 71
     7
 72
     1
  1
{\W0.833333;ＮＩＨＯＮ　ＳＥＩＫＩ　ＢＮ－６１０２Ａ-ＣＢ-100}
 73
     1
 44
1.0
  0
INSERT
  5
2AA
330
1F
100
AcDbEntity
  8
0
 62
     7
100
AcDbBlockReference
  2
DTL0001
 10
39.35111529538852
 20
-77.343969501045
 30
0.0
  0
INSERT
  5
2AB
330
1F
100
AcDbEntity
  8
0
 62
     7
100
AcDbBlockReference
  2
DTL0002
 10
39.35111529538852
 20
73.74192222258785
 30
0.0
  0
INSERT
  5
2AC
330
1F
100
AcDbEntity
  8
0
 62
     7
100
AcDbBlockReference
  2
DTL0003
 10
-276.3939964183263
 20
-134.3439542025201
 30
0.0
  0
INSERT
  5
2AD
330
1F
100
AcDbEntity
  8
0
 62
     7
100
AcDbBlockReference
  2
DTL0004
 10
321.085144887123
 20
-134.3439542025201
 30
0.0
  0
DIMENSION
  5
2AE
330
1F
100
AcDbEntity
  8
0
 62
     7
100
AcDbDimension
  2
*D7
 10
-77.64913365333479
 20
-56.17919440340671
 30
0.0
 11
-84.648141004574
 21
-56.17919440340671
 31
0.0
 70
   160
 71
     5
 42
14.00001470247844
  3
DIMSTYLE_FULLSCALE
100
AcDbAlignedDimension
 13
-91.64914835581322
 23
-77.3439790377877
 33
0.0
 14
-77.64913365333479
 24
-76.25808731415489
 34
0.0
 50
180.0
100
AcDbRotatedDimension
1001
ACAD
1000
DSTYLE
1002
{
1070
    40
1040
1.0
1070
   278
1070
    46
1070
   147
1040
1.0
1070
    77
1070
     1
1070
    74
1070
     0
1070
    73
1070
     0
1070
    42
1040
0.0
1070
    44
1040
2.286000000000001
1070
    76
1070
     0
1070
    75
1070
     0
1070
   279
1070
     0
1070
   271
1070
     0
1070
   144
1040
1.0
1070
   173
1070
     1
1070
    41
1040
3.114
1070
   140
1040
4.0
1070
   344
1005
2AF
1070
   343
1005
2AF
1002
}
  0
DIMENSION
  5
2C2
330
1F
100
AcDbEntity
  8
0
 62
     7
100
AcDbDimension
  2
*D8
 10
39.35111529538852
 20
-56.17919440340671
 30
0.0
 11
52.85299459598762
 21
-56.17919440340671
 31
0.0
 70
   160
 71
     5
 42
26.99975860119821
  3
DIMSTYLE_FULLSCALE
100
AcDbAlignedDimension
 13
66.35087389658673
 23
-77.343969501045
 33
0.0
 14
39.35111529538852
 24
-76.25807777741218
 34
0.0
100
AcDbRotatedDimension
1001
ACAD
1000
DSTYLE
1002
{
1070
    40
1040
1.0
1070
   278
1070
    46
1070
   147
1040
1.0
1070
    77
1070
     1
1070
    74
1070
     0
1070
    73
1070
     0
1070
    42
1040
0.0
1070
    44
1040
2.286000000000001
1070
    76
1070
     0
1070
    75
1070
     0
1070
   279
1070
     0
1070
   271
1070
     0
1070
   144
1040
1.0
1070
   173
1070
     1
1070
    41
1040
3.114
1070
   140
1040
4.0
1070
   344
1005
2AF
1070
   343
1005
2AF
1002
}
  0
INSERT
  5
2D5
330
1F
100
AcDbEntity
  8
0
 62
     7
100
AcDbBlockReference
  2
SYM0001
 10
-77.64913365333486
 20
-77.34397903778769
 30
0.0
  0
INSERT
  5
2DE
330
1F
100
AcDbEntity
  8
0
 62
     7
100
AcDbBlockReference
  2
SYM0002
 10
186.2008501540712
 20
-121.3439541031791
 30
0.0
  0
DIMENSION
  5
2E1
330
1F
100
AcDbEntity
  8
0
 62
     7
100
AcDbDimension
  2
*D11
 10
66.35087389658673
 20
-46.60560048007986
 30
0.0
 11
-12.64813722961325
 21
-46.60560048007986
 31
0.0
 70
   160
  1
108+ストローク
 71
     5
 42
158.0000222524
  3
DIMSTYLE_FULLSCALE
100
AcDbAlignedDimension
 13
-91.64914835581322
 23
-77.3439790377877
 33
0.0
 14
66.35087389658673
 24
-77.343969501045
 34
0.0
 50
180.0
100
AcDbRotatedDimension
1001
ACAD
1000
DSTYLE
1002
{
1070
    40
1040
1.0
1070
   278
1070
    46
1070
   147
1040
1.0
1070
    77
1070
     1
1070
    74
1070
     0
1070
    73
1070
     0
1070
    42
1040
0.0
1070
    44
1040
2.286000000000001
1070
    76
1070
     0
1070
    75
1070
     0
1070
   279
1070
     0
1070
   271
1070
     0
1070
   173
1070
     1
1070
    41
1040
3.114
1070
   140
1040
4.0
1070
   344
1005
2AF
1070
   343
1005
2AF
1002
}
  0
DIMENSION
  5
2EE
330
1F
100
AcDbEntity
  8
0
 62
     7
100
AcDbDimension
  2
*D12
 10
-91.64914835581322
 20
-46.60560048007986
 30
0.0
 11
-121.6481483558132
 21
-46.60560048007986
 31
0.0
 70
   160
 71
     5
 42
60.0
  3
DIMSTYLE_FULLSCALE
100
AcDbAlignedDimension
 13
-151.6491483558132
 23
-98.99727451502034
 33
0.0
 14
-91.64914835581322
 24
-77.3439790377877
 34
0.0
 50
180.0
100
AcDbRotatedDimension
1001
ACAD
1000
DSTYLE
1002
{
1070
    40
1040
1.0
1070
   278
1070
    46
1070
   147
1040
1.0
1070
    77
1070
     1
1070
    74
1070
     0
1070
    73
1070
     0
1070
    42
1040
0.0
1070
    44
1040
2.286000000000001
1070
    76
1070
     1
1070
    75
1070
     0
1070
   279
1070
     0
1070
   271
1070
     0
1070
   144
1040
1.0
1070
   173
1070
     1
1070
    41
1040
3.114
1070
   140
1040
4.0
1070
   344
1005
2AF
1070
   343
1005
2AF
1002
}
  0
DIMENSION
  5
2FA
330
1F
100
AcDbEntity
  8
0
 62
     7
100
AcDbDimension
  2
*D13
 10
-111.6491483558132
 20
-56.17919440340671
 30
0.0
 11
-131.6481483558132
 21
-56.17919440340671
 31
0.0
 70
   160
 71
     5
 42
40.0
  3
DIMSTYLE_FULLSCALE
100
AcDbAlignedDimension
 13
-151.6491483558132
 23
-98.99727451502034
 33
0.0
 14
-111.6491483558132
 24
-81.30720978952797
 34
0.0
 50
180.0
100
AcDbRotatedDimension
1001
ACAD
1000
DSTYLE
1002
{
1070
    40
1040
1.0
1070
   278
1070
    46
1070
   147
1040
1.0
1070
    77
1070
     1
1070
    74
1070
     0
1070
    73
1070
     0
1070
    42
1040
0.0
1070
    44
1040
2.286000000000001
1070
    76
1070
     0
1070
    75
1070
     0
1070
   279
1070
     0
1070
   271
1070
     0
1070
   144
1040
1.0
1070
   173
1070
     1
1070
    41
1040
3.114
1070
   140
1040
4.0
1070
   344
1005
2AF
1070
   343
1005
2AF
1002
}
  0
DIMENSION
  5
307
330
1F
100
AcDbEntity
  8
0
 62
     7
100
AcDbDimension
  2
*D15
 10
-151.6491483558132
 20
-134.34395420252
 30
0.0
 11
-194.5016875637018
 21
-122.3234591581416
 31
0.0
 70
   164
  1
<>
 71
     5
 42
28.00000953674316
  3
DIMSTYLE_FULLSCALE
100
AcDbRadialDimension
 15
-178.6085887238897
 25
-126.7816060818742
 35
0.0
 40
0.0
1001
ACAD
1000
DSTYLE
1002
{
1070
    40
1040
1.0
1070
   278
1070
    46
1070
   147
1040
1.0
1070
    77
1070
     1
1070
    74
1070
     0
1070
    73
1070
     0
1070
   279
1070
     0
1070
   271
1070
     0
1070
   144
1040
1.0
1070
   173
1070
     1
1070
    41
1040
3.114
1070
   140
1040
4.0
1070
   344
1005
2AF
1070
   343
1005
308
1002
}
  0
DIMENSION
  5
319
330
1F
100
AcDbEntity
  8
0
 62
     7
100
AcDbDimension
  2
*D16
 10
76.35087389658673
 20
-56.17919440340671
 30
0.0
 11
71.35187389658674
 21
-56.17919440340671
 31
0.0
 70
   160
 71
     5
 42
10.0
  3
DIMSTYLE_FULLSCALE
100
AcDbAlignedDimension
 13
66.35087389658673
 23
-77.343969501045
 33
0.0
 14
76.35087389658673
 24
-87.34395320910951
 34
0.0
 50
180.0
100
AcDbRotatedDimension
1001
ACAD
1000
DSTYLE
1002
{
1070
    40
1040
1.0
1070
   278
1070
    46
1070
   147
1040
1.0
1070
    77
1070
     1
1070
    74
1070
     0
1070
    73
1070
     0
1070
    42
1040
0.0
1070
    44
1040
2.286000000000001
1070
    76
1070
     0
1070
    75
1070
     1
1070
   279
1070
     0
1070
   271
1070
     0
1070
   144
1040
1.0
1070
   173
1070
     1
1070
    41
1040
3.114
1070
   140
1040
4.0
1070
   344
1005
2AF
1070
   343
1005
2AF
1002
}
  0
DIMENSION
  5
325
330
1F
100
AcDbEntity
  8
0
 62
     7
100
AcDbDimension
  2
*D17
 10
193.350874095269
 20
-46.60560048007986
 30
0.0
 11
129.8518739959279
 21
-46.60560048007986
 31
0.0
 70
   160
 71
     5
 42
127.0000001986823
  3
DIMSTYLE_FULLSCALE
100
AcDbAlignedDimension
 13
66.35087389658673
 23
-77.343969501045
 33
0.0
 14
193.350874095269
 24
-122.3439539044969
 34
0.0
 50
180.0
100
AcDbRotatedDimension
1001
ACAD
1000
DSTYLE
1002
{
1070
    40
1040
1.0
1070
   278
1070
    46
1070
   147
1040
1.0
1070
    77
1070
     1
1070
    74
1070
     0
1070
    73
1070
     0
1070
    42
1040
0.0
1070
    44
1040
2.286000000000001
1070
    76
1070
     0
1070
    75
1070
     1
1070
   279
1070
     0
1070
   271
1070
     0
1070
   144
1040
1.0
1070
   173
1070
     1
1070
    41
1040
3.114
1070
   140
1040
4.0
1070
   344
1005
2AF
1070
   343
1005
2AF
1002
}
  0
DIMENSION
  5
331
330
1F
100
AcDbEntity
  8
0
 62
     7
100
AcDbDimension
  2
*D18
 10
148.3508752873619
 20
-56.17919440340671
 30
0.0
 11
170.8528746913155
 21
-56.17919440340671
 31
0.0
 70
   160
 71
     5
 42
44.9999988079071
  3
DIMSTYLE_FULLSCALE
100
AcDbAlignedDimension
 13
193.350874095269
 23
-122.3439539044969
 33
0.0
 14
148.3508752873619
 24
-119.147802278234
 34
0.0
100
AcDbRotatedDimension
1001
ACAD
1000
DSTYLE
1002
{
1070
    40
1040
1.0
1070
   278
1070
    46
1070
   147
1040
1.0
1070
    77
1070
     1
1070
    74
1070
     0
1070
    73
1070
     0
1070
    42
1040
0.0
1070
    44
1040
2.286000000000001
1070
    76
1070
     0
1070
    75
1070
     0
1070
   279
1070
     0
1070
   271
1070
     0
1070
   144
1040
1.0
1070
   173
1070
     1
1070
    41
1040
3.114
1070
   140
1040
4.0
1070
   344
1005
2AF
1070
   343
1005
2AF
1002
}
  0
DIMENSION
  5
33E
330
1F
100
AcDbEntity
  8
0
 62
     7
100
AcDbDimension
  2
*D19
 10
166.0508260141907
 20
-180.3416370806092
 30
0.0
 11
173.0528260141907
 21
-180.3416370806092
 31
0.0
 70
   160
 71
     5
 42
14.0
  3
DIMSTYLE_FULLSCALE
100
AcDbAlignedDimension
 13
180.0508260141907
 23
-155.1285611361139
 33
0.0
 14
166.0508260141907
 24
-155.1285611361139
 34
0.0
100
AcDbRotatedDimension
1001
ACAD
1000
DSTYLE
1002
{
1070
    40
1040
1.0
1070
   278
1070
    46
1070
   147
1040
1.0
1070
    77
1070
     1
1070
    74
1070
     0
1070
    73
1070
     0
1070
    42
1040
0.0
1070
    44
1040
2.286000000000001
1070
    76
1070
     0
1070
    75
1070
     0
1070
   279
1070
     0
1070
   271
1070
     0
1070
   144
1040
1.0
1070
   173
1070
     1
1070
    41
1040
3.114
1070
   140
1040
4.0
1070
   344
1005
2AF
1070
   343
1005
2AF
1002
}
  0
DIMENSION
  5
34B
330
1F
100
AcDbEntity
  8
0
 62
     7
100
AcDbDimension
  2
*D20
 10
118.6052253935049
 20
-150.3439526130628
 30
0.0
 11
118.6052253935049
 21
-165.9927315150467
 31
0.0
 70
   160
  1
\U+2205<>
 71
     5
 42
31.9999984105427
  3
DIMSTYLE_FULLSCALE
100
AcDbAlignedDimension
 13
145.3508750886799
 23
-118.3439542025201
 33
0.0
 14
145.3508750886796
 24
-150.3439526130628
 34
0.0
 50
90.00000000000001
100
AcDbRotatedDimension
1001
ACAD
1000
DSTYLE
1002
{
1070
    40
1040
1.0
1070
   278
1070
    46
1070
   147
1040
1.0
1070
    77
1070
     1
1070
    74
1070
     0
1070
    73
1070
     0
1070
    42
1040
0.0
1070
    44
1040
2.285999999999945
1070
    76
1070
     0
1070
    75
1070
     0
1070
   279
1070
     0
1070
   271
1070
     0
1070
   144
1040
1.0
1070
   173
1070
     1
1070
    41
1040
3.114
1070
   140
1040
4.0
1070
   344
1005
2AF
1070
   343
1005
2AF
1002
}
  0
DIMENSION
  5
359
330
1F
100
AcDbEntity
  8
0
 62
     7
100
AcDbDimension
  2
*D21
 10
193.350874095269
 20
-35.52789975762359
 30
0.0
 11
6.851858101356323
 21
-35.52789975762357
 31
0.0
 70
   160
  1
323+ストローク
 71
     5
 42
373.0000319878254
  3
DIMSTYLE_FULLSCALE
100
AcDbAlignedDimension
 13
-179.6491578925564
 23
-134.3439542025201
 33
0.0
 14
193.350874095269
 24
-122.3439539044969
 34
0.0
 50
180.0
100
AcDbRotatedDimension
1001
ACAD
1000
DSTYLE
1002
{
1070
    40
1040
1.0
1070
   278
1070
    46
1070
   147
1040
1.0
1070
    77
1070
     1
1070
    74
1070
     0
1070
    73
1070
     0
1070
    42
1040
0.0
1070
    44
1040
2.286000000000001
1070
    76
1070
     0
1070
    75
1070
     0
1070
   279
1070
     0
1070
   271
1070
     0
1070
   173
1070
     1
1070
    41
1040
3.114
1070
   140
1040
4.0
1070
   344
1005
2AF
1070
   343
1005
2AF
1002
}
  0
DIMENSION
  5
366
330
1F
100
AcDbEntity
  8
0
 62
     7
100
AcDbDimension
  2
*D22
 10
-258.6439964183263
 20
-56.17919440340671
 30
0.0
 11
-276.3929811595372
 21
-56.17919440340671
 31
0.0
 70
   160
 71
     5
 42
35.49996948242188
  3
DIMSTYLE_FULLSCALE
100
AcDbAlignedDimension
 13
-294.1439659007481
 23
-81.75593771108859
 33
0.0
 14
-258.6439964183263
 24
-81.75593771108859
 34
0.0
 50
180.0
100
AcDbRotatedDimension
1001
ACAD
1000
DSTYLE
1002
{
1070
   146
1040
0.5
1070
   283
1070
     1
1070
   272
1070
     1
1070
    71
1070
     1
1070
    72
1070
     0
1070
    48
1040
-0.1
1070
    47
1040
0.3
1070
    40
1040
1.0
1070
   278
1070
    46
1070
   147
1040
1.0
1070
    77
1070
     1
1070
    74
1070
     0
1070
    73
1070
     0
1070
    42
1040
0.0
1070
    44
1040
2.286000000000001
1070
    76
1070
     0
1070
    75
1070
     0
1070
   279
1070
     0
1070
    78
1070
     0
1070
   271
1070
     1
1070
   144
1040
1.0
1070
   173
1070
     1
1070
    41
1040
3.114
1070
   140
1040
4.0
1070
   344
1005
2AF
1070
   343
1005
2AF
1002
}
  0
DIMENSION
  5
373
330
1F
100
AcDbEntity
  8
0
 62
     7
100
AcDbDimension
  2
*D23
 10
-240.8939659007481
 20
-46.60560048007986
 30
0.0
 11
-276.3929811595372
 21
-46.60560048007986
 31
0.0
 70
   160
 71
     5
 42
71.00003051757801
  3
DIMSTYLE_FULLSCALE
100
AcDbAlignedDimension
 13
-311.8939964183262
 23
-104.7435509701575
 33
0.0
 14
-240.8939659007481
 24
-104.7435669677473
 34
0.0
 50
180.0
100
AcDbRotatedDimension
1001
ACAD
1000
DSTYLE
1002
{
1070
    40
1040
1.0
1070
   278
1070
    46
1070
   147
1040
1.0
1070
    77
1070
     1
1070
    74
1070
     0
1070
    73
1070
     0
1070
    42
1040
0.0
1070
    44
1040
2.286000000000001
1070
    76
1070
     0
1070
    75
1070
     0
1070
   279
1070
     0
1070
   271
1070
     0
1070
   144
1040
0.999999999999999
1070
   173
1070
     1
1070
    41
1040
3.114
1070
   140
1040
4.0
1070
   344
1005
2AF
1070
   343
1005
2AF
1002
}
  0
DIMENSION
  5
380
330
1F
100
AcDbEntity
  8
0
 62
     7
100
AcDbDimension
  2
*D24
 10
-234.3940540361472
 20
-35.52789975762357
 30
0.0
 11
-276.3930599966114
 21
-35.52789975762357
 31
0.0
 70
   160
 71
     5
 42
84.00001192092827
  3
DIMSTYLE_FULLSCALE
100
AcDbAlignedDimension
 13
-318.3940659570756
 23
-81.31595611384253
 33
0.0
 14
-234.3940540361472
 24
-81.31595611384253
 34
0.0
 50
180.0
100
AcDbRotatedDimension
1001
ACAD
1000
DSTYLE
1002
{
1070
    40
1040
1.0
1070
   278
1070
    46
1070
   147
1040
1.0
1070
    77
1070
     1
1070
    74
1070
     0
1070
    73
1070
     0
1070
    42
1040
0.0
1070
    44
1040
2.286000000000001
1070
    76
1070
     0
1070
    75
1070
     0
1070
   279
1070
     0
1070
   271
1070
     0
1070
   144
1040
0.999999999999999
1070
   173
1070
     1
1070
    41
1040
3.114
1070
   140
1040
4.0
1070
   344
1005
2AF
1070
   343
1005
2AF
1002
}
  0
DIMENSION
  5
38D
330
1F
100
AcDbEntity
  8
0
 62
     7
100
AcDbDimension
  2
*D25
 10
-219.3940164852224
 20
-25.769655555769
 30
0.0
 11
-276.3930091339833
 21
-25.76965555576899
 31
0.0
 70
   160
 71
     5
 42
113.9999852975217
  3
DIMSTYLE_FULLSCALE
100
AcDbAlignedDimension
 13
-333.394001782744
 23
-91.3439555932953
 33
0.0
 14
-219.3940164852224
 24
-91.3439555932953
 34
0.0
 50
180.0
100
AcDbRotatedDimension
1001
ACAD
1000
DSTYLE
1002
{
1070
    40
1040
1.0
1070
   278
1070
    46
1070
   147
1040
1.0
1070
    77
1070
     1
1070
    74
1070
     0
1070
    73
1070
     0
1070
    42
1040
0.0
1070
    44
1040
2.286000000000001
1070
    76
1070
     0
1070
    75
1070
     0
1070
   279
1070
     0
1070
   271
1070
     0
1070
   144
1040
1.0
1070
   173
1070
     1
1070
    41
1040
3.114
1070
   140
1040
4.0
1070
   344
1005
2AF
1070
   343
1005
2AF
1002
}
  0
DIMENSION
  5
39A
330
1F
100
AcDbEntity
  8
0
 62
     7
100
AcDbDimension
  2
*D26
 10
-343.393982311894
 20
-25.76965555576899
 30
0.0
 11
-338.391992047319
 21
-25.76965555576899
 31
0.0
 70
   160
 71
     5
 42
9.99998052914998
  3
DIMSTYLE_FULLSCALE
100
AcDbAlignedDimension
 13
-333.394001782744
 23
-91.3439555932953
 33
0.0
 14
-343.393982311894
 24
-130.3439549972489
 34
0.0
100
AcDbRotatedDimension
1001
ACAD
1000
DSTYLE
1002
{
1070
    40
1040
1.0
1070
   278
1070
    46
1070
   147
1040
1.0
1070
    77
1070
     1
1070
    74
1070
     0
1070
    73
1070
     0
1070
    42
1040
0.0
1070
    44
1040
2.286000000000001
1070
    76
1070
     0
1070
    75
1070
     1
1070
   279
1070
     0
1070
   271
1070
     0
1070
   144
1040
1.0
1070
   173
1070
     1
1070
    41
1040
3.114
1070
   140
1040
4.0
1070
   344
1005
2AF
1070
   343
1005
2AF
1002
}
  0
DIMENSION
  5
3A6
330
1F
100
AcDbEntity
  8
0
 62
     7
100
AcDbDimension
  2
*D27
 10
-363.7442667603652
 20
-148.0939542025201
 30
0.0
 11
-363.7442667603652
 21
-47.0793140584761
 31
0.0
 70
   160
  1
\A1;\U+2205<>d9({\H0.5x;\S-0.065^ -0.117;})
 71
     5
 42
27.5
  3
DIMSTYLE_FULLSCALE
100
AcDbAlignedDimension
 13
-317.393996418326
 23
-120.5939542025201
 33
0.0
 14
-317.393996418326
 24
-148.0939542025201
 34
0.0
 50
90.00000000000001
100
AcDbRotatedDimension
1001
ACAD
1000
DSTYLE
1002
{
1070
    40
1040
1.0
1070
   278
1070
    46
1070
   147
1040
1.0
1070
    77
1070
     1
1070
    74
1070
     0
1070
    73
1070
     0
1070
    42
1040
0.0
1070
    44
1040
2.286000000000058
1070
    76
1070
     0
1070
    75
1070
     0
1070
   279
1070
     0
1070
    78
1070
     0
1070
   271
1070
     1
1070
   144
1040
1.0
1070
   173
1070
     1
1070
    41
1040
3.114
1070
   140
1040
4.0
1070
   344
1005
2AF
1070
   343
1005
2AF
1002
}
  0
DIMENSION
  5
3B4
330
1F
100
AcDbEntity
  8
0
 62
     7
100
AcDbDimension
  2
*D28
 10
-377.4492504928471
 20
-176.3439998994125
 30
0.0
 11
-377.4492504928471
 21
-134.343001886234
 31
0.0
 70
   160
 71
     5
 42
83.99999602635694
  3
DIMSTYLE_FULLSCALE
100
AcDbAlignedDimension
 13
-328.3234300848162
 23
-92.34400387305553
 33
0.0
 14
-328.3234300848162
 24
-176.3439998994125
 34
0.0
 50
90.00000000000001
100
AcDbRotatedDimension
1001
ACAD
1000
DSTYLE
1002
{
1070
    40
1040
1.0
1070
   278
1070
    46
1070
   147
1040
1.0
1070
    77
1070
     1
1070
    74
1070
     0
1070
    73
1070
     0
1070
    42
1040
0.0
1070
    44
1040
2.286000000000058
1070
    76
1070
     0
1070
    75
1070
     0
1070
   279
1070
     0
1070
   271
1070
     0
1070
   144
1040
1.0
1070
   173
1070
     1
1070
    41
1040
3.114
1070
   140
1040
4.0
1070
   344
1005
2AF
1070
   343
1005
2AF
1002
}
  0
DIMENSION
  5
3C1
330
1F
100
AcDbEntity
  8
0
 62
     7
100
AcDbDimension
  2
*D29
 10
-387.3997469904991
 20
-191.3439547985666
 30
0.0
 11
-387.3997469904991
 21
-134.3429542025201
 31
0.0
 70
   160
 71
     5
 42
114.0000011920929
  3
DIMSTYLE_FULLSCALE
100
AcDbAlignedDimension
 13
-319.3939997959226
 23
-77.34395360647366
 33
0.0
 14
-319.3939997959226
 24
-191.3439547985666
 34
0.0
 50
90.00000000000001
100
AcDbRotatedDimension
1001
ACAD
1000
DSTYLE
1002
{
1070
    40
1040
1.0
1070
   278
1070
    46
1070
   147
1040
1.0
1070
    77
1070
     1
1070
    74
1070
     0
1070
    73
1070
     0
1070
    42
1040
0.0
1070
    44
1040
2.286000000000058
1070
    76
1070
     0
1070
    75
1070
     0
1070
   279
1070
     0
1070
   271
1070
     0
1070
   144
1040
1.0
1070
   173
1070
     1
1070
    41
1040
3.114
1070
   140
1040
4.0
1070
   344
1005
2AF
1070
   343
1005
2AF
1002
}
  0
ENDSEC
  0
SECTION
  2
OBJECTS
  0
DICTIONARY
  5
C
330
0
100
AcDbDictionary
281
     1
  3
ACAD_GROUP
350
D
  3
ACAD_LAYOUT
350
1A
  3
ACAD_MATERIAL
350
43
  3
ACAD_MLEADERSTYLE
350
6B
  3
ACAD_MLINESTYLE
350
17
  3
ACAD_PLOTSETTINGS
350
19
  3
ACAD_PLOTSTYLENAME
350
E
  3
ACAD_SCALELIST
350
47
  3
ACAD_TABLESTYLE
350
69
  3
ACAD_VISUALSTYLE
350
2A
  3
AcDbVariableDictionary
350
3CE
  3
DWGPROPS
350
3D9
  0
DICTIONARY
  5
3DA
330
8
100
AcDbDictionary
280
     1
281
     1
  3
ACAD_XREC_ROUNDTRIP
360
3DB
  0
DICTIONARY
  5
D
102
{ACAD_REACTORS
330
C
102
}
330
C
100
AcDbDictionary
281
     1
  0
DICTIONARY
  5
1A
102
{ACAD_REACTORS
330
C
102
}
330
C
100
AcDbDictionary
281
     1
  3
Layout1
350
1E
  3
Layout2
350
26
  3
Model
350
22
  0
DICTIONARY
  5
43
102
{ACAD_REACTORS
330
C
102
}
330
C
100
AcDbDictionary
281
     1
  3
ByBlock
350
45
  3
ByLayer
350
44
  3
Global
350
46
  0
DICTIONARY
  5
6B
102
{ACAD_REACTORS
330
C
102
}
330
C
100
AcDbDictionary
281
     1
  3
Standard
350
6C
  0
DICTIONARY
  5
17
102
{ACAD_REACTORS
330
C
102
}
330
C
100
AcDbDictionary
281
     1
  3
Standard
350
18
  0
DICTIONARY
  5
19
102
{ACAD_REACTORS
330
C
102
}
330
C
100
AcDbDictionary
281
     1
  0
ACDBDICTIONARYWDFLT
  5
E
102
{ACAD_REACTORS
330
C
102
}
330
C
100
AcDbDictionary
281
     1
  3
Normal
350
F
100
AcDbDictionaryWithDefault
340
F
  0
DICTIONARY
  5
47
102
{ACAD_REACTORS
330
C
102
}
330
C
100
AcDbDictionary
281
     1
  3
A0
350
48
  3
A1
350
49
  3
A2
350
4A
  3
A3
350
4B
  3
A4
350
4C
  3
A5
350
4D
  3
A6
350
4E
  3
A7
350
4F
  3
A8
350
50
  3
A9
350
51
  3
B0
350
52
  3
B1
350
53
  3
B2
350
54
  3
B3
350
55
  3
B4
350
56
  3
B5
350
57
  3
B6
350
58
  3
B7
350
59
  3
B8
350
5A
  3
B9
350
5B
  3
C0
350
5C
  3
C1
350
5D
  3
C2
350
5E
  3
C3
350
5F
  3
C4
350
60
  3
C5
350
61
  3
C6
350
62
  3
C7
350
63
  3
C8
350
64
  3
C9
350
65
  3
D0
350
66
  3
D1
350
67
  3
D2
350
68
  0
DICTIONARY
  5
69
102
{ACAD_REACTORS
330
C
102
}
330
C
100
AcDbDictionary
281
     1
  3
Standard
350
6A
  0
DICTIONARY
  5
2A
102
{ACAD_REACTORS
330
C
102
}
330
C
100
AcDbDictionary
281
     1
  3
2dWireframe
350
2F
  3
Basic
350
32
  3
Brighten
350
36
  3
ColorChange
350
3A
  3
Conceptual
350
34
  3
Dim
350
35
  3
EdgeColorOff
350
3D
  3
Facepattern
350
39
  3
Flat
350
2B
  3
FlatWithEdges
350
2C
  3
Gouraud
350
2D
  3
GouraudWithEdges
350
2E
  3
Hidden
350
31
  3
JitterOff
350
3B
  3
Linepattern
350
38
  3
OverhangOff
350
3C
  3
Realistic
350
33
  3
Shaded
350
42
  3
Shaded with edges
350
41
  3
Shades of Gray
350
3E
  3
Sketchy
350
3F
  3
Thicken
350
37
  3
Wireframe
350
30
  3
X-Ray
350
40
  0
DICTIONARY
  5
3CE
102
{ACAD_REACTORS
330
C
102
}
330
C
100
AcDbDictionary
281
     1
  3
CANNOSCALE
350
3E0
  3
CENTEREXE
350
3D5
  3
CENTERLTYPEFILE
350
3D6
  3
CMLEADERSTYLE
350
3D0
  3
CTABLESTYLE
350
3CF
  3
DIMASSOC
350
3D7
  3
HIDETEXT
350
3D8
  3
MSLTSCALE
350
3E1
  3
PSOLHEIGHT
350
3D2
  3
PSOLWIDTH
350
3D1
  0
XRECORD
  5
3D9
102
{ACAD_REACTORS
330
C
102
}
330
C
100
AcDbXrecord
280
     1
  1
DWGPROPS COOKIE
  2

  3

  4

  6

  7

  8
CADAM
  9

300
=
301
=
302
=
303
=
304
=
305
=
306
=
307
=
308
=
309
=
 40
0.0
 41
2459051.175211123
 42
2459051.17521257
  1

 90
        0
  0
XRECORD
  5
3DB
102
{ACAD_REACTORS
330
3DA
102
}
330
3DA
100
AcDbXrecord
280
     1
102
VTR_0.000_0.000_1.000_1.000_VISUALSTYLE
340
2F
102
VTR_0.000_0.000_1.000_1.000_GRIDDISPLAY
 70
     3
102
VTR_0.000_0.000_1.000_1.000_GRIDMAJOR
 70
     5
102
VTR_0.000_0.000_1.000_1.000_DEFAULTLIGHTING
280
     1
102
VTR_0.000_0.000_1.000_1.000_DEFAULTLIGHTINGTYPE
 70
     1
102
VTR_0.000_0.000_1.000_1.000_BRIGHTNESS
141
0.0
102
VTR_0.000_0.000_1.000_1.000_CONTRAST
142
0.0
  0
LAYOUT
  5
1E
102
{ACAD_REACTORS
330
1A
102
}
330
1A
100
AcDbPlotSettings
  1

  2
none_device
  4

  6

 40
0.0
 41
0.0
 42
0.0
 43
0.0
 44
0.0
 45
0.0
 46
0.0
 47
0.0
 48
0.0
 49
0.0
140
0.0
141
0.0
142
1.0
143
1.0
 70
   688
 72
     1
 73
     0
 74
     5
  7

 75
    16
147
1.0
148
0.0
149
0.0
100
AcDbLayout
  1
Layout1
 70
     1
 71
     1
 10
-630.0996999219584
 20
-74.19256992226315
 11
219.9003000780416
 21
365.8074300777369
 12
0.0
 22
0.0
 32
0.0
 14
1.000000000000000E+20
 24
1.000000000000000E+20
 34
1.000000000000000E+20
 15
-1.000000000000000E+20
 25
-1.000000000000000E+20
 35
-1.000000000000000E+20
146
0.0
 13
0.0
 23
0.0
 33
0.0
 16
1.0
 26
0.0
 36
0.0
 17
0.0
 27
1.0
 37
0.0
 76
     0
330
1B
  0
LAYOUT
  5
26
102
{ACAD_REACTORS
330
1A
102
}
330
1A
100
AcDbPlotSettings
  1

  2
none_device
  4

  6

 40
0.0
 41
0.0
 42
0.0
 43
0.0
 44
0.0
 45
0.0
 46
0.0
 47
0.0
 48
0.0
 49
0.0
140
0.0
141
0.0
142
1.0
143
1.0
 70
   688
 72
     1
 73
     0
 74
     5
  7

 75
    16
147
1.0
148
0.0
149
0.0
100
AcDbLayout
  1
Layout2
 70
     1
 71
     2
 10
0.0
 20
0.0
 11
0.0
 21
0.0
 12
0.0
 22
0.0
 32
0.0
 14
0.0
 24
0.0
 34
0.0
 15
0.0
 25
0.0
 35
0.0
146
0.0
 13
0.0
 23
0.0
 33
0.0
 16
1.0
 26
0.0
 36
0.0
 17
0.0
 27
1.0
 37
0.0
 76
     0
330
23
  0
LAYOUT
  5
22
102
{ACAD_REACTORS
330
1A
102
}
330
1A
100
AcDbPlotSettings
  1

  2
none_device
  4
Letter_(8.50_x_11.00_Inches)
  6

 40
6.35
 41
6.35
 42
6.35000508
 43
6.35000508
 44
215.9
 45
279.4
 46
0.0
 47
0.0
 48
0.0
 49
0.0
140
0.0
141
0.0
142
1.0
143
1.0
 70
  1712
 72
     1
 73
     0
 74
     0
  7

 75
     0
147
1.0
148
0.0
149
0.0
100
AcDbLayout
  1
Model
 70
     1
 71
     0
 10
-630.0996999219584
 20
-74.19256992226315
 11
219.9003000780416
 21
365.8074300777369
 12
0.0
 22
0.0
 32
0.0
 14
-630.0996999219584
 24
-74.19256992226315
 34
0.0
 15
219.9003000780416
 25
365.8074300777369
 35
0.0
146
0.0
 13
0.0
 23
0.0
 33
0.0
 16
1.0
 26
0.0
 36
0.0
 17
0.0
 27
1.0
 37
0.0
 76
     0
330
1F
331
29
  0
MATERIAL
  5
45
102
{ACAD_REACTORS
330
43
102
}
102
{ACAD_XDICTIONARY
360
414
102
}
330
43
100
AcDbMaterial
  1
ByBlock
  0
MATERIAL
  5
44
102
{ACAD_REACTORS
330
43
102
}
102
{ACAD_XDICTIONARY
360
412
102
}
330
43
100
AcDbMaterial
  1
ByLayer
  0
MATERIAL
  5
46
102
{ACAD_REACTORS
330
43
102
}
102
{ACAD_XDICTIONARY
360
416
102
}
330
43
100
AcDbMaterial
  1
Global
  0
MLEADERSTYLE
  5
6C
102
{ACAD_REACTORS
330
6B
102
}
102
{ACAD_XDICTIONARY
360
419
102
}
330
6B
100
AcDbMLeaderStyle
170
     2
171
     1
172
     0
 90
        2
 40
0.0
 41
0.0
173
     1
 91
-1056964608
340
14
 92
       -2
290
     1
 42
2.0
291
     1
 43
8.0
  3
Standard
341
0
 44
4.0
300

342
11
174
     1
178
     6
175
     1
176
     0
 93
-1056964608
 45
4.0
292
     0
297
     0
 46
4.0
343
0
 94
-1056964608
 47
1.0
 49
1.0
140
1.0
293
     1
141
0.0
294
     1
177
     0
142
1.0
295
     0
296
     0
143
3.75
1001
ACAD_MLEADERVER
1070
     2
  0
MLINESTYLE
  5
18
102
{ACAD_REACTORS
330
17
102
}
330
17
100
AcDbMlineStyle
  2
Standard
 70
     0
  3

 62
   256
 51
90.0
 52
90.0
 71
     2
 49
0.5
 62
   256
  6
BYLAYER
 49
-0.5
 62
   256
  6
BYLAYER
  0
ACDBPLACEHOLDER
  5
F
102
{ACAD_REACTORS
330
E
102
}
330
E
  0
SCALE
  5
48
102
{ACAD_REACTORS
330
47
102
}
330
47
100
AcDbScale
 70
     0
300
1:1
140
1.0
141
1.0
290
     1
  0
SCALE
  5
49
102
{ACAD_REACTORS
330
47
102
}
330
47
100
AcDbScale
 70
     0
300
1:2
140
1.0
141
2.0
290
     0
  0
SCALE
  5
4A
102
{ACAD_REACTORS
330
47
102
}
330
47
100
AcDbScale
 70
     0
300
1:4
140
1.0
141
4.0
290
     0
  0
SCALE
  5
4B
102
{ACAD_REACTORS
330
47
102
}
330
47
100
AcDbScale
 70
     0
300
1:5
140
1.0
141
5.0
290
     0
  0
SCALE
  5
4C
102
{ACAD_REACTORS
330
47
102
}
330
47
100
AcDbScale
 70
     0
300
1:8
140
1.0
141
8.0
290
     0
  0
SCALE
  5
4D
102
{ACAD_REACTORS
330
47
102
}
330
47
100
AcDbScale
 70
     0
300
1:10
140
1.0
141
10.0
290
     0
  0
SCALE
  5
4E
102
{ACAD_REACTORS
330
47
102
}
330
47
100
AcDbScale
 70
     0
300
1:16
140
1.0
141
16.0
290
     0
  0
SCALE
  5
4F
102
{ACAD_REACTORS
330
47
102
}
330
47
100
AcDbScale
 70
     0
300
1:20
140
1.0
141
20.0
290
     0
  0
SCALE
  5
50
102
{ACAD_REACTORS
330
47
102
}
330
47
100
AcDbScale
 70
     0
300
1:30
140
1.0
141
30.0
290
     0
  0
SCALE
  5
51
102
{ACAD_REACTORS
330
47
102
}
330
47
100
AcDbScale
 70
     0
300
1:40
140
1.0
141
40.0
290
     0
  0
SCALE
  5
52
102
{ACAD_REACTORS
330
47
102
}
330
47
100
AcDbScale
 70
     0
300
1:50
140
1.0
141
50.0
290
     0
  0
SCALE
  5
53
102
{ACAD_REACTORS
330
47
102
}
330
47
100
AcDbScale
 70
     0
300
1:100
140
1.0
141
100.0
290
     0
  0
SCALE
  5
54
102
{ACAD_REACTORS
330
47
102
}
330
47
100
AcDbScale
 70
     0
300
2:1
140
2.0
141
1.0
290
     0
  0
SCALE
  5
55
102
{ACAD_REACTORS
330
47
102
}
330
47
100
AcDbScale
 70
     0
300
4:1
140
4.0
141
1.0
290
     0
  0
SCALE
  5
56
102
{ACAD_REACTORS
330
47
102
}
330
47
100
AcDbScale
 70
     0
300
8:1
140
8.0
141
1.0
290
     0
  0
SCALE
  5
57
102
{ACAD_REACTORS
330
47
102
}
330
47
100
AcDbScale
 70
     0
300
10:1
140
10.0
141
1.0
290
     0
  0
SCALE
  5
58
102
{ACAD_REACTORS
330
47
102
}
330
47
100
AcDbScale
 70
     0
300
100:1
140
100.0
141
1.0
290
     0
  0
SCALE
  5
59
102
{ACAD_REACTORS
330
47
102
}
330
47
100
AcDbScale
 70
     0
300
1/128" = 1'-0"
140
0.0078125
141
12.0
290
     0
  0
SCALE
  5
5A
102
{ACAD_REACTORS
330
47
102
}
330
47
100
AcDbScale
 70
     0
300
1/64" = 1'-0"
140
0.015625
141
12.0
290
     0
  0
SCALE
  5
5B
102
{ACAD_REACTORS
330
47
102
}
330
47
100
AcDbScale
 70
     0
300
1/32" = 1'-0"
140
0.03125
141
12.0
290
     0
  0
SCALE
  5
5C
102
{ACAD_REACTORS
330
47
102
}
330
47
100
AcDbScale
 70
     0
300
1/16" = 1'-0"
140
0.0625
141
12.0
290
     0
  0
SCALE
  5
5D
102
{ACAD_REACTORS
330
47
102
}
330
47
100
AcDbScale
 70
     0
300
3/32" = 1'-0"
140
0.09375
141
12.0
290
     0
  0
SCALE
  5
5E
102
{ACAD_REACTORS
330
47
102
}
330
47
100
AcDbScale
 70
     0
300
1/8" = 1'-0"
140
0.125
141
12.0
290
     0
  0
SCALE
  5
5F
102
{ACAD_REACTORS
330
47
102
}
330
47
100
AcDbScale
 70
     0
300
3/16" = 1'-0"
140
0.1875
141
12.0
290
     0
  0
SCALE
  5
60
102
{ACAD_REACTORS
330
47
102
}
330
47
100
AcDbScale
 70
     0
300
1/4" = 1'-0"
140
0.25
141
12.0
290
     0
  0
SCALE
  5
61
102
{ACAD_REACTORS
330
47
102
}
330
47
100
AcDbScale
 70
     0
300
3/8" = 1'-0"
140
0.375
141
12.0
290
     0
  0
SCALE
  5
62
102
{ACAD_REACTORS
330
47
102
}
330
47
100
AcDbScale
 70
     0
300
1/2" = 1'-0"
140
0.5
141
12.0
290
     0
  0
SCALE
  5
63
102
{ACAD_REACTORS
330
47
102
}
330
47
100
AcDbScale
 70
     0
300
3/4" = 1'-0"
140
0.75
141
12.0
290
     0
  0
SCALE
  5
64
102
{ACAD_REACTORS
330
47
102
}
330
47
100
AcDbScale
 70
     0
300
1" = 1'-0"
140
1.0
141
12.0
290
     0
  0
SCALE
  5
65
102
{ACAD_REACTORS
330
47
102
}
330
47
100
AcDbScale
 70
     0
300
1-1/2" = 1'-0"
140
1.5
141
12.0
290
     0
  0
SCALE
  5
66
102
{ACAD_REACTORS
330
47
102
}
330
47
100
AcDbScale
 70
     0
300
3" = 1'-0"
140
3.0
141
12.0
290
     0
  0
SCALE
  5
67
102
{ACAD_REACTORS
330
47
102
}
330
47
100
AcDbScale
 70
     0
300
6" = 1'-0"
140
6.0
141
12.0
290
     0
  0
SCALE
  5
68
102
{ACAD_REACTORS
330
47
102
}
330
47
100
AcDbScale
 70
     0
300
1'-0" = 1'-0"
140
12.0
141
12.0
290
     0
  0
TABLESTYLE
  5
6A
102
{ACAD_REACTORS
330
69
102
}
330
69
100
AcDbTableStyle
  3
Standard
 70
     0
 71
     0
 40
1.5
 41
1.5
280
     0
281
     0
  7
Standard
140
4.5
170
     2
 62
     0
 63
   257
283
     0
274
    -2
284
     1
 64
     0
275
    -2
285
     1
 65
     0
276
    -2
286
     1
 66
     0
277
    -2
287
     1
 67
     0
278
    -2
288
     1
 68
     0
279
    -2
289
     1
 69
     0
  7
Standard
140
6.0
170
     5
 62
     0
 63
   257
283
     0
274
    -2
284
     1
 64
     0
275
    -2
285
     1
 65
     0
276
    -2
286
     1
 66
     0
277
    -2
287
     1
 67
     0
278
    -2
288
     1
 68
     0
279
    -2
289
     1
 69
     0
  7
Standard
140
4.5
170
     5
 62
     0
 63
   257
283
     0
274
    -2
284
     1
 64
     0
275
    -2
285
     1
 65
     0
276
    -2
286
     1
 66
     0
277
    -2
287
     1
 67
     0
278
    -2
288
     1
 68
     0
279
    -2
289
     1
 69
     0
  0
VISUALSTYLE
  5
2F
102
{ACAD_REACTORS
330
2A
102
}
102
{ACAD_XDICTIONARY
360
3EA
102
}
330
2A
100
AcDbVisualStyle
  2
2dWireframe
 70
     4
 71
     0
 72
     2
 73
     0
 90
        0
 40
0.6
 41
30.0
 62
     5
 63
     7
 74
     1
 91
        4
 64
     7
 65
   257
 75
     1
175
     1
 42
1.0
 92
        0
 66
   257
 43
1.0
 76
     1
 77
     6
 78
     2
 67
     7
 79
     5
170
     0
171
     0
290
     0
174
     0
 93
        1
 44
0.0
173
     0
291
     0
 45
0.0
1001
ACAD
1000
AcDbSavedByObjectVersion
1070
     0
  0
VISUALSTYLE
  5
32
102
{ACAD_REACTORS
330
2A
102
}
102
{ACAD_XDICTIONARY
360
3F0
102
}
330
2A
100
AcDbVisualStyle
  2
Basic
 70
     7
 71
     1
 72
     0
 73
     1
 90
        0
 40
0.6
 41
30.0
 62
     5
 63
     7
 74
     0
 91
        4
 64
     7
 65
   257
 75
     1
175
     1
 42
1.0
 92
        8
 66
     7
 43
1.0
 76
     1
 77
     6
 78
     2
 67
     7
 79
     5
170
     0
171
     0
290
     0
174
     0
 93
        1
 44
0.0
173
     0
291
     1
 45
0.0
1001
ACAD
1000
AcDbSavedByObjectVersion
1070
     0
  0
VISUALSTYLE
  5
36
102
{ACAD_REACTORS
330
2A
102
}
102
{ACAD_XDICTIONARY
360
3F8
102
}
330
2A
100
AcDbVisualStyle
  2
Brighten
 70
    12
 71
     2
 72
     2
 73
     0
 90
        0
 40
0.6
 41
30.0
 62
     5
 63
     7
 74
     1
 91
        4
 64
     7
 65
   257
 75
     1
175
     1
 42
1.0
 92
        8
 66
     7
 43
1.0
 76
     1
 77
     6
 78
     2
 67
     7
 79
     5
170
     0
171
     0
290
     0
174
     0
 93
        1
 44
50.0
173
     0
291
     1
 45
0.0
1001
ACAD
1000
AcDbSavedByObjectVersion
1070
     0
  0
VISUALSTYLE
  5
3A
102
{ACAD_REACTORS
330
2A
102
}
102
{ACAD_XDICTIONARY
360
400
102
}
330
2A
100
AcDbVisualStyle
  2
ColorChange
 70
    16
 71
     2
 72
     2
 73
     3
 90
        0
 40
0.6
 41
30.0
 62
     5
 63
     8
 74
     1
 91
        4
 64
     7
 65
   257
 75
     1
175
     1
 42
1.0
 92
        8
 66
     8
 43
1.0
 76
     1
 77
     6
 78
     2
 67
     7
 79
     5
170
     0
171
     0
290
     0
174
     0
 93
        1
 44
0.0
173
     0
291
     1
 45
0.0
1001
ACAD
1000
AcDbSavedByObjectVersion
1070
     0
  0
VISUALSTYLE
  5
34
102
{ACAD_REACTORS
330
2A
102
}
102
{ACAD_XDICTIONARY
360
3F4
102
}
330
2A
100
AcDbVisualStyle
  2
Conceptual
 70
     9
 71
     3
 72
     2
 73
     0
 90
        0
 40
0.6
 41
30.0
 62
     5
 63
     7
 74
     2
 91
        2
 64
     7
 65
   257
 75
     1
175
     1
 42
179.0
 92
        8
 66
     7
 43
1.0
 76
     1
 77
     6
 78
     2
 67
     7
 79
     3
170
     0
171
     0
290
     0
174
     0
 93
        1
 44
0.0
173
     0
291
     0
 45
0.0
1001
ACAD
1000
AcDbSavedByObjectVersion
1070
     0
  0
VISUALSTYLE
  5
35
102
{ACAD_REACTORS
330
2A
102
}
102
{ACAD_XDICTIONARY
360
3F6
102
}
330
2A
100
AcDbVisualStyle
  2
Dim
 70
    11
 71
     2
 72
     2
 73
     0
 90
        0
 40
0.6
 41
30.0
 62
     5
 63
     7
 74
     1
 91
        4
 64
     7
 65
   257
 75
     1
175
     1
 42
1.0
 92
        8
 66
     7
 43
1.0
 76
     1
 77
     6
 78
     2
 67
     7
 79
     5
170
     0
171
     0
290
     0
174
     0
 93
        1
 44
-50.0
173
     0
291
     1
 45
0.0
1001
ACAD
1000
AcDbSavedByObjectVersion
1070
     0
  0
VISUALSTYLE
  5
3D
102
{ACAD_REACTORS
330
2A
102
}
102
{ACAD_XDICTIONARY
360
406
102
}
330
2A
100
AcDbVisualStyle
  2
EdgeColorOff
 70
    22
 71
     2
 72
     2
 73
     0
 90
        0
 40
0.6
 41
30.0
 62
     5
 63
     7
 74
     1
 91
        4
 64
     7
 65
   257
 75
     1
175
     1
 42
1.0
 92
        8
 66
     7
 43
1.0
 76
     1
 77
     6
 78
     2
 67
     7
 79
     5
170
     0
171
     0
290
     0
174
     0
 93
        1
 44
0.0
173
     0
291
     1
 45
0.0
1001
ACAD
1000
AcDbSavedByObjectVersion
1070
     0
  0
VISUALSTYLE
  5
39
102
{ACAD_REACTORS
330
2A
102
}
102
{ACAD_XDICTIONARY
360
3FE
102
}
330
2A
100
AcDbVisualStyle
  2
Facepattern
 70
    15
 71
     2
 72
     2
 73
     0
 90
        0
 40
0.6
 41
30.0
 62
     5
 63
     7
 74
     1
 91
        4
 64
     7
 65
   257
 75
     1
175
     1
 42
1.0
 92
        8
 66
     7
 43
1.0
 76
     1
 77
     6
 78
     2
 67
     7
 79
     5
170
     0
171
     0
290
     0
174
     0
 93
        1
 44
0.0
173
     0
291
     1
 45
0.0
1001
ACAD
1000
AcDbSavedByObjectVersion
1070
     0
  0
VISUALSTYLE
  5
2B
102
{ACAD_REACTORS
330
2A
102
}
102
{ACAD_XDICTIONARY
360
3E2
102
}
330
2A
100
AcDbVisualStyle
  2
Flat
 70
     0
 71
     2
 72
     1
 73
     1
 90
        2
 40
0.6
 41
30.0
 62
     5
 63
     7
 74
     0
 91
        0
 64
     7
 65
   257
 75
     1
175
     1
 42
1.0
 92
        8
 66
     7
 43
1.0
 76
     1
 77
     6
 78
     2
 67
     7
 79
     5
170
     0
171
     0
290
     0
174
     0
 93
       13
 44
0.0
173
     0
291
     1
 45
0.0
1001
ACAD
1000
AcDbSavedByObjectVersion
1070
     0
  0
VISUALSTYLE
  5
2C
102
{ACAD_REACTORS
330
2A
102
}
102
{ACAD_XDICTIONARY
360
3E4
102
}
330
2A
100
AcDbVisualStyle
  2
FlatWithEdges
 70
     1
 71
     2
 72
     1
 73
     1
 90
        2
 40
0.6
 41
30.0
 62
     5
 63
     7
 74
     1
 91
        0
 64
     7
 65
   257
 75
     1
175
     1
 42
1.0
 92
        0
 66
   257
 43
1.0
 76
     1
 77
     6
 78
     2
 67
     7
 79
     5
170
     0
171
     0
290
     0
174
     0
 93
       13
 44
0.0
173
     0
291
     1
 45
0.0
1001
ACAD
1000
AcDbSavedByObjectVersion
1070
     0
  0
VISUALSTYLE
  5
2D
102
{ACAD_REACTORS
330
2A
102
}
102
{ACAD_XDICTIONARY
360
3E6
102
}
330
2A
100
AcDbVisualStyle
  2
Gouraud
 70
     2
 71
     2
 72
     2
 73
     1
 90
        2
 40
0.6
 41
30.0
 62
     5
 63
     7
 74
     0
 91
        0
 64
     7
 65
   257
 75
     1
175
     1
 42
1.0
 92
        0
 66
     7
 43
1.0
 76
     1
 77
     6
 78
     2
 67
     7
 79
     5
170
     0
171
     0
290
     0
174
     0
 93
       13
 44
0.0
173
     0
291
     1
 45
0.0
1001
ACAD
1000
AcDbSavedByObjectVersion
1070
     0
  0
VISUALSTYLE
  5
2E
102
{ACAD_REACTORS
330
2A
102
}
102
{ACAD_XDICTIONARY
360
3E8
102
}
330
2A
100
AcDbVisualStyle
  2
GouraudWithEdges
 70
     3
 71
     2
 72
     2
 73
     1
 90
        2
 40
0.6
 41
30.0
 62
     5
 63
     7
 74
     1
 91
        0
 64
     7
 65
   257
 75
     1
175
     1
 42
1.0
 92
        0
 66
   257
 43
1.0
 76
     1
 77
     6
 78
     2
 67
     7
 79
     5
170
     0
171
     0
290
     0
174
     0
 93
       13
 44
0.0
173
     0
291
     1
 45
0.0
1001
ACAD
1000
AcDbSavedByObjectVersion
1070
     0
  0
VISUALSTYLE
  5
31
102
{ACAD_REACTORS
330
2A
102
}
102
{ACAD_XDICTIONARY
360
3EE
102
}
330
2A
100
AcDbVisualStyle
  2
Hidden
 70
     6
 71
     1
 72
     2
 73
     2
 90
        0
 40
0.6
 41
30.0
 62
     5
 63
     7
 74
     2
 91
        2
 64
     7
 65
   257
 75
     2
175
     1
 42
40.0
 92
        0
 66
   257
 43
1.0
 76
     1
 77
     6
 78
     2
 67
     7
 79
     3
170
     0
171
     0
290
     0
174
     0
 93
        1
 44
0.0
173
     0
291
     0
 45
0.0
1001
ACAD
1000
AcDbSavedByObjectVersion
1070
     0
  0
VISUALSTYLE
  5
3B
102
{ACAD_REACTORS
330
2A
102
}
102
{ACAD_XDICTIONARY
360
402
102
}
330
2A
100
AcDbVisualStyle
  2
JitterOff
 70
    20
 71
     2
 72
     2
 73
     0
 90
        0
 40
0.6
 41
30.0
 62
     5
 63
     7
 74
     1
 91
        4
 64
     7
 65
   257
 75
     1
175
     1
 42
1.0
 92
       10
 66
     7
 43
1.0
 76
     1
 77
     6
 78
     2
 67
     7
 79
     5
170
     0
171
     0
290
     0
174
     0
 93
        1
 44
0.0
173
     0
291
     1
 45
0.0
1001
ACAD
1000
AcDbSavedByObjectVersion
1070
     0
  0
VISUALSTYLE
  5
38
102
{ACAD_REACTORS
330
2A
102
}
102
{ACAD_XDICTIONARY
360
3FC
102
}
330
2A
100
AcDbVisualStyle
  2
Linepattern
 70
    14
 71
     2
 72
     2
 73
     0
 90
        0
 40
0.6
 41
30.0
 62
     5
 63
     7
 74
     1
 91
        4
 64
     7
 65
   257
 75
     7
175
     7
 42
1.0
 92
        8
 66
     7
 43
1.0
 76
     1
 77
     6
 78
     2
 67
     7
 79
     5
170
     0
171
     0
290
     0
174
     0
 93
        1
 44
0.0
173
     0
291
     1
 45
0.0
1001
ACAD
1000
AcDbSavedByObjectVersion
1070
     0
  0
VISUALSTYLE
  5
3C
102
{ACAD_REACTORS
330
2A
102
}
102
{ACAD_XDICTIONARY
360
404
102
}
330
2A
100
AcDbVisualStyle
  2
OverhangOff
 70
    21
 71
     2
 72
     2
 73
     0
 90
        0
 40
0.6
 41
30.0
 62
     5
 63
     7
 74
     1
 91
        4
 64
     7
 65
   257
 75
     1
175
     1
 42
1.0
 92
        9
 66
     7
 43
1.0
 76
     1
 77
     6
 78
     2
 67
     7
 79
     5
170
     0
171
     0
290
     0
174
     0
 93
        1
 44
0.0
173
     0
291
     1
 45
0.0
1001
ACAD
1000
AcDbSavedByObjectVersion
1070
     0
  0
VISUALSTYLE
  5
33
102
{ACAD_REACTORS
330
2A
102
}
102
{ACAD_XDICTIONARY
360
3F2
102
}
330
2A
100
AcDbVisualStyle
  2
Realistic
 70
     8
 71
     2
 72
     3
 73
     0
 90
        2
 40
0.6
 41
30.0
 62
     5
 63
     7
 74
     0
 91
        0
 64
     7
 65
   257
 75
     1
175
     1
 42
1.0
 92
        8
 66
   257
 43
1.0
 76
     1
 77
     6
 78
     2
 67
     7
 79
     3
170
     0
171
     0
290
     0
174
     0
 93
       13
 44
0.0
173
     0
291
     0
 45
0.0
1001
ACAD
1000
AcDbSavedByObjectVersion
1070
     0
  0
VISUALSTYLE
  5
42
102
{ACAD_REACTORS
330
2A
102
}
102
{ACAD_XDICTIONARY
360
410
102
}
330
2A
100
AcDbVisualStyle
  2
Shaded
 70
    27
 71
     2
 72
     2
 73
     1
 90
        2
 40
0.6
 41
30.0
 62
     5
 63
     7
 74
     0
 91
        4
 64
     7
 65
   257
 75
     1
175
     1
 42
1.0
 92
        8
 66
   257
 43
1.0
 76
     1
 77
     6
 78
     2
 67
     8
 79
     3
170
     0
171
     0
290
     0
174
     0
 93
        5
 44
0.0
173
     0
291
     0
 45
0.0
1001
ACAD
1000
AcDbSavedByObjectVersion
1070
     0
  0
VISUALSTYLE
  5
41
102
{ACAD_REACTORS
330
2A
102
}
102
{ACAD_XDICTIONARY
360
40E
102
}
330
2A
100
AcDbVisualStyle
  2
Shaded with edges
 70
    26
 71
     2
 72
     2
 73
     1
 90
        2
 40
0.6
 41
30.0
 62
     5
 63
     7
 74
     1
 91
       10
 64
     7
 65
   257
 75
     2
175
     1
 42
1.0
 92
        8
 66
   257
 43
1.0
 76
     1
 77
     6
 78
     2
 67
     7
 79
     3
170
     0
171
     0
290
     0
174
     0
 93
        5
 44
0.0
173
     0
291
     0
 45
0.0
1001
ACAD
1000
AcDbSavedByObjectVersion
1070
     0
  0
VISUALSTYLE
  5
3E
102
{ACAD_REACTORS
330
2A
102
}
102
{ACAD_XDICTIONARY
360
408
102
}
330
2A
100
AcDbVisualStyle
  2
Shades of Gray
 70
    23
 71
     2
 72
     2
 73
     3
 90
        0
 40
0.6
 41
30.0
 62
     5
 63
     7
 74
     2
 91
        2
 64
     7
 65
     7
 75
     1
175
     1
 42
40.0
 92
        8
 66
     7
 43
1.0
 76
     1
 77
     6
 78
     2
 67
     7
 79
     3
170
     0
171
     0
290
     0
174
     0
 93
        1
 44
0.0
173
     0
291
     0
 45
0.0
1001
ACAD
1000
AcDbSavedByObjectVersion
1070
     0
  0
VISUALSTYLE
  5
3F
102
{ACAD_REACTORS
330
2A
102
}
102
{ACAD_XDICTIONARY
360
40A
102
}
330
2A
100
AcDbVisualStyle
  2
Sketchy
 70
    24
 71
     1
 72
     2
 73
     2
 90
        0
 40
0.6
 41
30.0
 62
     5
 63
     7
 74
     2
 91
        2
 64
     7
 65
     7
 75
     1
175
     1
 42
40.0
 92
       11
 66
     7
 43
1.0
 76
     1
 77
     6
 78
     2
 67
     7
 79
     6
170
     0
171
     0
290
     0
174
     0
 93
        1
 44
0.0
173
     0
291
     0
 45
0.0
1001
ACAD
1000
AcDbSavedByObjectVersion
1070
     0
  0
VISUALSTYLE
  5
37
102
{ACAD_REACTORS
330
2A
102
}
102
{ACAD_XDICTIONARY
360
3FA
102
}
330
2A
100
AcDbVisualStyle
  2
Thicken
 70
    13
 71
     2
 72
     2
 73
     0
 90
        0
 40
0.6
 41
30.0
 62
     5
 63
     7
 74
     1
 91
        4
 64
     7
 65
   257
 75
     1
175
     1
 42
1.0
 92
       12
 66
     7
 43
1.0
 76
     1
 77
     6
 78
     2
 67
     7
 79
     5
170
     0
171
     0
290
     0
174
     0
 93
        1
 44
0.0
173
     0
291
     1
 45
0.0
1001
ACAD
1000
AcDbSavedByObjectVersion
1070
     0
  0
VISUALSTYLE
  5
30
102
{ACAD_REACTORS
330
2A
102
}
102
{ACAD_XDICTIONARY
360
3EC
102
}
330
2A
100
AcDbVisualStyle
  2
Wireframe
 70
     5
 71
     0
 72
     2
 73
     0
 90
        0
 40
0.6
 41
30.0
 62
     5
 63
     7
 74
     1
 91
        4
 64
     7
 65
   257
 75
     1
175
     1
 42
1.0
 92
        0
 66
   257
 43
1.0
 76
     1
 77
     6
 78
     2
 67
     7
 79
     3
170
     0
171
     0
290
     0
174
     0
 93
        1
 44
0.0
173
     0
291
     0
 45
0.0
1001
ACAD
1000
AcDbSavedByObjectVersion
1070
     0
  0
VISUALSTYLE
  5
40
102
{ACAD_REACTORS
330
2A
102
}
102
{ACAD_XDICTIONARY
360
40C
102
}
330
2A
100
AcDbVisualStyle
  2
X-Ray
 70
    25
 71
     2
 72
     2
 73
     1
 90
        1
 40
0.5
 41
30.0
 62
     5
 63
     7
 74
     1
 91
        0
 64
     7
 65
   257
 75
     1
175
     1
 42
1.0
 92
        8
 66
     7
 43
1.0
 76
     1
 77
     6
 78
     2
 67
     7
 79
     3
170
     0
171
     0
290
     0
174
     0
 93
       13
 44
0.0
173
     0
291
     0
 45
0.0
1001
ACAD
1000
AcDbSavedByObjectVersion
1070
     0
  0
DICTIONARYVAR
  5
3E0
102
{ACAD_REACTORS
330
3CE
102
}
330
3CE
100
DictionaryVariables
280
     0
  1
1:1
  0
DICTIONARYVAR
  5
3D5
102
{ACAD_REACTORS
330
3CE
102
}
330
3CE
100
DictionaryVariables
280
     0
  1
3.500000
  0
DICTIONARYVAR
  5
3D6
102
{ACAD_REACTORS
330
3CE
102
}
330
3CE
100
DictionaryVariables
280
     0
  1
acadiso.lin
  0
DICTIONARYVAR
  5
3D0
102
{ACAD_REACTORS
330
3CE
102
}
330
3CE
100
DictionaryVariables
280
     0
  1
Standard
  0
DICTIONARYVAR
  5
3CF
102
{ACAD_REACTORS
330
3CE
102
}
330
3CE
100
DictionaryVariables
280
     0
  1
Standard
  0
DICTIONARYVAR
  5
3D7
102
{ACAD_REACTORS
330
3CE
102
}
330
3CE
100
DictionaryVariables
280
     0
  1
2
  0
DICTIONARYVAR
  5
3D8
102
{ACAD_REACTORS
330
3CE
102
}
330
3CE
100
DictionaryVariables
280
     0
  1
1
  0
DICTIONARYVAR
  5
3E1
102
{ACAD_REACTORS
330
3CE
102
}
330
3CE
100
DictionaryVariables
280
     0
  1
1
  0
DICTIONARYVAR
  5
3D2
102
{ACAD_REACTORS
330
3CE
102
}
330
3CE
100
DictionaryVariables
280
     0
  1
80.000000
  0
DICTIONARYVAR
  5
3D1
102
{ACAD_REACTORS
330
3CE
102
}
330
3CE
100
DictionaryVariables
280
     0
  1
5.000000
  0
DICTIONARY
  5
414
330
45
100
AcDbDictionary
280
     1
281
     1
  3
ACAD_XREC_ROUNDTRIP
360
415
  0
DICTIONARY
  5
412
330
44
100
AcDbDictionary
280
     1
281
     1
  3
ACAD_XREC_ROUNDTRIP
360
413
  0
DICTIONARY
  5
416
330
46
100
AcDbDictionary
280
     1
281
     1
  3
ACAD_XREC_ROUNDTRIP
360
417
  0
DICTIONARY
  5
419
330
6C
100
AcDbDictionary
280
     1
281
     1
  3
ACAD_XREC_ROUNDTRIP
360
41A
  0
DICTIONARY
  5
3EA
330
2F
100
AcDbDictionary
280
     1
281
     1
  3
ACAD_XREC_ROUNDTRIP
360
3EB
  0
DICTIONARY
  5
3F0
330
32
100
AcDbDictionary
280
     1
281
     1
  3
ACAD_XREC_ROUNDTRIP
360
3F1
  0
DICTIONARY
  5
3F8
330
36
100
AcDbDictionary
280
     1
281
     1
  3
ACAD_XREC_ROUNDTRIP
360
3F9
  0
DICTIONARY
  5
400
330
3A
100
AcDbDictionary
280
     1
281
     1
  3
ACAD_XREC_ROUNDTRIP
360
401
  0
DICTIONARY
  5
3F4
330
34
100
AcDbDictionary
280
     1
281
     1
  3
ACAD_XREC_ROUNDTRIP
360
3F5
  0
DICTIONARY
  5
3F6
330
35
100
AcDbDictionary
280
     1
281
     1
  3
ACAD_XREC_ROUNDTRIP
360
3F7
  0
DICTIONARY
  5
406
330
3D
100
AcDbDictionary
280
     1
281
     1
  3
ACAD_XREC_ROUNDTRIP
360
407
  0
DICTIONARY
  5
3FE
330
39
100
AcDbDictionary
280
     1
281
     1
  3
ACAD_XREC_ROUNDTRIP
360
3FF
  0
DICTIONARY
  5
3E2
330
2B
100
AcDbDictionary
280
     1
281
     1
  3
ACAD_XREC_ROUNDTRIP
360
3E3
  0
DICTIONARY
  5
3E4
330
2C
100
AcDbDictionary
280
     1
281
     1
  3
ACAD_XREC_ROUNDTRIP
360
3E5
  0
DICTIONARY
  5
3E6
330
2D
100
AcDbDictionary
280
     1
281
     1
  3
ACAD_XREC_ROUNDTRIP
360
3E7
  0
DICTIONARY
  5
3E8
330
2E
100
AcDbDictionary
280
     1
281
     1
  3
ACAD_XREC_ROUNDTRIP
360
3E9
  0
DICTIONARY
  5
3EE
330
31
100
AcDbDictionary
280
     1
281
     1
  3
ACAD_XREC_ROUNDTRIP
360
3EF
  0
DICTIONARY
  5
402
330
3B
100
AcDbDictionary
280
     1
281
     1
  3
ACAD_XREC_ROUNDTRIP
360
403
  0
DICTIONARY
  5
3FC
330
38
100
AcDbDictionary
280
     1
281
     1
  3
ACAD_XREC_ROUNDTRIP
360
3FD
  0
DICTIONARY
  5
404
330
3C
100
AcDbDictionary
280
     1
281
     1
  3
ACAD_XREC_ROUNDTRIP
360
405
  0
DICTIONARY
  5
3F2
330
33
100
AcDbDictionary
280
     1
281
     1
  3
ACAD_XREC_ROUNDTRIP
360
3F3
  0
DICTIONARY
  5
410
330
42
100
AcDbDictionary
280
     1
281
     1
  3
ACAD_XREC_ROUNDTRIP
360
411
  0
DICTIONARY
  5
40E
330
41
100
AcDbDictionary
280
     1
281
     1
  3
ACAD_XREC_ROUNDTRIP
360
40F
  0
DICTIONARY
  5
408
330
3E
100
AcDbDictionary
280
     1
281
     1
  3
ACAD_XREC_ROUNDTRIP
360
409
  0
DICTIONARY
  5
40A
330
3F
100
AcDbDictionary
280
     1
281
     1
  3
ACAD_XREC_ROUNDTRIP
360
40B
  0
DICTIONARY
  5
3FA
330
37
100
AcDbDictionary
280
     1
281
     1
  3
ACAD_XREC_ROUNDTRIP
360
3FB
  0
DICTIONARY
  5
3EC
330
30
100
AcDbDictionary
280
     1
281
     1
  3
ACAD_XREC_ROUNDTRIP
360
3ED
  0
DICTIONARY
  5
40C
330
40
100
AcDbDictionary
280
     1
281
     1
  3
ACAD_XREC_ROUNDTRIP
360
40D
  0
XRECORD
  5
415
102
{ACAD_REACTORS
330
414
102
}
330
414
100
AcDbXrecord
280
     1
102
MATERIAL
148
0.0
149
0.0
149
0.0
 93
        0
 94
      127
282
     0
 72
     1
 77
     1
171
     1
175
     1
179
     1
273
     0
  0
XRECORD
  5
413
102
{ACAD_REACTORS
330
412
102
}
330
412
100
AcDbXrecord
280
     1
102
MATERIAL
148
0.0
149
0.0
149
0.0
 93
        0
 94
      127
282
     0
 72
     1
 77
     1
171
     1
175
     1
179
     1
273
     0
  0
XRECORD
  5
417
102
{ACAD_REACTORS
330
416
102
}
330
416
100
AcDbXrecord
280
     1
102
MATERIAL
148
0.0
149
0.0
149
0.0
 93
        0
 94
      127
282
     0
 72
     1
 77
     1
171
     1
175
     1
179
     1
273
     0
  0
XRECORD
  5
41A
102
{ACAD_REACTORS
330
419
102
}
330
419
100
AcDbXrecord
280
     1
102
ACAD_ROUNDTRIP_2010_MLEADER_STYLE
  0
XRECORD
  5
3EB
102
{ACAD_REACTORS
330
3EA
102
}
330
3EA
100
AcDbXrecord
280
     1
102
RTVSPropertyOp0
 70
     1
102
RTVSPropertyOp1
 70
     1
102
RTVSPropertyOp2
 70
     1
102
RTVSPropertyOp3
 70
     1
102
RTVSPropertyOp4
 70
     1
102
RTVSPropertyOp5
 70
     1
102
RTVSPropertyOp6
 70
     1
102
RTVSPropertyOp7
 70
     1
102
RTVSPropertyOp8
 70
     1
102
RTVSPropertyOp9
 70
     1
102
RTVSPropertyOp10
 70
     1
102
RTVSPropertyOp11
 70
     1
102
RTVSPropertyOp12
 70
     1
102
RTVSPropertyOp13
 70
     1
102
RTVSPropertyOp14
 70
     1
102
RTVSPropertyOp15
 70
     1
102
RTVSPropertyOp16
 70
     1
102
RTVSPropertyOp17
 70
     1
102
RTVSPropertyOp18
 70
     1
102
RTVSPropertyOp19
 70
     1
102
RTVSPropertyOp20
 70
     1
102
RTVSPropertyOp21
 70
     1
102
RTVSPropertyOp22
 70
     1
102
RTVSPropertyOp23
 70
     1
102
RTVSPropertyOp24
 70
     1
102
RTVSPropertyOp25
 70
     1
102
RTVSPropertyOp26
 70
     1
102
RTVSPropertyOp27
 70
     1
102
RTVSPropertyOp28
 70
     1
102
RTVSPropertyOp29
 70
     1
102
RTVSPropertyOp30
 70
     1
102
RTVSPropertyOp31
 70
     1
102
RTVSPropertyOp32
 70
     1
102
RTVSPropertyOp33
 70
     1
102
RTVSPropertyOp34
 70
     1
102
RTVSPropertyOp35
 70
     1
102
RTVSPropertyOp36
 70
     1
102
RTVSPropertyOp37
 70
     1
102
RTVSPropertyOp38
 70
     1
102
RTVSPropertyOp39
 70
     1
102
RTVSPropertyOp40
 70
     1
102
RTVSPropertyOp41
 70
     1
102
RTVSPropertyOp42
 70
     1
102
RTVSPropertyOp43
 70
     1
102
RTVSPropertyOp44
 70
     1
102
RTVSPropertyOp45
 70
     1
102
RTVSPropertyOp46
 70
     1
102
RTVSPropertyOp47
 70
     1
102
RTVSPropertyOp48
 70
     1
102
RTVSPropertyOp49
 70
     1
102
RTVSPropertyOp50
 70
     1
102
RTVSPropertyOp51
 70
     0
102
RTVSPropertyOp52
 70
     0
102
RTVSPropertyOp53
 70
     1
102
RTVSPropertyOp54
 70
     1
102
RTVSPropertyOp55
 70
     1
102
RTVSPropertyOp56
 70
     1
102
RTVSPropertyOp57
 70
     1
102
RTVSPost2010Prop28
280
     1
102
RTVSPost2010PropOp28
 70
     1
102
RTVSPost2010Prop29
280
     1
102
RTVSPost2010PropOp29
 70
     1
102
RTVSPost2010Prop30
280
     0
102
RTVSPost2010PropOp30
 70
     1
102
RTVSPost2010Prop31
280
     0
102
RTVSPost2010PropOp31
 70
     1
102
RTVSPost2010Prop32
280
     0
102
RTVSPost2010PropOp32
 70
     1
102
RTVSPost2010Prop33
280
     0
102
RTVSPost2010PropOp33
 70
     1
102
RTVSPost2010Prop34
280
     0
102
RTVSPost2010PropOp34
 70
     1
102
RTVSPost2010Prop35
280
     0
102
RTVSPost2010PropOp35
 70
     1
102
RTVSPost2010Prop36
280
     0
102
RTVSPost2010PropOp36
 70
     1
102
RTVSPost2010Prop37
 90
       50
102
RTVSPost2010PropOp37
 70
     1
102
RTVSPost2010Prop38
140
0.0
102
RTVSPost2010PropOp38
 70
     1
102
RTVSPost2010Prop39
140
1.0
102
RTVSPost2010PropOp39
 70
     1
102
RTVSPost2010Prop40
 90
        0
102
RTVSPost2010PropOp40
 70
     1
102
RTVSPost2010Prop41ColorIndex
 90
       18
102
RTVSPost2010Prop41ColorRGB
 90
        0
102
RTVSPost2010PropOp41
 70
     1
102
RTVSPost2010Prop42
 90
       50
102
RTVSPost2010PropOp42
 70
     1
102
RTVSPost2010Prop43
 90
        3
102
RTVSPost2010PropOp43
 70
     1
102
RTVSPost2010Prop44ColorIndex
 90
        5
102
RTVSPost2010Prop44ColorRGB
 90
      255
102
RTVSPost2010PropOp44
 70
     1
102
RTVSPost2010Prop45
280
     0
102
RTVSPost2010PropOp45
 70
     1
102
RTVSPost2010Prop46
 90
       50
102
RTVSPost2010PropOp46
 70
     1
102
RTVSPost2010Prop47
 90
       50
102
RTVSPost2010PropOp47
 70
     1
102
RTVSPost2010Prop48
 90
       50
102
RTVSPost2010PropOp48
 70
     1
102
RTVSPost2010Prop49
280
     0
102
RTVSPost2010PropOp49
 70
     1
102
RTVSPost2010Prop50
 90
       50
102
RTVSPost2010PropOp50
 70
     1
102
RTVSPost2010Prop51ColorIndex
 90
      256
102
RTVSPost2010Prop51ColorRGB
 90
-16777216
102
RTVSPost2010PropOp51
 70
     0
102
RTVSPost2010Prop52
140
1.0
102
RTVSPost2010PropOp52
 70
     0
102
RTVSPost2010Prop53
 90
        2
102
RTVSPost2010PropOp53
 70
     1
102
RTVSPost2010Prop54
  1
strokes_ogs.tif
102
RTVSPost2010PropOp54
 70
     1
102
RTVSPost2010Prop55
280
     0
102
RTVSPost2010PropOp55
 70
     1
102
RTVSPost2010Prop56
140
1.0
102
RTVSPost2010PropOp56
 70
     1
102
RTVSPost2010Prop57
140
1.0
102
RTVSPost2010PropOp57
 70
     1
  0
XRECORD
  5
3F1
102
{ACAD_REACTORS
330
3F0
102
}
330
3F0
100
AcDbXrecord
280
     1
102
RTVSPropertyOp0
 70
     1
102
RTVSPropertyOp1
 70
     1
102
RTVSPropertyOp2
 70
     1
102
RTVSPropertyOp3
 70
     1
102
RTVSPropertyOp4
 70
     1
102
RTVSPropertyOp5
 70
     1
102
RTVSPropertyOp6
 70
     1
102
RTVSPropertyOp7
 70
     1
102
RTVSPropertyOp8
 70
     1
102
RTVSPropertyOp9
 70
     1
102
RTVSPropertyOp10
 70
     1
102
RTVSPropertyOp11
 70
     1
102
RTVSPropertyOp12
 70
     1
102
RTVSPropertyOp13
 70
     1
102
RTVSPropertyOp14
 70
     1
102
RTVSPropertyOp15
 70
     1
102
RTVSPropertyOp16
 70
     1
102
RTVSPropertyOp17
 70
     1
102
RTVSPropertyOp18
 70
     1
102
RTVSPropertyOp19
 70
     1
102
RTVSPropertyOp20
 70
     1
102
RTVSPropertyOp21
 70
     1
102
RTVSPropertyOp22
 70
     1
102
RTVSPropertyOp23
 70
     1
102
RTVSPropertyOp24
 70
     1
102
RTVSPropertyOp25
 70
     1
102
RTVSPropertyOp26
 70
     1
102
RTVSPropertyOp27
 70
     1
102
RTVSPropertyOp28
 70
     1
102
RTVSPropertyOp29
 70
     1
102
RTVSPropertyOp30
 70
     1
102
RTVSPropertyOp31
 70
     1
102
RTVSPropertyOp32
 70
     1
102
RTVSPropertyOp33
 70
     1
102
RTVSPropertyOp34
 70
     1
102
RTVSPropertyOp35
 70
     1
102
RTVSPropertyOp36
 70
     1
102
RTVSPropertyOp37
 70
     1
102
RTVSPropertyOp38
 70
     1
102
RTVSPropertyOp39
 70
     1
102
RTVSPropertyOp40
 70
     1
102
RTVSPropertyOp41
 70
     1
102
RTVSPropertyOp42
 70
     1
102
RTVSPropertyOp43
 70
     1
102
RTVSPropertyOp44
 70
     1
102
RTVSPropertyOp45
 70
     1
102
RTVSPropertyOp46
 70
     1
102
RTVSPropertyOp47
 70
     1
102
RTVSPropertyOp48
 70
     1
102
RTVSPropertyOp49
 70
     1
102
RTVSPropertyOp50
 70
     1
102
RTVSPropertyOp51
 70
     0
102
RTVSPropertyOp52
 70
     0
102
RTVSPropertyOp53
 70
     1
102
RTVSPropertyOp54
 70
     1
102
RTVSPropertyOp55
 70
     1
102
RTVSPropertyOp56
 70
     1
102
RTVSPropertyOp57
 70
     1
102
RTVSPost2010Prop28
280
     0
102
RTVSPost2010PropOp28
 70
     1
102
RTVSPost2010Prop29
280
     1
102
RTVSPost2010PropOp29
 70
     1
102
RTVSPost2010Prop30
280
     1
102
RTVSPost2010PropOp30
 70
     1
102
RTVSPost2010Prop31
280
     0
102
RTVSPost2010PropOp31
 70
     1
102
RTVSPost2010Prop32
280
     0
102
RTVSPost2010PropOp32
 70
     1
102
RTVSPost2010Prop33
280
     0
102
RTVSPost2010PropOp33
 70
     1
102
RTVSPost2010Prop34
280
     0
102
RTVSPost2010PropOp34
 70
     1
102
RTVSPost2010Prop35
280
     0
102
RTVSPost2010PropOp35
 70
     1
102
RTVSPost2010Prop36
280
     0
102
RTVSPost2010PropOp36
 70
     1
102
RTVSPost2010Prop37
 90
       50
102
RTVSPost2010PropOp37
 70
     1
102
RTVSPost2010Prop38
140
0.0
102
RTVSPost2010PropOp38
 70
     1
102
RTVSPost2010Prop39
140
1.0
102
RTVSPost2010PropOp39
 70
     1
102
RTVSPost2010Prop40
 90
        0
102
RTVSPost2010PropOp40
 70
     1
102
RTVSPost2010Prop41ColorIndex
 90
       18
102
RTVSPost2010Prop41ColorRGB
 90
        0
102
RTVSPost2010PropOp41
 70
     1
102
RTVSPost2010Prop42
 90
       50
102
RTVSPost2010PropOp42
 70
     1
102
RTVSPost2010Prop43
 90
        3
102
RTVSPost2010PropOp43
 70
     1
102
RTVSPost2010Prop44ColorIndex
 90
        5
102
RTVSPost2010Prop44ColorRGB
 90
      255
102
RTVSPost2010PropOp44
 70
     1
102
RTVSPost2010Prop45
280
     0
102
RTVSPost2010PropOp45
 70
     1
102
RTVSPost2010Prop46
 90
       50
102
RTVSPost2010PropOp46
 70
     1
102
RTVSPost2010Prop47
 90
       50
102
RTVSPost2010PropOp47
 70
     1
102
RTVSPost2010Prop48
 90
       50
102
RTVSPost2010PropOp48
 70
     1
102
RTVSPost2010Prop49
280
     0
102
RTVSPost2010PropOp49
 70
     1
102
RTVSPost2010Prop50
 90
       50
102
RTVSPost2010PropOp50
 70
     1
102
RTVSPost2010Prop51ColorIndex
 90
      256
102
RTVSPost2010Prop51ColorRGB
 90
-16777216
102
RTVSPost2010PropOp51
 70
     0
102
RTVSPost2010Prop52
140
1.0
102
RTVSPost2010PropOp52
 70
     0
102
RTVSPost2010Prop53
 90
        2
102
RTVSPost2010PropOp53
 70
     1
102
RTVSPost2010Prop54
  1
strokes_ogs.tif
102
RTVSPost2010PropOp54
 70
     1
102
RTVSPost2010Prop55
280
     0
102
RTVSPost2010PropOp55
 70
     1
102
RTVSPost2010Prop56
140
1.0
102
RTVSPost2010PropOp56
 70
     1
102
RTVSPost2010Prop57
140
1.0
102
RTVSPost2010PropOp57
 70
     1
  0
XRECORD
  5
3F9
102
{ACAD_REACTORS
330
3F8
102
}
330
3F8
100
AcDbXrecord
280
     1
102
RTVSPropertyOp0
 70
     1
102
RTVSPropertyOp1
 70
     1
102
RTVSPropertyOp2
 70
     1
102
RTVSPropertyOp3
 70
     1
102
RTVSPropertyOp4
 70
     1
102
RTVSPropertyOp5
 70
     1
102
RTVSPropertyOp6
 70
     1
102
RTVSPropertyOp7
 70
     1
102
RTVSPropertyOp8
 70
     1
102
RTVSPropertyOp9
 70
     1
102
RTVSPropertyOp10
 70
     1
102
RTVSPropertyOp11
 70
     1
102
RTVSPropertyOp12
 70
     1
102
RTVSPropertyOp13
 70
     1
102
RTVSPropertyOp14
 70
     1
102
RTVSPropertyOp15
 70
     1
102
RTVSPropertyOp16
 70
     1
102
RTVSPropertyOp17
 70
     1
102
RTVSPropertyOp18
 70
     1
102
RTVSPropertyOp19
 70
     1
102
RTVSPropertyOp20
 70
     1
102
RTVSPropertyOp21
 70
     1
102
RTVSPropertyOp22
 70
     1
102
RTVSPropertyOp23
 70
     1
102
RTVSPropertyOp24
 70
     1
102
RTVSPropertyOp25
 70
     1
102
RTVSPropertyOp26
 70
     1
102
RTVSPropertyOp27
 70
     1
102
RTVSPropertyOp28
 70
     1
102
RTVSPropertyOp29
 70
     1
102
RTVSPropertyOp30
 70
     1
102
RTVSPropertyOp31
 70
     1
102
RTVSPropertyOp32
 70
     1
102
RTVSPropertyOp33
 70
     1
102
RTVSPropertyOp34
 70
     1
102
RTVSPropertyOp35
 70
     1
102
RTVSPropertyOp36
 70
     1
102
RTVSPropertyOp37
 70
     1
102
RTVSPropertyOp38
 70
     1
102
RTVSPropertyOp39
 70
     1
102
RTVSPropertyOp40
 70
     1
102
RTVSPropertyOp41
 70
     1
102
RTVSPropertyOp42
 70
     1
102
RTVSPropertyOp43
 70
     1
102
RTVSPropertyOp44
 70
     1
102
RTVSPropertyOp45
 70
     1
102
RTVSPropertyOp46
 70
     1
102
RTVSPropertyOp47
 70
     1
102
RTVSPropertyOp48
 70
     1
102
RTVSPropertyOp49
 70
     1
102
RTVSPropertyOp50
 70
     1
102
RTVSPropertyOp51
 70
     0
102
RTVSPropertyOp52
 70
     0
102
RTVSPropertyOp53
 70
     1
102
RTVSPropertyOp54
 70
     1
102
RTVSPropertyOp55
 70
     1
102
RTVSPropertyOp56
 70
     1
102
RTVSPropertyOp57
 70
     1
102
RTVSPost2010Prop28
280
     0
102
RTVSPost2010PropOp28
 70
     1
102
RTVSPost2010Prop29
280
     1
102
RTVSPost2010PropOp29
 70
     1
102
RTVSPost2010Prop30
280
     1
102
RTVSPost2010PropOp30
 70
     1
102
RTVSPost2010Prop31
280
     0
102
RTVSPost2010PropOp31
 70
     1
102
RTVSPost2010Prop32
280
     0
102
RTVSPost2010PropOp32
 70
     1
102
RTVSPost2010Prop33
280
     0
102
RTVSPost2010PropOp33
 70
     1
102
RTVSPost2010Prop34
280
     0
102
RTVSPost2010PropOp34
 70
     1
102
RTVSPost2010Prop35
280
     0
102
RTVSPost2010PropOp35
 70
     1
102
RTVSPost2010Prop36
280
     0
102
RTVSPost2010PropOp36
 70
     1
102
RTVSPost2010Prop37
 90
       50
102
RTVSPost2010PropOp37
 70
     1
102
RTVSPost2010Prop38
140
0.0
102
RTVSPost2010PropOp38
 70
     1
102
RTVSPost2010Prop39
140
1.0
102
RTVSPost2010PropOp39
 70
     1
102
RTVSPost2010Prop40
 90
        0
102
RTVSPost2010PropOp40
 70
     1
102
RTVSPost2010Prop41ColorIndex
 90
       18
102
RTVSPost2010Prop41ColorRGB
 90
        0
102
RTVSPost2010PropOp41
 70
     1
102
RTVSPost2010Prop42
 90
       50
102
RTVSPost2010PropOp42
 70
     1
102
RTVSPost2010Prop43
 90
        3
102
RTVSPost2010PropOp43
 70
     1
102
RTVSPost2010Prop44ColorIndex
 90
        5
102
RTVSPost2010Prop44ColorRGB
 90
      255
102
RTVSPost2010PropOp44
 70
     1
102
RTVSPost2010Prop45
280
     0
102
RTVSPost2010PropOp45
 70
     1
102
RTVSPost2010Prop46
 90
       50
102
RTVSPost2010PropOp46
 70
     1
102
RTVSPost2010Prop47
 90
       50
102
RTVSPost2010PropOp47
 70
     1
102
RTVSPost2010Prop48
 90
       50
102
RTVSPost2010PropOp48
 70
     1
102
RTVSPost2010Prop49
280
     0
102
RTVSPost2010PropOp49
 70
     1
102
RTVSPost2010Prop50
 90
       50
102
RTVSPost2010PropOp50
 70
     1
102
RTVSPost2010Prop51ColorIndex
 90
      256
102
RTVSPost2010Prop51ColorRGB
 90
-16777216
102
RTVSPost2010PropOp51
 70
     0
102
RTVSPost2010Prop52
140
1.0
102
RTVSPost2010PropOp52
 70
     0
102
RTVSPost2010Prop53
 90
        2
102
RTVSPost2010PropOp53
 70
     1
102
RTVSPost2010Prop54
  1
strokes_ogs.tif
102
RTVSPost2010PropOp54
 70
     1
102
RTVSPost2010Prop55
280
     0
102
RTVSPost2010PropOp55
 70
     1
102
RTVSPost2010Prop56
140
1.0
102
RTVSPost2010PropOp56
 70
     1
102
RTVSPost2010Prop57
140
1.0
102
RTVSPost2010PropOp57
 70
     1
  0
XRECORD
  5
401
102
{ACAD_REACTORS
330
400
102
}
330
400
100
AcDbXrecord
280
     1
102
RTVSPropertyOp0
 70
     1
102
RTVSPropertyOp1
 70
     1
102
RTVSPropertyOp2
 70
     1
102
RTVSPropertyOp3
 70
     1
102
RTVSPropertyOp4
 70
     1
102
RTVSPropertyOp5
 70
     1
102
RTVSPropertyOp6
 70
     1
102
RTVSPropertyOp7
 70
     1
102
RTVSPropertyOp8
 70
     1
102
RTVSPropertyOp9
 70
     1
102
RTVSPropertyOp10
 70
     1
102
RTVSPropertyOp11
 70
     1
102
RTVSPropertyOp12
 70
     1
102
RTVSPropertyOp13
 70
     1
102
RTVSPropertyOp14
 70
     1
102
RTVSPropertyOp15
 70
     1
102
RTVSPropertyOp16
 70
     1
102
RTVSPropertyOp17
 70
     1
102
RTVSPropertyOp18
 70
     1
102
RTVSPropertyOp19
 70
     1
102
RTVSPropertyOp20
 70
     1
102
RTVSPropertyOp21
 70
     1
102
RTVSPropertyOp22
 70
     1
102
RTVSPropertyOp23
 70
     1
102
RTVSPropertyOp24
 70
     1
102
RTVSPropertyOp25
 70
     1
102
RTVSPropertyOp26
 70
     1
102
RTVSPropertyOp27
 70
     1
102
RTVSPropertyOp28
 70
     1
102
RTVSPropertyOp29
 70
     1
102
RTVSPropertyOp30
 70
     1
102
RTVSPropertyOp31
 70
     1
102
RTVSPropertyOp32
 70
     1
102
RTVSPropertyOp33
 70
     1
102
RTVSPropertyOp34
 70
     1
102
RTVSPropertyOp35
 70
     1
102
RTVSPropertyOp36
 70
     1
102
RTVSPropertyOp37
 70
     1
102
RTVSPropertyOp38
 70
     1
102
RTVSPropertyOp39
 70
     1
102
RTVSPropertyOp40
 70
     1
102
RTVSPropertyOp41
 70
     1
102
RTVSPropertyOp42
 70
     1
102
RTVSPropertyOp43
 70
     1
102
RTVSPropertyOp44
 70
     1
102
RTVSPropertyOp45
 70
     1
102
RTVSPropertyOp46
 70
     1
102
RTVSPropertyOp47
 70
     1
102
RTVSPropertyOp48
 70
     1
102
RTVSPropertyOp49
 70
     1
102
RTVSPropertyOp50
 70
     1
102
RTVSPropertyOp51
 70
     0
102
RTVSPropertyOp52
 70
     0
102
RTVSPropertyOp53
 70
     1
102
RTVSPropertyOp54
 70
     1
102
RTVSPropertyOp55
 70
     1
102
RTVSPropertyOp56
 70
     1
102
RTVSPropertyOp57
 70
     1
102
RTVSPost2010Prop28
280
     0
102
RTVSPost2010PropOp28
 70
     1
102
RTVSPost2010Prop29
280
     1
102
RTVSPost2010PropOp29
 70
     1
102
RTVSPost2010Prop30
280
     1
102
RTVSPost2010PropOp30
 70
     1
102
RTVSPost2010Prop31
280
     0
102
RTVSPost2010PropOp31
 70
     1
102
RTVSPost2010Prop32
280
     0
102
RTVSPost2010PropOp32
 70
     1
102
RTVSPost2010Prop33
280
     0
102
RTVSPost2010PropOp33
 70
     1
102
RTVSPost2010Prop34
280
     0
102
RTVSPost2010PropOp34
 70
     1
102
RTVSPost2010Prop35
280
     0
102
RTVSPost2010PropOp35
 70
     1
102
RTVSPost2010Prop36
280
     0
102
RTVSPost2010PropOp36
 70
     1
102
RTVSPost2010Prop37
 90
       50
102
RTVSPost2010PropOp37
 70
     1
102
RTVSPost2010Prop38
140
0.0
102
RTVSPost2010PropOp38
 70
     1
102
RTVSPost2010Prop39
140
1.0
102
RTVSPost2010PropOp39
 70
     1
102
RTVSPost2010Prop40
 90
        0
102
RTVSPost2010PropOp40
 70
     1
102
RTVSPost2010Prop41ColorIndex
 90
       18
102
RTVSPost2010Prop41ColorRGB
 90
        0
102
RTVSPost2010PropOp41
 70
     1
102
RTVSPost2010Prop42
 90
       50
102
RTVSPost2010PropOp42
 70
     1
102
RTVSPost2010Prop43
 90
        3
102
RTVSPost2010PropOp43
 70
     1
102
RTVSPost2010Prop44ColorIndex
 90
        5
102
RTVSPost2010Prop44ColorRGB
 90
      255
102
RTVSPost2010PropOp44
 70
     1
102
RTVSPost2010Prop45
280
     0
102
RTVSPost2010PropOp45
 70
     1
102
RTVSPost2010Prop46
 90
       50
102
RTVSPost2010PropOp46
 70
     1
102
RTVSPost2010Prop47
 90
       50
102
RTVSPost2010PropOp47
 70
     1
102
RTVSPost2010Prop48
 90
       50
102
RTVSPost2010PropOp48
 70
     1
102
RTVSPost2010Prop49
280
     0
102
RTVSPost2010PropOp49
 70
     1
102
RTVSPost2010Prop50
 90
       50
102
RTVSPost2010PropOp50
 70
     1
102
RTVSPost2010Prop51ColorIndex
 90
      256
102
RTVSPost2010Prop51ColorRGB
 90
-16777216
102
RTVSPost2010PropOp51
 70
     0
102
RTVSPost2010Prop52
140
1.0
102
RTVSPost2010PropOp52
 70
     0
102
RTVSPost2010Prop53
 90
        2
102
RTVSPost2010PropOp53
 70
     1
102
RTVSPost2010Prop54
  1
strokes_ogs.tif
102
RTVSPost2010PropOp54
 70
     1
102
RTVSPost2010Prop55
280
     0
102
RTVSPost2010PropOp55
 70
     1
102
RTVSPost2010Prop56
140
1.0
102
RTVSPost2010PropOp56
 70
     1
102
RTVSPost2010Prop57
140
1.0
102
RTVSPost2010PropOp57
 70
     1
  0
XRECORD
  5
3F5
102
{ACAD_REACTORS
330
3F4
102
}
330
3F4
100
AcDbXrecord
280
     1
102
RTVSPropertyOp0
 70
     1
102
RTVSPropertyOp1
 70
     1
102
RTVSPropertyOp2
 70
     1
102
RTVSPropertyOp3
 70
     1
102
RTVSPropertyOp4
 70
     1
102
RTVSPropertyOp5
 70
     1
102
RTVSPropertyOp6
 70
     1
102
RTVSPropertyOp7
 70
     1
102
RTVSPropertyOp8
 70
     1
102
RTVSPropertyOp9
 70
     1
102
RTVSPropertyOp10
 70
     1
102
RTVSPropertyOp11
 70
     1
102
RTVSPropertyOp12
 70
     1
102
RTVSPropertyOp13
 70
     1
102
RTVSPropertyOp14
 70
     1
102
RTVSPropertyOp15
 70
     1
102
RTVSPropertyOp16
 70
     1
102
RTVSPropertyOp17
 70
     1
102
RTVSPropertyOp18
 70
     1
102
RTVSPropertyOp19
 70
     1
102
RTVSPropertyOp20
 70
     1
102
RTVSPropertyOp21
 70
     1
102
RTVSPropertyOp22
 70
     1
102
RTVSPropertyOp23
 70
     1
102
RTVSPropertyOp24
 70
     1
102
RTVSPropertyOp25
 70
     1
102
RTVSPropertyOp26
 70
     1
102
RTVSPropertyOp27
 70
     1
102
RTVSPropertyOp28
 70
     1
102
RTVSPropertyOp29
 70
     1
102
RTVSPropertyOp30
 70
     1
102
RTVSPropertyOp31
 70
     1
102
RTVSPropertyOp32
 70
     1
102
RTVSPropertyOp33
 70
     1
102
RTVSPropertyOp34
 70
     1
102
RTVSPropertyOp35
 70
     1
102
RTVSPropertyOp36
 70
     1
102
RTVSPropertyOp37
 70
     1
102
RTVSPropertyOp38
 70
     1
102
RTVSPropertyOp39
 70
     1
102
RTVSPropertyOp40
 70
     1
102
RTVSPropertyOp41
 70
     1
102
RTVSPropertyOp42
 70
     1
102
RTVSPropertyOp43
 70
     1
102
RTVSPropertyOp44
 70
     1
102
RTVSPropertyOp45
 70
     1
102
RTVSPropertyOp46
 70
     1
102
RTVSPropertyOp47
 70
     1
102
RTVSPropertyOp48
 70
     1
102
RTVSPropertyOp49
 70
     1
102
RTVSPropertyOp50
 70
     1
102
RTVSPropertyOp51
 70
     0
102
RTVSPropertyOp52
 70
     0
102
RTVSPropertyOp53
 70
     1
102
RTVSPropertyOp54
 70
     1
102
RTVSPropertyOp55
 70
     1
102
RTVSPropertyOp56
 70
     1
102
RTVSPropertyOp57
 70
     1
102
RTVSPost2010Prop28
280
     0
102
RTVSPost2010PropOp28
 70
     1
102
RTVSPost2010Prop29
280
     1
102
RTVSPost2010PropOp29
 70
     1
102
RTVSPost2010Prop30
280
     1
102
RTVSPost2010PropOp30
 70
     1
102
RTVSPost2010Prop31
280
     0
102
RTVSPost2010PropOp31
 70
     1
102
RTVSPost2010Prop32
280
     0
102
RTVSPost2010PropOp32
 70
     1
102
RTVSPost2010Prop33
280
     0
102
RTVSPost2010PropOp33
 70
     1
102
RTVSPost2010Prop34
280
     0
102
RTVSPost2010PropOp34
 70
     1
102
RTVSPost2010Prop35
280
     0
102
RTVSPost2010PropOp35
 70
     1
102
RTVSPost2010Prop36
280
     0
102
RTVSPost2010PropOp36
 70
     1
102
RTVSPost2010Prop37
 90
       50
102
RTVSPost2010PropOp37
 70
     1
102
RTVSPost2010Prop38
140
0.0
102
RTVSPost2010PropOp38
 70
     1
102
RTVSPost2010Prop39
140
1.0
102
RTVSPost2010PropOp39
 70
     1
102
RTVSPost2010Prop40
 90
        0
102
RTVSPost2010PropOp40
 70
     1
102
RTVSPost2010Prop41ColorIndex
 90
       18
102
RTVSPost2010Prop41ColorRGB
 90
        0
102
RTVSPost2010PropOp41
 70
     1
102
RTVSPost2010Prop42
 90
       50
102
RTVSPost2010PropOp42
 70
     1
102
RTVSPost2010Prop43
 90
        3
102
RTVSPost2010PropOp43
 70
     1
102
RTVSPost2010Prop44ColorIndex
 90
        5
102
RTVSPost2010Prop44ColorRGB
 90
      255
102
RTVSPost2010PropOp44
 70
     1
102
RTVSPost2010Prop45
280
     0
102
RTVSPost2010PropOp45
 70
     1
102
RTVSPost2010Prop46
 90
       50
102
RTVSPost2010PropOp46
 70
     1
102
RTVSPost2010Prop47
 90
       50
102
RTVSPost2010PropOp47
 70
     1
102
RTVSPost2010Prop48
 90
       50
102
RTVSPost2010PropOp48
 70
     1
102
RTVSPost2010Prop49
280
     0
102
RTVSPost2010PropOp49
 70
     1
102
RTVSPost2010Prop50
 90
       50
102
RTVSPost2010PropOp50
 70
     1
102
RTVSPost2010Prop51ColorIndex
 90
      256
102
RTVSPost2010Prop51ColorRGB
 90
-16777216
102
RTVSPost2010PropOp51
 70
     0
102
RTVSPost2010Prop52
140
1.0
102
RTVSPost2010PropOp52
 70
     0
102
RTVSPost2010Prop53
 90
        2
102
RTVSPost2010PropOp53
 70
     1
102
RTVSPost2010Prop54
  1
strokes_ogs.tif
102
RTVSPost2010PropOp54
 70
     1
102
RTVSPost2010Prop55
280
     0
102
RTVSPost2010PropOp55
 70
     1
102
RTVSPost2010Prop56
140
1.0
102
RTVSPost2010PropOp56
 70
     1
102
RTVSPost2010Prop57
140
1.0
102
RTVSPost2010PropOp57
 70
     1
  0
XRECORD
  5
3F7
102
{ACAD_REACTORS
330
3F6
102
}
330
3F6
100
AcDbXrecord
280
     1
102
RTVSPropertyOp0
 70
     1
102
RTVSPropertyOp1
 70
     1
102
RTVSPropertyOp2
 70
     1
102
RTVSPropertyOp3
 70
     1
102
RTVSPropertyOp4
 70
     1
102
RTVSPropertyOp5
 70
     1
102
RTVSPropertyOp6
 70
     1
102
RTVSPropertyOp7
 70
     1
102
RTVSPropertyOp8
 70
     1
102
RTVSPropertyOp9
 70
     1
102
RTVSPropertyOp10
 70
     1
102
RTVSPropertyOp11
 70
     1
102
RTVSPropertyOp12
 70
     1
102
RTVSPropertyOp13
 70
     1
102
RTVSPropertyOp14
 70
     1
102
RTVSPropertyOp15
 70
     1
102
RTVSPropertyOp16
 70
     1
102
RTVSPropertyOp17
 70
     1
102
RTVSPropertyOp18
 70
     1
102
RTVSPropertyOp19
 70
     1
102
RTVSPropertyOp20
 70
     1
102
RTVSPropertyOp21
 70
     1
102
RTVSPropertyOp22
 70
     1
102
RTVSPropertyOp23
 70
     1
102
RTVSPropertyOp24
 70
     1
102
RTVSPropertyOp25
 70
     1
102
RTVSPropertyOp26
 70
     1
102
RTVSPropertyOp27
 70
     1
102
RTVSPropertyOp28
 70
     1
102
RTVSPropertyOp29
 70
     1
102
RTVSPropertyOp30
 70
     1
102
RTVSPropertyOp31
 70
     1
102
RTVSPropertyOp32
 70
     1
102
RTVSPropertyOp33
 70
     1
102
RTVSPropertyOp34
 70
     1
102
RTVSPropertyOp35
 70
     1
102
RTVSPropertyOp36
 70
     1
102
RTVSPropertyOp37
 70
     1
102
RTVSPropertyOp38
 70
     1
102
RTVSPropertyOp39
 70
     1
102
RTVSPropertyOp40
 70
     1
102
RTVSPropertyOp41
 70
     1
102
RTVSPropertyOp42
 70
     1
102
RTVSPropertyOp43
 70
     1
102
RTVSPropertyOp44
 70
     1
102
RTVSPropertyOp45
 70
     1
102
RTVSPropertyOp46
 70
     1
102
RTVSPropertyOp47
 70
     1
102
RTVSPropertyOp48
 70
     1
102
RTVSPropertyOp49
 70
     1
102
RTVSPropertyOp50
 70
     1
102
RTVSPropertyOp51
 70
     0
102
RTVSPropertyOp52
 70
     0
102
RTVSPropertyOp53
 70
     1
102
RTVSPropertyOp54
 70
     1
102
RTVSPropertyOp55
 70
     1
102
RTVSPropertyOp56
 70
     1
102
RTVSPropertyOp57
 70
     1
102
RTVSPost2010Prop28
280
     0
102
RTVSPost2010PropOp28
 70
     1
102
RTVSPost2010Prop29
280
     1
102
RTVSPost2010PropOp29
 70
     1
102
RTVSPost2010Prop30
280
     1
102
RTVSPost2010PropOp30
 70
     1
102
RTVSPost2010Prop31
280
     0
102
RTVSPost2010PropOp31
 70
     1
102
RTVSPost2010Prop32
280
     0
102
RTVSPost2010PropOp32
 70
     1
102
RTVSPost2010Prop33
280
     0
102
RTVSPost2010PropOp33
 70
     1
102
RTVSPost2010Prop34
280
     0
102
RTVSPost2010PropOp34
 70
     1
102
RTVSPost2010Prop35
280
     0
102
RTVSPost2010PropOp35
 70
     1
102
RTVSPost2010Prop36
280
     0
102
RTVSPost2010PropOp36
 70
     1
102
RTVSPost2010Prop37
 90
       50
102
RTVSPost2010PropOp37
 70
     1
102
RTVSPost2010Prop38
140
0.0
102
RTVSPost2010PropOp38
 70
     1
102
RTVSPost2010Prop39
140
1.0
102
RTVSPost2010PropOp39
 70
     1
102
RTVSPost2010Prop40
 90
        0
102
RTVSPost2010PropOp40
 70
     1
102
RTVSPost2010Prop41ColorIndex
 90
       18
102
RTVSPost2010Prop41ColorRGB
 90
        0
102
RTVSPost2010PropOp41
 70
     1
102
RTVSPost2010Prop42
 90
       50
102
RTVSPost2010PropOp42
 70
     1
102
RTVSPost2010Prop43
 90
        3
102
RTVSPost2010PropOp43
 70
     1
102
RTVSPost2010Prop44ColorIndex
 90
        5
102
RTVSPost2010Prop44ColorRGB
 90
      255
102
RTVSPost2010PropOp44
 70
     1
102
RTVSPost2010Prop45
280
     0
102
RTVSPost2010PropOp45
 70
     1
102
RTVSPost2010Prop46
 90
       50
102
RTVSPost2010PropOp46
 70
     1
102
RTVSPost2010Prop47
 90
       50
102
RTVSPost2010PropOp47
 70
     1
102
RTVSPost2010Prop48
 90
       50
102
RTVSPost2010PropOp48
 70
     1
102
RTVSPost2010Prop49
280
     0
102
RTVSPost2010PropOp49
 70
     1
102
RTVSPost2010Prop50
 90
       50
102
RTVSPost2010PropOp50
 70
     1
102
RTVSPost2010Prop51ColorIndex
 90
      256
102
RTVSPost2010Prop51ColorRGB
 90
-16777216
102
RTVSPost2010PropOp51
 70
     0
102
RTVSPost2010Prop52
140
1.0
102
RTVSPost2010PropOp52
 70
     0
102
RTVSPost2010Prop53
 90
        2
102
RTVSPost2010PropOp53
 70
     1
102
RTVSPost2010Prop54
  1
strokes_ogs.tif
102
RTVSPost2010PropOp54
 70
     1
102
RTVSPost2010Prop55
280
     0
102
RTVSPost2010PropOp55
 70
     1
102
RTVSPost2010Prop56
140
1.0
102
RTVSPost2010PropOp56
 70
     1
102
RTVSPost2010Prop57
140
1.0
102
RTVSPost2010PropOp57
 70
     1
  0
XRECORD
  5
407
102
{ACAD_REACTORS
330
406
102
}
330
406
100
AcDbXrecord
280
     1
102
RTVSPropertyOp0
 70
     0
102
RTVSPropertyOp1
 70
     0
102
RTVSPropertyOp2
 70
     0
102
RTVSPropertyOp3
 70
     0
102
RTVSPropertyOp4
 70
     0
102
RTVSPropertyOp5
 70
     0
102
RTVSPropertyOp6
 70
     0
102
RTVSPropertyOp7
 70
     0
102
RTVSPropertyOp8
 70
     0
102
RTVSPropertyOp9
 70
     0
102
RTVSPropertyOp10
 70
     0
102
RTVSPropertyOp11
 70
     0
102
RTVSPropertyOp12
 70
     0
102
RTVSPropertyOp13
 70
     0
102
RTVSPropertyOp14
 70
     2
102
RTVSPropertyOp15
 70
     0
102
RTVSPropertyOp16
 70
     0
102
RTVSPropertyOp17
 70
     0
102
RTVSPropertyOp18
 70
     0
102
RTVSPropertyOp19
 70
     0
102
RTVSPropertyOp20
 70
     0
102
RTVSPropertyOp21
 70
     0
102
RTVSPropertyOp22
 70
     0
102
RTVSPropertyOp23
 70
     0
102
RTVSPropertyOp24
 70
     0
102
RTVSPropertyOp25
 70
     0
102
RTVSPropertyOp26
 70
     0
102
RTVSPropertyOp27
 70
     0
102
RTVSPropertyOp28
 70
     0
102
RTVSPropertyOp29
 70
     0
102
RTVSPropertyOp30
 70
     0
102
RTVSPropertyOp31
 70
     0
102
RTVSPropertyOp32
 70
     0
102
RTVSPropertyOp33
 70
     0
102
RTVSPropertyOp34
 70
     0
102
RTVSPropertyOp35
 70
     0
102
RTVSPropertyOp36
 70
     0
102
RTVSPropertyOp37
 70
     0
102
RTVSPropertyOp38
 70
     0
102
RTVSPropertyOp39
 70
     0
102
RTVSPropertyOp40
 70
     0
102
RTVSPropertyOp41
 70
     0
102
RTVSPropertyOp42
 70
     0
102
RTVSPropertyOp43
 70
     0
102
RTVSPropertyOp44
 70
     0
102
RTVSPropertyOp45
 70
     0
102
RTVSPropertyOp46
 70
     0
102
RTVSPropertyOp47
 70
     0
102
RTVSPropertyOp48
 70
     0
102
RTVSPropertyOp49
 70
     0
102
RTVSPropertyOp50
 70
     0
102
RTVSPropertyOp51
 70
     0
102
RTVSPropertyOp52
 70
     0
102
RTVSPropertyOp53
 70
     0
102
RTVSPropertyOp54
 70
     0
102
RTVSPropertyOp55
 70
     0
102
RTVSPropertyOp56
 70
     0
102
RTVSPropertyOp57
 70
     0
102
RTVSPost2010Prop28
280
     0
102
RTVSPost2010PropOp28
 70
     0
102
RTVSPost2010Prop29
280
     1
102
RTVSPost2010PropOp29
 70
     0
102
RTVSPost2010Prop30
280
     1
102
RTVSPost2010PropOp30
 70
     0
102
RTVSPost2010Prop31
280
     0
102
RTVSPost2010PropOp31
 70
     0
102
RTVSPost2010Prop32
280
     0
102
RTVSPost2010PropOp32
 70
     0
102
RTVSPost2010Prop33
280
     0
102
RTVSPost2010PropOp33
 70
     0
102
RTVSPost2010Prop34
280
     0
102
RTVSPost2010PropOp34
 70
     0
102
RTVSPost2010Prop35
280
     0
102
RTVSPost2010PropOp35
 70
     0
102
RTVSPost2010Prop36
280
     0
102
RTVSPost2010PropOp36
 70
     0
102
RTVSPost2010Prop37
 90
       50
102
RTVSPost2010PropOp37
 70
     0
102
RTVSPost2010Prop38
140
0.0
102
RTVSPost2010PropOp38
 70
     0
102
RTVSPost2010Prop39
140
1.0
102
RTVSPost2010PropOp39
 70
     0
102
RTVSPost2010Prop40
 90
        0
102
RTVSPost2010PropOp40
 70
     0
102
RTVSPost2010Prop41ColorIndex
 90
       18
102
RTVSPost2010Prop41ColorRGB
 90
        0
102
RTVSPost2010PropOp41
 70
     0
102
RTVSPost2010Prop42
 90
       50
102
RTVSPost2010PropOp42
 70
     0
102
RTVSPost2010Prop43
 90
        3
102
RTVSPost2010PropOp43
 70
     0
102
RTVSPost2010Prop44ColorIndex
 90
        5
102
RTVSPost2010Prop44ColorRGB
 90
      255
102
RTVSPost2010PropOp44
 70
     0
102
RTVSPost2010Prop45
280
     0
102
RTVSPost2010PropOp45
 70
     0
102
RTVSPost2010Prop46
 90
       50
102
RTVSPost2010PropOp46
 70
     0
102
RTVSPost2010Prop47
 90
       50
102
RTVSPost2010PropOp47
 70
     0
102
RTVSPost2010Prop48
 90
       50
102
RTVSPost2010PropOp48
 70
     0
102
RTVSPost2010Prop49
280
     0
102
RTVSPost2010PropOp49
 70
     0
102
RTVSPost2010Prop50
 90
       50
102
RTVSPost2010PropOp50
 70
     0
102
RTVSPost2010Prop51ColorIndex
 90
      256
102
RTVSPost2010Prop51ColorRGB
 90
-16777216
102
RTVSPost2010PropOp51
 70
     0
102
RTVSPost2010Prop52
140
1.0
102
RTVSPost2010PropOp52
 70
     0
102
RTVSPost2010Prop53
 90
        2
102
RTVSPost2010PropOp53
 70
     0
102
RTVSPost2010Prop54
  1
strokes_ogs.tif
102
RTVSPost2010PropOp54
 70
     0
102
RTVSPost2010Prop55
280
     0
102
RTVSPost2010PropOp55
 70
     0
102
RTVSPost2010Prop56
140
1.0
102
RTVSPost2010PropOp56
 70
     0
102
RTVSPost2010Prop57
140
1.0
102
RTVSPost2010PropOp57
 70
     0
  0
XRECORD
  5
3FF
102
{ACAD_REACTORS
330
3FE
102
}
330
3FE
100
AcDbXrecord
280
     1
102
RTVSPropertyOp0
 70
     1
102
RTVSPropertyOp1
 70
     1
102
RTVSPropertyOp2
 70
     1
102
RTVSPropertyOp3
 70
     1
102
RTVSPropertyOp4
 70
     1
102
RTVSPropertyOp5
 70
     1
102
RTVSPropertyOp6
 70
     1
102
RTVSPropertyOp7
 70
     1
102
RTVSPropertyOp8
 70
     1
102
RTVSPropertyOp9
 70
     1
102
RTVSPropertyOp10
 70
     1
102
RTVSPropertyOp11
 70
     1
102
RTVSPropertyOp12
 70
     1
102
RTVSPropertyOp13
 70
     1
102
RTVSPropertyOp14
 70
     1
102
RTVSPropertyOp15
 70
     1
102
RTVSPropertyOp16
 70
     1
102
RTVSPropertyOp17
 70
     1
102
RTVSPropertyOp18
 70
     1
102
RTVSPropertyOp19
 70
     1
102
RTVSPropertyOp20
 70
     1
102
RTVSPropertyOp21
 70
     1
102
RTVSPropertyOp22
 70
     1
102
RTVSPropertyOp23
 70
     1
102
RTVSPropertyOp24
 70
     1
102
RTVSPropertyOp25
 70
     1
102
RTVSPropertyOp26
 70
     1
102
RTVSPropertyOp27
 70
     1
102
RTVSPropertyOp28
 70
     1
102
RTVSPropertyOp29
 70
     1
102
RTVSPropertyOp30
 70
     1
102
RTVSPropertyOp31
 70
     1
102
RTVSPropertyOp32
 70
     1
102
RTVSPropertyOp33
 70
     1
102
RTVSPropertyOp34
 70
     1
102
RTVSPropertyOp35
 70
     1
102
RTVSPropertyOp36
 70
     1
102
RTVSPropertyOp37
 70
     1
102
RTVSPropertyOp38
 70
     1
102
RTVSPropertyOp39
 70
     1
102
RTVSPropertyOp40
 70
     1
102
RTVSPropertyOp41
 70
     1
102
RTVSPropertyOp42
 70
     1
102
RTVSPropertyOp43
 70
     1
102
RTVSPropertyOp44
 70
     1
102
RTVSPropertyOp45
 70
     1
102
RTVSPropertyOp46
 70
     1
102
RTVSPropertyOp47
 70
     1
102
RTVSPropertyOp48
 70
     1
102
RTVSPropertyOp49
 70
     1
102
RTVSPropertyOp50
 70
     1
102
RTVSPropertyOp51
 70
     0
102
RTVSPropertyOp52
 70
     0
102
RTVSPropertyOp53
 70
     1
102
RTVSPropertyOp54
 70
     1
102
RTVSPropertyOp55
 70
     1
102
RTVSPropertyOp56
 70
     1
102
RTVSPropertyOp57
 70
     1
102
RTVSPost2010Prop28
280
     0
102
RTVSPost2010PropOp28
 70
     1
102
RTVSPost2010Prop29
280
     1
102
RTVSPost2010PropOp29
 70
     1
102
RTVSPost2010Prop30
280
     1
102
RTVSPost2010PropOp30
 70
     1
102
RTVSPost2010Prop31
280
     0
102
RTVSPost2010PropOp31
 70
     1
102
RTVSPost2010Prop32
280
     0
102
RTVSPost2010PropOp32
 70
     1
102
RTVSPost2010Prop33
280
     0
102
RTVSPost2010PropOp33
 70
     1
102
RTVSPost2010Prop34
280
     0
102
RTVSPost2010PropOp34
 70
     1
102
RTVSPost2010Prop35
280
     0
102
RTVSPost2010PropOp35
 70
     1
102
RTVSPost2010Prop36
280
     0
102
RTVSPost2010PropOp36
 70
     1
102
RTVSPost2010Prop37
 90
       50
102
RTVSPost2010PropOp37
 70
     1
102
RTVSPost2010Prop38
140
0.0
102
RTVSPost2010PropOp38
 70
     1
102
RTVSPost2010Prop39
140
1.0
102
RTVSPost2010PropOp39
 70
     1
102
RTVSPost2010Prop40
 90
        0
102
RTVSPost2010PropOp40
 70
     1
102
RTVSPost2010Prop41ColorIndex
 90
       18
102
RTVSPost2010Prop41ColorRGB
 90
        0
102
RTVSPost2010PropOp41
 70
     1
102
RTVSPost2010Prop42
 90
       50
102
RTVSPost2010PropOp42
 70
     1
102
RTVSPost2010Prop43
 90
        3
102
RTVSPost2010PropOp43
 70
     1
102
RTVSPost2010Prop44ColorIndex
 90
        5
102
RTVSPost2010Prop44ColorRGB
 90
      255
102
RTVSPost2010PropOp44
 70
     1
102
RTVSPost2010Prop45
280
     0
102
RTVSPost2010PropOp45
 70
     1
102
RTVSPost2010Prop46
 90
       50
102
RTVSPost2010PropOp46
 70
     1
102
RTVSPost2010Prop47
 90
       50
102
RTVSPost2010PropOp47
 70
     1
102
RTVSPost2010Prop48
 90
       50
102
RTVSPost2010PropOp48
 70
     1
102
RTVSPost2010Prop49
280
     0
102
RTVSPost2010PropOp49
 70
     1
102
RTVSPost2010Prop50
 90
       50
102
RTVSPost2010PropOp50
 70
     1
102
RTVSPost2010Prop51ColorIndex
 90
      256
102
RTVSPost2010Prop51ColorRGB
 90
-16777216
102
RTVSPost2010PropOp51
 70
     0
102
RTVSPost2010Prop52
140
1.0
102
RTVSPost2010PropOp52
 70
     0
102
RTVSPost2010Prop53
 90
        2
102
RTVSPost2010PropOp53
 70
     1
102
RTVSPost2010Prop54
  1
strokes_ogs.tif
102
RTVSPost2010PropOp54
 70
     1
102
RTVSPost2010Prop55
280
     0
102
RTVSPost2010PropOp55
 70
     1
102
RTVSPost2010Prop56
140
1.0
102
RTVSPost2010PropOp56
 70
     1
102
RTVSPost2010Prop57
140
1.0
102
RTVSPost2010PropOp57
 70
     1
  0
XRECORD
  5
3E3
102
{ACAD_REACTORS
330
3E2
102
}
330
3E2
100
AcDbXrecord
280
     1
102
RTVSPropertyOp0
 70
     1
102
RTVSPropertyOp1
 70
     1
102
RTVSPropertyOp2
 70
     1
102
RTVSPropertyOp3
 70
     1
102
RTVSPropertyOp4
 70
     1
102
RTVSPropertyOp5
 70
     1
102
RTVSPropertyOp6
 70
     1
102
RTVSPropertyOp7
 70
     1
102
RTVSPropertyOp8
 70
     1
102
RTVSPropertyOp9
 70
     1
102
RTVSPropertyOp10
 70
     1
102
RTVSPropertyOp11
 70
     1
102
RTVSPropertyOp12
 70
     1
102
RTVSPropertyOp13
 70
     1
102
RTVSPropertyOp14
 70
     1
102
RTVSPropertyOp15
 70
     1
102
RTVSPropertyOp16
 70
     1
102
RTVSPropertyOp17
 70
     1
102
RTVSPropertyOp18
 70
     1
102
RTVSPropertyOp19
 70
     1
102
RTVSPropertyOp20
 70
     1
102
RTVSPropertyOp21
 70
     1
102
RTVSPropertyOp22
 70
     1
102
RTVSPropertyOp23
 70
     1
102
RTVSPropertyOp24
 70
     1
102
RTVSPropertyOp25
 70
     1
102
RTVSPropertyOp26
 70
     1
102
RTVSPropertyOp27
 70
     1
102
RTVSPropertyOp28
 70
     1
102
RTVSPropertyOp29
 70
     1
102
RTVSPropertyOp30
 70
     1
102
RTVSPropertyOp31
 70
     1
102
RTVSPropertyOp32
 70
     1
102
RTVSPropertyOp33
 70
     1
102
RTVSPropertyOp34
 70
     1
102
RTVSPropertyOp35
 70
     1
102
RTVSPropertyOp36
 70
     1
102
RTVSPropertyOp37
 70
     1
102
RTVSPropertyOp38
 70
     1
102
RTVSPropertyOp39
 70
     1
102
RTVSPropertyOp40
 70
     1
102
RTVSPropertyOp41
 70
     1
102
RTVSPropertyOp42
 70
     1
102
RTVSPropertyOp43
 70
     1
102
RTVSPropertyOp44
 70
     1
102
RTVSPropertyOp45
 70
     1
102
RTVSPropertyOp46
 70
     1
102
RTVSPropertyOp47
 70
     1
102
RTVSPropertyOp48
 70
     1
102
RTVSPropertyOp49
 70
     1
102
RTVSPropertyOp50
 70
     1
102
RTVSPropertyOp51
 70
     0
102
RTVSPropertyOp52
 70
     0
102
RTVSPropertyOp53
 70
     1
102
RTVSPropertyOp54
 70
     1
102
RTVSPropertyOp55
 70
     1
102
RTVSPropertyOp56
 70
     1
102
RTVSPropertyOp57
 70
     1
102
RTVSPost2010Prop28
280
     0
102
RTVSPost2010PropOp28
 70
     1
102
RTVSPost2010Prop29
280
     1
102
RTVSPost2010PropOp29
 70
     1
102
RTVSPost2010Prop30
280
     1
102
RTVSPost2010PropOp30
 70
     1
102
RTVSPost2010Prop31
280
     0
102
RTVSPost2010PropOp31
 70
     1
102
RTVSPost2010Prop32
280
     0
102
RTVSPost2010PropOp32
 70
     1
102
RTVSPost2010Prop33
280
     0
102
RTVSPost2010PropOp33
 70
     1
102
RTVSPost2010Prop34
280
     0
102
RTVSPost2010PropOp34
 70
     1
102
RTVSPost2010Prop35
280
     0
102
RTVSPost2010PropOp35
 70
     1
102
RTVSPost2010Prop36
280
     0
102
RTVSPost2010PropOp36
 70
     1
102
RTVSPost2010Prop37
 90
       50
102
RTVSPost2010PropOp37
 70
     1
102
RTVSPost2010Prop38
140
0.0
102
RTVSPost2010PropOp38
 70
     1
102
RTVSPost2010Prop39
140
1.0
102
RTVSPost2010PropOp39
 70
     1
102
RTVSPost2010Prop40
 90
        0
102
RTVSPost2010PropOp40
 70
     1
102
RTVSPost2010Prop41ColorIndex
 90
       18
102
RTVSPost2010Prop41ColorRGB
 90
        0
102
RTVSPost2010PropOp41
 70
     1
102
RTVSPost2010Prop42
 90
       50
102
RTVSPost2010PropOp42
 70
     1
102
RTVSPost2010Prop43
 90
        3
102
RTVSPost2010PropOp43
 70
     1
102
RTVSPost2010Prop44ColorIndex
 90
        5
102
RTVSPost2010Prop44ColorRGB
 90
      255
102
RTVSPost2010PropOp44
 70
     1
102
RTVSPost2010Prop45
280
     0
102
RTVSPost2010PropOp45
 70
     1
102
RTVSPost2010Prop46
 90
       50
102
RTVSPost2010PropOp46
 70
     1
102
RTVSPost2010Prop47
 90
       50
102
RTVSPost2010PropOp47
 70
     1
102
RTVSPost2010Prop48
 90
       50
102
RTVSPost2010PropOp48
 70
     1
102
RTVSPost2010Prop49
280
     0
102
RTVSPost2010PropOp49
 70
     1
102
RTVSPost2010Prop50
 90
       50
102
RTVSPost2010PropOp50
 70
     1
102
RTVSPost2010Prop51ColorIndex
 90
      256
102
RTVSPost2010Prop51ColorRGB
 90
-16777216
102
RTVSPost2010PropOp51
 70
     0
102
RTVSPost2010Prop52
140
1.0
102
RTVSPost2010PropOp52
 70
     0
102
RTVSPost2010Prop53
 90
        2
102
RTVSPost2010PropOp53
 70
     1
102
RTVSPost2010Prop54
  1
strokes_ogs.tif
102
RTVSPost2010PropOp54
 70
     1
102
RTVSPost2010Prop55
280
     0
102
RTVSPost2010PropOp55
 70
     1
102
RTVSPost2010Prop56
140
1.0
102
RTVSPost2010PropOp56
 70
     1
102
RTVSPost2010Prop57
140
1.0
102
RTVSPost2010PropOp57
 70
     1
  0
XRECORD
  5
3E5
102
{ACAD_REACTORS
330
3E4
102
}
330
3E4
100
AcDbXrecord
280
     1
102
RTVSPropertyOp0
 70
     1
102
RTVSPropertyOp1
 70
     1
102
RTVSPropertyOp2
 70
     1
102
RTVSPropertyOp3
 70
     1
102
RTVSPropertyOp4
 70
     1
102
RTVSPropertyOp5
 70
     1
102
RTVSPropertyOp6
 70
     1
102
RTVSPropertyOp7
 70
     1
102
RTVSPropertyOp8
 70
     1
102
RTVSPropertyOp9
 70
     1
102
RTVSPropertyOp10
 70
     1
102
RTVSPropertyOp11
 70
     1
102
RTVSPropertyOp12
 70
     1
102
RTVSPropertyOp13
 70
     1
102
RTVSPropertyOp14
 70
     1
102
RTVSPropertyOp15
 70
     1
102
RTVSPropertyOp16
 70
     1
102
RTVSPropertyOp17
 70
     1
102
RTVSPropertyOp18
 70
     1
102
RTVSPropertyOp19
 70
     1
102
RTVSPropertyOp20
 70
     1
102
RTVSPropertyOp21
 70
     1
102
RTVSPropertyOp22
 70
     1
102
RTVSPropertyOp23
 70
     1
102
RTVSPropertyOp24
 70
     1
102
RTVSPropertyOp25
 70
     1
102
RTVSPropertyOp26
 70
     1
102
RTVSPropertyOp27
 70
     1
102
RTVSPropertyOp28
 70
     1
102
RTVSPropertyOp29
 70
     1
102
RTVSPropertyOp30
 70
     1
102
RTVSPropertyOp31
 70
     1
102
RTVSPropertyOp32
 70
     1
102
RTVSPropertyOp33
 70
     1
102
RTVSPropertyOp34
 70
     1
102
RTVSPropertyOp35
 70
     1
102
RTVSPropertyOp36
 70
     1
102
RTVSPropertyOp37
 70
     1
102
RTVSPropertyOp38
 70
     1
102
RTVSPropertyOp39
 70
     1
102
RTVSPropertyOp40
 70
     1
102
RTVSPropertyOp41
 70
     1
102
RTVSPropertyOp42
 70
     1
102
RTVSPropertyOp43
 70
     1
102
RTVSPropertyOp44
 70
     1
102
RTVSPropertyOp45
 70
     1
102
RTVSPropertyOp46
 70
     1
102
RTVSPropertyOp47
 70
     1
102
RTVSPropertyOp48
 70
     1
102
RTVSPropertyOp49
 70
     1
102
RTVSPropertyOp50
 70
     1
102
RTVSPropertyOp51
 70
     0
102
RTVSPropertyOp52
 70
     0
102
RTVSPropertyOp53
 70
     1
102
RTVSPropertyOp54
 70
     1
102
RTVSPropertyOp55
 70
     1
102
RTVSPropertyOp56
 70
     1
102
RTVSPropertyOp57
 70
     1
102
RTVSPost2010Prop28
280
     0
102
RTVSPost2010PropOp28
 70
     1
102
RTVSPost2010Prop29
280
     1
102
RTVSPost2010PropOp29
 70
     1
102
RTVSPost2010Prop30
280
     1
102
RTVSPost2010PropOp30
 70
     1
102
RTVSPost2010Prop31
280
     0
102
RTVSPost2010PropOp31
 70
     1
102
RTVSPost2010Prop32
280
     0
102
RTVSPost2010PropOp32
 70
     1
102
RTVSPost2010Prop33
280
     0
102
RTVSPost2010PropOp33
 70
     1
102
RTVSPost2010Prop34
280
     0
102
RTVSPost2010PropOp34
 70
     1
102
RTVSPost2010Prop35
280
     0
102
RTVSPost2010PropOp35
 70
     1
102
RTVSPost2010Prop36
280
     0
102
RTVSPost2010PropOp36
 70
     1
102
RTVSPost2010Prop37
 90
       50
102
RTVSPost2010PropOp37
 70
     1
102
RTVSPost2010Prop38
140
0.0
102
RTVSPost2010PropOp38
 70
     1
102
RTVSPost2010Prop39
140
1.0
102
RTVSPost2010PropOp39
 70
     1
102
RTVSPost2010Prop40
 90
        0
102
RTVSPost2010PropOp40
 70
     1
102
RTVSPost2010Prop41ColorIndex
 90
       18
102
RTVSPost2010Prop41ColorRGB
 90
        0
102
RTVSPost2010PropOp41
 70
     1
102
RTVSPost2010Prop42
 90
       50
102
RTVSPost2010PropOp42
 70
     1
102
RTVSPost2010Prop43
 90
        3
102
RTVSPost2010PropOp43
 70
     1
102
RTVSPost2010Prop44ColorIndex
 90
        5
102
RTVSPost2010Prop44ColorRGB
 90
      255
102
RTVSPost2010PropOp44
 70
     1
102
RTVSPost2010Prop45
280
     0
102
RTVSPost2010PropOp45
 70
     1
102
RTVSPost2010Prop46
 90
       50
102
RTVSPost2010PropOp46
 70
     1
102
RTVSPost2010Prop47
 90
       50
102
RTVSPost2010PropOp47
 70
     1
102
RTVSPost2010Prop48
 90
       50
102
RTVSPost2010PropOp48
 70
     1
102
RTVSPost2010Prop49
280
     0
102
RTVSPost2010PropOp49
 70
     1
102
RTVSPost2010Prop50
 90
       50
102
RTVSPost2010PropOp50
 70
     1
102
RTVSPost2010Prop51ColorIndex
 90
      256
102
RTVSPost2010Prop51ColorRGB
 90
-16777216
102
RTVSPost2010PropOp51
 70
     0
102
RTVSPost2010Prop52
140
1.0
102
RTVSPost2010PropOp52
 70
     0
102
RTVSPost2010Prop53
 90
        2
102
RTVSPost2010PropOp53
 70
     1
102
RTVSPost2010Prop54
  1
strokes_ogs.tif
102
RTVSPost2010PropOp54
 70
     1
102
RTVSPost2010Prop55
280
     0
102
RTVSPost2010PropOp55
 70
     1
102
RTVSPost2010Prop56
140
1.0
102
RTVSPost2010PropOp56
 70
     1
102
RTVSPost2010Prop57
140
1.0
102
RTVSPost2010PropOp57
 70
     1
  0
XRECORD
  5
3E7
102
{ACAD_REACTORS
330
3E6
102
}
330
3E6
100
AcDbXrecord
280
     1
102
RTVSPropertyOp0
 70
     1
102
RTVSPropertyOp1
 70
     1
102
RTVSPropertyOp2
 70
     1
102
RTVSPropertyOp3
 70
     1
102
RTVSPropertyOp4
 70
     1
102
RTVSPropertyOp5
 70
     1
102
RTVSPropertyOp6
 70
     1
102
RTVSPropertyOp7
 70
     1
102
RTVSPropertyOp8
 70
     1
102
RTVSPropertyOp9
 70
     1
102
RTVSPropertyOp10
 70
     1
102
RTVSPropertyOp11
 70
     1
102
RTVSPropertyOp12
 70
     1
102
RTVSPropertyOp13
 70
     1
102
RTVSPropertyOp14
 70
     1
102
RTVSPropertyOp15
 70
     1
102
RTVSPropertyOp16
 70
     1
102
RTVSPropertyOp17
 70
     1
102
RTVSPropertyOp18
 70
     1
102
RTVSPropertyOp19
 70
     1
102
RTVSPropertyOp20
 70
     1
102
RTVSPropertyOp21
 70
     1
102
RTVSPropertyOp22
 70
     1
102
RTVSPropertyOp23
 70
     1
102
RTVSPropertyOp24
 70
     1
102
RTVSPropertyOp25
 70
     1
102
RTVSPropertyOp26
 70
     1
102
RTVSPropertyOp27
 70
     1
102
RTVSPropertyOp28
 70
     1
102
RTVSPropertyOp29
 70
     1
102
RTVSPropertyOp30
 70
     1
102
RTVSPropertyOp31
 70
     1
102
RTVSPropertyOp32
 70
     1
102
RTVSPropertyOp33
 70
     1
102
RTVSPropertyOp34
 70
     1
102
RTVSPropertyOp35
 70
     1
102
RTVSPropertyOp36
 70
     1
102
RTVSPropertyOp37
 70
     1
102
RTVSPropertyOp38
 70
     1
102
RTVSPropertyOp39
 70
     1
102
RTVSPropertyOp40
 70
     1
102
RTVSPropertyOp41
 70
     1
102
RTVSPropertyOp42
 70
     1
102
RTVSPropertyOp43
 70
     1
102
RTVSPropertyOp44
 70
     1
102
RTVSPropertyOp45
 70
     1
102
RTVSPropertyOp46
 70
     1
102
RTVSPropertyOp47
 70
     1
102
RTVSPropertyOp48
 70
     1
102
RTVSPropertyOp49
 70
     1
102
RTVSPropertyOp50
 70
     1
102
RTVSPropertyOp51
 70
     0
102
RTVSPropertyOp52
 70
     0
102
RTVSPropertyOp53
 70
     1
102
RTVSPropertyOp54
 70
     1
102
RTVSPropertyOp55
 70
     1
102
RTVSPropertyOp56
 70
     1
102
RTVSPropertyOp57
 70
     1
102
RTVSPost2010Prop28
280
     0
102
RTVSPost2010PropOp28
 70
     1
102
RTVSPost2010Prop29
280
     1
102
RTVSPost2010PropOp29
 70
     1
102
RTVSPost2010Prop30
280
     1
102
RTVSPost2010PropOp30
 70
     1
102
RTVSPost2010Prop31
280
     0
102
RTVSPost2010PropOp31
 70
     1
102
RTVSPost2010Prop32
280
     0
102
RTVSPost2010PropOp32
 70
     1
102
RTVSPost2010Prop33
280
     0
102
RTVSPost2010PropOp33
 70
     1
102
RTVSPost2010Prop34
280
     0
102
RTVSPost2010PropOp34
 70
     1
102
RTVSPost2010Prop35
280
     0
102
RTVSPost2010PropOp35
 70
     1
102
RTVSPost2010Prop36
280
     0
102
RTVSPost2010PropOp36
 70
     1
102
RTVSPost2010Prop37
 90
       50
102
RTVSPost2010PropOp37
 70
     1
102
RTVSPost2010Prop38
140
0.0
102
RTVSPost2010PropOp38
 70
     1
102
RTVSPost2010Prop39
140
1.0
102
RTVSPost2010PropOp39
 70
     1
102
RTVSPost2010Prop40
 90
        0
102
RTVSPost2010PropOp40
 70
     1
102
RTVSPost2010Prop41ColorIndex
 90
       18
102
RTVSPost2010Prop41ColorRGB
 90
        0
102
RTVSPost2010PropOp41
 70
     1
102
RTVSPost2010Prop42
 90
       50
102
RTVSPost2010PropOp42
 70
     1
102
RTVSPost2010Prop43
 90
        3
102
RTVSPost2010PropOp43
 70
     1
102
RTVSPost2010Prop44ColorIndex
 90
        5
102
RTVSPost2010Prop44ColorRGB
 90
      255
102
RTVSPost2010PropOp44
 70
     1
102
RTVSPost2010Prop45
280
     0
102
RTVSPost2010PropOp45
 70
     1
102
RTVSPost2010Prop46
 90
       50
102
RTVSPost2010PropOp46
 70
     1
102
RTVSPost2010Prop47
 90
       50
102
RTVSPost2010PropOp47
 70
     1
102
RTVSPost2010Prop48
 90
       50
102
RTVSPost2010PropOp48
 70
     1
102
RTVSPost2010Prop49
280
     0
102
RTVSPost2010PropOp49
 70
     1
102
RTVSPost2010Prop50
 90
       50
102
RTVSPost2010PropOp50
 70
     1
102
RTVSPost2010Prop51ColorIndex
 90
      256
102
RTVSPost2010Prop51ColorRGB
 90
-16777216
102
RTVSPost2010PropOp51
 70
     0
102
RTVSPost2010Prop52
140
1.0
102
RTVSPost2010PropOp52
 70
     0
102
RTVSPost2010Prop53
 90
        2
102
RTVSPost2010PropOp53
 70
     1
102
RTVSPost2010Prop54
  1
strokes_ogs.tif
102
RTVSPost2010PropOp54
 70
     1
102
RTVSPost2010Prop55
280
     0
102
RTVSPost2010PropOp55
 70
     1
102
RTVSPost2010Prop56
140
1.0
102
RTVSPost2010PropOp56
 70
     1
102
RTVSPost2010Prop57
140
1.0
102
RTVSPost2010PropOp57
 70
     1
  0
XRECORD
  5
3E9
102
{ACAD_REACTORS
330
3E8
102
}
330
3E8
100
AcDbXrecord
280
     1
102
RTVSPropertyOp0
 70
     1
102
RTVSPropertyOp1
 70
     1
102
RTVSPropertyOp2
 70
     1
102
RTVSPropertyOp3
 70
     1
102
RTVSPropertyOp4
 70
     1
102
RTVSPropertyOp5
 70
     1
102
RTVSPropertyOp6
 70
     1
102
RTVSPropertyOp7
 70
     1
102
RTVSPropertyOp8
 70
     1
102
RTVSPropertyOp9
 70
     1
102
RTVSPropertyOp10
 70
     1
102
RTVSPropertyOp11
 70
     1
102
RTVSPropertyOp12
 70
     1
102
RTVSPropertyOp13
 70
     1
102
RTVSPropertyOp14
 70
     1
102
RTVSPropertyOp15
 70
     1
102
RTVSPropertyOp16
 70
     1
102
RTVSPropertyOp17
 70
     1
102
RTVSPropertyOp18
 70
     1
102
RTVSPropertyOp19
 70
     1
102
RTVSPropertyOp20
 70
     1
102
RTVSPropertyOp21
 70
     1
102
RTVSPropertyOp22
 70
     1
102
RTVSPropertyOp23
 70
     1
102
RTVSPropertyOp24
 70
     1
102
RTVSPropertyOp25
 70
     1
102
RTVSPropertyOp26
 70
     1
102
RTVSPropertyOp27
 70
     1
102
RTVSPropertyOp28
 70
     1
102
RTVSPropertyOp29
 70
     1
102
RTVSPropertyOp30
 70
     1
102
RTVSPropertyOp31
 70
     1
102
RTVSPropertyOp32
 70
     1
102
RTVSPropertyOp33
 70
     1
102
RTVSPropertyOp34
 70
     1
102
RTVSPropertyOp35
 70
     1
102
RTVSPropertyOp36
 70
     1
102
RTVSPropertyOp37
 70
     1
102
RTVSPropertyOp38
 70
     1
102
RTVSPropertyOp39
 70
     1
102
RTVSPropertyOp40
 70
     1
102
RTVSPropertyOp41
 70
     1
102
RTVSPropertyOp42
 70
     1
102
RTVSPropertyOp43
 70
     1
102
RTVSPropertyOp44
 70
     1
102
RTVSPropertyOp45
 70
     1
102
RTVSPropertyOp46
 70
     1
102
RTVSPropertyOp47
 70
     1
102
RTVSPropertyOp48
 70
     1
102
RTVSPropertyOp49
 70
     1
102
RTVSPropertyOp50
 70
     1
102
RTVSPropertyOp51
 70
     0
102
RTVSPropertyOp52
 70
     0
102
RTVSPropertyOp53
 70
     1
102
RTVSPropertyOp54
 70
     1
102
RTVSPropertyOp55
 70
     1
102
RTVSPropertyOp56
 70
     1
102
RTVSPropertyOp57
 70
     1
102
RTVSPost2010Prop28
280
     0
102
RTVSPost2010PropOp28
 70
     1
102
RTVSPost2010Prop29
280
     1
102
RTVSPost2010PropOp29
 70
     1
102
RTVSPost2010Prop30
280
     1
102
RTVSPost2010PropOp30
 70
     1
102
RTVSPost2010Prop31
280
     0
102
RTVSPost2010PropOp31
 70
     1
102
RTVSPost2010Prop32
280
     0
102
RTVSPost2010PropOp32
 70
     1
102
RTVSPost2010Prop33
280
     0
102
RTVSPost2010PropOp33
 70
     1
102
RTVSPost2010Prop34
280
     0
102
RTVSPost2010PropOp34
 70
     1
102
RTVSPost2010Prop35
280
     0
102
RTVSPost2010PropOp35
 70
     1
102
RTVSPost2010Prop36
280
     0
102
RTVSPost2010PropOp36
 70
     1
102
RTVSPost2010Prop37
 90
       50
102
RTVSPost2010PropOp37
 70
     1
102
RTVSPost2010Prop38
140
0.0
102
RTVSPost2010PropOp38
 70
     1
102
RTVSPost2010Prop39
140
1.0
102
RTVSPost2010PropOp39
 70
     1
102
RTVSPost2010Prop40
 90
        0
102
RTVSPost2010PropOp40
 70
     1
102
RTVSPost2010Prop41ColorIndex
 90
       18
102
RTVSPost2010Prop41ColorRGB
 90
        0
102
RTVSPost2010PropOp41
 70
     1
102
RTVSPost2010Prop42
 90
       50
102
RTVSPost2010PropOp42
 70
     1
102
RTVSPost2010Prop43
 90
        3
102
RTVSPost2010PropOp43
 70
     1
102
RTVSPost2010Prop44ColorIndex
 90
        5
102
RTVSPost2010Prop44ColorRGB
 90
      255
102
RTVSPost2010PropOp44
 70
     1
102
RTVSPost2010Prop45
280
     0
102
RTVSPost2010PropOp45
 70
     1
102
RTVSPost2010Prop46
 90
       50
102
RTVSPost2010PropOp46
 70
     1
102
RTVSPost2010Prop47
 90
       50
102
RTVSPost2010PropOp47
 70
     1
102
RTVSPost2010Prop48
 90
       50
102
RTVSPost2010PropOp48
 70
     1
102
RTVSPost2010Prop49
280
     0
102
RTVSPost2010PropOp49
 70
     1
102
RTVSPost2010Prop50
 90
       50
102
RTVSPost2010PropOp50
 70
     1
102
RTVSPost2010Prop51ColorIndex
 90
      256
102
RTVSPost2010Prop51ColorRGB
 90
-16777216
102
RTVSPost2010PropOp51
 70
     0
102
RTVSPost2010Prop52
140
1.0
102
RTVSPost2010PropOp52
 70
     0
102
RTVSPost2010Prop53
 90
        2
102
RTVSPost2010PropOp53
 70
     1
102
RTVSPost2010Prop54
  1
strokes_ogs.tif
102
RTVSPost2010PropOp54
 70
     1
102
RTVSPost2010Prop55
280
     0
102
RTVSPost2010PropOp55
 70
     1
102
RTVSPost2010Prop56
140
1.0
102
RTVSPost2010PropOp56
 70
     1
102
RTVSPost2010Prop57
140
1.0
102
RTVSPost2010PropOp57
 70
     1
  0
XRECORD
  5
3EF
102
{ACAD_REACTORS
330
3EE
102
}
330
3EE
100
AcDbXrecord
280
     1
102
RTVSPropertyOp0
 70
     1
102
RTVSPropertyOp1
 70
     1
102
RTVSPropertyOp2
 70
     1
102
RTVSPropertyOp3
 70
     1
102
RTVSPropertyOp4
 70
     1
102
RTVSPropertyOp5
 70
     1
102
RTVSPropertyOp6
 70
     1
102
RTVSPropertyOp7
 70
     1
102
RTVSPropertyOp8
 70
     1
102
RTVSPropertyOp9
 70
     1
102
RTVSPropertyOp10
 70
     1
102
RTVSPropertyOp11
 70
     1
102
RTVSPropertyOp12
 70
     1
102
RTVSPropertyOp13
 70
     1
102
RTVSPropertyOp14
 70
     1
102
RTVSPropertyOp15
 70
     1
102
RTVSPropertyOp16
 70
     1
102
RTVSPropertyOp17
 70
     1
102
RTVSPropertyOp18
 70
     1
102
RTVSPropertyOp19
 70
     1
102
RTVSPropertyOp20
 70
     1
102
RTVSPropertyOp21
 70
     1
102
RTVSPropertyOp22
 70
     1
102
RTVSPropertyOp23
 70
     1
102
RTVSPropertyOp24
 70
     1
102
RTVSPropertyOp25
 70
     1
102
RTVSPropertyOp26
 70
     1
102
RTVSPropertyOp27
 70
     1
102
RTVSPropertyOp28
 70
     1
102
RTVSPropertyOp29
 70
     1
102
RTVSPropertyOp30
 70
     1
102
RTVSPropertyOp31
 70
     1
102
RTVSPropertyOp32
 70
     1
102
RTVSPropertyOp33
 70
     1
102
RTVSPropertyOp34
 70
     1
102
RTVSPropertyOp35
 70
     1
102
RTVSPropertyOp36
 70
     1
102
RTVSPropertyOp37
 70
     1
102
RTVSPropertyOp38
 70
     1
102
RTVSPropertyOp39
 70
     1
102
RTVSPropertyOp40
 70
     1
102
RTVSPropertyOp41
 70
     1
102
RTVSPropertyOp42
 70
     1
102
RTVSPropertyOp43
 70
     1
102
RTVSPropertyOp44
 70
     1
102
RTVSPropertyOp45
 70
     1
102
RTVSPropertyOp46
 70
     1
102
RTVSPropertyOp47
 70
     1
102
RTVSPropertyOp48
 70
     1
102
RTVSPropertyOp49
 70
     1
102
RTVSPropertyOp50
 70
     1
102
RTVSPropertyOp51
 70
     0
102
RTVSPropertyOp52
 70
     0
102
RTVSPropertyOp53
 70
     1
102
RTVSPropertyOp54
 70
     1
102
RTVSPropertyOp55
 70
     1
102
RTVSPropertyOp56
 70
     1
102
RTVSPropertyOp57
 70
     1
102
RTVSPost2010Prop28
280
     0
102
RTVSPost2010PropOp28
 70
     1
102
RTVSPost2010Prop29
280
     1
102
RTVSPost2010PropOp29
 70
     1
102
RTVSPost2010Prop30
280
     1
102
RTVSPost2010PropOp30
 70
     1
102
RTVSPost2010Prop31
280
     0
102
RTVSPost2010PropOp31
 70
     1
102
RTVSPost2010Prop32
280
     0
102
RTVSPost2010PropOp32
 70
     1
102
RTVSPost2010Prop33
280
     0
102
RTVSPost2010PropOp33
 70
     1
102
RTVSPost2010Prop34
280
     0
102
RTVSPost2010PropOp34
 70
     1
102
RTVSPost2010Prop35
280
     0
102
RTVSPost2010PropOp35
 70
     1
102
RTVSPost2010Prop36
280
     0
102
RTVSPost2010PropOp36
 70
     1
102
RTVSPost2010Prop37
 90
       50
102
RTVSPost2010PropOp37
 70
     1
102
RTVSPost2010Prop38
140
0.0
102
RTVSPost2010PropOp38
 70
     1
102
RTVSPost2010Prop39
140
1.0
102
RTVSPost2010PropOp39
 70
     1
102
RTVSPost2010Prop40
 90
        0
102
RTVSPost2010PropOp40
 70
     1
102
RTVSPost2010Prop41ColorIndex
 90
       18
102
RTVSPost2010Prop41ColorRGB
 90
        0
102
RTVSPost2010PropOp41
 70
     1
102
RTVSPost2010Prop42
 90
       50
102
RTVSPost2010PropOp42
 70
     1
102
RTVSPost2010Prop43
 90
        3
102
RTVSPost2010PropOp43
 70
     1
102
RTVSPost2010Prop44ColorIndex
 90
        5
102
RTVSPost2010Prop44ColorRGB
 90
      255
102
RTVSPost2010PropOp44
 70
     1
102
RTVSPost2010Prop45
280
     0
102
RTVSPost2010PropOp45
 70
     1
102
RTVSPost2010Prop46
 90
       50
102
RTVSPost2010PropOp46
 70
     1
102
RTVSPost2010Prop47
 90
       50
102
RTVSPost2010PropOp47
 70
     1
102
RTVSPost2010Prop48
 90
       50
102
RTVSPost2010PropOp48
 70
     1
102
RTVSPost2010Prop49
280
     0
102
RTVSPost2010PropOp49
 70
     1
102
RTVSPost2010Prop50
 90
       50
102
RTVSPost2010PropOp50
 70
     1
102
RTVSPost2010Prop51ColorIndex
 90
      256
102
RTVSPost2010Prop51ColorRGB
 90
-16777216
102
RTVSPost2010PropOp51
 70
     0
102
RTVSPost2010Prop52
140
1.0
102
RTVSPost2010PropOp52
 70
     0
102
RTVSPost2010Prop53
 90
        2
102
RTVSPost2010PropOp53
 70
     1
102
RTVSPost2010Prop54
  1
strokes_ogs.tif
102
RTVSPost2010PropOp54
 70
     1
102
RTVSPost2010Prop55
280
     0
102
RTVSPost2010PropOp55
 70
     1
102
RTVSPost2010Prop56
140
1.0
102
RTVSPost2010PropOp56
 70
     1
102
RTVSPost2010Prop57
140
1.0
102
RTVSPost2010PropOp57
 70
     1
  0
XRECORD
  5
403
102
{ACAD_REACTORS
330
402
102
}
330
402
100
AcDbXrecord
280
     1
102
RTVSPropertyOp0
 70
     0
102
RTVSPropertyOp1
 70
     0
102
RTVSPropertyOp2
 70
     0
102
RTVSPropertyOp3
 70
     0
102
RTVSPropertyOp4
 70
     0
102
RTVSPropertyOp5
 70
     0
102
RTVSPropertyOp6
 70
     0
102
RTVSPropertyOp7
 70
     0
102
RTVSPropertyOp8
 70
     0
102
RTVSPropertyOp9
 70
     0
102
RTVSPropertyOp10
 70
     0
102
RTVSPropertyOp11
 70
     0
102
RTVSPropertyOp12
 70
     0
102
RTVSPropertyOp13
 70
     0
102
RTVSPropertyOp14
 70
     2
102
RTVSPropertyOp15
 70
     0
102
RTVSPropertyOp16
 70
     0
102
RTVSPropertyOp17
 70
     0
102
RTVSPropertyOp18
 70
     0
102
RTVSPropertyOp19
 70
     0
102
RTVSPropertyOp20
 70
     0
102
RTVSPropertyOp21
 70
     0
102
RTVSPropertyOp22
 70
     0
102
RTVSPropertyOp23
 70
     0
102
RTVSPropertyOp24
 70
     0
102
RTVSPropertyOp25
 70
     0
102
RTVSPropertyOp26
 70
     0
102
RTVSPropertyOp27
 70
     0
102
RTVSPropertyOp28
 70
     0
102
RTVSPropertyOp29
 70
     0
102
RTVSPropertyOp30
 70
     0
102
RTVSPropertyOp31
 70
     0
102
RTVSPropertyOp32
 70
     0
102
RTVSPropertyOp33
 70
     0
102
RTVSPropertyOp34
 70
     0
102
RTVSPropertyOp35
 70
     0
102
RTVSPropertyOp36
 70
     0
102
RTVSPropertyOp37
 70
     0
102
RTVSPropertyOp38
 70
     0
102
RTVSPropertyOp39
 70
     0
102
RTVSPropertyOp40
 70
     0
102
RTVSPropertyOp41
 70
     0
102
RTVSPropertyOp42
 70
     0
102
RTVSPropertyOp43
 70
     0
102
RTVSPropertyOp44
 70
     0
102
RTVSPropertyOp45
 70
     0
102
RTVSPropertyOp46
 70
     0
102
RTVSPropertyOp47
 70
     0
102
RTVSPropertyOp48
 70
     0
102
RTVSPropertyOp49
 70
     0
102
RTVSPropertyOp50
 70
     0
102
RTVSPropertyOp51
 70
     0
102
RTVSPropertyOp52
 70
     0
102
RTVSPropertyOp53
 70
     0
102
RTVSPropertyOp54
 70
     0
102
RTVSPropertyOp55
 70
     0
102
RTVSPropertyOp56
 70
     0
102
RTVSPropertyOp57
 70
     0
102
RTVSPost2010Prop28
280
     0
102
RTVSPost2010PropOp28
 70
     0
102
RTVSPost2010Prop29
280
     1
102
RTVSPost2010PropOp29
 70
     0
102
RTVSPost2010Prop30
280
     1
102
RTVSPost2010PropOp30
 70
     0
102
RTVSPost2010Prop31
280
     0
102
RTVSPost2010PropOp31
 70
     0
102
RTVSPost2010Prop32
280
     0
102
RTVSPost2010PropOp32
 70
     0
102
RTVSPost2010Prop33
280
     0
102
RTVSPost2010PropOp33
 70
     0
102
RTVSPost2010Prop34
280
     0
102
RTVSPost2010PropOp34
 70
     0
102
RTVSPost2010Prop35
280
     0
102
RTVSPost2010PropOp35
 70
     0
102
RTVSPost2010Prop36
280
     0
102
RTVSPost2010PropOp36
 70
     0
102
RTVSPost2010Prop37
 90
       50
102
RTVSPost2010PropOp37
 70
     0
102
RTVSPost2010Prop38
140
0.0
102
RTVSPost2010PropOp38
 70
     0
102
RTVSPost2010Prop39
140
1.0
102
RTVSPost2010PropOp39
 70
     0
102
RTVSPost2010Prop40
 90
        0
102
RTVSPost2010PropOp40
 70
     0
102
RTVSPost2010Prop41ColorIndex
 90
       18
102
RTVSPost2010Prop41ColorRGB
 90
        0
102
RTVSPost2010PropOp41
 70
     0
102
RTVSPost2010Prop42
 90
       50
102
RTVSPost2010PropOp42
 70
     0
102
RTVSPost2010Prop43
 90
        3
102
RTVSPost2010PropOp43
 70
     0
102
RTVSPost2010Prop44ColorIndex
 90
        5
102
RTVSPost2010Prop44ColorRGB
 90
      255
102
RTVSPost2010PropOp44
 70
     0
102
RTVSPost2010Prop45
280
     0
102
RTVSPost2010PropOp45
 70
     0
102
RTVSPost2010Prop46
 90
       50
102
RTVSPost2010PropOp46
 70
     0
102
RTVSPost2010Prop47
 90
       50
102
RTVSPost2010PropOp47
 70
     0
102
RTVSPost2010Prop48
 90
       50
102
RTVSPost2010PropOp48
 70
     0
102
RTVSPost2010Prop49
280
     0
102
RTVSPost2010PropOp49
 70
     0
102
RTVSPost2010Prop50
 90
       50
102
RTVSPost2010PropOp50
 70
     0
102
RTVSPost2010Prop51ColorIndex
 90
      256
102
RTVSPost2010Prop51ColorRGB
 90
-16777216
102
RTVSPost2010PropOp51
 70
     0
102
RTVSPost2010Prop52
140
1.0
102
RTVSPost2010PropOp52
 70
     0
102
RTVSPost2010Prop53
 90
        2
102
RTVSPost2010PropOp53
 70
     0
102
RTVSPost2010Prop54
  1
strokes_ogs.tif
102
RTVSPost2010PropOp54
 70
     0
102
RTVSPost2010Prop55
280
     0
102
RTVSPost2010PropOp55
 70
     0
102
RTVSPost2010Prop56
140
1.0
102
RTVSPost2010PropOp56
 70
     0
102
RTVSPost2010Prop57
140
1.0
102
RTVSPost2010PropOp57
 70
     0
  0
XRECORD
  5
3FD
102
{ACAD_REACTORS
330
3FC
102
}
330
3FC
100
AcDbXrecord
280
     1
102
RTVSPropertyOp0
 70
     1
102
RTVSPropertyOp1
 70
     1
102
RTVSPropertyOp2
 70
     1
102
RTVSPropertyOp3
 70
     1
102
RTVSPropertyOp4
 70
     1
102
RTVSPropertyOp5
 70
     1
102
RTVSPropertyOp6
 70
     1
102
RTVSPropertyOp7
 70
     1
102
RTVSPropertyOp8
 70
     1
102
RTVSPropertyOp9
 70
     1
102
RTVSPropertyOp10
 70
     1
102
RTVSPropertyOp11
 70
     1
102
RTVSPropertyOp12
 70
     1
102
RTVSPropertyOp13
 70
     1
102
RTVSPropertyOp14
 70
     1
102
RTVSPropertyOp15
 70
     1
102
RTVSPropertyOp16
 70
     1
102
RTVSPropertyOp17
 70
     1
102
RTVSPropertyOp18
 70
     1
102
RTVSPropertyOp19
 70
     1
102
RTVSPropertyOp20
 70
     1
102
RTVSPropertyOp21
 70
     1
102
RTVSPropertyOp22
 70
     1
102
RTVSPropertyOp23
 70
     1
102
RTVSPropertyOp24
 70
     1
102
RTVSPropertyOp25
 70
     1
102
RTVSPropertyOp26
 70
     1
102
RTVSPropertyOp27
 70
     1
102
RTVSPropertyOp28
 70
     1
102
RTVSPropertyOp29
 70
     1
102
RTVSPropertyOp30
 70
     1
102
RTVSPropertyOp31
 70
     1
102
RTVSPropertyOp32
 70
     1
102
RTVSPropertyOp33
 70
     1
102
RTVSPropertyOp34
 70
     1
102
RTVSPropertyOp35
 70
     1
102
RTVSPropertyOp36
 70
     1
102
RTVSPropertyOp37
 70
     1
102
RTVSPropertyOp38
 70
     1
102
RTVSPropertyOp39
 70
     1
102
RTVSPropertyOp40
 70
     1
102
RTVSPropertyOp41
 70
     1
102
RTVSPropertyOp42
 70
     1
102
RTVSPropertyOp43
 70
     1
102
RTVSPropertyOp44
 70
     1
102
RTVSPropertyOp45
 70
     1
102
RTVSPropertyOp46
 70
     1
102
RTVSPropertyOp47
 70
     1
102
RTVSPropertyOp48
 70
     1
102
RTVSPropertyOp49
 70
     1
102
RTVSPropertyOp50
 70
     1
102
RTVSPropertyOp51
 70
     0
102
RTVSPropertyOp52
 70
     0
102
RTVSPropertyOp53
 70
     1
102
RTVSPropertyOp54
 70
     1
102
RTVSPropertyOp55
 70
     1
102
RTVSPropertyOp56
 70
     1
102
RTVSPropertyOp57
 70
     1
102
RTVSPost2010Prop28
280
     0
102
RTVSPost2010PropOp28
 70
     1
102
RTVSPost2010Prop29
280
     1
102
RTVSPost2010PropOp29
 70
     1
102
RTVSPost2010Prop30
280
     1
102
RTVSPost2010PropOp30
 70
     1
102
RTVSPost2010Prop31
280
     0
102
RTVSPost2010PropOp31
 70
     1
102
RTVSPost2010Prop32
280
     0
102
RTVSPost2010PropOp32
 70
     1
102
RTVSPost2010Prop33
280
     0
102
RTVSPost2010PropOp33
 70
     1
102
RTVSPost2010Prop34
280
     0
102
RTVSPost2010PropOp34
 70
     1
102
RTVSPost2010Prop35
280
     0
102
RTVSPost2010PropOp35
 70
     1
102
RTVSPost2010Prop36
280
     0
102
RTVSPost2010PropOp36
 70
     1
102
RTVSPost2010Prop37
 90
       50
102
RTVSPost2010PropOp37
 70
     1
102
RTVSPost2010Prop38
140
0.0
102
RTVSPost2010PropOp38
 70
     1
102
RTVSPost2010Prop39
140
1.0
102
RTVSPost2010PropOp39
 70
     1
102
RTVSPost2010Prop40
 90
        0
102
RTVSPost2010PropOp40
 70
     1
102
RTVSPost2010Prop41ColorIndex
 90
       18
102
RTVSPost2010Prop41ColorRGB
 90
        0
102
RTVSPost2010PropOp41
 70
     1
102
RTVSPost2010Prop42
 90
       50
102
RTVSPost2010PropOp42
 70
     1
102
RTVSPost2010Prop43
 90
        3
102
RTVSPost2010PropOp43
 70
     1
102
RTVSPost2010Prop44ColorIndex
 90
        5
102
RTVSPost2010Prop44ColorRGB
 90
      255
102
RTVSPost2010PropOp44
 70
     1
102
RTVSPost2010Prop45
280
     0
102
RTVSPost2010PropOp45
 70
     1
102
RTVSPost2010Prop46
 90
       50
102
RTVSPost2010PropOp46
 70
     1
102
RTVSPost2010Prop47
 90
       50
102
RTVSPost2010PropOp47
 70
     1
102
RTVSPost2010Prop48
 90
       50
102
RTVSPost2010PropOp48
 70
     1
102
RTVSPost2010Prop49
280
     0
102
RTVSPost2010PropOp49
 70
     1
102
RTVSPost2010Prop50
 90
       50
102
RTVSPost2010PropOp50
 70
     1
102
RTVSPost2010Prop51ColorIndex
 90
      256
102
RTVSPost2010Prop51ColorRGB
 90
-16777216
102
RTVSPost2010PropOp51
 70
     0
102
RTVSPost2010Prop52
140
1.0
102
RTVSPost2010PropOp52
 70
     0
102
RTVSPost2010Prop53
 90
        2
102
RTVSPost2010PropOp53
 70
     1
102
RTVSPost2010Prop54
  1
strokes_ogs.tif
102
RTVSPost2010PropOp54
 70
     1
102
RTVSPost2010Prop55
280
     0
102
RTVSPost2010PropOp55
 70
     1
102
RTVSPost2010Prop56
140
1.0
102
RTVSPost2010PropOp56
 70
     1
102
RTVSPost2010Prop57
140
1.0
102
RTVSPost2010PropOp57
 70
     1
  0
XRECORD
  5
405
102
{ACAD_REACTORS
330
404
102
}
330
404
100
AcDbXrecord
280
     1
102
RTVSPropertyOp0
 70
     0
102
RTVSPropertyOp1
 70
     0
102
RTVSPropertyOp2
 70
     0
102
RTVSPropertyOp3
 70
     0
102
RTVSPropertyOp4
 70
     0
102
RTVSPropertyOp5
 70
     0
102
RTVSPropertyOp6
 70
     0
102
RTVSPropertyOp7
 70
     0
102
RTVSPropertyOp8
 70
     0
102
RTVSPropertyOp9
 70
     0
102
RTVSPropertyOp10
 70
     0
102
RTVSPropertyOp11
 70
     0
102
RTVSPropertyOp12
 70
     0
102
RTVSPropertyOp13
 70
     0
102
RTVSPropertyOp14
 70
     2
102
RTVSPropertyOp15
 70
     0
102
RTVSPropertyOp16
 70
     0
102
RTVSPropertyOp17
 70
     0
102
RTVSPropertyOp18
 70
     0
102
RTVSPropertyOp19
 70
     0
102
RTVSPropertyOp20
 70
     0
102
RTVSPropertyOp21
 70
     0
102
RTVSPropertyOp22
 70
     0
102
RTVSPropertyOp23
 70
     0
102
RTVSPropertyOp24
 70
     0
102
RTVSPropertyOp25
 70
     0
102
RTVSPropertyOp26
 70
     0
102
RTVSPropertyOp27
 70
     0
102
RTVSPropertyOp28
 70
     0
102
RTVSPropertyOp29
 70
     0
102
RTVSPropertyOp30
 70
     0
102
RTVSPropertyOp31
 70
     0
102
RTVSPropertyOp32
 70
     0
102
RTVSPropertyOp33
 70
     0
102
RTVSPropertyOp34
 70
     0
102
RTVSPropertyOp35
 70
     0
102
RTVSPropertyOp36
 70
     0
102
RTVSPropertyOp37
 70
     0
102
RTVSPropertyOp38
 70
     0
102
RTVSPropertyOp39
 70
     0
102
RTVSPropertyOp40
 70
     0
102
RTVSPropertyOp41
 70
     0
102
RTVSPropertyOp42
 70
     0
102
RTVSPropertyOp43
 70
     0
102
RTVSPropertyOp44
 70
     0
102
RTVSPropertyOp45
 70
     0
102
RTVSPropertyOp46
 70
     0
102
RTVSPropertyOp47
 70
     0
102
RTVSPropertyOp48
 70
     0
102
RTVSPropertyOp49
 70
     0
102
RTVSPropertyOp50
 70
     0
102
RTVSPropertyOp51
 70
     0
102
RTVSPropertyOp52
 70
     0
102
RTVSPropertyOp53
 70
     0
102
RTVSPropertyOp54
 70
     0
102
RTVSPropertyOp55
 70
     0
102
RTVSPropertyOp56
 70
     0
102
RTVSPropertyOp57
 70
     0
102
RTVSPost2010Prop28
280
     0
102
RTVSPost2010PropOp28
 70
     0
102
RTVSPost2010Prop29
280
     1
102
RTVSPost2010PropOp29
 70
     0
102
RTVSPost2010Prop30
280
     1
102
RTVSPost2010PropOp30
 70
     0
102
RTVSPost2010Prop31
280
     0
102
RTVSPost2010PropOp31
 70
     0
102
RTVSPost2010Prop32
280
     0
102
RTVSPost2010PropOp32
 70
     0
102
RTVSPost2010Prop33
280
     0
102
RTVSPost2010PropOp33
 70
     0
102
RTVSPost2010Prop34
280
     0
102
RTVSPost2010PropOp34
 70
     0
102
RTVSPost2010Prop35
280
     0
102
RTVSPost2010PropOp35
 70
     0
102
RTVSPost2010Prop36
280
     0
102
RTVSPost2010PropOp36
 70
     0
102
RTVSPost2010Prop37
 90
       50
102
RTVSPost2010PropOp37
 70
     0
102
RTVSPost2010Prop38
140
0.0
102
RTVSPost2010PropOp38
 70
     0
102
RTVSPost2010Prop39
140
1.0
102
RTVSPost2010PropOp39
 70
     0
102
RTVSPost2010Prop40
 90
        0
102
RTVSPost2010PropOp40
 70
     0
102
RTVSPost2010Prop41ColorIndex
 90
       18
102
RTVSPost2010Prop41ColorRGB
 90
        0
102
RTVSPost2010PropOp41
 70
     0
102
RTVSPost2010Prop42
 90
       50
102
RTVSPost2010PropOp42
 70
     0
102
RTVSPost2010Prop43
 90
        3
102
RTVSPost2010PropOp43
 70
     0
102
RTVSPost2010Prop44ColorIndex
 90
        5
102
RTVSPost2010Prop44ColorRGB
 90
      255
102
RTVSPost2010PropOp44
 70
     0
102
RTVSPost2010Prop45
280
     0
102
RTVSPost2010PropOp45
 70
     0
102
RTVSPost2010Prop46
 90
       50
102
RTVSPost2010PropOp46
 70
     0
102
RTVSPost2010Prop47
 90
       50
102
RTVSPost2010PropOp47
 70
     0
102
RTVSPost2010Prop48
 90
       50
102
RTVSPost2010PropOp48
 70
     0
102
RTVSPost2010Prop49
280
     0
102
RTVSPost2010PropOp49
 70
     0
102
RTVSPost2010Prop50
 90
       50
102
RTVSPost2010PropOp50
 70
     0
102
RTVSPost2010Prop51ColorIndex
 90
      256
102
RTVSPost2010Prop51ColorRGB
 90
-16777216
102
RTVSPost2010PropOp51
 70
     0
102
RTVSPost2010Prop52
140
1.0
102
RTVSPost2010PropOp52
 70
     0
102
RTVSPost2010Prop53
 90
        2
102
RTVSPost2010PropOp53
 70
     0
102
RTVSPost2010Prop54
  1
strokes_ogs.tif
102
RTVSPost2010PropOp54
 70
     0
102
RTVSPost2010Prop55
280
     0
102
RTVSPost2010PropOp55
 70
     0
102
RTVSPost2010Prop56
140
1.0
102
RTVSPost2010PropOp56
 70
     0
102
RTVSPost2010Prop57
140
1.0
102
RTVSPost2010PropOp57
 70
     0
  0
XRECORD
  5
3F3
102
{ACAD_REACTORS
330
3F2
102
}
330
3F2
100
AcDbXrecord
280
     1
102
RTVSPropertyOp0
 70
     1
102
RTVSPropertyOp1
 70
     1
102
RTVSPropertyOp2
 70
     1
102
RTVSPropertyOp3
 70
     1
102
RTVSPropertyOp4
 70
     1
102
RTVSPropertyOp5
 70
     1
102
RTVSPropertyOp6
 70
     1
102
RTVSPropertyOp7
 70
     1
102
RTVSPropertyOp8
 70
     1
102
RTVSPropertyOp9
 70
     1
102
RTVSPropertyOp10
 70
     1
102
RTVSPropertyOp11
 70
     1
102
RTVSPropertyOp12
 70
     1
102
RTVSPropertyOp13
 70
     1
102
RTVSPropertyOp14
 70
     1
102
RTVSPropertyOp15
 70
     1
102
RTVSPropertyOp16
 70
     1
102
RTVSPropertyOp17
 70
     1
102
RTVSPropertyOp18
 70
     1
102
RTVSPropertyOp19
 70
     1
102
RTVSPropertyOp20
 70
     1
102
RTVSPropertyOp21
 70
     1
102
RTVSPropertyOp22
 70
     1
102
RTVSPropertyOp23
 70
     1
102
RTVSPropertyOp24
 70
     1
102
RTVSPropertyOp25
 70
     1
102
RTVSPropertyOp26
 70
     1
102
RTVSPropertyOp27
 70
     1
102
RTVSPropertyOp28
 70
     1
102
RTVSPropertyOp29
 70
     1
102
RTVSPropertyOp30
 70
     1
102
RTVSPropertyOp31
 70
     1
102
RTVSPropertyOp32
 70
     1
102
RTVSPropertyOp33
 70
     1
102
RTVSPropertyOp34
 70
     1
102
RTVSPropertyOp35
 70
     1
102
RTVSPropertyOp36
 70
     1
102
RTVSPropertyOp37
 70
     1
102
RTVSPropertyOp38
 70
     1
102
RTVSPropertyOp39
 70
     1
102
RTVSPropertyOp40
 70
     1
102
RTVSPropertyOp41
 70
     1
102
RTVSPropertyOp42
 70
     1
102
RTVSPropertyOp43
 70
     1
102
RTVSPropertyOp44
 70
     1
102
RTVSPropertyOp45
 70
     1
102
RTVSPropertyOp46
 70
     1
102
RTVSPropertyOp47
 70
     1
102
RTVSPropertyOp48
 70
     1
102
RTVSPropertyOp49
 70
     1
102
RTVSPropertyOp50
 70
     1
102
RTVSPropertyOp51
 70
     0
102
RTVSPropertyOp52
 70
     0
102
RTVSPropertyOp53
 70
     1
102
RTVSPropertyOp54
 70
     1
102
RTVSPropertyOp55
 70
     1
102
RTVSPropertyOp56
 70
     1
102
RTVSPropertyOp57
 70
     1
102
RTVSPost2010Prop28
280
     0
102
RTVSPost2010PropOp28
 70
     1
102
RTVSPost2010Prop29
280
     1
102
RTVSPost2010PropOp29
 70
     1
102
RTVSPost2010Prop30
280
     1
102
RTVSPost2010PropOp30
 70
     1
102
RTVSPost2010Prop31
280
     0
102
RTVSPost2010PropOp31
 70
     1
102
RTVSPost2010Prop32
280
     0
102
RTVSPost2010PropOp32
 70
     1
102
RTVSPost2010Prop33
280
     0
102
RTVSPost2010PropOp33
 70
     1
102
RTVSPost2010Prop34
280
     0
102
RTVSPost2010PropOp34
 70
     1
102
RTVSPost2010Prop35
280
     0
102
RTVSPost2010PropOp35
 70
     1
102
RTVSPost2010Prop36
280
     0
102
RTVSPost2010PropOp36
 70
     1
102
RTVSPost2010Prop37
 90
       50
102
RTVSPost2010PropOp37
 70
     1
102
RTVSPost2010Prop38
140
0.0
102
RTVSPost2010PropOp38
 70
     1
102
RTVSPost2010Prop39
140
1.0
102
RTVSPost2010PropOp39
 70
     1
102
RTVSPost2010Prop40
 90
        0
102
RTVSPost2010PropOp40
 70
     1
102
RTVSPost2010Prop41ColorIndex
 90
       18
102
RTVSPost2010Prop41ColorRGB
 90
        0
102
RTVSPost2010PropOp41
 70
     1
102
RTVSPost2010Prop42
 90
       50
102
RTVSPost2010PropOp42
 70
     1
102
RTVSPost2010Prop43
 90
        3
102
RTVSPost2010PropOp43
 70
     1
102
RTVSPost2010Prop44ColorIndex
 90
        5
102
RTVSPost2010Prop44ColorRGB
 90
      255
102
RTVSPost2010PropOp44
 70
     1
102
RTVSPost2010Prop45
280
     0
102
RTVSPost2010PropOp45
 70
     1
102
RTVSPost2010Prop46
 90
       50
102
RTVSPost2010PropOp46
 70
     1
102
RTVSPost2010Prop47
 90
       50
102
RTVSPost2010PropOp47
 70
     1
102
RTVSPost2010Prop48
 90
       50
102
RTVSPost2010PropOp48
 70
     1
102
RTVSPost2010Prop49
280
     0
102
RTVSPost2010PropOp49
 70
     1
102
RTVSPost2010Prop50
 90
       50
102
RTVSPost2010PropOp50
 70
     1
102
RTVSPost2010Prop51ColorIndex
 90
      256
102
RTVSPost2010Prop51ColorRGB
 90
-16777216
102
RTVSPost2010PropOp51
 70
     0
102
RTVSPost2010Prop52
140
1.0
102
RTVSPost2010PropOp52
 70
     0
102
RTVSPost2010Prop53
 90
        2
102
RTVSPost2010PropOp53
 70
     1
102
RTVSPost2010Prop54
  1
strokes_ogs.tif
102
RTVSPost2010PropOp54
 70
     1
102
RTVSPost2010Prop55
280
     0
102
RTVSPost2010PropOp55
 70
     1
102
RTVSPost2010Prop56
140
1.0
102
RTVSPost2010PropOp56
 70
     1
102
RTVSPost2010Prop57
140
1.0
102
RTVSPost2010PropOp57
 70
     1
  0
XRECORD
  5
411
102
{ACAD_REACTORS
330
410
102
}
330
410
100
AcDbXrecord
280
     1
102
RTVSPropertyOp0
 70
     1
102
RTVSPropertyOp1
 70
     1
102
RTVSPropertyOp2
 70
     1
102
RTVSPropertyOp3
 70
     1
102
RTVSPropertyOp4
 70
     1
102
RTVSPropertyOp5
 70
     1
102
RTVSPropertyOp6
 70
     1
102
RTVSPropertyOp7
 70
     1
102
RTVSPropertyOp8
 70
     1
102
RTVSPropertyOp9
 70
     1
102
RTVSPropertyOp10
 70
     1
102
RTVSPropertyOp11
 70
     1
102
RTVSPropertyOp12
 70
     1
102
RTVSPropertyOp13
 70
     1
102
RTVSPropertyOp14
 70
     1
102
RTVSPropertyOp15
 70
     1
102
RTVSPropertyOp16
 70
     1
102
RTVSPropertyOp17
 70
     1
102
RTVSPropertyOp18
 70
     1
102
RTVSPropertyOp19
 70
     1
102
RTVSPropertyOp20
 70
     1
102
RTVSPropertyOp21
 70
     1
102
RTVSPropertyOp22
 70
     1
102
RTVSPropertyOp23
 70
     1
102
RTVSPropertyOp24
 70
     1
102
RTVSPropertyOp25
 70
     1
102
RTVSPropertyOp26
 70
     1
102
RTVSPropertyOp27
 70
     1
102
RTVSPropertyOp28
 70
     1
102
RTVSPropertyOp29
 70
     1
102
RTVSPropertyOp30
 70
     1
102
RTVSPropertyOp31
 70
     1
102
RTVSPropertyOp32
 70
     1
102
RTVSPropertyOp33
 70
     1
102
RTVSPropertyOp34
 70
     1
102
RTVSPropertyOp35
 70
     1
102
RTVSPropertyOp36
 70
     1
102
RTVSPropertyOp37
 70
     1
102
RTVSPropertyOp38
 70
     1
102
RTVSPropertyOp39
 70
     1
102
RTVSPropertyOp40
 70
     1
102
RTVSPropertyOp41
 70
     1
102
RTVSPropertyOp42
 70
     1
102
RTVSPropertyOp43
 70
     1
102
RTVSPropertyOp44
 70
     1
102
RTVSPropertyOp45
 70
     1
102
RTVSPropertyOp46
 70
     1
102
RTVSPropertyOp47
 70
     1
102
RTVSPropertyOp48
 70
     1
102
RTVSPropertyOp49
 70
     1
102
RTVSPropertyOp50
 70
     1
102
RTVSPropertyOp51
 70
     0
102
RTVSPropertyOp52
 70
     0
102
RTVSPropertyOp53
 70
     1
102
RTVSPropertyOp54
 70
     1
102
RTVSPropertyOp55
 70
     1
102
RTVSPropertyOp56
 70
     1
102
RTVSPropertyOp57
 70
     1
102
RTVSPost2010Prop28
280
     0
102
RTVSPost2010PropOp28
 70
     1
102
RTVSPost2010Prop29
280
     1
102
RTVSPost2010PropOp29
 70
     1
102
RTVSPost2010Prop30
280
     1
102
RTVSPost2010PropOp30
 70
     1
102
RTVSPost2010Prop31
280
     0
102
RTVSPost2010PropOp31
 70
     1
102
RTVSPost2010Prop32
280
     0
102
RTVSPost2010PropOp32
 70
     1
102
RTVSPost2010Prop33
280
     0
102
RTVSPost2010PropOp33
 70
     1
102
RTVSPost2010Prop34
280
     0
102
RTVSPost2010PropOp34
 70
     1
102
RTVSPost2010Prop35
280
     0
102
RTVSPost2010PropOp35
 70
     1
102
RTVSPost2010Prop36
280
     0
102
RTVSPost2010PropOp36
 70
     1
102
RTVSPost2010Prop37
 90
       50
102
RTVSPost2010PropOp37
 70
     1
102
RTVSPost2010Prop38
140
0.0
102
RTVSPost2010PropOp38
 70
     1
102
RTVSPost2010Prop39
140
1.0
102
RTVSPost2010PropOp39
 70
     1
102
RTVSPost2010Prop40
 90
        0
102
RTVSPost2010PropOp40
 70
     1
102
RTVSPost2010Prop41ColorIndex
 90
       18
102
RTVSPost2010Prop41ColorRGB
 90
        0
102
RTVSPost2010PropOp41
 70
     1
102
RTVSPost2010Prop42
 90
       50
102
RTVSPost2010PropOp42
 70
     1
102
RTVSPost2010Prop43
 90
        3
102
RTVSPost2010PropOp43
 70
     1
102
RTVSPost2010Prop44ColorIndex
 90
        5
102
RTVSPost2010Prop44ColorRGB
 90
      255
102
RTVSPost2010PropOp44
 70
     1
102
RTVSPost2010Prop45
280
     0
102
RTVSPost2010PropOp45
 70
     1
102
RTVSPost2010Prop46
 90
       50
102
RTVSPost2010PropOp46
 70
     1
102
RTVSPost2010Prop47
 90
       50
102
RTVSPost2010PropOp47
 70
     1
102
RTVSPost2010Prop48
 90
       50
102
RTVSPost2010PropOp48
 70
     1
102
RTVSPost2010Prop49
280
     0
102
RTVSPost2010PropOp49
 70
     1
102
RTVSPost2010Prop50
 90
       50
102
RTVSPost2010PropOp50
 70
     1
102
RTVSPost2010Prop51ColorIndex
 90
      256
102
RTVSPost2010Prop51ColorRGB
 90
-16777216
102
RTVSPost2010PropOp51
 70
     0
102
RTVSPost2010Prop52
140
1.0
102
RTVSPost2010PropOp52
 70
     0
102
RTVSPost2010Prop53
 90
        2
102
RTVSPost2010PropOp53
 70
     1
102
RTVSPost2010Prop54
  1
strokes_ogs.tif
102
RTVSPost2010PropOp54
 70
     1
102
RTVSPost2010Prop55
280
     0
102
RTVSPost2010PropOp55
 70
     1
102
RTVSPost2010Prop56
140
1.0
102
RTVSPost2010PropOp56
 70
     1
102
RTVSPost2010Prop57
140
1.0
102
RTVSPost2010PropOp57
 70
     1
  0
XRECORD
  5
40F
102
{ACAD_REACTORS
330
40E
102
}
330
40E
100
AcDbXrecord
280
     1
102
RTVSPropertyOp0
 70
     1
102
RTVSPropertyOp1
 70
     1
102
RTVSPropertyOp2
 70
     1
102
RTVSPropertyOp3
 70
     1
102
RTVSPropertyOp4
 70
     1
102
RTVSPropertyOp5
 70
     1
102
RTVSPropertyOp6
 70
     1
102
RTVSPropertyOp7
 70
     1
102
RTVSPropertyOp8
 70
     1
102
RTVSPropertyOp9
 70
     1
102
RTVSPropertyOp10
 70
     1
102
RTVSPropertyOp11
 70
     1
102
RTVSPropertyOp12
 70
     1
102
RTVSPropertyOp13
 70
     1
102
RTVSPropertyOp14
 70
     1
102
RTVSPropertyOp15
 70
     1
102
RTVSPropertyOp16
 70
     1
102
RTVSPropertyOp17
 70
     1
102
RTVSPropertyOp18
 70
     1
102
RTVSPropertyOp19
 70
     1
102
RTVSPropertyOp20
 70
     1
102
RTVSPropertyOp21
 70
     1
102
RTVSPropertyOp22
 70
     1
102
RTVSPropertyOp23
 70
     1
102
RTVSPropertyOp24
 70
     1
102
RTVSPropertyOp25
 70
     1
102
RTVSPropertyOp26
 70
     1
102
RTVSPropertyOp27
 70
     1
102
RTVSPropertyOp28
 70
     1
102
RTVSPropertyOp29
 70
     1
102
RTVSPropertyOp30
 70
     1
102
RTVSPropertyOp31
 70
     1
102
RTVSPropertyOp32
 70
     1
102
RTVSPropertyOp33
 70
     1
102
RTVSPropertyOp34
 70
     1
102
RTVSPropertyOp35
 70
     1
102
RTVSPropertyOp36
 70
     1
102
RTVSPropertyOp37
 70
     1
102
RTVSPropertyOp38
 70
     1
102
RTVSPropertyOp39
 70
     1
102
RTVSPropertyOp40
 70
     1
102
RTVSPropertyOp41
 70
     1
102
RTVSPropertyOp42
 70
     1
102
RTVSPropertyOp43
 70
     1
102
RTVSPropertyOp44
 70
     1
102
RTVSPropertyOp45
 70
     1
102
RTVSPropertyOp46
 70
     1
102
RTVSPropertyOp47
 70
     1
102
RTVSPropertyOp48
 70
     1
102
RTVSPropertyOp49
 70
     1
102
RTVSPropertyOp50
 70
     1
102
RTVSPropertyOp51
 70
     0
102
RTVSPropertyOp52
 70
     0
102
RTVSPropertyOp53
 70
     1
102
RTVSPropertyOp54
 70
     1
102
RTVSPropertyOp55
 70
     1
102
RTVSPropertyOp56
 70
     1
102
RTVSPropertyOp57
 70
     1
102
RTVSPost2010Prop28
280
     0
102
RTVSPost2010PropOp28
 70
     1
102
RTVSPost2010Prop29
280
     1
102
RTVSPost2010PropOp29
 70
     1
102
RTVSPost2010Prop30
280
     1
102
RTVSPost2010PropOp30
 70
     1
102
RTVSPost2010Prop31
280
     0
102
RTVSPost2010PropOp31
 70
     1
102
RTVSPost2010Prop32
280
     0
102
RTVSPost2010PropOp32
 70
     1
102
RTVSPost2010Prop33
280
     0
102
RTVSPost2010PropOp33
 70
     1
102
RTVSPost2010Prop34
280
     0
102
RTVSPost2010PropOp34
 70
     1
102
RTVSPost2010Prop35
280
     0
102
RTVSPost2010PropOp35
 70
     1
102
RTVSPost2010Prop36
280
     0
102
RTVSPost2010PropOp36
 70
     1
102
RTVSPost2010Prop37
 90
       50
102
RTVSPost2010PropOp37
 70
     1
102
RTVSPost2010Prop38
140
0.0
102
RTVSPost2010PropOp38
 70
     1
102
RTVSPost2010Prop39
140
1.0
102
RTVSPost2010PropOp39
 70
     1
102
RTVSPost2010Prop40
 90
        0
102
RTVSPost2010PropOp40
 70
     1
102
RTVSPost2010Prop41ColorIndex
 90
       18
102
RTVSPost2010Prop41ColorRGB
 90
        0
102
RTVSPost2010PropOp41
 70
     1
102
RTVSPost2010Prop42
 90
       50
102
RTVSPost2010PropOp42
 70
     1
102
RTVSPost2010Prop43
 90
        3
102
RTVSPost2010PropOp43
 70
     1
102
RTVSPost2010Prop44ColorIndex
 90
        5
102
RTVSPost2010Prop44ColorRGB
 90
      255
102
RTVSPost2010PropOp44
 70
     1
102
RTVSPost2010Prop45
280
     0
102
RTVSPost2010PropOp45
 70
     1
102
RTVSPost2010Prop46
 90
       50
102
RTVSPost2010PropOp46
 70
     1
102
RTVSPost2010Prop47
 90
       50
102
RTVSPost2010PropOp47
 70
     1
102
RTVSPost2010Prop48
 90
       50
102
RTVSPost2010PropOp48
 70
     1
102
RTVSPost2010Prop49
280
     0
102
RTVSPost2010PropOp49
 70
     1
102
RTVSPost2010Prop50
 90
       50
102
RTVSPost2010PropOp50
 70
     1
102
RTVSPost2010Prop51ColorIndex
 90
      256
102
RTVSPost2010Prop51ColorRGB
 90
-16777216
102
RTVSPost2010PropOp51
 70
     0
102
RTVSPost2010Prop52
140
1.0
102
RTVSPost2010PropOp52
 70
     0
102
RTVSPost2010Prop53
 90
        2
102
RTVSPost2010PropOp53
 70
     1
102
RTVSPost2010Prop54
  1
strokes_ogs.tif
102
RTVSPost2010PropOp54
 70
     1
102
RTVSPost2010Prop55
280
     0
102
RTVSPost2010PropOp55
 70
     1
102
RTVSPost2010Prop56
140
1.0
102
RTVSPost2010PropOp56
 70
     1
102
RTVSPost2010Prop57
140
1.0
102
RTVSPost2010PropOp57
 70
     1
  0
XRECORD
  5
409
102
{ACAD_REACTORS
330
408
102
}
330
408
100
AcDbXrecord
280
     1
102
RTVSPropertyOp0
 70
     1
102
RTVSPropertyOp1
 70
     1
102
RTVSPropertyOp2
 70
     1
102
RTVSPropertyOp3
 70
     1
102
RTVSPropertyOp4
 70
     1
102
RTVSPropertyOp5
 70
     1
102
RTVSPropertyOp6
 70
     1
102
RTVSPropertyOp7
 70
     1
102
RTVSPropertyOp8
 70
     1
102
RTVSPropertyOp9
 70
     1
102
RTVSPropertyOp10
 70
     1
102
RTVSPropertyOp11
 70
     1
102
RTVSPropertyOp12
 70
     1
102
RTVSPropertyOp13
 70
     1
102
RTVSPropertyOp14
 70
     1
102
RTVSPropertyOp15
 70
     1
102
RTVSPropertyOp16
 70
     1
102
RTVSPropertyOp17
 70
     1
102
RTVSPropertyOp18
 70
     1
102
RTVSPropertyOp19
 70
     1
102
RTVSPropertyOp20
 70
     1
102
RTVSPropertyOp21
 70
     1
102
RTVSPropertyOp22
 70
     1
102
RTVSPropertyOp23
 70
     1
102
RTVSPropertyOp24
 70
     1
102
RTVSPropertyOp25
 70
     1
102
RTVSPropertyOp26
 70
     1
102
RTVSPropertyOp27
 70
     1
102
RTVSPropertyOp28
 70
     1
102
RTVSPropertyOp29
 70
     1
102
RTVSPropertyOp30
 70
     1
102
RTVSPropertyOp31
 70
     1
102
RTVSPropertyOp32
 70
     1
102
RTVSPropertyOp33
 70
     1
102
RTVSPropertyOp34
 70
     1
102
RTVSPropertyOp35
 70
     1
102
RTVSPropertyOp36
 70
     1
102
RTVSPropertyOp37
 70
     1
102
RTVSPropertyOp38
 70
     1
102
RTVSPropertyOp39
 70
     1
102
RTVSPropertyOp40
 70
     1
102
RTVSPropertyOp41
 70
     1
102
RTVSPropertyOp42
 70
     1
102
RTVSPropertyOp43
 70
     1
102
RTVSPropertyOp44
 70
     1
102
RTVSPropertyOp45
 70
     1
102
RTVSPropertyOp46
 70
     1
102
RTVSPropertyOp47
 70
     1
102
RTVSPropertyOp48
 70
     1
102
RTVSPropertyOp49
 70
     1
102
RTVSPropertyOp50
 70
     1
102
RTVSPropertyOp51
 70
     0
102
RTVSPropertyOp52
 70
     0
102
RTVSPropertyOp53
 70
     1
102
RTVSPropertyOp54
 70
     1
102
RTVSPropertyOp55
 70
     1
102
RTVSPropertyOp56
 70
     1
102
RTVSPropertyOp57
 70
     1
102
RTVSPost2010Prop28
280
     0
102
RTVSPost2010PropOp28
 70
     1
102
RTVSPost2010Prop29
280
     1
102
RTVSPost2010PropOp29
 70
     1
102
RTVSPost2010Prop30
280
     1
102
RTVSPost2010PropOp30
 70
     1
102
RTVSPost2010Prop31
280
     0
102
RTVSPost2010PropOp31
 70
     1
102
RTVSPost2010Prop32
280
     0
102
RTVSPost2010PropOp32
 70
     1
102
RTVSPost2010Prop33
280
     0
102
RTVSPost2010PropOp33
 70
     1
102
RTVSPost2010Prop34
280
     0
102
RTVSPost2010PropOp34
 70
     1
102
RTVSPost2010Prop35
280
     0
102
RTVSPost2010PropOp35
 70
     1
102
RTVSPost2010Prop36
280
     0
102
RTVSPost2010PropOp36
 70
     1
102
RTVSPost2010Prop37
 90
       50
102
RTVSPost2010PropOp37
 70
     1
102
RTVSPost2010Prop38
140
0.0
102
RTVSPost2010PropOp38
 70
     1
102
RTVSPost2010Prop39
140
1.0
102
RTVSPost2010PropOp39
 70
     1
102
RTVSPost2010Prop40
 90
        0
102
RTVSPost2010PropOp40
 70
     1
102
RTVSPost2010Prop41ColorIndex
 90
       18
102
RTVSPost2010Prop41ColorRGB
 90
        0
102
RTVSPost2010PropOp41
 70
     1
102
RTVSPost2010Prop42
 90
       50
102
RTVSPost2010PropOp42
 70
     1
102
RTVSPost2010Prop43
 90
        3
102
RTVSPost2010PropOp43
 70
     1
102
RTVSPost2010Prop44ColorIndex
 90
        5
102
RTVSPost2010Prop44ColorRGB
 90
      255
102
RTVSPost2010PropOp44
 70
     1
102
RTVSPost2010Prop45
280
     0
102
RTVSPost2010PropOp45
 70
     1
102
RTVSPost2010Prop46
 90
       50
102
RTVSPost2010PropOp46
 70
     1
102
RTVSPost2010Prop47
 90
       50
102
RTVSPost2010PropOp47
 70
     1
102
RTVSPost2010Prop48
 90
       50
102
RTVSPost2010PropOp48
 70
     1
102
RTVSPost2010Prop49
280
     0
102
RTVSPost2010PropOp49
 70
     1
102
RTVSPost2010Prop50
 90
       50
102
RTVSPost2010PropOp50
 70
     1
102
RTVSPost2010Prop51ColorIndex
 90
      256
102
RTVSPost2010Prop51ColorRGB
 90
-16777216
102
RTVSPost2010PropOp51
 70
     0
102
RTVSPost2010Prop52
140
1.0
102
RTVSPost2010PropOp52
 70
     0
102
RTVSPost2010Prop53
 90
        2
102
RTVSPost2010PropOp53
 70
     1
102
RTVSPost2010Prop54
  1
strokes_ogs.tif
102
RTVSPost2010PropOp54
 70
     1
102
RTVSPost2010Prop55
280
     0
102
RTVSPost2010PropOp55
 70
     1
102
RTVSPost2010Prop56
140
1.0
102
RTVSPost2010PropOp56
 70
     1
102
RTVSPost2010Prop57
140
1.0
102
RTVSPost2010PropOp57
 70
     1
  0
XRECORD
  5
40B
102
{ACAD_REACTORS
330
40A
102
}
330
40A
100
AcDbXrecord
280
     1
102
RTVSPropertyOp0
 70
     1
102
RTVSPropertyOp1
 70
     1
102
RTVSPropertyOp2
 70
     1
102
RTVSPropertyOp3
 70
     1
102
RTVSPropertyOp4
 70
     1
102
RTVSPropertyOp5
 70
     1
102
RTVSPropertyOp6
 70
     1
102
RTVSPropertyOp7
 70
     1
102
RTVSPropertyOp8
 70
     1
102
RTVSPropertyOp9
 70
     1
102
RTVSPropertyOp10
 70
     1
102
RTVSPropertyOp11
 70
     1
102
RTVSPropertyOp12
 70
     1
102
RTVSPropertyOp13
 70
     1
102
RTVSPropertyOp14
 70
     1
102
RTVSPropertyOp15
 70
     1
102
RTVSPropertyOp16
 70
     1
102
RTVSPropertyOp17
 70
     1
102
RTVSPropertyOp18
 70
     1
102
RTVSPropertyOp19
 70
     1
102
RTVSPropertyOp20
 70
     1
102
RTVSPropertyOp21
 70
     1
102
RTVSPropertyOp22
 70
     1
102
RTVSPropertyOp23
 70
     1
102
RTVSPropertyOp24
 70
     1
102
RTVSPropertyOp25
 70
     1
102
RTVSPropertyOp26
 70
     1
102
RTVSPropertyOp27
 70
     1
102
RTVSPropertyOp28
 70
     1
102
RTVSPropertyOp29
 70
     1
102
RTVSPropertyOp30
 70
     1
102
RTVSPropertyOp31
 70
     1
102
RTVSPropertyOp32
 70
     1
102
RTVSPropertyOp33
 70
     1
102
RTVSPropertyOp34
 70
     1
102
RTVSPropertyOp35
 70
     1
102
RTVSPropertyOp36
 70
     1
102
RTVSPropertyOp37
 70
     1
102
RTVSPropertyOp38
 70
     1
102
RTVSPropertyOp39
 70
     1
102
RTVSPropertyOp40
 70
     1
102
RTVSPropertyOp41
 70
     1
102
RTVSPropertyOp42
 70
     1
102
RTVSPropertyOp43
 70
     1
102
RTVSPropertyOp44
 70
     1
102
RTVSPropertyOp45
 70
     1
102
RTVSPropertyOp46
 70
     1
102
RTVSPropertyOp47
 70
     1
102
RTVSPropertyOp48
 70
     1
102
RTVSPropertyOp49
 70
     1
102
RTVSPropertyOp50
 70
     1
102
RTVSPropertyOp51
 70
     0
102
RTVSPropertyOp52
 70
     0
102
RTVSPropertyOp53
 70
     1
102
RTVSPropertyOp54
 70
     1
102
RTVSPropertyOp55
 70
     1
102
RTVSPropertyOp56
 70
     1
102
RTVSPropertyOp57
 70
     1
102
RTVSPost2010Prop28
280
     0
102
RTVSPost2010PropOp28
 70
     1
102
RTVSPost2010Prop29
280
     1
102
RTVSPost2010PropOp29
 70
     1
102
RTVSPost2010Prop30
280
     1
102
RTVSPost2010PropOp30
 70
     1
102
RTVSPost2010Prop31
280
     0
102
RTVSPost2010PropOp31
 70
     1
102
RTVSPost2010Prop32
280
     0
102
RTVSPost2010PropOp32
 70
     1
102
RTVSPost2010Prop33
280
     0
102
RTVSPost2010PropOp33
 70
     1
102
RTVSPost2010Prop34
280
     0
102
RTVSPost2010PropOp34
 70
     1
102
RTVSPost2010Prop35
280
     0
102
RTVSPost2010PropOp35
 70
     1
102
RTVSPost2010Prop36
280
     0
102
RTVSPost2010PropOp36
 70
     1
102
RTVSPost2010Prop37
 90
       50
102
RTVSPost2010PropOp37
 70
     1
102
RTVSPost2010Prop38
140
0.0
102
RTVSPost2010PropOp38
 70
     1
102
RTVSPost2010Prop39
140
1.0
102
RTVSPost2010PropOp39
 70
     1
102
RTVSPost2010Prop40
 90
        0
102
RTVSPost2010PropOp40
 70
     1
102
RTVSPost2010Prop41ColorIndex
 90
       18
102
RTVSPost2010Prop41ColorRGB
 90
        0
102
RTVSPost2010PropOp41
 70
     1
102
RTVSPost2010Prop42
 90
       50
102
RTVSPost2010PropOp42
 70
     1
102
RTVSPost2010Prop43
 90
        3
102
RTVSPost2010PropOp43
 70
     1
102
RTVSPost2010Prop44ColorIndex
 90
        5
102
RTVSPost2010Prop44ColorRGB
 90
      255
102
RTVSPost2010PropOp44
 70
     1
102
RTVSPost2010Prop45
280
     0
102
RTVSPost2010PropOp45
 70
     1
102
RTVSPost2010Prop46
 90
       50
102
RTVSPost2010PropOp46
 70
     1
102
RTVSPost2010Prop47
 90
       50
102
RTVSPost2010PropOp47
 70
     1
102
RTVSPost2010Prop48
 90
       50
102
RTVSPost2010PropOp48
 70
     1
102
RTVSPost2010Prop49
280
     0
102
RTVSPost2010PropOp49
 70
     1
102
RTVSPost2010Prop50
 90
       50
102
RTVSPost2010PropOp50
 70
     1
102
RTVSPost2010Prop51ColorIndex
 90
      256
102
RTVSPost2010Prop51ColorRGB
 90
-16777216
102
RTVSPost2010PropOp51
 70
     0
102
RTVSPost2010Prop52
140
1.0
102
RTVSPost2010PropOp52
 70
     0
102
RTVSPost2010Prop53
 90
        2
102
RTVSPost2010PropOp53
 70
     1
102
RTVSPost2010Prop54
  1
strokes_ogs.tif
102
RTVSPost2010PropOp54
 70
     1
102
RTVSPost2010Prop55
280
     0
102
RTVSPost2010PropOp55
 70
     1
102
RTVSPost2010Prop56
140
1.0
102
RTVSPost2010PropOp56
 70
     1
102
RTVSPost2010Prop57
140
1.0
102
RTVSPost2010PropOp57
 70
     1
  0
XRECORD
  5
3FB
102
{ACAD_REACTORS
330
3FA
102
}
330
3FA
100
AcDbXrecord
280
     1
102
RTVSPropertyOp0
 70
     1
102
RTVSPropertyOp1
 70
     1
102
RTVSPropertyOp2
 70
     1
102
RTVSPropertyOp3
 70
     1
102
RTVSPropertyOp4
 70
     1
102
RTVSPropertyOp5
 70
     1
102
RTVSPropertyOp6
 70
     1
102
RTVSPropertyOp7
 70
     1
102
RTVSPropertyOp8
 70
     1
102
RTVSPropertyOp9
 70
     1
102
RTVSPropertyOp10
 70
     1
102
RTVSPropertyOp11
 70
     1
102
RTVSPropertyOp12
 70
     1
102
RTVSPropertyOp13
 70
     1
102
RTVSPropertyOp14
 70
     1
102
RTVSPropertyOp15
 70
     1
102
RTVSPropertyOp16
 70
     1
102
RTVSPropertyOp17
 70
     1
102
RTVSPropertyOp18
 70
     1
102
RTVSPropertyOp19
 70
     1
102
RTVSPropertyOp20
 70
     1
102
RTVSPropertyOp21
 70
     1
102
RTVSPropertyOp22
 70
     1
102
RTVSPropertyOp23
 70
     1
102
RTVSPropertyOp24
 70
     1
102
RTVSPropertyOp25
 70
     1
102
RTVSPropertyOp26
 70
     1
102
RTVSPropertyOp27
 70
     1
102
RTVSPropertyOp28
 70
     1
102
RTVSPropertyOp29
 70
     1
102
RTVSPropertyOp30
 70
     1
102
RTVSPropertyOp31
 70
     1
102
RTVSPropertyOp32
 70
     1
102
RTVSPropertyOp33
 70
     1
102
RTVSPropertyOp34
 70
     1
102
RTVSPropertyOp35
 70
     1
102
RTVSPropertyOp36
 70
     1
102
RTVSPropertyOp37
 70
     1
102
RTVSPropertyOp38
 70
     1
102
RTVSPropertyOp39
 70
     1
102
RTVSPropertyOp40
 70
     1
102
RTVSPropertyOp41
 70
     1
102
RTVSPropertyOp42
 70
     1
102
RTVSPropertyOp43
 70
     1
102
RTVSPropertyOp44
 70
     1
102
RTVSPropertyOp45
 70
     1
102
RTVSPropertyOp46
 70
     1
102
RTVSPropertyOp47
 70
     1
102
RTVSPropertyOp48
 70
     1
102
RTVSPropertyOp49
 70
     1
102
RTVSPropertyOp50
 70
     1
102
RTVSPropertyOp51
 70
     0
102
RTVSPropertyOp52
 70
     0
102
RTVSPropertyOp53
 70
     1
102
RTVSPropertyOp54
 70
     1
102
RTVSPropertyOp55
 70
     1
102
RTVSPropertyOp56
 70
     1
102
RTVSPropertyOp57
 70
     1
102
RTVSPost2010Prop28
280
     0
102
RTVSPost2010PropOp28
 70
     1
102
RTVSPost2010Prop29
280
     1
102
RTVSPost2010PropOp29
 70
     1
102
RTVSPost2010Prop30
280
     1
102
RTVSPost2010PropOp30
 70
     1
102
RTVSPost2010Prop31
280
     0
102
RTVSPost2010PropOp31
 70
     1
102
RTVSPost2010Prop32
280
     0
102
RTVSPost2010PropOp32
 70
     1
102
RTVSPost2010Prop33
280
     0
102
RTVSPost2010PropOp33
 70
     1
102
RTVSPost2010Prop34
280
     0
102
RTVSPost2010PropOp34
 70
     1
102
RTVSPost2010Prop35
280
     0
102
RTVSPost2010PropOp35
 70
     1
102
RTVSPost2010Prop36
280
     0
102
RTVSPost2010PropOp36
 70
     1
102
RTVSPost2010Prop37
 90
       50
102
RTVSPost2010PropOp37
 70
     1
102
RTVSPost2010Prop38
140
0.0
102
RTVSPost2010PropOp38
 70
     1
102
RTVSPost2010Prop39
140
1.0
102
RTVSPost2010PropOp39
 70
     1
102
RTVSPost2010Prop40
 90
        0
102
RTVSPost2010PropOp40
 70
     1
102
RTVSPost2010Prop41ColorIndex
 90
       18
102
RTVSPost2010Prop41ColorRGB
 90
        0
102
RTVSPost2010PropOp41
 70
     1
102
RTVSPost2010Prop42
 90
       50
102
RTVSPost2010PropOp42
 70
     1
102
RTVSPost2010Prop43
 90
        3
102
RTVSPost2010PropOp43
 70
     1
102
RTVSPost2010Prop44ColorIndex
 90
        5
102
RTVSPost2010Prop44ColorRGB
 90
      255
102
RTVSPost2010PropOp44
 70
     1
102
RTVSPost2010Prop45
280
     0
102
RTVSPost2010PropOp45
 70
     1
102
RTVSPost2010Prop46
 90
       50
102
RTVSPost2010PropOp46
 70
     1
102
RTVSPost2010Prop47
 90
       50
102
RTVSPost2010PropOp47
 70
     1
102
RTVSPost2010Prop48
 90
       50
102
RTVSPost2010PropOp48
 70
     1
102
RTVSPost2010Prop49
280
     0
102
RTVSPost2010PropOp49
 70
     1
102
RTVSPost2010Prop50
 90
       50
102
RTVSPost2010PropOp50
 70
     1
102
RTVSPost2010Prop51ColorIndex
 90
      256
102
RTVSPost2010Prop51ColorRGB
 90
-16777216
102
RTVSPost2010PropOp51
 70
     0
102
RTVSPost2010Prop52
140
1.0
102
RTVSPost2010PropOp52
 70
     0
102
RTVSPost2010Prop53
 90
        2
102
RTVSPost2010PropOp53
 70
     1
102
RTVSPost2010Prop54
  1
strokes_ogs.tif
102
RTVSPost2010PropOp54
 70
     1
102
RTVSPost2010Prop55
280
     0
102
RTVSPost2010PropOp55
 70
     1
102
RTVSPost2010Prop56
140
1.0
102
RTVSPost2010PropOp56
 70
     1
102
RTVSPost2010Prop57
140
1.0
102
RTVSPost2010PropOp57
 70
     1
  0
XRECORD
  5
3ED
102
{ACAD_REACTORS
330
3EC
102
}
330
3EC
100
AcDbXrecord
280
     1
102
RTVSPropertyOp0
 70
     1
102
RTVSPropertyOp1
 70
     1
102
RTVSPropertyOp2
 70
     1
102
RTVSPropertyOp3
 70
     1
102
RTVSPropertyOp4
 70
     1
102
RTVSPropertyOp5
 70
     1
102
RTVSPropertyOp6
 70
     1
102
RTVSPropertyOp7
 70
     1
102
RTVSPropertyOp8
 70
     1
102
RTVSPropertyOp9
 70
     1
102
RTVSPropertyOp10
 70
     1
102
RTVSPropertyOp11
 70
     1
102
RTVSPropertyOp12
 70
     1
102
RTVSPropertyOp13
 70
     1
102
RTVSPropertyOp14
 70
     1
102
RTVSPropertyOp15
 70
     1
102
RTVSPropertyOp16
 70
     1
102
RTVSPropertyOp17
 70
     1
102
RTVSPropertyOp18
 70
     1
102
RTVSPropertyOp19
 70
     1
102
RTVSPropertyOp20
 70
     1
102
RTVSPropertyOp21
 70
     1
102
RTVSPropertyOp22
 70
     1
102
RTVSPropertyOp23
 70
     1
102
RTVSPropertyOp24
 70
     1
102
RTVSPropertyOp25
 70
     1
102
RTVSPropertyOp26
 70
     1
102
RTVSPropertyOp27
 70
     1
102
RTVSPropertyOp28
 70
     1
102
RTVSPropertyOp29
 70
     1
102
RTVSPropertyOp30
 70
     1
102
RTVSPropertyOp31
 70
     1
102
RTVSPropertyOp32
 70
     1
102
RTVSPropertyOp33
 70
     1
102
RTVSPropertyOp34
 70
     1
102
RTVSPropertyOp35
 70
     1
102
RTVSPropertyOp36
 70
     1
102
RTVSPropertyOp37
 70
     1
102
RTVSPropertyOp38
 70
     1
102
RTVSPropertyOp39
 70
     1
102
RTVSPropertyOp40
 70
     1
102
RTVSPropertyOp41
 70
     1
102
RTVSPropertyOp42
 70
     1
102
RTVSPropertyOp43
 70
     1
102
RTVSPropertyOp44
 70
     1
102
RTVSPropertyOp45
 70
     1
102
RTVSPropertyOp46
 70
     1
102
RTVSPropertyOp47
 70
     1
102
RTVSPropertyOp48
 70
     1
102
RTVSPropertyOp49
 70
     1
102
RTVSPropertyOp50
 70
     1
102
RTVSPropertyOp51
 70
     0
102
RTVSPropertyOp52
 70
     0
102
RTVSPropertyOp53
 70
     1
102
RTVSPropertyOp54
 70
     1
102
RTVSPropertyOp55
 70
     1
102
RTVSPropertyOp56
 70
     1
102
RTVSPropertyOp57
 70
     1
102
RTVSPost2010Prop28
280
     0
102
RTVSPost2010PropOp28
 70
     1
102
RTVSPost2010Prop29
280
     1
102
RTVSPost2010PropOp29
 70
     1
102
RTVSPost2010Prop30
280
     1
102
RTVSPost2010PropOp30
 70
     1
102
RTVSPost2010Prop31
280
     0
102
RTVSPost2010PropOp31
 70
     1
102
RTVSPost2010Prop32
280
     0
102
RTVSPost2010PropOp32
 70
     1
102
RTVSPost2010Prop33
280
     0
102
RTVSPost2010PropOp33
 70
     1
102
RTVSPost2010Prop34
280
     0
102
RTVSPost2010PropOp34
 70
     1
102
RTVSPost2010Prop35
280
     0
102
RTVSPost2010PropOp35
 70
     1
102
RTVSPost2010Prop36
280
     0
102
RTVSPost2010PropOp36
 70
     1
102
RTVSPost2010Prop37
 90
       50
102
RTVSPost2010PropOp37
 70
     1
102
RTVSPost2010Prop38
140
0.0
102
RTVSPost2010PropOp38
 70
     1
102
RTVSPost2010Prop39
140
1.0
102
RTVSPost2010PropOp39
 70
     1
102
RTVSPost2010Prop40
 90
        0
102
RTVSPost2010PropOp40
 70
     1
102
RTVSPost2010Prop41ColorIndex
 90
       18
102
RTVSPost2010Prop41ColorRGB
 90
        0
102
RTVSPost2010PropOp41
 70
     1
102
RTVSPost2010Prop42
 90
       50
102
RTVSPost2010PropOp42
 70
     1
102
RTVSPost2010Prop43
 90
        3
102
RTVSPost2010PropOp43
 70
     1
102
RTVSPost2010Prop44ColorIndex
 90
        5
102
RTVSPost2010Prop44ColorRGB
 90
      255
102
RTVSPost2010PropOp44
 70
     1
102
RTVSPost2010Prop45
280
     0
102
RTVSPost2010PropOp45
 70
     1
102
RTVSPost2010Prop46
 90
       50
102
RTVSPost2010PropOp46
 70
     1
102
RTVSPost2010Prop47
 90
       50
102
RTVSPost2010PropOp47
 70
     1
102
RTVSPost2010Prop48
 90
       50
102
RTVSPost2010PropOp48
 70
     1
102
RTVSPost2010Prop49
280
     0
102
RTVSPost2010PropOp49
 70
     1
102
RTVSPost2010Prop50
 90
       50
102
RTVSPost2010PropOp50
 70
     1
102
RTVSPost2010Prop51ColorIndex
 90
      256
102
RTVSPost2010Prop51ColorRGB
 90
-16777216
102
RTVSPost2010PropOp51
 70
     0
102
RTVSPost2010Prop52
140
1.0
102
RTVSPost2010PropOp52
 70
     0
102
RTVSPost2010Prop53
 90
        2
102
RTVSPost2010PropOp53
 70
     1
102
RTVSPost2010Prop54
  1
strokes_ogs.tif
102
RTVSPost2010PropOp54
 70
     1
102
RTVSPost2010Prop55
280
     0
102
RTVSPost2010PropOp55
 70
     1
102
RTVSPost2010Prop56
140
1.0
102
RTVSPost2010PropOp56
 70
     1
102
RTVSPost2010Prop57
140
1.0
102
RTVSPost2010PropOp57
 70
     1
  0
XRECORD
  5
40D
102
{ACAD_REACTORS
330
40C
102
}
330
40C
100
AcDbXrecord
280
     1
102
RTVSPropertyOp0
 70
     1
102
RTVSPropertyOp1
 70
     1
102
RTVSPropertyOp2
 70
     1
102
RTVSPropertyOp3
 70
     1
102
RTVSPropertyOp4
 70
     1
102
RTVSPropertyOp5
 70
     1
102
RTVSPropertyOp6
 70
     1
102
RTVSPropertyOp7
 70
     1
102
RTVSPropertyOp8
 70
     1
102
RTVSPropertyOp9
 70
     1
102
RTVSPropertyOp10
 70
     1
102
RTVSPropertyOp11
 70
     1
102
RTVSPropertyOp12
 70
     1
102
RTVSPropertyOp13
 70
     1
102
RTVSPropertyOp14
 70
     1
102
RTVSPropertyOp15
 70
     1
102
RTVSPropertyOp16
 70
     1
102
RTVSPropertyOp17
 70
     1
102
RTVSPropertyOp18
 70
     1
102
RTVSPropertyOp19
 70
     1
102
RTVSPropertyOp20
 70
     1
102
RTVSPropertyOp21
 70
     1
102
RTVSPropertyOp22
 70
     1
102
RTVSPropertyOp23
 70
     1
102
RTVSPropertyOp24
 70
     1
102
RTVSPropertyOp25
 70
     1
102
RTVSPropertyOp26
 70
     1
102
RTVSPropertyOp27
 70
     1
102
RTVSPropertyOp28
 70
     1
102
RTVSPropertyOp29
 70
     1
102
RTVSPropertyOp30
 70
     1
102
RTVSPropertyOp31
 70
     1
102
RTVSPropertyOp32
 70
     1
102
RTVSPropertyOp33
 70
     1
102
RTVSPropertyOp34
 70
     1
102
RTVSPropertyOp35
 70
     1
102
RTVSPropertyOp36
 70
     1
102
RTVSPropertyOp37
 70
     1
102
RTVSPropertyOp38
 70
     1
102
RTVSPropertyOp39
 70
     1
102
RTVSPropertyOp40
 70
     1
102
RTVSPropertyOp41
 70
     1
102
RTVSPropertyOp42
 70
     1
102
RTVSPropertyOp43
 70
     1
102
RTVSPropertyOp44
 70
     1
102
RTVSPropertyOp45
 70
     1
102
RTVSPropertyOp46
 70
     1
102
RTVSPropertyOp47
 70
     1
102
RTVSPropertyOp48
 70
     1
102
RTVSPropertyOp49
 70
     1
102
RTVSPropertyOp50
 70
     1
102
RTVSPropertyOp51
 70
     0
102
RTVSPropertyOp52
 70
     0
102
RTVSPropertyOp53
 70
     1
102
RTVSPropertyOp54
 70
     1
102
RTVSPropertyOp55
 70
     1
102
RTVSPropertyOp56
 70
     1
102
RTVSPropertyOp57
 70
     1
102
RTVSPost2010Prop28
280
     0
102
RTVSPost2010PropOp28
 70
     1
102
RTVSPost2010Prop29
280
     1
102
RTVSPost2010PropOp29
 70
     1
102
RTVSPost2010Prop30
280
     1
102
RTVSPost2010PropOp30
 70
     1
102
RTVSPost2010Prop31
280
     0
102
RTVSPost2010PropOp31
 70
     1
102
RTVSPost2010Prop32
280
     0
102
RTVSPost2010PropOp32
 70
     1
102
RTVSPost2010Prop33
280
     0
102
RTVSPost2010PropOp33
 70
     1
102
RTVSPost2010Prop34
280
     0
102
RTVSPost2010PropOp34
 70
     1
102
RTVSPost2010Prop35
280
     0
102
RTVSPost2010PropOp35
 70
     1
102
RTVSPost2010Prop36
280
     0
102
RTVSPost2010PropOp36
 70
     1
102
RTVSPost2010Prop37
 90
       50
102
RTVSPost2010PropOp37
 70
     1
102
RTVSPost2010Prop38
140
0.0
102
RTVSPost2010PropOp38
 70
     1
102
RTVSPost2010Prop39
140
1.0
102
RTVSPost2010PropOp39
 70
     1
102
RTVSPost2010Prop40
 90
        0
102
RTVSPost2010PropOp40
 70
     1
102
RTVSPost2010Prop41ColorIndex
 90
       18
102
RTVSPost2010Prop41ColorRGB
 90
        0
102
RTVSPost2010PropOp41
 70
     1
102
RTVSPost2010Prop42
 90
       50
102
RTVSPost2010PropOp42
 70
     1
102
RTVSPost2010Prop43
 90
        3
102
RTVSPost2010PropOp43
 70
     1
102
RTVSPost2010Prop44ColorIndex
 90
        5
102
RTVSPost2010Prop44ColorRGB
 90
      255
102
RTVSPost2010PropOp44
 70
     1
102
RTVSPost2010Prop45
280
     0
102
RTVSPost2010PropOp45
 70
     1
102
RTVSPost2010Prop46
 90
       50
102
RTVSPost2010PropOp46
 70
     1
102
RTVSPost2010Prop47
 90
       50
102
RTVSPost2010PropOp47
 70
     1
102
RTVSPost2010Prop48
 90
       50
102
RTVSPost2010PropOp48
 70
     1
102
RTVSPost2010Prop49
280
     0
102
RTVSPost2010PropOp49
 70
     1
102
RTVSPost2010Prop50
 90
       50
102
RTVSPost2010PropOp50
 70
     1
102
RTVSPost2010Prop51ColorIndex
 90
      256
102
RTVSPost2010Prop51ColorRGB
 90
-16777216
102
RTVSPost2010PropOp51
 70
     0
102
RTVSPost2010Prop52
140
1.0
102
RTVSPost2010PropOp52
 70
     0
102
RTVSPost2010Prop53
 90
        2
102
RTVSPost2010PropOp53
 70
     1
102
RTVSPost2010Prop54
  1
strokes_ogs.tif
102
RTVSPost2010PropOp54
 70
     1
102
RTVSPost2010Prop55
280
     0
102
RTVSPost2010PropOp55
 70
     1
102
RTVSPost2010Prop56
140
1.0
102
RTVSPost2010PropOp56
 70
     1
102
RTVSPost2010Prop57
140
1.0
102
RTVSPost2010PropOp57
 70
     1
  0
ENDSEC
  0
EOF
