  0
SECTION
  2
HEADER
  9
$ACADVER
  1
AC1015
  9
$ACADMAINTVER
 70
     6
  9
$DWGCODEPAGE
  3
ANSI_932
  9
$INSBASE
 10
0.0
 20
0.0
 30
0.0
  9
$EXTMIN
 10
-451.2605088786458
 20
-389.840007957035
 30
0.0
  9
$EXTMAX
 10
498.7394911213542
 20
360.159992042965
 30
0.0
  9
$LIMMIN
 10
-451.2605088786458
 20
-389.840007957035
  9
$LIMMAX
 10
498.7394911213542
 20
360.159992042965
  9
$ORTHOMODE
 70
     0
  9
$REGENMODE
 70
     1
  9
$FILLMODE
 70
     1
  9
$QTEXTMODE
 70
     0
  9
$MIRRTEXT
 70
     1
  9
$LTSCALE
 40
1.0
  9
$ATTMODE
 70
     1
  9
$TEXTSIZE
 40
2.5
  9
$TRACEWID
 40
1.0
  9
$TEXTSTYLE
  7
Standard
  9
$CLAYER
  8
0
  9
$CELTYPE
  6
ByLayer
  9
$CECOLOR
 62
   256
  9
$CELTSCALE
 40
1.0
  9
$DISPSILH
 70
     0
  9
$DIMSCALE
 40
1.0
  9
$DIMASZ
 40
2.5
  9
$DIMEXO
 40
0.625
  9
$DIMDLI
 40
3.75
  9
$DIMRND
 40
0.0
  9
$DIMDLE
 40
0.0
  9
$DIMEXE
 40
1.25
  9
$DIMTP
 40
0.0
  9
$DIMTM
 40
0.0
  9
$DIMTXT
 40
2.5
  9
$DIMCEN
 40
2.5
  9
$DIMTSZ
 40
0.0
  9
$DIMTOL
 70
     0
  9
$DIMLIM
 70
     0
  9
$DIMTIH
 70
     0
  9
$DIMTOH
 70
     0
  9
$DIMSE1
 70
     0
  9
$DIMSE2
 70
     0
  9
$DIMTAD
 70
     1
  9
$DIMZIN
 70
     8
  9
$DIMBLK
  1
Closed
  9
$DIMASO
 70
     1
  9
$DIMSHO
 70
     1
  9
$DIMPOST
  1

  9
$DIMAPOST
  1

  9
$DIMALT
 70
     0
  9
$DIMALTD
 70
     3
  9
$DIMALTF
 40
0.039370079
  9
$DIMLFAC
 40
1.0
  9
$DIMTOFL
 70
     1
  9
$DIMTVP
 40
0.0
  9
$DIMTIX
 70
     0
  9
$DIMSOXD
 70
     0
  9
$DIMSAH
 70
     0
  9
$DIMBLK1
  1

  9
$DIMBLK2
  1

  9
$DIMSTYLE
  2
DIMSTYLE_FULLSCALE
  9
$DIMCLRD
 70
     0
  9
$DIMCLRE
 70
     0
  9
$DIMCLRT
 70
     0
  9
$DIMTFAC
 40
1.0
  9
$DIMGAP
 40
0.625
  9
$DIMJUST
 70
     0
  9
$DIMSD1
 70
     0
  9
$DIMSD2
 70
     0
  9
$DIMTOLJ
 70
     0
  9
$DIMTZIN
 70
     8
  9
$DIMALTZ
 70
     0
  9
$DIMALTTZ
 70
     0
  9
$DIMUPT
 70
     0
  9
$DIMDEC
 70
     2
  9
$DIMTDEC
 70
     2
  9
$DIMALTU
 70
     2
  9
$DIMALTTD
 70
     3
  9
$DIMTXSTY
  7
Standard
  9
$DIMAUNIT
 70
     0
  9
$DIMADEC
 70
     0
  9
$DIMALTRND
 40
0.0
  9
$DIMAZIN
 70
     0
  9
$DIMDSEP
 70
    44
  9
$DIMATFIT
 70
     3
  9
$DIMFRAC
 70
     0
  9
$DIMLDRBLK
  1
Closed
  9
$DIMLUNIT
 70
     2
  9
$DIMLWD
 70
    -2
  9
$DIMLWE
 70
    -2
  9
$DIMTMOVE
 70
     0
  9
$LUNITS
 70
     2
  9
$LUPREC
 70
     4
  9
$SKETCHINC
 40
1.0
  9
$FILLETRAD
 40
10.0
  9
$AUNITS
 70
     0
  9
$AUPREC
 70
     0
  9
$MENU
  1
.
  9
$ELEVATION
 40
0.0
  9
$PELEVATION
 40
0.0
  9
$THICKNESS
 40
0.0
  9
$LIMCHECK
 70
     0
  9
$CHAMFERA
 40
0.0
  9
$CHAMFERB
 40
0.0
  9
$CHAMFERC
 40
0.0
  9
$CHAMFERD
 40
0.0
  9
$SKPOLY
 70
     0
  9
$TDCREATE
 40
2459066.48013978
  9
$TDUCREATE
 40
2459066.10513978
  9
$TDUPDATE
 40
2459066.480140324
  9
$TDUUPDATE
 40
2459066.105140324
  9
$TDINDWG
 40
0.0000000116
  9
$TDUSRTIMER
 40
0.0000000116
  9
$USRTIMER
 70
     1
  9
$ANGBASE
 50
0.0
  9
$ANGDIR
 70
     0
  9
$PDMODE
 70
     0
  9
$PDSIZE
 40
0.0
  9
$PLINEWID
 40
0.0
  9
$SPLFRAME
 70
     0
  9
$SPLINETYPE
 70
     6
  9
$SPLINESEGS
 70
     8
  9
$HANDSEED
  5
3EC
  9
$SURFTAB1
 70
     6
  9
$SURFTAB2
 70
     6
  9
$SURFTYPE
 70
     6
  9
$SURFU
 70
     6
  9
$SURFV
 70
     6
  9
$UCSBASE
  2

  9
$UCSNAME
  2

  9
$UCSORG
 10
0.0
 20
0.0
 30
0.0
  9
$UCSXDIR
 10
1.0
 20
0.0
 30
0.0
  9
$UCSYDIR
 10
0.0
 20
1.0
 30
0.0
  9
$UCSORTHOREF
  2

  9
$UCSORTHOVIEW
 70
     0
  9
$UCSORGTOP
 10
0.0
 20
0.0
 30
0.0
  9
$UCSORGBOTTOM
 10
0.0
 20
0.0
 30
0.0
  9
$UCSORGLEFT
 10
0.0
 20
0.0
 30
0.0
  9
$UCSORGRIGHT
 10
0.0
 20
0.0
 30
0.0
  9
$UCSORGFRONT
 10
0.0
 20
0.0
 30
0.0
  9
$UCSORGBACK
 10
0.0
 20
0.0
 30
0.0
  9
$PUCSBASE
  2

  9
$PUCSNAME
  2

  9
$PUCSORG
 10
0.0
 20
0.0
 30
0.0
  9
$PUCSXDIR
 10
1.0
 20
0.0
 30
0.0
  9
$PUCSYDIR
 10
0.0
 20
1.0
 30
0.0
  9
$PUCSORTHOREF
  2

  9
$PUCSORTHOVIEW
 70
     0
  9
$PUCSORGTOP
 10
0.0
 20
0.0
 30
0.0
  9
$PUCSORGBOTTOM
 10
0.0
 20
0.0
 30
0.0
  9
$PUCSORGLEFT
 10
0.0
 20
0.0
 30
0.0
  9
$PUCSORGRIGHT
 10
0.0
 20
0.0
 30
0.0
  9
$PUCSORGFRONT
 10
0.0
 20
0.0
 30
0.0
  9
$PUCSORGBACK
 10
0.0
 20
0.0
 30
0.0
  9
$USERI1
 70
     0
  9
$USERI2
 70
     0
  9
$USERI3
 70
     0
  9
$USERI4
 70
     0
  9
$USERI5
 70
     0
  9
$USERR1
 40
0.0
  9
$USERR2
 40
0.0
  9
$USERR3
 40
0.0
  9
$USERR4
 40
0.0
  9
$USERR5
 40
0.0
  9
$WORLDVIEW
 70
     1
  9
$SHADEDGE
 70
     3
  9
$SHADEDIF
 70
    70
  9
$TILEMODE
 70
     1
  9
$MAXACTVP
 70
    64
  9
$PINSBASE
 10
0.0
 20
0.0
 30
0.0
  9
$PLIMCHECK
 70
     0
  9
$PEXTMIN
 10
1.000000000000000E+20
 20
1.000000000000000E+20
 30
1.000000000000000E+20
  9
$PEXTMAX
 10
-1.000000000000000E+20
 20
-1.000000000000000E+20
 30
-1.000000000000000E+20
  9
$PLIMMIN
 10
-451.2605088786458
 20
-389.840007957035
  9
$PLIMMAX
 10
498.7394911213542
 20
360.159992042965
  9
$UNITMODE
 70
     0
  9
$VISRETAIN
 70
     1
  9
$PLINEGEN
 70
     0
  9
$PSLTSCALE
 70
     1
  9
$TREEDEPTH
 70
  3020
  9
$CMLSTYLE
  2
Standard
  9
$CMLJUST
 70
     0
  9
$CMLSCALE
 40
20.0
  9
$PROXYGRAPHICS
 70
     1
  9
$MEASUREMENT
 70
     1
  9
$CELWEIGHT
370
    -1
  9
$ENDCAPS
280
     0
  9
$JOINSTYLE
280
     0
  9
$LWDISPLAY
290
     0
  9
$INSUNITS
 70
     4
  9
$HYPERLINKBASE
  1

  9
$STYLESHEET
  1

  9
$XEDIT
290
     1
  9
$CEPSNTYPE
380
     0
  9
$PSTYLEMODE
290
     1
  9
$FINGERPRINTGUID
  2
{34c262a0-17e2-44b0-83fe-3c1a9f9ad136}
  9
$VERSIONGUID
  2
{FAEB1C32-E019-11D5-929B-00C0DF256EC4}
  9
$EXTNAMES
290
     1
  9
$PSVPSCALE
 40
0.0
  9
$OLESTARTUP
290
     0
  0
ENDSEC
  0
SECTION
  2
CLASSES
  0
CLASS
  1
ACDBDICTIONARYWDFLT
  2
AcDbDictionaryWithDefault
  3
ObjectDBX Classes
 90
        0
280
     0
281
     0
  0
CLASS
  1
VISUALSTYLE
  2
AcDbVisualStyle
  3
ObjectDBX Classes
 90
     4095
280
     0
281
     0
  0
CLASS
  1
MATERIAL
  2
AcDbMaterial
  3
ObjectDBX Classes
 90
     1153
280
     0
281
     0
  0
CLASS
  1
SCALE
  2
AcDbScale
  3
ObjectDBX Classes
 90
     1153
280
     0
281
     0
  0
CLASS
  1
TABLESTYLE
  2
AcDbTableStyle
  3
ObjectDBX Classes
 90
     4095
280
     0
281
     0
  0
CLASS
  1
MLEADERSTYLE
  2
AcDbMLeaderStyle
  3
ACDB_MLEADERSTYLE_CLASS
 90
     4095
280
     0
281
     0
  0
CLASS
  1
SUN
  2
AcDbSun
  3
SCENEOE
 90
     1153
280
     0
281
     0
  0
CLASS
  1
DICTIONARYVAR
  2
AcDbDictionaryVar
  3
ObjectDBX Classes
 90
        0
280
     0
281
     0
  0
CLASS
  1
ACDBPLACEHOLDER
  2
AcDbPlaceHolder
  3
ObjectDBX Classes
 90
        0
280
     0
281
     0
  0
CLASS
  1
LAYOUT
  2
AcDbLayout
  3
ObjectDBX Classes
 90
        0
280
     0
281
     0
  0
ENDSEC
  0
SECTION
  2
TABLES
  0
TABLE
  2
VPORT
  5
8
102
{ACAD_XDICTIONARY
360
3AB
102
}
330
0
100
AcDbSymbolTable
 70
     1
  0
VPORT
  5
29
330
8
100
AcDbSymbolTableRecord
100
AcDbViewportTableRecord
  2
*Active
 70
     0
 10
0.0
 20
0.0
 11
1.0
 21
1.0
 12
344.1869158878504
 22
148.5
 13
0.0
 23
0.0
 14
10.0
 24
10.0
 15
10.0
 25
10.0
 16
0.0
 26
0.0
 36
1.0
 17
0.0
 27
0.0
 37
0.0
 40
297.0
 41
1.972972972850329
 42
50.0
 43
0.0
 44
0.0
 50
0.0
 51
0.0
 71
     0
 72
   100
 73
     1
 74
     3
 75
     0
 76
     0
 77
     0
 78
     0
281
     0
 65
     1
110
0.0
120
0.0
130
0.0
111
1.0
121
0.0
131
0.0
112
0.0
122
1.0
132
0.0
 79
     0
146
0.0
  0
ENDTAB
  0
TABLE
  2
LTYPE
  5
5
330
0
100
AcDbSymbolTable
 70
     5
  0
LTYPE
  5
14
330
5
100
AcDbSymbolTableRecord
100
AcDbLinetypeTableRecord
  2
ByBlock
 70
     0
  3

 72
    65
 73
     0
 40
0.0
  0
LTYPE
  5
15
330
5
100
AcDbSymbolTableRecord
100
AcDbLinetypeTableRecord
  2
ByLayer
 70
     0
  3

 72
    65
 73
     0
 40
0.0
  0
LTYPE
  5
16
330
5
100
AcDbSymbolTableRecord
100
AcDbLinetypeTableRecord
  2
Continuous
 70
     0
  3
Solid line
 72
    65
 73
     0
 40
0.0
  0
LTYPE
  5
6E
330
5
100
AcDbSymbolTableRecord
100
AcDbLinetypeTableRecord
  2
CONTINOUS
 70
     0
  3
______________________________
 72
    65
 73
     0
 40
0.0
  0
LTYPE
  5
6F
330
5
100
AcDbSymbolTableRecord
100
AcDbLinetypeTableRecord
  2
DASHED
 70
     0
  3
__ __ __ __ __ __ __ __ __ __ __ __ __ __ __ __
 72
    65
 73
     2
 40
4.5
 49
3.0
 74
     0
 49
-1.5
 74
     0
  0
LTYPE
  5
70
330
5
100
AcDbSymbolTableRecord
100
AcDbLinetypeTableRecord
  2
PHANTOM
 70
     0
  3
______  __  __  ______  __  __  _____
 72
    65
 73
     6
 40
15.0
 49
7.5
 74
     0
 49
-1.5
 74
     0
 49
1.5
 74
     0
 49
-1.5
 74
     0
 49
1.5
 74
     0
 49
-1.5
 74
     0
  0
LTYPE
  5
71
330
5
100
AcDbSymbolTableRecord
100
AcDbLinetypeTableRecord
  2
CENTER
 70
     0
  3
____ _ ____ _ ____ _ ____ _ ____ _ ____
 72
    65
 73
     4
 40
12.0
 49
7.5
 74
     0
 49
-1.5
 74
     0
 49
1.5
 74
     0
 49
-1.5
 74
     0
  0
ENDTAB
  0
TABLE
  2
LAYER
  5
2
330
0
100
AcDbSymbolTable
 70
     2
  0
LAYER
  5
10
330
2
100
AcDbSymbolTableRecord
100
AcDbLayerTableRecord
  2
0
 70
     0
 62
     7
  6
Continuous
370
    -3
390
F
  0
LAYER
  5
266
330
2
100
AcDbSymbolTableRecord
100
AcDbLayerTableRecord
  2
Defpoints
 70
     0
 62
     7
  6
Continuous
290
     0
370
    -3
390
F
  0
ENDTAB
  0
TABLE
  2
STYLE
  5
3
330
0
100
AcDbSymbolTable
 70
     1
  0
STYLE
  5
11
330
3
100
AcDbSymbolTableRecord
100
AcDbTextStyleTableRecord
  2
Standard
 70
     0
 40
0.0
 41
1.0
 50
0.0
 71
     0
 42
2.5
  3
ROMANS
  4
EXTFONT
  0
ENDTAB
  0
TABLE
  2
VIEW
  5
6
330
0
100
AcDbSymbolTable
 70
     0
  0
ENDTAB
  0
TABLE
  2
UCS
  5
7
330
0
100
AcDbSymbolTable
 70
     0
  0
ENDTAB
  0
TABLE
  2
APPID
  5
9
330
0
100
AcDbSymbolTable
 70
     7
  0
APPID
  5
12
330
9
100
AcDbSymbolTableRecord
100
AcDbRegAppTableRecord
  2
ACAD
 70
     0
  0
APPID
  5
24F
330
9
100
AcDbSymbolTableRecord
100
AcDbRegAppTableRecord
  2
ACAD_DSTYLE_DIMJAG
 70
     0
  0
APPID
  5
3AD
330
9
100
AcDbSymbolTableRecord
100
AcDbRegAppTableRecord
  2
ACAD_DSTYLE_DIMJOGGED_JOGANGLE_SYMBOL
 70
     0
  0
APPID
  5
3AE
330
9
100
AcDbSymbolTableRecord
100
AcDbRegAppTableRecord
  2
ACAD_DSTYLE_DIM_LINETYPE
 70
     0
  0
APPID
  5
3AF
330
9
100
AcDbSymbolTableRecord
100
AcDbRegAppTableRecord
  2
ACAD_DSTYLE_DIM_EXT1_LINETYPE
 70
     0
  0
APPID
  5
3B0
330
9
100
AcDbSymbolTableRecord
100
AcDbRegAppTableRecord
  2
ACAD_DSTYLE_DIM_EXT2_LINETYPE
 70
     0
  0
APPID
  5
3E9
330
9
100
AcDbSymbolTableRecord
100
AcDbRegAppTableRecord
  2
ACAD_MLEADERVER
 70
     0
  0
ENDTAB
  0
TABLE
  2
DIMSTYLE
  5
A
330
0
100
AcDbSymbolTable
 70
     2
100
AcDbDimStyleTable
  0
DIMSTYLE
105
27
330
A
100
AcDbSymbolTableRecord
100
AcDbDimStyleTableRecord
  2
ISO-25
 70
     0
 41
2.5
 42
0.625
 43
3.75
 44
1.25
 73
     0
 74
     0
 77
     1
 78
     8
140
2.5
141
2.5
143
0.03937007874016
147
0.625
171
     3
172
     1
178
     0
271
     2
272
     2
274
     3
278
    44
283
     0
284
     8
340
11
  0
DIMSTYLE
105
247
102
{ACAD_REACTORS
330
25F
330
273
330
280
330
28D
330
29A
330
2A6
330
2B2
330
2BE
330
2CB
330
2D7
330
2E3
330
2F0
330
310
330
31D
330
32A
330
337
330
344
330
351
330
35D
330
36B
330
378
330
385
330
392
102
}
330
A
100
AcDbSymbolTableRecord
100
AcDbDimStyleTableRecord
  2
DIMSTYLE_FULLSCALE
 70
     0
 41
2.5
 42
0.625
 43
3.75
 44
1.25
 73
     0
 74
     0
 77
     1
 78
     8
140
2.5
141
2.5
143
0.039370079
147
0.625
171
     3
172
     1
178
     0
271
     2
272
     2
274
     3
278
    44
283
     0
284
     8
340
11
341
248
342
248
1001
ACAD_DSTYLE_DIMJAG
1070
   388
1040
1.5
1001
ACAD_DSTYLE_DIMJOGGED_JOGANGLE_SYMBOL
1070
   384
1040
1.570796326794897
1001
ACAD_DSTYLE_DIM_LINETYPE
1070
   380
1005
14
1001
ACAD_DSTYLE_DIM_EXT1_LINETYPE
1070
   381
1005
14
1001
ACAD_DSTYLE_DIM_EXT2_LINETYPE
1070
   382
1005
14
  0
ENDTAB
  0
TABLE
  2
BLOCK_RECORD
  5
1
330
0
100
AcDbSymbolTable
 70
    31
  0
BLOCK_RECORD
  5
1F
330
1
100
AcDbSymbolTableRecord
100
AcDbBlockTableRecord
  2
*Model_Space
340
22
  0
BLOCK_RECORD
  5
1B
330
1
100
AcDbSymbolTableRecord
100
AcDbBlockTableRecord
  2
*Paper_Space
340
1E
  0
BLOCK_RECORD
  5
23
330
1
100
AcDbSymbolTableRecord
100
AcDbBlockTableRecord
  2
*Paper_Space0
340
26
  0
BLOCK_RECORD
  5
72
330
1
100
AcDbSymbolTableRecord
100
AcDbBlockTableRecord
  2
DTL0001
340
0
102
{BLKREFS
331
25C
102
}
  0
BLOCK_RECORD
  5
75
330
1
100
AcDbSymbolTableRecord
100
AcDbBlockTableRecord
  2
DTL0002
340
0
102
{BLKREFS
331
25D
102
}
  0
BLOCK_RECORD
  5
78
330
1
100
AcDbSymbolTableRecord
100
AcDbBlockTableRecord
  2
DTL0003
340
0
102
{BLKREFS
331
25E
102
}
  0
BLOCK_RECORD
  5
248
330
1
100
AcDbSymbolTableRecord
100
AcDbBlockTableRecord
  2
_Closed
340
0
  0
BLOCK_RECORD
  5
260
330
1
100
AcDbSymbolTableRecord
100
AcDbBlockTableRecord
  2
_Open
340
0
102
{BLKREFS
331
26E
331
26D
331
27B
331
27A
331
288
331
287
331
295
331
294
331
2A1
331
2A0
331
2AD
331
2AC
331
2B9
331
2B8
331
2C6
331
2C5
331
2D2
331
2D1
331
2DE
331
2DD
331
2EB
331
2EA
331
2F9
331
2F8
331
318
331
317
331
325
331
324
331
332
331
331
331
33F
331
33E
331
34C
331
34B
331
358
331
357
331
366
331
365
331
373
331
372
331
380
331
37F
331
38D
331
38C
331
39A
331
399
102
}
  0
BLOCK_RECORD
  5
267
330
1
100
AcDbSymbolTableRecord
100
AcDbBlockTableRecord
  2
*D6
340
0
  0
BLOCK_RECORD
  5
274
330
1
100
AcDbSymbolTableRecord
100
AcDbBlockTableRecord
  2
*D7
340
0
  0
BLOCK_RECORD
  5
281
330
1
100
AcDbSymbolTableRecord
100
AcDbBlockTableRecord
  2
*D8
340
0
  0
BLOCK_RECORD
  5
28E
330
1
100
AcDbSymbolTableRecord
100
AcDbBlockTableRecord
  2
*D9
340
0
  0
BLOCK_RECORD
  5
29B
330
1
100
AcDbSymbolTableRecord
100
AcDbBlockTableRecord
  2
*D10
340
0
  0
BLOCK_RECORD
  5
2A7
330
1
100
AcDbSymbolTableRecord
100
AcDbBlockTableRecord
  2
*D11
340
0
  0
BLOCK_RECORD
  5
2B3
330
1
100
AcDbSymbolTableRecord
100
AcDbBlockTableRecord
  2
*D12
340
0
  0
BLOCK_RECORD
  5
2BF
330
1
100
AcDbSymbolTableRecord
100
AcDbBlockTableRecord
  2
*D13
340
0
  0
BLOCK_RECORD
  5
2CC
330
1
100
AcDbSymbolTableRecord
100
AcDbBlockTableRecord
  2
*D14
340
0
  0
BLOCK_RECORD
  5
2D8
330
1
100
AcDbSymbolTableRecord
100
AcDbBlockTableRecord
  2
*D15
340
0
  0
BLOCK_RECORD
  5
2E4
330
1
100
AcDbSymbolTableRecord
100
AcDbBlockTableRecord
  2
*D16
340
0
  0
BLOCK_RECORD
  5
2F1
330
1
100
AcDbSymbolTableRecord
100
AcDbBlockTableRecord
  2
*D17
340
0
  0
BLOCK_RECORD
  5
2FE
330
1
100
AcDbSymbolTableRecord
100
AcDbBlockTableRecord
  2
SYM0001
340
0
102
{BLKREFS
331
304
102
}
  0
BLOCK_RECORD
  5
307
330
1
100
AcDbSymbolTableRecord
100
AcDbBlockTableRecord
  2
SYM0002
340
0
102
{BLKREFS
331
30D
102
}
  0
BLOCK_RECORD
  5
311
330
1
100
AcDbSymbolTableRecord
100
AcDbBlockTableRecord
  2
*D20
340
0
  0
BLOCK_RECORD
  5
31E
330
1
100
AcDbSymbolTableRecord
100
AcDbBlockTableRecord
  2
*D21
340
0
  0
BLOCK_RECORD
  5
32B
330
1
100
AcDbSymbolTableRecord
100
AcDbBlockTableRecord
  2
*D22
340
0
  0
BLOCK_RECORD
  5
338
330
1
100
AcDbSymbolTableRecord
100
AcDbBlockTableRecord
  2
*D23
340
0
  0
BLOCK_RECORD
  5
345
330
1
100
AcDbSymbolTableRecord
100
AcDbBlockTableRecord
  2
*D24
340
0
  0
BLOCK_RECORD
  5
352
330
1
100
AcDbSymbolTableRecord
100
AcDbBlockTableRecord
  2
*D25
340
0
  0
BLOCK_RECORD
  5
35E
330
1
100
AcDbSymbolTableRecord
100
AcDbBlockTableRecord
  2
*D26
340
0
  0
BLOCK_RECORD
  5
36C
330
1
100
AcDbSymbolTableRecord
100
AcDbBlockTableRecord
  2
*D27
340
0
  0
BLOCK_RECORD
  5
379
330
1
100
AcDbSymbolTableRecord
100
AcDbBlockTableRecord
  2
*D28
340
0
  0
BLOCK_RECORD
  5
386
330
1
100
AcDbSymbolTableRecord
100
AcDbBlockTableRecord
  2
*D29
340
0
  0
BLOCK_RECORD
  5
393
330
1
100
AcDbSymbolTableRecord
100
AcDbBlockTableRecord
  2
*D30
340
0
  0
ENDTAB
  0
ENDSEC
  0
SECTION
  2
BLOCKS
  0
BLOCK
  5
20
330
1F
100
AcDbEntity
  8
0
100
AcDbBlockBegin
  2
*Model_Space
 70
     0
 10
0.0
 20
0.0
 30
0.0
  3
*Model_Space
  1

  0
ENDBLK
  5
21
330
1F
100
AcDbEntity
  8
0
100
AcDbBlockEnd
  0
BLOCK
  5
1C
330
1B
100
AcDbEntity
 67
     1
  8
0
100
AcDbBlockBegin
  2
*Paper_Space
 70
     0
 10
0.0
 20
0.0
 30
0.0
  3
*Paper_Space
  1

  0
ENDBLK
  5
1D
330
1B
100
AcDbEntity
 67
     1
  8
0
100
AcDbBlockEnd
  0
BLOCK
  5
24
330
23
100
AcDbEntity
  8
0
100
AcDbBlockBegin
  2
*Paper_Space0
 70
     0
 10
0.0
 20
0.0
 30
0.0
  3
*Paper_Space0
  1

  0
ENDBLK
  5
25
330
23
100
AcDbEntity
  8
0
100
AcDbBlockEnd
  0
BLOCK
  5
73
330
72
100
AcDbEntity
  8
0
100
AcDbBlockBegin
  2
DTL0001
 70
     0
 10
0.0
 20
0.0
 30
0.0
  3
DTL0001
  1

  0
POINT
  5
7B
330
72
100
AcDbEntity
  8
0
 62
     0
100
AcDbPoint
 10
0.0
 20
0.0
 30
0.0
  0
LINE
  5
7C
330
72
100
AcDbEntity
  8
0
  6
CENTER
 62
     4
100
AcDbLine
 10
-210.1482668719896
 20
-176.5
 30
0.0
 11
57.14934848378562
 21
-176.5
 31
0.0
  0
LINE
  5
7D
330
72
100
AcDbEntity
  8
0
  6
CENTER
 62
     4
100
AcDbLine
 10
-210.1482668719896
 20
-21.5
 30
0.0
 11
57.14934848378562
 21
-21.5
 31
0.0
  0
LINE
  5
7E
330
72
100
AcDbEntity
  8
0
  6
Continuous
 62
     4
100
AcDbLine
 10
108.0000000000005
 20
-79.81201171875
 30
0.0
 11
125.0
 21
-79.81201171875
 31
0.0
  0
LINE
  5
7F
330
72
100
AcDbEntity
  8
0
  6
Continuous
 62
     0
100
AcDbLine
 10
108.0000000000005
 20
-79.0
 30
0.0
 11
125.0
 21
-79.0
 31
0.0
  0
LINE
  5
80
330
72
100
AcDbEntity
  8
0
  6
Continuous
 62
     4
100
AcDbLine
 10
101.9999857237173
 20
-86.5200254280578
 30
0.0
 11
81.99995424220795
 21
-111.4800299591307
 31
0.0
  0
LINE
  5
81
330
72
100
AcDbEntity
  8
0
  6
Continuous
 62
     0
100
AcDbLine
 10
-175.0
 20
0.0
 30
0.0
 11
-175.0
 21
-198.0
 31
0.0
  0
LINE
  5
82
330
72
100
AcDbEntity
  8
0
  6
Continuous
 62
     0
100
AcDbLine
 10
69.99998474121094
 20
-138.2520904541016
 30
0.0
 11
72.49998474121094
 21
-138.2520904541016
 31
0.0
  0
LINE
  5
83
330
72
100
AcDbEntity
  8
0
  6
Continuous
 62
     0
100
AcDbLine
 10
20.0
 20
-44.0
 30
0.0
 11
70.0
 21
-44.0
 31
0.0
  0
LINE
  5
84
330
72
100
AcDbEntity
  8
0
  6
DASHED
 62
     0
100
AcDbLine
 10
-12.16349467926979
 20
-0.000000191808978
 30
0.0
 11
-11.4999995504718
 21
-19.00001564069438
 31
0.0
  0
LINE
  5
85
330
72
100
AcDbEntity
  8
0
  6
DASHED
 62
     4
100
AcDbLine
 10
-13.32620345746619
 20
-0.000005023910346
 30
0.0
 11
-12.73153226730693
 21
-17.02916064183059
 31
0.0
  0
LINE
  5
86
330
72
100
AcDbEntity
  8
0
  6
DASHED
 62
     0
100
AcDbLine
 10
11.50000336284354
 20
-19.00001577382516
 30
0.0
 11
12.16349796743818
 21
-0.000015336160236
 31
0.0
  0
LINE
  5
87
330
72
100
AcDbEntity
  8
0
  6
DASHED
 62
     4
100
AcDbLine
 10
12.73153851838809
 20
-17.02914559203317
 30
0.0
 11
13.32620865181997
 21
-0.000020234827232
 31
0.0
  0
LINE
  5
88
330
72
100
AcDbEntity
  8
0
  6
Continuous
 62
     0
100
AcDbLine
 10
-24.0
 20
0.0
 30
0.0
 11
20.0
 21
0.0
 31
0.0
  0
LINE
  5
89
330
72
100
AcDbEntity
  8
0
  6
Continuous
 62
     0
100
AcDbLine
 10
-24.0
 20
-198.0
 30
0.0
 11
-24.0
 21
0.0
 31
0.0
  0
LINE
  5
8A
330
72
100
AcDbEntity
  8
0
  6
Continuous
 62
     0
100
AcDbLine
 10
20.0
 20
-198.0
 30
0.0
 11
20.0
 21
0.0
 31
0.0
  0
LINE
  5
8B
330
72
100
AcDbEntity
  8
0
  6
Continuous
 62
     0
100
AcDbLine
 10
41.1000366210942
 20
-185.1602783203125
 30
0.0
 11
25.1000394821167
 21
-185.1602783203125
 31
0.0
  0
LINE
  5
8C
330
72
100
AcDbEntity
  8
0
  6
Continuous
 62
     0
100
AcDbLine
 10
165.0
 20
-118.1879882812502
 30
0.0
 11
165.0
 21
-79.81201171875
 31
0.0
  0
LINE
  5
8D
330
72
100
AcDbEntity
  8
0
  6
CENTER
 62
     4
100
AcDbLine
 10
-186.7182090941219
 20
-99.0
 30
0.0
 11
175.2243475234641
 21
-99.0
 31
0.0
  0
LINE
  5
8E
330
72
100
AcDbEntity
  8
0
  6
Continuous
 62
     0
100
AcDbLine
 10
-131.0
 20
-198.0
 30
0.0
 11
-175.0
 21
-198.0
 31
0.0
  0
LINE
  5
8F
330
72
100
AcDbEntity
  8
0
  6
Continuous
 62
     0
100
AcDbLine
 10
79.49998474121094
 20
-64.04043579101562
 30
0.0
 11
72.49998474121094
 21
-64.04043579101562
 31
0.0
  0
LINE
  5
90
330
72
100
AcDbEntity
  8
0
  6
Continuous
 62
     4
100
AcDbLine
 10
165.0
 20
-118.18798828125
 30
0.0
 11
140.0
 21
-118.18798828125
 31
0.0
  0
LINE
  5
91
330
72
100
AcDbEntity
  8
0
  6
Continuous
 62
     0
100
AcDbLine
 10
108.0000000000005
 20
-119.0
 30
0.0
 11
108.0000000000005
 21
-79.0
 31
0.0
  0
LINE
  5
92
330
72
100
AcDbEntity
  8
0
  6
Continuous
 62
     0
100
AcDbLine
 10
164.18798828125
 20
-119.0
 30
0.0
 11
140.0
 21
-119.0
 31
0.0
  0
LINE
  5
93
330
72
100
AcDbEntity
  8
0
  6
Continuous
 62
     0
100
AcDbLine
 10
79.49998474121094
 20
-119.2371368408203
 30
0.0
 11
79.49998474121094
 21
-138.8670349121094
 31
0.0
  0
LINE
  5
94
330
72
100
AcDbEntity
  8
0
  6
Continuous
 62
     0
100
AcDbLine
 10
140.0
 20
-67.20000000000005
 30
0.0
 11
140.0
 21
-130.8
 31
0.0
  0
LINE
  5
95
330
72
100
AcDbEntity
  8
0
  6
Continuous
 62
     0
100
AcDbLine
 10
72.49998474121094
 20
-124.1444702148438
 30
0.0
 11
79.49998474121094
 21
-124.1444702148438
 31
0.0
  0
LINE
  5
96
330
72
100
AcDbEntity
  8
0
  6
Continuous
 62
     0
100
AcDbLine
 10
41.1000366210942
 20
-30.1602783203125
 30
0.0
 11
25.1000394821167
 21
-30.1602783203125
 31
0.0
  0
LINE
  5
97
330
72
100
AcDbEntity
  8
0
  6
Continuous
 62
     0
100
AcDbLine
 10
20.0
 20
-4.600006103515625
 30
0.0
 11
25.1000394821167
 21
-4.600006103515625
 31
0.0
  0
LINE
  5
98
330
72
100
AcDbEntity
  8
0
  6
Continuous
 62
     0
100
AcDbLine
 10
41.1000366210942
 20
-38.82051086425781
 30
0.0
 11
25.1000394821167
 21
-38.82051086425781
 31
0.0
  0
LINE
  5
99
330
72
100
AcDbEntity
  8
0
  6
Continuous
 62
     0
100
AcDbLine
 10
79.49998474121094
 20
-138.8670349121094
 30
0.0
 11
72.49998474121094
 21
-138.8670349121094
 31
0.0
  0
LINE
  5
9A
330
72
100
AcDbEntity
  8
0
  6
Continuous
 62
     0
100
AcDbLine
 10
82.0
 20
-75.0
 30
0.0
 11
105.0
 21
-75.0
 31
0.0
  0
LINE
  5
9B
330
72
100
AcDbEntity
  8
0
  6
Continuous
 62
     0
100
AcDbLine
 10
82.0
 20
-86.52001667022705
 30
0.0
 11
102.0
 21
-86.52001667022705
 31
0.0
  0
LINE
  5
9C
330
72
100
AcDbEntity
  8
0
  6
Continuous
 62
     0
100
AcDbLine
 10
106.0
 20
-117.5
 30
0.0
 11
107.0000000000005
 21
-117.5
 31
0.0
  0
LINE
  5
9D
330
72
100
AcDbEntity
  8
0
  6
Continuous
 62
     0
100
AcDbLine
 10
20.0
 20
-198.0
 30
0.0
 11
-24.0
 21
-198.0
 31
0.0
  0
LINE
  5
9E
330
72
100
AcDbEntity
  8
0
  6
Continuous
 62
     0
100
AcDbLine
 10
25.1000394821167
 20
-4.179519653320312
 30
0.0
 11
25.1000394821167
 21
-38.82049560546875
 31
0.0
  0
LINE
  5
9F
330
72
100
AcDbEntity
  8
0
  6
Continuous
 62
     0
100
AcDbLine
 10
69.99998474121094
 20
-59.74790954589844
 30
0.0
 11
72.49998474121094
 21
-59.74790954589844
 31
0.0
  0
LINE
  5
A0
330
72
100
AcDbEntity
  8
0
  6
Continuous
 62
     0
100
AcDbLine
 10
25.1000394821167
 20
-167.8397521972656
 30
0.0
 11
41.1000366210942
 21
-167.8397521972656
 31
0.0
  0
LINE
  5
A1
330
72
100
AcDbEntity
  8
0
  6
Continuous
 62
     0
100
AcDbLine
 10
72.49998474121094
 20
-78.76286315917969
 30
0.0
 11
72.49998474121094
 21
-59.1329650878904
 31
0.0
  0
LINE
  5
A2
330
72
100
AcDbEntity
  8
0
  6
Continuous
 62
     0
100
AcDbLine
 10
72.49998474121094
 20
-119.2371368408203
 30
0.0
 11
72.49998474121094
 21
-138.8670349121096
 31
0.0
  0
LINE
  5
A3
330
72
100
AcDbEntity
  8
0
  6
Continuous
 62
     0
100
AcDbLine
 10
-24.0
 20
-194.3499908447266
 30
0.0
 11
-56.5
 21
-194.3499908447266
 31
0.0
  0
LINE
  5
A4
330
72
100
AcDbEntity
  8
0
  6
Continuous
 62
     0
100
AcDbLine
 10
70.0
 20
-154.0
 30
0.0
 11
70.0
 21
-44.0
 31
0.0
  0
LINE
  5
A5
330
72
100
AcDbEntity
  8
0
  6
Continuous
 62
     0
100
AcDbLine
 10
79.49998474121094
 20
-78.7628631591797
 30
0.0
 11
79.49998474121094
 21
-59.13296508789064
 31
0.0
  0
LINE
  5
A6
330
72
100
AcDbEntity
  8
0
  6
Continuous
 62
     0
100
AcDbLine
 10
70.0
 20
-154.0
 30
0.0
 11
20.0
 21
-154.0
 31
0.0
  0
LINE
  5
A7
330
72
100
AcDbEntity
  8
0
  6
Continuous
 62
     0
100
AcDbLine
 10
105.0
 20
-123.0
 30
0.0
 11
105.0
 21
-75.0
 31
0.0
  0
LINE
  5
A8
330
72
100
AcDbEntity
  8
0
  6
Continuous
 62
     0
100
AcDbLine
 10
82.0
 20
-123.0
 30
0.0
 11
82.0
 21
-75.0
 31
0.0
  0
LINE
  5
A9
330
72
100
AcDbEntity
  8
0
  6
Continuous
 62
     0
100
AcDbLine
 10
105.0
 20
-123.0
 30
0.0
 11
82.0
 21
-123.0
 31
0.0
  0
LINE
  5
AA
330
72
100
AcDbEntity
  8
0
  6
Continuous
 62
     0
100
AcDbLine
 10
72.49996948242188
 20
-78.76286315917969
 30
0.0
 11
79.49998474121094
 21
-78.76286315917969
 31
0.0
  0
LINE
  5
AB
330
72
100
AcDbEntity
  8
0
  6
Continuous
 62
     0
100
AcDbLine
 10
41.1000366210942
 20
-193.8205108642578
 30
0.0
 11
25.1000394821167
 21
-193.8205108642578
 31
0.0
  0
LINE
  5
AC
330
72
100
AcDbEntity
  8
0
  6
Continuous
 62
     0
100
AcDbLine
 10
79.49998474121125
 20
-123.6249627214995
 30
0.0
 11
81.99993876150307
 21
-122.999974293224
 31
0.0
  0
LINE
  5
AD
330
72
100
AcDbEntity
  8
0
  6
Continuous
 62
     0
100
AcDbLine
 10
72.49996948242188
 20
-119.2371368408203
 30
0.0
 11
79.49998474121094
 21
-119.2371368408203
 31
0.0
  0
LINE
  5
AE
330
72
100
AcDbEntity
  8
0
  6
Continuous
 62
     0
100
AcDbLine
 10
-175.0
 20
0.0
 30
0.0
 11
-131.0
 21
0.0
 31
0.0
  0
LINE
  5
AF
330
72
100
AcDbEntity
  8
0
  6
Continuous
 62
     0
100
AcDbLine
 10
102.0
 20
-111.4799833297729
 30
0.0
 11
102.0
 21
-86.52001667022705
 31
0.0
  0
LINE
  5
B0
330
72
100
AcDbEntity
  8
0
  6
Continuous
 62
     0
100
AcDbLine
 10
69.99996948242188
 20
-78.14791870117188
 30
0.0
 11
72.49996948242188
 21
-78.14791870117188
 31
0.0
  0
LINE
  5
B1
330
72
100
AcDbEntity
  8
0
  6
Continuous
 62
     0
100
AcDbLine
 10
102.0
 20
-111.4799833297729
 30
0.0
 11
82.0
 21
-111.4799833297729
 31
0.0
  0
LINE
  5
B2
330
72
100
AcDbEntity
  8
0
  6
Continuous
 62
     0
100
AcDbLine
 10
106.0
 20
-80.5
 30
0.0
 11
107.0000000000005
 21
-80.5
 31
0.0
  0
LINE
  5
B3
330
72
100
AcDbEntity
  8
0
  6
Continuous
 62
     0
100
AcDbLine
 10
81.99999057269974
 20
-75.00000720277555
 30
0.0
 11
79.49998474121145
 21
-74.37500582170244
 31
0.0
  0
LINE
  5
B4
330
72
100
AcDbEntity
  8
0
  6
Continuous
 62
     0
100
AcDbLine
 10
41.1000366210942
 20
-159.1795043945312
 30
0.0
 11
41.1000366210942
 21
-193.8205108642578
 31
0.0
  0
LINE
  5
B5
330
72
100
AcDbEntity
  8
0
  6
Continuous
 62
     4
100
AcDbLine
 10
81.99995905111076
 20
-86.52002484664162
 30
0.0
 11
101.999942825601
 21
-111.4799698394382
 31
0.0
  0
LINE
  5
B6
330
72
100
AcDbEntity
  8
0
  6
Continuous
 62
     0
100
AcDbLine
 10
79.49998474121094
 20
-59.13296508789062
 30
0.0
 11
72.49998474121094
 21
-59.13296508789062
 31
0.0
  0
LINE
  5
B7
330
72
100
AcDbEntity
  8
0
  6
Continuous
 62
     0
100
AcDbLine
 10
79.49998474121094
 20
-133.9595642089844
 30
0.0
 11
72.49998474121094
 21
-133.9595642089844
 31
0.0
  0
LINE
  5
B8
330
72
100
AcDbEntity
  8
0
  6
Continuous
 62
     0
100
AcDbLine
 10
69.99996948242188
 20
-119.8520812988281
 30
0.0
 11
72.49996948242188
 21
-119.8520812988281
 31
0.0
  0
LINE
  5
B9
330
72
100
AcDbEntity
  8
0
  6
Continuous
 62
     0
100
AcDbLine
 10
72.49998474121094
 20
-73.85552978515625
 30
0.0
 11
79.49998474121094
 21
-73.85552978515625
 31
0.0
  0
LINE
  5
BA
330
72
100
AcDbEntity
  8
0
  6
Continuous
 62
     0
100
AcDbLine
 10
41.10003662109375
 20
-11.50003573298272
 30
0.0
 11
47.00003051757812
 21
-11.50003573298272
 31
0.0
  0
LINE
  5
BB
330
72
100
AcDbEntity
  8
0
  6
Continuous
 62
     0
100
AcDbLine
 10
20.0
 20
-193.4000091552734
 30
0.0
 11
25.1000394821167
 21
-193.4000091552734
 31
0.0
  0
LINE
  5
BC
330
72
100
AcDbEntity
  8
0
  6
Continuous
 62
     0
100
AcDbLine
 10
20.0
 20
-159.6000061035156
 30
0.0
 11
25.1000394821167
 21
-159.6000061035156
 31
0.0
  0
LINE
  5
BD
330
72
100
AcDbEntity
  8
0
  6
Continuous
 62
     0
100
AcDbLine
 10
41.10003662109375
 20
-166.5000357329827
 30
0.0
 11
47.00003051757812
 21
-166.5000357329827
 31
0.0
  0
LINE
  5
BE
330
72
100
AcDbEntity
  8
0
  6
Continuous
 62
     0
100
AcDbLine
 10
125.0
 20
-67.20000000000005
 30
0.0
 11
140.0
 21
-67.20000000000005
 31
0.0
  0
LINE
  5
BF
330
72
100
AcDbEntity
  8
0
  6
Continuous
 62
     0
100
AcDbLine
 10
125.0
 20
-83.12286759728522
 30
0.0
 11
140.0
 21
-83.12286759728522
 31
0.0
  0
LINE
  5
C0
330
72
100
AcDbEntity
  8
0
  6
Continuous
 62
     0
100
AcDbLine
 10
125.0
 20
-67.20000000000005
 30
0.0
 11
125.0
 21
-130.8
 31
0.0
  0
LINE
  5
C1
330
72
100
AcDbEntity
  8
0
  6
Continuous
 62
     0
100
AcDbLine
 10
47.00003051757812
 20
-166.5000357329827
 30
0.0
 11
47.00003051757812
 21
-186.5000192821017
 31
0.0
  0
LINE
  5
C2
330
72
100
AcDbEntity
  8
0
  6
Continuous
 62
     0
100
AcDbLine
 10
47.00003051757812
 20
-11.50003573298272
 30
0.0
 11
47.00003051757812
 21
-31.50001928210168
 31
0.0
  0
LINE
  5
C3
330
72
100
AcDbEntity
  8
0
  6
Continuous
 62
     0
100
AcDbLine
 10
25.1000394821167
 20
-159.1795043945312
 30
0.0
 11
41.1000366210942
 21
-159.1795043945312
 31
0.0
  0
LINE
  5
C4
330
72
100
AcDbEntity
  8
0
  6
Continuous
 62
     0
100
AcDbLine
 10
25.1000394821167
 20
-159.1795196533203
 30
0.0
 11
25.1000394821167
 21
-193.8204956054688
 31
0.0
  0
LINE
  5
C5
330
72
100
AcDbEntity
  8
0
  6
Continuous
 62
     0
100
AcDbLine
 10
41.10003662109375
 20
-31.50001928210168
 30
0.0
 11
47.00003051757812
 21
-31.50001928210168
 31
0.0
  0
LINE
  5
C6
330
72
100
AcDbEntity
  8
0
  6
Continuous
 62
     0
100
AcDbLine
 10
41.10003662109375
 20
-186.5000192821017
 30
0.0
 11
47.00003051757812
 21
-186.5000192821017
 31
0.0
  0
LINE
  5
C7
330
72
100
AcDbEntity
  8
0
  6
Continuous
 62
     0
100
AcDbLine
 10
25.1000394821167
 20
-12.83975219726562
 30
0.0
 11
41.1000366210942
 21
-12.83975219726562
 31
0.0
  0
LINE
  5
C8
330
72
100
AcDbEntity
  8
0
  6
Continuous
 62
     0
100
AcDbLine
 10
25.1000394821167
 20
-4.17950439453125
 30
0.0
 11
41.1000366210942
 21
-4.17950439453125
 31
0.0
  0
LINE
  5
C9
330
72
100
AcDbEntity
  8
0
  6
Continuous
 62
     0
100
AcDbLine
 10
-131.0
 20
-198.0
 30
0.0
 11
-131.0
 21
0.0
 31
0.0
  0
LINE
  5
CA
330
72
100
AcDbEntity
  8
0
  6
Continuous
 62
     0
100
AcDbLine
 10
-131.0
 20
-167.052490234375
 30
0.0
 11
-108.5
 21
-167.052490234375
 31
0.0
  0
LINE
  5
CB
330
72
100
AcDbEntity
  8
0
  6
Continuous
 62
     0
100
AcDbLine
 10
-24.0
 20
-185.947509765625
 30
0.0
 11
-56.5
 21
-185.947509765625
 31
0.0
  0
LINE
  5
CC
330
72
100
AcDbEntity
  8
0
  6
Continuous
 62
     0
100
AcDbLine
 10
-131.0
 20
-3.5
 30
0.0
 11
-108.5
 21
-3.5
 31
0.0
  0
LINE
  5
CD
330
72
100
AcDbEntity
  8
0
  6
Continuous
 62
     0
100
AcDbLine
 10
41.1000366210942
 20
-4.17950439453125
 30
0.0
 11
41.1000366210942
 21
-38.82051086425781
 31
0.0
  0
LINE
  5
CE
330
72
100
AcDbEntity
  8
0
  6
Continuous
 62
     0
100
AcDbLine
 10
164.18798828125
 20
-79.0
 30
0.0
 11
164.18798828125
 21
-119.0
 31
0.0
  0
LINE
  5
CF
330
72
100
AcDbEntity
  8
0
  6
Continuous
 62
     4
100
AcDbLine
 10
125.0
 20
-118.18798828125
 30
0.0
 11
108.0000000000005
 21
-118.18798828125
 31
0.0
  0
LINE
  5
D0
330
72
100
AcDbEntity
  8
0
  6
Continuous
 62
     0
100
AcDbLine
 10
125.0
 20
-119.0
 30
0.0
 11
108.0000000000005
 21
-119.0
 31
0.0
  0
LINE
  5
D1
330
72
100
AcDbEntity
  8
0
  6
Continuous
 62
     0
100
AcDbLine
 10
140.0
 20
-79.0
 30
0.0
 11
164.18798828125
 21
-79.0
 31
0.0
  0
LINE
  5
D2
330
72
100
AcDbEntity
  8
0
  6
Continuous
 62
     0
100
AcDbLine
 10
20.0
 20
-38.40000915527344
 30
0.0
 11
25.1000394821167
 21
-38.40000915527344
 31
0.0
  0
LINE
  5
D3
330
72
100
AcDbEntity
  8
0
  6
Continuous
 62
     0
100
AcDbLine
 10
125.0
 20
-114.8771324027148
 30
0.0
 11
140.0
 21
-114.8771324027148
 31
0.0
  0
LINE
  5
D4
330
72
100
AcDbEntity
  8
0
  6
Continuous
 62
     0
100
AcDbLine
 10
125.0
 20
-130.8
 30
0.0
 11
140.0
 21
-130.8
 31
0.0
  0
LINE
  5
D5
330
72
100
AcDbEntity
  8
0
  6
Continuous
 62
     0
100
AcDbLine
 10
78.00000000000045
 20
-119.2371368408203
 30
0.0
 11
78.00000000000045
 21
-78.7628631591797
 31
0.0
  0
LINE
  5
D6
330
72
100
AcDbEntity
  8
0
  6
Continuous
 62
     4
100
AcDbLine
 10
140.0
 20
-79.81201171875
 30
0.0
 11
165.0
 21
-79.81201171875
 31
0.0
  0
LINE
  5
D7
330
72
100
AcDbEntity
  8
0
  6
Continuous
 62
     0
100
AcDbLine
 10
-131.0
 20
-30.947509765625
 30
0.0
 11
-108.5
 21
-30.947509765625
 31
0.0
  0
LINE
  5
D8
330
72
100
AcDbEntity
  8
0
  6
Continuous
 62
     0
100
AcDbLine
 10
-24.0
 20
-12.052490234375
 30
0.0
 11
-56.5
 21
-12.052490234375
 31
0.0
  0
LINE
  5
D9
330
72
100
AcDbEntity
  8
0
  6
Continuous
 62
     0
100
AcDbLine
 10
-108.5
 20
-12.052490234375
 30
0.0
 11
-131.0
 21
-12.052490234375
 31
0.0
  0
LINE
  5
DA
330
72
100
AcDbEntity
  8
0
  6
Continuous
 62
     0
100
AcDbLine
 10
-56.5
 20
-3.5
 30
0.0
 11
-24.0
 21
-3.5
 31
0.0
  0
LINE
  5
DB
330
72
100
AcDbEntity
  8
0
  6
Continuous
 62
     0
100
AcDbLine
 10
-56.5
 20
11.0
 30
0.0
 11
-56.5
 21
-209.0
 31
0.0
  0
LINE
  5
DC
330
72
100
AcDbEntity
  8
0
  6
Continuous
 62
     0
100
AcDbLine
 10
-108.5
 20
11.0
 30
0.0
 11
-56.5
 21
11.0
 31
0.0
  0
LINE
  5
DD
330
72
100
AcDbEntity
  8
0
  6
Continuous
 62
     0
100
AcDbLine
 10
-108.5
 20
-185.947509765625
 30
0.0
 11
-131.0
 21
-185.947509765625
 31
0.0
  0
LINE
  5
DE
330
72
100
AcDbEntity
  8
0
  6
Continuous
 62
     0
100
AcDbLine
 10
-56.5
 20
-167.052490234375
 30
0.0
 11
-24.0
 21
-167.052490234375
 31
0.0
  0
LINE
  5
DF
330
72
100
AcDbEntity
  8
0
  6
Continuous
 62
     0
100
AcDbLine
 10
-180.1000394821167
 20
-4.179519653320312
 30
0.0
 11
-180.1000394821167
 21
-38.82049560546875
 31
0.0
  0
LINE
  5
E0
330
72
100
AcDbEntity
  8
0
  6
Continuous
 62
     0
100
AcDbLine
 10
-196.1000366210942
 20
-30.1602783203125
 30
0.0
 11
-180.1000394821167
 21
-30.1602783203125
 31
0.0
  0
LINE
  5
E1
330
72
100
AcDbEntity
  8
0
  6
Continuous
 62
     0
100
AcDbLine
 10
-196.1000366210942
 20
-38.82051086425781
 30
0.0
 11
-180.1000394821167
 21
-38.82051086425781
 31
0.0
  0
LINE
  5
E2
330
72
100
AcDbEntity
  8
0
  6
Continuous
 62
     0
100
AcDbLine
 10
-175.0
 20
-38.40000915527344
 30
0.0
 11
-180.1000394821167
 21
-38.40000915527344
 31
0.0
  0
LINE
  5
E3
330
72
100
AcDbEntity
  8
0
  6
Continuous
 62
     0
100
AcDbLine
 10
-175.0
 20
-4.600006103515625
 30
0.0
 11
-180.1000394821167
 21
-4.600006103515625
 31
0.0
  0
LINE
  5
E4
330
72
100
AcDbEntity
  8
0
  6
Continuous
 62
     0
100
AcDbLine
 10
-196.1000366210938
 20
-11.50003573298272
 30
0.0
 11
-202.0000305175781
 21
-11.50003573298272
 31
0.0
  0
LINE
  5
E5
330
72
100
AcDbEntity
  8
0
  6
Continuous
 62
     0
100
AcDbLine
 10
-196.1000366210938
 20
-166.5000357329827
 30
0.0
 11
-202.0000305175781
 21
-166.5000357329827
 31
0.0
  0
LINE
  5
E6
330
72
100
AcDbEntity
  8
0
  6
Continuous
 62
     0
100
AcDbLine
 10
-175.0
 20
-159.6000061035156
 30
0.0
 11
-180.1000394821167
 21
-159.6000061035156
 31
0.0
  0
LINE
  5
E7
330
72
100
AcDbEntity
  8
0
  6
Continuous
 62
     0
100
AcDbLine
 10
-175.0
 20
-193.4000091552734
 30
0.0
 11
-180.1000394821167
 21
-193.4000091552734
 31
0.0
  0
LINE
  5
E8
330
72
100
AcDbEntity
  8
0
  6
Continuous
 62
     0
100
AcDbLine
 10
-196.1000366210942
 20
-193.8205108642578
 30
0.0
 11
-180.1000394821167
 21
-193.8205108642578
 31
0.0
  0
LINE
  5
E9
330
72
100
AcDbEntity
  8
0
  6
Continuous
 62
     0
100
AcDbLine
 10
-196.1000366210942
 20
-185.1602783203125
 30
0.0
 11
-180.1000394821167
 21
-185.1602783203125
 31
0.0
  0
LINE
  5
EA
330
72
100
AcDbEntity
  8
0
  6
Continuous
 62
     0
100
AcDbLine
 10
-180.1000394821167
 20
-167.8397521972656
 30
0.0
 11
-196.1000366210942
 21
-167.8397521972656
 31
0.0
  0
LINE
  5
EB
330
72
100
AcDbEntity
  8
0
  6
Continuous
 62
     0
100
AcDbLine
 10
-196.1000366210942
 20
-159.1795043945312
 30
0.0
 11
-196.1000366210942
 21
-193.8205108642578
 31
0.0
  0
LINE
  5
EC
330
72
100
AcDbEntity
  8
0
  6
Continuous
 62
     0
100
AcDbLine
 10
-180.1000394821167
 20
-159.1795043945312
 30
0.0
 11
-196.1000366210942
 21
-159.1795043945312
 31
0.0
  0
LINE
  5
ED
330
72
100
AcDbEntity
  8
0
  6
Continuous
 62
     0
100
AcDbLine
 10
-202.0000305175781
 20
-11.50003573298272
 30
0.0
 11
-202.0000305175781
 21
-31.50001928210168
 31
0.0
  0
LINE
  5
EE
330
72
100
AcDbEntity
  8
0
  6
Continuous
 62
     0
100
AcDbLine
 10
-202.0000305175781
 20
-166.5000357329827
 30
0.0
 11
-202.0000305175781
 21
-186.5000192821017
 31
0.0
  0
LINE
  5
EF
330
72
100
AcDbEntity
  8
0
  6
Continuous
 62
     0
100
AcDbLine
 10
-180.1000394821167
 20
-159.1795196533203
 30
0.0
 11
-180.1000394821167
 21
-193.8204956054688
 31
0.0
  0
LINE
  5
F0
330
72
100
AcDbEntity
  8
0
  6
Continuous
 62
     0
100
AcDbLine
 10
-196.1000366210938
 20
-186.5000192821017
 30
0.0
 11
-202.0000305175781
 21
-186.5000192821017
 31
0.0
  0
LINE
  5
F1
330
72
100
AcDbEntity
  8
0
  6
Continuous
 62
     0
100
AcDbLine
 10
-196.1000366210938
 20
-31.50001928210168
 30
0.0
 11
-202.0000305175781
 21
-31.50001928210168
 31
0.0
  0
LINE
  5
F2
330
72
100
AcDbEntity
  8
0
  6
Continuous
 62
     0
100
AcDbLine
 10
-180.1000394821167
 20
-12.83975219726562
 30
0.0
 11
-196.1000366210942
 21
-12.83975219726562
 31
0.0
  0
LINE
  5
F3
330
72
100
AcDbEntity
  8
0
  6
Continuous
 62
     0
100
AcDbLine
 10
-180.1000394821167
 20
-4.17950439453125
 30
0.0
 11
-196.1000366210942
 21
-4.17950439453125
 31
0.0
  0
LINE
  5
F4
330
72
100
AcDbEntity
  8
0
  6
Continuous
 62
     0
100
AcDbLine
 10
-196.1000366210942
 20
-4.17950439453125
 30
0.0
 11
-196.1000366210942
 21
-38.82051086425781
 31
0.0
  0
LINE
  5
F5
330
72
100
AcDbEntity
  8
0
  6
Continuous
 62
     0
100
AcDbLine
 10
-108.5
 20
-194.3499908447266
 30
0.0
 11
-131.0
 21
-194.3499908447266
 31
0.0
  0
LINE
  5
F6
330
72
100
AcDbEntity
  8
0
  6
Continuous
 62
     0
100
AcDbLine
 10
-108.5
 20
11.0
 30
0.0
 11
-108.5
 21
-209.0
 31
0.0
  0
LINE
  5
F7
330
72
100
AcDbEntity
  8
0
  6
Continuous
 62
     0
100
AcDbLine
 10
-108.5
 20
-209.0
 30
0.0
 11
-56.5
 21
-209.0
 31
0.0
  0
LINE
  5
F8
330
72
100
AcDbEntity
  8
0
  6
Continuous
 62
     0
100
AcDbLine
 10
-56.5
 20
-30.947509765625
 30
0.0
 11
-24.0
 21
-30.947509765625
 31
0.0
  0
LINE
  5
F9
330
72
100
AcDbEntity
  8
0
  6
CENTER
 62
     4
100
AcDbLine
 10
-82.5
 20
19.32440155521226
 30
0.0
 11
-82.5
 21
-222.5865929600761
 31
0.0
  0
LINE
  5
FA
330
72
100
AcDbEntity
  8
0
  6
DASHED
 62
     0
100
AcDbLine
 10
-11.5
 20
-19.00001525878906
 30
0.0
 11
11.5
 21
-19.00001525878906
 31
0.0
  0
LINE
  5
FB
330
72
100
AcDbEntity
  8
0
  6
DASHED
 62
     0
100
AcDbLine
 10
-166.5
 20
-19.00001525878906
 30
0.0
 11
-143.5
 21
-19.00001525878906
 31
0.0
  0
LINE
  5
FC
330
72
100
AcDbEntity
  8
0
  6
Continuous
 62
     0
100
AcDbLine
 10
-108.5
 20
-136.6514317693577
 30
0.0
 11
-56.5
 21
-136.6514317693577
 31
0.0
  0
LINE
  5
FD
330
72
100
AcDbEntity
  8
0
  6
Continuous
 62
     0
100
AcDbLine
 10
-108.5
 20
-61.34856823064229
 30
0.0
 11
-56.5
 21
-61.34856823064229
 31
0.0
  0
LINE
  5
FE
330
72
100
AcDbEntity
  8
0
  6
CENTER
 62
     4
100
AcDbLine
 10
-155.0
 20
3.061588287353516
 30
0.0
 11
-155.0
 21
-20.74021911621094
 31
0.0
  0
LINE
  5
FF
330
72
100
AcDbEntity
  8
0
  6
DASHED
 62
     0
100
AcDbLine
 10
-167.7315320968628
 20
-17.02915954589844
 30
0.0
 11
-142.2684631347656
 21
-17.02915954589844
 31
0.0
  0
LINE
  5
100
330
72
100
AcDbEntity
  8
0
  6
DASHED
 62
     4
100
AcDbLine
 10
-167.7315331105166
 20
-17.02915485290634
 30
0.0
 11
-166.4999995301008
 21
-19.00002054400682
 31
0.0
  0
LINE
  5
101
330
72
100
AcDbEntity
  8
0
  6
DASHED
 62
     4
100
AcDbLine
 10
-143.4999979430466
 20
-19.00001650019887
 30
0.0
 11
-142.2684663841124
 21
-17.02915404414514
 31
0.0
  0
LINE
  5
102
330
72
100
AcDbEntity
  8
0
  6
DASHED
 62
     4
100
AcDbLine
 10
-168.3262034574658
 20
-0.000005023910334
 30
0.0
 11
-167.7315322673065
 21
-17.02916064183058
 31
0.0
  0
LINE
  5
103
330
72
100
AcDbEntity
  8
0
  6
DASHED
 62
     4
100
AcDbLine
 10
-142.268461481612
 20
-17.02914559203317
 30
0.0
 11
-141.6737913481801
 21
-0.000020234827229
 31
0.0
  0
LINE
  5
104
330
72
100
AcDbEntity
  8
0
  6
DASHED
 62
     0
100
AcDbLine
 10
-167.1634946792698
 20
-0.000000191808867
 30
0.0
 11
-166.4999995504718
 21
-19.00001564069427
 31
0.0
  0
LINE
  5
105
330
72
100
AcDbEntity
  8
0
  6
DASHED
 62
     0
100
AcDbLine
 10
-12.73153209686279
 20
-17.02915954589844
 30
0.0
 11
12.73153686523438
 21
-17.02915954589844
 31
0.0
  0
LINE
  5
106
330
72
100
AcDbEntity
  8
0
  6
DASHED
 62
     4
100
AcDbLine
 10
-12.73153311051588
 20
-17.02915485290583
 30
0.0
 11
-11.49999953010013
 21
-19.0000205440063
 31
0.0
  0
LINE
  5
107
330
72
100
AcDbEntity
  8
0
  6
DASHED
 62
     4
100
AcDbLine
 10
11.50000205695346
 20
-19.00001650019871
 30
0.0
 11
12.73153361588762
 21
-17.02915404414498
 31
0.0
  0
LINE
  5
108
330
72
100
AcDbEntity
  8
0
  6
Continuous
 62
     0
100
AcDbLine
 10
165.0000000000005
 20
-79.81201171874949
 30
0.0
 11
164.1879882812506
 21
-78.99999999999952
 31
0.0
  0
LINE
  5
109
330
72
100
AcDbEntity
  8
0
  6
DASHED
 62
     0
100
AcDbLine
 10
-143.4999966371565
 20
-19.00001577382515
 30
0.0
 11
-142.8365020325618
 21
-0.000015336160233
 31
0.0
  0
LINE
  5
10A
330
72
100
AcDbEntity
  8
0
  6
CENTER
 62
     4
100
AcDbLine
 10
0.0
 20
3.061588287353516
 30
0.0
 11
0.0
 21
-20.74021911621095
 31
0.0
  0
LINE
  5
10B
330
72
100
AcDbEntity
  8
0
  6
Continuous
 62
     0
100
AcDbLine
 10
165.0000000000009
 20
-118.1879882812506
 30
0.0
 11
164.187988281251
 21
-119.0000000000006
 31
0.0
  0
ARC
  5
10C
330
72
100
AcDbEntity
  8
0
  6
Continuous
 62
     0
100
AcDbCircle
 10
106.0
 20
-79.5
 30
0.0
 40
1.0
100
AcDbArc
 50
180.0
 51
270.0
  0
ARC
  5
10D
330
72
100
AcDbEntity
  8
0
  6
Continuous
 62
     0
100
AcDbCircle
 10
107.0000000000005
 20
-118.5
 30
0.0
 40
1.0
100
AcDbArc
 50
0.0
 51
90.00000000000001
  0
ARC
  5
10E
330
72
100
AcDbEntity
  8
0
  6
Continuous
 62
     0
100
AcDbCircle
 10
107.0000000000005
 20
-79.5
 30
0.0
 40
1.0
100
AcDbArc
 50
270.0
 51
0.0
  0
ARC
  5
10F
330
72
100
AcDbEntity
  8
0
  6
Continuous
 62
     0
100
AcDbCircle
 10
106.0
 20
-118.5
 30
0.0
 40
1.0
100
AcDbArc
 50
90.0
 51
180.0
  0
CIRCLE
  5
110
330
72
100
AcDbEntity
  8
0
  6
Continuous
 62
     0
100
AcDbCircle
 10
-82.5
 20
-99.0
 30
0.0
 40
18.0
  0
ARC
  5
111
330
72
100
AcDbEntity
  8
0
  6
Continuous
 62
     0
100
AcDbCircle
 10
-82.5
 20
-99.0
 30
0.0
 40
35.0
100
AcDbArc
 50
222.0246275793772
 51
317.9753724206228
  0
ARC
  5
112
330
72
100
AcDbEntity
  8
0
  6
Continuous
 62
     0
100
AcDbCircle
 10
-82.5
 20
-99.0
 30
0.0
 40
35.0
100
AcDbArc
 50
42.02462757937724
 51
137.9753724206227
  0
MTEXT
  5
113
330
72
100
AcDbEntity
  8
0
 62
     0
100
AcDbMText
 10
11.76461280076974
 20
-98.17552396148983
 30
0.0
 40
0.5
 41
0.0
 71
     7
 72
     1
  1
{\W1;BN-6102B-TE-180}
 73
     1
 44
1.0
  0
ENDBLK
  5
74
330
72
100
AcDbEntity
  8
0
100
AcDbBlockEnd
  0
BLOCK
  5
76
330
75
100
AcDbEntity
  8
0
100
AcDbBlockBegin
  2
DTL0002
 70
     0
 10
0.0
 20
0.0
 30
0.0
  3
DTL0002
  1

  0
POINT
  5
114
330
75
100
AcDbEntity
  8
0
 62
     0
100
AcDbPoint
 10
0.0
 20
0.0
 30
0.0
  0
LINE
  5
115
330
75
100
AcDbEntity
  8
0
  6
CENTER
 62
     4
100
AcDbLine
 10
-155.0000000000005
 20
118.6719148430771
 30
0.0
 11
-155.0000000000005
 21
84.67378981924891
 31
0.0
  0
LINE
  5
116
330
75
100
AcDbEntity
  8
0
  6
CENTER
 62
     4
100
AcDbLine
 10
-0.000000000000455
 20
118.6719148430771
 30
0.0
 11
-0.000000000000455
 21
84.67378981924891
 31
0.0
  0
LINE
  5
117
330
75
100
AcDbEntity
  8
0
  6
CENTER
 62
     4
100
AcDbLine
 10
57.46248711727867
 20
-77.5
 30
0.0
 11
-207.740870137508
 21
-77.5
 31
0.0
  0
LINE
  5
118
330
75
100
AcDbEntity
  8
0
  6
CENTER
 62
     4
100
AcDbLine
 10
57.46248711727867
 20
77.5
 30
0.0
 11
-207.740870137508
 21
77.5
 31
0.0
  0
LINE
  5
119
330
75
100
AcDbEntity
  8
0
  6
Continuous
 62
     0
100
AcDbLine
 10
25.1000394821167
 20
-77.5
 30
0.0
 11
41.1000366210942
 21
-77.5
 31
0.0
  0
LINE
  5
11A
330
75
100
AcDbEntity
  8
0
  6
Continuous
 62
     0
100
AcDbLine
 10
47.00003051757812
 20
87.49996426701728
 30
0.0
 11
47.00003051757812
 21
67.49998071789832
 31
0.0
  0
LINE
  5
11B
330
75
100
AcDbEntity
  8
0
  6
Continuous
 62
     0
100
AcDbLine
 10
102.0
 20
-24.0
 30
0.0
 11
102.0
 21
-20.5
 31
0.0
  0
LINE
  5
11C
330
75
100
AcDbEntity
  8
0
  6
Continuous
 62
     0
100
AcDbLine
 10
164.18798828125
 20
-20.0
 30
0.0
 11
140.0
 21
-20.0
 31
0.0
  0
LINE
  5
11D
330
75
100
AcDbEntity
  8
0
  6
Continuous
 62
     0
100
AcDbLine
 10
79.49998474121115
 20
-24.62496272149831
 30
0.0
 11
81.99993876150253
 21
-23.99997429322293
 31
0.0
  0
LINE
  5
11E
330
75
100
AcDbEntity
  8
0
  6
Continuous
 62
     0
100
AcDbLine
 10
125.0
 20
27.5
 30
0.0
 11
140.0
 21
27.5
 31
0.0
  0
LINE
  5
11F
330
75
100
AcDbEntity
  8
0
  6
Continuous
 62
     0
100
AcDbLine
 10
72.49998474121094
 20
38.55208587646484
 30
0.0
 11
79.49998474121094
 21
38.55208587646484
 31
0.0
  0
LINE
  5
120
330
75
100
AcDbEntity
  8
0
  6
Continuous
 62
     0
100
AcDbLine
 10
20.0
 20
-99.0
 30
0.0
 11
20.0
 21
99.0
 31
0.0
  0
LINE
  5
121
330
75
100
AcDbEntity
  8
0
  6
Continuous
 62
     0
100
AcDbLine
 10
125.0
 20
27.5
 30
0.0
 11
125.0
 21
-27.5
 31
0.0
  0
LINE
  5
122
330
75
100
AcDbEntity
  8
0
  6
Continuous
 62
     0
100
AcDbLine
 10
72.49998474121094
 20
20.85208129882812
 30
0.0
 11
72.49998474121094
 21
39.25209045410156
 31
0.0
  0
LINE
  5
123
330
75
100
AcDbEntity
  8
0
  6
Continuous
 62
     0
100
AcDbLine
 10
20.0
 20
-94.40000915527344
 30
0.0
 11
25.1000394821167
 21
-94.40000915527344
 31
0.0
  0
LINE
  5
124
330
75
100
AcDbEntity
  8
0
  6
Continuous
 62
     0
100
AcDbLine
 10
-24.0
 20
99.0
 30
0.0
 11
20.0
 21
99.0
 31
0.0
  0
LINE
  5
125
330
75
100
AcDbEntity
  8
0
  6
Continuous
 62
     0
100
AcDbLine
 10
-175.0
 20
-99.0
 30
0.0
 11
-131.0
 21
-99.0
 31
0.0
  0
LINE
  5
126
330
75
100
AcDbEntity
  8
0
  6
Continuous
 62
     0
100
AcDbLine
 10
-24.0
 20
-99.0
 30
0.0
 11
-24.0
 21
99.0
 31
0.0
  0
LINE
  5
127
330
75
100
AcDbEntity
  8
0
  6
Continuous
 62
     4
100
AcDbLine
 10
165.0
 20
-19.18798828125
 30
0.0
 11
140.0
 21
-19.18798828125
 31
0.0
  0
LINE
  5
128
330
75
100
AcDbEntity
  8
0
  6
Continuous
 62
     0
100
AcDbLine
 10
108.0000000000005
 20
-20.0
 30
0.0
 11
108.0000000000005
 21
20.0
 31
0.0
  0
LINE
  5
129
330
75
100
AcDbEntity
  8
0
  6
Continuous
 62
     0
100
AcDbLine
 10
79.49998474121094
 20
-21.55208587646484
 30
0.0
 11
79.49998474121094
 21
-38.55208587646484
 31
0.0
  0
LINE
  5
12A
330
75
100
AcDbEntity
  8
0
  6
Continuous
 62
     0
100
AcDbLine
 10
72.49998474121094
 20
-38.55208587646484
 30
0.0
 11
79.49998474121094
 21
-38.55208587646484
 31
0.0
  0
LINE
  5
12B
330
75
100
AcDbEntity
  8
0
  6
Continuous
 62
     0
100
AcDbLine
 10
72.49998474121094
 20
-21.55208587646484
 30
0.0
 11
79.49998474121094
 21
-21.55208587646484
 31
0.0
  0
LINE
  5
12C
330
75
100
AcDbEntity
  8
0
  6
Continuous
 62
     0
100
AcDbLine
 10
125.0
 20
0.0
 30
0.0
 11
140.0
 21
0.0
 31
0.0
  0
LINE
  5
12D
330
75
100
AcDbEntity
  8
0
  6
Continuous
 62
     0
100
AcDbLine
 10
79.49998474121094
 20
21.55208587646484
 30
0.0
 11
79.49998474121094
 21
38.55208587646484
 31
0.0
  0
LINE
  5
12E
330
75
100
AcDbEntity
  8
0
  6
Continuous
 62
     0
100
AcDbLine
 10
72.49998474121094
 20
-20.85208129882812
 30
0.0
 11
72.49998474121094
 21
-39.25209045410156
 31
0.0
  0
LINE
  5
12F
330
75
100
AcDbEntity
  8
0
  6
Continuous
 62
     0
100
AcDbLine
 10
20.0
 20
94.39999389648438
 30
0.0
 11
25.1000394821167
 21
94.39999389648438
 31
0.0
  0
LINE
  5
130
330
75
100
AcDbEntity
  8
0
  6
Continuous
 62
     0
100
AcDbLine
 10
25.1000394821167
 20
62.5
 30
0.0
 11
41.1000366210942
 21
62.5
 31
0.0
  0
LINE
  5
131
330
75
100
AcDbEntity
  8
0
  6
Continuous
 62
     0
100
AcDbLine
 10
47.00003051757812
 20
-67.50003573298272
 30
0.0
 11
47.00003051757812
 21
-87.50001928210168
 31
0.0
  0
LINE
  5
132
330
75
100
AcDbEntity
  8
0
  6
CENTER
 62
     4
100
AcDbLine
 10
0.0
 20
-23.63915749436683
 30
0.0
 11
0.0
 21
26.44881892842773
 31
0.0
  0
LINE
  5
133
330
75
100
AcDbEntity
  8
0
  6
Continuous
 62
     0
100
AcDbLine
 10
-175.0
 20
99.0
 30
0.0
 11
-175.0
 21
-99.0
 31
0.0
  0
LINE
  5
134
330
75
100
AcDbEntity
  8
0
  6
CENTER
 62
     4
100
AcDbLine
 10
-155.0
 20
-23.63915749436683
 30
0.0
 11
-155.0
 21
26.44881892842773
 31
0.0
  0
LINE
  5
135
330
75
100
AcDbEntity
  8
0
  6
Continuous
 62
     0
100
AcDbLine
 10
25.1000394821167
 20
-92.5
 30
0.0
 11
41.1000366210942
 21
-92.5
 31
0.0
  0
LINE
  5
136
330
75
100
AcDbEntity
  8
0
  6
Continuous
 62
     0
100
AcDbLine
 10
69.99996948242188
 20
-20.85208129882812
 30
0.0
 11
72.49996948242188
 21
-20.85208129882812
 31
0.0
  0
LINE
  5
137
330
75
100
AcDbEntity
  8
0
  6
Continuous
 62
     0
100
AcDbLine
 10
-131.0
 20
-99.0
 30
0.0
 11
-175.0
 21
-99.0
 31
0.0
  0
LINE
  5
138
330
75
100
AcDbEntity
  8
0
  6
Continuous
 62
     0
100
AcDbLine
 10
25.1000394821167
 20
-60.60000610351562
 30
0.0
 11
25.1000394821167
 21
-94.40000915527344
 31
0.0
  0
LINE
  5
139
330
75
100
AcDbEntity
  8
0
  6
CENTER
 62
     4
100
AcDbLine
 10
171.2555177835511
 20
0.0
 30
0.0
 11
-188.4052721366857
 21
0.0
 31
0.0
  0
LINE
  5
13A
330
75
100
AcDbEntity
  8
0
  6
Continuous
 62
     0
100
AcDbLine
 10
41.10003662109375
 20
67.49998071789832
 30
0.0
 11
47.00003051757812
 21
67.49998071789832
 31
0.0
  0
LINE
  5
13B
330
75
100
AcDbEntity
  8
0
  6
Continuous
 62
     0
100
AcDbLine
 10
72.49998474121094
 20
30.05208587646484
 30
0.0
 11
79.49998474121094
 21
30.05208587646484
 31
0.0
  0
LINE
  5
13C
330
75
100
AcDbEntity
  8
0
  6
Continuous
 62
     0
100
AcDbLine
 10
72.49998474121094
 20
21.55208587646484
 30
0.0
 11
79.49998474121094
 21
21.55208587646484
 31
0.0
  0
LINE
  5
13D
330
75
100
AcDbEntity
  8
0
  6
Continuous
 62
     0
100
AcDbLine
 10
69.99998474121094
 20
-39.25209045410156
 30
0.0
 11
72.49998474121094
 21
-39.25209045410156
 31
0.0
  0
LINE
  5
13E
330
75
100
AcDbEntity
  8
0
  6
Continuous
 62
     0
100
AcDbLine
 10
82.0
 20
20.5
 30
0.0
 11
102.0
 21
20.5
 31
0.0
  0
LINE
  5
13F
330
75
100
AcDbEntity
  8
0
  6
Continuous
 62
     0
100
AcDbLine
 10
20.0
 20
60.59999084472656
 30
0.0
 11
25.1000394821167
 21
60.59999084472656
 31
0.0
  0
LINE
  5
140
330
75
100
AcDbEntity
  8
0
  6
Continuous
 62
     0
100
AcDbLine
 10
41.10003662109375
 20
-67.50003573298272
 30
0.0
 11
47.00003051757812
 21
-67.50003573298272
 31
0.0
  0
LINE
  5
141
330
75
100
AcDbEntity
  8
0
  6
Continuous
 62
     0
100
AcDbLine
 10
125.0
 20
-27.5
 30
0.0
 11
140.0
 21
-27.5
 31
0.0
  0
LINE
  5
142
330
75
100
AcDbEntity
  8
0
  6
Continuous
 62
     0
100
AcDbLine
 10
140.0
 20
27.5
 30
0.0
 11
140.0
 21
-27.5
 31
0.0
  0
LINE
  5
143
330
75
100
AcDbEntity
  8
0
  6
Continuous
 62
     0
100
AcDbLine
 10
72.49998474121094
 20
-30.05208587646484
 30
0.0
 11
79.49998474121094
 21
-30.05208587646484
 31
0.0
  0
LINE
  5
144
330
75
100
AcDbEntity
  8
0
  6
Continuous
 62
     0
100
AcDbLine
 10
-175.0
 20
99.0
 30
0.0
 11
-131.0
 21
99.0
 31
0.0
  0
LINE
  5
145
330
75
100
AcDbEntity
  8
0
  6
Continuous
 62
     0
100
AcDbLine
 10
105.0
 20
-24.0
 30
0.0
 11
102.0
 21
-24.0
 31
0.0
  0
LINE
  5
146
330
75
100
AcDbEntity
  8
0
  6
Continuous
 62
     0
100
AcDbLine
 10
82.0
 20
-24.0
 30
0.0
 11
82.0
 21
24.0
 31
0.0
  0
LINE
  5
147
330
75
100
AcDbEntity
  8
0
  6
Continuous
 62
     0
100
AcDbLine
 10
105.0
 20
-24.0
 30
0.0
 11
105.0
 21
24.0
 31
0.0
  0
LINE
  5
148
330
75
100
AcDbEntity
  8
0
  6
Continuous
 62
     0
100
AcDbLine
 10
70.0
 20
-55.0
 30
0.0
 11
20.0
 21
-55.0
 31
0.0
  0
LINE
  5
149
330
75
100
AcDbEntity
  8
0
  6
Continuous
 62
     0
100
AcDbLine
 10
70.0
 20
-55.0
 30
0.0
 11
70.0
 21
55.0
 31
0.0
  0
LINE
  5
14A
330
75
100
AcDbEntity
  8
0
  6
Continuous
 62
     0
100
AcDbLine
 10
-24.0
 20
-95.34999084472656
 30
0.0
 11
-56.5
 21
-95.34999084472656
 31
0.0
  0
LINE
  5
14B
330
75
100
AcDbEntity
  8
0
  6
Continuous
 62
     0
100
AcDbLine
 10
20.0
 20
-99.0
 30
0.0
 11
-24.0
 21
-99.0
 31
0.0
  0
LINE
  5
14C
330
75
100
AcDbEntity
  8
0
  6
Continuous
 62
     0
100
AcDbLine
 10
69.99996948242188
 20
20.85208129882812
 30
0.0
 11
72.49996948242188
 21
20.85208129882812
 31
0.0
  0
LINE
  5
14D
330
75
100
AcDbEntity
  8
0
  6
Continuous
 62
     0
100
AcDbLine
 10
69.99998474121094
 20
39.25209045410156
 30
0.0
 11
72.49998474121094
 21
39.25209045410156
 31
0.0
  0
LINE
  5
14E
330
75
100
AcDbEntity
  8
0
  6
Continuous
 62
     0
100
AcDbLine
 10
106.0
 20
-18.5
 30
0.0
 11
107.0000000000005
 21
-18.5
 31
0.0
  0
LINE
  5
14F
330
75
100
AcDbEntity
  8
0
  6
Continuous
 62
     4
100
AcDbLine
 10
108.0000000000005
 20
19.18798828125
 30
0.0
 11
125.0
 21
19.18798828125
 31
0.0
  0
LINE
  5
150
330
75
100
AcDbEntity
  8
0
  6
Continuous
 62
     0
100
AcDbLine
 10
108.0000000000005
 20
20.0
 30
0.0
 11
125.0
 21
20.0
 31
0.0
  0
LINE
  5
151
330
75
100
AcDbEntity
  8
0
  6
Continuous
 62
     0
100
AcDbLine
 10
165.0
 20
-19.18798828125
 30
0.0
 11
165.0
 21
19.18798828125
 31
0.0
  0
LINE
  5
152
330
75
100
AcDbEntity
  8
0
  6
Continuous
 62
     0
100
AcDbLine
 10
81.99999057270037
 20
23.99999279722449
 30
0.0
 11
79.49998474121121
 21
24.62499417829781
 31
0.0
  0
LINE
  5
153
330
75
100
AcDbEntity
  8
0
  6
Continuous
 62
     0
100
AcDbLine
 10
102.0
 20
24.0
 30
0.0
 11
105.0
 21
24.0
 31
0.0
  0
LINE
  5
154
330
75
100
AcDbEntity
  8
0
  6
Continuous
 62
     0
100
AcDbLine
 10
106.0
 20
18.5
 30
0.0
 11
107.0000000000005
 21
18.5
 31
0.0
  0
LINE
  5
155
330
75
100
AcDbEntity
  8
0
  6
Continuous
 62
     0
100
AcDbLine
 10
20.0
 20
55.0
 30
0.0
 11
70.0
 21
55.0
 31
0.0
  0
LINE
  5
156
330
75
100
AcDbEntity
  8
0
  6
Continuous
 62
     0
100
AcDbLine
 10
102.0
 20
20.5
 30
0.0
 11
102.0
 21
24.0
 31
0.0
  0
LINE
  5
157
330
75
100
AcDbEntity
  8
0
  6
Continuous
 62
     4
100
AcDbLine
 10
140.0
 20
19.18798828125
 30
0.0
 11
165.0
 21
19.18798828125
 31
0.0
  0
LINE
  5
158
330
75
100
AcDbEntity
  8
0
  6
Continuous
 62
     0
100
AcDbLine
 10
78.00000000000045
 20
-21.55208587646484
 30
0.0
 11
78.00000000000045
 21
21.55208587646484
 31
0.0
  0
LINE
  5
159
330
75
100
AcDbEntity
  8
0
  6
Continuous
 62
     0
100
AcDbLine
 10
82.0
 20
-20.5
 30
0.0
 11
102.0
 21
-20.5
 31
0.0
  0
LINE
  5
15A
330
75
100
AcDbEntity
  8
0
  6
Continuous
 62
     0
100
AcDbLine
 10
41.10003662109375
 20
-87.50001928210168
 30
0.0
 11
47.00003051757812
 21
-87.50001928210168
 31
0.0
  0
LINE
  5
15B
330
75
100
AcDbEntity
  8
0
  6
Continuous
 62
     0
100
AcDbLine
 10
165.0000000000007
 20
19.18798828125067
 30
0.0
 11
164.1879882812507
 21
20.00000000000064
 31
0.0
  0
LINE
  5
15C
330
75
100
AcDbEntity
  8
0
  6
Continuous
 62
     0
100
AcDbLine
 10
164.18798828125
 20
20.0
 30
0.0
 11
164.18798828125
 21
-20.0
 31
0.0
  0
LINE
  5
15D
330
75
100
AcDbEntity
  8
0
  6
Continuous
 62
     0
100
AcDbLine
 10
-24.0
 20
-86.947509765625
 30
0.0
 11
-56.5
 21
-86.947509765625
 31
0.0
  0
LINE
  5
15E
330
75
100
AcDbEntity
  8
0
  6
Continuous
 62
     0
100
AcDbLine
 10
-131.0
 20
-68.052490234375
 30
0.0
 11
-108.5
 21
-68.052490234375
 31
0.0
  0
LINE
  5
15F
330
75
100
AcDbEntity
  8
0
  6
Continuous
 62
     0
100
AcDbLine
 10
41.1000366210942
 20
92.5
 30
0.0
 11
41.1000366210942
 21
62.5
 31
0.0
  0
LINE
  5
160
330
75
100
AcDbEntity
  8
0
  6
Continuous
 62
     0
100
AcDbLine
 10
20.0
 20
-60.60000610351562
 30
0.0
 11
25.1000394821167
 21
-60.60000610351562
 31
0.0
  0
LINE
  5
161
330
75
100
AcDbEntity
  8
0
  6
Continuous
 62
     0
100
AcDbLine
 10
41.1000366210942
 20
-62.5
 30
0.0
 11
41.1000366210942
 21
-92.5
 31
0.0
  0
LINE
  5
162
330
75
100
AcDbEntity
  8
0
  6
Continuous
 62
     0
100
AcDbLine
 10
25.1000394821167
 20
-62.5
 30
0.0
 11
41.1000366210942
 21
-62.5
 31
0.0
  0
LINE
  5
163
330
75
100
AcDbEntity
  8
0
  6
Continuous
 62
     0
100
AcDbLine
 10
-131.0
 20
95.5
 30
0.0
 11
-108.5
 21
95.5
 31
0.0
  0
LINE
  5
164
330
75
100
AcDbEntity
  8
0
  6
Continuous
 62
     0
100
AcDbLine
 10
140.0
 20
20.0
 30
0.0
 11
164.18798828125
 21
20.0
 31
0.0
  0
LINE
  5
165
330
75
100
AcDbEntity
  8
0
  6
Continuous
 62
     0
100
AcDbLine
 10
125.0
 20
-20.0
 30
0.0
 11
108.0000000000005
 21
-20.0
 31
0.0
  0
LINE
  5
166
330
75
100
AcDbEntity
  8
0
  6
Continuous
 62
     4
100
AcDbLine
 10
125.0
 20
-19.18798828125
 30
0.0
 11
108.0000000000005
 21
-19.18798828125
 31
0.0
  0
LINE
  5
167
330
75
100
AcDbEntity
  8
0
  6
Continuous
 62
     0
100
AcDbLine
 10
-131.0
 20
-99.0
 30
0.0
 11
-131.0
 21
99.0
 31
0.0
  0
LINE
  5
168
330
75
100
AcDbEntity
  8
0
  6
Continuous
 62
     0
100
AcDbLine
 10
-131.0
 20
99.0
 30
0.0
 11
-175.0
 21
99.0
 31
0.0
  0
LINE
  5
169
330
75
100
AcDbEntity
  8
0
  6
Continuous
 62
     0
100
AcDbLine
 10
41.10003662109375
 20
87.49996426701728
 30
0.0
 11
47.00003051757812
 21
87.49996426701728
 31
0.0
  0
LINE
  5
16A
330
75
100
AcDbEntity
  8
0
  6
Continuous
 62
     0
100
AcDbLine
 10
25.1000394821167
 20
94.39999389648438
 30
0.0
 11
25.1000394821167
 21
60.59999084472656
 31
0.0
  0
LINE
  5
16B
330
75
100
AcDbEntity
  8
0
  6
Continuous
 62
     0
100
AcDbLine
 10
25.1000394821167
 20
77.5
 30
0.0
 11
41.1000366210942
 21
77.5
 31
0.0
  0
LINE
  5
16C
330
75
100
AcDbEntity
  8
0
  6
Continuous
 62
     0
100
AcDbLine
 10
-24.0
 20
86.947509765625
 30
0.0
 11
-56.5
 21
86.947509765625
 31
0.0
  0
LINE
  5
16D
330
75
100
AcDbEntity
  8
0
  6
Continuous
 62
     0
100
AcDbLine
 10
-131.0
 20
68.052490234375
 30
0.0
 11
-108.5
 21
68.052490234375
 31
0.0
  0
LINE
  5
16E
330
75
100
AcDbEntity
  8
0
  6
Continuous
 62
     0
100
AcDbLine
 10
25.1000394821167
 20
92.5
 30
0.0
 11
41.1000366210942
 21
92.5
 31
0.0
  0
LINE
  5
16F
330
75
100
AcDbEntity
  8
0
  6
Continuous
 62
     0
100
AcDbLine
 10
-162.5055500000003
 20
107.1990762939452
 30
0.0
 11
-162.5055500000003
 21
102.1990762939452
 31
0.0
  0
LINE
  5
170
330
75
100
AcDbEntity
  8
0
  6
Continuous
 62
     0
100
AcDbLine
 10
-142.5
 20
99.69907629394515
 30
0.0
 11
-167.5
 21
99.69907629394515
 31
0.0
  0
LINE
  5
171
330
75
100
AcDbEntity
  8
0
  6
Continuous
 62
     0
100
AcDbLine
 10
-146.0
 20
99.00007629394531
 30
0.0
 11
-146.0
 21
99.69907629394538
 31
0.0
  0
LINE
  5
172
330
75
100
AcDbEntity
  8
0
  6
Continuous
 62
     0
100
AcDbLine
 10
-164.0
 20
99.00007629394531
 30
0.0
 11
-164.0
 21
99.69907629394538
 31
0.0
  0
LINE
  5
173
330
75
100
AcDbEntity
  8
0
  6
Continuous
 62
     0
100
AcDbLine
 10
-151.2472299999999
 20
102.1990762939452
 30
0.0
 11
-151.2472299999999
 21
107.1990762939452
 31
0.0
  0
LINE
  5
174
330
75
100
AcDbEntity
  8
0
  6
Continuous
 62
     0
100
AcDbLine
 10
-147.4944500000001
 20
102.1990762939452
 30
0.0
 11
-147.4944500000001
 21
107.1990762939452
 31
0.0
  0
LINE
  5
175
330
75
100
AcDbEntity
  8
0
  6
Continuous
 62
     0
100
AcDbLine
 10
-151.0000199999999
 20
113.9990762939451
 30
0.0
 11
-151.0000199999999
 21
107.1990762939454
 31
0.0
  0
LINE
  5
176
330
75
100
AcDbEntity
  8
0
  6
Continuous
 62
     0
100
AcDbLine
 10
-142.5
 20
99.69907629394538
 30
0.0
 11
-142.5
 21
102.1990762939454
 31
0.0
  0
LINE
  5
177
330
75
100
AcDbEntity
  8
0
  6
Continuous
 62
     0
100
AcDbLine
 10
-158.7527700000001
 20
107.1990762939452
 30
0.0
 11
-158.7527700000001
 21
102.1990762939452
 31
0.0
  0
LINE
  5
178
330
75
100
AcDbEntity
  8
0
  6
Continuous
 62
     0
100
AcDbLine
 10
-142.5
 20
102.1990762939452
 30
0.0
 11
-167.5
 21
102.1990762939452
 31
0.0
  0
LINE
  5
179
330
75
100
AcDbEntity
  8
0
  6
Continuous
 62
     0
100
AcDbLine
 10
-151.0000199999999
 20
113.9990762939451
 30
0.0
 11
-159.0
 21
113.9990762939451
 31
0.0
  0
LINE
  5
17A
330
75
100
AcDbEntity
  8
0
  6
Continuous
 62
     0
100
AcDbLine
 10
-147.4944500000001
 20
107.1990762939452
 30
0.0
 11
-162.5055500000003
 21
107.1990762939452
 31
0.0
  0
LINE
  5
17B
330
75
100
AcDbEntity
  8
0
  6
Continuous
 62
     0
100
AcDbLine
 10
-159.0
 20
113.9990762939451
 30
0.0
 11
-159.0
 21
107.1990762939454
 31
0.0
  0
LINE
  5
17C
330
75
100
AcDbEntity
  8
0
  6
Continuous
 62
     0
100
AcDbLine
 10
-167.5
 20
99.69907629394538
 30
0.0
 11
-167.5
 21
102.1990762939454
 31
0.0
  0
LINE
  5
17D
330
75
100
AcDbEntity
  8
0
  6
Continuous
 62
     0
100
AcDbLine
 10
9.0
 20
99.00007629394531
 30
0.0
 11
9.0
 21
99.69907629394538
 31
0.0
  0
LINE
  5
17E
330
75
100
AcDbEntity
  8
0
  6
Continuous
 62
     0
100
AcDbLine
 10
12.5
 20
99.69907629394515
 30
0.0
 11
-12.5
 21
99.69907629394515
 31
0.0
  0
LINE
  5
17F
330
75
100
AcDbEntity
  8
0
  6
Continuous
 62
     0
100
AcDbLine
 10
-7.505550000000312
 20
107.1990762939452
 30
0.0
 11
-7.505550000000312
 21
102.1990762939452
 31
0.0
  0
LINE
  5
180
330
75
100
AcDbEntity
  8
0
  6
Continuous
 62
     0
100
AcDbLine
 10
-9.0
 20
99.00007629394531
 30
0.0
 11
-9.0
 21
99.69907629394538
 31
0.0
  0
LINE
  5
181
330
75
100
AcDbEntity
  8
0
  6
Continuous
 62
     0
100
AcDbLine
 10
3.752770000000055
 20
102.1990762939452
 30
0.0
 11
3.752770000000055
 21
107.1990762939452
 31
0.0
  0
LINE
  5
182
330
75
100
AcDbEntity
  8
0
  6
Continuous
 62
     0
100
AcDbLine
 10
7.505549999999857
 20
102.1990762939452
 30
0.0
 11
7.505549999999857
 21
107.1990762939452
 31
0.0
  0
LINE
  5
183
330
75
100
AcDbEntity
  8
0
  6
Continuous
 62
     0
100
AcDbLine
 10
3.99998000000005
 20
113.9990762939451
 30
0.0
 11
3.99998000000005
 21
107.1990762939454
 31
0.0
  0
LINE
  5
184
330
75
100
AcDbEntity
  8
0
  6
Continuous
 62
     0
100
AcDbLine
 10
12.5
 20
99.69907629394538
 30
0.0
 11
12.5
 21
102.1990762939454
 31
0.0
  0
LINE
  5
185
330
75
100
AcDbEntity
  8
0
  6
Continuous
 62
     0
100
AcDbLine
 10
-3.752770000000055
 20
107.1990762939452
 30
0.0
 11
-3.752770000000055
 21
102.1990762939452
 31
0.0
  0
LINE
  5
186
330
75
100
AcDbEntity
  8
0
  6
Continuous
 62
     0
100
AcDbLine
 10
12.5
 20
102.1990762939452
 30
0.0
 11
-12.5
 21
102.1990762939452
 31
0.0
  0
LINE
  5
187
330
75
100
AcDbEntity
  8
0
  6
Continuous
 62
     0
100
AcDbLine
 10
3.99998000000005
 20
113.9990762939451
 30
0.0
 11
-4.0
 21
113.9990762939451
 31
0.0
  0
LINE
  5
188
330
75
100
AcDbEntity
  8
0
  6
Continuous
 62
     0
100
AcDbLine
 10
7.505549999999857
 20
107.1990762939452
 30
0.0
 11
-7.505550000000312
 21
107.1990762939452
 31
0.0
  0
LINE
  5
189
330
75
100
AcDbEntity
  8
0
  6
Continuous
 62
     0
100
AcDbLine
 10
-4.0
 20
113.9990762939451
 30
0.0
 11
-4.0
 21
107.1990762939454
 31
0.0
  0
LINE
  5
18A
330
75
100
AcDbEntity
  8
0
  6
Continuous
 62
     0
100
AcDbLine
 10
-12.5
 20
99.69907629394538
 30
0.0
 11
-12.5
 21
102.1990762939454
 31
0.0
  0
LINE
  5
18B
330
75
100
AcDbEntity
  8
0
  6
Continuous
 62
     0
100
AcDbLine
 10
-180.1000394821167
 20
-92.5
 30
0.0
 11
-196.1000366210942
 21
-92.5
 31
0.0
  0
LINE
  5
18C
330
75
100
AcDbEntity
  8
0
  6
Continuous
 62
     0
100
AcDbLine
 10
-175.0
 20
94.39999389648438
 30
0.0
 11
-180.1000394821167
 21
94.39999389648438
 31
0.0
  0
LINE
  5
18D
330
75
100
AcDbEntity
  8
0
  6
Continuous
 62
     0
100
AcDbLine
 10
-180.1000394821167
 20
62.5
 30
0.0
 11
-196.1000366210942
 21
62.5
 31
0.0
  0
LINE
  5
18E
330
75
100
AcDbEntity
  8
0
  6
Continuous
 62
     0
100
AcDbLine
 10
-202.0000305175781
 20
-67.50003573298272
 30
0.0
 11
-202.0000305175781
 21
-87.50001928210168
 31
0.0
  0
LINE
  5
18F
330
75
100
AcDbEntity
  8
0
  6
Continuous
 62
     0
100
AcDbLine
 10
-196.1000366210938
 20
-67.50003573298272
 30
0.0
 11
-202.0000305175781
 21
-67.50003573298272
 31
0.0
  0
LINE
  5
190
330
75
100
AcDbEntity
  8
0
  6
Continuous
 62
     0
100
AcDbLine
 10
-175.0
 20
60.59999084472656
 30
0.0
 11
-180.1000394821167
 21
60.59999084472656
 31
0.0
  0
LINE
  5
191
330
75
100
AcDbEntity
  8
0
  6
Continuous
 62
     0
100
AcDbLine
 10
-196.1000366210938
 20
67.49998071789832
 30
0.0
 11
-202.0000305175781
 21
67.49998071789832
 31
0.0
  0
LINE
  5
192
330
75
100
AcDbEntity
  8
0
  6
Continuous
 62
     0
100
AcDbLine
 10
-180.1000394821167
 20
-60.60000610351562
 30
0.0
 11
-180.1000394821167
 21
-94.40000915527344
 31
0.0
  0
LINE
  5
193
330
75
100
AcDbEntity
  8
0
  6
Continuous
 62
     0
100
AcDbLine
 10
-202.0000305175781
 20
87.49996426701728
 30
0.0
 11
-202.0000305175781
 21
67.49998071789832
 31
0.0
  0
LINE
  5
194
330
75
100
AcDbEntity
  8
0
  6
Continuous
 62
     0
100
AcDbLine
 10
-175.0
 20
-94.40000915527344
 30
0.0
 11
-180.1000394821167
 21
-94.40000915527344
 31
0.0
  0
LINE
  5
195
330
75
100
AcDbEntity
  8
0
  6
Continuous
 62
     0
100
AcDbLine
 10
-180.1000394821167
 20
-77.5
 30
0.0
 11
-196.1000366210942
 21
-77.5
 31
0.0
  0
LINE
  5
196
330
75
100
AcDbEntity
  8
0
  6
Continuous
 62
     0
100
AcDbLine
 10
-196.1000366210938
 20
-87.50001928210168
 30
0.0
 11
-202.0000305175781
 21
-87.50001928210168
 31
0.0
  0
LINE
  5
197
330
75
100
AcDbEntity
  8
0
  6
Continuous
 62
     0
100
AcDbLine
 10
-196.1000366210942
 20
92.5
 30
0.0
 11
-196.1000366210942
 21
62.5
 31
0.0
  0
LINE
  5
198
330
75
100
AcDbEntity
  8
0
  6
Continuous
 62
     0
100
AcDbLine
 10
-175.0
 20
-60.60000610351562
 30
0.0
 11
-180.1000394821167
 21
-60.60000610351562
 31
0.0
  0
LINE
  5
199
330
75
100
AcDbEntity
  8
0
  6
Continuous
 62
     0
100
AcDbLine
 10
-196.1000366210942
 20
-62.5
 30
0.0
 11
-196.1000366210942
 21
-92.5
 31
0.0
  0
LINE
  5
19A
330
75
100
AcDbEntity
  8
0
  6
Continuous
 62
     0
100
AcDbLine
 10
-180.1000394821167
 20
-62.5
 30
0.0
 11
-196.1000366210942
 21
-62.5
 31
0.0
  0
LINE
  5
19B
330
75
100
AcDbEntity
  8
0
  6
Continuous
 62
     0
100
AcDbLine
 10
-196.1000366210938
 20
87.49996426701728
 30
0.0
 11
-202.0000305175781
 21
87.49996426701728
 31
0.0
  0
LINE
  5
19C
330
75
100
AcDbEntity
  8
0
  6
Continuous
 62
     0
100
AcDbLine
 10
-180.1000394821167
 20
94.39999389648438
 30
0.0
 11
-180.1000394821167
 21
60.59999084472656
 31
0.0
  0
LINE
  5
19D
330
75
100
AcDbEntity
  8
0
  6
Continuous
 62
     0
100
AcDbLine
 10
-180.1000394821167
 20
77.5
 30
0.0
 11
-196.1000366210942
 21
77.5
 31
0.0
  0
LINE
  5
19E
330
75
100
AcDbEntity
  8
0
  6
Continuous
 62
     0
100
AcDbLine
 10
-180.1000394821167
 20
92.5
 30
0.0
 11
-196.1000366210942
 21
92.5
 31
0.0
  0
LINE
  5
19F
330
75
100
AcDbEntity
  8
0
  6
Continuous
 62
     0
100
AcDbLine
 10
-56.5
 20
140.0
 30
0.0
 11
-56.5
 21
-140.0
 31
0.0
  0
LINE
  5
1A0
330
75
100
AcDbEntity
  8
0
  6
Continuous
 62
     0
100
AcDbLine
 10
-108.5
 20
-107.5
 30
0.0
 11
-56.5
 21
-107.5
 31
0.0
  0
LINE
  5
1A1
330
75
100
AcDbEntity
  8
0
  6
Continuous
 62
     0
100
AcDbLine
 10
-56.5
 20
95.5
 30
0.0
 11
-24.0
 21
95.5
 31
0.0
  0
LINE
  5
1A2
330
75
100
AcDbEntity
  8
0
  6
Continuous
 62
     0
100
AcDbLine
 10
-108.5
 20
-140.0
 30
0.0
 11
-56.5
 21
-140.0
 31
0.0
  0
LINE
  5
1A3
330
75
100
AcDbEntity
  8
0
  6
Continuous
 62
     0
100
AcDbLine
 10
-108.5
 20
140.0
 30
0.0
 11
-108.5
 21
-140.0
 31
0.0
  0
LINE
  5
1A4
330
75
100
AcDbEntity
  8
0
  6
Continuous
 62
     0
100
AcDbLine
 10
-108.5
 20
86.947509765625
 30
0.0
 11
-131.0
 21
86.947509765625
 31
0.0
  0
LINE
  5
1A5
330
75
100
AcDbEntity
  8
0
  6
Continuous
 62
     0
100
AcDbLine
 10
-56.5
 20
68.052490234375
 30
0.0
 11
-24.0
 21
68.052490234375
 31
0.0
  0
LINE
  5
1A6
330
75
100
AcDbEntity
  8
0
  6
Continuous
 62
     0
100
AcDbLine
 10
-56.5
 20
-68.052490234375
 30
0.0
 11
-24.0
 21
-68.052490234375
 31
0.0
  0
LINE
  5
1A7
330
75
100
AcDbEntity
  8
0
  6
Continuous
 62
     0
100
AcDbLine
 10
-108.5
 20
-86.947509765625
 30
0.0
 11
-131.0
 21
-86.947509765625
 31
0.0
  0
LINE
  5
1A8
330
75
100
AcDbEntity
  8
0
  6
Continuous
 62
     0
100
AcDbLine
 10
-108.5
 20
-95.34999084472656
 30
0.0
 11
-131.0
 21
-95.34999084472656
 31
0.0
  0
LINE
  5
1A9
330
75
100
AcDbEntity
  8
0
  6
Continuous
 62
     0
100
AcDbLine
 10
-108.5
 20
107.5
 30
0.0
 11
-56.5
 21
107.5
 31
0.0
  0
LINE
  5
1AA
330
75
100
AcDbEntity
  8
0
  6
Continuous
 62
     0
100
AcDbLine
 10
-108.5
 20
140.0
 30
0.0
 11
-56.5
 21
140.0
 31
0.0
  0
LINE
  5
1AB
330
75
100
AcDbEntity
  8
0
  6
CENTER
 62
     4
100
AcDbLine
 10
-82.5
 20
153.7822681688305
 30
0.0
 11
-82.5
 21
-155.2692384852453
 31
0.0
  0
LINE
  5
1AC
330
75
100
AcDbEntity
  8
0
  6
Continuous
 62
     0
100
AcDbLine
 10
165.0000000000008
 20
-19.18798828125075
 30
0.0
 11
164.1879882812508
 21
-20.00000000000072
 31
0.0
  0
CIRCLE
  5
1AD
330
75
100
AcDbEntity
  8
0
  6
Continuous
 62
     4
100
AcDbCircle
 10
0.0
 20
0.0
 30
0.0
 40
13.2
  0
CIRCLE
  5
1AE
330
75
100
AcDbEntity
  8
0
  6
Continuous
 62
     0
100
AcDbCircle
 10
-155.0
 20
0.0
 30
0.0
 40
12.05
  0
CIRCLE
  5
1AF
330
75
100
AcDbEntity
  8
0
  6
Continuous
 62
     4
100
AcDbCircle
 10
-155.0
 20
0.0
 30
0.0
 40
13.2
  0
ARC
  5
1B0
330
75
100
AcDbEntity
  8
0
  6
Continuous
 62
     0
100
AcDbCircle
 10
106.0
 20
-19.5
 30
0.0
 40
1.0
100
AcDbArc
 50
90.0
 51
180.0
  0
CIRCLE
  5
1B1
330
75
100
AcDbEntity
  8
0
  6
Continuous
 62
     0
100
AcDbCircle
 10
0.0
 20
0.0
 30
0.0
 40
12.05
  0
ARC
  5
1B2
330
75
100
AcDbEntity
  8
0
  6
Continuous
 62
     0
100
AcDbCircle
 10
107.0000000000005
 20
19.5
 30
0.0
 40
1.0
100
AcDbArc
 50
270.0
 51
0.0
  0
ARC
  5
1B3
330
75
100
AcDbEntity
  8
0
  6
Continuous
 62
     0
100
AcDbCircle
 10
107.0000000000005
 20
-19.5
 30
0.0
 40
1.0
100
AcDbArc
 50
0.0
 51
90.00000000000001
  0
ARC
  5
1B4
330
75
100
AcDbEntity
  8
0
  6
Continuous
 62
     0
100
AcDbCircle
 10
106.0
 20
19.5
 30
0.0
 40
1.0
100
AcDbArc
 50
180.0
 51
270.0
  0
MTEXT
  5
1B5
330
75
100
AcDbEntity
  8
0
 62
     0
100
AcDbMText
 10
20.70146674586313
 20
0.658937679456585
 30
0.0
 40
0.5
 41
0.0
 71
     7
 72
     1
  1
{\W1;BN-6102B-TE-180}
 73
     1
 44
1.0
  0
ENDBLK
  5
77
330
75
100
AcDbEntity
  8
0
100
AcDbBlockEnd
  0
BLOCK
  5
79
330
78
100
AcDbEntity
  8
0
100
AcDbBlockBegin
  2
DTL0003
 70
     0
 10
0.0
 20
0.0
 30
0.0
  3
DTL0003
  1

  0
POINT
  5
1B6
330
78
100
AcDbEntity
  8
0
 62
     0
100
AcDbPoint
 10
0.0
 20
0.0
 30
0.0
  0
LINE
  5
1B7
330
78
100
AcDbEntity
  8
0
  6
DASHED
 62
     0
100
AcDbLine
 10
100.0
 20
18.0
 30
0.0
 11
100.0
 21
-18.0
 31
0.0
  0
LINE
  5
1B8
330
78
100
AcDbEntity
  8
0
  6
CENTER
 62
     4
100
AcDbLine
 10
-53.10014723002087
 20
77.5
 30
0.0
 11
-101.8998527699791
 21
77.5
 31
0.0
  0
LINE
  5
1B9
330
78
100
AcDbEntity
  8
0
  6
CENTER
 62
     4
100
AcDbLine
 10
101.8997306996666
 20
77.5
 30
0.0
 11
53.10002515970837
 21
77.5
 31
0.0
  0
LINE
  5
1BA
330
78
100
AcDbEntity
  8
0
  6
CENTER
 62
     4
100
AcDbLine
 10
-77.5
 20
52.74871252361834
 30
0.0
 11
-77.5
 21
102.2512874763817
 31
0.0
  0
LINE
  5
1BB
330
78
100
AcDbEntity
  8
0
  6
DASHED
 62
     0
100
AcDbLine
 10
-100.0
 20
18.0
 30
0.0
 11
-140.0
 21
18.0
 31
0.0
  0
LINE
  5
1BC
330
78
100
AcDbEntity
  8
0
  6
DASHED
 62
     0
100
AcDbLine
 10
100.0
 20
18.0
 30
0.0
 11
140.0
 21
18.0
 31
0.0
  0
LINE
  5
1BD
330
78
100
AcDbEntity
  8
0
  6
DASHED
 62
     0
100
AcDbLine
 10
-100.0
 20
-18.0
 30
0.0
 11
-140.0
 21
-18.0
 31
0.0
  0
LINE
  5
1BE
330
78
100
AcDbEntity
  8
0
  6
CENTER
 62
     4
100
AcDbLine
 10
77.4998779296875
 20
52.74871252361834
 30
0.0
 11
77.4998779296875
 21
102.2512874763817
 31
0.0
  0
LINE
  5
1BF
330
78
100
AcDbEntity
  8
0
  6
DASHED
 62
     0
100
AcDbLine
 10
-100.0
 20
18.0
 30
0.0
 11
-100.0
 21
-18.0
 31
0.0
  0
LINE
  5
1C0
330
78
100
AcDbEntity
  8
0
  6
CENTER
 62
     4
100
AcDbLine
 10
101.8997306996666
 20
-77.5
 30
0.0
 11
53.10002515970837
 21
-77.5
 31
0.0
  0
LINE
  5
1C1
330
78
100
AcDbEntity
  8
0
  6
CENTER
 62
     4
100
AcDbLine
 10
77.4998779296875
 20
-102.2512874763817
 30
0.0
 11
77.4998779296875
 21
-52.74871252361834
 31
0.0
  0
LINE
  5
1C2
330
78
100
AcDbEntity
  8
0
  6
CENTER
 62
     4
100
AcDbLine
 10
-77.5
 20
-102.2512874763817
 30
0.0
 11
-77.5
 21
-52.74871252361834
 31
0.0
  0
LINE
  5
1C3
330
78
100
AcDbEntity
  8
0
  6
CENTER
 62
     4
100
AcDbLine
 10
-53.10014723002087
 20
-77.5
 30
0.0
 11
-101.8998527699791
 21
-77.5
 31
0.0
  0
LINE
  5
1C4
330
78
100
AcDbEntity
  8
0
  6
Continuous
 62
     0
100
AcDbLine
 10
-38.55202674865677
 20
-25.14454650878906
 30
0.0
 11
-38.55202674865677
 21
-34.95950317382812
 31
0.0
  0
LINE
  5
1C5
330
78
100
AcDbEntity
  8
0
  6
Continuous
 62
     0
100
AcDbLine
 10
-30.0520309147216
 20
39.86699169866189
 30
0.0
 11
-21.55202914389438
 21
34.95951330008194
 31
0.0
  0
LINE
  5
1C6
330
78
100
AcDbEntity
  8
0
  6
Continuous
 62
     0
100
AcDbLine
 10
-30.0520311656623
 20
39.86698674322535
 30
0.0
 11
-38.55203293648952
 21
34.95950834464539
 31
0.0
  0
LINE
  5
1C7
330
78
100
AcDbEntity
  8
0
  6
CENTER
 62
     4
100
AcDbLine
 10
0.0
 20
-128.7181054511809
 30
0.0
 11
0.0
 21
122.6823033062584
 31
0.0
  0
LINE
  5
1C8
330
78
100
AcDbEntity
  8
0
  6
Continuous
 62
     0
100
AcDbLine
 10
-38.55202674865768
 20
34.95951843261741
 30
0.0
 11
-38.55202674865768
 21
25.14456176757835
 31
0.0
  0
LINE
  5
1C9
330
78
100
AcDbEntity
  8
0
  6
CENTER
 62
     4
100
AcDbLine
 10
150.3584485028041
 20
0.0
 30
0.0
 11
-152.116597792934
 21
0.0
 31
0.0
  0
LINE
  5
1CA
330
78
100
AcDbEntity
  8
0
  6
Continuous
 62
     0
100
AcDbLine
 10
-21.55203247070358
 20
34.95951843261741
 30
0.0
 11
-21.55203247070358
 21
25.14454650878929
 31
0.0
  0
LINE
  5
1CB
330
78
100
AcDbEntity
  8
0
  6
Continuous
 62
     0
100
AcDbLine
 10
-38.55203102914091
 20
-34.95950504101985
 30
0.0
 11
-30.05202925831369
 21
-39.86698343959981
 31
0.0
  0
LINE
  5
1CC
330
78
100
AcDbEntity
  8
0
  6
Continuous
 62
     0
100
AcDbLine
 10
-21.55203105124208
 20
-34.95950999645613
 30
0.0
 11
-30.0520328220693
 21
-39.86698839503609
 31
0.0
  0
LINE
  5
1CD
330
78
100
AcDbEntity
  8
0
  6
Continuous
 62
     0
100
AcDbLine
 10
-30.05203116566245
 20
-20.23707819818132
 30
0.0
 11
-38.55203293648967
 21
-25.14455659676127
 31
0.0
  0
LINE
  5
1CE
330
78
100
AcDbEntity
  8
0
  6
Continuous
 62
     0
100
AcDbLine
 10
30.05203402668534
 20
39.86699169866161
 30
0.0
 11
38.55203579751256
 21
34.95951330008166
 31
0.0
  0
LINE
  5
1CF
330
78
100
AcDbEntity
  8
0
  6
Continuous
 62
     0
100
AcDbLine
 10
-21.55203247070267
 20
-25.14454650878906
 30
0.0
 11
-21.55203247070267
 21
-34.95951843261719
 31
0.0
  0
LINE
  5
1D0
330
78
100
AcDbEntity
  8
0
  6
Continuous
 62
     0
100
AcDbLine
 10
-21.55203105124339
 20
25.14455494494942
 30
0.0
 11
-30.05203282207061
 21
20.23707654636947
 31
0.0
  0
LINE
  5
1D1
330
78
100
AcDbEntity
  8
0
  6
Continuous
 62
     0
100
AcDbLine
 10
62.50015258789062
 20
-68.84030151367188
 30
0.0
 11
62.50015258789062
 21
-77.50054931640625
 31
0.0
  0
LINE
  5
1D2
330
78
100
AcDbEntity
  8
0
  6
Continuous
 62
     0
100
AcDbLine
 10
113.9990000000003
 20
0.5
 30
0.0
 11
113.9990000000003
 21
4.0
 31
0.0
  0
LINE
  5
1D3
330
78
100
AcDbEntity
  8
0
  6
Continuous
 62
     0
100
AcDbLine
 10
-38.55203102914147
 20
25.14455990038704
 30
0.0
 11
-30.05202925831424
 21
20.23708150180709
 31
0.0
  0
LINE
  5
1D4
330
78
100
AcDbEntity
  8
0
  6
Continuous
 62
     0
100
AcDbLine
 10
27.49999999999998
 20
-15.87713240271555
 30
0.0
 11
-0.000000000000179
 21
-31.75426480543027
 31
0.0
  0
LINE
  5
1D5
330
78
100
AcDbEntity
  8
0
  6
Continuous
 62
     0
100
AcDbLine
 10
27.5
 20
15.87713240271478
 30
0.0
 11
27.5
 21
-15.87713240271478
 31
0.0
  0
LINE
  5
1D6
330
78
100
AcDbEntity
  8
0
  6
Continuous
 62
     0
100
AcDbLine
 10
-0.000000000000151
 20
-31.75426480542883
 30
0.0
 11
-27.50000000000025
 21
-15.87713240271401
 31
0.0
  0
LINE
  5
1D7
330
78
100
AcDbEntity
  8
0
  6
Continuous
 62
     0
100
AcDbLine
 10
-27.5
 20
15.87713240271478
 30
0.0
 11
-27.5
 21
-15.87713240271478
 31
0.0
  0
LINE
  5
1D8
330
78
100
AcDbEntity
  8
0
  6
Continuous
 62
     0
100
AcDbLine
 10
0.000000000001098
 20
31.75426480542768
 30
0.0
 11
-27.49999999999864
 21
15.87713240271314
 31
0.0
  0
LINE
  5
1D9
330
78
100
AcDbEntity
  8
0
  6
Continuous
 62
     0
100
AcDbLine
 10
30.05203377574436
 20
39.8669867432252
 30
0.0
 11
21.55203200491714
 21
34.95950834464524
 31
0.0
  0
LINE
  5
1DA
330
78
100
AcDbEntity
  8
0
  6
Continuous
 62
     0
100
AcDbLine
 10
38.55203247070358
 20
34.95951843261741
 30
0.0
 11
38.55203247070358
 21
25.14454650878929
 31
0.0
  0
LINE
  5
1DB
330
78
100
AcDbEntity
  8
0
  6
Continuous
 62
     0
100
AcDbLine
 10
21.55203819274948
 20
34.95951843261741
 30
0.0
 11
21.55203819274948
 21
25.14456176757835
 31
0.0
  0
LINE
  5
1DC
330
78
100
AcDbEntity
  8
0
  6
Continuous
 62
     0
100
AcDbLine
 10
21.55203391226508
 20
25.14455990038699
 30
0.0
 11
30.05203568309231
 21
20.23708150180704
 31
0.0
  0
LINE
  5
1DD
330
78
100
AcDbEntity
  8
0
  6
Continuous
 62
     0
100
AcDbLine
 10
21.55203391226501
 20
-34.95950504102007
 30
0.0
 11
30.05203568309223
 21
-39.86698343960002
 31
0.0
  0
LINE
  5
1DE
330
78
100
AcDbEntity
  8
0
  6
Continuous
 62
     0
100
AcDbLine
 10
30.05203402668533
 20
-20.23707324274443
 30
0.0
 11
38.55203579751255
 21
-25.14455164132438
 31
0.0
  0
LINE
  5
1DF
330
78
100
AcDbEntity
  8
0
  6
Continuous
 62
     0
100
AcDbLine
 10
38.55203389016394
 20
25.14455494494992
 30
0.0
 11
30.05203211933672
 21
20.23707654636997
 31
0.0
  0
LINE
  5
1E0
330
78
100
AcDbEntity
  8
0
  6
Continuous
 62
     0
100
AcDbLine
 10
-30.05203091472116
 20
-20.2370732427452
 30
0.0
 11
-21.55202914389395
 21
-25.14455164132514
 31
0.0
  0
LINE
  5
1E1
330
78
100
AcDbEntity
  8
0
  6
Continuous
 62
     0
100
AcDbLine
 10
-77.50000041295289
 20
-99.0
 30
0.0
 11
77.49987834264039
 21
-99.0
 31
0.0
  0
LINE
  5
1E2
330
78
100
AcDbEntity
  8
0
  6
Continuous
 62
     0
100
AcDbLine
 10
0.000000000000087
 20
31.75426480542965
 30
0.0
 11
27.50000000000019
 21
15.87713240271484
 31
0.0
  0
LINE
  5
1E3
330
78
100
AcDbEntity
  8
0
  6
Continuous
 62
     0
100
AcDbLine
 10
77.49987877262447
 20
99.0
 30
0.0
 11
-77.50000041295289
 21
99.0
 31
0.0
  0
LINE
  5
1E4
330
78
100
AcDbEntity
  8
0
  6
Continuous
 62
     0
100
AcDbLine
 10
38.55203389016345
 20
-34.95950999645615
 30
0.0
 11
30.05203211933623
 21
-39.8669883950361
 31
0.0
  0
LINE
  5
1E5
330
78
100
AcDbEntity
  8
0
  6
Continuous
 62
     0
100
AcDbLine
 10
21.55203819274857
 20
-25.14454650878906
 30
0.0
 11
21.55203819274857
 21
-34.95950317382812
 31
0.0
  0
LINE
  5
1E6
330
78
100
AcDbEntity
  8
0
  6
Continuous
 62
     0
100
AcDbLine
 10
30.05203377574331
 20
-20.23707819818172
 30
0.0
 11
21.55203200491609
 21
-25.14455659676167
 31
0.0
  0
LINE
  5
1E7
330
78
100
AcDbEntity
  8
0
  6
Continuous
 62
     0
100
AcDbLine
 10
38.55203247070267
 20
-25.14454650878906
 30
0.0
 11
38.55203247070267
 21
-34.95951843261719
 31
0.0
  0
LINE
  5
1E8
330
78
100
AcDbEntity
  8
0
  6
Continuous
 62
     0
100
AcDbLine
 10
112.0
 20
-0.5
 30
0.0
 11
112.0
 21
0.5
 31
0.0
  0
LINE
  5
1E9
330
78
100
AcDbEntity
  8
0
  6
Continuous
 62
     0
100
AcDbLine
 10
-77.50039165404652
 20
60.17932360834988
 30
0.0
 11
-62.50036638297225
 21
68.83962877068862
 31
0.0
  0
LINE
  5
1EA
330
78
100
AcDbEntity
  8
0
  6
Continuous
 62
     0
100
AcDbLine
 10
62.4997524576017
 20
-86.16036268736119
 30
0.0
 11
77.49975687458145
 21
-94.8205805510182
 31
0.0
  0
LINE
  5
1EB
330
78
100
AcDbEntity
  8
0
  6
Continuous
 62
     0
100
AcDbLine
 10
-62.499755859375
 20
68.83918762207031
 30
0.0
 11
-62.499755859375
 21
77.49943542480469
 31
0.0
  0
LINE
  5
1EC
330
78
100
AcDbEntity
  8
0
  6
Continuous
 62
     0
100
AcDbLine
 10
99.69900000000007
 20
12.5
 30
0.0
 11
102.1990000000001
 21
12.5
 31
0.0
  0
LINE
  5
1ED
330
78
100
AcDbEntity
  8
0
  6
Continuous
 62
     0
100
AcDbLine
 10
112.0
 20
-0.5
 30
0.0
 11
113.9990000000003
 21
-0.5
 31
0.0
  0
LINE
  5
1EE
330
78
100
AcDbEntity
  8
0
  6
Continuous
 62
     0
100
AcDbLine
 10
107.1990000000001
 20
3.752770000000055
 30
0.0
 11
102.1990000000001
 21
3.752770000000055
 31
0.0
  0
LINE
  5
1EF
330
78
100
AcDbEntity
  8
0
  6
Continuous
 62
     0
100
AcDbLine
 10
62.50015258789062
 20
-77.50054931640625
 30
0.0
 11
62.50015258789062
 21
-86.16081237792969
 31
0.0
  0
LINE
  5
1F0
330
78
100
AcDbEntity
  8
0
  6
Continuous
 62
     0
100
AcDbLine
 10
102.1990000000001
 20
-12.5
 30
0.0
 11
102.1990000000001
 21
12.5
 31
0.0
  0
LINE
  5
1F1
330
78
100
AcDbEntity
  8
0
  6
Continuous
 62
     0
100
AcDbLine
 10
92.4996125169531
 20
-68.83973867612706
 30
0.0
 11
77.4995948854615
 21
-60.17951318310241
 31
0.0
  0
LINE
  5
1F2
330
78
100
AcDbEntity
  8
0
  6
Continuous
 62
     0
100
AcDbLine
 10
77.4994879433471
 20
-60.17967783577034
 30
0.0
 11
62.49967410401987
 21
-68.8398609274182
 31
0.0
  0
LINE
  5
1F3
330
78
100
AcDbEntity
  8
0
  6
Continuous
 62
     0
100
AcDbLine
 10
99.69900000000007
 20
-12.5
 30
0.0
 11
99.69900000000007
 21
12.5
 31
0.0
  0
LINE
  5
1F4
330
78
100
AcDbEntity
  8
0
  6
Continuous
 62
     0
100
AcDbLine
 10
112.0
 20
0.5
 30
0.0
 11
113.9990000000003
 21
0.5
 31
0.0
  0
LINE
  5
1F5
330
78
100
AcDbEntity
  8
0
  6
Continuous
 62
     0
100
AcDbLine
 10
113.9990000000003
 20
4.0
 30
0.0
 11
107.1990000000001
 21
4.0
 31
0.0
  0
LINE
  5
1F6
330
78
100
AcDbEntity
  8
0
  6
Continuous
 62
     0
100
AcDbLine
 10
92.5001220703125
 20
-77.50056457519531
 30
0.0
 11
92.5001220703125
 21
-68.84030151367188
 31
0.0
  0
LINE
  5
1F7
330
78
100
AcDbEntity
  8
0
  6
Continuous
 62
     0
100
AcDbLine
 10
92.5001220703125
 20
-86.16081237792969
 30
0.0
 11
92.5001220703125
 21
-77.50056457519531
 31
0.0
  0
LINE
  5
1F8
330
78
100
AcDbEntity
  8
0
  6
Continuous
 62
     0
100
AcDbLine
 10
107.1990000000001
 20
-7.505549999999857
 30
0.0
 11
107.1990000000001
 21
7.505550000000085
 31
0.0
  0
LINE
  5
1F9
330
78
100
AcDbEntity
  8
0
  6
Continuous
 62
     0
100
AcDbLine
 10
107.1990000000001
 20
7.505550000000085
 30
0.0
 11
102.1990000000001
 21
7.505550000000085
 31
0.0
  0
LINE
  5
1FA
330
78
100
AcDbEntity
  8
0
  6
Continuous
 62
     0
100
AcDbLine
 10
99.0
 20
-9.0
 30
0.0
 11
99.69900000000007
 21
-9.0
 31
0.0
  0
LINE
  5
1FB
330
78
100
AcDbEntity
  8
0
  6
Continuous
 62
     0
100
AcDbLine
 10
102.1990000000001
 20
-3.752770000000055
 30
0.0
 11
107.1990000000001
 21
-3.752770000000055
 31
0.0
  0
LINE
  5
1FC
330
78
100
AcDbEntity
  8
0
  6
Continuous
 62
     0
100
AcDbLine
 10
102.1990000000001
 20
-7.505549999999857
 30
0.0
 11
107.1990000000001
 21
-7.505549999999857
 31
0.0
  0
LINE
  5
1FD
330
78
100
AcDbEntity
  8
0
  6
Continuous
 62
     0
100
AcDbLine
 10
-92.50012547208615
 20
68.83963731263833
 30
0.0
 11
-77.5001210551068
 21
60.17941944898153
 31
0.0
  0
LINE
  5
1FE
330
78
100
AcDbEntity
  8
0
  6
Continuous
 62
     0
100
AcDbLine
 10
99.69900000000007
 20
-12.5
 30
0.0
 11
102.1990000000001
 21
-12.5
 31
0.0
  0
LINE
  5
1FF
330
78
100
AcDbEntity
  8
0
  6
Continuous
 62
     0
100
AcDbLine
 10
113.9990000000003
 20
-3.99998000000005
 30
0.0
 11
113.9990000000003
 21
-0.5
 31
0.0
  0
LINE
  5
200
330
78
100
AcDbEntity
  8
0
  6
Continuous
 62
     0
100
AcDbLine
 10
113.9990000000003
 20
-3.99998000000005
 30
0.0
 11
107.1990000000001
 21
-3.99998000000005
 31
0.0
  0
LINE
  5
201
330
78
100
AcDbEntity
  8
0
  6
Continuous
 62
     0
100
AcDbLine
 10
99.0
 20
9.0
 30
0.0
 11
99.69900000000007
 21
9.0
 31
0.0
  0
LINE
  5
202
330
78
100
AcDbEntity
  8
0
  6
Continuous
 62
     0
100
AcDbLine
 10
-77.50038998634001
 20
94.82032216423002
 30
0.0
 11
-92.50020382566724
 21
86.16013907258215
 31
0.0
  0
LINE
  5
203
330
78
100
AcDbEntity
  8
0
  6
Continuous
 62
     0
100
AcDbLine
 10
-62.499755859375
 20
77.49943542480469
 30
0.0
 11
-62.499755859375
 21
86.15969848632812
 31
0.0
  0
LINE
  5
204
330
78
100
AcDbEntity
  8
0
  6
Continuous
 62
     0
100
AcDbLine
 10
-62.50026541273421
 20
86.1602613238729
 30
0.0
 11
-77.50028304422621
 21
94.82048681689778
 31
0.0
  0
LINE
  5
205
330
78
100
AcDbEntity
  8
0
  6
Continuous
 62
     0
100
AcDbLine
 10
-92.49972534179688
 20
77.49945068359375
 30
0.0
 11
-92.49972534179688
 21
68.83918762207031
 31
0.0
  0
LINE
  5
206
330
78
100
AcDbEntity
  8
0
  6
Continuous
 62
     0
100
AcDbLine
 10
-92.49972534179688
 20
86.15969848632812
 30
0.0
 11
-92.49972534179688
 21
77.49945068359375
 31
0.0
  0
LINE
  5
207
330
78
100
AcDbEntity
  8
0
  6
Continuous
 62
     0
100
AcDbLine
 10
92.49961251695362
 20
86.16026132387226
 30
0.0
 11
77.49959488546162
 21
94.82048681689713
 31
0.0
  0
LINE
  5
208
330
78
100
AcDbEntity
  8
0
  6
Continuous
 62
     0
100
AcDbLine
 10
62.4997524576025
 20
68.83963731263906
 30
0.0
 11
77.49975687458145
 21
60.17941944898249
 31
0.0
  0
LINE
  5
209
330
78
100
AcDbEntity
  8
0
  6
Continuous
 62
     0
100
AcDbLine
 10
92.5001220703125
 20
68.83918762207031
 30
0.0
 11
92.5001220703125
 21
77.49943542480469
 31
0.0
  0
LINE
  5
20A
330
78
100
AcDbEntity
  8
0
  6
Continuous
 62
     0
100
AcDbLine
 10
77.49948627564153
 20
60.17932360834978
 30
0.0
 11
92.4995115467158
 21
68.83962877068852
 31
0.0
  0
LINE
  5
20B
330
78
100
AcDbEntity
  8
0
  6
Continuous
 62
     0
100
AcDbLine
 10
62.50015258789062
 20
77.49945068359375
 30
0.0
 11
62.50015258789062
 21
68.83918762207031
 31
0.0
  0
LINE
  5
20C
330
78
100
AcDbEntity
  8
0
  6
Continuous
 62
     0
100
AcDbLine
 10
-92.49972534179688
 20
-68.84030151367188
 30
0.0
 11
-92.49972534179688
 21
-77.50054931640625
 31
0.0
  0
LINE
  5
20D
330
78
100
AcDbEntity
  8
0
  6
Continuous
 62
     0
100
AcDbLine
 10
-62.499755859375
 20
-86.16081237792969
 30
0.0
 11
-62.499755859375
 21
-77.50056457519531
 31
0.0
  0
LINE
  5
20E
330
78
100
AcDbEntity
  8
0
  6
Continuous
 62
     0
100
AcDbLine
 10
-77.50039165404678
 20
-94.82067639165024
 30
0.0
 11
-62.50036638297251
 21
-86.1603712293115
 31
0.0
  0
LINE
  5
20F
330
78
100
AcDbEntity
  8
0
  6
Continuous
 62
     0
100
AcDbLine
 10
-62.499755859375
 20
-77.50056457519531
 30
0.0
 11
-62.499755859375
 21
-68.84030151367188
 31
0.0
  0
LINE
  5
210
330
78
100
AcDbEntity
  8
0
  6
Continuous
 62
     0
100
AcDbLine
 10
-62.50026541273343
 20
-68.8397386761269
 30
0.0
 11
-77.50028304422543
 21
-60.17951318310203
 31
0.0
  0
LINE
  5
211
330
78
100
AcDbEntity
  8
0
  6
Continuous
 62
     0
100
AcDbLine
 10
-92.49972534179688
 20
-77.50054931640625
 30
0.0
 11
-92.49972534179688
 21
-86.16081237792969
 31
0.0
  0
LINE
  5
212
330
78
100
AcDbEntity
  8
0
  6
Continuous
 62
     0
100
AcDbLine
 10
-92.50012547208536
 20
-86.16036268736099
 30
0.0
 11
-77.50012105510639
 21
-94.82058055101756
 31
0.0
  0
LINE
  5
213
330
78
100
AcDbEntity
  8
0
  6
Continuous
 62
     0
100
AcDbLine
 10
-77.50038998634055
 20
-60.17967783576938
 30
0.0
 11
-92.50020382566778
 21
-68.83986092741723
 31
0.0
  0
LINE
  5
214
330
78
100
AcDbEntity
  8
0
  6
Continuous
 62
     0
100
AcDbLine
 10
77.49948794334838
 20
94.82032216423053
 30
0.0
 11
62.49967410402115
 21
86.16013907258267
 31
0.0
  0
LINE
  5
215
330
78
100
AcDbEntity
  8
0
  6
Continuous
 62
     0
100
AcDbLine
 10
77.4994862756407
 20
-94.82067639165118
 30
0.0
 11
92.49951154671498
 21
-86.16037122931245
 31
0.0
  0
LINE
  5
216
330
78
100
AcDbEntity
  8
0
  6
Continuous
 62
     0
100
AcDbLine
 10
62.50015258789062
 20
86.15969848632812
 30
0.0
 11
62.50015258789062
 21
77.49945068359375
 31
0.0
  0
LINE
  5
217
330
78
100
AcDbEntity
  8
0
  6
Continuous
 62
     0
100
AcDbLine
 10
92.5001220703125
 20
77.49943542480469
 30
0.0
 11
92.5001220703125
 21
86.15969848632812
 31
0.0
  0
LINE
  5
218
330
78
100
AcDbEntity
  8
0
  6
Continuous
 62
     0
100
AcDbLine
 10
-99.0
 20
77.50000041295311
 30
0.0
 11
-99.0
 21
-77.50000041295311
 31
0.0
  0
LINE
  5
219
330
78
100
AcDbEntity
  8
0
  6
Continuous
 62
     0
100
AcDbLine
 10
98.9998779296875
 20
77.50000041295311
 30
0.0
 11
98.9998779296875
 21
-77.50000041295311
 31
0.0
  0
LINE
  5
21A
330
78
100
AcDbEntity
  8
0
  6
Continuous
 62
     0
100
AcDbLine
 10
107.5
 20
40.0
 30
0.0
 11
106.8072463316089
 21
40.0
 31
0.0
  0
LINE
  5
21B
330
78
100
AcDbEntity
  8
0
  6
Continuous
 62
     0
100
AcDbLine
 10
140.0
 20
35.0
 30
0.0
 11
107.5
 21
35.0
 31
0.0
  0
LINE
  5
21C
330
78
100
AcDbEntity
  8
0
  6
Continuous
 62
     0
100
AcDbLine
 10
-107.5
 20
-23.43074902771991
 30
0.0
 11
-107.5
 21
-40.0
 31
0.0
  0
LINE
  5
21D
330
78
100
AcDbEntity
  8
0
  6
Continuous
 62
     0
100
AcDbLine
 10
-107.5
 20
40.0
 30
0.0
 11
-106.8072463316084
 21
40.0
 31
0.0
  0
LINE
  5
21E
330
78
100
AcDbEntity
  8
0
  6
Continuous
 62
     0
100
AcDbLine
 10
-140.0
 20
23.43074902771997
 30
0.0
 11
-107.5
 21
23.43074902771997
 31
0.0
  0
LINE
  5
21F
330
78
100
AcDbEntity
  8
0
  6
Continuous
 62
     0
100
AcDbLine
 10
140.0
 20
-23.43074902771991
 30
0.0
 11
107.5
 21
-23.43074902771991
 31
0.0
  0
LINE
  5
220
330
78
100
AcDbEntity
  8
0
  6
Continuous
 62
     0
100
AcDbLine
 10
-140.0
 20
35.0
 30
0.0
 11
-140.0
 21
-35.0
 31
0.0
  0
LINE
  5
221
330
78
100
AcDbEntity
  8
0
  6
Continuous
 62
     0
100
AcDbLine
 10
107.5
 20
40.0
 30
0.0
 11
107.5
 21
23.43074902771997
 31
0.0
  0
LINE
  5
222
330
78
100
AcDbEntity
  8
0
  6
Continuous
 62
     0
100
AcDbLine
 10
-99.000058745967
 20
66.46665252741232
 30
0.0
 11
-106.8072463316088
 21
39.99999999999986
 31
0.0
  0
LINE
  5
223
330
78
100
AcDbEntity
  8
0
  6
Continuous
 62
     0
100
AcDbLine
 10
-107.5
 20
-40.0
 30
0.0
 11
-106.8072463316084
 21
-40.0
 31
0.0
  0
LINE
  5
224
330
78
100
AcDbEntity
  8
0
  6
Continuous
 62
     0
100
AcDbLine
 10
140.0
 20
-35.0
 30
0.0
 11
107.5
 21
-35.0
 31
0.0
  0
LINE
  5
225
330
78
100
AcDbEntity
  8
0
  6
Continuous
 62
     0
100
AcDbLine
 10
-140.0
 20
-35.0
 30
0.0
 11
-107.5
 21
-35.0
 31
0.0
  0
LINE
  5
226
330
78
100
AcDbEntity
  8
0
  6
Continuous
 62
     0
100
AcDbLine
 10
107.5
 20
-23.43074902771991
 30
0.0
 11
107.5
 21
-40.0
 31
0.0
  0
LINE
  5
227
330
78
100
AcDbEntity
  8
0
  6
Continuous
 62
     0
100
AcDbLine
 10
107.5
 20
-40.0
 30
0.0
 11
106.8072463316089
 21
-40.0
 31
0.0
  0
LINE
  5
228
330
78
100
AcDbEntity
  8
0
  6
Continuous
 62
     0
100
AcDbLine
 10
23.92321887945497
 20
-107.3668909681735
 30
0.0
 11
61.47374701298991
 21
-98.99995640673183
 31
0.0
  0
LINE
  5
229
330
78
100
AcDbEntity
  8
0
  6
Continuous
 62
     0
100
AcDbLine
 10
61.47378343719495
 20
98.99997955672953
 30
0.0
 11
23.92322551655814
 21
107.3669207552742
 31
0.0
  0
LINE
  5
22A
330
78
100
AcDbEntity
  8
0
  6
Continuous
 62
     0
100
AcDbLine
 10
140.0
 20
35.0
 30
0.0
 11
140.0
 21
-35.0
 31
0.0
  0
LINE
  5
22B
330
78
100
AcDbEntity
  8
0
  6
Continuous
 62
     0
100
AcDbLine
 10
-61.47382696061348
 20
-98.99991836318235
 30
0.0
 11
-23.92332861417765
 21
-107.3668462875211
 31
0.0
  0
LINE
  5
22C
330
78
100
AcDbEntity
  8
0
  6
Continuous
 62
     0
100
AcDbLine
 10
-106.8072145139887
 20
-40.00000000000021
 30
0.0
 11
-99.00003810963284
 21
-66.46661462244363
 31
0.0
  0
LINE
  5
22D
330
78
100
AcDbEntity
  8
0
  6
Continuous
 62
     0
100
AcDbLine
 10
-140.0
 20
-23.43074902771991
 30
0.0
 11
-107.5
 21
-23.43074902771991
 31
0.0
  0
LINE
  5
22E
330
78
100
AcDbEntity
  8
0
  6
Continuous
 62
     0
100
AcDbLine
 10
-107.5
 20
40.0
 30
0.0
 11
-107.5
 21
23.43074902771997
 31
0.0
  0
LINE
  5
22F
330
78
100
AcDbEntity
  8
0
  6
Continuous
 62
     0
100
AcDbLine
 10
-140.0
 20
35.0
 30
0.0
 11
-107.5
 21
35.0
 31
0.0
  0
LINE
  5
230
330
78
100
AcDbEntity
  8
0
  6
Continuous
 62
     0
100
AcDbLine
 10
140.0
 20
23.43074902771997
 30
0.0
 11
107.5
 21
23.43074902771997
 31
0.0
  0
LINE
  5
231
330
78
100
AcDbEntity
  8
0
  6
Continuous
 62
     0
100
AcDbLine
 10
-23.92333856983342
 20
107.3668909681727
 30
0.0
 11
-61.47386670336791
 21
98.99995640673117
 31
0.0
  0
LINE
  5
232
330
78
100
AcDbEntity
  8
0
  6
Continuous
 62
     0
100
AcDbLine
 10
98.99983412028281
 20
-66.46665252741279
 30
0.0
 11
106.8070217059249
 21
-40.00000000000024
 31
0.0
  0
LINE
  5
233
330
78
100
AcDbEntity
  8
0
  6
Continuous
 62
     0
100
AcDbLine
 10
106.8070694323554
 20
40.00000000000013
 30
0.0
 11
98.99987370910199
 21
66.4666801142141
 31
0.0
  0
LINE
  5
234
330
78
100
AcDbEntity
  8
0
  6
DASHED
 62
     0
100
AcDbLine
 10
100.0
 20
-18.0
 30
0.0
 11
140.0
 21
-18.0
 31
0.0
  0
CIRCLE
  5
235
330
78
100
AcDbEntity
  8
0
  6
Continuous
 62
     4
100
AcDbCircle
 10
-77.5
 20
77.5
 30
0.0
 40
9.188
  0
CIRCLE
  5
236
330
78
100
AcDbEntity
  8
0
  6
Continuous
 62
     4
100
AcDbCircle
 10
77.4998779296875
 20
77.5
 30
0.0
 40
9.188
  0
CIRCLE
  5
237
330
78
100
AcDbEntity
  8
0
  6
Continuous
 62
     4
100
AcDbCircle
 10
-77.5
 20
-77.5
 30
0.0
 40
9.188
  0
CIRCLE
  5
238
330
78
100
AcDbEntity
  8
0
  6
Continuous
 62
     4
100
AcDbCircle
 10
77.4998779296875
 20
-77.5
 30
0.0
 40
9.188
  0
CIRCLE
  5
239
330
78
100
AcDbEntity
  8
0
  6
Continuous
 62
     0
100
AcDbCircle
 10
0.0
 20
0.0
 30
0.0
 40
20.0
  0
CIRCLE
  5
23A
330
78
100
AcDbEntity
  8
0
  6
Continuous
 62
     0
100
AcDbCircle
 10
0.0
 20
0.0
 30
0.0
 40
55.0
  0
CIRCLE
  5
23B
330
78
100
AcDbEntity
  8
0
  6
Continuous
 62
     4
100
AcDbCircle
 10
0.0
 20
0.0
 30
0.0
 40
19.188
  0
CIRCLE
  5
23C
330
78
100
AcDbEntity
  8
0
  6
Continuous
 62
     0
100
AcDbCircle
 10
-77.5
 20
77.5
 30
0.0
 40
10.0
  0
CIRCLE
  5
23D
330
78
100
AcDbEntity
  8
0
  6
Continuous
 62
     0
100
AcDbCircle
 10
77.4998779296875
 20
77.5
 30
0.0
 40
10.0
  0
CIRCLE
  5
23E
330
78
100
AcDbEntity
  8
0
  6
Continuous
 62
     0
100
AcDbCircle
 10
-77.5
 20
-77.5
 30
0.0
 40
10.0
  0
ARC
  5
23F
330
78
100
AcDbEntity
  8
0
  6
Continuous
 62
     0
100
AcDbCircle
 10
77.4998779296875
 20
77.5
 30
0.0
 40
21.5
100
AcDbArc
 50
0.0
 51
90.0
  0
ARC
  5
240
330
78
100
AcDbEntity
  8
0
  6
Continuous
 62
     0
100
AcDbCircle
 10
-77.5
 20
77.5
 30
0.0
 40
21.5
100
AcDbArc
 50
90.0
 51
180.0
  0
CIRCLE
  5
241
330
78
100
AcDbEntity
  8
0
  6
Continuous
 62
     0
100
AcDbCircle
 10
77.4998779296875
 20
-77.5
 30
0.0
 40
10.0
  0
ARC
  5
242
330
78
100
AcDbEntity
  8
0
  6
Continuous
 62
     0
100
AcDbCircle
 10
-77.5
 20
-77.5
 30
0.0
 40
21.5
100
AcDbArc
 50
180.0
 51
270.0
  0
ARC
  5
243
330
78
100
AcDbEntity
  8
0
  6
Continuous
 62
     0
100
AcDbCircle
 10
77.4998779296875
 20
-77.5
 30
0.0
 40
21.5
100
AcDbArc
 50
270.0
 51
0.0
  0
ARC
  5
244
330
78
100
AcDbEntity
  8
0
  6
Continuous
 62
     0
100
AcDbCircle
 10
0.0
 20
0.0
 30
0.0
 40
110.0
100
AcDbArc
 50
77.43866307361024
 51
102.5614102372378
  0
ARC
  5
245
330
78
100
AcDbEntity
  8
0
  6
Continuous
 62
     0
100
AcDbCircle
 10
0.0
 20
0.0
 30
0.0
 40
110.0
100
AcDbArc
 50
257.4385897627622
 51
282.5613369263897
  0
MTEXT
  5
246
330
78
100
AcDbEntity
  8
0
 62
     0
100
AcDbMText
 10
46.78132937604069
 20
0.818924021363046
 30
0.0
 40
0.5
 41
0.0
 71
     7
 72
     1
  1
{\W1;BN-6102B-TE-180}
 73
     1
 44
1.0
  0
ENDBLK
  5
7A
330
78
100
AcDbEntity
  8
0
100
AcDbBlockEnd
  0
BLOCK
  5
249
330
248
100
AcDbEntity
  8
0
100
AcDbBlockBegin
  2
_Closed
 70
     0
 10
0.0
 20
0.0
 30
0.0
  3
_Closed
  1

  0
LINE
  5
24B
330
248
100
AcDbEntity
  8
0
  6
ByBlock
 62
     0
370
    -2
100
AcDbLine
 10
-1.0
 20
0.166667
 30
0.0
 11
0.0
 21
0.0
 31
0.0
  0
LINE
  5
24C
330
248
100
AcDbEntity
  8
0
  6
ByBlock
 62
     0
370
    -2
100
AcDbLine
 10
0.0
 20
0.0
 30
0.0
 11
-1.0
 21
-0.166667
 31
0.0
  0
LINE
  5
24D
330
248
100
AcDbEntity
  8
0
  6
ByBlock
 62
     0
370
    -2
100
AcDbLine
 10
-1.0
 20
0.166667
 30
0.0
 11
-1.0
 21
-0.166667
 31
0.0
  0
LINE
  5
24E
330
248
100
AcDbEntity
  8
0
  6
ByBlock
 62
     0
370
    -2
100
AcDbLine
 10
0.0
 20
0.0
 30
0.0
 11
-1.0
 21
0.0
 31
0.0
  0
ENDBLK
  5
24A
330
248
100
AcDbEntity
  8
0
100
AcDbBlockEnd
  0
BLOCK
  5
261
330
260
100
AcDbEntity
  8
0
100
AcDbBlockBegin
  2
_Open
 70
     0
 10
0.0
 20
0.0
 30
0.0
  3
_Open
  1

  0
LINE
  5
263
330
260
100
AcDbEntity
  8
0
  6
ByBlock
 62
     0
370
    -2
100
AcDbLine
 10
-1.0
 20
0.166667
 30
0.0
 11
0.0
 21
0.0
 31
0.0
  0
LINE
  5
264
330
260
100
AcDbEntity
  8
0
  6
ByBlock
 62
     0
370
    -2
100
AcDbLine
 10
-1.0
 20
-0.166667
 30
0.0
 11
0.0
 21
0.0
 31
0.0
  0
LINE
  5
265
330
260
100
AcDbEntity
  8
0
  6
ByBlock
 62
     0
370
    -2
100
AcDbLine
 10
0.0
 20
0.0
 30
0.0
 11
-1.0
 21
0.0
 31
0.0
  0
ENDBLK
  5
262
330
260
100
AcDbEntity
  8
0
100
AcDbBlockEnd
  0
BLOCK
  5
268
330
267
100
AcDbEntity
  8
0
100
AcDbBlockBegin
  2
*D6
 70
     1
 10
0.0
 20
0.0
 30
0.0
  3
*D6
  1

  0
LINE
  5
26A
330
267
100
AcDbEntity
  8
0
  6
ByBlock
 62
     0
370
    -2
100
AcDbLine
 10
-296.5559183780094
 20
-137.2794582001191
 30
0.0
 11
-296.5559183780094
 21
-109.4571586002993
 31
0.0
  0
LINE
  5
26B
330
267
100
AcDbEntity
  8
0
  6
ByBlock
 62
     0
370
    -2
100
AcDbLine
 10
-244.5559183780094
 20
-137.2794582001191
 30
0.0
 11
-244.5559183780094
 21
-109.4571586002993
 31
0.0
  0
LINE
  5
26C
330
267
100
AcDbEntity
  8
0
  6
ByBlock
 62
     0
370
    -2
100
AcDbLine
 10
-293.4419183780095
 20
-111.7431586002993
 30
0.0
 11
-247.6699183780094
 21
-111.7431586002993
 31
0.0
  0
INSERT
  5
26D
330
267
100
AcDbEntity
  8
0
 62
     0
370
    -2
100
AcDbBlockReference
  2
_Open
 10
-296.5559183780094
 20
-111.7431586002993
 30
0.0
 41
3.114
 42
3.114
 43
3.114
 50
180.0
  0
INSERT
  5
26E
330
267
100
AcDbEntity
  8
0
 62
     0
370
    -2
100
AcDbBlockReference
  2
_Open
 10
-244.5559183780094
 20
-111.7431586002993
 30
0.0
 41
3.114
 42
3.114
 43
3.114
  0
MTEXT
  5
26F
330
267
100
AcDbEntity
  8
0
 62
     0
100
AcDbMText
 10
-284.3196466275641
 20
-108.7431586002993
 30
0.0
 40
4.0
 41
0.0
 71
     5
 72
     1
  1
52
 73
     1
 44
1.0
  0
POINT
  5
270
330
267
100
AcDbEntity
  8
Defpoints
 62
     0
100
AcDbPoint
 10
-296.5559183780094
 20
-137.2794582001191
 30
0.0
  0
POINT
  5
271
330
267
100
AcDbEntity
  8
Defpoints
 62
     0
100
AcDbPoint
 10
-244.5559183780094
 20
-137.2794582001191
 30
0.0
  0
POINT
  5
272
330
267
100
AcDbEntity
  8
Defpoints
 62
     0
100
AcDbPoint
 10
-244.5559183780094
 20
-111.7431586002993
 30
0.0
  0
ENDBLK
  5
269
330
267
100
AcDbEntity
  8
0
100
AcDbBlockEnd
  0
BLOCK
  5
275
330
274
100
AcDbEntity
  8
0
100
AcDbBlockBegin
  2
*D7
 70
     1
 10
0.0
 20
0.0
 30
0.0
  3
*D7
  1

  0
LINE
  5
277
330
274
100
AcDbEntity
  8
0
  6
ByBlock
 62
     0
370
    -2
100
AcDbLine
 10
-363.0559183780094
 20
-148.2794582001191
 30
0.0
 11
-363.0559183780094
 21
-109.4571586002993
 31
0.0
  0
LINE
  5
278
330
274
100
AcDbEntity
  8
0
  6
ByBlock
 62
     0
370
    -2
100
AcDbLine
 10
-343.0559183780094
 20
-145.2178699127655
 30
0.0
 11
-343.0559183780094
 21
-109.4571586002993
 31
0.0
  0
LINE
  5
279
330
274
100
AcDbEntity
  8
0
  6
ByBlock
 62
     0
370
    -2
100
AcDbLine
 10
-359.9419183780095
 20
-111.7431586002993
 30
0.0
 11
-346.1699183780094
 21
-111.7431586002993
 31
0.0
  0
INSERT
  5
27A
330
274
100
AcDbEntity
  8
0
 62
     0
370
    -2
100
AcDbBlockReference
  2
_Open
 10
-363.0559183780094
 20
-111.7431586002993
 30
0.0
 41
3.114
 42
3.114
 43
3.114
 50
180.0
  0
INSERT
  5
27B
330
274
100
AcDbEntity
  8
0
 62
     0
370
    -2
100
AcDbBlockReference
  2
_Open
 10
-343.0559183780094
 20
-111.7431586002993
 30
0.0
 41
3.114
 42
3.114
 43
3.114
  0
MTEXT
  5
27C
330
274
100
AcDbEntity
  8
0
 62
     0
100
AcDbMText
 10
-353.0549183780095
 20
-108.7431586002993
 30
0.0
 40
4.0
 41
0.0
 71
     5
 72
     1
  1
20
 73
     1
 44
1.0
  0
POINT
  5
27D
330
274
100
AcDbEntity
  8
Defpoints
 62
     0
100
AcDbPoint
 10
-363.0559183780094
 20
-148.2794582001191
 30
0.0
  0
POINT
  5
27E
330
274
100
AcDbEntity
  8
Defpoints
 62
     0
100
AcDbPoint
 10
-343.0559183780094
 20
-145.2178699127655
 30
0.0
  0
POINT
  5
27F
330
274
100
AcDbEntity
  8
Defpoints
 62
     0
100
AcDbPoint
 10
-343.0559183780094
 20
-111.7431586002993
 30
0.0
  0
ENDBLK
  5
276
330
274
100
AcDbEntity
  8
0
100
AcDbBlockEnd
  0
BLOCK
  5
282
330
281
100
AcDbEntity
  8
0
100
AcDbBlockBegin
  2
*D8
 70
     1
 10
0.0
 20
0.0
 30
0.0
  3
*D8
  1

  0
LINE
  5
284
330
281
100
AcDbEntity
  8
0
  6
ByBlock
 62
     0
370
    -2
100
AcDbLine
 10
-168.0559183780094
 20
-148.2794582001191
 30
0.0
 11
-168.0559183780094
 21
-109.4571586002993
 31
0.0
  0
LINE
  5
285
330
281
100
AcDbEntity
  8
0
  6
ByBlock
 62
     0
370
    -2
100
AcDbLine
 10
-188.0559183780094
 20
-145.2178699127655
 30
0.0
 11
-188.0559183780094
 21
-109.4571586002993
 31
0.0
  0
LINE
  5
286
330
281
100
AcDbEntity
  8
0
  6
ByBlock
 62
     0
370
    -2
100
AcDbLine
 10
-171.1699183780094
 20
-111.7431586002993
 30
0.0
 11
-184.9419183780094
 21
-111.7431586002993
 31
0.0
  0
INSERT
  5
287
330
281
100
AcDbEntity
  8
0
 62
     0
370
    -2
100
AcDbBlockReference
  2
_Open
 10
-168.0559183780094
 20
-111.7431586002993
 30
0.0
 41
3.114
 42
3.114
 43
3.114
  0
INSERT
  5
288
330
281
100
AcDbEntity
  8
0
 62
     0
370
    -2
100
AcDbBlockReference
  2
_Open
 10
-188.0559183780094
 20
-111.7431586002993
 30
0.0
 41
3.114
 42
3.114
 43
3.114
 50
180.0
  0
MTEXT
  5
289
330
281
100
AcDbEntity
  8
0
 62
     0
100
AcDbMText
 10
-178.0539183780094
 20
-108.7431586002993
 30
0.0
 40
4.0
 41
0.0
 71
     5
 72
     1
  1
20
 73
     1
 44
1.0
  0
POINT
  5
28A
330
281
100
AcDbEntity
  8
Defpoints
 62
     0
100
AcDbPoint
 10
-168.0559183780094
 20
-148.2794582001191
 30
0.0
  0
POINT
  5
28B
330
281
100
AcDbEntity
  8
Defpoints
 62
     0
100
AcDbPoint
 10
-188.0559183780094
 20
-145.2178699127655
 30
0.0
  0
POINT
  5
28C
330
281
100
AcDbEntity
  8
Defpoints
 62
     0
100
AcDbPoint
 10
-188.0559183780094
 20
-111.7431586002993
 30
0.0
  0
ENDBLK
  5
283
330
281
100
AcDbEntity
  8
0
100
AcDbBlockEnd
  0
BLOCK
  5
28F
330
28E
100
AcDbEntity
  8
0
100
AcDbBlockBegin
  2
*D9
 70
     1
 10
0.0
 20
0.0
 30
0.0
  3
*D9
  1

  0
LINE
  5
291
330
28E
100
AcDbEntity
  8
0
  6
ByBlock
 62
     0
370
    -2
100
AcDbLine
 10
-363.0559183780094
 20
-148.2794582001191
 30
0.0
 11
-363.0559183780094
 21
-100.6528889128446
 31
0.0
  0
LINE
  5
292
330
28E
100
AcDbEntity
  8
0
  6
ByBlock
 62
     0
370
    -2
100
AcDbLine
 10
-270.5559183780094
 20
-128.9550566449068
 30
0.0
 11
-270.5559183780094
 21
-100.6528889128446
 31
0.0
  0
LINE
  5
293
330
28E
100
AcDbEntity
  8
0
  6
ByBlock
 62
     0
370
    -2
100
AcDbLine
 10
-359.9419183780095
 20
-102.9388889128446
 30
0.0
 11
-273.6699183780094
 21
-102.9388889128446
 31
0.0
  0
INSERT
  5
294
330
28E
100
AcDbEntity
  8
0
 62
     0
370
    -2
100
AcDbBlockReference
  2
_Open
 10
-363.0559183780094
 20
-102.9388889128446
 30
0.0
 41
3.114
 42
3.114
 43
3.114
 50
180.0
  0
INSERT
  5
295
330
28E
100
AcDbEntity
  8
0
 62
     0
370
    -2
100
AcDbBlockReference
  2
_Open
 10
-270.5559183780094
 20
-102.9388889128446
 30
0.0
 41
3.114
 42
3.114
 43
3.114
 50
360.0
  0
MTEXT
  5
296
330
28E
100
AcDbEntity
  8
0
 62
     0
100
AcDbMText
 10
-316.8049183780095
 20
-98.89126986522554
 30
0.0
 40
4.0
 41
0.0
 71
     5
 72
     1
  1
67.5+1/2ストローク
 73
     1
 44
1.0
  0
POINT
  5
297
330
28E
100
AcDbEntity
  8
Defpoints
 62
     0
100
AcDbPoint
 10
-363.0559183780094
 20
-148.2794582001191
 30
0.0
  0
POINT
  5
298
330
28E
100
AcDbEntity
  8
Defpoints
 62
     0
100
AcDbPoint
 10
-270.5559183780094
 20
-128.9550566449068
 30
0.0
  0
POINT
  5
299
330
28E
100
AcDbEntity
  8
Defpoints
 62
     0
100
AcDbPoint
 10
-270.5559183780094
 20
-102.9388889128446
 30
0.0
  0
ENDBLK
  5
290
330
28E
100
AcDbEntity
  8
0
100
AcDbBlockEnd
  0
BLOCK
  5
29C
330
29B
100
AcDbEntity
  8
0
100
AcDbBlockBegin
  2
*D10
 70
     1
 10
0.0
 20
0.0
 30
0.0
  3
*D10
  1

  0
LINE
  5
29E
330
29B
100
AcDbEntity
  8
0
  6
ByBlock
 62
     0
370
    -2
100
AcDbLine
 10
-83.05591837800944
 20
-223.2794582001191
 30
0.0
 11
-83.05591837800944
 21
-100.6528889128446
 31
0.0
  0
LINE
  5
29F
330
29B
100
AcDbEntity
  8
0
  6
ByBlock
 62
     0
370
    -2
100
AcDbLine
 10
-267.4419183780095
 20
-102.9388889128446
 30
0.0
 11
-86.16991837800944
 21
-102.9388889128446
 31
0.0
  0
INSERT
  5
2A0
330
29B
100
AcDbEntity
  8
0
 62
     0
370
    -2
100
AcDbBlockReference
  2
_Open
 10
-270.5559183780094
 20
-102.9388889128446
 30
0.0
 41
3.114
 42
3.114
 43
3.114
 50
180.0
  0
INSERT
  5
2A1
330
29B
100
AcDbEntity
  8
0
 62
     0
370
    -2
100
AcDbBlockReference
  2
_Open
 10
-83.05591837800944
 20
-102.9388889128446
 30
0.0
 41
3.114
 42
3.114
 43
3.114
 50
360.0
  0
MTEXT
  5
2A2
330
29B
100
AcDbEntity
  8
0
 62
     0
100
AcDbMText
 10
-221.8928287661946
 20
-98.89126986522554
 30
0.0
 40
4.0
 41
0.0
 71
     5
 72
     1
  1
162.5+1/2ストローク
 73
     1
 44
1.0
  0
POINT
  5
2A3
330
29B
100
AcDbEntity
  8
Defpoints
 62
     0
100
AcDbPoint
 10
-270.5559183780094
 20
-128.9550566449068
 30
0.0
  0
POINT
  5
2A4
330
29B
100
AcDbEntity
  8
Defpoints
 62
     0
100
AcDbPoint
 10
-83.05591837800944
 20
-223.2794582001191
 30
0.0
  0
POINT
  5
2A5
330
29B
100
AcDbEntity
  8
Defpoints
 62
     0
100
AcDbPoint
 10
-83.05591837800944
 20
-102.9388889128446
 30
0.0
  0
ENDBLK
  5
29D
330
29B
100
AcDbEntity
  8
0
100
AcDbBlockEnd
  0
BLOCK
  5
2A8
330
2A7
100
AcDbEntity
  8
0
100
AcDbBlockBegin
  2
*D11
 70
     1
 10
0.0
 20
0.0
 30
0.0
  3
*D11
  1

  0
LINE
  5
2AA
330
2A7
100
AcDbEntity
  8
0
  6
ByBlock
 62
     0
370
    -2
100
AcDbLine
 10
-390.0559488955876
 20
-159.7794939331018
 30
0.0
 11
-390.0559488955876
 21
-109.4571586002993
 31
0.0
  0
LINE
  5
2AB
330
2A7
100
AcDbEntity
  8
0
  6
ByBlock
 62
     0
370
    -2
100
AcDbLine
 10
-366.1699183780094
 20
-111.7431586002993
 30
0.0
 11
-386.9419488955876
 21
-111.7431586002993
 31
0.0
  0
INSERT
  5
2AC
330
2A7
100
AcDbEntity
  8
0
 62
     0
370
    -2
100
AcDbBlockReference
  2
_Open
 10
-363.0559183780094
 20
-111.7431586002993
 30
0.0
 41
3.114
 42
3.114
 43
3.114
  0
INSERT
  5
2AD
330
2A7
100
AcDbEntity
  8
0
 62
     0
370
    -2
100
AcDbBlockReference
  2
_Open
 10
-390.0559488955876
 20
-111.7431586002993
 30
0.0
 41
3.114
 42
3.114
 43
3.114
 50
180.0
  0
MTEXT
  5
2AE
330
2A7
100
AcDbEntity
  8
0
 62
     0
100
AcDbMText
 10
-376.5539336367985
 20
-108.7431586002993
 30
0.0
 40
4.0
 41
0.0
 71
     5
 72
     1
  1
27
 73
     1
 44
1.0
  0
POINT
  5
2AF
330
2A7
100
AcDbEntity
  8
Defpoints
 62
     0
100
AcDbPoint
 10
-363.0559183780094
 20
-148.2794582001191
 30
0.0
  0
POINT
  5
2B0
330
2A7
100
AcDbEntity
  8
Defpoints
 62
     0
100
AcDbPoint
 10
-390.0559488955876
 20
-159.7794939331018
 30
0.0
  0
POINT
  5
2B1
330
2A7
100
AcDbEntity
  8
Defpoints
 62
     0
100
AcDbPoint
 10
-390.0559488955876
 20
-111.7431586002993
 30
0.0
  0
ENDBLK
  5
2A9
330
2A7
100
AcDbEntity
  8
0
100
AcDbBlockEnd
  0
BLOCK
  5
2B4
330
2B3
100
AcDbEntity
  8
0
100
AcDbBlockBegin
  2
*D12
 70
     1
 10
0.0
 20
0.0
 30
0.0
  3
*D12
  1

  0
LINE
  5
2B6
330
2B3
100
AcDbEntity
  8
0
  6
ByBlock
 62
     0
370
    -2
100
AcDbLine
 10
-141.0558878604313
 20
-159.7794939331018
 30
0.0
 11
-141.0558878604313
 21
-109.4571586002993
 31
0.0
  0
LINE
  5
2B7
330
2B3
100
AcDbEntity
  8
0
  6
ByBlock
 62
     0
370
    -2
100
AcDbLine
 10
-164.9419183780094
 20
-111.7431586002993
 30
0.0
 11
-144.1698878604313
 21
-111.7431586002993
 31
0.0
  0
INSERT
  5
2B8
330
2B3
100
AcDbEntity
  8
0
 62
     0
370
    -2
100
AcDbBlockReference
  2
_Open
 10
-168.0559183780094
 20
-111.7431586002993
 30
0.0
 41
3.114
 42
3.114
 43
3.114
 50
180.0
  0
INSERT
  5
2B9
330
2B3
100
AcDbEntity
  8
0
 62
     0
370
    -2
100
AcDbBlockReference
  2
_Open
 10
-141.0558878604313
 20
-111.7431586002993
 30
0.0
 41
3.114
 42
3.114
 43
3.114
  0
MTEXT
  5
2BA
330
2B3
100
AcDbEntity
  8
0
 62
     0
100
AcDbMText
 10
-154.5549031192204
 20
-108.7431586002993
 30
0.0
 40
4.0
 41
0.0
 71
     5
 72
     1
  1
27
 73
     1
 44
1.0
  0
POINT
  5
2BB
330
2B3
100
AcDbEntity
  8
Defpoints
 62
     0
100
AcDbPoint
 10
-168.0559183780094
 20
-148.2794582001191
 30
0.0
  0
POINT
  5
2BC
330
2B3
100
AcDbEntity
  8
Defpoints
 62
     0
100
AcDbPoint
 10
-141.0558878604313
 20
-159.7794939331018
 30
0.0
  0
POINT
  5
2BD
330
2B3
100
AcDbEntity
  8
Defpoints
 62
     0
100
AcDbPoint
 10
-141.0558878604313
 20
-111.7431586002993
 30
0.0
  0
ENDBLK
  5
2B5
330
2B3
100
AcDbEntity
  8
0
100
AcDbBlockEnd
  0
BLOCK
  5
2C0
330
2BF
100
AcDbEntity
  8
0
100
AcDbBlockBegin
  2
*D13
 70
     1
 10
0.0
 20
0.0
 30
0.0
  3
*D13
  1

  0
LINE
  5
2C2
330
2BF
100
AcDbEntity
  8
0
  6
ByBlock
 62
     0
370
    -2
100
AcDbLine
 10
-363.0559183780094
 20
-148.2794582001191
 30
0.0
 11
-363.0559183780094
 21
-90.53461942661177
 31
0.0
  0
LINE
  5
2C3
330
2BF
100
AcDbEntity
  8
0
  6
ByBlock
 62
     0
370
    -2
100
AcDbLine
 10
-168.0559183780094
 20
-148.2794582001191
 30
0.0
 11
-168.0559183780094
 21
-90.5346194266118
 31
0.0
  0
LINE
  5
2C4
330
2BF
100
AcDbEntity
  8
0
  6
ByBlock
 62
     0
370
    -2
100
AcDbLine
 10
-359.9419183780095
 20
-92.82061942661177
 30
0.0
 11
-171.1699183780094
 21
-92.8206194266118
 31
0.0
  0
INSERT
  5
2C5
330
2BF
100
AcDbEntity
  8
0
 62
     0
370
    -2
100
AcDbBlockReference
  2
_Open
 10
-363.0559183780094
 20
-92.82061942661177
 30
0.0
 41
3.114
 42
3.114
 43
3.114
 50
180.0
  0
INSERT
  5
2C6
330
2BF
100
AcDbEntity
  8
0
 62
     0
370
    -2
100
AcDbBlockReference
  2
_Open
 10
-168.0559183780094
 20
-92.8206194266118
 30
0.0
 41
3.114
 42
3.114
 43
3.114
 50
360.0
  0
MTEXT
  5
2C7
330
2BF
100
AcDbEntity
  8
0
 62
     0
100
AcDbMText
 10
-265.5549183780095
 20
-89.33168607660554
 30
0.0
 40
4.0
 41
0.0
 71
     5
 72
     1
  1
145+ストローク
 73
     1
 44
1.0
  0
POINT
  5
2C8
330
2BF
100
AcDbEntity
  8
Defpoints
 62
     0
100
AcDbPoint
 10
-363.0559183780094
 20
-148.2794582001191
 30
0.0
  0
POINT
  5
2C9
330
2BF
100
AcDbEntity
  8
Defpoints
 62
     0
100
AcDbPoint
 10
-168.0559183780094
 20
-148.2794582001191
 30
0.0
  0
POINT
  5
2CA
330
2BF
100
AcDbEntity
  8
Defpoints
 62
     0
100
AcDbPoint
 10
-168.0559183780094
 20
-92.82061942661178
 30
0.0
  0
ENDBLK
  5
2C1
330
2BF
100
AcDbEntity
  8
0
100
AcDbBlockEnd
  0
BLOCK
  5
2CD
330
2CC
100
AcDbEntity
  8
0
100
AcDbBlockBegin
  2
*D14
 70
     1
 10
0.0
 20
0.0
 30
0.0
  3
*D14
  1

  0
LINE
  5
2CF
330
2CC
100
AcDbEntity
  8
0
  6
ByBlock
 62
     0
370
    -2
100
AcDbLine
 10
-23.05591837800944
 20
-228.0914699188691
 30
0.0
 11
-23.05591837800944
 21
-90.53461942661178
 31
0.0
  0
LINE
  5
2D0
330
2CC
100
AcDbEntity
  8
0
  6
ByBlock
 62
     0
370
    -2
100
AcDbLine
 10
-164.9419183780094
 20
-92.82061942661177
 30
0.0
 11
-26.16991837800944
 21
-92.82061942661178
 31
0.0
  0
INSERT
  5
2D1
330
2CC
100
AcDbEntity
  8
0
 62
     0
370
    -2
100
AcDbBlockReference
  2
_Open
 10
-168.0559183780094
 20
-92.82061942661177
 30
0.0
 41
3.114
 42
3.114
 43
3.114
 50
180.0
  0
INSERT
  5
2D2
330
2CC
100
AcDbEntity
  8
0
 62
     0
370
    -2
100
AcDbBlockReference
  2
_Open
 10
-23.05591837800944
 20
-92.82061942661178
 30
0.0
 41
3.114
 42
3.114
 43
3.114
 50
360.0
  0
MTEXT
  5
2D3
330
2CC
100
AcDbEntity
  8
0
 62
     0
100
AcDbMText
 10
-95.55491837800943
 20
-89.82061942661178
 30
0.0
 40
4.0
 41
0.0
 71
     5
 72
     1
  1
145
 73
     1
 44
1.0
  0
POINT
  5
2D4
330
2CC
100
AcDbEntity
  8
Defpoints
 62
     0
100
AcDbPoint
 10
-168.0559183780094
 20
-148.2794582001191
 30
0.0
  0
POINT
  5
2D5
330
2CC
100
AcDbEntity
  8
Defpoints
 62
     0
100
AcDbPoint
 10
-23.05591837800944
 20
-228.0914699188691
 30
0.0
  0
POINT
  5
2D6
330
2CC
100
AcDbEntity
  8
Defpoints
 62
     0
100
AcDbPoint
 10
-23.05591837800944
 20
-92.82061942661178
 30
0.0
  0
ENDBLK
  5
2CE
330
2CC
100
AcDbEntity
  8
0
100
AcDbBlockEnd
  0
BLOCK
  5
2D9
330
2D8
100
AcDbEntity
  8
0
100
AcDbBlockBegin
  2
*D15
 70
     1
 10
0.0
 20
0.0
 30
0.0
  3
*D15
  1

  0
LINE
  5
2DB
330
2D8
100
AcDbEntity
  8
0
  6
ByBlock
 62
     0
370
    -2
100
AcDbLine
 10
-23.05591837800944
 20
-228.0914699188691
 30
0.0
 11
-23.05591837800944
 21
-100.6528889128446
 31
0.0
  0
LINE
  5
2DC
330
2D8
100
AcDbEntity
  8
0
  6
ByBlock
 62
     0
370
    -2
100
AcDbLine
 10
-26.16991837800944
 20
-102.9388889128446
 30
0.0
 11
-79.94191837800943
 21
-102.9388889128446
 31
0.0
  0
INSERT
  5
2DD
330
2D8
100
AcDbEntity
  8
0
 62
     0
370
    -2
100
AcDbBlockReference
  2
_Open
 10
-23.05591837800944
 20
-102.9388889128446
 30
0.0
 41
3.114
 42
3.114
 43
3.114
  0
INSERT
  5
2DE
330
2D8
100
AcDbEntity
  8
0
 62
     0
370
    -2
100
AcDbBlockReference
  2
_Open
 10
-83.05591837800944
 20
-102.9388889128446
 30
0.0
 41
3.114
 42
3.114
 43
3.114
 50
180.0
  0
MTEXT
  5
2DF
330
2D8
100
AcDbEntity
  8
0
 62
     0
100
AcDbMText
 10
-53.05391837800944
 20
-99.93888891284459
 30
0.0
 40
4.0
 41
0.0
 71
     5
 72
     1
  1
60
 73
     1
 44
1.0
  0
POINT
  5
2E0
330
2D8
100
AcDbEntity
  8
Defpoints
 62
     0
100
AcDbPoint
 10
-23.05591837800944
 20
-228.0914699188691
 30
0.0
  0
POINT
  5
2E1
330
2D8
100
AcDbEntity
  8
Defpoints
 62
     0
100
AcDbPoint
 10
-83.05591837800944
 20
-223.2794582001191
 30
0.0
  0
POINT
  5
2E2
330
2D8
100
AcDbEntity
  8
Defpoints
 62
     0
100
AcDbPoint
 10
-83.05591837800944
 20
-102.9388889128446
 30
0.0
  0
ENDBLK
  5
2DA
330
2D8
100
AcDbEntity
  8
0
100
AcDbBlockEnd
  0
BLOCK
  5
2E5
330
2E4
100
AcDbEntity
  8
0
100
AcDbBlockBegin
  2
*D16
 70
     1
 10
0.0
 20
0.0
 30
0.0
  3
*D16
  1

  0
LINE
  5
2E7
330
2E4
100
AcDbEntity
  8
0
  6
ByBlock
 62
     0
370
    -2
100
AcDbLine
 10
-63.05591837800944
 20
-279.079458200119
 30
0.0
 11
-63.05591837800944
 21
-307.8104707953767
 31
0.0
  0
LINE
  5
2E8
330
2E4
100
AcDbEntity
  8
0
  6
ByBlock
 62
     0
370
    -2
100
AcDbLine
 10
-48.05591837800944
 20
-279.079458200119
 30
0.0
 11
-48.05591837800944
 21
-307.8104707953767
 31
0.0
  0
LINE
  5
2E9
330
2E4
100
AcDbEntity
  8
0
  6
ByBlock
 62
     0
370
    -2
100
AcDbLine
 10
-59.94191837800944
 20
-305.5244707953766
 30
0.0
 11
-51.16991837800943
 21
-305.5244707953766
 31
0.0
  0
INSERT
  5
2EA
330
2E4
100
AcDbEntity
  8
0
 62
     0
370
    -2
100
AcDbBlockReference
  2
_Open
 10
-63.05591837800944
 20
-305.5244707953766
 30
0.0
 41
3.114
 42
3.114
 43
3.114
 50
180.0
  0
INSERT
  5
2EB
330
2E4
100
AcDbEntity
  8
0
 62
     0
370
    -2
100
AcDbBlockReference
  2
_Open
 10
-48.05591837800944
 20
-305.5244707953766
 30
0.0
 41
3.114
 42
3.114
 43
3.114
  0
MTEXT
  5
2EC
330
2E4
100
AcDbEntity
  8
0
 62
     0
100
AcDbMText
 10
-55.55491837800944
 20
-302.5244707953766
 30
0.0
 40
4.0
 41
0.0
 71
     5
 72
     1
  1
15
 73
     1
 44
1.0
  0
POINT
  5
2ED
330
2E4
100
AcDbEntity
  8
Defpoints
 62
     0
100
AcDbPoint
 10
-63.05591837800944
 20
-279.079458200119
 30
0.0
  0
POINT
  5
2EE
330
2E4
100
AcDbEntity
  8
Defpoints
 62
     0
100
AcDbPoint
 10
-48.05591837800944
 20
-279.079458200119
 30
0.0
  0
POINT
  5
2EF
330
2E4
100
AcDbEntity
  8
Defpoints
 62
     0
100
AcDbPoint
 10
-48.05591837800944
 20
-305.5254707953766
 30
0.0
  0
ENDBLK
  5
2E6
330
2E4
100
AcDbEntity
  8
0
100
AcDbBlockEnd
  0
BLOCK
  5
2F2
330
2F1
100
AcDbEntity
  8
0
100
AcDbBlockBegin
  2
*D17
 70
     1
 10
0.0
 20
0.0
 30
0.0
  3
*D17
  1

  0
LINE
  5
2F4
330
2F1
100
AcDbEntity
  8
0
  6
ByBlock
 62
     0
370
    -2
100
AcDbLine
 10
-110.055918378009
 20
-222.2794678825976
 30
0.0
 11
-90.14719666275938
 21
-222.2794678825976
 31
0.0
  0
LINE
  5
2F5
330
2F1
100
AcDbEntity
  8
0
  6
ByBlock
 62
     0
370
    -2
100
AcDbLine
 10
-110.055918378009
 20
-272.2794170608423
 30
0.0
 11
-90.14719666275937
 21
-272.2794170608423
 31
0.0
  0
LINE
  5
2F6
330
2F1
100
AcDbEntity
  8
0
  6
ByBlock
 62
     0
370
    -2
100
AcDbLine
 10
-92.43319666275931
 20
-272.2794170608423
 30
0.0
 11
-92.43319666275931
 21
-293.8527698366541
 31
0.0
  0
LINE
  5
2F7
330
2F1
100
AcDbEntity
  8
0
  6
ByBlock
 62
     0
370
    -2
100
AcDbLine
 10
-92.43319666275933
 20
-225.3934678825976
 30
0.0
 11
-92.43319666275931
 21
-269.1654170608423
 31
0.0
  0
INSERT
  5
2F8
330
2F1
100
AcDbEntity
  8
0
 62
     0
370
    -2
100
AcDbBlockReference
  2
_Open
 10
-92.43319666275933
 20
-222.2794678825976
 30
0.0
 41
3.114
 42
3.114
 43
3.114
 50
90.00000000000001
  0
INSERT
  5
2F9
330
2F1
100
AcDbEntity
  8
0
 62
     0
370
    -2
100
AcDbBlockReference
  2
_Open
 10
-92.43319666275931
 20
-272.2794170608423
 30
0.0
 41
3.114
 42
3.114
 43
3.114
 50
270.0
  0
MTEXT
  5
2FA
330
2F1
100
AcDbEntity
  8
0
 62
     0
100
AcDbMText
 10
-95.43319666275931
 20
-287.8051507890351
 30
0.0
 40
4.0
 41
0.0
 71
     5
 72
     1
  1
\U+220550
 11
-2.842173831925658E-16
 21
1.0
 31
0.0
 73
     1
 44
1.0
  0
POINT
  5
2FB
330
2F1
100
AcDbEntity
  8
Defpoints
 62
     0
100
AcDbPoint
 10
-110.055918378009
 20
-222.2794678825976
 30
0.0
  0
POINT
  5
2FC
330
2F1
100
AcDbEntity
  8
Defpoints
 62
     0
100
AcDbPoint
 10
-110.055918378009
 20
-272.2794170608423
 30
0.0
  0
POINT
  5
2FD
330
2F1
100
AcDbEntity
  8
Defpoints
 62
     0
100
AcDbPoint
 10
-92.43319666275931
 20
-272.2794170608423
 30
0.0
  0
ENDBLK
  5
2F3
330
2F1
100
AcDbEntity
  8
0
100
AcDbBlockEnd
  0
BLOCK
  5
305
330
2FE
100
AcDbEntity
  8
0
100
AcDbBlockBegin
  2
SYM0001
 70
     0
 10
0.0
 20
0.0
 30
0.0
  3
SYM0001
  1

  0
LINE
  5
2FF
330
2FE
100
AcDbEntity
  8
0
  6
Continuous
 62
     7
100
AcDbLine
 10
0.0
 20
0.0
 30
0.0
 11
-11.23990317425461
 21
16.82668588539335
 31
0.0
  0
LINE
  5
300
330
2FE
100
AcDbEntity
  8
0
  6
Continuous
 62
     7
100
AcDbLine
 10
0.0
 20
0.0
 30
0.0
 11
-2.377241007699979
 21
2.085359727277336
 31
0.0
  0
LINE
  5
301
330
2FE
100
AcDbEntity
  8
0
  6
Continuous
 62
     7
100
AcDbLine
 10
0.0
 20
0.0
 30
0.0
 11
-1.016071240120596
 21
2.994595003642445
 31
0.0
  0
LINE
  5
302
330
2FE
100
AcDbEntity
  8
0
  6
Continuous
 62
     7
100
AcDbLine
 10
-11.23990317425458
 20
16.82668588539337
 30
0.0
 11
-18.03022615839049
 21
16.82668588539335
 31
0.0
  0
MTEXT
  5
303
330
2FE
100
AcDbEntity
  8
0
 62
     7
100
AcDbMText
 10
-47.17322699953129
 20
14.82668588539335
 30
0.0
 40
4.0
 41
0.0
 71
     7
 72
     1
  1
{\W1;2-Rc3/4}
 73
     1
 44
1.0
  0
ENDBLK
  5
306
330
2FE
100
AcDbEntity
  8
0
100
AcDbBlockEnd
  0
BLOCK
  5
30E
330
307
100
AcDbEntity
  8
0
100
AcDbBlockBegin
  2
SYM0002
 70
     0
 10
0.0
 20
0.0
 30
0.0
  3
SYM0002
  1

  0
LINE
  5
308
330
307
100
AcDbEntity
  8
0
  6
Continuous
 62
     7
100
AcDbLine
 10
0.0
 20
0.0
 30
0.0
 11
6.569673814322528
 21
9.842665941734253
 31
0.0
  0
LINE
  5
309
330
307
100
AcDbEntity
  8
0
  6
Continuous
 62
     7
100
AcDbLine
 10
0.0
 20
0.0
 30
0.0
 11
1.015011027483588
 21
2.994954526353837
 31
0.0
  0
LINE
  5
30A
330
307
100
AcDbEntity
  8
0
  6
Continuous
 62
     7
100
AcDbLine
 10
0.0
 20
0.0
 30
0.0
 11
2.376502597978551
 21
2.086201189397087
 31
0.0
  0
LINE
  5
30B
330
307
100
AcDbEntity
  8
0
  6
Continuous
 62
     7
100
AcDbLine
 10
6.569673814322513
 20
9.842665941734253
 30
0.0
 11
19.68715728176592
 21
9.842665941734197
 31
0.0
  0
MTEXT
  5
30C
330
307
100
AcDbEntity
  8
0
 62
     7
100
AcDbMText
 10
21.97315729511734
 20
7.842665941734055
 30
0.0
 40
4.0
 41
0.0
 71
     7
 72
     1
  1
{\W0.833333;M40×1.5}
 73
     1
 44
1.0
  0
ENDBLK
  5
30F
330
307
100
AcDbEntity
  8
0
100
AcDbBlockEnd
  0
BLOCK
  5
312
330
311
100
AcDbEntity
  8
0
100
AcDbBlockBegin
  2
*D20
 70
     1
 10
0.0
 20
0.0
 30
0.0
  3
*D20
  1

  0
LINE
  5
314
330
311
100
AcDbEntity
  8
0
  6
ByBlock
 62
     0
370
    -2
100
AcDbLine
 10
-390.0559488955876
 20
-159.7794939331018
 30
0.0
 11
-390.0559488955876
 21
-80.78995840431946
 31
0.0
  0
LINE
  5
315
330
311
100
AcDbEntity
  8
0
  6
ByBlock
 62
     0
370
    -2
100
AcDbLine
 10
-23.05591837800944
 20
-228.0914699188691
 30
0.0
 11
-23.05591837800944
 21
-80.7899584043195
 31
0.0
  0
LINE
  5
316
330
311
100
AcDbEntity
  8
0
  6
ByBlock
 62
     0
370
    -2
100
AcDbLine
 10
-386.9419488955876
 20
-83.07595840431946
 30
0.0
 11
-26.16991837800944
 21
-83.07595840431951
 31
0.0
  0
INSERT
  5
317
330
311
100
AcDbEntity
  8
0
 62
     0
370
    -2
100
AcDbBlockReference
  2
_Open
 10
-390.0559488955876
 20
-83.07595840431946
 30
0.0
 41
3.114
 42
3.114
 43
3.114
 50
180.0
  0
INSERT
  5
318
330
311
100
AcDbEntity
  8
0
 62
     0
370
    -2
100
AcDbBlockReference
  2
_Open
 10
-23.05591837800944
 20
-83.07595840431951
 30
0.0
 41
3.114
 42
3.114
 43
3.114
 50
360.0
  0
MTEXT
  5
319
330
311
100
AcDbEntity
  8
0
 62
     0
100
AcDbMText
 10
-206.5549336367985
 20
-79.58702505431324
 30
0.0
 40
4.0
 41
0.0
 71
     5
 72
     1
  1
317+ストローク
 73
     1
 44
1.0
  0
POINT
  5
31A
330
311
100
AcDbEntity
  8
Defpoints
 62
     0
100
AcDbPoint
 10
-390.0559488955876
 20
-159.7794939331018
 30
0.0
  0
POINT
  5
31B
330
311
100
AcDbEntity
  8
Defpoints
 62
     0
100
AcDbPoint
 10
-23.05591837800944
 20
-228.0914699188691
 30
0.0
  0
POINT
  5
31C
330
311
100
AcDbEntity
  8
Defpoints
 62
     0
100
AcDbPoint
 10
-23.05591837800944
 20
-83.0759584043195
 30
0.0
  0
ENDBLK
  5
313
330
311
100
AcDbEntity
  8
0
100
AcDbBlockEnd
  0
BLOCK
  5
31F
330
31E
100
AcDbEntity
  8
0
100
AcDbBlockBegin
  2
*D21
 70
     1
 10
0.0
 20
0.0
 30
0.0
  3
*D21
  1

  0
LINE
  5
321
330
31E
100
AcDbEntity
  8
0
  6
ByBlock
 62
     0
370
    -2
100
AcDbLine
 10
179.6684291454546
 20
-145.0281707237374
 30
0.0
 11
179.6684291454546
 21
-109.4571586002993
 31
0.0
  0
LINE
  5
322
330
31E
100
AcDbEntity
  8
0
  6
ByBlock
 62
     0
370
    -2
100
AcDbLine
 10
334.6683070751421
 20
-145.0281707237374
 30
0.0
 11
334.6683070751421
 21
-109.4571586002993
 31
0.0
  0
LINE
  5
323
330
31E
100
AcDbEntity
  8
0
  6
ByBlock
 62
     0
370
    -2
100
AcDbLine
 10
182.7824291454546
 20
-111.7431586002993
 30
0.0
 11
331.5543070751422
 21
-111.7431586002993
 31
0.0
  0
INSERT
  5
324
330
31E
100
AcDbEntity
  8
0
 62
     0
370
    -2
100
AcDbBlockReference
  2
_Open
 10
179.6684291454546
 20
-111.7431586002993
 30
0.0
 41
3.114
 42
3.114
 43
3.114
 50
180.0
  0
INSERT
  5
325
330
31E
100
AcDbEntity
  8
0
 62
     0
370
    -2
100
AcDbBlockReference
  2
_Open
 10
334.6683070751421
 20
-111.7431586002993
 30
0.0
 41
3.114
 42
3.114
 43
3.114
 50
360.0
  0
MTEXT
  5
326
330
31E
100
AcDbEntity
  8
0
 62
     0
100
AcDbMText
 10
257.1693681102984
 20
-108.7431586002993
 30
0.0
 40
4.0
 41
0.0
 71
     5
 72
     1
  1
155
 73
     1
 44
1.0
  0
POINT
  5
327
330
31E
100
AcDbEntity
  8
Defpoints
 62
     0
100
AcDbPoint
 10
179.6684291454546
 20
-145.0281707237374
 30
0.0
  0
POINT
  5
328
330
31E
100
AcDbEntity
  8
Defpoints
 62
     0
100
AcDbPoint
 10
334.6683070751421
 20
-145.0281707237374
 30
0.0
  0
POINT
  5
329
330
31E
100
AcDbEntity
  8
Defpoints
 62
     0
100
AcDbPoint
 10
334.6683070751421
 20
-111.7431586002993
 30
0.0
  0
ENDBLK
  5
320
330
31E
100
AcDbEntity
  8
0
100
AcDbBlockEnd
  0
BLOCK
  5
32C
330
32B
100
AcDbEntity
  8
0
100
AcDbBlockBegin
  2
*D22
 70
     1
 10
0.0
 20
0.0
 30
0.0
  3
*D22
  1

  0
LINE
  5
32E
330
32B
100
AcDbEntity
  8
0
  6
ByBlock
 62
     0
370
    -2
100
AcDbLine
 10
158.1684291454546
 20
-169.779457787166
 30
0.0
 11
158.1684291454546
 21
-100.6528889128446
 31
0.0
  0
LINE
  5
32F
330
32B
100
AcDbEntity
  8
0
  6
ByBlock
 62
     0
370
    -2
100
AcDbLine
 10
356.1683070751421
 20
-169.779457787166
 30
0.0
 11
356.1683070751421
 21
-100.6528889128446
 31
0.0
  0
LINE
  5
330
330
32B
100
AcDbEntity
  8
0
  6
ByBlock
 62
     0
370
    -2
100
AcDbLine
 10
161.2824291454546
 20
-102.9388889128446
 30
0.0
 11
353.0543070751422
 21
-102.9388889128446
 31
0.0
  0
INSERT
  5
331
330
32B
100
AcDbEntity
  8
0
 62
     0
370
    -2
100
AcDbBlockReference
  2
_Open
 10
158.1684291454546
 20
-102.9388889128446
 30
0.0
 41
3.114
 42
3.114
 43
3.114
 50
180.0
  0
INSERT
  5
332
330
32B
100
AcDbEntity
  8
0
 62
     0
370
    -2
100
AcDbBlockReference
  2
_Open
 10
356.1683070751421
 20
-102.9388889128446
 30
0.0
 41
3.114
 42
3.114
 43
3.114
 50
360.0
  0
MTEXT
  5
333
330
32B
100
AcDbEntity
  8
0
 62
     0
100
AcDbMText
 10
257.1693681102984
 20
-99.93888891284459
 30
0.0
 40
4.0
 41
0.0
 71
     5
 72
     1
  1
198
 73
     1
 44
1.0
  0
POINT
  5
334
330
32B
100
AcDbEntity
  8
Defpoints
 62
     0
100
AcDbPoint
 10
158.1684291454546
 20
-169.779457787166
 30
0.0
  0
POINT
  5
335
330
32B
100
AcDbEntity
  8
Defpoints
 62
     0
100
AcDbPoint
 10
356.1683070751421
 20
-169.779457787166
 30
0.0
  0
POINT
  5
336
330
32B
100
AcDbEntity
  8
Defpoints
 62
     0
100
AcDbPoint
 10
356.1683070751421
 20
-102.9388889128446
 30
0.0
  0
ENDBLK
  5
32D
330
32B
100
AcDbEntity
  8
0
100
AcDbBlockEnd
  0
BLOCK
  5
339
330
338
100
AcDbEntity
  8
0
100
AcDbBlockBegin
  2
*D23
 70
     1
 10
0.0
 20
0.0
 30
0.0
  3
*D23
  1

  0
LINE
  5
33B
330
338
100
AcDbEntity
  8
0
  6
ByBlock
 62
     0
370
    -2
100
AcDbLine
 10
149.6684291454546
 20
-207.2794582001191
 30
0.0
 11
149.6684291454546
 21
-90.53461942661177
 31
0.0
  0
LINE
  5
33C
330
338
100
AcDbEntity
  8
0
  6
ByBlock
 62
     0
370
    -2
100
AcDbLine
 10
364.6684291454546
 20
-207.2794582001191
 30
0.0
 11
364.6684291454546
 21
-90.5346194266118
 31
0.0
  0
LINE
  5
33D
330
338
100
AcDbEntity
  8
0
  6
ByBlock
 62
     0
370
    -2
100
AcDbLine
 10
152.7824291454546
 20
-92.82061942661177
 30
0.0
 11
361.5544291454547
 21
-92.8206194266118
 31
0.0
  0
INSERT
  5
33E
330
338
100
AcDbEntity
  8
0
 62
     0
370
    -2
100
AcDbBlockReference
  2
_Open
 10
149.6684291454546
 20
-92.82061942661177
 30
0.0
 41
3.114
 42
3.114
 43
3.114
 50
180.0
  0
INSERT
  5
33F
330
338
100
AcDbEntity
  8
0
 62
     0
370
    -2
100
AcDbBlockReference
  2
_Open
 10
364.6684291454546
 20
-92.8206194266118
 30
0.0
 41
3.114
 42
3.114
 43
3.114
 50
360.0
  0
MTEXT
  5
340
330
338
100
AcDbEntity
  8
0
 62
     0
100
AcDbMText
 10
257.1694291454546
 20
-89.82061942661178
 30
0.0
 40
4.0
 41
0.0
 71
     5
 72
     1
  1
215
 73
     1
 44
1.0
  0
POINT
  5
341
330
338
100
AcDbEntity
  8
Defpoints
 62
     0
100
AcDbPoint
 10
149.6684291454546
 20
-207.2794582001191
 30
0.0
  0
POINT
  5
342
330
338
100
AcDbEntity
  8
Defpoints
 62
     0
100
AcDbPoint
 10
364.6684291454546
 20
-207.2794582001191
 30
0.0
  0
POINT
  5
343
330
338
100
AcDbEntity
  8
Defpoints
 62
     0
100
AcDbPoint
 10
364.6684291454546
 20
-92.82061942661178
 30
0.0
  0
ENDBLK
  5
33A
330
338
100
AcDbEntity
  8
0
100
AcDbBlockEnd
  0
BLOCK
  5
346
330
345
100
AcDbEntity
  8
0
100
AcDbBlockBegin
  2
*D24
 70
     1
 10
0.0
 20
0.0
 30
0.0
  3
*D24
  1

  0
LINE
  5
348
330
345
100
AcDbEntity
  8
0
  6
ByBlock
 62
     0
370
    -2
100
AcDbLine
 10
117.1684291454546
 20
-212.2794582001191
 30
0.0
 11
117.1684291454546
 21
-80.78995840431948
 31
0.0
  0
LINE
  5
349
330
345
100
AcDbEntity
  8
0
  6
ByBlock
 62
     0
370
    -2
100
AcDbLine
 10
397.1684291454546
 20
-212.2794582001191
 30
0.0
 11
397.1684291454546
 21
-80.7899584043195
 31
0.0
  0
LINE
  5
34A
330
345
100
AcDbEntity
  8
0
  6
ByBlock
 62
     0
370
    -2
100
AcDbLine
 10
120.2824291454546
 20
-83.07595840431948
 30
0.0
 11
394.0544291454547
 21
-83.07595840431951
 31
0.0
  0
INSERT
  5
34B
330
345
100
AcDbEntity
  8
0
 62
     0
370
    -2
100
AcDbBlockReference
  2
_Open
 10
117.1684291454546
 20
-83.07595840431948
 30
0.0
 41
3.114
 42
3.114
 43
3.114
 50
180.0
  0
INSERT
  5
34C
330
345
100
AcDbEntity
  8
0
 62
     0
370
    -2
100
AcDbBlockReference
  2
_Open
 10
397.1684291454546
 20
-83.07595840431951
 30
0.0
 41
3.114
 42
3.114
 43
3.114
 50
360.0
  0
MTEXT
  5
34D
330
345
100
AcDbEntity
  8
0
 62
     0
100
AcDbMText
 10
257.1694291454546
 20
-80.0759584043195
 30
0.0
 40
4.0
 41
0.0
 71
     5
 72
     1
  1
280
 73
     1
 44
1.0
  0
POINT
  5
34E
330
345
100
AcDbEntity
  8
Defpoints
 62
     0
100
AcDbPoint
 10
117.1684291454546
 20
-212.2794582001191
 30
0.0
  0
POINT
  5
34F
330
345
100
AcDbEntity
  8
Defpoints
 62
     0
100
AcDbPoint
 10
397.1684291454546
 20
-212.2794582001191
 30
0.0
  0
POINT
  5
350
330
345
100
AcDbEntity
  8
Defpoints
 62
     0
100
AcDbPoint
 10
397.1684291454546
 20
-83.0759584043195
 30
0.0
  0
ENDBLK
  5
347
330
345
100
AcDbEntity
  8
0
100
AcDbBlockEnd
  0
BLOCK
  5
353
330
352
100
AcDbEntity
  8
0
100
AcDbBlockBegin
  2
*D25
 70
     1
 10
0.0
 20
0.0
 30
0.0
  3
*D25
  1

  0
LINE
  5
355
330
352
100
AcDbEntity
  8
0
  6
ByBlock
 62
     0
370
    -2
100
AcDbLine
 10
117.1684291454546
 20
-212.2794582001191
 30
0.0
 11
117.1684291454546
 21
-241.838144639486
 31
0.0
  0
LINE
  5
356
330
352
100
AcDbEntity
  8
0
  6
ByBlock
 62
     0
370
    -2
100
AcDbLine
 10
120.2824291454546
 20
-239.5521446394861
 30
0.0
 11
154.0544291454546
 21
-239.5521446394861
 31
0.0
  0
INSERT
  5
357
330
352
100
AcDbEntity
  8
0
 62
     0
370
    -2
100
AcDbBlockReference
  2
_Open
 10
117.1684291454546
 20
-239.5521446394861
 30
0.0
 41
3.114
 42
3.114
 43
3.114
 50
180.0
  0
INSERT
  5
358
330
352
100
AcDbEntity
  8
0
 62
     0
370
    -2
100
AcDbBlockReference
  2
_Open
 10
157.1684291454546
 20
-239.5521446394861
 30
0.0
 41
3.114
 42
3.114
 43
3.114
  0
MTEXT
  5
359
330
352
100
AcDbEntity
  8
0
 62
     0
100
AcDbMText
 10
135.7595580993411
 20
-236.5521446394861
 30
0.0
 40
4.0
 41
0.0
 71
     5
 72
     1
  1
40
 73
     1
 44
1.0
  0
POINT
  5
35A
330
352
100
AcDbEntity
  8
Defpoints
 62
     0
100
AcDbPoint
 10
117.1684291454546
 20
-212.2794582001191
 30
0.0
  0
POINT
  5
35B
330
352
100
AcDbEntity
  8
Defpoints
 62
     0
100
AcDbPoint
 10
157.1684291454546
 20
-229.2794582001191
 30
0.0
  0
POINT
  5
35C
330
352
100
AcDbEntity
  8
Defpoints
 62
     0
100
AcDbPoint
 10
157.1684291454546
 20
-239.5531446394861
 30
0.0
  0
ENDBLK
  5
354
330
352
100
AcDbEntity
  8
0
100
AcDbBlockEnd
  0
BLOCK
  5
35F
330
35E
100
AcDbEntity
  8
0
100
AcDbBlockBegin
  2
*D26
 70
     1
 10
0.0
 20
0.0
 30
0.0
  3
*D26
  1

  0
LINE
  5
361
330
35E
100
AcDbEntity
  8
0
  6
ByBlock
 62
     0
370
    -2
100
AcDbLine
 10
117.1684291454546
 20
-229.2794582001191
 30
0.0
 11
88.24065513264559
 21
-229.2794582001191
 31
0.0
  0
LINE
  5
362
330
35E
100
AcDbEntity
  8
0
  6
ByBlock
 62
     0
370
    -2
100
AcDbLine
 10
117.1684291454546
 20
-265.2794582001191
 30
0.0
 11
88.2406551326456
 21
-265.2794582001191
 31
0.0
  0
LINE
  5
363
330
35E
100
AcDbEntity
  8
0
  6
ByBlock
 62
     0
370
    -2
100
AcDbLine
 10
90.52665513264559
 20
-229.2794582001191
 30
0.0
 11
90.52665513264553
 21
-90.38379514541288
 31
0.0
  0
LINE
  5
364
330
35E
100
AcDbEntity
  8
0
  6
ByBlock
 62
     0
370
    -2
100
AcDbLine
 10
90.52665513264559
 20
-232.3934582001191
 30
0.0
 11
90.5266551326456
 21
-262.1654582001191
 31
0.0
  0
INSERT
  5
365
330
35E
100
AcDbEntity
  8
0
 62
     0
370
    -2
100
AcDbBlockReference
  2
_Open
 10
90.52665513264559
 20
-229.2794582001191
 30
0.0
 41
3.114
 42
3.114
 43
3.114
 50
90.00000000000001
  0
INSERT
  5
366
330
35E
100
AcDbEntity
  8
0
 62
     0
370
    -2
100
AcDbBlockReference
  2
_Open
 10
90.5266551326456
 20
-265.2794582001191
 30
0.0
 41
3.114
 42
3.114
 43
3.114
 50
270.0
  0
MTEXT
  5
367
330
35E
100
AcDbEntity
  8
0
 62
     0
100
AcDbMText
 10
86.4790360850265
 20
-110.2409380025557
 30
0.0
 40
4.0
 41
0.0
 71
     5
 72
     1
  1
\A1;\U+220536H10({\H0.5x;\S+0.100^  0;})
 11
-3.947459643111671E-16
 21
1.0
 31
0.0
 73
     1
 44
1.0
  0
POINT
  5
368
330
35E
100
AcDbEntity
  8
Defpoints
 62
     0
100
AcDbPoint
 10
117.1684291454546
 20
-229.2794582001191
 30
0.0
  0
POINT
  5
369
330
35E
100
AcDbEntity
  8
Defpoints
 62
     0
100
AcDbPoint
 10
117.1684291454546
 20
-265.2794582001191
 30
0.0
  0
POINT
  5
36A
330
35E
100
AcDbEntity
  8
Defpoints
 62
     0
100
AcDbPoint
 10
90.52465513264553
 20
-265.2794582001191
 30
0.0
  0
ENDBLK
  5
360
330
35E
100
AcDbEntity
  8
0
100
AcDbBlockEnd
  0
BLOCK
  5
36D
330
36C
100
AcDbEntity
  8
0
100
AcDbBlockBegin
  2
*D27
 70
     1
 10
0.0
 20
0.0
 30
0.0
  3
*D27
  1

  0
LINE
  5
36F
330
36C
100
AcDbEntity
  8
0
  6
ByBlock
 62
     0
370
    -2
100
AcDbLine
 10
117.1684291454546
 20
-212.2794582001191
 30
0.0
 11
76.622323202284
 21
-212.2794582001191
 31
0.0
  0
LINE
  5
370
330
36C
100
AcDbEntity
  8
0
  6
ByBlock
 62
     0
370
    -2
100
AcDbLine
 10
117.1684291454546
 20
-282.2794582001191
 30
0.0
 11
76.62232320228402
 21
-282.2794582001191
 31
0.0
  0
LINE
  5
371
330
36C
100
AcDbEntity
  8
0
  6
ByBlock
 62
     0
370
    -2
100
AcDbLine
 10
78.908323202284
 20
-215.3934582001191
 30
0.0
 11
78.90832320228402
 21
-279.1654582001191
 31
0.0
  0
INSERT
  5
372
330
36C
100
AcDbEntity
  8
0
 62
     0
370
    -2
100
AcDbBlockReference
  2
_Open
 10
78.908323202284
 20
-212.2794582001191
 30
0.0
 41
3.114
 42
3.114
 43
3.114
 50
90.00000000000001
  0
INSERT
  5
373
330
36C
100
AcDbEntity
  8
0
 62
     0
370
    -2
100
AcDbBlockReference
  2
_Open
 10
78.90832320228402
 20
-282.2794582001191
 30
0.0
 41
3.114
 42
3.114
 43
3.114
 50
270.0
  0
MTEXT
  5
374
330
36C
100
AcDbEntity
  8
0
 62
     0
100
AcDbMText
 10
75.90832320228401
 20
-247.2784582001191
 30
0.0
 40
4.0
 41
0.0
 71
     5
 72
     1
  1
\A1;\U+220570
 11
-4.060244204343433E-16
 21
1.0
 31
0.0
 73
     1
 44
1.0
  0
POINT
  5
375
330
36C
100
AcDbEntity
  8
Defpoints
 62
     0
100
AcDbPoint
 10
117.1684291454546
 20
-212.2794582001191
 30
0.0
  0
POINT
  5
376
330
36C
100
AcDbEntity
  8
Defpoints
 62
     0
100
AcDbPoint
 10
117.1684291454546
 20
-282.2794582001191
 30
0.0
  0
POINT
  5
377
330
36C
100
AcDbEntity
  8
Defpoints
 62
     0
100
AcDbPoint
 10
78.906323202284
 20
-282.2794582001191
 30
0.0
  0
ENDBLK
  5
36E
330
36C
100
AcDbEntity
  8
0
100
AcDbBlockEnd
  0
BLOCK
  5
37A
330
379
100
AcDbEntity
  8
0
100
AcDbBlockBegin
  2
*D28
 70
     1
 10
0.0
 20
0.0
 30
0.0
  3
*D28
  1

  0
LINE
  5
37C
330
379
100
AcDbEntity
  8
0
  6
ByBlock
 62
     0
370
    -2
100
AcDbLine
 10
155.2685763754755
 20
-169.7794582001191
 30
0.0
 11
66.80867463263908
 21
-169.7794582001191
 31
0.0
  0
LINE
  5
37D
330
379
100
AcDbEntity
  8
0
  6
ByBlock
 62
     0
370
    -2
100
AcDbLine
 10
155.2685763754755
 20
-324.7794582001191
 30
0.0
 11
66.80867463263914
 21
-324.7794582001191
 31
0.0
  0
LINE
  5
37E
330
379
100
AcDbEntity
  8
0
  6
ByBlock
 62
     0
370
    -2
100
AcDbLine
 10
69.09467463263908
 20
-172.8934582001191
 30
0.0
 11
69.09467463263914
 21
-321.6654582001191
 31
0.0
  0
INSERT
  5
37F
330
379
100
AcDbEntity
  8
0
 62
     0
370
    -2
100
AcDbBlockReference
  2
_Open
 10
69.09467463263908
 20
-169.7794582001191
 30
0.0
 41
3.114
 42
3.114
 43
3.114
 50
90.00000000000001
  0
INSERT
  5
380
330
379
100
AcDbEntity
  8
0
 62
     0
370
    -2
100
AcDbBlockReference
  2
_Open
 10
69.09467463263914
 20
-324.7794582001191
 30
0.0
 41
3.114
 42
3.114
 43
3.114
 50
270.0
  0
MTEXT
  5
381
330
379
100
AcDbEntity
  8
0
 62
     0
100
AcDbMText
 10
66.09467463263911
 20
-247.2784582001191
 30
0.0
 40
4.0
 41
0.0
 71
     5
 72
     1
  1
155
 11
-3.667317345858583E-16
 21
1.0
 31
0.0
 73
     1
 44
1.0
  0
POINT
  5
382
330
379
100
AcDbEntity
  8
Defpoints
 62
     0
100
AcDbPoint
 10
155.2685763754755
 20
-169.7794582001191
 30
0.0
  0
POINT
  5
383
330
379
100
AcDbEntity
  8
Defpoints
 62
     0
100
AcDbPoint
 10
155.2685763754755
 20
-324.7794582001191
 30
0.0
  0
POINT
  5
384
330
379
100
AcDbEntity
  8
Defpoints
 62
     0
100
AcDbPoint
 10
69.0926746326391
 20
-324.7794582001191
 30
0.0
  0
ENDBLK
  5
37B
330
379
100
AcDbEntity
  8
0
100
AcDbBlockEnd
  0
BLOCK
  5
387
330
386
100
AcDbEntity
  8
0
100
AcDbBlockBegin
  2
*D29
 70
     1
 10
0.0
 20
0.0
 30
0.0
  3
*D29
  1

  0
LINE
  5
389
330
386
100
AcDbEntity
  8
0
  6
ByBlock
 62
     0
370
    -2
100
AcDbLine
 10
179.6684287325018
 20
-148.2794582001191
 30
0.0
 11
57.50661729666911
 21
-148.2794582001191
 31
0.0
  0
LINE
  5
38A
330
386
100
AcDbEntity
  8
0
  6
ByBlock
 62
     0
370
    -2
100
AcDbLine
 10
179.6684287325018
 20
-346.2794582001191
 30
0.0
 11
57.50661729666919
 21
-346.2794582001191
 31
0.0
  0
LINE
  5
38B
330
386
100
AcDbEntity
  8
0
  6
ByBlock
 62
     0
370
    -2
100
AcDbLine
 10
59.79261729666911
 20
-151.3934582001191
 30
0.0
 11
59.79261729666919
 21
-343.1654582001191
 31
0.0
  0
INSERT
  5
38C
330
386
100
AcDbEntity
  8
0
 62
     0
370
    -2
100
AcDbBlockReference
  2
_Open
 10
59.79261729666911
 20
-148.2794582001191
 30
0.0
 41
3.114
 42
3.114
 43
3.114
 50
90.00000000000001
  0
INSERT
  5
38D
330
386
100
AcDbEntity
  8
0
 62
     0
370
    -2
100
AcDbBlockReference
  2
_Open
 10
59.79261729666919
 20
-346.2794582001191
 30
0.0
 41
3.114
 42
3.114
 43
3.114
 50
270.0
  0
MTEXT
  5
38E
330
386
100
AcDbEntity
  8
0
 62
     0
100
AcDbMText
 10
56.79261729666915
 20
-247.2784582001191
 30
0.0
 40
4.0
 41
0.0
 71
     5
 72
     1
  1
198
 11
-3.947459643111669E-16
 21
1.0
 31
0.0
 73
     1
 44
1.0
  0
POINT
  5
38F
330
386
100
AcDbEntity
  8
Defpoints
 62
     0
100
AcDbPoint
 10
179.6684287325018
 20
-148.2794582001191
 30
0.0
  0
POINT
  5
390
330
386
100
AcDbEntity
  8
Defpoints
 62
     0
100
AcDbPoint
 10
179.6684287325018
 20
-346.2794582001191
 30
0.0
  0
POINT
  5
391
330
386
100
AcDbEntity
  8
Defpoints
 62
     0
100
AcDbPoint
 10
59.79061729666915
 20
-346.2794582001191
 30
0.0
  0
ENDBLK
  5
388
330
386
100
AcDbEntity
  8
0
100
AcDbBlockEnd
  0
BLOCK
  5
394
330
393
100
AcDbEntity
  8
0
100
AcDbBlockBegin
  2
*D30
 70
     1
 10
0.0
 20
0.0
 30
0.0
  3
*D30
  1

  0
LINE
  5
396
330
393
100
AcDbEntity
  8
0
  6
ByBlock
 62
     0
370
    -2
100
AcDbLine
 10
257.1684291454546
 20
-137.2794582001191
 30
0.0
 11
47.94737647645132
 21
-137.2794582001192
 31
0.0
  0
LINE
  5
397
330
393
100
AcDbEntity
  8
0
  6
ByBlock
 62
     0
370
    -2
100
AcDbLine
 10
257.1684291454546
 20
-357.2794582001191
 30
0.0
 11
47.94737647645141
 21
-357.2794582001192
 31
0.0
  0
LINE
  5
398
330
393
100
AcDbEntity
  8
0
  6
ByBlock
 62
     0
370
    -2
100
AcDbLine
 10
50.23337647645133
 20
-140.3934582001192
 30
0.0
 11
50.23337647645141
 21
-354.1654582001192
 31
0.0
  0
INSERT
  5
399
330
393
100
AcDbEntity
  8
0
 62
     0
370
    -2
100
AcDbBlockReference
  2
_Open
 10
50.23337647645133
 20
-137.2794582001192
 30
0.0
 41
3.114
 42
3.114
 43
3.114
 50
90.00000000000001
  0
INSERT
  5
39A
330
393
100
AcDbEntity
  8
0
 62
     0
370
    -2
100
AcDbBlockReference
  2
_Open
 10
50.23337647645141
 20
-357.2794582001192
 30
0.0
 41
3.114
 42
3.114
 43
3.114
 50
270.0
  0
MTEXT
  5
39B
330
393
100
AcDbEntity
  8
0
 62
     0
100
AcDbMText
 10
47.23337647645137
 20
-247.2784582001191
 30
0.0
 40
4.0
 41
0.0
 71
     5
 72
     1
  1
220
 11
-3.875687649600548E-16
 21
1.0
 31
0.0
 73
     1
 44
1.0
  0
POINT
  5
39C
330
393
100
AcDbEntity
  8
Defpoints
 62
     0
100
AcDbPoint
 10
257.1684291454546
 20
-137.2794582001191
 30
0.0
  0
POINT
  5
39D
330
393
100
AcDbEntity
  8
Defpoints
 62
     0
100
AcDbPoint
 10
257.1684291454546
 20
-357.2794582001191
 30
0.0
  0
POINT
  5
39E
330
393
100
AcDbEntity
  8
Defpoints
 62
     0
100
AcDbPoint
 10
50.23137647645137
 20
-357.2794582001191
 30
0.0
  0
ENDBLK
  5
395
330
393
100
AcDbEntity
  8
0
100
AcDbBlockEnd
  0
ENDSEC
  0
SECTION
  2
ENTITIES
  0
LINE
  5
250
330
1F
100
AcDbEntity
  8
0
  6
Continuous
 62
     7
100
AcDbLine
 10
-24.87235792594214
 20
223.7133268009059
 30
0.0
 11
91.7633182240678
 21
223.7133268009059
 31
0.0
  0
LINE
  5
251
330
1F
100
AcDbEntity
  8
0
  6
Continuous
 62
     7
100
AcDbLine
 10
-451.2605088786458
 20
310.159992042965
 30
0.0
 11
498.7394911213542
 21
310.159992042965
 31
0.0
  0
LINE
  5
252
330
1F
100
AcDbEntity
  8
0
  6
Continuous
 62
     7
100
AcDbLine
 10
-451.2605088786458
 20
360.159992042965
 30
0.0
 11
-451.2605088786458
 21
-389.840007957035
 31
0.0
  0
LINE
  5
253
330
1F
100
AcDbEntity
  8
0
  6
Continuous
 62
     7
100
AcDbLine
 10
498.7394911213542
 20
360.159992042965
 30
0.0
 11
498.7394911213542
 21
-389.840007957035
 31
0.0
  0
LINE
  5
254
330
1F
100
AcDbEntity
  8
0
  6
Continuous
 62
     7
100
AcDbLine
 10
-451.2605088786458
 20
-389.840007957035
 30
0.0
 11
498.7394911213542
 21
-389.840007957035
 31
0.0
  0
LINE
  5
255
330
1F
100
AcDbEntity
  8
0
  6
Continuous
 62
     7
100
AcDbLine
 10
-451.2605088786458
 20
360.159992042965
 30
0.0
 11
498.7394911213542
 21
360.159992042965
 31
0.0
  0
MTEXT
  5
256
330
1F
100
AcDbEntity
  8
0
 62
     7
100
AcDbMText
 10
-3.891891101753572
 20
-192.9787913230876
 30
0.0
 40
6.0
 41
0.0
 71
     7
 72
     1
  1
{\W1;*1}
 73
     1
 44
1.0
  0
MTEXT
  5
257
330
1F
100
AcDbEntity
  8
0
 62
     7
100
AcDbMText
 10
61.43207022343904
 20
-122.0428211980403
 30
0.0
 40
6.0
 41
0.0
 71
     7
 72
     1
  1
{\W1;*3}
 73
     1
 44
1.0
  0
MTEXT
  5
258
330
1F
100
AcDbEntity
  8
0
 62
     7
100
AcDbMText
 10
-93.02061727787975
 20
32.48589849293333
 30
0.0
 40
6.0
 41
0.0
 71
     7
 72
     1
  1
{\W1;*2}
 73
     1
 44
1.0
  0
MTEXT
  5
259
330
1F
100
AcDbEntity
  8
0
 62
     7
100
AcDbMText
 10
-6.04777841726285
 20
227.7133268009059
 30
0.0
 40
8.0
 41
0.0
 71
     7
 72
     1
  1
{\W0.833333;※作図は50ストローク}
 73
     1
 44
1.0
  0
MTEXT
  5
25A
330
1F
100
AcDbEntity
  8
0
 62
     7
100
AcDbMText
 10
493.9022327036884
 20
-389.2693051294506
 30
0.0
 40
0.5
 41
0.0
 71
     7
 72
     1
  1
{\W0.833333;ＧＲＡＮ－０００９}
 73
     1
 44
1.0
  0
MTEXT
  5
25B
330
1F
100
AcDbEntity
  8
0
 62
     7
100
AcDbMText
 10
-401.8319089011525
 20
327.159992042965
 30
0.0
 40
16.0
 41
0.0
 71
     7
 72
     1
  1
{\W0.833333;ＮＩＨＯＮ　ＳＥＩＫＩ　ＢＮ－６１０２Ｂ－ＴＥ－１８０}
 73
     1
 44
1.0
  0
INSERT
  5
25C
330
1F
100
AcDbEntity
  8
0
 62
     7
100
AcDbBlockReference
  2
DTL0001
 10
-188.0559183780094
 20
-148.2794582001191
 30
0.0
  0
INSERT
  5
25D
330
1F
100
AcDbEntity
  8
0
 62
     7
100
AcDbBlockReference
  2
DTL0002
 10
-188.0559183780094
 20
114.7821300872344
 30
0.0
  0
INSERT
  5
25E
330
1F
100
AcDbEntity
  8
0
 62
     7
100
AcDbBlockReference
  2
DTL0003
 10
257.1684291454546
 20
-247.2794582001191
 30
0.0
  0
DIMENSION
  5
25F
330
1F
100
AcDbEntity
  8
0
 62
     7
100
AcDbDimension
  2
*D6
 10
-244.5559183780094
 20
-111.7431586002993
 30
0.0
 11
-284.3196466275641
 21
-111.7431586002993
 31
0.0
 70
   160
 71
     5
 42
52.0
  3
DIMSTYLE_FULLSCALE
100
AcDbAlignedDimension
 13
-296.5559183780094
 23
-137.2794582001191
 33
0.0
 14
-244.5559183780094
 24
-137.2794582001191
 34
0.0
 50
180.0
100
AcDbRotatedDimension
1001
ACAD
1000
DSTYLE
1002
{
1070
    40
1040
1.0
1070
   278
1070
    46
1070
   147
1040
1.0
1070
    77
1070
     1
1070
    74
1070
     0
1070
    73
1070
     0
1070
    42
1040
0.0
1070
    44
1040
2.285999999999987
1070
    76
1070
     0
1070
    75
1070
     0
1070
   279
1070
     0
1070
   271
1070
     0
1070
   144
1040
1.0
1070
   173
1070
     1
1070
    41
1040
3.114
1070
   140
1040
4.0
1070
   344
1005
260
1070
   343
1005
260
1002
}
  0
DIMENSION
  5
273
330
1F
100
AcDbEntity
  8
0
 62
     7
100
AcDbDimension
  2
*D7
 10
-343.0559183780094
 20
-111.7431586002993
 30
0.0
 11
-353.0549183780095
 21
-111.7431586002993
 31
0.0
 70
   160
 71
     5
 42
20.0
  3
DIMSTYLE_FULLSCALE
100
AcDbAlignedDimension
 13
-363.0559183780094
 23
-148.2794582001191
 33
0.0
 14
-343.0559183780094
 24
-145.2178699127655
 34
0.0
 50
180.0
100
AcDbRotatedDimension
1001
ACAD
1000
DSTYLE
1002
{
1070
    40
1040
1.0
1070
   278
1070
    46
1070
   147
1040
1.0
1070
    77
1070
     1
1070
    74
1070
     0
1070
    73
1070
     0
1070
    42
1040
0.0
1070
    44
1040
2.285999999999987
1070
    76
1070
     0
1070
    75
1070
     0
1070
   279
1070
     0
1070
   271
1070
     0
1070
   144
1040
1.0
1070
   173
1070
     1
1070
    41
1040
3.114
1070
   140
1040
4.0
1070
   344
1005
260
1070
   343
1005
260
1002
}
  0
DIMENSION
  5
280
330
1F
100
AcDbEntity
  8
0
 62
     7
100
AcDbDimension
  2
*D8
 10
-188.0559183780094
 20
-111.7431586002993
 30
0.0
 11
-178.0539183780094
 21
-111.7431586002993
 31
0.0
 70
   160
 71
     5
 42
20.0
  3
DIMSTYLE_FULLSCALE
100
AcDbAlignedDimension
 13
-168.0559183780094
 23
-148.2794582001191
 33
0.0
 14
-188.0559183780094
 24
-145.2178699127655
 34
0.0
100
AcDbRotatedDimension
1001
ACAD
1000
DSTYLE
1002
{
1070
    40
1040
1.0
1070
   278
1070
    46
1070
   147
1040
1.0
1070
    77
1070
     1
1070
    74
1070
     0
1070
    73
1070
     0
1070
    42
1040
0.0
1070
    44
1040
2.285999999999987
1070
    76
1070
     0
1070
    75
1070
     0
1070
   279
1070
     0
1070
   271
1070
     0
1070
   144
1040
1.0
1070
   173
1070
     1
1070
    41
1040
3.114
1070
   140
1040
4.0
1070
   344
1005
260
1070
   343
1005
260
1002
}
  0
DIMENSION
  5
28D
330
1F
100
AcDbEntity
  8
0
 62
     7
100
AcDbDimension
  2
*D9
 10
-270.5559183780094
 20
-102.9388889128446
 30
0.0
 11
-316.8049183780095
 21
-102.9388889128446
 31
0.0
 70
   160
  1
67.5+1/2ストローク
 71
     5
 42
92.5
  3
DIMSTYLE_FULLSCALE
100
AcDbAlignedDimension
 13
-363.0559183780094
 23
-148.2794582001191
 33
0.0
 14
-270.5559183780094
 24
-128.9550566449068
 34
0.0
 50
180.0
100
AcDbRotatedDimension
1001
ACAD
1000
DSTYLE
1002
{
1070
    40
1040
1.0
1070
   278
1070
    46
1070
   147
1040
1.0
1070
    77
1070
     1
1070
    74
1070
     0
1070
    73
1070
     0
1070
    42
1040
0.0
1070
    44
1040
2.286000000000001
1070
    76
1070
     0
1070
    75
1070
     0
1070
   279
1070
     0
1070
    78
1070
     0
1070
   271
1070
     8
1070
   173
1070
     1
1070
    41
1040
3.114
1070
   140
1040
4.0
1070
   344
1005
260
1070
   343
1005
260
1002
}
  0
DIMENSION
  5
29A
330
1F
100
AcDbEntity
  8
0
 62
     7
100
AcDbDimension
  2
*D10
 10
-83.05591837800944
 20
-102.9388889128446
 30
0.0
 11
-221.8928287661946
 21
-102.9388889128446
 31
0.0
 70
   160
  1
162.5+1/2ストローク
 71
     5
 42
187.5
  3
DIMSTYLE_FULLSCALE
100
AcDbAlignedDimension
 13
-270.5559183780094
 23
-128.9550566449068
 33
0.0
 14
-83.05591837800944
 24
-223.2794582001191
 34
0.0
 50
180.0
100
AcDbRotatedDimension
1001
ACAD
1000
DSTYLE
1002
{
1070
    40
1040
1.0
1070
   278
1070
    46
1070
   147
1040
1.0
1070
    77
1070
     1
1070
    74
1070
     0
1070
    73
1070
     0
1070
    42
1040
0.0
1070
    44
1040
2.286000000000001
1070
    76
1070
     0
1070
    75
1070
     1
1070
   279
1070
     0
1070
    78
1070
     0
1070
   271
1070
     8
1070
   173
1070
     1
1070
    41
1040
3.114
1070
   140
1040
4.0
1070
   344
1005
260
1070
   343
1005
260
1002
}
  0
DIMENSION
  5
2A6
330
1F
100
AcDbEntity
  8
0
 62
     7
100
AcDbDimension
  2
*D11
 10
-390.0559488955876
 20
-111.7431586002993
 30
0.0
 11
-376.5539336367985
 21
-111.7431586002993
 31
0.0
 70
   160
 71
     5
 42
27.00003051757812
  3
DIMSTYLE_FULLSCALE
100
AcDbAlignedDimension
 13
-363.0559183780094
 23
-148.2794582001191
 33
0.0
 14
-390.0559488955876
 24
-159.7794939331018
 34
0.0
100
AcDbRotatedDimension
1001
ACAD
1000
DSTYLE
1002
{
1070
    40
1040
1.0
1070
   278
1070
    46
1070
   147
1040
1.0
1070
    77
1070
     1
1070
    74
1070
     0
1070
    73
1070
     0
1070
    42
1040
0.0
1070
    44
1040
2.285999999999987
1070
    76
1070
     0
1070
    75
1070
     1
1070
   279
1070
     0
1070
   271
1070
     0
1070
   144
1040
1.0
1070
   173
1070
     1
1070
    41
1040
3.114
1070
   140
1040
4.0
1070
   344
1005
260
1070
   343
1005
260
1002
}
  0
DIMENSION
  5
2B2
330
1F
100
AcDbEntity
  8
0
 62
     7
100
AcDbDimension
  2
*D12
 10
-141.0558878604313
 20
-111.7431586002993
 30
0.0
 11
-154.5549031192204
 21
-111.7431586002993
 31
0.0
 70
   160
 71
     5
 42
27.00003051757812
  3
DIMSTYLE_FULLSCALE
100
AcDbAlignedDimension
 13
-168.0559183780094
 23
-148.2794582001191
 33
0.0
 14
-141.0558878604313
 24
-159.7794939331018
 34
0.0
 50
180.0
100
AcDbRotatedDimension
1001
ACAD
1000
DSTYLE
1002
{
1070
    40
1040
1.0
1070
   278
1070
    46
1070
   147
1040
1.0
1070
    77
1070
     1
1070
    74
1070
     0
1070
    73
1070
     0
1070
    42
1040
0.0
1070
    44
1040
2.285999999999987
1070
    76
1070
     0
1070
    75
1070
     1
1070
   279
1070
     0
1070
   271
1070
     0
1070
   144
1040
1.0
1070
   173
1070
     1
1070
    41
1040
3.114
1070
   140
1040
4.0
1070
   344
1005
260
1070
   343
1005
260
1002
}
  0
DIMENSION
  5
2BE
330
1F
100
AcDbEntity
  8
0
 62
     7
100
AcDbDimension
  2
*D13
 10
-168.0559183780094
 20
-92.8206194266118
 30
0.0
 11
-265.5549183780095
 21
-92.82061942661178
 31
0.0
 70
   160
  1
145+ストローク
 71
     5
 42
195.0
  3
DIMSTYLE_FULLSCALE
100
AcDbAlignedDimension
 13
-363.0559183780094
 23
-148.2794582001191
 33
0.0
 14
-168.0559183780094
 24
-148.2794582001191
 34
0.0
 50
180.0
100
AcDbRotatedDimension
1001
ACAD
1000
DSTYLE
1002
{
1070
    40
1040
1.0
1070
   278
1070
    46
1070
   147
1040
1.0
1070
    77
1070
     1
1070
    74
1070
     0
1070
    73
1070
     0
1070
    42
1040
0.0
1070
    44
1040
2.286000000000001
1070
    76
1070
     0
1070
    75
1070
     0
1070
   279
1070
     0
1070
   271
1070
     0
1070
   173
1070
     1
1070
    41
1040
3.114
1070
   140
1040
4.0
1070
   344
1005
260
1070
   343
1005
260
1002
}
  0
DIMENSION
  5
2CB
330
1F
100
AcDbEntity
  8
0
 62
     7
100
AcDbDimension
  2
*D14
 10
-23.05591837800944
 20
-92.82061942661178
 30
0.0
 11
-95.55491837800943
 21
-92.82061942661178
 31
0.0
 70
   160
 71
     5
 42
145.0
  3
DIMSTYLE_FULLSCALE
100
AcDbAlignedDimension
 13
-168.0559183780094
 23
-148.2794582001191
 33
0.0
 14
-23.05591837800944
 24
-228.0914699188691
 34
0.0
 50
180.0
100
AcDbRotatedDimension
1001
ACAD
1000
DSTYLE
1002
{
1070
    40
1040
1.0
1070
   278
1070
    46
1070
   147
1040
1.0
1070
    77
1070
     1
1070
    74
1070
     0
1070
    73
1070
     0
1070
    42
1040
0.0
1070
    44
1040
2.286000000000001
1070
    76
1070
     0
1070
    75
1070
     1
1070
   279
1070
     0
1070
   271
1070
     0
1070
   144
1040
1.0
1070
   173
1070
     1
1070
    41
1040
3.114
1070
   140
1040
4.0
1070
   344
1005
260
1070
   343
1005
260
1002
}
  0
DIMENSION
  5
2D7
330
1F
100
AcDbEntity
  8
0
 62
     7
100
AcDbDimension
  2
*D15
 10
-83.05591837800944
 20
-102.9388889128446
 30
0.0
 11
-53.05391837800944
 21
-102.9388889128446
 31
0.0
 70
   160
 71
     5
 42
60.0
  3
DIMSTYLE_FULLSCALE
100
AcDbAlignedDimension
 13
-23.05591837800944
 23
-228.0914699188691
 33
0.0
 14
-83.05591837800944
 24
-223.2794582001191
 34
0.0
100
AcDbRotatedDimension
1001
ACAD
1000
DSTYLE
1002
{
1070
    40
1040
1.0
1070
   278
1070
    46
1070
   147
1040
1.0
1070
    77
1070
     1
1070
    74
1070
     0
1070
    73
1070
     0
1070
    42
1040
0.0
1070
    44
1040
2.286000000000001
1070
    76
1070
     1
1070
    75
1070
     0
1070
   279
1070
     0
1070
   271
1070
     0
1070
   144
1040
1.0
1070
   173
1070
     1
1070
    41
1040
3.114
1070
   140
1040
4.0
1070
   344
1005
260
1070
   343
1005
260
1002
}
  0
DIMENSION
  5
2E3
330
1F
100
AcDbEntity
  8
0
 62
     7
100
AcDbDimension
  2
*D16
 10
-48.05591837800944
 20
-305.5244707953766
 30
0.0
 11
-55.55491837800944
 21
-305.5244707953766
 31
0.0
 70
   160
 71
     5
 42
15.0
  3
DIMSTYLE_FULLSCALE
100
AcDbAlignedDimension
 13
-63.05591837800944
 23
-279.079458200119
 33
0.0
 14
-48.05591837800944
 24
-279.079458200119
 34
0.0
 50
180.0
100
AcDbRotatedDimension
1001
ACAD
1000
DSTYLE
1002
{
1070
    40
1040
1.0
1070
   278
1070
    46
1070
   147
1040
1.0
1070
    77
1070
     1
1070
    74
1070
     0
1070
    73
1070
     0
1070
    42
1040
0.0
1070
    44
1040
2.286000000000058
1070
    76
1070
     0
1070
    75
1070
     0
1070
   279
1070
     0
1070
   271
1070
     0
1070
   144
1040
1.0
1070
   173
1070
     1
1070
    41
1040
3.114
1070
   140
1040
4.0
1070
   344
1005
260
1070
   343
1005
260
1002
}
  0
DIMENSION
  5
2F0
330
1F
100
AcDbEntity
  8
0
 62
     7
100
AcDbDimension
  2
*D17
 10
-92.43319666275931
 20
-272.2794170608423
 30
0.0
 11
-92.43319666275931
 21
-287.8051507890351
 31
0.0
 70
   160
  1
\U+2205<>
 71
     5
 42
49.9999491782448
  3
DIMSTYLE_FULLSCALE
100
AcDbAlignedDimension
 13
-110.055918378009
 23
-222.2794678825976
 33
0.0
 14
-110.055918378009
 24
-272.2794170608423
 34
0.0
 50
90.00000000000001
100
AcDbRotatedDimension
1001
ACAD
1000
DSTYLE
1002
{
1070
    40
1040
1.0
1070
   278
1070
    46
1070
   147
1040
1.0
1070
    77
1070
     1
1070
    74
1070
     0
1070
    73
1070
     0
1070
    42
1040
0.0
1070
    44
1040
2.285999999999945
1070
    76
1070
     0
1070
    75
1070
     0
1070
   279
1070
     0
1070
   271
1070
     0
1070
   144
1040
1.000000000000001
1070
   173
1070
     1
1070
    41
1040
3.114
1070
   140
1040
4.0
1070
   344
1005
260
1070
   343
1005
260
1002
}
  0
INSERT
  5
304
330
1F
100
AcDbEntity
  8
0
 62
     7
100
AcDbBlockReference
  2
SYM0001
 10
-188.0559183780095
 20
-148.279458200119
 30
0.0
  0
INSERT
  5
30D
330
1F
100
AcDbEntity
  8
0
 62
     7
100
AcDbBlockReference
  2
SYM0002
 10
-35.96192423738449
 20
-227.279458200119
 30
0.0
  0
DIMENSION
  5
310
330
1F
100
AcDbEntity
  8
0
 62
     7
100
AcDbDimension
  2
*D20
 10
-23.05591837800944
 20
-83.07595840431951
 30
0.0
 11
-206.5549336367985
 21
-83.0759584043195
 31
0.0
 70
   160
  1
317+ストローク
 71
     5
 42
367.0000305175781
  3
DIMSTYLE_FULLSCALE
100
AcDbAlignedDimension
 13
-390.0559488955876
 23
-159.7794939331018
 33
0.0
 14
-23.05591837800944
 24
-228.0914699188691
 34
0.0
 50
180.0
100
AcDbRotatedDimension
1001
ACAD
1000
DSTYLE
1002
{
1070
    40
1040
1.0
1070
   278
1070
    46
1070
   147
1040
1.0
1070
    77
1070
     1
1070
    74
1070
     0
1070
    73
1070
     0
1070
    42
1040
0.0
1070
    44
1040
2.286000000000001
1070
    76
1070
     0
1070
    75
1070
     0
1070
   279
1070
     0
1070
   271
1070
     0
1070
   173
1070
     1
1070
    41
1040
3.114
1070
   140
1040
4.0
1070
   344
1005
260
1070
   343
1005
260
1002
}
  0
DIMENSION
  5
31D
330
1F
100
AcDbEntity
  8
0
 62
     7
100
AcDbDimension
  2
*D21
 10
334.6683070751421
 20
-111.7431586002993
 30
0.0
 11
257.1693681102984
 21
-111.7431586002993
 31
0.0
 70
   160
 71
     5
 42
154.9998779296875
  3
DIMSTYLE_FULLSCALE
100
AcDbAlignedDimension
 13
179.6684291454546
 23
-145.0281707237374
 33
0.0
 14
334.6683070751421
 24
-145.0281707237374
 34
0.0
 50
180.0
100
AcDbRotatedDimension
1001
ACAD
1000
DSTYLE
1002
{
1070
    40
1040
1.0
1070
   278
1070
    46
1070
   147
1040
1.0
1070
    77
1070
     1
1070
    74
1070
     0
1070
    73
1070
     0
1070
    42
1040
0.0
1070
    44
1040
2.285999999999987
1070
    76
1070
     0
1070
    75
1070
     0
1070
   279
1070
     0
1070
   271
1070
     0
1070
   144
1040
1.0
1070
   173
1070
     1
1070
    41
1040
3.114
1070
   140
1040
4.0
1070
   344
1005
260
1070
   343
1005
260
1002
}
  0
DIMENSION
  5
32A
330
1F
100
AcDbEntity
  8
0
 62
     7
100
AcDbDimension
  2
*D22
 10
356.1683070751421
 20
-102.9388889128446
 30
0.0
 11
257.1693681102984
 21
-102.9388889128446
 31
0.0
 70
   160
 71
     5
 42
197.9998779296875
  3
DIMSTYLE_FULLSCALE
100
AcDbAlignedDimension
 13
158.1684291454546
 23
-169.779457787166
 33
0.0
 14
356.1683070751421
 24
-169.779457787166
 34
0.0
 50
180.0
100
AcDbRotatedDimension
1001
ACAD
1000
DSTYLE
1002
{
1070
    40
1040
1.0
1070
   278
1070
    46
1070
   147
1040
1.0
1070
    77
1070
     1
1070
    74
1070
     0
1070
    73
1070
     0
1070
    42
1040
0.0
1070
    44
1040
2.286000000000001
1070
    76
1070
     0
1070
    75
1070
     0
1070
   279
1070
     0
1070
   271
1070
     0
1070
   144
1040
1.0
1070
   173
1070
     1
1070
    41
1040
3.114
1070
   140
1040
4.0
1070
   344
1005
260
1070
   343
1005
260
1002
}
  0
DIMENSION
  5
337
330
1F
100
AcDbEntity
  8
0
 62
     7
100
AcDbDimension
  2
*D23
 10
364.6684291454546
 20
-92.8206194266118
 30
0.0
 11
257.1694291454546
 21
-92.82061942661178
 31
0.0
 70
   160
 71
     5
 42
215.0
  3
DIMSTYLE_FULLSCALE
100
AcDbAlignedDimension
 13
149.6684291454546
 23
-207.2794582001191
 33
0.0
 14
364.6684291454546
 24
-207.2794582001191
 34
0.0
 50
180.0
100
AcDbRotatedDimension
1001
ACAD
1000
DSTYLE
1002
{
1070
    40
1040
1.0
1070
   278
1070
    46
1070
   147
1040
1.0
1070
    77
1070
     1
1070
    74
1070
     0
1070
    73
1070
     0
1070
    42
1040
0.0
1070
    44
1040
2.286000000000001
1070
    76
1070
     0
1070
    75
1070
     0
1070
   279
1070
     0
1070
   271
1070
     0
1070
   144
1040
1.0
1070
   173
1070
     1
1070
    41
1040
3.114
1070
   140
1040
4.0
1070
   344
1005
260
1070
   343
1005
260
1002
}
  0
DIMENSION
  5
344
330
1F
100
AcDbEntity
  8
0
 62
     7
100
AcDbDimension
  2
*D24
 10
397.1684291454546
 20
-83.07595840431951
 30
0.0
 11
257.1694291454546
 21
-83.0759584043195
 31
0.0
 70
   160
 71
     5
 42
280.0
  3
DIMSTYLE_FULLSCALE
100
AcDbAlignedDimension
 13
117.1684291454546
 23
-212.2794582001191
 33
0.0
 14
397.1684291454546
 24
-212.2794582001191
 34
0.0
 50
180.0
100
AcDbRotatedDimension
1001
ACAD
1000
DSTYLE
1002
{
1070
    40
1040
1.0
1070
   278
1070
    46
1070
   147
1040
1.0
1070
    77
1070
     1
1070
    74
1070
     0
1070
    73
1070
     0
1070
    42
1040
0.0
1070
    44
1040
2.286000000000001
1070
    76
1070
     0
1070
    75
1070
     0
1070
   279
1070
     0
1070
   271
1070
     0
1070
   144
1040
1.0
1070
   173
1070
     1
1070
    41
1040
3.114
1070
   140
1040
4.0
1070
   344
1005
260
1070
   343
1005
260
1002
}
  0
DIMENSION
  5
351
330
1F
100
AcDbEntity
  8
0
 62
     7
100
AcDbDimension
  2
*D25
 10
157.1684291454546
 20
-239.5521446394861
 30
0.0
 11
135.7595580993411
 21
-239.5521446394861
 31
0.0
 70
   160
 71
     5
 42
40.0
  3
DIMSTYLE_FULLSCALE
100
AcDbAlignedDimension
 13
117.1684291454546
 23
-212.2794582001191
 33
0.0
 14
157.1684291454546
 24
-229.2794582001191
 34
0.0
 50
180.0
100
AcDbRotatedDimension
1001
ACAD
1000
DSTYLE
1002
{
1070
    40
1040
1.0
1070
   278
1070
    46
1070
   147
1040
1.0
1070
    77
1070
     1
1070
    74
1070
     0
1070
    73
1070
     0
1070
    42
1040
0.0
1070
    44
1040
2.285999999999973
1070
    76
1070
     1
1070
    75
1070
     0
1070
   279
1070
     0
1070
   271
1070
     0
1070
   144
1040
1.0
1070
   173
1070
     1
1070
    41
1040
3.114
1070
   140
1040
4.0
1070
   344
1005
260
1070
   343
1005
260
1002
}
  0
DIMENSION
  5
35D
330
1F
100
AcDbEntity
  8
0
 62
     7
100
AcDbDimension
  2
*D26
 10
90.5266551326456
 20
-265.2794582001191
 30
0.0
 11
90.52665513264554
 21
-110.2409380025557
 31
0.0
 70
   160
  1
\A1;\U+2205<>H10({\H0.5x;\S+0.100^  0;})
 71
     5
 42
36.0
  3
DIMSTYLE_FULLSCALE
100
AcDbAlignedDimension
 13
117.1684291454546
 23
-229.2794582001191
 33
0.0
 14
117.1684291454546
 24
-265.2794582001191
 34
0.0
 50
90.00000000000001
100
AcDbRotatedDimension
1001
ACAD
1000
DSTYLE
1002
{
1070
    40
1040
1.0
1070
   278
1070
    46
1070
   147
1040
1.0
1070
    77
1070
     1
1070
    74
1070
     0
1070
    73
1070
     0
1070
    42
1040
0.0
1070
    44
1040
2.286000000000001
1070
    76
1070
     0
1070
    75
1070
     0
1070
   279
1070
     0
1070
   271
1070
     0
1070
   144
1040
1.000000000000001
1070
   173
1070
     1
1070
    41
1040
3.114
1070
   140
1040
4.0
1070
   344
1005
260
1070
   343
1005
260
1002
}
  0
DIMENSION
  5
36B
330
1F
100
AcDbEntity
  8
0
 62
     7
100
AcDbDimension
  2
*D27
 10
78.90832320228402
 20
-282.2794582001191
 30
0.0
 11
78.90832320228401
 21
-247.2784582001191
 31
0.0
 70
   160
  1
\A1;\U+2205<>
 71
     5
 42
70.0
  3
DIMSTYLE_FULLSCALE
100
AcDbAlignedDimension
 13
117.1684291454546
 23
-212.2794582001191
 33
0.0
 14
117.1684291454546
 24
-282.2794582001191
 34
0.0
 50
90.00000000000001
100
AcDbRotatedDimension
1001
ACAD
1000
DSTYLE
1002
{
1070
    40
1040
1.0
1070
   278
1070
    46
1070
   147
1040
1.0
1070
    77
1070
     1
1070
    74
1070
     0
1070
    73
1070
     0
1070
    42
1040
0.0
1070
    44
1040
2.286000000000001
1070
    76
1070
     0
1070
    75
1070
     0
1070
   279
1070
     0
1070
   271
1070
     0
1070
   144
1040
1.0
1070
   173
1070
     1
1070
    41
1040
3.114
1070
   140
1040
4.0
1070
   344
1005
260
1070
   343
1005
260
1002
}
  0
DIMENSION
  5
378
330
1F
100
AcDbEntity
  8
0
 62
     7
100
AcDbDimension
  2
*D28
 10
69.09467463263914
 20
-324.7794582001191
 30
0.0
 11
69.09467463263911
 21
-247.2784582001191
 31
0.0
 70
   160
 71
     5
 42
155.0
  3
DIMSTYLE_FULLSCALE
100
AcDbAlignedDimension
 13
155.2685763754755
 23
-169.7794582001191
 33
0.0
 14
155.2685763754755
 24
-324.7794582001191
 34
0.0
 50
90.00000000000001
100
AcDbRotatedDimension
1001
ACAD
1000
DSTYLE
1002
{
1070
    40
1040
1.0
1070
   278
1070
    46
1070
   147
1040
1.0
1070
    77
1070
     1
1070
    74
1070
     0
1070
    73
1070
     0
1070
    42
1040
0.0
1070
    44
1040
2.286000000000001
1070
    76
1070
     0
1070
    75
1070
     0
1070
   279
1070
     0
1070
   271
1070
     0
1070
   144
1040
1.0
1070
   173
1070
     1
1070
    41
1040
3.114
1070
   140
1040
4.0
1070
   344
1005
260
1070
   343
1005
260
1002
}
  0
DIMENSION
  5
385
330
1F
100
AcDbEntity
  8
0
 62
     7
100
AcDbDimension
  2
*D29
 10
59.79261729666919
 20
-346.2794582001191
 30
0.0
 11
59.79261729666915
 21
-247.2784582001191
 31
0.0
 70
   160
 71
     5
 42
198.0
  3
DIMSTYLE_FULLSCALE
100
AcDbAlignedDimension
 13
179.6684287325018
 23
-148.2794582001191
 33
0.0
 14
179.6684287325018
 24
-346.2794582001191
 34
0.0
 50
90.00000000000001
100
AcDbRotatedDimension
1001
ACAD
1000
DSTYLE
1002
{
1070
    40
1040
1.0
1070
   278
1070
    46
1070
   147
1040
1.0
1070
    77
1070
     1
1070
    74
1070
     0
1070
    73
1070
     0
1070
    42
1040
0.0
1070
    44
1040
2.286000000000001
1070
    76
1070
     0
1070
    75
1070
     0
1070
   279
1070
     0
1070
   271
1070
     0
1070
   144
1040
1.0
1070
   173
1070
     1
1070
    41
1040
3.114
1070
   140
1040
4.0
1070
   344
1005
260
1070
   343
1005
260
1002
}
  0
DIMENSION
  5
392
330
1F
100
AcDbEntity
  8
0
 62
     7
100
AcDbDimension
  2
*D30
 10
50.23337647645141
 20
-357.2794582001192
 30
0.0
 11
50.23337647645137
 21
-247.2784582001191
 31
0.0
 70
   160
 71
     5
 42
220.0
  3
DIMSTYLE_FULLSCALE
100
AcDbAlignedDimension
 13
257.1684291454546
 23
-137.2794582001191
 33
0.0
 14
257.1684291454546
 24
-357.2794582001191
 34
0.0
 50
90.00000000000001
100
AcDbRotatedDimension
1001
ACAD
1000
DSTYLE
1002
{
1070
    40
1040
1.0
1070
   278
1070
    46
1070
   147
1040
1.0
1070
    77
1070
     1
1070
    74
1070
     0
1070
    73
1070
     0
1070
    42
1040
0.0
1070
    44
1040
2.286000000000001
1070
    76
1070
     0
1070
    75
1070
     0
1070
   279
1070
     0
1070
   271
1070
     0
1070
   144
1040
1.0
1070
   173
1070
     1
1070
    41
1040
3.114
1070
   140
1040
4.0
1070
   344
1005
260
1070
   343
1005
260
1002
}
  0
ENDSEC
  0
SECTION
  2
OBJECTS
  0
DICTIONARY
  5
C
330
0
100
AcDbDictionary
281
     1
  3
ACAD_GROUP
350
D
  3
ACAD_LAYOUT
350
1A
  3
ACAD_MATERIAL
350
43
  3
ACAD_MLEADERSTYLE
350
6B
  3
ACAD_MLINESTYLE
350
17
  3
ACAD_PLOTSETTINGS
350
19
  3
ACAD_PLOTSTYLENAME
350
E
  3
ACAD_SCALELIST
350
47
  3
ACAD_TABLESTYLE
350
69
  3
ACAD_VISUALSTYLE
350
2A
  3
AcDbVariableDictionary
350
39F
  3
DWGPROPS
350
3AA
  0
DICTIONARY
  5
3AB
330
8
100
AcDbDictionary
280
     1
281
     1
  3
ACAD_XREC_ROUNDTRIP
360
3AC
  0
DICTIONARY
  5
D
102
{ACAD_REACTORS
330
C
102
}
330
C
100
AcDbDictionary
281
     1
  0
DICTIONARY
  5
1A
102
{ACAD_REACTORS
330
C
102
}
330
C
100
AcDbDictionary
281
     1
  3
Layout1
350
1E
  3
Layout2
350
26
  3
Model
350
22
  0
DICTIONARY
  5
43
102
{ACAD_REACTORS
330
C
102
}
330
C
100
AcDbDictionary
281
     1
  3
ByBlock
350
45
  3
ByLayer
350
44
  3
Global
350
46
  0
DICTIONARY
  5
6B
102
{ACAD_REACTORS
330
C
102
}
330
C
100
AcDbDictionary
281
     1
  3
Standard
350
6C
  0
DICTIONARY
  5
17
102
{ACAD_REACTORS
330
C
102
}
330
C
100
AcDbDictionary
281
     1
  3
Standard
350
18
  0
DICTIONARY
  5
19
102
{ACAD_REACTORS
330
C
102
}
330
C
100
AcDbDictionary
281
     1
  0
ACDBDICTIONARYWDFLT
  5
E
102
{ACAD_REACTORS
330
C
102
}
330
C
100
AcDbDictionary
281
     1
  3
Normal
350
F
100
AcDbDictionaryWithDefault
340
F
  0
DICTIONARY
  5
47
102
{ACAD_REACTORS
330
C
102
}
330
C
100
AcDbDictionary
281
     1
  3
A0
350
48
  3
A1
350
49
  3
A2
350
4A
  3
A3
350
4B
  3
A4
350
4C
  3
A5
350
4D
  3
A6
350
4E
  3
A7
350
4F
  3
A8
350
50
  3
A9
350
51
  3
B0
350
52
  3
B1
350
53
  3
B2
350
54
  3
B3
350
55
  3
B4
350
56
  3
B5
350
57
  3
B6
350
58
  3
B7
350
59
  3
B8
350
5A
  3
B9
350
5B
  3
C0
350
5C
  3
C1
350
5D
  3
C2
350
5E
  3
C3
350
5F
  3
C4
350
60
  3
C5
350
61
  3
C6
350
62
  3
C7
350
63
  3
C8
350
64
  3
C9
350
65
  3
D0
350
66
  3
D1
350
67
  3
D2
350
68
  0
DICTIONARY
  5
69
102
{ACAD_REACTORS
330
C
102
}
330
C
100
AcDbDictionary
281
     1
  3
Standard
350
6A
  0
DICTIONARY
  5
2A
102
{ACAD_REACTORS
330
C
102
}
330
C
100
AcDbDictionary
281
     1
  3
2dWireframe
350
2F
  3
Basic
350
32
  3
Brighten
350
36
  3
ColorChange
350
3A
  3
Conceptual
350
34
  3
Dim
350
35
  3
EdgeColorOff
350
3D
  3
Facepattern
350
39
  3
Flat
350
2B
  3
FlatWithEdges
350
2C
  3
Gouraud
350
2D
  3
GouraudWithEdges
350
2E
  3
Hidden
350
31
  3
JitterOff
350
3B
  3
Linepattern
350
38
  3
OverhangOff
350
3C
  3
Realistic
350
33
  3
Shaded
350
42
  3
Shaded with edges
350
41
  3
Shades of Gray
350
3E
  3
Sketchy
350
3F
  3
Thicken
350
37
  3
Wireframe
350
30
  3
X-Ray
350
40
  0
DICTIONARY
  5
39F
102
{ACAD_REACTORS
330
C
102
}
330
C
100
AcDbDictionary
281
     1
  3
CANNOSCALE
350
3B1
  3
CENTEREXE
350
3A6
  3
CENTERLTYPEFILE
350
3A7
  3
CMLEADERSTYLE
350
3A1
  3
CTABLESTYLE
350
3A0
  3
DIMASSOC
350
3A8
  3
HIDETEXT
350
3A9
  3
MSLTSCALE
350
3B2
  3
PSOLHEIGHT
350
3A3
  3
PSOLWIDTH
350
3A2
  0
XRECORD
  5
3AA
102
{ACAD_REACTORS
330
C
102
}
330
C
100
AcDbXrecord
280
     1
  1
DWGPROPS COOKIE
  2

  3

  4

  6

  7

  8
CADAM
  9

300
=
301
=
302
=
303
=
304
=
305
=
306
=
307
=
308
=
309
=
 40
0.0
 41
2459066.10513978
 42
2459066.105140324
  1

 90
        0
  0
XRECORD
  5
3AC
102
{ACAD_REACTORS
330
3AB
102
}
330
3AB
100
AcDbXrecord
280
     1
102
VTR_0.000_0.000_1.000_1.000_VISUALSTYLE
340
2F
102
VTR_0.000_0.000_1.000_1.000_GRIDDISPLAY
 70
     3
102
VTR_0.000_0.000_1.000_1.000_GRIDMAJOR
 70
     5
102
VTR_0.000_0.000_1.000_1.000_DEFAULTLIGHTING
280
     1
102
VTR_0.000_0.000_1.000_1.000_DEFAULTLIGHTINGTYPE
 70
     1
102
VTR_0.000_0.000_1.000_1.000_BRIGHTNESS
141
0.0
102
VTR_0.000_0.000_1.000_1.000_CONTRAST
142
0.0
  0
LAYOUT
  5
1E
102
{ACAD_REACTORS
330
1A
102
}
330
1A
100
AcDbPlotSettings
  1

  2
none_device
  4

  6

 40
0.0
 41
0.0
 42
0.0
 43
0.0
 44
0.0
 45
0.0
 46
0.0
 47
0.0
 48
0.0
 49
0.0
140
0.0
141
0.0
142
1.0
143
1.0
 70
   688
 72
     1
 73
     0
 74
     5
  7

 75
    16
147
1.0
148
0.0
149
0.0
100
AcDbLayout
  1
Layout1
 70
     1
 71
     1
 10
-451.2605088786458
 20
-389.840007957035
 11
498.7394911213542
 21
360.159992042965
 12
0.0
 22
0.0
 32
0.0
 14
1.000000000000000E+20
 24
1.000000000000000E+20
 34
1.000000000000000E+20
 15
-1.000000000000000E+20
 25
-1.000000000000000E+20
 35
-1.000000000000000E+20
146
0.0
 13
0.0
 23
0.0
 33
0.0
 16
1.0
 26
0.0
 36
0.0
 17
0.0
 27
1.0
 37
0.0
 76
     0
330
1B
  0
LAYOUT
  5
26
102
{ACAD_REACTORS
330
1A
102
}
330
1A
100
AcDbPlotSettings
  1

  2
none_device
  4

  6

 40
0.0
 41
0.0
 42
0.0
 43
0.0
 44
0.0
 45
0.0
 46
0.0
 47
0.0
 48
0.0
 49
0.0
140
0.0
141
0.0
142
1.0
143
1.0
 70
   688
 72
     1
 73
     0
 74
     5
  7

 75
    16
147
1.0
148
0.0
149
0.0
100
AcDbLayout
  1
Layout2
 70
     1
 71
     2
 10
0.0
 20
0.0
 11
0.0
 21
0.0
 12
0.0
 22
0.0
 32
0.0
 14
0.0
 24
0.0
 34
0.0
 15
0.0
 25
0.0
 35
0.0
146
0.0
 13
0.0
 23
0.0
 33
0.0
 16
1.0
 26
0.0
 36
0.0
 17
0.0
 27
1.0
 37
0.0
 76
     0
330
23
  0
LAYOUT
  5
22
102
{ACAD_REACTORS
330
1A
102
}
330
1A
100
AcDbPlotSettings
  1

  2
none_device
  4
Letter_(8.50_x_11.00_Inches)
  6

 40
6.35
 41
6.35
 42
6.35000508
 43
6.35000508
 44
215.9
 45
279.4
 46
0.0
 47
0.0
 48
0.0
 49
0.0
140
0.0
141
0.0
142
1.0
143
1.0
 70
  1712
 72
     1
 73
     0
 74
     0
  7

 75
     0
147
1.0
148
0.0
149
0.0
100
AcDbLayout
  1
Model
 70
     1
 71
     0
 10
-451.2605088786458
 20
-389.840007957035
 11
498.7394911213542
 21
360.159992042965
 12
0.0
 22
0.0
 32
0.0
 14
-451.2605088786458
 24
-389.840007957035
 34
0.0
 15
498.7394911213542
 25
360.159992042965
 35
0.0
146
0.0
 13
0.0
 23
0.0
 33
0.0
 16
1.0
 26
0.0
 36
0.0
 17
0.0
 27
1.0
 37
0.0
 76
     0
330
1F
331
29
  0
MATERIAL
  5
45
102
{ACAD_REACTORS
330
43
102
}
102
{ACAD_XDICTIONARY
360
3E5
102
}
330
43
100
AcDbMaterial
  1
ByBlock
  0
MATERIAL
  5
44
102
{ACAD_REACTORS
330
43
102
}
102
{ACAD_XDICTIONARY
360
3E3
102
}
330
43
100
AcDbMaterial
  1
ByLayer
  0
MATERIAL
  5
46
102
{ACAD_REACTORS
330
43
102
}
102
{ACAD_XDICTIONARY
360
3E7
102
}
330
43
100
AcDbMaterial
  1
Global
  0
MLEADERSTYLE
  5
6C
102
{ACAD_REACTORS
330
6B
102
}
102
{ACAD_XDICTIONARY
360
3EA
102
}
330
6B
100
AcDbMLeaderStyle
170
     2
171
     1
172
     0
 90
        2
 40
0.0
 41
0.0
173
     1
 91
-1056964608
340
14
 92
       -2
290
     1
 42
2.0
291
     1
 43
8.0
  3
Standard
341
0
 44
4.0
300

342
11
174
     1
178
     6
175
     1
176
     0
 93
-1056964608
 45
4.0
292
     0
297
     0
 46
4.0
343
0
 94
-1056964608
 47
1.0
 49
1.0
140
1.0
293
     1
141
0.0
294
     1
177
     0
142
1.0
295
     0
296
     0
143
3.75
1001
ACAD_MLEADERVER
1070
     2
  0
MLINESTYLE
  5
18
102
{ACAD_REACTORS
330
17
102
}
330
17
100
AcDbMlineStyle
  2
Standard
 70
     0
  3

 62
   256
 51
90.0
 52
90.0
 71
     2
 49
0.5
 62
   256
  6
BYLAYER
 49
-0.5
 62
   256
  6
BYLAYER
  0
ACDBPLACEHOLDER
  5
F
102
{ACAD_REACTORS
330
E
102
}
330
E
  0
SCALE
  5
48
102
{ACAD_REACTORS
330
47
102
}
330
47
100
AcDbScale
 70
     0
300
1:1
140
1.0
141
1.0
290
     1
  0
SCALE
  5
49
102
{ACAD_REACTORS
330
47
102
}
330
47
100
AcDbScale
 70
     0
300
1:2
140
1.0
141
2.0
290
     0
  0
SCALE
  5
4A
102
{ACAD_REACTORS
330
47
102
}
330
47
100
AcDbScale
 70
     0
300
1:4
140
1.0
141
4.0
290
     0
  0
SCALE
  5
4B
102
{ACAD_REACTORS
330
47
102
}
330
47
100
AcDbScale
 70
     0
300
1:5
140
1.0
141
5.0
290
     0
  0
SCALE
  5
4C
102
{ACAD_REACTORS
330
47
102
}
330
47
100
AcDbScale
 70
     0
300
1:8
140
1.0
141
8.0
290
     0
  0
SCALE
  5
4D
102
{ACAD_REACTORS
330
47
102
}
330
47
100
AcDbScale
 70
     0
300
1:10
140
1.0
141
10.0
290
     0
  0
SCALE
  5
4E
102
{ACAD_REACTORS
330
47
102
}
330
47
100
AcDbScale
 70
     0
300
1:16
140
1.0
141
16.0
290
     0
  0
SCALE
  5
4F
102
{ACAD_REACTORS
330
47
102
}
330
47
100
AcDbScale
 70
     0
300
1:20
140
1.0
141
20.0
290
     0
  0
SCALE
  5
50
102
{ACAD_REACTORS
330
47
102
}
330
47
100
AcDbScale
 70
     0
300
1:30
140
1.0
141
30.0
290
     0
  0
SCALE
  5
51
102
{ACAD_REACTORS
330
47
102
}
330
47
100
AcDbScale
 70
     0
300
1:40
140
1.0
141
40.0
290
     0
  0
SCALE
  5
52
102
{ACAD_REACTORS
330
47
102
}
330
47
100
AcDbScale
 70
     0
300
1:50
140
1.0
141
50.0
290
     0
  0
SCALE
  5
53
102
{ACAD_REACTORS
330
47
102
}
330
47
100
AcDbScale
 70
     0
300
1:100
140
1.0
141
100.0
290
     0
  0
SCALE
  5
54
102
{ACAD_REACTORS
330
47
102
}
330
47
100
AcDbScale
 70
     0
300
2:1
140
2.0
141
1.0
290
     0
  0
SCALE
  5
55
102
{ACAD_REACTORS
330
47
102
}
330
47
100
AcDbScale
 70
     0
300
4:1
140
4.0
141
1.0
290
     0
  0
SCALE
  5
56
102
{ACAD_REACTORS
330
47
102
}
330
47
100
AcDbScale
 70
     0
300
8:1
140
8.0
141
1.0
290
     0
  0
SCALE
  5
57
102
{ACAD_REACTORS
330
47
102
}
330
47
100
AcDbScale
 70
     0
300
10:1
140
10.0
141
1.0
290
     0
  0
SCALE
  5
58
102
{ACAD_REACTORS
330
47
102
}
330
47
100
AcDbScale
 70
     0
300
100:1
140
100.0
141
1.0
290
     0
  0
SCALE
  5
59
102
{ACAD_REACTORS
330
47
102
}
330
47
100
AcDbScale
 70
     0
300
1/128" = 1'-0"
140
0.0078125
141
12.0
290
     0
  0
SCALE
  5
5A
102
{ACAD_REACTORS
330
47
102
}
330
47
100
AcDbScale
 70
     0
300
1/64" = 1'-0"
140
0.015625
141
12.0
290
     0
  0
SCALE
  5
5B
102
{ACAD_REACTORS
330
47
102
}
330
47
100
AcDbScale
 70
     0
300
1/32" = 1'-0"
140
0.03125
141
12.0
290
     0
  0
SCALE
  5
5C
102
{ACAD_REACTORS
330
47
102
}
330
47
100
AcDbScale
 70
     0
300
1/16" = 1'-0"
140
0.0625
141
12.0
290
     0
  0
SCALE
  5
5D
102
{ACAD_REACTORS
330
47
102
}
330
47
100
AcDbScale
 70
     0
300
3/32" = 1'-0"
140
0.09375
141
12.0
290
     0
  0
SCALE
  5
5E
102
{ACAD_REACTORS
330
47
102
}
330
47
100
AcDbScale
 70
     0
300
1/8" = 1'-0"
140
0.125
141
12.0
290
     0
  0
SCALE
  5
5F
102
{ACAD_REACTORS
330
47
102
}
330
47
100
AcDbScale
 70
     0
300
3/16" = 1'-0"
140
0.1875
141
12.0
290
     0
  0
SCALE
  5
60
102
{ACAD_REACTORS
330
47
102
}
330
47
100
AcDbScale
 70
     0
300
1/4" = 1'-0"
140
0.25
141
12.0
290
     0
  0
SCALE
  5
61
102
{ACAD_REACTORS
330
47
102
}
330
47
100
AcDbScale
 70
     0
300
3/8" = 1'-0"
140
0.375
141
12.0
290
     0
  0
SCALE
  5
62
102
{ACAD_REACTORS
330
47
102
}
330
47
100
AcDbScale
 70
     0
300
1/2" = 1'-0"
140
0.5
141
12.0
290
     0
  0
SCALE
  5
63
102
{ACAD_REACTORS
330
47
102
}
330
47
100
AcDbScale
 70
     0
300
3/4" = 1'-0"
140
0.75
141
12.0
290
     0
  0
SCALE
  5
64
102
{ACAD_REACTORS
330
47
102
}
330
47
100
AcDbScale
 70
     0
300
1" = 1'-0"
140
1.0
141
12.0
290
     0
  0
SCALE
  5
65
102
{ACAD_REACTORS
330
47
102
}
330
47
100
AcDbScale
 70
     0
300
1-1/2" = 1'-0"
140
1.5
141
12.0
290
     0
  0
SCALE
  5
66
102
{ACAD_REACTORS
330
47
102
}
330
47
100
AcDbScale
 70
     0
300
3" = 1'-0"
140
3.0
141
12.0
290
     0
  0
SCALE
  5
67
102
{ACAD_REACTORS
330
47
102
}
330
47
100
AcDbScale
 70
     0
300
6" = 1'-0"
140
6.0
141
12.0
290
     0
  0
SCALE
  5
68
102
{ACAD_REACTORS
330
47
102
}
330
47
100
AcDbScale
 70
     0
300
1'-0" = 1'-0"
140
12.0
141
12.0
290
     0
  0
TABLESTYLE
  5
6A
102
{ACAD_REACTORS
330
69
102
}
330
69
100
AcDbTableStyle
  3
Standard
 70
     0
 71
     0
 40
1.5
 41
1.5
280
     0
281
     0
  7
Standard
140
4.5
170
     2
 62
     0
 63
   257
283
     0
274
    -2
284
     1
 64
     0
275
    -2
285
     1
 65
     0
276
    -2
286
     1
 66
     0
277
    -2
287
     1
 67
     0
278
    -2
288
     1
 68
     0
279
    -2
289
     1
 69
     0
  7
Standard
140
6.0
170
     5
 62
     0
 63
   257
283
     0
274
    -2
284
     1
 64
     0
275
    -2
285
     1
 65
     0
276
    -2
286
     1
 66
     0
277
    -2
287
     1
 67
     0
278
    -2
288
     1
 68
     0
279
    -2
289
     1
 69
     0
  7
Standard
140
4.5
170
     5
 62
     0
 63
   257
283
     0
274
    -2
284
     1
 64
     0
275
    -2
285
     1
 65
     0
276
    -2
286
     1
 66
     0
277
    -2
287
     1
 67
     0
278
    -2
288
     1
 68
     0
279
    -2
289
     1
 69
     0
  0
VISUALSTYLE
  5
2F
102
{ACAD_REACTORS
330
2A
102
}
102
{ACAD_XDICTIONARY
360
3BB
102
}
330
2A
100
AcDbVisualStyle
  2
2dWireframe
 70
     4
 71
     0
 72
     2
 73
     0
 90
        0
 40
0.6
 41
30.0
 62
     5
 63
     7
 74
     1
 91
        4
 64
     7
 65
   257
 75
     1
175
     1
 42
1.0
 92
        0
 66
   257
 43
1.0
 76
     1
 77
     6
 78
     2
 67
     7
 79
     5
170
     0
171
     0
290
     0
174
     0
 93
        1
 44
0.0
173
     0
291
     0
 45
0.0
1001
ACAD
1000
AcDbSavedByObjectVersion
1070
     0
  0
VISUALSTYLE
  5
32
102
{ACAD_REACTORS
330
2A
102
}
102
{ACAD_XDICTIONARY
360
3C1
102
}
330
2A
100
AcDbVisualStyle
  2
Basic
 70
     7
 71
     1
 72
     0
 73
     1
 90
        0
 40
0.6
 41
30.0
 62
     5
 63
     7
 74
     0
 91
        4
 64
     7
 65
   257
 75
     1
175
     1
 42
1.0
 92
        8
 66
     7
 43
1.0
 76
     1
 77
     6
 78
     2
 67
     7
 79
     5
170
     0
171
     0
290
     0
174
     0
 93
        1
 44
0.0
173
     0
291
     1
 45
0.0
1001
ACAD
1000
AcDbSavedByObjectVersion
1070
     0
  0
VISUALSTYLE
  5
36
102
{ACAD_REACTORS
330
2A
102
}
102
{ACAD_XDICTIONARY
360
3C9
102
}
330
2A
100
AcDbVisualStyle
  2
Brighten
 70
    12
 71
     2
 72
     2
 73
     0
 90
        0
 40
0.6
 41
30.0
 62
     5
 63
     7
 74
     1
 91
        4
 64
     7
 65
   257
 75
     1
175
     1
 42
1.0
 92
        8
 66
     7
 43
1.0
 76
     1
 77
     6
 78
     2
 67
     7
 79
     5
170
     0
171
     0
290
     0
174
     0
 93
        1
 44
50.0
173
     0
291
     1
 45
0.0
1001
ACAD
1000
AcDbSavedByObjectVersion
1070
     0
  0
VISUALSTYLE
  5
3A
102
{ACAD_REACTORS
330
2A
102
}
102
{ACAD_XDICTIONARY
360
3D1
102
}
330
2A
100
AcDbVisualStyle
  2
ColorChange
 70
    16
 71
     2
 72
     2
 73
     3
 90
        0
 40
0.6
 41
30.0
 62
     5
 63
     8
 74
     1
 91
        4
 64
     7
 65
   257
 75
     1
175
     1
 42
1.0
 92
        8
 66
     8
 43
1.0
 76
     1
 77
     6
 78
     2
 67
     7
 79
     5
170
     0
171
     0
290
     0
174
     0
 93
        1
 44
0.0
173
     0
291
     1
 45
0.0
1001
ACAD
1000
AcDbSavedByObjectVersion
1070
     0
  0
VISUALSTYLE
  5
34
102
{ACAD_REACTORS
330
2A
102
}
102
{ACAD_XDICTIONARY
360
3C5
102
}
330
2A
100
AcDbVisualStyle
  2
Conceptual
 70
     9
 71
     3
 72
     2
 73
     0
 90
        0
 40
0.6
 41
30.0
 62
     5
 63
     7
 74
     2
 91
        2
 64
     7
 65
   257
 75
     1
175
     1
 42
179.0
 92
        8
 66
     7
 43
1.0
 76
     1
 77
     6
 78
     2
 67
     7
 79
     3
170
     0
171
     0
290
     0
174
     0
 93
        1
 44
0.0
173
     0
291
     0
 45
0.0
1001
ACAD
1000
AcDbSavedByObjectVersion
1070
     0
  0
VISUALSTYLE
  5
35
102
{ACAD_REACTORS
330
2A
102
}
102
{ACAD_XDICTIONARY
360
3C7
102
}
330
2A
100
AcDbVisualStyle
  2
Dim
 70
    11
 71
     2
 72
     2
 73
     0
 90
        0
 40
0.6
 41
30.0
 62
     5
 63
     7
 74
     1
 91
        4
 64
     7
 65
   257
 75
     1
175
     1
 42
1.0
 92
        8
 66
     7
 43
1.0
 76
     1
 77
     6
 78
     2
 67
     7
 79
     5
170
     0
171
     0
290
     0
174
     0
 93
        1
 44
-50.0
173
     0
291
     1
 45
0.0
1001
ACAD
1000
AcDbSavedByObjectVersion
1070
     0
  0
VISUALSTYLE
  5
3D
102
{ACAD_REACTORS
330
2A
102
}
102
{ACAD_XDICTIONARY
360
3D7
102
}
330
2A
100
AcDbVisualStyle
  2
EdgeColorOff
 70
    22
 71
     2
 72
     2
 73
     0
 90
        0
 40
0.6
 41
30.0
 62
     5
 63
     7
 74
     1
 91
        4
 64
     7
 65
   257
 75
     1
175
     1
 42
1.0
 92
        8
 66
     7
 43
1.0
 76
     1
 77
     6
 78
     2
 67
     7
 79
     5
170
     0
171
     0
290
     0
174
     0
 93
        1
 44
0.0
173
     0
291
     1
 45
0.0
1001
ACAD
1000
AcDbSavedByObjectVersion
1070
     0
  0
VISUALSTYLE
  5
39
102
{ACAD_REACTORS
330
2A
102
}
102
{ACAD_XDICTIONARY
360
3CF
102
}
330
2A
100
AcDbVisualStyle
  2
Facepattern
 70
    15
 71
     2
 72
     2
 73
     0
 90
        0
 40
0.6
 41
30.0
 62
     5
 63
     7
 74
     1
 91
        4
 64
     7
 65
   257
 75
     1
175
     1
 42
1.0
 92
        8
 66
     7
 43
1.0
 76
     1
 77
     6
 78
     2
 67
     7
 79
     5
170
     0
171
     0
290
     0
174
     0
 93
        1
 44
0.0
173
     0
291
     1
 45
0.0
1001
ACAD
1000
AcDbSavedByObjectVersion
1070
     0
  0
VISUALSTYLE
  5
2B
102
{ACAD_REACTORS
330
2A
102
}
102
{ACAD_XDICTIONARY
360
3B3
102
}
330
2A
100
AcDbVisualStyle
  2
Flat
 70
     0
 71
     2
 72
     1
 73
     1
 90
        2
 40
0.6
 41
30.0
 62
     5
 63
     7
 74
     0
 91
        0
 64
     7
 65
   257
 75
     1
175
     1
 42
1.0
 92
        8
 66
     7
 43
1.0
 76
     1
 77
     6
 78
     2
 67
     7
 79
     5
170
     0
171
     0
290
     0
174
     0
 93
       13
 44
0.0
173
     0
291
     1
 45
0.0
1001
ACAD
1000
AcDbSavedByObjectVersion
1070
     0
  0
VISUALSTYLE
  5
2C
102
{ACAD_REACTORS
330
2A
102
}
102
{ACAD_XDICTIONARY
360
3B5
102
}
330
2A
100
AcDbVisualStyle
  2
FlatWithEdges
 70
     1
 71
     2
 72
     1
 73
     1
 90
        2
 40
0.6
 41
30.0
 62
     5
 63
     7
 74
     1
 91
        0
 64
     7
 65
   257
 75
     1
175
     1
 42
1.0
 92
        0
 66
   257
 43
1.0
 76
     1
 77
     6
 78
     2
 67
     7
 79
     5
170
     0
171
     0
290
     0
174
     0
 93
       13
 44
0.0
173
     0
291
     1
 45
0.0
1001
ACAD
1000
AcDbSavedByObjectVersion
1070
     0
  0
VISUALSTYLE
  5
2D
102
{ACAD_REACTORS
330
2A
102
}
102
{ACAD_XDICTIONARY
360
3B7
102
}
330
2A
100
AcDbVisualStyle
  2
Gouraud
 70
     2
 71
     2
 72
     2
 73
     1
 90
        2
 40
0.6
 41
30.0
 62
     5
 63
     7
 74
     0
 91
        0
 64
     7
 65
   257
 75
     1
175
     1
 42
1.0
 92
        0
 66
     7
 43
1.0
 76
     1
 77
     6
 78
     2
 67
     7
 79
     5
170
     0
171
     0
290
     0
174
     0
 93
       13
 44
0.0
173
     0
291
     1
 45
0.0
1001
ACAD
1000
AcDbSavedByObjectVersion
1070
     0
  0
VISUALSTYLE
  5
2E
102
{ACAD_REACTORS
330
2A
102
}
102
{ACAD_XDICTIONARY
360
3B9
102
}
330
2A
100
AcDbVisualStyle
  2
GouraudWithEdges
 70
     3
 71
     2
 72
     2
 73
     1
 90
        2
 40
0.6
 41
30.0
 62
     5
 63
     7
 74
     1
 91
        0
 64
     7
 65
   257
 75
     1
175
     1
 42
1.0
 92
        0
 66
   257
 43
1.0
 76
     1
 77
     6
 78
     2
 67
     7
 79
     5
170
     0
171
     0
290
     0
174
     0
 93
       13
 44
0.0
173
     0
291
     1
 45
0.0
1001
ACAD
1000
AcDbSavedByObjectVersion
1070
     0
  0
VISUALSTYLE
  5
31
102
{ACAD_REACTORS
330
2A
102
}
102
{ACAD_XDICTIONARY
360
3BF
102
}
330
2A
100
AcDbVisualStyle
  2
Hidden
 70
     6
 71
     1
 72
     2
 73
     2
 90
        0
 40
0.6
 41
30.0
 62
     5
 63
     7
 74
     2
 91
        2
 64
     7
 65
   257
 75
     2
175
     1
 42
40.0
 92
        0
 66
   257
 43
1.0
 76
     1
 77
     6
 78
     2
 67
     7
 79
     3
170
     0
171
     0
290
     0
174
     0
 93
        1
 44
0.0
173
     0
291
     0
 45
0.0
1001
ACAD
1000
AcDbSavedByObjectVersion
1070
     0
  0
VISUALSTYLE
  5
3B
102
{ACAD_REACTORS
330
2A
102
}
102
{ACAD_XDICTIONARY
360
3D3
102
}
330
2A
100
AcDbVisualStyle
  2
JitterOff
 70
    20
 71
     2
 72
     2
 73
     0
 90
        0
 40
0.6
 41
30.0
 62
     5
 63
     7
 74
     1
 91
        4
 64
     7
 65
   257
 75
     1
175
     1
 42
1.0
 92
       10
 66
     7
 43
1.0
 76
     1
 77
     6
 78
     2
 67
     7
 79
     5
170
     0
171
     0
290
     0
174
     0
 93
        1
 44
0.0
173
     0
291
     1
 45
0.0
1001
ACAD
1000
AcDbSavedByObjectVersion
1070
     0
  0
VISUALSTYLE
  5
38
102
{ACAD_REACTORS
330
2A
102
}
102
{ACAD_XDICTIONARY
360
3CD
102
}
330
2A
100
AcDbVisualStyle
  2
Linepattern
 70
    14
 71
     2
 72
     2
 73
     0
 90
        0
 40
0.6
 41
30.0
 62
     5
 63
     7
 74
     1
 91
        4
 64
     7
 65
   257
 75
     7
175
     7
 42
1.0
 92
        8
 66
     7
 43
1.0
 76
     1
 77
     6
 78
     2
 67
     7
 79
     5
170
     0
171
     0
290
     0
174
     0
 93
        1
 44
0.0
173
     0
291
     1
 45
0.0
1001
ACAD
1000
AcDbSavedByObjectVersion
1070
     0
  0
VISUALSTYLE
  5
3C
102
{ACAD_REACTORS
330
2A
102
}
102
{ACAD_XDICTIONARY
360
3D5
102
}
330
2A
100
AcDbVisualStyle
  2
OverhangOff
 70
    21
 71
     2
 72
     2
 73
     0
 90
        0
 40
0.6
 41
30.0
 62
     5
 63
     7
 74
     1
 91
        4
 64
     7
 65
   257
 75
     1
175
     1
 42
1.0
 92
        9
 66
     7
 43
1.0
 76
     1
 77
     6
 78
     2
 67
     7
 79
     5
170
     0
171
     0
290
     0
174
     0
 93
        1
 44
0.0
173
     0
291
     1
 45
0.0
1001
ACAD
1000
AcDbSavedByObjectVersion
1070
     0
  0
VISUALSTYLE
  5
33
102
{ACAD_REACTORS
330
2A
102
}
102
{ACAD_XDICTIONARY
360
3C3
102
}
330
2A
100
AcDbVisualStyle
  2
Realistic
 70
     8
 71
     2
 72
     3
 73
     0
 90
        2
 40
0.6
 41
30.0
 62
     5
 63
     7
 74
     0
 91
        0
 64
     7
 65
   257
 75
     1
175
     1
 42
1.0
 92
        8
 66
   257
 43
1.0
 76
     1
 77
     6
 78
     2
 67
     7
 79
     3
170
     0
171
     0
290
     0
174
     0
 93
       13
 44
0.0
173
     0
291
     0
 45
0.0
1001
ACAD
1000
AcDbSavedByObjectVersion
1070
     0
  0
VISUALSTYLE
  5
42
102
{ACAD_REACTORS
330
2A
102
}
102
{ACAD_XDICTIONARY
360
3E1
102
}
330
2A
100
AcDbVisualStyle
  2
Shaded
 70
    27
 71
     2
 72
     2
 73
     1
 90
        2
 40
0.6
 41
30.0
 62
     5
 63
     7
 74
     0
 91
        4
 64
     7
 65
   257
 75
     1
175
     1
 42
1.0
 92
        8
 66
   257
 43
1.0
 76
     1
 77
     6
 78
     2
 67
     8
 79
     3
170
     0
171
     0
290
     0
174
     0
 93
        5
 44
0.0
173
     0
291
     0
 45
0.0
1001
ACAD
1000
AcDbSavedByObjectVersion
1070
     0
  0
VISUALSTYLE
  5
41
102
{ACAD_REACTORS
330
2A
102
}
102
{ACAD_XDICTIONARY
360
3DF
102
}
330
2A
100
AcDbVisualStyle
  2
Shaded with edges
 70
    26
 71
     2
 72
     2
 73
     1
 90
        2
 40
0.6
 41
30.0
 62
     5
 63
     7
 74
     1
 91
       10
 64
     7
 65
   257
 75
     2
175
     1
 42
1.0
 92
        8
 66
   257
 43
1.0
 76
     1
 77
     6
 78
     2
 67
     7
 79
     3
170
     0
171
     0
290
     0
174
     0
 93
        5
 44
0.0
173
     0
291
     0
 45
0.0
1001
ACAD
1000
AcDbSavedByObjectVersion
1070
     0
  0
VISUALSTYLE
  5
3E
102
{ACAD_REACTORS
330
2A
102
}
102
{ACAD_XDICTIONARY
360
3D9
102
}
330
2A
100
AcDbVisualStyle
  2
Shades of Gray
 70
    23
 71
     2
 72
     2
 73
     3
 90
        0
 40
0.6
 41
30.0
 62
     5
 63
     7
 74
     2
 91
        2
 64
     7
 65
     7
 75
     1
175
     1
 42
40.0
 92
        8
 66
     7
 43
1.0
 76
     1
 77
     6
 78
     2
 67
     7
 79
     3
170
     0
171
     0
290
     0
174
     0
 93
        1
 44
0.0
173
     0
291
     0
 45
0.0
1001
ACAD
1000
AcDbSavedByObjectVersion
1070
     0
  0
VISUALSTYLE
  5
3F
102
{ACAD_REACTORS
330
2A
102
}
102
{ACAD_XDICTIONARY
360
3DB
102
}
330
2A
100
AcDbVisualStyle
  2
Sketchy
 70
    24
 71
     1
 72
     2
 73
     2
 90
        0
 40
0.6
 41
30.0
 62
     5
 63
     7
 74
     2
 91
        2
 64
     7
 65
     7
 75
     1
175
     1
 42
40.0
 92
       11
 66
     7
 43
1.0
 76
     1
 77
     6
 78
     2
 67
     7
 79
     6
170
     0
171
     0
290
     0
174
     0
 93
        1
 44
0.0
173
     0
291
     0
 45
0.0
1001
ACAD
1000
AcDbSavedByObjectVersion
1070
     0
  0
VISUALSTYLE
  5
37
102
{ACAD_REACTORS
330
2A
102
}
102
{ACAD_XDICTIONARY
360
3CB
102
}
330
2A
100
AcDbVisualStyle
  2
Thicken
 70
    13
 71
     2
 72
     2
 73
     0
 90
        0
 40
0.6
 41
30.0
 62
     5
 63
     7
 74
     1
 91
        4
 64
     7
 65
   257
 75
     1
175
     1
 42
1.0
 92
       12
 66
     7
 43
1.0
 76
     1
 77
     6
 78
     2
 67
     7
 79
     5
170
     0
171
     0
290
     0
174
     0
 93
        1
 44
0.0
173
     0
291
     1
 45
0.0
1001
ACAD
1000
AcDbSavedByObjectVersion
1070
     0
  0
VISUALSTYLE
  5
30
102
{ACAD_REACTORS
330
2A
102
}
102
{ACAD_XDICTIONARY
360
3BD
102
}
330
2A
100
AcDbVisualStyle
  2
Wireframe
 70
     5
 71
     0
 72
     2
 73
     0
 90
        0
 40
0.6
 41
30.0
 62
     5
 63
     7
 74
     1
 91
        4
 64
     7
 65
   257
 75
     1
175
     1
 42
1.0
 92
        0
 66
   257
 43
1.0
 76
     1
 77
     6
 78
     2
 67
     7
 79
     3
170
     0
171
     0
290
     0
174
     0
 93
        1
 44
0.0
173
     0
291
     0
 45
0.0
1001
ACAD
1000
AcDbSavedByObjectVersion
1070
     0
  0
VISUALSTYLE
  5
40
102
{ACAD_REACTORS
330
2A
102
}
102
{ACAD_XDICTIONARY
360
3DD
102
}
330
2A
100
AcDbVisualStyle
  2
X-Ray
 70
    25
 71
     2
 72
     2
 73
     1
 90
        1
 40
0.5
 41
30.0
 62
     5
 63
     7
 74
     1
 91
        0
 64
     7
 65
   257
 75
     1
175
     1
 42
1.0
 92
        8
 66
     7
 43
1.0
 76
     1
 77
     6
 78
     2
 67
     7
 79
     3
170
     0
171
     0
290
     0
174
     0
 93
       13
 44
0.0
173
     0
291
     0
 45
0.0
1001
ACAD
1000
AcDbSavedByObjectVersion
1070
     0
  0
DICTIONARYVAR
  5
3B1
102
{ACAD_REACTORS
330
39F
102
}
330
39F
100
DictionaryVariables
280
     0
  1
1:1
  0
DICTIONARYVAR
  5
3A6
102
{ACAD_REACTORS
330
39F
102
}
330
39F
100
DictionaryVariables
280
     0
  1
3.500000
  0
DICTIONARYVAR
  5
3A7
102
{ACAD_REACTORS
330
39F
102
}
330
39F
100
DictionaryVariables
280
     0
  1
acadiso.lin
  0
DICTIONARYVAR
  5
3A1
102
{ACAD_REACTORS
330
39F
102
}
330
39F
100
DictionaryVariables
280
     0
  1
Standard
  0
DICTIONARYVAR
  5
3A0
102
{ACAD_REACTORS
330
39F
102
}
330
39F
100
DictionaryVariables
280
     0
  1
Standard
  0
DICTIONARYVAR
  5
3A8
102
{ACAD_REACTORS
330
39F
102
}
330
39F
100
DictionaryVariables
280
     0
  1
2
  0
DICTIONARYVAR
  5
3A9
102
{ACAD_REACTORS
330
39F
102
}
330
39F
100
DictionaryVariables
280
     0
  1
1
  0
DICTIONARYVAR
  5
3B2
102
{ACAD_REACTORS
330
39F
102
}
330
39F
100
DictionaryVariables
280
     0
  1
1
  0
DICTIONARYVAR
  5
3A3
102
{ACAD_REACTORS
330
39F
102
}
330
39F
100
DictionaryVariables
280
     0
  1
80.000000
  0
DICTIONARYVAR
  5
3A2
102
{ACAD_REACTORS
330
39F
102
}
330
39F
100
DictionaryVariables
280
     0
  1
5.000000
  0
DICTIONARY
  5
3E5
330
45
100
AcDbDictionary
280
     1
281
     1
  3
ACAD_XREC_ROUNDTRIP
360
3E6
  0
DICTIONARY
  5
3E3
330
44
100
AcDbDictionary
280
     1
281
     1
  3
ACAD_XREC_ROUNDTRIP
360
3E4
  0
DICTIONARY
  5
3E7
330
46
100
AcDbDictionary
280
     1
281
     1
  3
ACAD_XREC_ROUNDTRIP
360
3E8
  0
DICTIONARY
  5
3EA
330
6C
100
AcDbDictionary
280
     1
281
     1
  3
ACAD_XREC_ROUNDTRIP
360
3EB
  0
DICTIONARY
  5
3BB
330
2F
100
AcDbDictionary
280
     1
281
     1
  3
ACAD_XREC_ROUNDTRIP
360
3BC
  0
DICTIONARY
  5
3C1
330
32
100
AcDbDictionary
280
     1
281
     1
  3
ACAD_XREC_ROUNDTRIP
360
3C2
  0
DICTIONARY
  5
3C9
330
36
100
AcDbDictionary
280
     1
281
     1
  3
ACAD_XREC_ROUNDTRIP
360
3CA
  0
DICTIONARY
  5
3D1
330
3A
100
AcDbDictionary
280
     1
281
     1
  3
ACAD_XREC_ROUNDTRIP
360
3D2
  0
DICTIONARY
  5
3C5
330
34
100
AcDbDictionary
280
     1
281
     1
  3
ACAD_XREC_ROUNDTRIP
360
3C6
  0
DICTIONARY
  5
3C7
330
35
100
AcDbDictionary
280
     1
281
     1
  3
ACAD_XREC_ROUNDTRIP
360
3C8
  0
DICTIONARY
  5
3D7
330
3D
100
AcDbDictionary
280
     1
281
     1
  3
ACAD_XREC_ROUNDTRIP
360
3D8
  0
DICTIONARY
  5
3CF
330
39
100
AcDbDictionary
280
     1
281
     1
  3
ACAD_XREC_ROUNDTRIP
360
3D0
  0
DICTIONARY
  5
3B3
330
2B
100
AcDbDictionary
280
     1
281
     1
  3
ACAD_XREC_ROUNDTRIP
360
3B4
  0
DICTIONARY
  5
3B5
330
2C
100
AcDbDictionary
280
     1
281
     1
  3
ACAD_XREC_ROUNDTRIP
360
3B6
  0
DICTIONARY
  5
3B7
330
2D
100
AcDbDictionary
280
     1
281
     1
  3
ACAD_XREC_ROUNDTRIP
360
3B8
  0
DICTIONARY
  5
3B9
330
2E
100
AcDbDictionary
280
     1
281
     1
  3
ACAD_XREC_ROUNDTRIP
360
3BA
  0
DICTIONARY
  5
3BF
330
31
100
AcDbDictionary
280
     1
281
     1
  3
ACAD_XREC_ROUNDTRIP
360
3C0
  0
DICTIONARY
  5
3D3
330
3B
100
AcDbDictionary
280
     1
281
     1
  3
ACAD_XREC_ROUNDTRIP
360
3D4
  0
DICTIONARY
  5
3CD
330
38
100
AcDbDictionary
280
     1
281
     1
  3
ACAD_XREC_ROUNDTRIP
360
3CE
  0
DICTIONARY
  5
3D5
330
3C
100
AcDbDictionary
280
     1
281
     1
  3
ACAD_XREC_ROUNDTRIP
360
3D6
  0
DICTIONARY
  5
3C3
330
33
100
AcDbDictionary
280
     1
281
     1
  3
ACAD_XREC_ROUNDTRIP
360
3C4
  0
DICTIONARY
  5
3E1
330
42
100
AcDbDictionary
280
     1
281
     1
  3
ACAD_XREC_ROUNDTRIP
360
3E2
  0
DICTIONARY
  5
3DF
330
41
100
AcDbDictionary
280
     1
281
     1
  3
ACAD_XREC_ROUNDTRIP
360
3E0
  0
DICTIONARY
  5
3D9
330
3E
100
AcDbDictionary
280
     1
281
     1
  3
ACAD_XREC_ROUNDTRIP
360
3DA
  0
DICTIONARY
  5
3DB
330
3F
100
AcDbDictionary
280
     1
281
     1
  3
ACAD_XREC_ROUNDTRIP
360
3DC
  0
DICTIONARY
  5
3CB
330
37
100
AcDbDictionary
280
     1
281
     1
  3
ACAD_XREC_ROUNDTRIP
360
3CC
  0
DICTIONARY
  5
3BD
330
30
100
AcDbDictionary
280
     1
281
     1
  3
ACAD_XREC_ROUNDTRIP
360
3BE
  0
DICTIONARY
  5
3DD
330
40
100
AcDbDictionary
280
     1
281
     1
  3
ACAD_XREC_ROUNDTRIP
360
3DE
  0
XRECORD
  5
3E6
102
{ACAD_REACTORS
330
3E5
102
}
330
3E5
100
AcDbXrecord
280
     1
102
MATERIAL
148
0.0
149
0.0
149
0.0
 93
        0
 94
      127
282
     0
 72
     1
 77
     1
171
     1
175
     1
179
     1
273
     0
  0
XRECORD
  5
3E4
102
{ACAD_REACTORS
330
3E3
102
}
330
3E3
100
AcDbXrecord
280
     1
102
MATERIAL
148
0.0
149
0.0
149
0.0
 93
        0
 94
      127
282
     0
 72
     1
 77
     1
171
     1
175
     1
179
     1
273
     0
  0
XRECORD
  5
3E8
102
{ACAD_REACTORS
330
3E7
102
}
330
3E7
100
AcDbXrecord
280
     1
102
MATERIAL
148
0.0
149
0.0
149
0.0
 93
        0
 94
      127
282
     0
 72
     1
 77
     1
171
     1
175
     1
179
     1
273
     0
  0
XRECORD
  5
3EB
102
{ACAD_REACTORS
330
3EA
102
}
330
3EA
100
AcDbXrecord
280
     1
102
ACAD_ROUNDTRIP_2010_MLEADER_STYLE
  0
XRECORD
  5
3BC
102
{ACAD_REACTORS
330
3BB
102
}
330
3BB
100
AcDbXrecord
280
     1
102
RTVSPropertyOp0
 70
     1
102
RTVSPropertyOp1
 70
     1
102
RTVSPropertyOp2
 70
     1
102
RTVSPropertyOp3
 70
     1
102
RTVSPropertyOp4
 70
     1
102
RTVSPropertyOp5
 70
     1
102
RTVSPropertyOp6
 70
     1
102
RTVSPropertyOp7
 70
     1
102
RTVSPropertyOp8
 70
     1
102
RTVSPropertyOp9
 70
     1
102
RTVSPropertyOp10
 70
     1
102
RTVSPropertyOp11
 70
     1
102
RTVSPropertyOp12
 70
     1
102
RTVSPropertyOp13
 70
     1
102
RTVSPropertyOp14
 70
     1
102
RTVSPropertyOp15
 70
     1
102
RTVSPropertyOp16
 70
     1
102
RTVSPropertyOp17
 70
     1
102
RTVSPropertyOp18
 70
     1
102
RTVSPropertyOp19
 70
     1
102
RTVSPropertyOp20
 70
     1
102
RTVSPropertyOp21
 70
     1
102
RTVSPropertyOp22
 70
     1
102
RTVSPropertyOp23
 70
     1
102
RTVSPropertyOp24
 70
     1
102
RTVSPropertyOp25
 70
     1
102
RTVSPropertyOp26
 70
     1
102
RTVSPropertyOp27
 70
     1
102
RTVSPropertyOp28
 70
     1
102
RTVSPropertyOp29
 70
     1
102
RTVSPropertyOp30
 70
     1
102
RTVSPropertyOp31
 70
     1
102
RTVSPropertyOp32
 70
     1
102
RTVSPropertyOp33
 70
     1
102
RTVSPropertyOp34
 70
     1
102
RTVSPropertyOp35
 70
     1
102
RTVSPropertyOp36
 70
     1
102
RTVSPropertyOp37
 70
     1
102
RTVSPropertyOp38
 70
     1
102
RTVSPropertyOp39
 70
     1
102
RTVSPropertyOp40
 70
     1
102
RTVSPropertyOp41
 70
     1
102
RTVSPropertyOp42
 70
     1
102
RTVSPropertyOp43
 70
     1
102
RTVSPropertyOp44
 70
     1
102
RTVSPropertyOp45
 70
     1
102
RTVSPropertyOp46
 70
     1
102
RTVSPropertyOp47
 70
     1
102
RTVSPropertyOp48
 70
     1
102
RTVSPropertyOp49
 70
     1
102
RTVSPropertyOp50
 70
     1
102
RTVSPropertyOp51
 70
     0
102
RTVSPropertyOp52
 70
     0
102
RTVSPropertyOp53
 70
     1
102
RTVSPropertyOp54
 70
     1
102
RTVSPropertyOp55
 70
     1
102
RTVSPropertyOp56
 70
     1
102
RTVSPropertyOp57
 70
     1
102
RTVSPost2010Prop28
280
     1
102
RTVSPost2010PropOp28
 70
     1
102
RTVSPost2010Prop29
280
     1
102
RTVSPost2010PropOp29
 70
     1
102
RTVSPost2010Prop30
280
     0
102
RTVSPost2010PropOp30
 70
     1
102
RTVSPost2010Prop31
280
     0
102
RTVSPost2010PropOp31
 70
     1
102
RTVSPost2010Prop32
280
     0
102
RTVSPost2010PropOp32
 70
     1
102
RTVSPost2010Prop33
280
     0
102
RTVSPost2010PropOp33
 70
     1
102
RTVSPost2010Prop34
280
     0
102
RTVSPost2010PropOp34
 70
     1
102
RTVSPost2010Prop35
280
     0
102
RTVSPost2010PropOp35
 70
     1
102
RTVSPost2010Prop36
280
     0
102
RTVSPost2010PropOp36
 70
     1
102
RTVSPost2010Prop37
 90
       50
102
RTVSPost2010PropOp37
 70
     1
102
RTVSPost2010Prop38
140
0.0
102
RTVSPost2010PropOp38
 70
     1
102
RTVSPost2010Prop39
140
1.0
102
RTVSPost2010PropOp39
 70
     1
102
RTVSPost2010Prop40
 90
        0
102
RTVSPost2010PropOp40
 70
     1
102
RTVSPost2010Prop41ColorIndex
 90
       18
102
RTVSPost2010Prop41ColorRGB
 90
        0
102
RTVSPost2010PropOp41
 70
     1
102
RTVSPost2010Prop42
 90
       50
102
RTVSPost2010PropOp42
 70
     1
102
RTVSPost2010Prop43
 90
        3
102
RTVSPost2010PropOp43
 70
     1
102
RTVSPost2010Prop44ColorIndex
 90
        5
102
RTVSPost2010Prop44ColorRGB
 90
      255
102
RTVSPost2010PropOp44
 70
     1
102
RTVSPost2010Prop45
280
     0
102
RTVSPost2010PropOp45
 70
     1
102
RTVSPost2010Prop46
 90
       50
102
RTVSPost2010PropOp46
 70
     1
102
RTVSPost2010Prop47
 90
       50
102
RTVSPost2010PropOp47
 70
     1
102
RTVSPost2010Prop48
 90
       50
102
RTVSPost2010PropOp48
 70
     1
102
RTVSPost2010Prop49
280
     0
102
RTVSPost2010PropOp49
 70
     1
102
RTVSPost2010Prop50
 90
       50
102
RTVSPost2010PropOp50
 70
     1
102
RTVSPost2010Prop51ColorIndex
 90
      256
102
RTVSPost2010Prop51ColorRGB
 90
-16777216
102
RTVSPost2010PropOp51
 70
     0
102
RTVSPost2010Prop52
140
1.0
102
RTVSPost2010PropOp52
 70
     0
102
RTVSPost2010Prop53
 90
        2
102
RTVSPost2010PropOp53
 70
     1
102
RTVSPost2010Prop54
  1
strokes_ogs.tif
102
RTVSPost2010PropOp54
 70
     1
102
RTVSPost2010Prop55
280
     0
102
RTVSPost2010PropOp55
 70
     1
102
RTVSPost2010Prop56
140
1.0
102
RTVSPost2010PropOp56
 70
     1
102
RTVSPost2010Prop57
140
1.0
102
RTVSPost2010PropOp57
 70
     1
  0
XRECORD
  5
3C2
102
{ACAD_REACTORS
330
3C1
102
}
330
3C1
100
AcDbXrecord
280
     1
102
RTVSPropertyOp0
 70
     1
102
RTVSPropertyOp1
 70
     1
102
RTVSPropertyOp2
 70
     1
102
RTVSPropertyOp3
 70
     1
102
RTVSPropertyOp4
 70
     1
102
RTVSPropertyOp5
 70
     1
102
RTVSPropertyOp6
 70
     1
102
RTVSPropertyOp7
 70
     1
102
RTVSPropertyOp8
 70
     1
102
RTVSPropertyOp9
 70
     1
102
RTVSPropertyOp10
 70
     1
102
RTVSPropertyOp11
 70
     1
102
RTVSPropertyOp12
 70
     1
102
RTVSPropertyOp13
 70
     1
102
RTVSPropertyOp14
 70
     1
102
RTVSPropertyOp15
 70
     1
102
RTVSPropertyOp16
 70
     1
102
RTVSPropertyOp17
 70
     1
102
RTVSPropertyOp18
 70
     1
102
RTVSPropertyOp19
 70
     1
102
RTVSPropertyOp20
 70
     1
102
RTVSPropertyOp21
 70
     1
102
RTVSPropertyOp22
 70
     1
102
RTVSPropertyOp23
 70
     1
102
RTVSPropertyOp24
 70
     1
102
RTVSPropertyOp25
 70
     1
102
RTVSPropertyOp26
 70
     1
102
RTVSPropertyOp27
 70
     1
102
RTVSPropertyOp28
 70
     1
102
RTVSPropertyOp29
 70
     1
102
RTVSPropertyOp30
 70
     1
102
RTVSPropertyOp31
 70
     1
102
RTVSPropertyOp32
 70
     1
102
RTVSPropertyOp33
 70
     1
102
RTVSPropertyOp34
 70
     1
102
RTVSPropertyOp35
 70
     1
102
RTVSPropertyOp36
 70
     1
102
RTVSPropertyOp37
 70
     1
102
RTVSPropertyOp38
 70
     1
102
RTVSPropertyOp39
 70
     1
102
RTVSPropertyOp40
 70
     1
102
RTVSPropertyOp41
 70
     1
102
RTVSPropertyOp42
 70
     1
102
RTVSPropertyOp43
 70
     1
102
RTVSPropertyOp44
 70
     1
102
RTVSPropertyOp45
 70
     1
102
RTVSPropertyOp46
 70
     1
102
RTVSPropertyOp47
 70
     1
102
RTVSPropertyOp48
 70
     1
102
RTVSPropertyOp49
 70
     1
102
RTVSPropertyOp50
 70
     1
102
RTVSPropertyOp51
 70
     0
102
RTVSPropertyOp52
 70
     0
102
RTVSPropertyOp53
 70
     1
102
RTVSPropertyOp54
 70
     1
102
RTVSPropertyOp55
 70
     1
102
RTVSPropertyOp56
 70
     1
102
RTVSPropertyOp57
 70
     1
102
RTVSPost2010Prop28
280
     0
102
RTVSPost2010PropOp28
 70
     1
102
RTVSPost2010Prop29
280
     1
102
RTVSPost2010PropOp29
 70
     1
102
RTVSPost2010Prop30
280
     1
102
RTVSPost2010PropOp30
 70
     1
102
RTVSPost2010Prop31
280
     0
102
RTVSPost2010PropOp31
 70
     1
102
RTVSPost2010Prop32
280
     0
102
RTVSPost2010PropOp32
 70
     1
102
RTVSPost2010Prop33
280
     0
102
RTVSPost2010PropOp33
 70
     1
102
RTVSPost2010Prop34
280
     0
102
RTVSPost2010PropOp34
 70
     1
102
RTVSPost2010Prop35
280
     0
102
RTVSPost2010PropOp35
 70
     1
102
RTVSPost2010Prop36
280
     0
102
RTVSPost2010PropOp36
 70
     1
102
RTVSPost2010Prop37
 90
       50
102
RTVSPost2010PropOp37
 70
     1
102
RTVSPost2010Prop38
140
0.0
102
RTVSPost2010PropOp38
 70
     1
102
RTVSPost2010Prop39
140
1.0
102
RTVSPost2010PropOp39
 70
     1
102
RTVSPost2010Prop40
 90
        0
102
RTVSPost2010PropOp40
 70
     1
102
RTVSPost2010Prop41ColorIndex
 90
       18
102
RTVSPost2010Prop41ColorRGB
 90
        0
102
RTVSPost2010PropOp41
 70
     1
102
RTVSPost2010Prop42
 90
       50
102
RTVSPost2010PropOp42
 70
     1
102
RTVSPost2010Prop43
 90
        3
102
RTVSPost2010PropOp43
 70
     1
102
RTVSPost2010Prop44ColorIndex
 90
        5
102
RTVSPost2010Prop44ColorRGB
 90
      255
102
RTVSPost2010PropOp44
 70
     1
102
RTVSPost2010Prop45
280
     0
102
RTVSPost2010PropOp45
 70
     1
102
RTVSPost2010Prop46
 90
       50
102
RTVSPost2010PropOp46
 70
     1
102
RTVSPost2010Prop47
 90
       50
102
RTVSPost2010PropOp47
 70
     1
102
RTVSPost2010Prop48
 90
       50
102
RTVSPost2010PropOp48
 70
     1
102
RTVSPost2010Prop49
280
     0
102
RTVSPost2010PropOp49
 70
     1
102
RTVSPost2010Prop50
 90
       50
102
RTVSPost2010PropOp50
 70
     1
102
RTVSPost2010Prop51ColorIndex
 90
      256
102
RTVSPost2010Prop51ColorRGB
 90
-16777216
102
RTVSPost2010PropOp51
 70
     0
102
RTVSPost2010Prop52
140
1.0
102
RTVSPost2010PropOp52
 70
     0
102
RTVSPost2010Prop53
 90
        2
102
RTVSPost2010PropOp53
 70
     1
102
RTVSPost2010Prop54
  1
strokes_ogs.tif
102
RTVSPost2010PropOp54
 70
     1
102
RTVSPost2010Prop55
280
     0
102
RTVSPost2010PropOp55
 70
     1
102
RTVSPost2010Prop56
140
1.0
102
RTVSPost2010PropOp56
 70
     1
102
RTVSPost2010Prop57
140
1.0
102
RTVSPost2010PropOp57
 70
     1
  0
XRECORD
  5
3CA
102
{ACAD_REACTORS
330
3C9
102
}
330
3C9
100
AcDbXrecord
280
     1
102
RTVSPropertyOp0
 70
     1
102
RTVSPropertyOp1
 70
     1
102
RTVSPropertyOp2
 70
     1
102
RTVSPropertyOp3
 70
     1
102
RTVSPropertyOp4
 70
     1
102
RTVSPropertyOp5
 70
     1
102
RTVSPropertyOp6
 70
     1
102
RTVSPropertyOp7
 70
     1
102
RTVSPropertyOp8
 70
     1
102
RTVSPropertyOp9
 70
     1
102
RTVSPropertyOp10
 70
     1
102
RTVSPropertyOp11
 70
     1
102
RTVSPropertyOp12
 70
     1
102
RTVSPropertyOp13
 70
     1
102
RTVSPropertyOp14
 70
     1
102
RTVSPropertyOp15
 70
     1
102
RTVSPropertyOp16
 70
     1
102
RTVSPropertyOp17
 70
     1
102
RTVSPropertyOp18
 70
     1
102
RTVSPropertyOp19
 70
     1
102
RTVSPropertyOp20
 70
     1
102
RTVSPropertyOp21
 70
     1
102
RTVSPropertyOp22
 70
     1
102
RTVSPropertyOp23
 70
     1
102
RTVSPropertyOp24
 70
     1
102
RTVSPropertyOp25
 70
     1
102
RTVSPropertyOp26
 70
     1
102
RTVSPropertyOp27
 70
     1
102
RTVSPropertyOp28
 70
     1
102
RTVSPropertyOp29
 70
     1
102
RTVSPropertyOp30
 70
     1
102
RTVSPropertyOp31
 70
     1
102
RTVSPropertyOp32
 70
     1
102
RTVSPropertyOp33
 70
     1
102
RTVSPropertyOp34
 70
     1
102
RTVSPropertyOp35
 70
     1
102
RTVSPropertyOp36
 70
     1
102
RTVSPropertyOp37
 70
     1
102
RTVSPropertyOp38
 70
     1
102
RTVSPropertyOp39
 70
     1
102
RTVSPropertyOp40
 70
     1
102
RTVSPropertyOp41
 70
     1
102
RTVSPropertyOp42
 70
     1
102
RTVSPropertyOp43
 70
     1
102
RTVSPropertyOp44
 70
     1
102
RTVSPropertyOp45
 70
     1
102
RTVSPropertyOp46
 70
     1
102
RTVSPropertyOp47
 70
     1
102
RTVSPropertyOp48
 70
     1
102
RTVSPropertyOp49
 70
     1
102
RTVSPropertyOp50
 70
     1
102
RTVSPropertyOp51
 70
     0
102
RTVSPropertyOp52
 70
     0
102
RTVSPropertyOp53
 70
     1
102
RTVSPropertyOp54
 70
     1
102
RTVSPropertyOp55
 70
     1
102
RTVSPropertyOp56
 70
     1
102
RTVSPropertyOp57
 70
     1
102
RTVSPost2010Prop28
280
     0
102
RTVSPost2010PropOp28
 70
     1
102
RTVSPost2010Prop29
280
     1
102
RTVSPost2010PropOp29
 70
     1
102
RTVSPost2010Prop30
280
     1
102
RTVSPost2010PropOp30
 70
     1
102
RTVSPost2010Prop31
280
     0
102
RTVSPost2010PropOp31
 70
     1
102
RTVSPost2010Prop32
280
     0
102
RTVSPost2010PropOp32
 70
     1
102
RTVSPost2010Prop33
280
     0
102
RTVSPost2010PropOp33
 70
     1
102
RTVSPost2010Prop34
280
     0
102
RTVSPost2010PropOp34
 70
     1
102
RTVSPost2010Prop35
280
     0
102
RTVSPost2010PropOp35
 70
     1
102
RTVSPost2010Prop36
280
     0
102
RTVSPost2010PropOp36
 70
     1
102
RTVSPost2010Prop37
 90
       50
102
RTVSPost2010PropOp37
 70
     1
102
RTVSPost2010Prop38
140
0.0
102
RTVSPost2010PropOp38
 70
     1
102
RTVSPost2010Prop39
140
1.0
102
RTVSPost2010PropOp39
 70
     1
102
RTVSPost2010Prop40
 90
        0
102
RTVSPost2010PropOp40
 70
     1
102
RTVSPost2010Prop41ColorIndex
 90
       18
102
RTVSPost2010Prop41ColorRGB
 90
        0
102
RTVSPost2010PropOp41
 70
     1
102
RTVSPost2010Prop42
 90
       50
102
RTVSPost2010PropOp42
 70
     1
102
RTVSPost2010Prop43
 90
        3
102
RTVSPost2010PropOp43
 70
     1
102
RTVSPost2010Prop44ColorIndex
 90
        5
102
RTVSPost2010Prop44ColorRGB
 90
      255
102
RTVSPost2010PropOp44
 70
     1
102
RTVSPost2010Prop45
280
     0
102
RTVSPost2010PropOp45
 70
     1
102
RTVSPost2010Prop46
 90
       50
102
RTVSPost2010PropOp46
 70
     1
102
RTVSPost2010Prop47
 90
       50
102
RTVSPost2010PropOp47
 70
     1
102
RTVSPost2010Prop48
 90
       50
102
RTVSPost2010PropOp48
 70
     1
102
RTVSPost2010Prop49
280
     0
102
RTVSPost2010PropOp49
 70
     1
102
RTVSPost2010Prop50
 90
       50
102
RTVSPost2010PropOp50
 70
     1
102
RTVSPost2010Prop51ColorIndex
 90
      256
102
RTVSPost2010Prop51ColorRGB
 90
-16777216
102
RTVSPost2010PropOp51
 70
     0
102
RTVSPost2010Prop52
140
1.0
102
RTVSPost2010PropOp52
 70
     0
102
RTVSPost2010Prop53
 90
        2
102
RTVSPost2010PropOp53
 70
     1
102
RTVSPost2010Prop54
  1
strokes_ogs.tif
102
RTVSPost2010PropOp54
 70
     1
102
RTVSPost2010Prop55
280
     0
102
RTVSPost2010PropOp55
 70
     1
102
RTVSPost2010Prop56
140
1.0
102
RTVSPost2010PropOp56
 70
     1
102
RTVSPost2010Prop57
140
1.0
102
RTVSPost2010PropOp57
 70
     1
  0
XRECORD
  5
3D2
102
{ACAD_REACTORS
330
3D1
102
}
330
3D1
100
AcDbXrecord
280
     1
102
RTVSPropertyOp0
 70
     1
102
RTVSPropertyOp1
 70
     1
102
RTVSPropertyOp2
 70
     1
102
RTVSPropertyOp3
 70
     1
102
RTVSPropertyOp4
 70
     1
102
RTVSPropertyOp5
 70
     1
102
RTVSPropertyOp6
 70
     1
102
RTVSPropertyOp7
 70
     1
102
RTVSPropertyOp8
 70
     1
102
RTVSPropertyOp9
 70
     1
102
RTVSPropertyOp10
 70
     1
102
RTVSPropertyOp11
 70
     1
102
RTVSPropertyOp12
 70
     1
102
RTVSPropertyOp13
 70
     1
102
RTVSPropertyOp14
 70
     1
102
RTVSPropertyOp15
 70
     1
102
RTVSPropertyOp16
 70
     1
102
RTVSPropertyOp17
 70
     1
102
RTVSPropertyOp18
 70
     1
102
RTVSPropertyOp19
 70
     1
102
RTVSPropertyOp20
 70
     1
102
RTVSPropertyOp21
 70
     1
102
RTVSPropertyOp22
 70
     1
102
RTVSPropertyOp23
 70
     1
102
RTVSPropertyOp24
 70
     1
102
RTVSPropertyOp25
 70
     1
102
RTVSPropertyOp26
 70
     1
102
RTVSPropertyOp27
 70
     1
102
RTVSPropertyOp28
 70
     1
102
RTVSPropertyOp29
 70
     1
102
RTVSPropertyOp30
 70
     1
102
RTVSPropertyOp31
 70
     1
102
RTVSPropertyOp32
 70
     1
102
RTVSPropertyOp33
 70
     1
102
RTVSPropertyOp34
 70
     1
102
RTVSPropertyOp35
 70
     1
102
RTVSPropertyOp36
 70
     1
102
RTVSPropertyOp37
 70
     1
102
RTVSPropertyOp38
 70
     1
102
RTVSPropertyOp39
 70
     1
102
RTVSPropertyOp40
 70
     1
102
RTVSPropertyOp41
 70
     1
102
RTVSPropertyOp42
 70
     1
102
RTVSPropertyOp43
 70
     1
102
RTVSPropertyOp44
 70
     1
102
RTVSPropertyOp45
 70
     1
102
RTVSPropertyOp46
 70
     1
102
RTVSPropertyOp47
 70
     1
102
RTVSPropertyOp48
 70
     1
102
RTVSPropertyOp49
 70
     1
102
RTVSPropertyOp50
 70
     1
102
RTVSPropertyOp51
 70
     0
102
RTVSPropertyOp52
 70
     0
102
RTVSPropertyOp53
 70
     1
102
RTVSPropertyOp54
 70
     1
102
RTVSPropertyOp55
 70
     1
102
RTVSPropertyOp56
 70
     1
102
RTVSPropertyOp57
 70
     1
102
RTVSPost2010Prop28
280
     0
102
RTVSPost2010PropOp28
 70
     1
102
RTVSPost2010Prop29
280
     1
102
RTVSPost2010PropOp29
 70
     1
102
RTVSPost2010Prop30
280
     1
102
RTVSPost2010PropOp30
 70
     1
102
RTVSPost2010Prop31
280
     0
102
RTVSPost2010PropOp31
 70
     1
102
RTVSPost2010Prop32
280
     0
102
RTVSPost2010PropOp32
 70
     1
102
RTVSPost2010Prop33
280
     0
102
RTVSPost2010PropOp33
 70
     1
102
RTVSPost2010Prop34
280
     0
102
RTVSPost2010PropOp34
 70
     1
102
RTVSPost2010Prop35
280
     0
102
RTVSPost2010PropOp35
 70
     1
102
RTVSPost2010Prop36
280
     0
102
RTVSPost2010PropOp36
 70
     1
102
RTVSPost2010Prop37
 90
       50
102
RTVSPost2010PropOp37
 70
     1
102
RTVSPost2010Prop38
140
0.0
102
RTVSPost2010PropOp38
 70
     1
102
RTVSPost2010Prop39
140
1.0
102
RTVSPost2010PropOp39
 70
     1
102
RTVSPost2010Prop40
 90
        0
102
RTVSPost2010PropOp40
 70
     1
102
RTVSPost2010Prop41ColorIndex
 90
       18
102
RTVSPost2010Prop41ColorRGB
 90
        0
102
RTVSPost2010PropOp41
 70
     1
102
RTVSPost2010Prop42
 90
       50
102
RTVSPost2010PropOp42
 70
     1
102
RTVSPost2010Prop43
 90
        3
102
RTVSPost2010PropOp43
 70
     1
102
RTVSPost2010Prop44ColorIndex
 90
        5
102
RTVSPost2010Prop44ColorRGB
 90
      255
102
RTVSPost2010PropOp44
 70
     1
102
RTVSPost2010Prop45
280
     0
102
RTVSPost2010PropOp45
 70
     1
102
RTVSPost2010Prop46
 90
       50
102
RTVSPost2010PropOp46
 70
     1
102
RTVSPost2010Prop47
 90
       50
102
RTVSPost2010PropOp47
 70
     1
102
RTVSPost2010Prop48
 90
       50
102
RTVSPost2010PropOp48
 70
     1
102
RTVSPost2010Prop49
280
     0
102
RTVSPost2010PropOp49
 70
     1
102
RTVSPost2010Prop50
 90
       50
102
RTVSPost2010PropOp50
 70
     1
102
RTVSPost2010Prop51ColorIndex
 90
      256
102
RTVSPost2010Prop51ColorRGB
 90
-16777216
102
RTVSPost2010PropOp51
 70
     0
102
RTVSPost2010Prop52
140
1.0
102
RTVSPost2010PropOp52
 70
     0
102
RTVSPost2010Prop53
 90
        2
102
RTVSPost2010PropOp53
 70
     1
102
RTVSPost2010Prop54
  1
strokes_ogs.tif
102
RTVSPost2010PropOp54
 70
     1
102
RTVSPost2010Prop55
280
     0
102
RTVSPost2010PropOp55
 70
     1
102
RTVSPost2010Prop56
140
1.0
102
RTVSPost2010PropOp56
 70
     1
102
RTVSPost2010Prop57
140
1.0
102
RTVSPost2010PropOp57
 70
     1
  0
XRECORD
  5
3C6
102
{ACAD_REACTORS
330
3C5
102
}
330
3C5
100
AcDbXrecord
280
     1
102
RTVSPropertyOp0
 70
     1
102
RTVSPropertyOp1
 70
     1
102
RTVSPropertyOp2
 70
     1
102
RTVSPropertyOp3
 70
     1
102
RTVSPropertyOp4
 70
     1
102
RTVSPropertyOp5
 70
     1
102
RTVSPropertyOp6
 70
     1
102
RTVSPropertyOp7
 70
     1
102
RTVSPropertyOp8
 70
     1
102
RTVSPropertyOp9
 70
     1
102
RTVSPropertyOp10
 70
     1
102
RTVSPropertyOp11
 70
     1
102
RTVSPropertyOp12
 70
     1
102
RTVSPropertyOp13
 70
     1
102
RTVSPropertyOp14
 70
     1
102
RTVSPropertyOp15
 70
     1
102
RTVSPropertyOp16
 70
     1
102
RTVSPropertyOp17
 70
     1
102
RTVSPropertyOp18
 70
     1
102
RTVSPropertyOp19
 70
     1
102
RTVSPropertyOp20
 70
     1
102
RTVSPropertyOp21
 70
     1
102
RTVSPropertyOp22
 70
     1
102
RTVSPropertyOp23
 70
     1
102
RTVSPropertyOp24
 70
     1
102
RTVSPropertyOp25
 70
     1
102
RTVSPropertyOp26
 70
     1
102
RTVSPropertyOp27
 70
     1
102
RTVSPropertyOp28
 70
     1
102
RTVSPropertyOp29
 70
     1
102
RTVSPropertyOp30
 70
     1
102
RTVSPropertyOp31
 70
     1
102
RTVSPropertyOp32
 70
     1
102
RTVSPropertyOp33
 70
     1
102
RTVSPropertyOp34
 70
     1
102
RTVSPropertyOp35
 70
     1
102
RTVSPropertyOp36
 70
     1
102
RTVSPropertyOp37
 70
     1
102
RTVSPropertyOp38
 70
     1
102
RTVSPropertyOp39
 70
     1
102
RTVSPropertyOp40
 70
     1
102
RTVSPropertyOp41
 70
     1
102
RTVSPropertyOp42
 70
     1
102
RTVSPropertyOp43
 70
     1
102
RTVSPropertyOp44
 70
     1
102
RTVSPropertyOp45
 70
     1
102
RTVSPropertyOp46
 70
     1
102
RTVSPropertyOp47
 70
     1
102
RTVSPropertyOp48
 70
     1
102
RTVSPropertyOp49
 70
     1
102
RTVSPropertyOp50
 70
     1
102
RTVSPropertyOp51
 70
     0
102
RTVSPropertyOp52
 70
     0
102
RTVSPropertyOp53
 70
     1
102
RTVSPropertyOp54
 70
     1
102
RTVSPropertyOp55
 70
     1
102
RTVSPropertyOp56
 70
     1
102
RTVSPropertyOp57
 70
     1
102
RTVSPost2010Prop28
280
     0
102
RTVSPost2010PropOp28
 70
     1
102
RTVSPost2010Prop29
280
     1
102
RTVSPost2010PropOp29
 70
     1
102
RTVSPost2010Prop30
280
     1
102
RTVSPost2010PropOp30
 70
     1
102
RTVSPost2010Prop31
280
     0
102
RTVSPost2010PropOp31
 70
     1
102
RTVSPost2010Prop32
280
     0
102
RTVSPost2010PropOp32
 70
     1
102
RTVSPost2010Prop33
280
     0
102
RTVSPost2010PropOp33
 70
     1
102
RTVSPost2010Prop34
280
     0
102
RTVSPost2010PropOp34
 70
     1
102
RTVSPost2010Prop35
280
     0
102
RTVSPost2010PropOp35
 70
     1
102
RTVSPost2010Prop36
280
     0
102
RTVSPost2010PropOp36
 70
     1
102
RTVSPost2010Prop37
 90
       50
102
RTVSPost2010PropOp37
 70
     1
102
RTVSPost2010Prop38
140
0.0
102
RTVSPost2010PropOp38
 70
     1
102
RTVSPost2010Prop39
140
1.0
102
RTVSPost2010PropOp39
 70
     1
102
RTVSPost2010Prop40
 90
        0
102
RTVSPost2010PropOp40
 70
     1
102
RTVSPost2010Prop41ColorIndex
 90
       18
102
RTVSPost2010Prop41ColorRGB
 90
        0
102
RTVSPost2010PropOp41
 70
     1
102
RTVSPost2010Prop42
 90
       50
102
RTVSPost2010PropOp42
 70
     1
102
RTVSPost2010Prop43
 90
        3
102
RTVSPost2010PropOp43
 70
     1
102
RTVSPost2010Prop44ColorIndex
 90
        5
102
RTVSPost2010Prop44ColorRGB
 90
      255
102
RTVSPost2010PropOp44
 70
     1
102
RTVSPost2010Prop45
280
     0
102
RTVSPost2010PropOp45
 70
     1
102
RTVSPost2010Prop46
 90
       50
102
RTVSPost2010PropOp46
 70
     1
102
RTVSPost2010Prop47
 90
       50
102
RTVSPost2010PropOp47
 70
     1
102
RTVSPost2010Prop48
 90
       50
102
RTVSPost2010PropOp48
 70
     1
102
RTVSPost2010Prop49
280
     0
102
RTVSPost2010PropOp49
 70
     1
102
RTVSPost2010Prop50
 90
       50
102
RTVSPost2010PropOp50
 70
     1
102
RTVSPost2010Prop51ColorIndex
 90
      256
102
RTVSPost2010Prop51ColorRGB
 90
-16777216
102
RTVSPost2010PropOp51
 70
     0
102
RTVSPost2010Prop52
140
1.0
102
RTVSPost2010PropOp52
 70
     0
102
RTVSPost2010Prop53
 90
        2
102
RTVSPost2010PropOp53
 70
     1
102
RTVSPost2010Prop54
  1
strokes_ogs.tif
102
RTVSPost2010PropOp54
 70
     1
102
RTVSPost2010Prop55
280
     0
102
RTVSPost2010PropOp55
 70
     1
102
RTVSPost2010Prop56
140
1.0
102
RTVSPost2010PropOp56
 70
     1
102
RTVSPost2010Prop57
140
1.0
102
RTVSPost2010PropOp57
 70
     1
  0
XRECORD
  5
3C8
102
{ACAD_REACTORS
330
3C7
102
}
330
3C7
100
AcDbXrecord
280
     1
102
RTVSPropertyOp0
 70
     1
102
RTVSPropertyOp1
 70
     1
102
RTVSPropertyOp2
 70
     1
102
RTVSPropertyOp3
 70
     1
102
RTVSPropertyOp4
 70
     1
102
RTVSPropertyOp5
 70
     1
102
RTVSPropertyOp6
 70
     1
102
RTVSPropertyOp7
 70
     1
102
RTVSPropertyOp8
 70
     1
102
RTVSPropertyOp9
 70
     1
102
RTVSPropertyOp10
 70
     1
102
RTVSPropertyOp11
 70
     1
102
RTVSPropertyOp12
 70
     1
102
RTVSPropertyOp13
 70
     1
102
RTVSPropertyOp14
 70
     1
102
RTVSPropertyOp15
 70
     1
102
RTVSPropertyOp16
 70
     1
102
RTVSPropertyOp17
 70
     1
102
RTVSPropertyOp18
 70
     1
102
RTVSPropertyOp19
 70
     1
102
RTVSPropertyOp20
 70
     1
102
RTVSPropertyOp21
 70
     1
102
RTVSPropertyOp22
 70
     1
102
RTVSPropertyOp23
 70
     1
102
RTVSPropertyOp24
 70
     1
102
RTVSPropertyOp25
 70
     1
102
RTVSPropertyOp26
 70
     1
102
RTVSPropertyOp27
 70
     1
102
RTVSPropertyOp28
 70
     1
102
RTVSPropertyOp29
 70
     1
102
RTVSPropertyOp30
 70
     1
102
RTVSPropertyOp31
 70
     1
102
RTVSPropertyOp32
 70
     1
102
RTVSPropertyOp33
 70
     1
102
RTVSPropertyOp34
 70
     1
102
RTVSPropertyOp35
 70
     1
102
RTVSPropertyOp36
 70
     1
102
RTVSPropertyOp37
 70
     1
102
RTVSPropertyOp38
 70
     1
102
RTVSPropertyOp39
 70
     1
102
RTVSPropertyOp40
 70
     1
102
RTVSPropertyOp41
 70
     1
102
RTVSPropertyOp42
 70
     1
102
RTVSPropertyOp43
 70
     1
102
RTVSPropertyOp44
 70
     1
102
RTVSPropertyOp45
 70
     1
102
RTVSPropertyOp46
 70
     1
102
RTVSPropertyOp47
 70
     1
102
RTVSPropertyOp48
 70
     1
102
RTVSPropertyOp49
 70
     1
102
RTVSPropertyOp50
 70
     1
102
RTVSPropertyOp51
 70
     0
102
RTVSPropertyOp52
 70
     0
102
RTVSPropertyOp53
 70
     1
102
RTVSPropertyOp54
 70
     1
102
RTVSPropertyOp55
 70
     1
102
RTVSPropertyOp56
 70
     1
102
RTVSPropertyOp57
 70
     1
102
RTVSPost2010Prop28
280
     0
102
RTVSPost2010PropOp28
 70
     1
102
RTVSPost2010Prop29
280
     1
102
RTVSPost2010PropOp29
 70
     1
102
RTVSPost2010Prop30
280
     1
102
RTVSPost2010PropOp30
 70
     1
102
RTVSPost2010Prop31
280
     0
102
RTVSPost2010PropOp31
 70
     1
102
RTVSPost2010Prop32
280
     0
102
RTVSPost2010PropOp32
 70
     1
102
RTVSPost2010Prop33
280
     0
102
RTVSPost2010PropOp33
 70
     1
102
RTVSPost2010Prop34
280
     0
102
RTVSPost2010PropOp34
 70
     1
102
RTVSPost2010Prop35
280
     0
102
RTVSPost2010PropOp35
 70
     1
102
RTVSPost2010Prop36
280
     0
102
RTVSPost2010PropOp36
 70
     1
102
RTVSPost2010Prop37
 90
       50
102
RTVSPost2010PropOp37
 70
     1
102
RTVSPost2010Prop38
140
0.0
102
RTVSPost2010PropOp38
 70
     1
102
RTVSPost2010Prop39
140
1.0
102
RTVSPost2010PropOp39
 70
     1
102
RTVSPost2010Prop40
 90
        0
102
RTVSPost2010PropOp40
 70
     1
102
RTVSPost2010Prop41ColorIndex
 90
       18
102
RTVSPost2010Prop41ColorRGB
 90
        0
102
RTVSPost2010PropOp41
 70
     1
102
RTVSPost2010Prop42
 90
       50
102
RTVSPost2010PropOp42
 70
     1
102
RTVSPost2010Prop43
 90
        3
102
RTVSPost2010PropOp43
 70
     1
102
RTVSPost2010Prop44ColorIndex
 90
        5
102
RTVSPost2010Prop44ColorRGB
 90
      255
102
RTVSPost2010PropOp44
 70
     1
102
RTVSPost2010Prop45
280
     0
102
RTVSPost2010PropOp45
 70
     1
102
RTVSPost2010Prop46
 90
       50
102
RTVSPost2010PropOp46
 70
     1
102
RTVSPost2010Prop47
 90
       50
102
RTVSPost2010PropOp47
 70
     1
102
RTVSPost2010Prop48
 90
       50
102
RTVSPost2010PropOp48
 70
     1
102
RTVSPost2010Prop49
280
     0
102
RTVSPost2010PropOp49
 70
     1
102
RTVSPost2010Prop50
 90
       50
102
RTVSPost2010PropOp50
 70
     1
102
RTVSPost2010Prop51ColorIndex
 90
      256
102
RTVSPost2010Prop51ColorRGB
 90
-16777216
102
RTVSPost2010PropOp51
 70
     0
102
RTVSPost2010Prop52
140
1.0
102
RTVSPost2010PropOp52
 70
     0
102
RTVSPost2010Prop53
 90
        2
102
RTVSPost2010PropOp53
 70
     1
102
RTVSPost2010Prop54
  1
strokes_ogs.tif
102
RTVSPost2010PropOp54
 70
     1
102
RTVSPost2010Prop55
280
     0
102
RTVSPost2010PropOp55
 70
     1
102
RTVSPost2010Prop56
140
1.0
102
RTVSPost2010PropOp56
 70
     1
102
RTVSPost2010Prop57
140
1.0
102
RTVSPost2010PropOp57
 70
     1
  0
XRECORD
  5
3D8
102
{ACAD_REACTORS
330
3D7
102
}
330
3D7
100
AcDbXrecord
280
     1
102
RTVSPropertyOp0
 70
     0
102
RTVSPropertyOp1
 70
     0
102
RTVSPropertyOp2
 70
     0
102
RTVSPropertyOp3
 70
     0
102
RTVSPropertyOp4
 70
     0
102
RTVSPropertyOp5
 70
     0
102
RTVSPropertyOp6
 70
     0
102
RTVSPropertyOp7
 70
     0
102
RTVSPropertyOp8
 70
     0
102
RTVSPropertyOp9
 70
     0
102
RTVSPropertyOp10
 70
     0
102
RTVSPropertyOp11
 70
     0
102
RTVSPropertyOp12
 70
     0
102
RTVSPropertyOp13
 70
     0
102
RTVSPropertyOp14
 70
     2
102
RTVSPropertyOp15
 70
     0
102
RTVSPropertyOp16
 70
     0
102
RTVSPropertyOp17
 70
     0
102
RTVSPropertyOp18
 70
     0
102
RTVSPropertyOp19
 70
     0
102
RTVSPropertyOp20
 70
     0
102
RTVSPropertyOp21
 70
     0
102
RTVSPropertyOp22
 70
     0
102
RTVSPropertyOp23
 70
     0
102
RTVSPropertyOp24
 70
     0
102
RTVSPropertyOp25
 70
     0
102
RTVSPropertyOp26
 70
     0
102
RTVSPropertyOp27
 70
     0
102
RTVSPropertyOp28
 70
     0
102
RTVSPropertyOp29
 70
     0
102
RTVSPropertyOp30
 70
     0
102
RTVSPropertyOp31
 70
     0
102
RTVSPropertyOp32
 70
     0
102
RTVSPropertyOp33
 70
     0
102
RTVSPropertyOp34
 70
     0
102
RTVSPropertyOp35
 70
     0
102
RTVSPropertyOp36
 70
     0
102
RTVSPropertyOp37
 70
     0
102
RTVSPropertyOp38
 70
     0
102
RTVSPropertyOp39
 70
     0
102
RTVSPropertyOp40
 70
     0
102
RTVSPropertyOp41
 70
     0
102
RTVSPropertyOp42
 70
     0
102
RTVSPropertyOp43
 70
     0
102
RTVSPropertyOp44
 70
     0
102
RTVSPropertyOp45
 70
     0
102
RTVSPropertyOp46
 70
     0
102
RTVSPropertyOp47
 70
     0
102
RTVSPropertyOp48
 70
     0
102
RTVSPropertyOp49
 70
     0
102
RTVSPropertyOp50
 70
     0
102
RTVSPropertyOp51
 70
     0
102
RTVSPropertyOp52
 70
     0
102
RTVSPropertyOp53
 70
     0
102
RTVSPropertyOp54
 70
     0
102
RTVSPropertyOp55
 70
     0
102
RTVSPropertyOp56
 70
     0
102
RTVSPropertyOp57
 70
     0
102
RTVSPost2010Prop28
280
     0
102
RTVSPost2010PropOp28
 70
     0
102
RTVSPost2010Prop29
280
     1
102
RTVSPost2010PropOp29
 70
     0
102
RTVSPost2010Prop30
280
     1
102
RTVSPost2010PropOp30
 70
     0
102
RTVSPost2010Prop31
280
     0
102
RTVSPost2010PropOp31
 70
     0
102
RTVSPost2010Prop32
280
     0
102
RTVSPost2010PropOp32
 70
     0
102
RTVSPost2010Prop33
280
     0
102
RTVSPost2010PropOp33
 70
     0
102
RTVSPost2010Prop34
280
     0
102
RTVSPost2010PropOp34
 70
     0
102
RTVSPost2010Prop35
280
     0
102
RTVSPost2010PropOp35
 70
     0
102
RTVSPost2010Prop36
280
     0
102
RTVSPost2010PropOp36
 70
     0
102
RTVSPost2010Prop37
 90
       50
102
RTVSPost2010PropOp37
 70
     0
102
RTVSPost2010Prop38
140
0.0
102
RTVSPost2010PropOp38
 70
     0
102
RTVSPost2010Prop39
140
1.0
102
RTVSPost2010PropOp39
 70
     0
102
RTVSPost2010Prop40
 90
        0
102
RTVSPost2010PropOp40
 70
     0
102
RTVSPost2010Prop41ColorIndex
 90
       18
102
RTVSPost2010Prop41ColorRGB
 90
        0
102
RTVSPost2010PropOp41
 70
     0
102
RTVSPost2010Prop42
 90
       50
102
RTVSPost2010PropOp42
 70
     0
102
RTVSPost2010Prop43
 90
        3
102
RTVSPost2010PropOp43
 70
     0
102
RTVSPost2010Prop44ColorIndex
 90
        5
102
RTVSPost2010Prop44ColorRGB
 90
      255
102
RTVSPost2010PropOp44
 70
     0
102
RTVSPost2010Prop45
280
     0
102
RTVSPost2010PropOp45
 70
     0
102
RTVSPost2010Prop46
 90
       50
102
RTVSPost2010PropOp46
 70
     0
102
RTVSPost2010Prop47
 90
       50
102
RTVSPost2010PropOp47
 70
     0
102
RTVSPost2010Prop48
 90
       50
102
RTVSPost2010PropOp48
 70
     0
102
RTVSPost2010Prop49
280
     0
102
RTVSPost2010PropOp49
 70
     0
102
RTVSPost2010Prop50
 90
       50
102
RTVSPost2010PropOp50
 70
     0
102
RTVSPost2010Prop51ColorIndex
 90
      256
102
RTVSPost2010Prop51ColorRGB
 90
-16777216
102
RTVSPost2010PropOp51
 70
     0
102
RTVSPost2010Prop52
140
1.0
102
RTVSPost2010PropOp52
 70
     0
102
RTVSPost2010Prop53
 90
        2
102
RTVSPost2010PropOp53
 70
     0
102
RTVSPost2010Prop54
  1
strokes_ogs.tif
102
RTVSPost2010PropOp54
 70
     0
102
RTVSPost2010Prop55
280
     0
102
RTVSPost2010PropOp55
 70
     0
102
RTVSPost2010Prop56
140
1.0
102
RTVSPost2010PropOp56
 70
     0
102
RTVSPost2010Prop57
140
1.0
102
RTVSPost2010PropOp57
 70
     0
  0
XRECORD
  5
3D0
102
{ACAD_REACTORS
330
3CF
102
}
330
3CF
100
AcDbXrecord
280
     1
102
RTVSPropertyOp0
 70
     1
102
RTVSPropertyOp1
 70
     1
102
RTVSPropertyOp2
 70
     1
102
RTVSPropertyOp3
 70
     1
102
RTVSPropertyOp4
 70
     1
102
RTVSPropertyOp5
 70
     1
102
RTVSPropertyOp6
 70
     1
102
RTVSPropertyOp7
 70
     1
102
RTVSPropertyOp8
 70
     1
102
RTVSPropertyOp9
 70
     1
102
RTVSPropertyOp10
 70
     1
102
RTVSPropertyOp11
 70
     1
102
RTVSPropertyOp12
 70
     1
102
RTVSPropertyOp13
 70
     1
102
RTVSPropertyOp14
 70
     1
102
RTVSPropertyOp15
 70
     1
102
RTVSPropertyOp16
 70
     1
102
RTVSPropertyOp17
 70
     1
102
RTVSPropertyOp18
 70
     1
102
RTVSPropertyOp19
 70
     1
102
RTVSPropertyOp20
 70
     1
102
RTVSPropertyOp21
 70
     1
102
RTVSPropertyOp22
 70
     1
102
RTVSPropertyOp23
 70
     1
102
RTVSPropertyOp24
 70
     1
102
RTVSPropertyOp25
 70
     1
102
RTVSPropertyOp26
 70
     1
102
RTVSPropertyOp27
 70
     1
102
RTVSPropertyOp28
 70
     1
102
RTVSPropertyOp29
 70
     1
102
RTVSPropertyOp30
 70
     1
102
RTVSPropertyOp31
 70
     1
102
RTVSPropertyOp32
 70
     1
102
RTVSPropertyOp33
 70
     1
102
RTVSPropertyOp34
 70
     1
102
RTVSPropertyOp35
 70
     1
102
RTVSPropertyOp36
 70
     1
102
RTVSPropertyOp37
 70
     1
102
RTVSPropertyOp38
 70
     1
102
RTVSPropertyOp39
 70
     1
102
RTVSPropertyOp40
 70
     1
102
RTVSPropertyOp41
 70
     1
102
RTVSPropertyOp42
 70
     1
102
RTVSPropertyOp43
 70
     1
102
RTVSPropertyOp44
 70
     1
102
RTVSPropertyOp45
 70
     1
102
RTVSPropertyOp46
 70
     1
102
RTVSPropertyOp47
 70
     1
102
RTVSPropertyOp48
 70
     1
102
RTVSPropertyOp49
 70
     1
102
RTVSPropertyOp50
 70
     1
102
RTVSPropertyOp51
 70
     0
102
RTVSPropertyOp52
 70
     0
102
RTVSPropertyOp53
 70
     1
102
RTVSPropertyOp54
 70
     1
102
RTVSPropertyOp55
 70
     1
102
RTVSPropertyOp56
 70
     1
102
RTVSPropertyOp57
 70
     1
102
RTVSPost2010Prop28
280
     0
102
RTVSPost2010PropOp28
 70
     1
102
RTVSPost2010Prop29
280
     1
102
RTVSPost2010PropOp29
 70
     1
102
RTVSPost2010Prop30
280
     1
102
RTVSPost2010PropOp30
 70
     1
102
RTVSPost2010Prop31
280
     0
102
RTVSPost2010PropOp31
 70
     1
102
RTVSPost2010Prop32
280
     0
102
RTVSPost2010PropOp32
 70
     1
102
RTVSPost2010Prop33
280
     0
102
RTVSPost2010PropOp33
 70
     1
102
RTVSPost2010Prop34
280
     0
102
RTVSPost2010PropOp34
 70
     1
102
RTVSPost2010Prop35
280
     0
102
RTVSPost2010PropOp35
 70
     1
102
RTVSPost2010Prop36
280
     0
102
RTVSPost2010PropOp36
 70
     1
102
RTVSPost2010Prop37
 90
       50
102
RTVSPost2010PropOp37
 70
     1
102
RTVSPost2010Prop38
140
0.0
102
RTVSPost2010PropOp38
 70
     1
102
RTVSPost2010Prop39
140
1.0
102
RTVSPost2010PropOp39
 70
     1
102
RTVSPost2010Prop40
 90
        0
102
RTVSPost2010PropOp40
 70
     1
102
RTVSPost2010Prop41ColorIndex
 90
       18
102
RTVSPost2010Prop41ColorRGB
 90
        0
102
RTVSPost2010PropOp41
 70
     1
102
RTVSPost2010Prop42
 90
       50
102
RTVSPost2010PropOp42
 70
     1
102
RTVSPost2010Prop43
 90
        3
102
RTVSPost2010PropOp43
 70
     1
102
RTVSPost2010Prop44ColorIndex
 90
        5
102
RTVSPost2010Prop44ColorRGB
 90
      255
102
RTVSPost2010PropOp44
 70
     1
102
RTVSPost2010Prop45
280
     0
102
RTVSPost2010PropOp45
 70
     1
102
RTVSPost2010Prop46
 90
       50
102
RTVSPost2010PropOp46
 70
     1
102
RTVSPost2010Prop47
 90
       50
102
RTVSPost2010PropOp47
 70
     1
102
RTVSPost2010Prop48
 90
       50
102
RTVSPost2010PropOp48
 70
     1
102
RTVSPost2010Prop49
280
     0
102
RTVSPost2010PropOp49
 70
     1
102
RTVSPost2010Prop50
 90
       50
102
RTVSPost2010PropOp50
 70
     1
102
RTVSPost2010Prop51ColorIndex
 90
      256
102
RTVSPost2010Prop51ColorRGB
 90
-16777216
102
RTVSPost2010PropOp51
 70
     0
102
RTVSPost2010Prop52
140
1.0
102
RTVSPost2010PropOp52
 70
     0
102
RTVSPost2010Prop53
 90
        2
102
RTVSPost2010PropOp53
 70
     1
102
RTVSPost2010Prop54
  1
strokes_ogs.tif
102
RTVSPost2010PropOp54
 70
     1
102
RTVSPost2010Prop55
280
     0
102
RTVSPost2010PropOp55
 70
     1
102
RTVSPost2010Prop56
140
1.0
102
RTVSPost2010PropOp56
 70
     1
102
RTVSPost2010Prop57
140
1.0
102
RTVSPost2010PropOp57
 70
     1
  0
XRECORD
  5
3B4
102
{ACAD_REACTORS
330
3B3
102
}
330
3B3
100
AcDbXrecord
280
     1
102
RTVSPropertyOp0
 70
     1
102
RTVSPropertyOp1
 70
     1
102
RTVSPropertyOp2
 70
     1
102
RTVSPropertyOp3
 70
     1
102
RTVSPropertyOp4
 70
     1
102
RTVSPropertyOp5
 70
     1
102
RTVSPropertyOp6
 70
     1
102
RTVSPropertyOp7
 70
     1
102
RTVSPropertyOp8
 70
     1
102
RTVSPropertyOp9
 70
     1
102
RTVSPropertyOp10
 70
     1
102
RTVSPropertyOp11
 70
     1
102
RTVSPropertyOp12
 70
     1
102
RTVSPropertyOp13
 70
     1
102
RTVSPropertyOp14
 70
     1
102
RTVSPropertyOp15
 70
     1
102
RTVSPropertyOp16
 70
     1
102
RTVSPropertyOp17
 70
     1
102
RTVSPropertyOp18
 70
     1
102
RTVSPropertyOp19
 70
     1
102
RTVSPropertyOp20
 70
     1
102
RTVSPropertyOp21
 70
     1
102
RTVSPropertyOp22
 70
     1
102
RTVSPropertyOp23
 70
     1
102
RTVSPropertyOp24
 70
     1
102
RTVSPropertyOp25
 70
     1
102
RTVSPropertyOp26
 70
     1
102
RTVSPropertyOp27
 70
     1
102
RTVSPropertyOp28
 70
     1
102
RTVSPropertyOp29
 70
     1
102
RTVSPropertyOp30
 70
     1
102
RTVSPropertyOp31
 70
     1
102
RTVSPropertyOp32
 70
     1
102
RTVSPropertyOp33
 70
     1
102
RTVSPropertyOp34
 70
     1
102
RTVSPropertyOp35
 70
     1
102
RTVSPropertyOp36
 70
     1
102
RTVSPropertyOp37
 70
     1
102
RTVSPropertyOp38
 70
     1
102
RTVSPropertyOp39
 70
     1
102
RTVSPropertyOp40
 70
     1
102
RTVSPropertyOp41
 70
     1
102
RTVSPropertyOp42
 70
     1
102
RTVSPropertyOp43
 70
     1
102
RTVSPropertyOp44
 70
     1
102
RTVSPropertyOp45
 70
     1
102
RTVSPropertyOp46
 70
     1
102
RTVSPropertyOp47
 70
     1
102
RTVSPropertyOp48
 70
     1
102
RTVSPropertyOp49
 70
     1
102
RTVSPropertyOp50
 70
     1
102
RTVSPropertyOp51
 70
     0
102
RTVSPropertyOp52
 70
     0
102
RTVSPropertyOp53
 70
     1
102
RTVSPropertyOp54
 70
     1
102
RTVSPropertyOp55
 70
     1
102
RTVSPropertyOp56
 70
     1
102
RTVSPropertyOp57
 70
     1
102
RTVSPost2010Prop28
280
     0
102
RTVSPost2010PropOp28
 70
     1
102
RTVSPost2010Prop29
280
     1
102
RTVSPost2010PropOp29
 70
     1
102
RTVSPost2010Prop30
280
     1
102
RTVSPost2010PropOp30
 70
     1
102
RTVSPost2010Prop31
280
     0
102
RTVSPost2010PropOp31
 70
     1
102
RTVSPost2010Prop32
280
     0
102
RTVSPost2010PropOp32
 70
     1
102
RTVSPost2010Prop33
280
     0
102
RTVSPost2010PropOp33
 70
     1
102
RTVSPost2010Prop34
280
     0
102
RTVSPost2010PropOp34
 70
     1
102
RTVSPost2010Prop35
280
     0
102
RTVSPost2010PropOp35
 70
     1
102
RTVSPost2010Prop36
280
     0
102
RTVSPost2010PropOp36
 70
     1
102
RTVSPost2010Prop37
 90
       50
102
RTVSPost2010PropOp37
 70
     1
102
RTVSPost2010Prop38
140
0.0
102
RTVSPost2010PropOp38
 70
     1
102
RTVSPost2010Prop39
140
1.0
102
RTVSPost2010PropOp39
 70
     1
102
RTVSPost2010Prop40
 90
        0
102
RTVSPost2010PropOp40
 70
     1
102
RTVSPost2010Prop41ColorIndex
 90
       18
102
RTVSPost2010Prop41ColorRGB
 90
        0
102
RTVSPost2010PropOp41
 70
     1
102
RTVSPost2010Prop42
 90
       50
102
RTVSPost2010PropOp42
 70
     1
102
RTVSPost2010Prop43
 90
        3
102
RTVSPost2010PropOp43
 70
     1
102
RTVSPost2010Prop44ColorIndex
 90
        5
102
RTVSPost2010Prop44ColorRGB
 90
      255
102
RTVSPost2010PropOp44
 70
     1
102
RTVSPost2010Prop45
280
     0
102
RTVSPost2010PropOp45
 70
     1
102
RTVSPost2010Prop46
 90
       50
102
RTVSPost2010PropOp46
 70
     1
102
RTVSPost2010Prop47
 90
       50
102
RTVSPost2010PropOp47
 70
     1
102
RTVSPost2010Prop48
 90
       50
102
RTVSPost2010PropOp48
 70
     1
102
RTVSPost2010Prop49
280
     0
102
RTVSPost2010PropOp49
 70
     1
102
RTVSPost2010Prop50
 90
       50
102
RTVSPost2010PropOp50
 70
     1
102
RTVSPost2010Prop51ColorIndex
 90
      256
102
RTVSPost2010Prop51ColorRGB
 90
-16777216
102
RTVSPost2010PropOp51
 70
     0
102
RTVSPost2010Prop52
140
1.0
102
RTVSPost2010PropOp52
 70
     0
102
RTVSPost2010Prop53
 90
        2
102
RTVSPost2010PropOp53
 70
     1
102
RTVSPost2010Prop54
  1
strokes_ogs.tif
102
RTVSPost2010PropOp54
 70
     1
102
RTVSPost2010Prop55
280
     0
102
RTVSPost2010PropOp55
 70
     1
102
RTVSPost2010Prop56
140
1.0
102
RTVSPost2010PropOp56
 70
     1
102
RTVSPost2010Prop57
140
1.0
102
RTVSPost2010PropOp57
 70
     1
  0
XRECORD
  5
3B6
102
{ACAD_REACTORS
330
3B5
102
}
330
3B5
100
AcDbXrecord
280
     1
102
RTVSPropertyOp0
 70
     1
102
RTVSPropertyOp1
 70
     1
102
RTVSPropertyOp2
 70
     1
102
RTVSPropertyOp3
 70
     1
102
RTVSPropertyOp4
 70
     1
102
RTVSPropertyOp5
 70
     1
102
RTVSPropertyOp6
 70
     1
102
RTVSPropertyOp7
 70
     1
102
RTVSPropertyOp8
 70
     1
102
RTVSPropertyOp9
 70
     1
102
RTVSPropertyOp10
 70
     1
102
RTVSPropertyOp11
 70
     1
102
RTVSPropertyOp12
 70
     1
102
RTVSPropertyOp13
 70
     1
102
RTVSPropertyOp14
 70
     1
102
RTVSPropertyOp15
 70
     1
102
RTVSPropertyOp16
 70
     1
102
RTVSPropertyOp17
 70
     1
102
RTVSPropertyOp18
 70
     1
102
RTVSPropertyOp19
 70
     1
102
RTVSPropertyOp20
 70
     1
102
RTVSPropertyOp21
 70
     1
102
RTVSPropertyOp22
 70
     1
102
RTVSPropertyOp23
 70
     1
102
RTVSPropertyOp24
 70
     1
102
RTVSPropertyOp25
 70
     1
102
RTVSPropertyOp26
 70
     1
102
RTVSPropertyOp27
 70
     1
102
RTVSPropertyOp28
 70
     1
102
RTVSPropertyOp29
 70
     1
102
RTVSPropertyOp30
 70
     1
102
RTVSPropertyOp31
 70
     1
102
RTVSPropertyOp32
 70
     1
102
RTVSPropertyOp33
 70
     1
102
RTVSPropertyOp34
 70
     1
102
RTVSPropertyOp35
 70
     1
102
RTVSPropertyOp36
 70
     1
102
RTVSPropertyOp37
 70
     1
102
RTVSPropertyOp38
 70
     1
102
RTVSPropertyOp39
 70
     1
102
RTVSPropertyOp40
 70
     1
102
RTVSPropertyOp41
 70
     1
102
RTVSPropertyOp42
 70
     1
102
RTVSPropertyOp43
 70
     1
102
RTVSPropertyOp44
 70
     1
102
RTVSPropertyOp45
 70
     1
102
RTVSPropertyOp46
 70
     1
102
RTVSPropertyOp47
 70
     1
102
RTVSPropertyOp48
 70
     1
102
RTVSPropertyOp49
 70
     1
102
RTVSPropertyOp50
 70
     1
102
RTVSPropertyOp51
 70
     0
102
RTVSPropertyOp52
 70
     0
102
RTVSPropertyOp53
 70
     1
102
RTVSPropertyOp54
 70
     1
102
RTVSPropertyOp55
 70
     1
102
RTVSPropertyOp56
 70
     1
102
RTVSPropertyOp57
 70
     1
102
RTVSPost2010Prop28
280
     0
102
RTVSPost2010PropOp28
 70
     1
102
RTVSPost2010Prop29
280
     1
102
RTVSPost2010PropOp29
 70
     1
102
RTVSPost2010Prop30
280
     1
102
RTVSPost2010PropOp30
 70
     1
102
RTVSPost2010Prop31
280
     0
102
RTVSPost2010PropOp31
 70
     1
102
RTVSPost2010Prop32
280
     0
102
RTVSPost2010PropOp32
 70
     1
102
RTVSPost2010Prop33
280
     0
102
RTVSPost2010PropOp33
 70
     1
102
RTVSPost2010Prop34
280
     0
102
RTVSPost2010PropOp34
 70
     1
102
RTVSPost2010Prop35
280
     0
102
RTVSPost2010PropOp35
 70
     1
102
RTVSPost2010Prop36
280
     0
102
RTVSPost2010PropOp36
 70
     1
102
RTVSPost2010Prop37
 90
       50
102
RTVSPost2010PropOp37
 70
     1
102
RTVSPost2010Prop38
140
0.0
102
RTVSPost2010PropOp38
 70
     1
102
RTVSPost2010Prop39
140
1.0
102
RTVSPost2010PropOp39
 70
     1
102
RTVSPost2010Prop40
 90
        0
102
RTVSPost2010PropOp40
 70
     1
102
RTVSPost2010Prop41ColorIndex
 90
       18
102
RTVSPost2010Prop41ColorRGB
 90
        0
102
RTVSPost2010PropOp41
 70
     1
102
RTVSPost2010Prop42
 90
       50
102
RTVSPost2010PropOp42
 70
     1
102
RTVSPost2010Prop43
 90
        3
102
RTVSPost2010PropOp43
 70
     1
102
RTVSPost2010Prop44ColorIndex
 90
        5
102
RTVSPost2010Prop44ColorRGB
 90
      255
102
RTVSPost2010PropOp44
 70
     1
102
RTVSPost2010Prop45
280
     0
102
RTVSPost2010PropOp45
 70
     1
102
RTVSPost2010Prop46
 90
       50
102
RTVSPost2010PropOp46
 70
     1
102
RTVSPost2010Prop47
 90
       50
102
RTVSPost2010PropOp47
 70
     1
102
RTVSPost2010Prop48
 90
       50
102
RTVSPost2010PropOp48
 70
     1
102
RTVSPost2010Prop49
280
     0
102
RTVSPost2010PropOp49
 70
     1
102
RTVSPost2010Prop50
 90
       50
102
RTVSPost2010PropOp50
 70
     1
102
RTVSPost2010Prop51ColorIndex
 90
      256
102
RTVSPost2010Prop51ColorRGB
 90
-16777216
102
RTVSPost2010PropOp51
 70
     0
102
RTVSPost2010Prop52
140
1.0
102
RTVSPost2010PropOp52
 70
     0
102
RTVSPost2010Prop53
 90
        2
102
RTVSPost2010PropOp53
 70
     1
102
RTVSPost2010Prop54
  1
strokes_ogs.tif
102
RTVSPost2010PropOp54
 70
     1
102
RTVSPost2010Prop55
280
     0
102
RTVSPost2010PropOp55
 70
     1
102
RTVSPost2010Prop56
140
1.0
102
RTVSPost2010PropOp56
 70
     1
102
RTVSPost2010Prop57
140
1.0
102
RTVSPost2010PropOp57
 70
     1
  0
XRECORD
  5
3B8
102
{ACAD_REACTORS
330
3B7
102
}
330
3B7
100
AcDbXrecord
280
     1
102
RTVSPropertyOp0
 70
     1
102
RTVSPropertyOp1
 70
     1
102
RTVSPropertyOp2
 70
     1
102
RTVSPropertyOp3
 70
     1
102
RTVSPropertyOp4
 70
     1
102
RTVSPropertyOp5
 70
     1
102
RTVSPropertyOp6
 70
     1
102
RTVSPropertyOp7
 70
     1
102
RTVSPropertyOp8
 70
     1
102
RTVSPropertyOp9
 70
     1
102
RTVSPropertyOp10
 70
     1
102
RTVSPropertyOp11
 70
     1
102
RTVSPropertyOp12
 70
     1
102
RTVSPropertyOp13
 70
     1
102
RTVSPropertyOp14
 70
     1
102
RTVSPropertyOp15
 70
     1
102
RTVSPropertyOp16
 70
     1
102
RTVSPropertyOp17
 70
     1
102
RTVSPropertyOp18
 70
     1
102
RTVSPropertyOp19
 70
     1
102
RTVSPropertyOp20
 70
     1
102
RTVSPropertyOp21
 70
     1
102
RTVSPropertyOp22
 70
     1
102
RTVSPropertyOp23
 70
     1
102
RTVSPropertyOp24
 70
     1
102
RTVSPropertyOp25
 70
     1
102
RTVSPropertyOp26
 70
     1
102
RTVSPropertyOp27
 70
     1
102
RTVSPropertyOp28
 70
     1
102
RTVSPropertyOp29
 70
     1
102
RTVSPropertyOp30
 70
     1
102
RTVSPropertyOp31
 70
     1
102
RTVSPropertyOp32
 70
     1
102
RTVSPropertyOp33
 70
     1
102
RTVSPropertyOp34
 70
     1
102
RTVSPropertyOp35
 70
     1
102
RTVSPropertyOp36
 70
     1
102
RTVSPropertyOp37
 70
     1
102
RTVSPropertyOp38
 70
     1
102
RTVSPropertyOp39
 70
     1
102
RTVSPropertyOp40
 70
     1
102
RTVSPropertyOp41
 70
     1
102
RTVSPropertyOp42
 70
     1
102
RTVSPropertyOp43
 70
     1
102
RTVSPropertyOp44
 70
     1
102
RTVSPropertyOp45
 70
     1
102
RTVSPropertyOp46
 70
     1
102
RTVSPropertyOp47
 70
     1
102
RTVSPropertyOp48
 70
     1
102
RTVSPropertyOp49
 70
     1
102
RTVSPropertyOp50
 70
     1
102
RTVSPropertyOp51
 70
     0
102
RTVSPropertyOp52
 70
     0
102
RTVSPropertyOp53
 70
     1
102
RTVSPropertyOp54
 70
     1
102
RTVSPropertyOp55
 70
     1
102
RTVSPropertyOp56
 70
     1
102
RTVSPropertyOp57
 70
     1
102
RTVSPost2010Prop28
280
     0
102
RTVSPost2010PropOp28
 70
     1
102
RTVSPost2010Prop29
280
     1
102
RTVSPost2010PropOp29
 70
     1
102
RTVSPost2010Prop30
280
     1
102
RTVSPost2010PropOp30
 70
     1
102
RTVSPost2010Prop31
280
     0
102
RTVSPost2010PropOp31
 70
     1
102
RTVSPost2010Prop32
280
     0
102
RTVSPost2010PropOp32
 70
     1
102
RTVSPost2010Prop33
280
     0
102
RTVSPost2010PropOp33
 70
     1
102
RTVSPost2010Prop34
280
     0
102
RTVSPost2010PropOp34
 70
     1
102
RTVSPost2010Prop35
280
     0
102
RTVSPost2010PropOp35
 70
     1
102
RTVSPost2010Prop36
280
     0
102
RTVSPost2010PropOp36
 70
     1
102
RTVSPost2010Prop37
 90
       50
102
RTVSPost2010PropOp37
 70
     1
102
RTVSPost2010Prop38
140
0.0
102
RTVSPost2010PropOp38
 70
     1
102
RTVSPost2010Prop39
140
1.0
102
RTVSPost2010PropOp39
 70
     1
102
RTVSPost2010Prop40
 90
        0
102
RTVSPost2010PropOp40
 70
     1
102
RTVSPost2010Prop41ColorIndex
 90
       18
102
RTVSPost2010Prop41ColorRGB
 90
        0
102
RTVSPost2010PropOp41
 70
     1
102
RTVSPost2010Prop42
 90
       50
102
RTVSPost2010PropOp42
 70
     1
102
RTVSPost2010Prop43
 90
        3
102
RTVSPost2010PropOp43
 70
     1
102
RTVSPost2010Prop44ColorIndex
 90
        5
102
RTVSPost2010Prop44ColorRGB
 90
      255
102
RTVSPost2010PropOp44
 70
     1
102
RTVSPost2010Prop45
280
     0
102
RTVSPost2010PropOp45
 70
     1
102
RTVSPost2010Prop46
 90
       50
102
RTVSPost2010PropOp46
 70
     1
102
RTVSPost2010Prop47
 90
       50
102
RTVSPost2010PropOp47
 70
     1
102
RTVSPost2010Prop48
 90
       50
102
RTVSPost2010PropOp48
 70
     1
102
RTVSPost2010Prop49
280
     0
102
RTVSPost2010PropOp49
 70
     1
102
RTVSPost2010Prop50
 90
       50
102
RTVSPost2010PropOp50
 70
     1
102
RTVSPost2010Prop51ColorIndex
 90
      256
102
RTVSPost2010Prop51ColorRGB
 90
-16777216
102
RTVSPost2010PropOp51
 70
     0
102
RTVSPost2010Prop52
140
1.0
102
RTVSPost2010PropOp52
 70
     0
102
RTVSPost2010Prop53
 90
        2
102
RTVSPost2010PropOp53
 70
     1
102
RTVSPost2010Prop54
  1
strokes_ogs.tif
102
RTVSPost2010PropOp54
 70
     1
102
RTVSPost2010Prop55
280
     0
102
RTVSPost2010PropOp55
 70
     1
102
RTVSPost2010Prop56
140
1.0
102
RTVSPost2010PropOp56
 70
     1
102
RTVSPost2010Prop57
140
1.0
102
RTVSPost2010PropOp57
 70
     1
  0
XRECORD
  5
3BA
102
{ACAD_REACTORS
330
3B9
102
}
330
3B9
100
AcDbXrecord
280
     1
102
RTVSPropertyOp0
 70
     1
102
RTVSPropertyOp1
 70
     1
102
RTVSPropertyOp2
 70
     1
102
RTVSPropertyOp3
 70
     1
102
RTVSPropertyOp4
 70
     1
102
RTVSPropertyOp5
 70
     1
102
RTVSPropertyOp6
 70
     1
102
RTVSPropertyOp7
 70
     1
102
RTVSPropertyOp8
 70
     1
102
RTVSPropertyOp9
 70
     1
102
RTVSPropertyOp10
 70
     1
102
RTVSPropertyOp11
 70
     1
102
RTVSPropertyOp12
 70
     1
102
RTVSPropertyOp13
 70
     1
102
RTVSPropertyOp14
 70
     1
102
RTVSPropertyOp15
 70
     1
102
RTVSPropertyOp16
 70
     1
102
RTVSPropertyOp17
 70
     1
102
RTVSPropertyOp18
 70
     1
102
RTVSPropertyOp19
 70
     1
102
RTVSPropertyOp20
 70
     1
102
RTVSPropertyOp21
 70
     1
102
RTVSPropertyOp22
 70
     1
102
RTVSPropertyOp23
 70
     1
102
RTVSPropertyOp24
 70
     1
102
RTVSPropertyOp25
 70
     1
102
RTVSPropertyOp26
 70
     1
102
RTVSPropertyOp27
 70
     1
102
RTVSPropertyOp28
 70
     1
102
RTVSPropertyOp29
 70
     1
102
RTVSPropertyOp30
 70
     1
102
RTVSPropertyOp31
 70
     1
102
RTVSPropertyOp32
 70
     1
102
RTVSPropertyOp33
 70
     1
102
RTVSPropertyOp34
 70
     1
102
RTVSPropertyOp35
 70
     1
102
RTVSPropertyOp36
 70
     1
102
RTVSPropertyOp37
 70
     1
102
RTVSPropertyOp38
 70
     1
102
RTVSPropertyOp39
 70
     1
102
RTVSPropertyOp40
 70
     1
102
RTVSPropertyOp41
 70
     1
102
RTVSPropertyOp42
 70
     1
102
RTVSPropertyOp43
 70
     1
102
RTVSPropertyOp44
 70
     1
102
RTVSPropertyOp45
 70
     1
102
RTVSPropertyOp46
 70
     1
102
RTVSPropertyOp47
 70
     1
102
RTVSPropertyOp48
 70
     1
102
RTVSPropertyOp49
 70
     1
102
RTVSPropertyOp50
 70
     1
102
RTVSPropertyOp51
 70
     0
102
RTVSPropertyOp52
 70
     0
102
RTVSPropertyOp53
 70
     1
102
RTVSPropertyOp54
 70
     1
102
RTVSPropertyOp55
 70
     1
102
RTVSPropertyOp56
 70
     1
102
RTVSPropertyOp57
 70
     1
102
RTVSPost2010Prop28
280
     0
102
RTVSPost2010PropOp28
 70
     1
102
RTVSPost2010Prop29
280
     1
102
RTVSPost2010PropOp29
 70
     1
102
RTVSPost2010Prop30
280
     1
102
RTVSPost2010PropOp30
 70
     1
102
RTVSPost2010Prop31
280
     0
102
RTVSPost2010PropOp31
 70
     1
102
RTVSPost2010Prop32
280
     0
102
RTVSPost2010PropOp32
 70
     1
102
RTVSPost2010Prop33
280
     0
102
RTVSPost2010PropOp33
 70
     1
102
RTVSPost2010Prop34
280
     0
102
RTVSPost2010PropOp34
 70
     1
102
RTVSPost2010Prop35
280
     0
102
RTVSPost2010PropOp35
 70
     1
102
RTVSPost2010Prop36
280
     0
102
RTVSPost2010PropOp36
 70
     1
102
RTVSPost2010Prop37
 90
       50
102
RTVSPost2010PropOp37
 70
     1
102
RTVSPost2010Prop38
140
0.0
102
RTVSPost2010PropOp38
 70
     1
102
RTVSPost2010Prop39
140
1.0
102
RTVSPost2010PropOp39
 70
     1
102
RTVSPost2010Prop40
 90
        0
102
RTVSPost2010PropOp40
 70
     1
102
RTVSPost2010Prop41ColorIndex
 90
       18
102
RTVSPost2010Prop41ColorRGB
 90
        0
102
RTVSPost2010PropOp41
 70
     1
102
RTVSPost2010Prop42
 90
       50
102
RTVSPost2010PropOp42
 70
     1
102
RTVSPost2010Prop43
 90
        3
102
RTVSPost2010PropOp43
 70
     1
102
RTVSPost2010Prop44ColorIndex
 90
        5
102
RTVSPost2010Prop44ColorRGB
 90
      255
102
RTVSPost2010PropOp44
 70
     1
102
RTVSPost2010Prop45
280
     0
102
RTVSPost2010PropOp45
 70
     1
102
RTVSPost2010Prop46
 90
       50
102
RTVSPost2010PropOp46
 70
     1
102
RTVSPost2010Prop47
 90
       50
102
RTVSPost2010PropOp47
 70
     1
102
RTVSPost2010Prop48
 90
       50
102
RTVSPost2010PropOp48
 70
     1
102
RTVSPost2010Prop49
280
     0
102
RTVSPost2010PropOp49
 70
     1
102
RTVSPost2010Prop50
 90
       50
102
RTVSPost2010PropOp50
 70
     1
102
RTVSPost2010Prop51ColorIndex
 90
      256
102
RTVSPost2010Prop51ColorRGB
 90
-16777216
102
RTVSPost2010PropOp51
 70
     0
102
RTVSPost2010Prop52
140
1.0
102
RTVSPost2010PropOp52
 70
     0
102
RTVSPost2010Prop53
 90
        2
102
RTVSPost2010PropOp53
 70
     1
102
RTVSPost2010Prop54
  1
strokes_ogs.tif
102
RTVSPost2010PropOp54
 70
     1
102
RTVSPost2010Prop55
280
     0
102
RTVSPost2010PropOp55
 70
     1
102
RTVSPost2010Prop56
140
1.0
102
RTVSPost2010PropOp56
 70
     1
102
RTVSPost2010Prop57
140
1.0
102
RTVSPost2010PropOp57
 70
     1
  0
XRECORD
  5
3C0
102
{ACAD_REACTORS
330
3BF
102
}
330
3BF
100
AcDbXrecord
280
     1
102
RTVSPropertyOp0
 70
     1
102
RTVSPropertyOp1
 70
     1
102
RTVSPropertyOp2
 70
     1
102
RTVSPropertyOp3
 70
     1
102
RTVSPropertyOp4
 70
     1
102
RTVSPropertyOp5
 70
     1
102
RTVSPropertyOp6
 70
     1
102
RTVSPropertyOp7
 70
     1
102
RTVSPropertyOp8
 70
     1
102
RTVSPropertyOp9
 70
     1
102
RTVSPropertyOp10
 70
     1
102
RTVSPropertyOp11
 70
     1
102
RTVSPropertyOp12
 70
     1
102
RTVSPropertyOp13
 70
     1
102
RTVSPropertyOp14
 70
     1
102
RTVSPropertyOp15
 70
     1
102
RTVSPropertyOp16
 70
     1
102
RTVSPropertyOp17
 70
     1
102
RTVSPropertyOp18
 70
     1
102
RTVSPropertyOp19
 70
     1
102
RTVSPropertyOp20
 70
     1
102
RTVSPropertyOp21
 70
     1
102
RTVSPropertyOp22
 70
     1
102
RTVSPropertyOp23
 70
     1
102
RTVSPropertyOp24
 70
     1
102
RTVSPropertyOp25
 70
     1
102
RTVSPropertyOp26
 70
     1
102
RTVSPropertyOp27
 70
     1
102
RTVSPropertyOp28
 70
     1
102
RTVSPropertyOp29
 70
     1
102
RTVSPropertyOp30
 70
     1
102
RTVSPropertyOp31
 70
     1
102
RTVSPropertyOp32
 70
     1
102
RTVSPropertyOp33
 70
     1
102
RTVSPropertyOp34
 70
     1
102
RTVSPropertyOp35
 70
     1
102
RTVSPropertyOp36
 70
     1
102
RTVSPropertyOp37
 70
     1
102
RTVSPropertyOp38
 70
     1
102
RTVSPropertyOp39
 70
     1
102
RTVSPropertyOp40
 70
     1
102
RTVSPropertyOp41
 70
     1
102
RTVSPropertyOp42
 70
     1
102
RTVSPropertyOp43
 70
     1
102
RTVSPropertyOp44
 70
     1
102
RTVSPropertyOp45
 70
     1
102
RTVSPropertyOp46
 70
     1
102
RTVSPropertyOp47
 70
     1
102
RTVSPropertyOp48
 70
     1
102
RTVSPropertyOp49
 70
     1
102
RTVSPropertyOp50
 70
     1
102
RTVSPropertyOp51
 70
     0
102
RTVSPropertyOp52
 70
     0
102
RTVSPropertyOp53
 70
     1
102
RTVSPropertyOp54
 70
     1
102
RTVSPropertyOp55
 70
     1
102
RTVSPropertyOp56
 70
     1
102
RTVSPropertyOp57
 70
     1
102
RTVSPost2010Prop28
280
     0
102
RTVSPost2010PropOp28
 70
     1
102
RTVSPost2010Prop29
280
     1
102
RTVSPost2010PropOp29
 70
     1
102
RTVSPost2010Prop30
280
     1
102
RTVSPost2010PropOp30
 70
     1
102
RTVSPost2010Prop31
280
     0
102
RTVSPost2010PropOp31
 70
     1
102
RTVSPost2010Prop32
280
     0
102
RTVSPost2010PropOp32
 70
     1
102
RTVSPost2010Prop33
280
     0
102
RTVSPost2010PropOp33
 70
     1
102
RTVSPost2010Prop34
280
     0
102
RTVSPost2010PropOp34
 70
     1
102
RTVSPost2010Prop35
280
     0
102
RTVSPost2010PropOp35
 70
     1
102
RTVSPost2010Prop36
280
     0
102
RTVSPost2010PropOp36
 70
     1
102
RTVSPost2010Prop37
 90
       50
102
RTVSPost2010PropOp37
 70
     1
102
RTVSPost2010Prop38
140
0.0
102
RTVSPost2010PropOp38
 70
     1
102
RTVSPost2010Prop39
140
1.0
102
RTVSPost2010PropOp39
 70
     1
102
RTVSPost2010Prop40
 90
        0
102
RTVSPost2010PropOp40
 70
     1
102
RTVSPost2010Prop41ColorIndex
 90
       18
102
RTVSPost2010Prop41ColorRGB
 90
        0
102
RTVSPost2010PropOp41
 70
     1
102
RTVSPost2010Prop42
 90
       50
102
RTVSPost2010PropOp42
 70
     1
102
RTVSPost2010Prop43
 90
        3
102
RTVSPost2010PropOp43
 70
     1
102
RTVSPost2010Prop44ColorIndex
 90
        5
102
RTVSPost2010Prop44ColorRGB
 90
      255
102
RTVSPost2010PropOp44
 70
     1
102
RTVSPost2010Prop45
280
     0
102
RTVSPost2010PropOp45
 70
     1
102
RTVSPost2010Prop46
 90
       50
102
RTVSPost2010PropOp46
 70
     1
102
RTVSPost2010Prop47
 90
       50
102
RTVSPost2010PropOp47
 70
     1
102
RTVSPost2010Prop48
 90
       50
102
RTVSPost2010PropOp48
 70
     1
102
RTVSPost2010Prop49
280
     0
102
RTVSPost2010PropOp49
 70
     1
102
RTVSPost2010Prop50
 90
       50
102
RTVSPost2010PropOp50
 70
     1
102
RTVSPost2010Prop51ColorIndex
 90
      256
102
RTVSPost2010Prop51ColorRGB
 90
-16777216
102
RTVSPost2010PropOp51
 70
     0
102
RTVSPost2010Prop52
140
1.0
102
RTVSPost2010PropOp52
 70
     0
102
RTVSPost2010Prop53
 90
        2
102
RTVSPost2010PropOp53
 70
     1
102
RTVSPost2010Prop54
  1
strokes_ogs.tif
102
RTVSPost2010PropOp54
 70
     1
102
RTVSPost2010Prop55
280
     0
102
RTVSPost2010PropOp55
 70
     1
102
RTVSPost2010Prop56
140
1.0
102
RTVSPost2010PropOp56
 70
     1
102
RTVSPost2010Prop57
140
1.0
102
RTVSPost2010PropOp57
 70
     1
  0
XRECORD
  5
3D4
102
{ACAD_REACTORS
330
3D3
102
}
330
3D3
100
AcDbXrecord
280
     1
102
RTVSPropertyOp0
 70
     0
102
RTVSPropertyOp1
 70
     0
102
RTVSPropertyOp2
 70
     0
102
RTVSPropertyOp3
 70
     0
102
RTVSPropertyOp4
 70
     0
102
RTVSPropertyOp5
 70
     0
102
RTVSPropertyOp6
 70
     0
102
RTVSPropertyOp7
 70
     0
102
RTVSPropertyOp8
 70
     0
102
RTVSPropertyOp9
 70
     0
102
RTVSPropertyOp10
 70
     0
102
RTVSPropertyOp11
 70
     0
102
RTVSPropertyOp12
 70
     0
102
RTVSPropertyOp13
 70
     0
102
RTVSPropertyOp14
 70
     2
102
RTVSPropertyOp15
 70
     0
102
RTVSPropertyOp16
 70
     0
102
RTVSPropertyOp17
 70
     0
102
RTVSPropertyOp18
 70
     0
102
RTVSPropertyOp19
 70
     0
102
RTVSPropertyOp20
 70
     0
102
RTVSPropertyOp21
 70
     0
102
RTVSPropertyOp22
 70
     0
102
RTVSPropertyOp23
 70
     0
102
RTVSPropertyOp24
 70
     0
102
RTVSPropertyOp25
 70
     0
102
RTVSPropertyOp26
 70
     0
102
RTVSPropertyOp27
 70
     0
102
RTVSPropertyOp28
 70
     0
102
RTVSPropertyOp29
 70
     0
102
RTVSPropertyOp30
 70
     0
102
RTVSPropertyOp31
 70
     0
102
RTVSPropertyOp32
 70
     0
102
RTVSPropertyOp33
 70
     0
102
RTVSPropertyOp34
 70
     0
102
RTVSPropertyOp35
 70
     0
102
RTVSPropertyOp36
 70
     0
102
RTVSPropertyOp37
 70
     0
102
RTVSPropertyOp38
 70
     0
102
RTVSPropertyOp39
 70
     0
102
RTVSPropertyOp40
 70
     0
102
RTVSPropertyOp41
 70
     0
102
RTVSPropertyOp42
 70
     0
102
RTVSPropertyOp43
 70
     0
102
RTVSPropertyOp44
 70
     0
102
RTVSPropertyOp45
 70
     0
102
RTVSPropertyOp46
 70
     0
102
RTVSPropertyOp47
 70
     0
102
RTVSPropertyOp48
 70
     0
102
RTVSPropertyOp49
 70
     0
102
RTVSPropertyOp50
 70
     0
102
RTVSPropertyOp51
 70
     0
102
RTVSPropertyOp52
 70
     0
102
RTVSPropertyOp53
 70
     0
102
RTVSPropertyOp54
 70
     0
102
RTVSPropertyOp55
 70
     0
102
RTVSPropertyOp56
 70
     0
102
RTVSPropertyOp57
 70
     0
102
RTVSPost2010Prop28
280
     0
102
RTVSPost2010PropOp28
 70
     0
102
RTVSPost2010Prop29
280
     1
102
RTVSPost2010PropOp29
 70
     0
102
RTVSPost2010Prop30
280
     1
102
RTVSPost2010PropOp30
 70
     0
102
RTVSPost2010Prop31
280
     0
102
RTVSPost2010PropOp31
 70
     0
102
RTVSPost2010Prop32
280
     0
102
RTVSPost2010PropOp32
 70
     0
102
RTVSPost2010Prop33
280
     0
102
RTVSPost2010PropOp33
 70
     0
102
RTVSPost2010Prop34
280
     0
102
RTVSPost2010PropOp34
 70
     0
102
RTVSPost2010Prop35
280
     0
102
RTVSPost2010PropOp35
 70
     0
102
RTVSPost2010Prop36
280
     0
102
RTVSPost2010PropOp36
 70
     0
102
RTVSPost2010Prop37
 90
       50
102
RTVSPost2010PropOp37
 70
     0
102
RTVSPost2010Prop38
140
0.0
102
RTVSPost2010PropOp38
 70
     0
102
RTVSPost2010Prop39
140
1.0
102
RTVSPost2010PropOp39
 70
     0
102
RTVSPost2010Prop40
 90
        0
102
RTVSPost2010PropOp40
 70
     0
102
RTVSPost2010Prop41ColorIndex
 90
       18
102
RTVSPost2010Prop41ColorRGB
 90
        0
102
RTVSPost2010PropOp41
 70
     0
102
RTVSPost2010Prop42
 90
       50
102
RTVSPost2010PropOp42
 70
     0
102
RTVSPost2010Prop43
 90
        3
102
RTVSPost2010PropOp43
 70
     0
102
RTVSPost2010Prop44ColorIndex
 90
        5
102
RTVSPost2010Prop44ColorRGB
 90
      255
102
RTVSPost2010PropOp44
 70
     0
102
RTVSPost2010Prop45
280
     0
102
RTVSPost2010PropOp45
 70
     0
102
RTVSPost2010Prop46
 90
       50
102
RTVSPost2010PropOp46
 70
     0
102
RTVSPost2010Prop47
 90
       50
102
RTVSPost2010PropOp47
 70
     0
102
RTVSPost2010Prop48
 90
       50
102
RTVSPost2010PropOp48
 70
     0
102
RTVSPost2010Prop49
280
     0
102
RTVSPost2010PropOp49
 70
     0
102
RTVSPost2010Prop50
 90
       50
102
RTVSPost2010PropOp50
 70
     0
102
RTVSPost2010Prop51ColorIndex
 90
      256
102
RTVSPost2010Prop51ColorRGB
 90
-16777216
102
RTVSPost2010PropOp51
 70
     0
102
RTVSPost2010Prop52
140
1.0
102
RTVSPost2010PropOp52
 70
     0
102
RTVSPost2010Prop53
 90
        2
102
RTVSPost2010PropOp53
 70
     0
102
RTVSPost2010Prop54
  1
strokes_ogs.tif
102
RTVSPost2010PropOp54
 70
     0
102
RTVSPost2010Prop55
280
     0
102
RTVSPost2010PropOp55
 70
     0
102
RTVSPost2010Prop56
140
1.0
102
RTVSPost2010PropOp56
 70
     0
102
RTVSPost2010Prop57
140
1.0
102
RTVSPost2010PropOp57
 70
     0
  0
XRECORD
  5
3CE
102
{ACAD_REACTORS
330
3CD
102
}
330
3CD
100
AcDbXrecord
280
     1
102
RTVSPropertyOp0
 70
     1
102
RTVSPropertyOp1
 70
     1
102
RTVSPropertyOp2
 70
     1
102
RTVSPropertyOp3
 70
     1
102
RTVSPropertyOp4
 70
     1
102
RTVSPropertyOp5
 70
     1
102
RTVSPropertyOp6
 70
     1
102
RTVSPropertyOp7
 70
     1
102
RTVSPropertyOp8
 70
     1
102
RTVSPropertyOp9
 70
     1
102
RTVSPropertyOp10
 70
     1
102
RTVSPropertyOp11
 70
     1
102
RTVSPropertyOp12
 70
     1
102
RTVSPropertyOp13
 70
     1
102
RTVSPropertyOp14
 70
     1
102
RTVSPropertyOp15
 70
     1
102
RTVSPropertyOp16
 70
     1
102
RTVSPropertyOp17
 70
     1
102
RTVSPropertyOp18
 70
     1
102
RTVSPropertyOp19
 70
     1
102
RTVSPropertyOp20
 70
     1
102
RTVSPropertyOp21
 70
     1
102
RTVSPropertyOp22
 70
     1
102
RTVSPropertyOp23
 70
     1
102
RTVSPropertyOp24
 70
     1
102
RTVSPropertyOp25
 70
     1
102
RTVSPropertyOp26
 70
     1
102
RTVSPropertyOp27
 70
     1
102
RTVSPropertyOp28
 70
     1
102
RTVSPropertyOp29
 70
     1
102
RTVSPropertyOp30
 70
     1
102
RTVSPropertyOp31
 70
     1
102
RTVSPropertyOp32
 70
     1
102
RTVSPropertyOp33
 70
     1
102
RTVSPropertyOp34
 70
     1
102
RTVSPropertyOp35
 70
     1
102
RTVSPropertyOp36
 70
     1
102
RTVSPropertyOp37
 70
     1
102
RTVSPropertyOp38
 70
     1
102
RTVSPropertyOp39
 70
     1
102
RTVSPropertyOp40
 70
     1
102
RTVSPropertyOp41
 70
     1
102
RTVSPropertyOp42
 70
     1
102
RTVSPropertyOp43
 70
     1
102
RTVSPropertyOp44
 70
     1
102
RTVSPropertyOp45
 70
     1
102
RTVSPropertyOp46
 70
     1
102
RTVSPropertyOp47
 70
     1
102
RTVSPropertyOp48
 70
     1
102
RTVSPropertyOp49
 70
     1
102
RTVSPropertyOp50
 70
     1
102
RTVSPropertyOp51
 70
     0
102
RTVSPropertyOp52
 70
     0
102
RTVSPropertyOp53
 70
     1
102
RTVSPropertyOp54
 70
     1
102
RTVSPropertyOp55
 70
     1
102
RTVSPropertyOp56
 70
     1
102
RTVSPropertyOp57
 70
     1
102
RTVSPost2010Prop28
280
     0
102
RTVSPost2010PropOp28
 70
     1
102
RTVSPost2010Prop29
280
     1
102
RTVSPost2010PropOp29
 70
     1
102
RTVSPost2010Prop30
280
     1
102
RTVSPost2010PropOp30
 70
     1
102
RTVSPost2010Prop31
280
     0
102
RTVSPost2010PropOp31
 70
     1
102
RTVSPost2010Prop32
280
     0
102
RTVSPost2010PropOp32
 70
     1
102
RTVSPost2010Prop33
280
     0
102
RTVSPost2010PropOp33
 70
     1
102
RTVSPost2010Prop34
280
     0
102
RTVSPost2010PropOp34
 70
     1
102
RTVSPost2010Prop35
280
     0
102
RTVSPost2010PropOp35
 70
     1
102
RTVSPost2010Prop36
280
     0
102
RTVSPost2010PropOp36
 70
     1
102
RTVSPost2010Prop37
 90
       50
102
RTVSPost2010PropOp37
 70
     1
102
RTVSPost2010Prop38
140
0.0
102
RTVSPost2010PropOp38
 70
     1
102
RTVSPost2010Prop39
140
1.0
102
RTVSPost2010PropOp39
 70
     1
102
RTVSPost2010Prop40
 90
        0
102
RTVSPost2010PropOp40
 70
     1
102
RTVSPost2010Prop41ColorIndex
 90
       18
102
RTVSPost2010Prop41ColorRGB
 90
        0
102
RTVSPost2010PropOp41
 70
     1
102
RTVSPost2010Prop42
 90
       50
102
RTVSPost2010PropOp42
 70
     1
102
RTVSPost2010Prop43
 90
        3
102
RTVSPost2010PropOp43
 70
     1
102
RTVSPost2010Prop44ColorIndex
 90
        5
102
RTVSPost2010Prop44ColorRGB
 90
      255
102
RTVSPost2010PropOp44
 70
     1
102
RTVSPost2010Prop45
280
     0
102
RTVSPost2010PropOp45
 70
     1
102
RTVSPost2010Prop46
 90
       50
102
RTVSPost2010PropOp46
 70
     1
102
RTVSPost2010Prop47
 90
       50
102
RTVSPost2010PropOp47
 70
     1
102
RTVSPost2010Prop48
 90
       50
102
RTVSPost2010PropOp48
 70
     1
102
RTVSPost2010Prop49
280
     0
102
RTVSPost2010PropOp49
 70
     1
102
RTVSPost2010Prop50
 90
       50
102
RTVSPost2010PropOp50
 70
     1
102
RTVSPost2010Prop51ColorIndex
 90
      256
102
RTVSPost2010Prop51ColorRGB
 90
-16777216
102
RTVSPost2010PropOp51
 70
     0
102
RTVSPost2010Prop52
140
1.0
102
RTVSPost2010PropOp52
 70
     0
102
RTVSPost2010Prop53
 90
        2
102
RTVSPost2010PropOp53
 70
     1
102
RTVSPost2010Prop54
  1
strokes_ogs.tif
102
RTVSPost2010PropOp54
 70
     1
102
RTVSPost2010Prop55
280
     0
102
RTVSPost2010PropOp55
 70
     1
102
RTVSPost2010Prop56
140
1.0
102
RTVSPost2010PropOp56
 70
     1
102
RTVSPost2010Prop57
140
1.0
102
RTVSPost2010PropOp57
 70
     1
  0
XRECORD
  5
3D6
102
{ACAD_REACTORS
330
3D5
102
}
330
3D5
100
AcDbXrecord
280
     1
102
RTVSPropertyOp0
 70
     0
102
RTVSPropertyOp1
 70
     0
102
RTVSPropertyOp2
 70
     0
102
RTVSPropertyOp3
 70
     0
102
RTVSPropertyOp4
 70
     0
102
RTVSPropertyOp5
 70
     0
102
RTVSPropertyOp6
 70
     0
102
RTVSPropertyOp7
 70
     0
102
RTVSPropertyOp8
 70
     0
102
RTVSPropertyOp9
 70
     0
102
RTVSPropertyOp10
 70
     0
102
RTVSPropertyOp11
 70
     0
102
RTVSPropertyOp12
 70
     0
102
RTVSPropertyOp13
 70
     0
102
RTVSPropertyOp14
 70
     2
102
RTVSPropertyOp15
 70
     0
102
RTVSPropertyOp16
 70
     0
102
RTVSPropertyOp17
 70
     0
102
RTVSPropertyOp18
 70
     0
102
RTVSPropertyOp19
 70
     0
102
RTVSPropertyOp20
 70
     0
102
RTVSPropertyOp21
 70
     0
102
RTVSPropertyOp22
 70
     0
102
RTVSPropertyOp23
 70
     0
102
RTVSPropertyOp24
 70
     0
102
RTVSPropertyOp25
 70
     0
102
RTVSPropertyOp26
 70
     0
102
RTVSPropertyOp27
 70
     0
102
RTVSPropertyOp28
 70
     0
102
RTVSPropertyOp29
 70
     0
102
RTVSPropertyOp30
 70
     0
102
RTVSPropertyOp31
 70
     0
102
RTVSPropertyOp32
 70
     0
102
RTVSPropertyOp33
 70
     0
102
RTVSPropertyOp34
 70
     0
102
RTVSPropertyOp35
 70
     0
102
RTVSPropertyOp36
 70
     0
102
RTVSPropertyOp37
 70
     0
102
RTVSPropertyOp38
 70
     0
102
RTVSPropertyOp39
 70
     0
102
RTVSPropertyOp40
 70
     0
102
RTVSPropertyOp41
 70
     0
102
RTVSPropertyOp42
 70
     0
102
RTVSPropertyOp43
 70
     0
102
RTVSPropertyOp44
 70
     0
102
RTVSPropertyOp45
 70
     0
102
RTVSPropertyOp46
 70
     0
102
RTVSPropertyOp47
 70
     0
102
RTVSPropertyOp48
 70
     0
102
RTVSPropertyOp49
 70
     0
102
RTVSPropertyOp50
 70
     0
102
RTVSPropertyOp51
 70
     0
102
RTVSPropertyOp52
 70
     0
102
RTVSPropertyOp53
 70
     0
102
RTVSPropertyOp54
 70
     0
102
RTVSPropertyOp55
 70
     0
102
RTVSPropertyOp56
 70
     0
102
RTVSPropertyOp57
 70
     0
102
RTVSPost2010Prop28
280
     0
102
RTVSPost2010PropOp28
 70
     0
102
RTVSPost2010Prop29
280
     1
102
RTVSPost2010PropOp29
 70
     0
102
RTVSPost2010Prop30
280
     1
102
RTVSPost2010PropOp30
 70
     0
102
RTVSPost2010Prop31
280
     0
102
RTVSPost2010PropOp31
 70
     0
102
RTVSPost2010Prop32
280
     0
102
RTVSPost2010PropOp32
 70
     0
102
RTVSPost2010Prop33
280
     0
102
RTVSPost2010PropOp33
 70
     0
102
RTVSPost2010Prop34
280
     0
102
RTVSPost2010PropOp34
 70
     0
102
RTVSPost2010Prop35
280
     0
102
RTVSPost2010PropOp35
 70
     0
102
RTVSPost2010Prop36
280
     0
102
RTVSPost2010PropOp36
 70
     0
102
RTVSPost2010Prop37
 90
       50
102
RTVSPost2010PropOp37
 70
     0
102
RTVSPost2010Prop38
140
0.0
102
RTVSPost2010PropOp38
 70
     0
102
RTVSPost2010Prop39
140
1.0
102
RTVSPost2010PropOp39
 70
     0
102
RTVSPost2010Prop40
 90
        0
102
RTVSPost2010PropOp40
 70
     0
102
RTVSPost2010Prop41ColorIndex
 90
       18
102
RTVSPost2010Prop41ColorRGB
 90
        0
102
RTVSPost2010PropOp41
 70
     0
102
RTVSPost2010Prop42
 90
       50
102
RTVSPost2010PropOp42
 70
     0
102
RTVSPost2010Prop43
 90
        3
102
RTVSPost2010PropOp43
 70
     0
102
RTVSPost2010Prop44ColorIndex
 90
        5
102
RTVSPost2010Prop44ColorRGB
 90
      255
102
RTVSPost2010PropOp44
 70
     0
102
RTVSPost2010Prop45
280
     0
102
RTVSPost2010PropOp45
 70
     0
102
RTVSPost2010Prop46
 90
       50
102
RTVSPost2010PropOp46
 70
     0
102
RTVSPost2010Prop47
 90
       50
102
RTVSPost2010PropOp47
 70
     0
102
RTVSPost2010Prop48
 90
       50
102
RTVSPost2010PropOp48
 70
     0
102
RTVSPost2010Prop49
280
     0
102
RTVSPost2010PropOp49
 70
     0
102
RTVSPost2010Prop50
 90
       50
102
RTVSPost2010PropOp50
 70
     0
102
RTVSPost2010Prop51ColorIndex
 90
      256
102
RTVSPost2010Prop51ColorRGB
 90
-16777216
102
RTVSPost2010PropOp51
 70
     0
102
RTVSPost2010Prop52
140
1.0
102
RTVSPost2010PropOp52
 70
     0
102
RTVSPost2010Prop53
 90
        2
102
RTVSPost2010PropOp53
 70
     0
102
RTVSPost2010Prop54
  1
strokes_ogs.tif
102
RTVSPost2010PropOp54
 70
     0
102
RTVSPost2010Prop55
280
     0
102
RTVSPost2010PropOp55
 70
     0
102
RTVSPost2010Prop56
140
1.0
102
RTVSPost2010PropOp56
 70
     0
102
RTVSPost2010Prop57
140
1.0
102
RTVSPost2010PropOp57
 70
     0
  0
XRECORD
  5
3C4
102
{ACAD_REACTORS
330
3C3
102
}
330
3C3
100
AcDbXrecord
280
     1
102
RTVSPropertyOp0
 70
     1
102
RTVSPropertyOp1
 70
     1
102
RTVSPropertyOp2
 70
     1
102
RTVSPropertyOp3
 70
     1
102
RTVSPropertyOp4
 70
     1
102
RTVSPropertyOp5
 70
     1
102
RTVSPropertyOp6
 70
     1
102
RTVSPropertyOp7
 70
     1
102
RTVSPropertyOp8
 70
     1
102
RTVSPropertyOp9
 70
     1
102
RTVSPropertyOp10
 70
     1
102
RTVSPropertyOp11
 70
     1
102
RTVSPropertyOp12
 70
     1
102
RTVSPropertyOp13
 70
     1
102
RTVSPropertyOp14
 70
     1
102
RTVSPropertyOp15
 70
     1
102
RTVSPropertyOp16
 70
     1
102
RTVSPropertyOp17
 70
     1
102
RTVSPropertyOp18
 70
     1
102
RTVSPropertyOp19
 70
     1
102
RTVSPropertyOp20
 70
     1
102
RTVSPropertyOp21
 70
     1
102
RTVSPropertyOp22
 70
     1
102
RTVSPropertyOp23
 70
     1
102
RTVSPropertyOp24
 70
     1
102
RTVSPropertyOp25
 70
     1
102
RTVSPropertyOp26
 70
     1
102
RTVSPropertyOp27
 70
     1
102
RTVSPropertyOp28
 70
     1
102
RTVSPropertyOp29
 70
     1
102
RTVSPropertyOp30
 70
     1
102
RTVSPropertyOp31
 70
     1
102
RTVSPropertyOp32
 70
     1
102
RTVSPropertyOp33
 70
     1
102
RTVSPropertyOp34
 70
     1
102
RTVSPropertyOp35
 70
     1
102
RTVSPropertyOp36
 70
     1
102
RTVSPropertyOp37
 70
     1
102
RTVSPropertyOp38
 70
     1
102
RTVSPropertyOp39
 70
     1
102
RTVSPropertyOp40
 70
     1
102
RTVSPropertyOp41
 70
     1
102
RTVSPropertyOp42
 70
     1
102
RTVSPropertyOp43
 70
     1
102
RTVSPropertyOp44
 70
     1
102
RTVSPropertyOp45
 70
     1
102
RTVSPropertyOp46
 70
     1
102
RTVSPropertyOp47
 70
     1
102
RTVSPropertyOp48
 70
     1
102
RTVSPropertyOp49
 70
     1
102
RTVSPropertyOp50
 70
     1
102
RTVSPropertyOp51
 70
     0
102
RTVSPropertyOp52
 70
     0
102
RTVSPropertyOp53
 70
     1
102
RTVSPropertyOp54
 70
     1
102
RTVSPropertyOp55
 70
     1
102
RTVSPropertyOp56
 70
     1
102
RTVSPropertyOp57
 70
     1
102
RTVSPost2010Prop28
280
     0
102
RTVSPost2010PropOp28
 70
     1
102
RTVSPost2010Prop29
280
     1
102
RTVSPost2010PropOp29
 70
     1
102
RTVSPost2010Prop30
280
     1
102
RTVSPost2010PropOp30
 70
     1
102
RTVSPost2010Prop31
280
     0
102
RTVSPost2010PropOp31
 70
     1
102
RTVSPost2010Prop32
280
     0
102
RTVSPost2010PropOp32
 70
     1
102
RTVSPost2010Prop33
280
     0
102
RTVSPost2010PropOp33
 70
     1
102
RTVSPost2010Prop34
280
     0
102
RTVSPost2010PropOp34
 70
     1
102
RTVSPost2010Prop35
280
     0
102
RTVSPost2010PropOp35
 70
     1
102
RTVSPost2010Prop36
280
     0
102
RTVSPost2010PropOp36
 70
     1
102
RTVSPost2010Prop37
 90
       50
102
RTVSPost2010PropOp37
 70
     1
102
RTVSPost2010Prop38
140
0.0
102
RTVSPost2010PropOp38
 70
     1
102
RTVSPost2010Prop39
140
1.0
102
RTVSPost2010PropOp39
 70
     1
102
RTVSPost2010Prop40
 90
        0
102
RTVSPost2010PropOp40
 70
     1
102
RTVSPost2010Prop41ColorIndex
 90
       18
102
RTVSPost2010Prop41ColorRGB
 90
        0
102
RTVSPost2010PropOp41
 70
     1
102
RTVSPost2010Prop42
 90
       50
102
RTVSPost2010PropOp42
 70
     1
102
RTVSPost2010Prop43
 90
        3
102
RTVSPost2010PropOp43
 70
     1
102
RTVSPost2010Prop44ColorIndex
 90
        5
102
RTVSPost2010Prop44ColorRGB
 90
      255
102
RTVSPost2010PropOp44
 70
     1
102
RTVSPost2010Prop45
280
     0
102
RTVSPost2010PropOp45
 70
     1
102
RTVSPost2010Prop46
 90
       50
102
RTVSPost2010PropOp46
 70
     1
102
RTVSPost2010Prop47
 90
       50
102
RTVSPost2010PropOp47
 70
     1
102
RTVSPost2010Prop48
 90
       50
102
RTVSPost2010PropOp48
 70
     1
102
RTVSPost2010Prop49
280
     0
102
RTVSPost2010PropOp49
 70
     1
102
RTVSPost2010Prop50
 90
       50
102
RTVSPost2010PropOp50
 70
     1
102
RTVSPost2010Prop51ColorIndex
 90
      256
102
RTVSPost2010Prop51ColorRGB
 90
-16777216
102
RTVSPost2010PropOp51
 70
     0
102
RTVSPost2010Prop52
140
1.0
102
RTVSPost2010PropOp52
 70
     0
102
RTVSPost2010Prop53
 90
        2
102
RTVSPost2010PropOp53
 70
     1
102
RTVSPost2010Prop54
  1
strokes_ogs.tif
102
RTVSPost2010PropOp54
 70
     1
102
RTVSPost2010Prop55
280
     0
102
RTVSPost2010PropOp55
 70
     1
102
RTVSPost2010Prop56
140
1.0
102
RTVSPost2010PropOp56
 70
     1
102
RTVSPost2010Prop57
140
1.0
102
RTVSPost2010PropOp57
 70
     1
  0
XRECORD
  5
3E2
102
{ACAD_REACTORS
330
3E1
102
}
330
3E1
100
AcDbXrecord
280
     1
102
RTVSPropertyOp0
 70
     1
102
RTVSPropertyOp1
 70
     1
102
RTVSPropertyOp2
 70
     1
102
RTVSPropertyOp3
 70
     1
102
RTVSPropertyOp4
 70
     1
102
RTVSPropertyOp5
 70
     1
102
RTVSPropertyOp6
 70
     1
102
RTVSPropertyOp7
 70
     1
102
RTVSPropertyOp8
 70
     1
102
RTVSPropertyOp9
 70
     1
102
RTVSPropertyOp10
 70
     1
102
RTVSPropertyOp11
 70
     1
102
RTVSPropertyOp12
 70
     1
102
RTVSPropertyOp13
 70
     1
102
RTVSPropertyOp14
 70
     1
102
RTVSPropertyOp15
 70
     1
102
RTVSPropertyOp16
 70
     1
102
RTVSPropertyOp17
 70
     1
102
RTVSPropertyOp18
 70
     1
102
RTVSPropertyOp19
 70
     1
102
RTVSPropertyOp20
 70
     1
102
RTVSPropertyOp21
 70
     1
102
RTVSPropertyOp22
 70
     1
102
RTVSPropertyOp23
 70
     1
102
RTVSPropertyOp24
 70
     1
102
RTVSPropertyOp25
 70
     1
102
RTVSPropertyOp26
 70
     1
102
RTVSPropertyOp27
 70
     1
102
RTVSPropertyOp28
 70
     1
102
RTVSPropertyOp29
 70
     1
102
RTVSPropertyOp30
 70
     1
102
RTVSPropertyOp31
 70
     1
102
RTVSPropertyOp32
 70
     1
102
RTVSPropertyOp33
 70
     1
102
RTVSPropertyOp34
 70
     1
102
RTVSPropertyOp35
 70
     1
102
RTVSPropertyOp36
 70
     1
102
RTVSPropertyOp37
 70
     1
102
RTVSPropertyOp38
 70
     1
102
RTVSPropertyOp39
 70
     1
102
RTVSPropertyOp40
 70
     1
102
RTVSPropertyOp41
 70
     1
102
RTVSPropertyOp42
 70
     1
102
RTVSPropertyOp43
 70
     1
102
RTVSPropertyOp44
 70
     1
102
RTVSPropertyOp45
 70
     1
102
RTVSPropertyOp46
 70
     1
102
RTVSPropertyOp47
 70
     1
102
RTVSPropertyOp48
 70
     1
102
RTVSPropertyOp49
 70
     1
102
RTVSPropertyOp50
 70
     1
102
RTVSPropertyOp51
 70
     0
102
RTVSPropertyOp52
 70
     0
102
RTVSPropertyOp53
 70
     1
102
RTVSPropertyOp54
 70
     1
102
RTVSPropertyOp55
 70
     1
102
RTVSPropertyOp56
 70
     1
102
RTVSPropertyOp57
 70
     1
102
RTVSPost2010Prop28
280
     0
102
RTVSPost2010PropOp28
 70
     1
102
RTVSPost2010Prop29
280
     1
102
RTVSPost2010PropOp29
 70
     1
102
RTVSPost2010Prop30
280
     1
102
RTVSPost2010PropOp30
 70
     1
102
RTVSPost2010Prop31
280
     0
102
RTVSPost2010PropOp31
 70
     1
102
RTVSPost2010Prop32
280
     0
102
RTVSPost2010PropOp32
 70
     1
102
RTVSPost2010Prop33
280
     0
102
RTVSPost2010PropOp33
 70
     1
102
RTVSPost2010Prop34
280
     0
102
RTVSPost2010PropOp34
 70
     1
102
RTVSPost2010Prop35
280
     0
102
RTVSPost2010PropOp35
 70
     1
102
RTVSPost2010Prop36
280
     0
102
RTVSPost2010PropOp36
 70
     1
102
RTVSPost2010Prop37
 90
       50
102
RTVSPost2010PropOp37
 70
     1
102
RTVSPost2010Prop38
140
0.0
102
RTVSPost2010PropOp38
 70
     1
102
RTVSPost2010Prop39
140
1.0
102
RTVSPost2010PropOp39
 70
     1
102
RTVSPost2010Prop40
 90
        0
102
RTVSPost2010PropOp40
 70
     1
102
RTVSPost2010Prop41ColorIndex
 90
       18
102
RTVSPost2010Prop41ColorRGB
 90
        0
102
RTVSPost2010PropOp41
 70
     1
102
RTVSPost2010Prop42
 90
       50
102
RTVSPost2010PropOp42
 70
     1
102
RTVSPost2010Prop43
 90
        3
102
RTVSPost2010PropOp43
 70
     1
102
RTVSPost2010Prop44ColorIndex
 90
        5
102
RTVSPost2010Prop44ColorRGB
 90
      255
102
RTVSPost2010PropOp44
 70
     1
102
RTVSPost2010Prop45
280
     0
102
RTVSPost2010PropOp45
 70
     1
102
RTVSPost2010Prop46
 90
       50
102
RTVSPost2010PropOp46
 70
     1
102
RTVSPost2010Prop47
 90
       50
102
RTVSPost2010PropOp47
 70
     1
102
RTVSPost2010Prop48
 90
       50
102
RTVSPost2010PropOp48
 70
     1
102
RTVSPost2010Prop49
280
     0
102
RTVSPost2010PropOp49
 70
     1
102
RTVSPost2010Prop50
 90
       50
102
RTVSPost2010PropOp50
 70
     1
102
RTVSPost2010Prop51ColorIndex
 90
      256
102
RTVSPost2010Prop51ColorRGB
 90
-16777216
102
RTVSPost2010PropOp51
 70
     0
102
RTVSPost2010Prop52
140
1.0
102
RTVSPost2010PropOp52
 70
     0
102
RTVSPost2010Prop53
 90
        2
102
RTVSPost2010PropOp53
 70
     1
102
RTVSPost2010Prop54
  1
strokes_ogs.tif
102
RTVSPost2010PropOp54
 70
     1
102
RTVSPost2010Prop55
280
     0
102
RTVSPost2010PropOp55
 70
     1
102
RTVSPost2010Prop56
140
1.0
102
RTVSPost2010PropOp56
 70
     1
102
RTVSPost2010Prop57
140
1.0
102
RTVSPost2010PropOp57
 70
     1
  0
XRECORD
  5
3E0
102
{ACAD_REACTORS
330
3DF
102
}
330
3DF
100
AcDbXrecord
280
     1
102
RTVSPropertyOp0
 70
     1
102
RTVSPropertyOp1
 70
     1
102
RTVSPropertyOp2
 70
     1
102
RTVSPropertyOp3
 70
     1
102
RTVSPropertyOp4
 70
     1
102
RTVSPropertyOp5
 70
     1
102
RTVSPropertyOp6
 70
     1
102
RTVSPropertyOp7
 70
     1
102
RTVSPropertyOp8
 70
     1
102
RTVSPropertyOp9
 70
     1
102
RTVSPropertyOp10
 70
     1
102
RTVSPropertyOp11
 70
     1
102
RTVSPropertyOp12
 70
     1
102
RTVSPropertyOp13
 70
     1
102
RTVSPropertyOp14
 70
     1
102
RTVSPropertyOp15
 70
     1
102
RTVSPropertyOp16
 70
     1
102
RTVSPropertyOp17
 70
     1
102
RTVSPropertyOp18
 70
     1
102
RTVSPropertyOp19
 70
     1
102
RTVSPropertyOp20
 70
     1
102
RTVSPropertyOp21
 70
     1
102
RTVSPropertyOp22
 70
     1
102
RTVSPropertyOp23
 70
     1
102
RTVSPropertyOp24
 70
     1
102
RTVSPropertyOp25
 70
     1
102
RTVSPropertyOp26
 70
     1
102
RTVSPropertyOp27
 70
     1
102
RTVSPropertyOp28
 70
     1
102
RTVSPropertyOp29
 70
     1
102
RTVSPropertyOp30
 70
     1
102
RTVSPropertyOp31
 70
     1
102
RTVSPropertyOp32
 70
     1
102
RTVSPropertyOp33
 70
     1
102
RTVSPropertyOp34
 70
     1
102
RTVSPropertyOp35
 70
     1
102
RTVSPropertyOp36
 70
     1
102
RTVSPropertyOp37
 70
     1
102
RTVSPropertyOp38
 70
     1
102
RTVSPropertyOp39
 70
     1
102
RTVSPropertyOp40
 70
     1
102
RTVSPropertyOp41
 70
     1
102
RTVSPropertyOp42
 70
     1
102
RTVSPropertyOp43
 70
     1
102
RTVSPropertyOp44
 70
     1
102
RTVSPropertyOp45
 70
     1
102
RTVSPropertyOp46
 70
     1
102
RTVSPropertyOp47
 70
     1
102
RTVSPropertyOp48
 70
     1
102
RTVSPropertyOp49
 70
     1
102
RTVSPropertyOp50
 70
     1
102
RTVSPropertyOp51
 70
     0
102
RTVSPropertyOp52
 70
     0
102
RTVSPropertyOp53
 70
     1
102
RTVSPropertyOp54
 70
     1
102
RTVSPropertyOp55
 70
     1
102
RTVSPropertyOp56
 70
     1
102
RTVSPropertyOp57
 70
     1
102
RTVSPost2010Prop28
280
     0
102
RTVSPost2010PropOp28
 70
     1
102
RTVSPost2010Prop29
280
     1
102
RTVSPost2010PropOp29
 70
     1
102
RTVSPost2010Prop30
280
     1
102
RTVSPost2010PropOp30
 70
     1
102
RTVSPost2010Prop31
280
     0
102
RTVSPost2010PropOp31
 70
     1
102
RTVSPost2010Prop32
280
     0
102
RTVSPost2010PropOp32
 70
     1
102
RTVSPost2010Prop33
280
     0
102
RTVSPost2010PropOp33
 70
     1
102
RTVSPost2010Prop34
280
     0
102
RTVSPost2010PropOp34
 70
     1
102
RTVSPost2010Prop35
280
     0
102
RTVSPost2010PropOp35
 70
     1
102
RTVSPost2010Prop36
280
     0
102
RTVSPost2010PropOp36
 70
     1
102
RTVSPost2010Prop37
 90
       50
102
RTVSPost2010PropOp37
 70
     1
102
RTVSPost2010Prop38
140
0.0
102
RTVSPost2010PropOp38
 70
     1
102
RTVSPost2010Prop39
140
1.0
102
RTVSPost2010PropOp39
 70
     1
102
RTVSPost2010Prop40
 90
        0
102
RTVSPost2010PropOp40
 70
     1
102
RTVSPost2010Prop41ColorIndex
 90
       18
102
RTVSPost2010Prop41ColorRGB
 90
        0
102
RTVSPost2010PropOp41
 70
     1
102
RTVSPost2010Prop42
 90
       50
102
RTVSPost2010PropOp42
 70
     1
102
RTVSPost2010Prop43
 90
        3
102
RTVSPost2010PropOp43
 70
     1
102
RTVSPost2010Prop44ColorIndex
 90
        5
102
RTVSPost2010Prop44ColorRGB
 90
      255
102
RTVSPost2010PropOp44
 70
     1
102
RTVSPost2010Prop45
280
     0
102
RTVSPost2010PropOp45
 70
     1
102
RTVSPost2010Prop46
 90
       50
102
RTVSPost2010PropOp46
 70
     1
102
RTVSPost2010Prop47
 90
       50
102
RTVSPost2010PropOp47
 70
     1
102
RTVSPost2010Prop48
 90
       50
102
RTVSPost2010PropOp48
 70
     1
102
RTVSPost2010Prop49
280
     0
102
RTVSPost2010PropOp49
 70
     1
102
RTVSPost2010Prop50
 90
       50
102
RTVSPost2010PropOp50
 70
     1
102
RTVSPost2010Prop51ColorIndex
 90
      256
102
RTVSPost2010Prop51ColorRGB
 90
-16777216
102
RTVSPost2010PropOp51
 70
     0
102
RTVSPost2010Prop52
140
1.0
102
RTVSPost2010PropOp52
 70
     0
102
RTVSPost2010Prop53
 90
        2
102
RTVSPost2010PropOp53
 70
     1
102
RTVSPost2010Prop54
  1
strokes_ogs.tif
102
RTVSPost2010PropOp54
 70
     1
102
RTVSPost2010Prop55
280
     0
102
RTVSPost2010PropOp55
 70
     1
102
RTVSPost2010Prop56
140
1.0
102
RTVSPost2010PropOp56
 70
     1
102
RTVSPost2010Prop57
140
1.0
102
RTVSPost2010PropOp57
 70
     1
  0
XRECORD
  5
3DA
102
{ACAD_REACTORS
330
3D9
102
}
330
3D9
100
AcDbXrecord
280
     1
102
RTVSPropertyOp0
 70
     1
102
RTVSPropertyOp1
 70
     1
102
RTVSPropertyOp2
 70
     1
102
RTVSPropertyOp3
 70
     1
102
RTVSPropertyOp4
 70
     1
102
RTVSPropertyOp5
 70
     1
102
RTVSPropertyOp6
 70
     1
102
RTVSPropertyOp7
 70
     1
102
RTVSPropertyOp8
 70
     1
102
RTVSPropertyOp9
 70
     1
102
RTVSPropertyOp10
 70
     1
102
RTVSPropertyOp11
 70
     1
102
RTVSPropertyOp12
 70
     1
102
RTVSPropertyOp13
 70
     1
102
RTVSPropertyOp14
 70
     1
102
RTVSPropertyOp15
 70
     1
102
RTVSPropertyOp16
 70
     1
102
RTVSPropertyOp17
 70
     1
102
RTVSPropertyOp18
 70
     1
102
RTVSPropertyOp19
 70
     1
102
RTVSPropertyOp20
 70
     1
102
RTVSPropertyOp21
 70
     1
102
RTVSPropertyOp22
 70
     1
102
RTVSPropertyOp23
 70
     1
102
RTVSPropertyOp24
 70
     1
102
RTVSPropertyOp25
 70
     1
102
RTVSPropertyOp26
 70
     1
102
RTVSPropertyOp27
 70
     1
102
RTVSPropertyOp28
 70
     1
102
RTVSPropertyOp29
 70
     1
102
RTVSPropertyOp30
 70
     1
102
RTVSPropertyOp31
 70
     1
102
RTVSPropertyOp32
 70
     1
102
RTVSPropertyOp33
 70
     1
102
RTVSPropertyOp34
 70
     1
102
RTVSPropertyOp35
 70
     1
102
RTVSPropertyOp36
 70
     1
102
RTVSPropertyOp37
 70
     1
102
RTVSPropertyOp38
 70
     1
102
RTVSPropertyOp39
 70
     1
102
RTVSPropertyOp40
 70
     1
102
RTVSPropertyOp41
 70
     1
102
RTVSPropertyOp42
 70
     1
102
RTVSPropertyOp43
 70
     1
102
RTVSPropertyOp44
 70
     1
102
RTVSPropertyOp45
 70
     1
102
RTVSPropertyOp46
 70
     1
102
RTVSPropertyOp47
 70
     1
102
RTVSPropertyOp48
 70
     1
102
RTVSPropertyOp49
 70
     1
102
RTVSPropertyOp50
 70
     1
102
RTVSPropertyOp51
 70
     0
102
RTVSPropertyOp52
 70
     0
102
RTVSPropertyOp53
 70
     1
102
RTVSPropertyOp54
 70
     1
102
RTVSPropertyOp55
 70
     1
102
RTVSPropertyOp56
 70
     1
102
RTVSPropertyOp57
 70
     1
102
RTVSPost2010Prop28
280
     0
102
RTVSPost2010PropOp28
 70
     1
102
RTVSPost2010Prop29
280
     1
102
RTVSPost2010PropOp29
 70
     1
102
RTVSPost2010Prop30
280
     1
102
RTVSPost2010PropOp30
 70
     1
102
RTVSPost2010Prop31
280
     0
102
RTVSPost2010PropOp31
 70
     1
102
RTVSPost2010Prop32
280
     0
102
RTVSPost2010PropOp32
 70
     1
102
RTVSPost2010Prop33
280
     0
102
RTVSPost2010PropOp33
 70
     1
102
RTVSPost2010Prop34
280
     0
102
RTVSPost2010PropOp34
 70
     1
102
RTVSPost2010Prop35
280
     0
102
RTVSPost2010PropOp35
 70
     1
102
RTVSPost2010Prop36
280
     0
102
RTVSPost2010PropOp36
 70
     1
102
RTVSPost2010Prop37
 90
       50
102
RTVSPost2010PropOp37
 70
     1
102
RTVSPost2010Prop38
140
0.0
102
RTVSPost2010PropOp38
 70
     1
102
RTVSPost2010Prop39
140
1.0
102
RTVSPost2010PropOp39
 70
     1
102
RTVSPost2010Prop40
 90
        0
102
RTVSPost2010PropOp40
 70
     1
102
RTVSPost2010Prop41ColorIndex
 90
       18
102
RTVSPost2010Prop41ColorRGB
 90
        0
102
RTVSPost2010PropOp41
 70
     1
102
RTVSPost2010Prop42
 90
       50
102
RTVSPost2010PropOp42
 70
     1
102
RTVSPost2010Prop43
 90
        3
102
RTVSPost2010PropOp43
 70
     1
102
RTVSPost2010Prop44ColorIndex
 90
        5
102
RTVSPost2010Prop44ColorRGB
 90
      255
102
RTVSPost2010PropOp44
 70
     1
102
RTVSPost2010Prop45
280
     0
102
RTVSPost2010PropOp45
 70
     1
102
RTVSPost2010Prop46
 90
       50
102
RTVSPost2010PropOp46
 70
     1
102
RTVSPost2010Prop47
 90
       50
102
RTVSPost2010PropOp47
 70
     1
102
RTVSPost2010Prop48
 90
       50
102
RTVSPost2010PropOp48
 70
     1
102
RTVSPost2010Prop49
280
     0
102
RTVSPost2010PropOp49
 70
     1
102
RTVSPost2010Prop50
 90
       50
102
RTVSPost2010PropOp50
 70
     1
102
RTVSPost2010Prop51ColorIndex
 90
      256
102
RTVSPost2010Prop51ColorRGB
 90
-16777216
102
RTVSPost2010PropOp51
 70
     0
102
RTVSPost2010Prop52
140
1.0
102
RTVSPost2010PropOp52
 70
     0
102
RTVSPost2010Prop53
 90
        2
102
RTVSPost2010PropOp53
 70
     1
102
RTVSPost2010Prop54
  1
strokes_ogs.tif
102
RTVSPost2010PropOp54
 70
     1
102
RTVSPost2010Prop55
280
     0
102
RTVSPost2010PropOp55
 70
     1
102
RTVSPost2010Prop56
140
1.0
102
RTVSPost2010PropOp56
 70
     1
102
RTVSPost2010Prop57
140
1.0
102
RTVSPost2010PropOp57
 70
     1
  0
XRECORD
  5
3DC
102
{ACAD_REACTORS
330
3DB
102
}
330
3DB
100
AcDbXrecord
280
     1
102
RTVSPropertyOp0
 70
     1
102
RTVSPropertyOp1
 70
     1
102
RTVSPropertyOp2
 70
     1
102
RTVSPropertyOp3
 70
     1
102
RTVSPropertyOp4
 70
     1
102
RTVSPropertyOp5
 70
     1
102
RTVSPropertyOp6
 70
     1
102
RTVSPropertyOp7
 70
     1
102
RTVSPropertyOp8
 70
     1
102
RTVSPropertyOp9
 70
     1
102
RTVSPropertyOp10
 70
     1
102
RTVSPropertyOp11
 70
     1
102
RTVSPropertyOp12
 70
     1
102
RTVSPropertyOp13
 70
     1
102
RTVSPropertyOp14
 70
     1
102
RTVSPropertyOp15
 70
     1
102
RTVSPropertyOp16
 70
     1
102
RTVSPropertyOp17
 70
     1
102
RTVSPropertyOp18
 70
     1
102
RTVSPropertyOp19
 70
     1
102
RTVSPropertyOp20
 70
     1
102
RTVSPropertyOp21
 70
     1
102
RTVSPropertyOp22
 70
     1
102
RTVSPropertyOp23
 70
     1
102
RTVSPropertyOp24
 70
     1
102
RTVSPropertyOp25
 70
     1
102
RTVSPropertyOp26
 70
     1
102
RTVSPropertyOp27
 70
     1
102
RTVSPropertyOp28
 70
     1
102
RTVSPropertyOp29
 70
     1
102
RTVSPropertyOp30
 70
     1
102
RTVSPropertyOp31
 70
     1
102
RTVSPropertyOp32
 70
     1
102
RTVSPropertyOp33
 70
     1
102
RTVSPropertyOp34
 70
     1
102
RTVSPropertyOp35
 70
     1
102
RTVSPropertyOp36
 70
     1
102
RTVSPropertyOp37
 70
     1
102
RTVSPropertyOp38
 70
     1
102
RTVSPropertyOp39
 70
     1
102
RTVSPropertyOp40
 70
     1
102
RTVSPropertyOp41
 70
     1
102
RTVSPropertyOp42
 70
     1
102
RTVSPropertyOp43
 70
     1
102
RTVSPropertyOp44
 70
     1
102
RTVSPropertyOp45
 70
     1
102
RTVSPropertyOp46
 70
     1
102
RTVSPropertyOp47
 70
     1
102
RTVSPropertyOp48
 70
     1
102
RTVSPropertyOp49
 70
     1
102
RTVSPropertyOp50
 70
     1
102
RTVSPropertyOp51
 70
     0
102
RTVSPropertyOp52
 70
     0
102
RTVSPropertyOp53
 70
     1
102
RTVSPropertyOp54
 70
     1
102
RTVSPropertyOp55
 70
     1
102
RTVSPropertyOp56
 70
     1
102
RTVSPropertyOp57
 70
     1
102
RTVSPost2010Prop28
280
     0
102
RTVSPost2010PropOp28
 70
     1
102
RTVSPost2010Prop29
280
     1
102
RTVSPost2010PropOp29
 70
     1
102
RTVSPost2010Prop30
280
     1
102
RTVSPost2010PropOp30
 70
     1
102
RTVSPost2010Prop31
280
     0
102
RTVSPost2010PropOp31
 70
     1
102
RTVSPost2010Prop32
280
     0
102
RTVSPost2010PropOp32
 70
     1
102
RTVSPost2010Prop33
280
     0
102
RTVSPost2010PropOp33
 70
     1
102
RTVSPost2010Prop34
280
     0
102
RTVSPost2010PropOp34
 70
     1
102
RTVSPost2010Prop35
280
     0
102
RTVSPost2010PropOp35
 70
     1
102
RTVSPost2010Prop36
280
     0
102
RTVSPost2010PropOp36
 70
     1
102
RTVSPost2010Prop37
 90
       50
102
RTVSPost2010PropOp37
 70
     1
102
RTVSPost2010Prop38
140
0.0
102
RTVSPost2010PropOp38
 70
     1
102
RTVSPost2010Prop39
140
1.0
102
RTVSPost2010PropOp39
 70
     1
102
RTVSPost2010Prop40
 90
        0
102
RTVSPost2010PropOp40
 70
     1
102
RTVSPost2010Prop41ColorIndex
 90
       18
102
RTVSPost2010Prop41ColorRGB
 90
        0
102
RTVSPost2010PropOp41
 70
     1
102
RTVSPost2010Prop42
 90
       50
102
RTVSPost2010PropOp42
 70
     1
102
RTVSPost2010Prop43
 90
        3
102
RTVSPost2010PropOp43
 70
     1
102
RTVSPost2010Prop44ColorIndex
 90
        5
102
RTVSPost2010Prop44ColorRGB
 90
      255
102
RTVSPost2010PropOp44
 70
     1
102
RTVSPost2010Prop45
280
     0
102
RTVSPost2010PropOp45
 70
     1
102
RTVSPost2010Prop46
 90
       50
102
RTVSPost2010PropOp46
 70
     1
102
RTVSPost2010Prop47
 90
       50
102
RTVSPost2010PropOp47
 70
     1
102
RTVSPost2010Prop48
 90
       50
102
RTVSPost2010PropOp48
 70
     1
102
RTVSPost2010Prop49
280
     0
102
RTVSPost2010PropOp49
 70
     1
102
RTVSPost2010Prop50
 90
       50
102
RTVSPost2010PropOp50
 70
     1
102
RTVSPost2010Prop51ColorIndex
 90
      256
102
RTVSPost2010Prop51ColorRGB
 90
-16777216
102
RTVSPost2010PropOp51
 70
     0
102
RTVSPost2010Prop52
140
1.0
102
RTVSPost2010PropOp52
 70
     0
102
RTVSPost2010Prop53
 90
        2
102
RTVSPost2010PropOp53
 70
     1
102
RTVSPost2010Prop54
  1
strokes_ogs.tif
102
RTVSPost2010PropOp54
 70
     1
102
RTVSPost2010Prop55
280
     0
102
RTVSPost2010PropOp55
 70
     1
102
RTVSPost2010Prop56
140
1.0
102
RTVSPost2010PropOp56
 70
     1
102
RTVSPost2010Prop57
140
1.0
102
RTVSPost2010PropOp57
 70
     1
  0
XRECORD
  5
3CC
102
{ACAD_REACTORS
330
3CB
102
}
330
3CB
100
AcDbXrecord
280
     1
102
RTVSPropertyOp0
 70
     1
102
RTVSPropertyOp1
 70
     1
102
RTVSPropertyOp2
 70
     1
102
RTVSPropertyOp3
 70
     1
102
RTVSPropertyOp4
 70
     1
102
RTVSPropertyOp5
 70
     1
102
RTVSPropertyOp6
 70
     1
102
RTVSPropertyOp7
 70
     1
102
RTVSPropertyOp8
 70
     1
102
RTVSPropertyOp9
 70
     1
102
RTVSPropertyOp10
 70
     1
102
RTVSPropertyOp11
 70
     1
102
RTVSPropertyOp12
 70
     1
102
RTVSPropertyOp13
 70
     1
102
RTVSPropertyOp14
 70
     1
102
RTVSPropertyOp15
 70
     1
102
RTVSPropertyOp16
 70
     1
102
RTVSPropertyOp17
 70
     1
102
RTVSPropertyOp18
 70
     1
102
RTVSPropertyOp19
 70
     1
102
RTVSPropertyOp20
 70
     1
102
RTVSPropertyOp21
 70
     1
102
RTVSPropertyOp22
 70
     1
102
RTVSPropertyOp23
 70
     1
102
RTVSPropertyOp24
 70
     1
102
RTVSPropertyOp25
 70
     1
102
RTVSPropertyOp26
 70
     1
102
RTVSPropertyOp27
 70
     1
102
RTVSPropertyOp28
 70
     1
102
RTVSPropertyOp29
 70
     1
102
RTVSPropertyOp30
 70
     1
102
RTVSPropertyOp31
 70
     1
102
RTVSPropertyOp32
 70
     1
102
RTVSPropertyOp33
 70
     1
102
RTVSPropertyOp34
 70
     1
102
RTVSPropertyOp35
 70
     1
102
RTVSPropertyOp36
 70
     1
102
RTVSPropertyOp37
 70
     1
102
RTVSPropertyOp38
 70
     1
102
RTVSPropertyOp39
 70
     1
102
RTVSPropertyOp40
 70
     1
102
RTVSPropertyOp41
 70
     1
102
RTVSPropertyOp42
 70
     1
102
RTVSPropertyOp43
 70
     1
102
RTVSPropertyOp44
 70
     1
102
RTVSPropertyOp45
 70
     1
102
RTVSPropertyOp46
 70
     1
102
RTVSPropertyOp47
 70
     1
102
RTVSPropertyOp48
 70
     1
102
RTVSPropertyOp49
 70
     1
102
RTVSPropertyOp50
 70
     1
102
RTVSPropertyOp51
 70
     0
102
RTVSPropertyOp52
 70
     0
102
RTVSPropertyOp53
 70
     1
102
RTVSPropertyOp54
 70
     1
102
RTVSPropertyOp55
 70
     1
102
RTVSPropertyOp56
 70
     1
102
RTVSPropertyOp57
 70
     1
102
RTVSPost2010Prop28
280
     0
102
RTVSPost2010PropOp28
 70
     1
102
RTVSPost2010Prop29
280
     1
102
RTVSPost2010PropOp29
 70
     1
102
RTVSPost2010Prop30
280
     1
102
RTVSPost2010PropOp30
 70
     1
102
RTVSPost2010Prop31
280
     0
102
RTVSPost2010PropOp31
 70
     1
102
RTVSPost2010Prop32
280
     0
102
RTVSPost2010PropOp32
 70
     1
102
RTVSPost2010Prop33
280
     0
102
RTVSPost2010PropOp33
 70
     1
102
RTVSPost2010Prop34
280
     0
102
RTVSPost2010PropOp34
 70
     1
102
RTVSPost2010Prop35
280
     0
102
RTVSPost2010PropOp35
 70
     1
102
RTVSPost2010Prop36
280
     0
102
RTVSPost2010PropOp36
 70
     1
102
RTVSPost2010Prop37
 90
       50
102
RTVSPost2010PropOp37
 70
     1
102
RTVSPost2010Prop38
140
0.0
102
RTVSPost2010PropOp38
 70
     1
102
RTVSPost2010Prop39
140
1.0
102
RTVSPost2010PropOp39
 70
     1
102
RTVSPost2010Prop40
 90
        0
102
RTVSPost2010PropOp40
 70
     1
102
RTVSPost2010Prop41ColorIndex
 90
       18
102
RTVSPost2010Prop41ColorRGB
 90
        0
102
RTVSPost2010PropOp41
 70
     1
102
RTVSPost2010Prop42
 90
       50
102
RTVSPost2010PropOp42
 70
     1
102
RTVSPost2010Prop43
 90
        3
102
RTVSPost2010PropOp43
 70
     1
102
RTVSPost2010Prop44ColorIndex
 90
        5
102
RTVSPost2010Prop44ColorRGB
 90
      255
102
RTVSPost2010PropOp44
 70
     1
102
RTVSPost2010Prop45
280
     0
102
RTVSPost2010PropOp45
 70
     1
102
RTVSPost2010Prop46
 90
       50
102
RTVSPost2010PropOp46
 70
     1
102
RTVSPost2010Prop47
 90
       50
102
RTVSPost2010PropOp47
 70
     1
102
RTVSPost2010Prop48
 90
       50
102
RTVSPost2010PropOp48
 70
     1
102
RTVSPost2010Prop49
280
     0
102
RTVSPost2010PropOp49
 70
     1
102
RTVSPost2010Prop50
 90
       50
102
RTVSPost2010PropOp50
 70
     1
102
RTVSPost2010Prop51ColorIndex
 90
      256
102
RTVSPost2010Prop51ColorRGB
 90
-16777216
102
RTVSPost2010PropOp51
 70
     0
102
RTVSPost2010Prop52
140
1.0
102
RTVSPost2010PropOp52
 70
     0
102
RTVSPost2010Prop53
 90
        2
102
RTVSPost2010PropOp53
 70
     1
102
RTVSPost2010Prop54
  1
strokes_ogs.tif
102
RTVSPost2010PropOp54
 70
     1
102
RTVSPost2010Prop55
280
     0
102
RTVSPost2010PropOp55
 70
     1
102
RTVSPost2010Prop56
140
1.0
102
RTVSPost2010PropOp56
 70
     1
102
RTVSPost2010Prop57
140
1.0
102
RTVSPost2010PropOp57
 70
     1
  0
XRECORD
  5
3BE
102
{ACAD_REACTORS
330
3BD
102
}
330
3BD
100
AcDbXrecord
280
     1
102
RTVSPropertyOp0
 70
     1
102
RTVSPropertyOp1
 70
     1
102
RTVSPropertyOp2
 70
     1
102
RTVSPropertyOp3
 70
     1
102
RTVSPropertyOp4
 70
     1
102
RTVSPropertyOp5
 70
     1
102
RTVSPropertyOp6
 70
     1
102
RTVSPropertyOp7
 70
     1
102
RTVSPropertyOp8
 70
     1
102
RTVSPropertyOp9
 70
     1
102
RTVSPropertyOp10
 70
     1
102
RTVSPropertyOp11
 70
     1
102
RTVSPropertyOp12
 70
     1
102
RTVSPropertyOp13
 70
     1
102
RTVSPropertyOp14
 70
     1
102
RTVSPropertyOp15
 70
     1
102
RTVSPropertyOp16
 70
     1
102
RTVSPropertyOp17
 70
     1
102
RTVSPropertyOp18
 70
     1
102
RTVSPropertyOp19
 70
     1
102
RTVSPropertyOp20
 70
     1
102
RTVSPropertyOp21
 70
     1
102
RTVSPropertyOp22
 70
     1
102
RTVSPropertyOp23
 70
     1
102
RTVSPropertyOp24
 70
     1
102
RTVSPropertyOp25
 70
     1
102
RTVSPropertyOp26
 70
     1
102
RTVSPropertyOp27
 70
     1
102
RTVSPropertyOp28
 70
     1
102
RTVSPropertyOp29
 70
     1
102
RTVSPropertyOp30
 70
     1
102
RTVSPropertyOp31
 70
     1
102
RTVSPropertyOp32
 70
     1
102
RTVSPropertyOp33
 70
     1
102
RTVSPropertyOp34
 70
     1
102
RTVSPropertyOp35
 70
     1
102
RTVSPropertyOp36
 70
     1
102
RTVSPropertyOp37
 70
     1
102
RTVSPropertyOp38
 70
     1
102
RTVSPropertyOp39
 70
     1
102
RTVSPropertyOp40
 70
     1
102
RTVSPropertyOp41
 70
     1
102
RTVSPropertyOp42
 70
     1
102
RTVSPropertyOp43
 70
     1
102
RTVSPropertyOp44
 70
     1
102
RTVSPropertyOp45
 70
     1
102
RTVSPropertyOp46
 70
     1
102
RTVSPropertyOp47
 70
     1
102
RTVSPropertyOp48
 70
     1
102
RTVSPropertyOp49
 70
     1
102
RTVSPropertyOp50
 70
     1
102
RTVSPropertyOp51
 70
     0
102
RTVSPropertyOp52
 70
     0
102
RTVSPropertyOp53
 70
     1
102
RTVSPropertyOp54
 70
     1
102
RTVSPropertyOp55
 70
     1
102
RTVSPropertyOp56
 70
     1
102
RTVSPropertyOp57
 70
     1
102
RTVSPost2010Prop28
280
     0
102
RTVSPost2010PropOp28
 70
     1
102
RTVSPost2010Prop29
280
     1
102
RTVSPost2010PropOp29
 70
     1
102
RTVSPost2010Prop30
280
     1
102
RTVSPost2010PropOp30
 70
     1
102
RTVSPost2010Prop31
280
     0
102
RTVSPost2010PropOp31
 70
     1
102
RTVSPost2010Prop32
280
     0
102
RTVSPost2010PropOp32
 70
     1
102
RTVSPost2010Prop33
280
     0
102
RTVSPost2010PropOp33
 70
     1
102
RTVSPost2010Prop34
280
     0
102
RTVSPost2010PropOp34
 70
     1
102
RTVSPost2010Prop35
280
     0
102
RTVSPost2010PropOp35
 70
     1
102
RTVSPost2010Prop36
280
     0
102
RTVSPost2010PropOp36
 70
     1
102
RTVSPost2010Prop37
 90
       50
102
RTVSPost2010PropOp37
 70
     1
102
RTVSPost2010Prop38
140
0.0
102
RTVSPost2010PropOp38
 70
     1
102
RTVSPost2010Prop39
140
1.0
102
RTVSPost2010PropOp39
 70
     1
102
RTVSPost2010Prop40
 90
        0
102
RTVSPost2010PropOp40
 70
     1
102
RTVSPost2010Prop41ColorIndex
 90
       18
102
RTVSPost2010Prop41ColorRGB
 90
        0
102
RTVSPost2010PropOp41
 70
     1
102
RTVSPost2010Prop42
 90
       50
102
RTVSPost2010PropOp42
 70
     1
102
RTVSPost2010Prop43
 90
        3
102
RTVSPost2010PropOp43
 70
     1
102
RTVSPost2010Prop44ColorIndex
 90
        5
102
RTVSPost2010Prop44ColorRGB
 90
      255
102
RTVSPost2010PropOp44
 70
     1
102
RTVSPost2010Prop45
280
     0
102
RTVSPost2010PropOp45
 70
     1
102
RTVSPost2010Prop46
 90
       50
102
RTVSPost2010PropOp46
 70
     1
102
RTVSPost2010Prop47
 90
       50
102
RTVSPost2010PropOp47
 70
     1
102
RTVSPost2010Prop48
 90
       50
102
RTVSPost2010PropOp48
 70
     1
102
RTVSPost2010Prop49
280
     0
102
RTVSPost2010PropOp49
 70
     1
102
RTVSPost2010Prop50
 90
       50
102
RTVSPost2010PropOp50
 70
     1
102
RTVSPost2010Prop51ColorIndex
 90
      256
102
RTVSPost2010Prop51ColorRGB
 90
-16777216
102
RTVSPost2010PropOp51
 70
     0
102
RTVSPost2010Prop52
140
1.0
102
RTVSPost2010PropOp52
 70
     0
102
RTVSPost2010Prop53
 90
        2
102
RTVSPost2010PropOp53
 70
     1
102
RTVSPost2010Prop54
  1
strokes_ogs.tif
102
RTVSPost2010PropOp54
 70
     1
102
RTVSPost2010Prop55
280
     0
102
RTVSPost2010PropOp55
 70
     1
102
RTVSPost2010Prop56
140
1.0
102
RTVSPost2010PropOp56
 70
     1
102
RTVSPost2010Prop57
140
1.0
102
RTVSPost2010PropOp57
 70
     1
  0
XRECORD
  5
3DE
102
{ACAD_REACTORS
330
3DD
102
}
330
3DD
100
AcDbXrecord
280
     1
102
RTVSPropertyOp0
 70
     1
102
RTVSPropertyOp1
 70
     1
102
RTVSPropertyOp2
 70
     1
102
RTVSPropertyOp3
 70
     1
102
RTVSPropertyOp4
 70
     1
102
RTVSPropertyOp5
 70
     1
102
RTVSPropertyOp6
 70
     1
102
RTVSPropertyOp7
 70
     1
102
RTVSPropertyOp8
 70
     1
102
RTVSPropertyOp9
 70
     1
102
RTVSPropertyOp10
 70
     1
102
RTVSPropertyOp11
 70
     1
102
RTVSPropertyOp12
 70
     1
102
RTVSPropertyOp13
 70
     1
102
RTVSPropertyOp14
 70
     1
102
RTVSPropertyOp15
 70
     1
102
RTVSPropertyOp16
 70
     1
102
RTVSPropertyOp17
 70
     1
102
RTVSPropertyOp18
 70
     1
102
RTVSPropertyOp19
 70
     1
102
RTVSPropertyOp20
 70
     1
102
RTVSPropertyOp21
 70
     1
102
RTVSPropertyOp22
 70
     1
102
RTVSPropertyOp23
 70
     1
102
RTVSPropertyOp24
 70
     1
102
RTVSPropertyOp25
 70
     1
102
RTVSPropertyOp26
 70
     1
102
RTVSPropertyOp27
 70
     1
102
RTVSPropertyOp28
 70
     1
102
RTVSPropertyOp29
 70
     1
102
RTVSPropertyOp30
 70
     1
102
RTVSPropertyOp31
 70
     1
102
RTVSPropertyOp32
 70
     1
102
RTVSPropertyOp33
 70
     1
102
RTVSPropertyOp34
 70
     1
102
RTVSPropertyOp35
 70
     1
102
RTVSPropertyOp36
 70
     1
102
RTVSPropertyOp37
 70
     1
102
RTVSPropertyOp38
 70
     1
102
RTVSPropertyOp39
 70
     1
102
RTVSPropertyOp40
 70
     1
102
RTVSPropertyOp41
 70
     1
102
RTVSPropertyOp42
 70
     1
102
RTVSPropertyOp43
 70
     1
102
RTVSPropertyOp44
 70
     1
102
RTVSPropertyOp45
 70
     1
102
RTVSPropertyOp46
 70
     1
102
RTVSPropertyOp47
 70
     1
102
RTVSPropertyOp48
 70
     1
102
RTVSPropertyOp49
 70
     1
102
RTVSPropertyOp50
 70
     1
102
RTVSPropertyOp51
 70
     0
102
RTVSPropertyOp52
 70
     0
102
RTVSPropertyOp53
 70
     1
102
RTVSPropertyOp54
 70
     1
102
RTVSPropertyOp55
 70
     1
102
RTVSPropertyOp56
 70
     1
102
RTVSPropertyOp57
 70
     1
102
RTVSPost2010Prop28
280
     0
102
RTVSPost2010PropOp28
 70
     1
102
RTVSPost2010Prop29
280
     1
102
RTVSPost2010PropOp29
 70
     1
102
RTVSPost2010Prop30
280
     1
102
RTVSPost2010PropOp30
 70
     1
102
RTVSPost2010Prop31
280
     0
102
RTVSPost2010PropOp31
 70
     1
102
RTVSPost2010Prop32
280
     0
102
RTVSPost2010PropOp32
 70
     1
102
RTVSPost2010Prop33
280
     0
102
RTVSPost2010PropOp33
 70
     1
102
RTVSPost2010Prop34
280
     0
102
RTVSPost2010PropOp34
 70
     1
102
RTVSPost2010Prop35
280
     0
102
RTVSPost2010PropOp35
 70
     1
102
RTVSPost2010Prop36
280
     0
102
RTVSPost2010PropOp36
 70
     1
102
RTVSPost2010Prop37
 90
       50
102
RTVSPost2010PropOp37
 70
     1
102
RTVSPost2010Prop38
140
0.0
102
RTVSPost2010PropOp38
 70
     1
102
RTVSPost2010Prop39
140
1.0
102
RTVSPost2010PropOp39
 70
     1
102
RTVSPost2010Prop40
 90
        0
102
RTVSPost2010PropOp40
 70
     1
102
RTVSPost2010Prop41ColorIndex
 90
       18
102
RTVSPost2010Prop41ColorRGB
 90
        0
102
RTVSPost2010PropOp41
 70
     1
102
RTVSPost2010Prop42
 90
       50
102
RTVSPost2010PropOp42
 70
     1
102
RTVSPost2010Prop43
 90
        3
102
RTVSPost2010PropOp43
 70
     1
102
RTVSPost2010Prop44ColorIndex
 90
        5
102
RTVSPost2010Prop44ColorRGB
 90
      255
102
RTVSPost2010PropOp44
 70
     1
102
RTVSPost2010Prop45
280
     0
102
RTVSPost2010PropOp45
 70
     1
102
RTVSPost2010Prop46
 90
       50
102
RTVSPost2010PropOp46
 70
     1
102
RTVSPost2010Prop47
 90
       50
102
RTVSPost2010PropOp47
 70
     1
102
RTVSPost2010Prop48
 90
       50
102
RTVSPost2010PropOp48
 70
     1
102
RTVSPost2010Prop49
280
     0
102
RTVSPost2010PropOp49
 70
     1
102
RTVSPost2010Prop50
 90
       50
102
RTVSPost2010PropOp50
 70
     1
102
RTVSPost2010Prop51ColorIndex
 90
      256
102
RTVSPost2010Prop51ColorRGB
 90
-16777216
102
RTVSPost2010PropOp51
 70
     0
102
RTVSPost2010Prop52
140
1.0
102
RTVSPost2010PropOp52
 70
     0
102
RTVSPost2010Prop53
 90
        2
102
RTVSPost2010PropOp53
 70
     1
102
RTVSPost2010Prop54
  1
strokes_ogs.tif
102
RTVSPost2010PropOp54
 70
     1
102
RTVSPost2010Prop55
280
     0
102
RTVSPost2010PropOp55
 70
     1
102
RTVSPost2010Prop56
140
1.0
102
RTVSPost2010PropOp56
 70
     1
102
RTVSPost2010Prop57
140
1.0
102
RTVSPost2010PropOp57
 70
     1
  0
ENDSEC
  0
EOF
