  0
SECTION
  2
HEADER
  9
$ACADVER
  1
AC1015
  9
$ACADMAINTVER
 70
     6
  9
$DWGCODEPAGE
  3
ANSI_932
  9
$INSBASE
 10
0.0
 20
0.0
 30
0.0
  9
$EXTMIN
 10
-412.9252619257821
 20
-355.6823648450707
 30
0.0
  9
$EXTMAX
 10
387.0747380742179
 20
224.3176351549293
 30
0.0
  9
$LIMMIN
 10
-412.9252619257821
 20
-355.6823648450707
  9
$LIMMAX
 10
387.0747380742179
 20
224.3176351549293
  9
$ORTHOMODE
 70
     0
  9
$REGENMODE
 70
     1
  9
$FILLMODE
 70
     1
  9
$QTEXTMODE
 70
     0
  9
$MIRRTEXT
 70
     1
  9
$LTSCALE
 40
1.0
  9
$ATTMODE
 70
     1
  9
$TEXTSIZE
 40
2.5
  9
$TRACEWID
 40
1.0
  9
$TEXTSTYLE
  7
Standard
  9
$CLAYER
  8
0
  9
$CELTYPE
  6
ByLayer
  9
$CECOLOR
 62
   256
  9
$CELTSCALE
 40
1.0
  9
$DISPSILH
 70
     0
  9
$DIMSCALE
 40
1.0
  9
$DIMASZ
 40
2.5
  9
$DIMEXO
 40
0.625
  9
$DIMDLI
 40
3.75
  9
$DIMRND
 40
0.0
  9
$DIMDLE
 40
0.0
  9
$DIMEXE
 40
1.25
  9
$DIMTP
 40
0.0
  9
$DIMTM
 40
0.0
  9
$DIMTXT
 40
2.5
  9
$DIMCEN
 40
2.5
  9
$DIMTSZ
 40
0.0
  9
$DIMTOL
 70
     0
  9
$DIMLIM
 70
     0
  9
$DIMTIH
 70
     0
  9
$DIMTOH
 70
     0
  9
$DIMSE1
 70
     0
  9
$DIMSE2
 70
     0
  9
$DIMTAD
 70
     1
  9
$DIMZIN
 70
     8
  9
$DIMBLK
  1
Closed
  9
$DIMASO
 70
     1
  9
$DIMSHO
 70
     1
  9
$DIMPOST
  1

  9
$DIMAPOST
  1

  9
$DIMALT
 70
     0
  9
$DIMALTD
 70
     3
  9
$DIMALTF
 40
0.039370079
  9
$DIMLFAC
 40
1.0
  9
$DIMTOFL
 70
     1
  9
$DIMTVP
 40
0.0
  9
$DIMTIX
 70
     0
  9
$DIMSOXD
 70
     0
  9
$DIMSAH
 70
     0
  9
$DIMBLK1
  1

  9
$DIMBLK2
  1

  9
$DIMSTYLE
  2
DIMSTYLE_FULLSCALE
  9
$DIMCLRD
 70
     0
  9
$DIMCLRE
 70
     0
  9
$DIMCLRT
 70
     0
  9
$DIMTFAC
 40
1.0
  9
$DIMGAP
 40
0.625
  9
$DIMJUST
 70
     0
  9
$DIMSD1
 70
     0
  9
$DIMSD2
 70
     0
  9
$DIMTOLJ
 70
     0
  9
$DIMTZIN
 70
     8
  9
$DIMALTZ
 70
     0
  9
$DIMALTTZ
 70
     0
  9
$DIMUPT
 70
     0
  9
$DIMDEC
 70
     2
  9
$DIMTDEC
 70
     2
  9
$DIMALTU
 70
     2
  9
$DIMALTTD
 70
     3
  9
$DIMTXSTY
  7
Standard
  9
$DIMAUNIT
 70
     0
  9
$DIMADEC
 70
     0
  9
$DIMALTRND
 40
0.0
  9
$DIMAZIN
 70
     0
  9
$DIMDSEP
 70
    44
  9
$DIMATFIT
 70
     3
  9
$DIMFRAC
 70
     0
  9
$DIMLDRBLK
  1
Closed
  9
$DIMLUNIT
 70
     2
  9
$DIMLWD
 70
    -2
  9
$DIMLWE
 70
    -2
  9
$DIMTMOVE
 70
     0
  9
$LUNITS
 70
     2
  9
$LUPREC
 70
     4
  9
$SKETCHINC
 40
1.0
  9
$FILLETRAD
 40
10.0
  9
$AUNITS
 70
     0
  9
$AUPREC
 70
     0
  9
$MENU
  1
.
  9
$ELEVATION
 40
0.0
  9
$PELEVATION
 40
0.0
  9
$THICKNESS
 40
0.0
  9
$LIMCHECK
 70
     0
  9
$CHAMFERA
 40
0.0
  9
$CHAMFERB
 40
0.0
  9
$CHAMFERC
 40
0.0
  9
$CHAMFERD
 40
0.0
  9
$SKPOLY
 70
     0
  9
$TDCREATE
 40
2459069.476166817
  9
$TDUCREATE
 40
2459069.101166817
  9
$TDUPDATE
 40
2459069.476167188
  9
$TDUUPDATE
 40
2459069.101167188
  9
$TDINDWG
 40
0.0000000116
  9
$TDUSRTIMER
 40
0.0000000116
  9
$USRTIMER
 70
     1
  9
$ANGBASE
 50
0.0
  9
$ANGDIR
 70
     0
  9
$PDMODE
 70
     0
  9
$PDSIZE
 40
0.0
  9
$PLINEWID
 40
0.0
  9
$SPLFRAME
 70
     0
  9
$SPLINETYPE
 70
     6
  9
$SPLINESEGS
 70
     8
  9
$HANDSEED
  5
53B
  9
$SURFTAB1
 70
     6
  9
$SURFTAB2
 70
     6
  9
$SURFTYPE
 70
     6
  9
$SURFU
 70
     6
  9
$SURFV
 70
     6
  9
$UCSBASE
  2

  9
$UCSNAME
  2

  9
$UCSORG
 10
0.0
 20
0.0
 30
0.0
  9
$UCSXDIR
 10
1.0
 20
0.0
 30
0.0
  9
$UCSYDIR
 10
0.0
 20
1.0
 30
0.0
  9
$UCSORTHOREF
  2

  9
$UCSORTHOVIEW
 70
     0
  9
$UCSORGTOP
 10
0.0
 20
0.0
 30
0.0
  9
$UCSORGBOTTOM
 10
0.0
 20
0.0
 30
0.0
  9
$UCSORGLEFT
 10
0.0
 20
0.0
 30
0.0
  9
$UCSORGRIGHT
 10
0.0
 20
0.0
 30
0.0
  9
$UCSORGFRONT
 10
0.0
 20
0.0
 30
0.0
  9
$UCSORGBACK
 10
0.0
 20
0.0
 30
0.0
  9
$PUCSBASE
  2

  9
$PUCSNAME
  2

  9
$PUCSORG
 10
0.0
 20
0.0
 30
0.0
  9
$PUCSXDIR
 10
1.0
 20
0.0
 30
0.0
  9
$PUCSYDIR
 10
0.0
 20
1.0
 30
0.0
  9
$PUCSORTHOREF
  2

  9
$PUCSORTHOVIEW
 70
     0
  9
$PUCSORGTOP
 10
0.0
 20
0.0
 30
0.0
  9
$PUCSORGBOTTOM
 10
0.0
 20
0.0
 30
0.0
  9
$PUCSORGLEFT
 10
0.0
 20
0.0
 30
0.0
  9
$PUCSORGRIGHT
 10
0.0
 20
0.0
 30
0.0
  9
$PUCSORGFRONT
 10
0.0
 20
0.0
 30
0.0
  9
$PUCSORGBACK
 10
0.0
 20
0.0
 30
0.0
  9
$USERI1
 70
     0
  9
$USERI2
 70
     0
  9
$USERI3
 70
     0
  9
$USERI4
 70
     0
  9
$USERI5
 70
     0
  9
$USERR1
 40
0.0
  9
$USERR2
 40
0.0
  9
$USERR3
 40
0.0
  9
$USERR4
 40
0.0
  9
$USERR5
 40
0.0
  9
$WORLDVIEW
 70
     1
  9
$SHADEDGE
 70
     3
  9
$SHADEDIF
 70
    70
  9
$TILEMODE
 70
     1
  9
$MAXACTVP
 70
    64
  9
$PINSBASE
 10
0.0
 20
0.0
 30
0.0
  9
$PLIMCHECK
 70
     0
  9
$PEXTMIN
 10
1.000000000000000E+20
 20
1.000000000000000E+20
 30
1.000000000000000E+20
  9
$PEXTMAX
 10
-1.000000000000000E+20
 20
-1.000000000000000E+20
 30
-1.000000000000000E+20
  9
$PLIMMIN
 10
-412.9252619257821
 20
-355.6823648450707
  9
$PLIMMAX
 10
387.0747380742179
 20
224.3176351549293
  9
$UNITMODE
 70
     0
  9
$VISRETAIN
 70
     1
  9
$PLINEGEN
 70
     0
  9
$PSLTSCALE
 70
     1
  9
$TREEDEPTH
 70
  3020
  9
$CMLSTYLE
  2
Standard
  9
$CMLJUST
 70
     0
  9
$CMLSCALE
 40
20.0
  9
$PROXYGRAPHICS
 70
     1
  9
$MEASUREMENT
 70
     1
  9
$CELWEIGHT
370
    -1
  9
$ENDCAPS
280
     0
  9
$JOINSTYLE
280
     0
  9
$LWDISPLAY
290
     0
  9
$INSUNITS
 70
     4
  9
$HYPERLINKBASE
  1

  9
$STYLESHEET
  1

  9
$XEDIT
290
     1
  9
$CEPSNTYPE
380
     0
  9
$PSTYLEMODE
290
     1
  9
$FINGERPRINTGUID
  2
{beeac9d3-d67e-4fd7-afb2-58eb1bd1bcd3}
  9
$VERSIONGUID
  2
{FAEB1C32-E019-11D5-929B-00C0DF256EC4}
  9
$EXTNAMES
290
     1
  9
$PSVPSCALE
 40
0.0
  9
$OLESTARTUP
290
     0
  0
ENDSEC
  0
SECTION
  2
CLASSES
  0
CLASS
  1
ACDBDICTIONARYWDFLT
  2
AcDbDictionaryWithDefault
  3
ObjectDBX Classes
 90
        0
280
     0
281
     0
  0
CLASS
  1
VISUALSTYLE
  2
AcDbVisualStyle
  3
ObjectDBX Classes
 90
     4095
280
     0
281
     0
  0
CLASS
  1
MATERIAL
  2
AcDbMaterial
  3
ObjectDBX Classes
 90
     1153
280
     0
281
     0
  0
CLASS
  1
SCALE
  2
AcDbScale
  3
ObjectDBX Classes
 90
     1153
280
     0
281
     0
  0
CLASS
  1
TABLESTYLE
  2
AcDbTableStyle
  3
ObjectDBX Classes
 90
     4095
280
     0
281
     0
  0
CLASS
  1
MLEADERSTYLE
  2
AcDbMLeaderStyle
  3
ACDB_MLEADERSTYLE_CLASS
 90
     4095
280
     0
281
     0
  0
CLASS
  1
SUN
  2
AcDbSun
  3
SCENEOE
 90
     1153
280
     0
281
     0
  0
CLASS
  1
DICTIONARYVAR
  2
AcDbDictionaryVar
  3
ObjectDBX Classes
 90
        0
280
     0
281
     0
  0
CLASS
  1
ACDBPLACEHOLDER
  2
AcDbPlaceHolder
  3
ObjectDBX Classes
 90
        0
280
     0
281
     0
  0
CLASS
  1
LAYOUT
  2
AcDbLayout
  3
ObjectDBX Classes
 90
        0
280
     0
281
     0
  0
ENDSEC
  0
SECTION
  2
TABLES
  0
TABLE
  2
VPORT
  5
8
102
{ACAD_XDICTIONARY
360
4FA
102
}
330
0
100
AcDbSymbolTable
 70
     1
  0
VPORT
  5
29
330
8
100
AcDbSymbolTableRecord
100
AcDbViewportTableRecord
  2
*Active
 70
     0
 10
0.0
 20
0.0
 11
1.0
 21
1.0
 12
344.1869158878504
 22
148.5
 13
0.0
 23
0.0
 14
10.0
 24
10.0
 15
10.0
 25
10.0
 16
0.0
 26
0.0
 36
1.0
 17
0.0
 27
0.0
 37
0.0
 40
297.0
 41
1.972972972850329
 42
50.0
 43
0.0
 44
0.0
 50
0.0
 51
0.0
 71
     0
 72
   100
 73
     1
 74
     3
 75
     0
 76
     0
 77
     0
 78
     0
281
     0
 65
     1
110
0.0
120
0.0
130
0.0
111
1.0
121
0.0
131
0.0
112
0.0
122
1.0
132
0.0
 79
     0
146
0.0
  0
ENDTAB
  0
TABLE
  2
LTYPE
  5
5
330
0
100
AcDbSymbolTable
 70
     5
  0
LTYPE
  5
14
330
5
100
AcDbSymbolTableRecord
100
AcDbLinetypeTableRecord
  2
ByBlock
 70
     0
  3

 72
    65
 73
     0
 40
0.0
  0
LTYPE
  5
15
330
5
100
AcDbSymbolTableRecord
100
AcDbLinetypeTableRecord
  2
ByLayer
 70
     0
  3

 72
    65
 73
     0
 40
0.0
  0
LTYPE
  5
16
330
5
100
AcDbSymbolTableRecord
100
AcDbLinetypeTableRecord
  2
Continuous
 70
     0
  3
Solid line
 72
    65
 73
     0
 40
0.0
  0
LTYPE
  5
6E
330
5
100
AcDbSymbolTableRecord
100
AcDbLinetypeTableRecord
  2
CONTINOUS
 70
     0
  3
______________________________
 72
    65
 73
     0
 40
0.0
  0
LTYPE
  5
6F
330
5
100
AcDbSymbolTableRecord
100
AcDbLinetypeTableRecord
  2
DASHED
 70
     0
  3
__ __ __ __ __ __ __ __ __ __ __ __ __ __ __ __
 72
    65
 73
     2
 40
4.5
 49
3.0
 74
     0
 49
-1.5
 74
     0
  0
LTYPE
  5
70
330
5
100
AcDbSymbolTableRecord
100
AcDbLinetypeTableRecord
  2
PHANTOM
 70
     0
  3
______  __  __  ______  __  __  _____
 72
    65
 73
     6
 40
15.0
 49
7.5
 74
     0
 49
-1.5
 74
     0
 49
1.5
 74
     0
 49
-1.5
 74
     0
 49
1.5
 74
     0
 49
-1.5
 74
     0
  0
LTYPE
  5
71
330
5
100
AcDbSymbolTableRecord
100
AcDbLinetypeTableRecord
  2
CENTER
 70
     0
  3
____ _ ____ _ ____ _ ____ _ ____ _ ____
 72
    65
 73
     4
 40
12.0
 49
7.5
 74
     0
 49
-1.5
 74
     0
 49
1.5
 74
     0
 49
-1.5
 74
     0
  0
ENDTAB
  0
TABLE
  2
LAYER
  5
2
330
0
100
AcDbSymbolTable
 70
     2
  0
LAYER
  5
10
330
2
100
AcDbSymbolTableRecord
100
AcDbLayerTableRecord
  2
0
 70
     0
 62
     7
  6
Continuous
370
    -3
390
F
  0
LAYER
  5
3FA
330
2
100
AcDbSymbolTableRecord
100
AcDbLayerTableRecord
  2
Defpoints
 70
     0
 62
     7
  6
Continuous
290
     0
370
    -3
390
F
  0
ENDTAB
  0
TABLE
  2
STYLE
  5
3
330
0
100
AcDbSymbolTable
 70
     1
  0
STYLE
  5
11
330
3
100
AcDbSymbolTableRecord
100
AcDbTextStyleTableRecord
  2
Standard
 70
     0
 40
0.0
 41
1.0
 50
0.0
 71
     0
 42
2.5
  3
ROMANS
  4
EXTFONT
  0
ENDTAB
  0
TABLE
  2
VIEW
  5
6
330
0
100
AcDbSymbolTable
 70
     0
  0
ENDTAB
  0
TABLE
  2
UCS
  5
7
330
0
100
AcDbSymbolTable
 70
     0
  0
ENDTAB
  0
TABLE
  2
APPID
  5
9
330
0
100
AcDbSymbolTable
 70
     7
  0
APPID
  5
12
330
9
100
AcDbSymbolTableRecord
100
AcDbRegAppTableRecord
  2
ACAD
 70
     0
  0
APPID
  5
3DA
330
9
100
AcDbSymbolTableRecord
100
AcDbRegAppTableRecord
  2
ACAD_DSTYLE_DIMJAG
 70
     0
  0
APPID
  5
4FC
330
9
100
AcDbSymbolTableRecord
100
AcDbRegAppTableRecord
  2
ACAD_DSTYLE_DIMJOGGED_JOGANGLE_SYMBOL
 70
     0
  0
APPID
  5
4FD
330
9
100
AcDbSymbolTableRecord
100
AcDbRegAppTableRecord
  2
ACAD_DSTYLE_DIM_LINETYPE
 70
     0
  0
APPID
  5
4FE
330
9
100
AcDbSymbolTableRecord
100
AcDbRegAppTableRecord
  2
ACAD_DSTYLE_DIM_EXT1_LINETYPE
 70
     0
  0
APPID
  5
4FF
330
9
100
AcDbSymbolTableRecord
100
AcDbRegAppTableRecord
  2
ACAD_DSTYLE_DIM_EXT2_LINETYPE
 70
     0
  0
APPID
  5
538
330
9
100
AcDbSymbolTableRecord
100
AcDbRegAppTableRecord
  2
ACAD_MLEADERVER
 70
     0
  0
ENDTAB
  0
TABLE
  2
DIMSTYLE
  5
A
330
0
100
AcDbSymbolTable
 70
     2
100
AcDbDimStyleTable
  0
DIMSTYLE
105
27
330
A
100
AcDbSymbolTableRecord
100
AcDbDimStyleTableRecord
  2
ISO-25
 70
     0
 41
2.5
 42
0.625
 43
3.75
 44
1.25
 73
     0
 74
     0
 77
     1
 78
     8
140
2.5
141
2.5
143
0.03937007874016
147
0.625
171
     3
172
     1
178
     0
271
     2
272
     2
274
     3
278
    44
283
     0
284
     8
340
11
  0
DIMSTYLE
105
3D2
102
{ACAD_REACTORS
330
3F3
330
407
330
413
330
420
330
42D
330
43A
330
447
330
454
330
460
330
46D
330
47A
330
490
330
4A3
330
4B0
330
4BD
330
4D3
330
4E1
102
}
330
A
100
AcDbSymbolTableRecord
100
AcDbDimStyleTableRecord
  2
DIMSTYLE_FULLSCALE
 70
     0
 41
2.5
 42
0.625
 43
3.75
 44
1.25
 73
     0
 74
     0
 77
     1
 78
     8
140
2.5
141
2.5
143
0.039370079
147
0.625
171
     3
172
     1
178
     0
271
     2
272
     2
274
     3
278
    44
283
     0
284
     8
340
11
341
3D3
342
3D3
1001
ACAD_DSTYLE_DIMJAG
1070
   388
1040
1.5
1001
ACAD_DSTYLE_DIMJOGGED_JOGANGLE_SYMBOL
1070
   384
1040
1.570796326794897
1001
ACAD_DSTYLE_DIM_LINETYPE
1070
   380
1005
14
1001
ACAD_DSTYLE_DIM_EXT1_LINETYPE
1070
   381
1005
14
1001
ACAD_DSTYLE_DIM_EXT2_LINETYPE
1070
   382
1005
14
  0
ENDTAB
  0
TABLE
  2
BLOCK_RECORD
  5
1
330
0
100
AcDbSymbolTable
 70
    28
  0
BLOCK_RECORD
  5
1F
330
1
100
AcDbSymbolTableRecord
100
AcDbBlockTableRecord
  2
*Model_Space
340
22
  0
BLOCK_RECORD
  5
1B
330
1
100
AcDbSymbolTableRecord
100
AcDbBlockTableRecord
  2
*Paper_Space
340
1E
  0
BLOCK_RECORD
  5
23
330
1
100
AcDbSymbolTableRecord
100
AcDbBlockTableRecord
  2
*Paper_Space0
340
26
  0
BLOCK_RECORD
  5
72
330
1
100
AcDbSymbolTableRecord
100
AcDbBlockTableRecord
  2
DTL0001
340
0
102
{BLKREFS
331
3E6
102
}
  0
BLOCK_RECORD
  5
75
330
1
100
AcDbSymbolTableRecord
100
AcDbBlockTableRecord
  2
DTL0002
340
0
102
{BLKREFS
331
3E7
102
}
  0
BLOCK_RECORD
  5
78
330
1
100
AcDbSymbolTableRecord
100
AcDbBlockTableRecord
  2
DTL0003
340
0
102
{BLKREFS
331
3E8
102
}
  0
BLOCK_RECORD
  5
7B
330
1
100
AcDbSymbolTableRecord
100
AcDbBlockTableRecord
  2
DTL0004
340
0
102
{BLKREFS
331
3E9
102
}
  0
BLOCK_RECORD
  5
3D3
330
1
100
AcDbSymbolTableRecord
100
AcDbBlockTableRecord
  2
_Closed
340
0
  0
BLOCK_RECORD
  5
3EA
330
1
100
AcDbSymbolTableRecord
100
AcDbBlockTableRecord
  2
SYM0001
340
0
102
{BLKREFS
331
3F0
102
}
  0
BLOCK_RECORD
  5
3F4
330
1
100
AcDbSymbolTableRecord
100
AcDbBlockTableRecord
  2
_Open30
340
0
102
{BLKREFS
331
402
331
401
331
40E
331
40D
331
41B
331
41A
331
428
331
427
331
435
331
434
331
442
331
441
331
44F
331
44E
331
45B
331
45A
331
468
331
467
331
475
331
474
331
482
331
481
331
4AB
331
4AA
331
4B8
331
4B7
331
4C5
331
4C4
331
4DC
331
4DB
331
4E9
331
4E8
102
}
  0
BLOCK_RECORD
  5
3FB
330
1
100
AcDbSymbolTableRecord
100
AcDbBlockTableRecord
  2
*D8
340
0
  0
BLOCK_RECORD
  5
408
330
1
100
AcDbSymbolTableRecord
100
AcDbBlockTableRecord
  2
*D9
340
0
  0
BLOCK_RECORD
  5
414
330
1
100
AcDbSymbolTableRecord
100
AcDbBlockTableRecord
  2
*D10
340
0
  0
BLOCK_RECORD
  5
421
330
1
100
AcDbSymbolTableRecord
100
AcDbBlockTableRecord
  2
*D11
340
0
  0
BLOCK_RECORD
  5
42E
330
1
100
AcDbSymbolTableRecord
100
AcDbBlockTableRecord
  2
*D12
340
0
  0
BLOCK_RECORD
  5
43B
330
1
100
AcDbSymbolTableRecord
100
AcDbBlockTableRecord
  2
*D13
340
0
  0
BLOCK_RECORD
  5
448
330
1
100
AcDbSymbolTableRecord
100
AcDbBlockTableRecord
  2
*D14
340
0
  0
BLOCK_RECORD
  5
455
330
1
100
AcDbSymbolTableRecord
100
AcDbBlockTableRecord
  2
*D15
340
0
  0
BLOCK_RECORD
  5
461
330
1
100
AcDbSymbolTableRecord
100
AcDbBlockTableRecord
  2
*D16
340
0
  0
BLOCK_RECORD
  5
46E
330
1
100
AcDbSymbolTableRecord
100
AcDbBlockTableRecord
  2
*D17
340
0
  0
BLOCK_RECORD
  5
47B
330
1
100
AcDbSymbolTableRecord
100
AcDbBlockTableRecord
  2
*D18
340
0
  0
BLOCK_RECORD
  5
487
330
1
100
AcDbSymbolTableRecord
100
AcDbBlockTableRecord
  2
SYM0002
340
0
102
{BLKREFS
331
48D
102
}
  0
BLOCK_RECORD
  5
491
330
1
100
AcDbSymbolTableRecord
100
AcDbBlockTableRecord
  2
_Open
340
0
102
{BLKREFS
331
49E
331
49D
102
}
  0
BLOCK_RECORD
  5
497
330
1
100
AcDbSymbolTableRecord
100
AcDbBlockTableRecord
  2
*D21
340
0
  0
BLOCK_RECORD
  5
4A4
330
1
100
AcDbSymbolTableRecord
100
AcDbBlockTableRecord
  2
*D22
340
0
  0
BLOCK_RECORD
  5
4B1
330
1
100
AcDbSymbolTableRecord
100
AcDbBlockTableRecord
  2
*D23
340
0
  0
BLOCK_RECORD
  5
4BE
330
1
100
AcDbSymbolTableRecord
100
AcDbBlockTableRecord
  2
*D24
340
0
  0
BLOCK_RECORD
  5
4CA
330
1
100
AcDbSymbolTableRecord
100
AcDbBlockTableRecord
  2
SYM0003
340
0
102
{BLKREFS
331
4D0
102
}
  0
BLOCK_RECORD
  5
4D4
330
1
100
AcDbSymbolTableRecord
100
AcDbBlockTableRecord
  2
*D26
340
0
  0
BLOCK_RECORD
  5
4E2
330
1
100
AcDbSymbolTableRecord
100
AcDbBlockTableRecord
  2
*D27
340
0
  0
ENDTAB
  0
ENDSEC
  0
SECTION
  2
BLOCKS
  0
BLOCK
  5
20
330
1F
100
AcDbEntity
  8
0
100
AcDbBlockBegin
  2
*Model_Space
 70
     0
 10
0.0
 20
0.0
 30
0.0
  3
*Model_Space
  1

  0
ENDBLK
  5
21
330
1F
100
AcDbEntity
  8
0
100
AcDbBlockEnd
  0
BLOCK
  5
1C
330
1B
100
AcDbEntity
 67
     1
  8
0
100
AcDbBlockBegin
  2
*Paper_Space
 70
     0
 10
0.0
 20
0.0
 30
0.0
  3
*Paper_Space
  1

  0
ENDBLK
  5
1D
330
1B
100
AcDbEntity
 67
     1
  8
0
100
AcDbBlockEnd
  0
BLOCK
  5
24
330
23
100
AcDbEntity
  8
0
100
AcDbBlockBegin
  2
*Paper_Space0
 70
     0
 10
0.0
 20
0.0
 30
0.0
  3
*Paper_Space0
  1

  0
ENDBLK
  5
25
330
23
100
AcDbEntity
  8
0
100
AcDbBlockEnd
  0
BLOCK
  5
73
330
72
100
AcDbEntity
  8
0
100
AcDbBlockBegin
  2
DTL0001
 70
     0
 10
0.0
 20
0.0
 30
0.0
  3
DTL0001
  1

  0
POINT
  5
7E
330
72
100
AcDbEntity
  8
0
 62
     0
100
AcDbPoint
 10
0.0
 20
0.0
 30
0.0
  0
LINE
  5
7F
330
72
100
AcDbEntity
  8
0
  6
Continuous
 62
     0
100
AcDbLine
 10
-53.99996948242188
 20
-54.0
 30
0.0
 11
-53.99996948242188
 21
-66.0
 31
0.0
  0
LINE
  5
80
330
72
100
AcDbEntity
  8
0
  6
Continuous
 62
     0
100
AcDbLine
 10
54.0
 20
-54.0
 30
0.0
 11
54.0
 21
-66.0
 31
0.0
  0
LINE
  5
81
330
72
100
AcDbEntity
  8
0
  6
Continuous
 62
     0
100
AcDbLine
 10
54.0
 20
-66.0
 30
0.0
 11
76.0
 21
-66.0
 31
0.0
  0
LINE
  5
82
330
72
100
AcDbEntity
  8
0
  6
CENTER
 62
     4
100
AcDbLine
 10
-20.0
 20
50.93735721633956
 30
0.0
 11
-20.0
 21
42.0
 31
0.0
  0
LINE
  5
83
330
72
100
AcDbEntity
  8
0
  6
Continuous
 62
     0
100
AcDbLine
 10
-29.0
 20
27.0
 30
0.0
 11
29.0
 21
27.0
 31
0.0
  0
LINE
  5
84
330
72
100
AcDbEntity
  8
0
  6
Continuous
 62
     0
100
AcDbLine
 10
94.0
 20
-25.0
 30
0.0
 11
107.0
 21
-25.0
 31
0.0
  0
LINE
  5
85
330
72
100
AcDbEntity
  8
0
  6
Continuous
 62
     0
100
AcDbLine
 10
115.0
 20
23.35000038146973
 30
0.0
 11
115.0
 21
-23.35000038146973
 31
0.0
  0
LINE
  5
86
330
72
100
AcDbEntity
  8
0
  6
Continuous
 62
     0
100
AcDbLine
 10
-29.0
 20
42.0
 30
0.0
 11
-29.0
 21
19.05255889892578
 31
0.0
  0
LINE
  5
87
330
72
100
AcDbEntity
  8
0
  6
Continuous
 62
     0
100
AcDbLine
 10
29.0
 20
42.0
 30
0.0
 11
29.0
 21
27.0
 31
0.0
  0
LINE
  5
88
330
72
100
AcDbEntity
  8
0
  6
Continuous
 62
     0
100
AcDbLine
 10
11.0
 20
35.0
 30
0.0
 11
11.0
 21
27.0
 31
0.0
  0
LINE
  5
89
330
72
100
AcDbEntity
  8
0
  6
Continuous
 62
     0
100
AcDbLine
 10
-11.0
 20
35.0
 30
0.0
 11
-11.0
 21
19.05255889892578
 31
0.0
  0
LINE
  5
8A
330
72
100
AcDbEntity
  8
0
  6
Continuous
 62
     0
100
AcDbLine
 10
-75.0
 20
18.5
 30
0.0
 11
-85.99996948242188
 21
18.5
 31
0.0
  0
LINE
  5
8B
330
72
100
AcDbEntity
  8
0
  6
Continuous
 62
     0
100
AcDbLine
 10
-85.99996948242188
 20
18.5
 30
0.0
 11
-85.99996948242188
 21
-18.5
 31
0.0
  0
LINE
  5
8C
330
72
100
AcDbEntity
  8
0
  6
Continuous
 62
     0
100
AcDbLine
 10
-27.0
 20
27.0
 30
0.0
 11
-27.0
 21
19.05255889892578
 31
0.0
  0
LINE
  5
8D
330
72
100
AcDbEntity
  8
0
  6
Continuous
 62
     0
100
AcDbLine
 10
-13.0
 20
27.0
 30
0.0
 11
-13.0
 21
19.05255889892578
 31
0.0
  0
LINE
  5
8E
330
72
100
AcDbEntity
  8
0
  6
Continuous
 62
     0
100
AcDbLine
 10
-27.0
 20
22.0
 30
0.0
 11
-13.0
 21
22.0
 31
0.0
  0
LINE
  5
8F
330
72
100
AcDbEntity
  8
0
  6
Continuous
 62
     0
100
AcDbLine
 10
8.0
 20
22.0
 30
0.0
 11
13.0
 21
22.0
 31
0.0
  0
LINE
  5
90
330
72
100
AcDbEntity
  8
0
  6
Continuous
 62
     0
100
AcDbLine
 10
13.0
 20
27.0
 30
0.0
 11
13.0
 21
19.05255889892578
 31
0.0
  0
LINE
  5
91
330
72
100
AcDbEntity
  8
0
  6
Continuous
 62
     0
100
AcDbLine
 10
-35.0
 20
77.0
 30
0.0
 11
-35.0
 21
52.5
 31
0.0
  0
LINE
  5
92
330
72
100
AcDbEntity
  8
0
  6
Continuous
 62
     0
100
AcDbLine
 10
35.0
 20
52.5
 30
0.0
 11
35.0
 21
77.0
 31
0.0
  0
LINE
  5
93
330
72
100
AcDbEntity
  8
0
  6
Continuous
 62
     0
100
AcDbLine
 10
-8.0
 20
27.0
 30
0.0
 11
-8.0
 21
22.0
 31
0.0
  0
LINE
  5
94
330
72
100
AcDbEntity
  8
0
  6
Continuous
 62
     0
100
AcDbLine
 10
8.0
 20
27.0
 30
0.0
 11
8.0
 21
22.0
 31
0.0
  0
LINE
  5
95
330
72
100
AcDbEntity
  8
0
  6
Continuous
 62
     0
100
AcDbLine
 10
-11.0
 20
22.0
 30
0.0
 11
-8.0
 21
22.0
 31
0.0
  0
LINE
  5
96
330
72
100
AcDbEntity
  8
0
  6
Continuous
 62
     0
100
AcDbLine
 10
-71.0
 20
23.35000610351562
 30
0.0
 11
-75.0
 21
23.35000610351562
 31
0.0
  0
LINE
  5
97
330
72
100
AcDbEntity
  8
0
  6
Continuous
 62
     0
100
AcDbLine
 10
-70.99996948242188
 20
26.0
 30
0.0
 11
-70.99996948242188
 21
-26.0
 31
0.0
  0
LINE
  5
98
330
72
100
AcDbEntity
  8
0
  6
Continuous
 62
     0
100
AcDbLine
 10
-29.0
 20
35.0
 30
0.0
 11
29.0
 21
35.0
 31
0.0
  0
LINE
  5
99
330
72
100
AcDbEntity
  8
0
  6
Continuous
 62
     0
100
AcDbLine
 10
112.0
 20
23.35000610351562
 30
0.0
 11
115.0
 21
23.35000610351562
 31
0.0
  0
LINE
  5
9A
330
72
100
AcDbEntity
  8
0
  6
Continuous
 62
     0
100
AcDbLine
 10
-70.99996948242188
 20
26.0
 30
0.0
 11
-65.99996948242188
 21
26.0
 31
0.0
  0
LINE
  5
9B
330
72
100
AcDbEntity
  8
0
  6
Continuous
 62
     0
100
AcDbLine
 10
-65.99996948242188
 20
26.0
 30
0.0
 11
-65.99996948242188
 21
-26.0
 31
0.0
  0
LINE
  5
9C
330
72
100
AcDbEntity
  8
0
  6
Continuous
 62
     0
100
AcDbLine
 10
-52.99996948242188
 20
25.0
 30
0.0
 11
-52.99996948242188
 21
-13.0
 31
0.0
  0
LINE
  5
9D
330
72
100
AcDbEntity
  8
0
  6
Continuous
 62
     0
100
AcDbLine
 10
-66.0
 20
25.0
 30
0.0
 11
-53.0
 21
25.0
 31
0.0
  0
LINE
  5
9E
330
72
100
AcDbEntity
  8
0
  6
Continuous
 62
     0
100
AcDbLine
 10
-74.99996948242188
 20
23.35000038146973
 30
0.0
 11
-74.99996948242188
 21
-23.35000038146973
 31
0.0
  0
LINE
  5
9F
330
72
100
AcDbEntity
  8
0
  6
Continuous
 62
     0
100
AcDbLine
 10
126.0
 20
18.5
 30
0.0
 11
126.0
 21
-18.5
 31
0.0
  0
LINE
  5
A0
330
72
100
AcDbEntity
  8
0
  6
Continuous
 62
     0
100
AcDbLine
 10
-75.0
 20
9.25
 30
0.0
 11
-85.99996948242188
 21
9.25
 31
0.0
  0
LINE
  5
A1
330
72
100
AcDbEntity
  8
0
  6
Continuous
 62
     0
100
AcDbLine
 10
-53.0
 20
22.0
 30
0.0
 11
-29.0
 21
22.0
 31
0.0
  0
LINE
  5
A2
330
72
100
AcDbEntity
  8
0
  6
Continuous
 62
     0
100
AcDbLine
 10
-55.49996948242188
 20
-13.0
 30
0.0
 11
-55.49996948242188
 21
-39.0
 31
0.0
  0
LINE
  5
A3
330
72
100
AcDbEntity
  8
0
  6
Continuous
 62
     0
100
AcDbLine
 10
115.0
 20
9.25
 30
0.0
 11
126.0
 21
9.25
 31
0.0
  0
LINE
  5
A4
330
72
100
AcDbEntity
  8
0
  6
Continuous
 62
     0
100
AcDbLine
 10
115.0
 20
-18.5
 30
0.0
 11
126.0
 21
-18.5
 31
0.0
  0
LINE
  5
A5
330
72
100
AcDbEntity
  8
0
  6
Continuous
 62
     0
100
AcDbLine
 10
54.0
 20
23.0
 30
0.0
 11
54.0
 21
-13.0
 31
0.0
  0
LINE
  5
A6
330
72
100
AcDbEntity
  8
0
  6
Continuous
 62
     0
100
AcDbLine
 10
-35.5
 20
-22.0
 30
0.0
 11
35.5
 21
-22.0
 31
0.0
  0
LINE
  5
A7
330
72
100
AcDbEntity
  8
0
  6
Continuous
 62
     0
100
AcDbLine
 10
-55.5
 20
-13.0
 30
0.0
 11
-35.5
 21
-13.0
 31
0.0
  0
LINE
  5
A8
330
72
100
AcDbEntity
  8
0
  6
Continuous
 62
     0
100
AcDbLine
 10
115.0
 20
-9.25
 30
0.0
 11
126.0
 21
-9.25
 31
0.0
  0
LINE
  5
A9
330
72
100
AcDbEntity
  8
0
  6
Continuous
 62
     0
100
AcDbLine
 10
-35.5
 20
-13.0
 30
0.0
 11
-35.5
 21
-39.0
 31
0.0
  0
LINE
  5
AA
330
72
100
AcDbEntity
  8
0
  6
Continuous
 62
     0
100
AcDbLine
 10
107.0
 20
26.0
 30
0.0
 11
107.0
 21
-26.0
 31
0.0
  0
LINE
  5
AB
330
72
100
AcDbEntity
  8
0
  6
Continuous
 62
     0
100
AcDbLine
 10
-66.0
 20
-25.0
 30
0.0
 11
-55.5
 21
-25.0
 31
0.0
  0
LINE
  5
AC
330
72
100
AcDbEntity
  8
0
  6
Continuous
 62
     0
100
AcDbLine
 10
-70.99996948242188
 20
-26.0
 30
0.0
 11
-65.99996948242188
 21
-26.0
 31
0.0
  0
LINE
  5
AD
330
72
100
AcDbEntity
  8
0
  6
Continuous
 62
     0
100
AcDbLine
 10
-71.0
 20
-23.35000610351562
 30
0.0
 11
-75.0
 21
-23.35000610351562
 31
0.0
  0
LINE
  5
AE
330
72
100
AcDbEntity
  8
0
  6
CENTER
 62
     4
100
AcDbLine
 10
0.0
 20
174.6499938964844
 30
0.0
 11
0.0
 21
-70.4000015258789
 31
0.0
  0
LINE
  5
AF
330
72
100
AcDbEntity
  8
0
  6
Continuous
 62
     0
100
AcDbLine
 10
-55.5
 20
-28.0
 30
0.0
 11
-35.5
 21
-28.0
 31
0.0
  0
LINE
  5
B0
330
72
100
AcDbEntity
  8
0
  6
Continuous
 62
     0
100
AcDbLine
 10
-35.0
 20
77.0
 30
0.0
 11
35.0
 21
77.0
 31
0.0
  0
LINE
  5
B1
330
72
100
AcDbEntity
  8
0
  6
DASHED
 62
     0
100
AcDbLine
 10
-34.00000154698774
 20
56.30000310657091
 30
0.0
 11
-27.50000000000001
 21
56.50312815491427
 31
0.0
  0
LINE
  5
B2
330
72
100
AcDbEntity
  8
0
  6
DASHED
 62
     0
100
AcDbLine
 10
33.99999404046689
 20
56.30000715770912
 30
0.0
 11
27.50000000000001
 21
56.50313197147371
 31
0.0
  0
LINE
  5
B3
330
72
100
AcDbEntity
  8
0
  6
DASHED
 62
     0
100
AcDbLine
 10
34.00000810029957
 20
67.69998711582716
 30
0.0
 11
27.50000000000001
 21
67.4968618626928
 31
0.0
  0
LINE
  5
B4
330
72
100
AcDbEntity
  8
0
  6
Continuous
 62
     0
100
AcDbLine
 10
-35.0
 20
52.5
 30
0.0
 11
-20.0
 21
52.5
 31
0.0
  0
LINE
  5
B5
330
72
100
AcDbEntity
  8
0
  6
Continuous
 62
     0
100
AcDbLine
 10
-24.0
 20
70.0
 30
0.0
 11
-24.0
 21
65.0
 31
0.0
  0
LINE
  5
B6
330
72
100
AcDbEntity
  8
0
  6
DASHED
 62
     0
100
AcDbLine
 10
-35.00001347804792
 20
68.69998617176566
 30
0.0
 11
-34.00001239934413
 21
67.69998509306187
 31
0.0
  0
LINE
  5
B7
330
72
100
AcDbEntity
  8
0
  6
DASHED
 62
     0
100
AcDbLine
 10
35.00005124162418
 20
68.7000023561555
 30
0.0
 11
34.00006095251361
 21
67.70001206704492
 31
0.0
  0
LINE
  5
B8
330
72
100
AcDbEntity
  8
0
  6
Continuous
 62
     0
100
AcDbLine
 10
24.0
 20
65.0
 30
0.0
 11
24.0
 21
70.0
 31
0.0
  0
LINE
  5
B9
330
72
100
AcDbEntity
  8
0
  6
DASHED
 62
     0
100
AcDbLine
 10
-34.00000047462761
 20
67.6999868775249
 30
0.0
 11
-27.50000000000001
 21
67.4968618626928
 31
0.0
  0
LINE
  5
BA
330
72
100
AcDbEntity
  8
0
  6
DASHED
 62
     0
100
AcDbLine
 10
-34.0
 20
67.69999694824219
 30
0.0
 11
-34.0
 21
56.30000305175781
 31
0.0
  0
LINE
  5
BB
330
72
100
AcDbEntity
  8
0
  6
DASHED
 62
     0
100
AcDbLine
 10
34.99996290182973
 20
55.29999316145142
 30
0.0
 11
33.99996182312594
 21
56.29999424015521
 31
0.0
  0
LINE
  5
BC
330
72
100
AcDbEntity
  8
0
  6
Continuous
 62
     0
100
AcDbLine
 10
26.0
 20
55.35857009887695
 30
0.0
 11
26.0
 21
42.0
 31
0.0
  0
LINE
  5
BD
330
72
100
AcDbEntity
  8
0
  6
Continuous
 62
     0
100
AcDbLine
 10
-20.0
 20
53.83974456787109
 30
0.0
 11
-20.0
 21
49.5
 31
0.0
  0
LINE
  5
BE
330
72
100
AcDbEntity
  8
0
  6
Continuous
 62
     0
100
AcDbLine
 10
-29.0
 20
42.0
 30
0.0
 11
29.0
 21
42.0
 31
0.0
  0
LINE
  5
BF
330
72
100
AcDbEntity
  8
0
  6
CENTER
 62
     4
100
AcDbLine
 10
-37.21603393554688
 20
62.0
 30
0.0
 11
-27.5
 21
62.0
 31
0.0
  0
LINE
  5
C0
330
72
100
AcDbEntity
  8
0
  6
DASHED
 62
     0
100
AcDbLine
 10
34.0
 20
56.30000305175781
 30
0.0
 11
34.0
 21
67.69999694824219
 31
0.0
  0
LINE
  5
C1
330
72
100
AcDbEntity
  8
0
  6
DASHED
 62
     0
100
AcDbLine
 10
-34.99993862524499
 20
55.29999585884972
 30
0.0
 11
-33.9999375465412
 21
56.29999693755351
 31
0.0
  0
LINE
  5
C2
330
72
100
AcDbEntity
  8
0
  6
CENTER
 62
     4
100
AcDbLine
 10
27.5
 20
62.0
 30
0.0
 11
37.50421142578125
 21
62.0
 31
0.0
  0
LINE
  5
C3
330
72
100
AcDbEntity
  8
0
  6
Continuous
 62
     0
100
AcDbLine
 10
-12.5
 20
49.5
 30
0.0
 11
-27.5
 21
49.5
 31
0.0
  0
LINE
  5
C4
330
72
100
AcDbEntity
  8
0
  6
Continuous
 62
     0
100
AcDbLine
 10
-12.5
 20
44.0
 30
0.0
 11
-27.5
 21
44.0
 31
0.0
  0
LINE
  5
C5
330
72
100
AcDbEntity
  8
0
  6
Continuous
 62
     0
100
AcDbLine
 10
-27.5
 20
49.5
 30
0.0
 11
-27.5
 21
42.0
 31
0.0
  0
LINE
  5
C6
330
72
100
AcDbEntity
  8
0
  6
Continuous
 62
     0
100
AcDbLine
 10
-24.33010864257812
 20
49.5
 30
0.0
 11
-24.33010864257812
 21
44.0
 31
0.0
  0
LINE
  5
C7
330
72
100
AcDbEntity
  8
0
  6
Continuous
 62
     0
100
AcDbLine
 10
-15.66989135742188
 20
49.5
 30
0.0
 11
-15.66989135742188
 21
44.0
 31
0.0
  0
LINE
  5
C8
330
72
100
AcDbEntity
  8
0
  6
Continuous
 62
     0
100
AcDbLine
 10
-12.5
 20
49.5
 30
0.0
 11
-12.5
 21
42.0
 31
0.0
  0
LINE
  5
C9
330
72
100
AcDbEntity
  8
0
  6
Continuous
 62
     0
100
AcDbLine
 10
-75.0
 20
-18.5
 30
0.0
 11
-85.99996948242188
 21
-18.5
 31
0.0
  0
LINE
  5
CA
330
72
100
AcDbEntity
  8
0
  6
Continuous
 62
     0
100
AcDbLine
 10
-35.0
 20
70.0
 30
0.0
 11
35.0
 21
70.0
 31
0.0
  0
LINE
  5
CB
330
72
100
AcDbEntity
  8
0
  6
Continuous
 62
     0
100
AcDbLine
 10
-58.49999807158362
 20
-40.99997904675435
 30
0.0
 11
-71.4999694842678
 21
-53.99994936362295
 31
0.0
  0
LINE
  5
CC
330
72
100
AcDbEntity
  8
0
  6
Continuous
 62
     0
100
AcDbLine
 10
64.49997377660942
 20
-47.00003786536399
 30
0.0
 11
71.49997083297052
 21
-54.0000343316695
 31
0.0
  0
LINE
  5
CD
330
72
100
AcDbEntity
  8
0
  6
Continuous
 62
     0
100
AcDbLine
 10
-37.5
 20
-54.0
 30
0.0
 11
-37.5
 21
-63.0
 31
0.0
  0
LINE
  5
CE
330
72
100
AcDbEntity
  8
0
  6
Continuous
 62
     0
100
AcDbLine
 10
37.5
 20
-54.0
 30
0.0
 11
37.5
 21
-63.0
 31
0.0
  0
LINE
  5
CF
330
72
100
AcDbEntity
  8
0
  6
Continuous
 62
     0
100
AcDbLine
 10
-76.0
 20
-63.0
 30
0.0
 11
76.0
 21
-63.0
 31
0.0
  0
LINE
  5
D0
330
72
100
AcDbEntity
  8
0
  6
Continuous
 62
     0
100
AcDbLine
 10
10.0
 20
70.0
 30
0.0
 11
10.0
 21
62.5
 31
0.0
  0
LINE
  5
D1
330
72
100
AcDbEntity
  8
0
  6
Continuous
 62
     0
100
AcDbLine
 10
-10.0
 20
70.0
 30
0.0
 11
-10.0
 21
62.5
 31
0.0
  0
LINE
  5
D2
330
72
100
AcDbEntity
  8
0
  6
Continuous
 62
     0
100
AcDbLine
 10
-55.5
 20
-36.0
 30
0.0
 11
-35.5
 21
-36.0
 31
0.0
  0
LINE
  5
D3
330
72
100
AcDbEntity
  8
0
  6
Continuous
 62
     0
100
AcDbLine
 10
-75.0
 20
-9.25
 30
0.0
 11
-85.99996948242188
 21
-9.25
 31
0.0
  0
LINE
  5
D4
330
72
100
AcDbEntity
  8
0
  6
Continuous
 62
     0
100
AcDbLine
 10
54.0
 20
23.0
 30
0.0
 11
94.0
 21
23.0
 31
0.0
  0
LINE
  5
D5
330
72
100
AcDbEntity
  8
0
  6
Continuous
 62
     0
100
AcDbLine
 10
35.5
 20
-13.0
 30
0.0
 11
35.5
 21
-39.0
 31
0.0
  0
LINE
  5
D6
330
72
100
AcDbEntity
  8
0
  6
Continuous
 62
     0
100
AcDbLine
 10
112.0
 20
-23.35000610351562
 30
0.0
 11
115.0
 21
-23.35000610351562
 31
0.0
  0
LINE
  5
D7
330
72
100
AcDbEntity
  8
0
  6
Continuous
 62
     0
100
AcDbLine
 10
35.5
 20
-13.0
 30
0.0
 11
55.5
 21
-13.0
 31
0.0
  0
LINE
  5
D8
330
72
100
AcDbEntity
  8
0
  6
Continuous
 62
     0
100
AcDbLine
 10
55.5
 20
-13.0
 30
0.0
 11
55.5
 21
-39.0
 31
0.0
  0
LINE
  5
D9
330
72
100
AcDbEntity
  8
0
  6
CENTER
 62
     4
100
AcDbLine
 10
45.5
 20
-36.0
 30
0.0
 11
45.5
 21
-45.35064311164336
 31
0.0
  0
LINE
  5
DA
330
72
100
AcDbEntity
  8
0
  6
Continuous
 62
     0
100
AcDbLine
 10
55.5
 20
-23.0
 30
0.0
 11
94.0
 21
-23.0
 31
0.0
  0
LINE
  5
DB
330
72
100
AcDbEntity
  8
0
  6
Continuous
 62
     0
100
AcDbLine
 10
94.0
 20
25.0
 30
0.0
 11
94.0
 21
-25.0
 31
0.0
  0
LINE
  5
DC
330
72
100
AcDbEntity
  8
0
  6
Continuous
 62
     0
100
AcDbLine
 10
94.0
 20
25.0
 30
0.0
 11
107.0
 21
25.0
 31
0.0
  0
LINE
  5
DD
330
72
100
AcDbEntity
  8
0
  6
Continuous
 62
     0
100
AcDbLine
 10
35.5
 20
-28.0
 30
0.0
 11
55.5
 21
-28.0
 31
0.0
  0
LINE
  5
DE
330
72
100
AcDbEntity
  8
0
  6
Continuous
 62
     0
100
AcDbLine
 10
49.25
 20
-38.0
 30
0.0
 11
49.25
 21
-43.5
 31
0.0
  0
LINE
  5
DF
330
72
100
AcDbEntity
  8
0
  6
Continuous
 62
     0
100
AcDbLine
 10
41.75
 20
-38.0
 30
0.0
 11
41.75
 21
-43.5
 31
0.0
  0
LINE
  5
E0
330
72
100
AcDbEntity
  8
0
  6
Continuous
 62
     0
100
AcDbLine
 10
107.0
 20
-26.0
 30
0.0
 11
112.0
 21
-26.0
 31
0.0
  0
LINE
  5
E1
330
72
100
AcDbEntity
  8
0
  6
Continuous
 62
     0
100
AcDbLine
 10
107.0
 20
26.0
 30
0.0
 11
112.0
 21
26.0
 31
0.0
  0
LINE
  5
E2
330
72
100
AcDbEntity
  8
0
  6
Continuous
 62
     0
100
AcDbLine
 10
112.0
 20
34.5
 30
0.0
 11
112.0
 21
-26.0
 31
0.0
  0
LINE
  5
E3
330
72
100
AcDbEntity
  8
0
  6
Continuous
 62
     0
100
AcDbLine
 10
26.0
 20
49.5
 30
0.0
 11
27.5
 21
49.5
 31
0.0
  0
LINE
  5
E4
330
72
100
AcDbEntity
  8
0
  6
Continuous
 62
     0
100
AcDbLine
 10
27.5
 20
49.5
 30
0.0
 11
27.5
 21
42.0
 31
0.0
  0
LINE
  5
E5
330
72
100
AcDbEntity
  8
0
  6
Continuous
 62
     0
100
AcDbLine
 10
26.0
 20
44.0
 30
0.0
 11
27.5
 21
44.0
 31
0.0
  0
LINE
  5
E6
330
72
100
AcDbEntity
  8
0
  6
Continuous
 62
     0
100
AcDbLine
 10
35.5
 20
-36.0
 30
0.0
 11
55.5
 21
-36.0
 31
0.0
  0
LINE
  5
E7
330
72
100
AcDbEntity
  8
0
  6
Continuous
 62
     0
100
AcDbLine
 10
115.0
 20
18.5
 30
0.0
 11
126.0
 21
18.5
 31
0.0
  0
LINE
  5
E8
330
72
100
AcDbEntity
  8
0
  6
Continuous
 62
     0
100
AcDbLine
 10
-58.49996948242188
 20
-33.0
 30
0.0
 11
-55.5
 21
-33.0
 31
0.0
  0
LINE
  5
E9
330
72
100
AcDbEntity
  8
0
  6
Continuous
 62
     0
100
AcDbLine
 10
-76.0
 20
-66.0
 30
0.0
 11
-54.0
 21
-66.0
 31
0.0
  0
LINE
  5
EA
330
72
100
AcDbEntity
  8
0
  6
CENTER
 62
     4
100
AcDbLine
 10
65.0
 20
-51.58798217773438
 30
0.0
 11
65.0
 21
-71.23085021972656
 31
0.0
  0
LINE
  5
EB
330
72
100
AcDbEntity
  8
0
  6
CENTER
 62
     4
100
AcDbLine
 10
-64.99996948242188
 20
-50.76622772216797
 30
0.0
 11
-64.99996948242188
 21
-70.741455078125
 31
0.0
  0
LINE
  5
EC
330
72
100
AcDbEntity
  8
0
  6
Continuous
 62
     0
100
AcDbLine
 10
-75.99996948242188
 20
-54.0
 30
0.0
 11
-75.99996948242188
 21
-66.0
 31
0.0
  0
LINE
  5
ED
330
72
100
AcDbEntity
  8
0
  6
Continuous
 62
     0
100
AcDbLine
 10
76.0
 20
-54.0
 30
0.0
 11
76.0
 21
-66.0
 31
0.0
  0
LINE
  5
EE
330
72
100
AcDbEntity
  8
0
  6
Continuous
 62
     0
100
AcDbLine
 10
-75.99996948242188
 20
-54.0
 30
0.0
 11
-10.399169921875
 21
-54.0
 31
0.0
  0
LINE
  5
EF
330
72
100
AcDbEntity
  8
0
  6
Continuous
 62
     0
100
AcDbLine
 10
-24.0
 20
65.0
 30
0.0
 11
-10.0
 21
65.0
 31
0.0
  0
LINE
  5
F0
330
72
100
AcDbEntity
  8
0
  6
Continuous
 62
     0
100
AcDbLine
 10
10.0
 20
65.0
 30
0.0
 11
24.0
 21
65.0
 31
0.0
  0
LINE
  5
F1
330
72
100
AcDbEntity
  8
0
  6
CENTER
 62
     4
100
AcDbLine
 10
-8.335218590332873
 20
62.0
 30
0.0
 11
8.694869955099048
 21
62.0
 31
0.0
  0
LINE
  5
F2
330
72
100
AcDbEntity
  8
0
  6
Continuous
 62
     0
100
AcDbLine
 10
53.0
 20
-36.0
 30
0.0
 11
53.0
 21
-43.5
 31
0.0
  0
LINE
  5
F3
330
72
100
AcDbEntity
  8
0
  6
Continuous
 62
     0
100
AcDbLine
 10
38.0
 20
-36.0
 30
0.0
 11
38.0
 21
-43.5
 31
0.0
  0
LINE
  5
F4
330
72
100
AcDbEntity
  8
0
  6
Continuous
 62
     0
100
AcDbLine
 10
38.0
 20
-43.5
 30
0.0
 11
53.0
 21
-43.5
 31
0.0
  0
LINE
  5
F5
330
72
100
AcDbEntity
  8
0
  6
Continuous
 62
     0
100
AcDbLine
 10
38.0
 20
-38.0
 30
0.0
 11
53.0
 21
-38.0
 31
0.0
  0
LINE
  5
F6
330
72
100
AcDbEntity
  8
0
  6
Continuous
 62
     0
100
AcDbLine
 10
11.46987915039062
 20
55.35855102539062
 30
0.0
 11
26.0
 21
55.35855102539062
 31
0.0
  0
LINE
  5
F7
330
72
100
AcDbEntity
  8
0
  6
Continuous
 62
     0
100
AcDbLine
 10
9.36742402632063
 20
58.99999597728842
 30
0.0
 11
11.46980269732932
 21
55.35856890004037
 31
0.0
  0
LINE
  5
F8
330
72
100
AcDbEntity
  8
0
  6
Continuous
 62
     0
100
AcDbLine
 10
-12.34685458452865
 20
53.83976021972023
 30
0.0
 11
-9.367572452245906
 21
59.00002881303249
 31
0.0
  0
LINE
  5
F9
330
72
100
AcDbEntity
  8
0
  6
Continuous
 62
     0
100
AcDbLine
 10
26.0
 20
52.5
 30
0.0
 11
35.0
 21
52.5
 31
0.0
  0
LINE
  5
FA
330
72
100
AcDbEntity
  8
0
  6
Continuous
 62
     0
100
AcDbLine
 10
-20.0
 20
53.83975219726562
 30
0.0
 11
-12.34677124023438
 21
53.83975219726562
 31
0.0
  0
LINE
  5
FB
330
72
100
AcDbEntity
  8
0
  6
Continuous
 62
     0
100
AcDbLine
 10
-12.34677124023438
 20
53.83974456787109
 30
0.0
 11
-12.34677124023438
 21
42.0
 31
0.0
  0
LINE
  5
FC
330
72
100
AcDbEntity
  8
0
  6
Continuous
 62
     0
100
AcDbLine
 10
11.46987915039062
 20
55.35857009887695
 30
0.0
 11
11.46987915039062
 21
42.0
 31
0.0
  0
LINE
  5
FD
330
72
100
AcDbEntity
  8
0
  6
CENTER
 62
     4
100
AcDbLine
 10
-45.49996948242188
 20
-36.0
 30
0.0
 11
-45.49996948242188
 21
-46.23414611816406
 31
0.0
  0
LINE
  5
FE
330
72
100
AcDbEntity
  8
0
  6
Continuous
 62
     0
100
AcDbLine
 10
-52.99996948242188
 20
-38.0
 30
0.0
 11
-38.0
 21
-38.0
 31
0.0
  0
LINE
  5
FF
330
72
100
AcDbEntity
  8
0
  6
Continuous
 62
     0
100
AcDbLine
 10
-52.99996948242188
 20
-43.5
 30
0.0
 11
-38.0
 21
-43.5
 31
0.0
  0
LINE
  5
100
330
72
100
AcDbEntity
  8
0
  6
Continuous
 62
     0
100
AcDbLine
 10
-52.99996948242188
 20
-36.0
 30
0.0
 11
-52.99996948242188
 21
-43.5
 31
0.0
  0
LINE
  5
101
330
72
100
AcDbEntity
  8
0
  6
Continuous
 62
     0
100
AcDbLine
 10
-38.0
 20
-36.0
 30
0.0
 11
-38.0
 21
-43.5
 31
0.0
  0
LINE
  5
102
330
72
100
AcDbEntity
  8
0
  6
Continuous
 62
     0
100
AcDbLine
 10
-41.74996948242188
 20
-38.0
 30
0.0
 11
-41.74996948242188
 21
-43.5
 31
0.0
  0
LINE
  5
103
330
72
100
AcDbEntity
  8
0
  6
Continuous
 62
     0
100
AcDbLine
 10
-49.24996948242188
 20
-38.0
 30
0.0
 11
-49.24996948242188
 21
-43.5
 31
0.0
  0
LINE
  5
104
330
72
100
AcDbEntity
  8
0
  6
Continuous
 62
     0
100
AcDbLine
 10
16.625
 20
-14.50605773925781
 30
0.0
 11
33.375
 21
-14.50605773925781
 31
0.0
  0
LINE
  5
105
330
72
100
AcDbEntity
  8
0
  6
Continuous
 62
     0
100
AcDbLine
 10
33.37501052127015
 20
-14.50592090132551
 30
0.0
 11
41.75001665052879
 21
0.000008781792083
 31
0.0
  0
LINE
  5
106
330
72
100
AcDbEntity
  8
0
  6
Continuous
 62
     0
100
AcDbLine
 10
41.75004301105577
 20
0.000000714134437
 30
0.0
 11
33.3750513794699
 21
14.505922249363
 31
0.0
  0
LINE
  5
107
330
72
100
AcDbEntity
  8
0
  6
Continuous
 62
     0
100
AcDbLine
 10
33.37496948242188
 20
14.505859375
 30
0.0
 11
16.62496948242188
 21
14.505859375
 31
0.0
  0
LINE
  5
108
330
72
100
AcDbEntity
  8
0
  6
Continuous
 62
     0
100
AcDbLine
 10
16.62497078950594
 20
14.50595730501896
 30
0.0
 11
8.249970166403898
 21
0.000032701981898
 31
0.0
  0
LINE
  5
109
330
72
100
AcDbEntity
  8
0
  6
Continuous
 62
     0
100
AcDbLine
 10
8.249991443723616
 20
-0.000003895764901
 30
0.0
 11
16.62499013694876
 21
-14.50592961301688
 31
0.0
  0
LINE
  5
10A
330
72
100
AcDbEntity
  8
0
  6
Continuous
 62
     0
100
AcDbLine
 10
10.39913940429688
 20
-54.0
 30
0.0
 11
76.0
 21
-54.0
 31
0.0
  0
LINE
  5
10B
330
72
100
AcDbEntity
  8
0
  6
Continuous
 62
     0
100
AcDbLine
 10
10.97650146484375
 20
-33.0
 30
0.0
 11
35.5
 21
-33.0
 31
0.0
  0
LINE
  5
10C
330
72
100
AcDbEntity
  8
0
  6
Continuous
 62
     0
100
AcDbLine
 10
-58.49996948242188
 20
-33.0
 30
0.0
 11
-58.49996948242188
 21
-54.0
 31
0.0
  0
LINE
  5
10D
330
72
100
AcDbEntity
  8
0
  6
Continuous
 62
     0
100
AcDbLine
 10
64.5
 20
-31.0
 30
0.0
 11
64.5
 21
-54.0
 31
0.0
  0
LINE
  5
10E
330
72
100
AcDbEntity
  8
0
  6
Continuous
 62
     0
100
AcDbLine
 10
-35.5
 20
-33.0
 30
0.0
 11
-10.97650146484375
 21
-33.0
 31
0.0
  0
LINE
  5
10F
330
72
100
AcDbEntity
  8
0
  6
Continuous
 62
     0
100
AcDbLine
 10
55.5
 20
-31.0
 30
0.0
 11
64.5
 21
-31.0
 31
0.0
  0
LINE
  5
110
330
72
100
AcDbEntity
  8
0
  6
Continuous
 62
     0
100
AcDbLine
 10
37.5
 20
-36.0
 30
0.0
 11
37.5
 21
-39.0
 31
0.0
  0
LINE
  5
111
330
72
100
AcDbEntity
  8
0
  6
Continuous
 62
     0
100
AcDbLine
 10
-37.5
 20
-36.0
 30
0.0
 11
-37.5
 21
-39.0
 31
0.0
  0
LINE
  5
112
330
72
100
AcDbEntity
  8
0
  6
Continuous
 62
     0
100
AcDbLine
 10
-53.49996948242188
 20
-36.0
 30
0.0
 11
-53.49996948242188
 21
-39.0
 31
0.0
  0
LINE
  5
113
330
72
100
AcDbEntity
  8
0
  6
Continuous
 62
     0
100
AcDbLine
 10
53.5
 20
-36.0
 30
0.0
 11
53.5
 21
-39.0
 31
0.0
  0
LINE
  5
114
330
72
100
AcDbEntity
  8
0
  6
CENTER
 62
     4
100
AcDbLine
 10
-16.75001705720087
 20
-43.0
 30
0.0
 11
16.75005465743412
 21
-43.0
 31
0.0
  0
LINE
  5
115
330
72
100
AcDbEntity
  8
0
  6
CENTER
 62
     4
100
AcDbLine
 10
-91.2281723022461
 20
0.0
 30
0.0
 11
131.3976440429688
 21
0.0
 31
0.0
  0
LINE
  5
116
330
72
100
AcDbEntity
  8
0
  6
Continuous
 62
     0
100
AcDbLine
 10
29.0
 20
34.5
 30
0.0
 11
112.0
 21
34.5
 31
0.0
  0
LINE
  5
117
330
72
100
AcDbEntity
  8
0
  6
Continuous
 62
     0
100
AcDbLine
 10
29.0
 20
32.69937133789062
 30
0.0
 11
112.0
 21
32.69937133789062
 31
0.0
  0
LINE
  5
118
330
72
100
AcDbEntity
  8
0
  6
Continuous
 62
     0
100
AcDbLine
 10
13.0
 20
19.05255126953125
 30
0.0
 11
54.0
 21
19.05255126953125
 31
0.0
  0
LINE
  5
119
330
72
100
AcDbEntity
  8
0
  6
CENTER
 62
     4
100
AcDbLine
 10
25.0
 20
14.505859375
 30
0.0
 11
25.0
 21
-14.50605773925781
 31
0.0
  0
LINE
  5
11A
330
72
100
AcDbEntity
  8
0
  6
CENTER
 62
     4
100
AcDbLine
 10
-25.0
 20
14.505859375
 30
0.0
 11
-25.0
 21
-14.50605773925781
 31
0.0
  0
LINE
  5
11B
330
72
100
AcDbEntity
  8
0
  6
Continuous
 62
     0
100
AcDbLine
 10
-8.375
 20
-57.50605773925781
 30
0.0
 11
8.375
 21
-57.50605773925781
 31
0.0
  0
LINE
  5
11C
330
72
100
AcDbEntity
  8
0
  6
Continuous
 62
     0
100
AcDbLine
 10
8.375008838343355
 20
-57.50593584904473
 30
0.0
 11
16.75001162974078
 21
-43.0000119472698
 31
0.0
  0
LINE
  5
11D
330
72
100
AcDbEntity
  8
0
  6
Continuous
 62
     0
100
AcDbLine
 10
16.75005586297154
 20
-43.00000208805358
 30
0.0
 11
8.375055648321487
 21
-28.494065686511
 31
0.0
  0
LINE
  5
11E
330
72
100
AcDbEntity
  8
0
  6
Continuous
 62
     0
100
AcDbLine
 10
8.374969482421875
 20
-28.494140625
 30
0.0
 11
-8.375030517578125
 21
-28.494140625
 31
0.0
  0
LINE
  5
11F
330
72
100
AcDbEntity
  8
0
  6
Continuous
 62
     0
100
AcDbLine
 10
-8.375004264895242
 20
-28.49405431928695
 30
0.0
 11
-16.75000417274148
 21
-42.99997768346477
 31
0.0
  0
LINE
  5
120
330
72
100
AcDbEntity
  8
0
  6
Continuous
 62
     0
100
AcDbLine
 10
-16.75000648464032
 20
-43.00001333104721
 30
0.0
 11
-8.375006599322436
 21
-57.50594111306475
 31
0.0
  0
LINE
  5
121
330
72
100
AcDbEntity
  8
0
  6
Continuous
 62
     0
100
AcDbLine
 10
-33.375
 20
-14.50605773925781
 30
0.0
 11
-16.625
 21
-14.50605773925781
 31
0.0
  0
LINE
  5
122
330
72
100
AcDbEntity
  8
0
  6
Continuous
 62
     0
100
AcDbLine
 10
-16.62500547044617
 20
-14.50593838679835
 30
0.0
 11
-8.250002440630084
 21
-0.000014072070368
 31
0.0
  0
LINE
  5
123
330
72
100
AcDbEntity
  8
0
  6
Continuous
 62
     0
100
AcDbLine
 10
-8.24997714319765
 20
-0.000004586127227
 30
0.0
 11
-16.62497282789717
 21
14.50592396930518
 31
0.0
  0
LINE
  5
124
330
72
100
AcDbEntity
  8
0
  6
Continuous
 62
     0
100
AcDbLine
 10
-16.62503051757812
 20
14.505859375
 30
0.0
 11
-33.37503051757812
 21
14.505859375
 31
0.0
  0
LINE
  5
125
330
72
100
AcDbEntity
  8
0
  6
Continuous
 62
     0
100
AcDbLine
 10
-33.37502920768787
 20
14.50592558488528
 30
0.0
 11
-41.75003030762713
 21
0.000000155942068
 31
0.0
  0
LINE
  5
126
330
72
100
AcDbEntity
  8
0
  6
Continuous
 62
     0
100
AcDbLine
 10
-41.75000946373369
 20
-0.000000186599205
 30
0.0
 11
-33.3750100552529
 21
-14.50592714271052
 31
0.0
  0
LINE
  5
127
330
72
100
AcDbEntity
  8
0
  6
Continuous
 62
     0
100
AcDbLine
 10
-29.0
 20
19.05255889892578
 30
0.0
 11
-27.0
 21
19.05255889892578
 31
0.0
  0
LINE
  5
128
330
72
100
AcDbEntity
  8
0
  6
Continuous
 62
     0
100
AcDbLine
 10
-13.0
 20
19.05255889892578
 30
0.0
 11
-11.0
 21
19.05255889892578
 31
0.0
  0
LINE
  5
129
330
72
100
AcDbEntity
  8
0
  6
DASHED
 62
     0
100
AcDbLine
 10
-70.49996948242188
 20
-54.0
 30
0.0
 11
-70.49996948242188
 21
-66.0
 31
0.0
  0
LINE
  5
12A
330
72
100
AcDbEntity
  8
0
  6
DASHED
 62
     0
100
AcDbLine
 10
-59.49996948242188
 20
-54.0
 30
0.0
 11
-59.49996948242188
 21
-66.0
 31
0.0
  0
LINE
  5
12B
330
72
100
AcDbEntity
  8
0
  6
DASHED
 62
     0
100
AcDbLine
 10
59.5
 20
-54.0
 30
0.0
 11
59.5
 21
-66.0
 31
0.0
  0
LINE
  5
12C
330
72
100
AcDbEntity
  8
0
  6
DASHED
 62
     0
100
AcDbLine
 10
70.5
 20
-54.0
 30
0.0
 11
70.5
 21
-66.0
 31
0.0
  0
LINE
  5
12D
330
72
100
AcDbEntity
  8
0
  6
Continuous
 62
     0
100
AcDbLine
 10
-35.0
 20
78.0
 30
0.0
 11
35.0
 21
78.0
 31
0.0
  0
LINE
  5
12E
330
72
100
AcDbEntity
  8
0
  6
Continuous
 62
     0
100
AcDbLine
 10
-35.0
 20
91.0
 30
0.0
 11
-35.0
 21
77.0
 31
0.0
  0
LINE
  5
12F
330
72
100
AcDbEntity
  8
0
  6
Continuous
 62
     0
100
AcDbLine
 10
-35.0
 20
91.0
 30
0.0
 11
35.0
 21
91.0
 31
0.0
  0
LINE
  5
130
330
72
100
AcDbEntity
  8
0
  6
Continuous
 62
     0
100
AcDbLine
 10
-33.5
 20
92.0
 30
0.0
 11
-26.5
 21
92.0
 31
0.0
  0
LINE
  5
131
330
72
100
AcDbEntity
  8
0
  6
CENTER
 62
     4
100
AcDbLine
 10
-30.0
 20
95.79558002927442
 30
0.0
 11
-30.0
 21
91.0
 31
0.0
  0
LINE
  5
132
330
72
100
AcDbEntity
  8
0
  6
Continuous
 62
     0
100
AcDbLine
 10
-25.0
 20
160.0
 30
0.0
 11
-25.0
 21
91.0
 31
0.0
  0
LINE
  5
133
330
72
100
AcDbEntity
  8
0
  6
Continuous
 62
     0
100
AcDbLine
 10
-26.5
 20
93.29999923706055
 30
0.0
 11
-26.5
 21
91.0
 31
0.0
  0
LINE
  5
134
330
72
100
AcDbEntity
  8
0
  6
Continuous
 62
     0
100
AcDbLine
 10
-33.5
 20
93.29999923706055
 30
0.0
 11
-33.5
 21
91.0
 31
0.0
  0
LINE
  5
135
330
72
100
AcDbEntity
  8
0
  6
Continuous
 62
     0
100
AcDbLine
 10
-33.0
 20
158.0
 30
0.0
 11
-33.0
 21
93.68211830843718
 31
0.0
  0
LINE
  5
136
330
72
100
AcDbEntity
  8
0
  6
Continuous
 62
     0
100
AcDbLine
 10
-34.0
 20
140.0
 30
0.0
 11
-34.0
 21
116.0
 31
0.0
  0
LINE
  5
137
330
72
100
AcDbEntity
  8
0
  6
Continuous
 62
     0
100
AcDbLine
 10
-23.0
 20
168.0
 30
0.0
 11
23.0
 21
168.0
 31
0.0
  0
LINE
  5
138
330
72
100
AcDbEntity
  8
0
  6
Continuous
 62
     0
100
AcDbLine
 10
33.0
 20
158.0
 30
0.0
 11
33.0
 21
93.68211830843718
 31
0.0
  0
LINE
  5
139
330
72
100
AcDbEntity
  8
0
  6
Continuous
 62
     0
100
AcDbLine
 10
25.0
 20
160.0
 30
0.0
 11
25.0
 21
91.0
 31
0.0
  0
LINE
  5
13A
330
72
100
AcDbEntity
  8
0
  6
Continuous
 62
     0
100
AcDbLine
 10
33.0
 20
147.0
 30
0.0
 11
51.0
 21
147.0
 31
0.0
  0
LINE
  5
13B
330
72
100
AcDbEntity
  8
0
  6
Continuous
 62
     0
100
AcDbLine
 10
51.0
 20
147.0
 30
0.0
 11
51.0
 21
129.0
 31
0.0
  0
LINE
  5
13C
330
72
100
AcDbEntity
  8
0
  6
Continuous
 62
     0
100
AcDbLine
 10
64.13749694824219
 20
144.0
 30
0.0
 11
51.0
 21
144.0
 31
0.0
  0
LINE
  5
13D
330
72
100
AcDbEntity
  8
0
  6
Continuous
 62
     0
100
AcDbLine
 10
51.0
 20
145.0
 30
0.0
 11
55.0
 21
145.0
 31
0.0
  0
LINE
  5
13E
330
72
100
AcDbEntity
  8
0
  6
Continuous
 62
     0
100
AcDbLine
 10
64.13749694824219
 20
144.0
 30
0.0
 11
64.13749694824219
 21
132.0
 31
0.0
  0
LINE
  5
13F
330
72
100
AcDbEntity
  8
0
  6
CENTER
 62
     4
100
AcDbLine
 10
33.0
 20
138.0
 30
0.0
 11
65.46476745605469
 21
138.0
 31
0.0
  0
LINE
  5
140
330
72
100
AcDbEntity
  8
0
  6
Continuous
 62
     0
100
AcDbLine
 10
64.13749694824219
 20
132.0
 30
0.0
 11
51.0
 21
132.0
 31
0.0
  0
LINE
  5
141
330
72
100
AcDbEntity
  8
0
  6
Continuous
 62
     0
100
AcDbLine
 10
33.0
 20
129.0
 30
0.0
 11
51.0
 21
129.0
 31
0.0
  0
LINE
  5
142
330
72
100
AcDbEntity
  8
0
  6
CENTER
 62
     4
100
AcDbLine
 10
44.0
 20
128.0
 30
0.0
 11
56.56628036499023
 21
128.0
 31
0.0
  0
LINE
  5
143
330
72
100
AcDbEntity
  8
0
  6
Continuous
 62
     0
100
AcDbLine
 10
55.0
 20
145.0
 30
0.0
 11
55.0
 21
144.0
 31
0.0
  0
LINE
  5
144
330
72
100
AcDbEntity
  8
0
  6
DASHED
 62
     0
100
AcDbLine
 10
44.0
 20
118.6999969482422
 30
0.0
 11
55.0
 21
118.6999969482422
 31
0.0
  0
LINE
  5
145
330
72
100
AcDbEntity
  8
0
  6
DASHED
 62
     0
100
AcDbLine
 10
44.0
 20
117.5
 30
0.0
 11
55.0
 21
117.5
 31
0.0
  0
LINE
  5
146
330
72
100
AcDbEntity
  8
0
  6
Continuous
 62
     0
100
AcDbLine
 10
33.0
 20
111.0
 30
0.0
 11
55.0
 21
111.0
 31
0.0
  0
LINE
  5
147
330
72
100
AcDbEntity
  8
0
  6
Continuous
 62
     0
100
AcDbLine
 10
35.0
 20
77.0
 30
0.0
 11
35.0
 21
91.0
 31
0.0
  0
LINE
  5
148
330
72
100
AcDbEntity
  8
0
  6
Continuous
 62
     0
100
AcDbLine
 10
55.0
 20
132.0
 30
0.0
 11
55.0
 21
111.0
 31
0.0
  0
LINE
  5
149
330
72
100
AcDbEntity
  8
0
  6
Continuous
 62
     0
100
AcDbLine
 10
33.5
 20
92.0
 30
0.0
 11
26.5
 21
92.0
 31
0.0
  0
LINE
  5
14A
330
72
100
AcDbEntity
  8
0
  6
CENTER
 62
     4
100
AcDbLine
 10
30.0
 20
95.79558002927442
 30
0.0
 11
30.0
 21
91.0
 31
0.0
  0
LINE
  5
14B
330
72
100
AcDbEntity
  8
0
  6
Continuous
 62
     0
100
AcDbLine
 10
26.5
 20
93.29999923706055
 30
0.0
 11
26.5
 21
91.0
 31
0.0
  0
LINE
  5
14C
330
72
100
AcDbEntity
  8
0
  6
Continuous
 62
     0
100
AcDbLine
 10
33.5
 20
93.29999923706055
 30
0.0
 11
33.5
 21
91.0
 31
0.0
  0
ARC
  5
14D
330
72
100
AcDbEntity
  8
0
  6
Continuous
 62
     0
100
AcDbCircle
 10
0.0
 20
37.0
 30
0.0
 40
17.0
100
AcDbArc
 50
241.9274897048517
 51
298.0724779654353
  0
ARC
  5
14E
330
72
100
AcDbEntity
  8
0
  6
Continuous
 62
     0
100
AcDbCircle
 10
0.0
 20
62.5
 30
0.0
 40
10.0
100
AcDbArc
 50
179.9999776881997
 51
0.0
  0
CIRCLE
  5
14F
330
72
100
AcDbEntity
  8
0
  6
Continuous
 62
     0
100
AcDbCircle
 10
0.0
 20
62.0
 30
0.0
 40
5.700004577636719
  0
CIRCLE
  5
150
330
72
100
AcDbEntity
  8
0
  6
Continuous
 62
     0
100
AcDbCircle
 10
0.0
 20
62.0
 30
0.0
 40
6.700000762939453
  0
CIRCLE
  5
151
330
72
100
AcDbEntity
  8
0
  6
Continuous
 62
     0
100
AcDbCircle
 10
25.0
 20
0.0
 30
0.0
 40
8.649999618530273
  0
CIRCLE
  5
152
330
72
100
AcDbEntity
  8
0
  6
Continuous
 62
     0
100
AcDbCircle
 10
25.0
 20
0.0
 30
0.0
 40
7.789999485015869
  0
CIRCLE
  5
153
330
72
100
AcDbEntity
  8
0
  6
Continuous
 62
     0
100
AcDbCircle
 10
0.0
 20
-43.0
 30
0.0
 40
7.789999485015869
  0
CIRCLE
  5
154
330
72
100
AcDbEntity
  8
0
  6
Continuous
 62
     0
100
AcDbCircle
 10
0.0
 20
-43.0
 30
0.0
 40
8.649999618530273
  0
CIRCLE
  5
155
330
72
100
AcDbEntity
  8
0
  6
Continuous
 62
     0
100
AcDbCircle
 10
-25.0
 20
0.0
 30
0.0
 40
7.789999485015869
  0
CIRCLE
  5
156
330
72
100
AcDbEntity
  8
0
  6
Continuous
 62
     0
100
AcDbCircle
 10
-25.0
 20
0.0
 30
0.0
 40
8.649999618530273
  0
ARC
  5
157
330
72
100
AcDbEntity
  8
0
  6
Continuous
 62
     0
100
AcDbCircle
 10
-33.0
 20
116.0
 30
0.0
 40
1.0
100
AcDbArc
 50
179.9999813306653
 51
270.0000179860893
  0
ARC
  5
158
330
72
100
AcDbEntity
  8
0
  6
Continuous
 62
     0
100
AcDbCircle
 10
-33.0
 20
140.0
 30
0.0
 40
1.0
100
AcDbArc
 50
89.99998201391067
 51
179.9999640278213
  0
ARC
  5
159
330
72
100
AcDbEntity
  8
0
  6
Continuous
 62
     0
100
AcDbCircle
 10
-23.0
 20
158.0
 30
0.0
 40
10.0
100
AcDbArc
 50
89.99998201391067
 51
179.9999640278213
  0
ARC
  5
15A
330
72
100
AcDbEntity
  8
0
  6
Continuous
 62
     0
100
AcDbCircle
 10
-17.0
 20
160.0
 30
0.0
 40
8.0
100
AcDbArc
 50
89.99998201391067
 51
179.9999640278213
  0
ARC
  5
15B
330
72
100
AcDbEntity
  8
0
  6
Continuous
 62
     0
100
AcDbCircle
 10
17.0
 20
160.0
 30
0.0
 40
8.0
100
AcDbArc
 50
0.0
 51
89.99998201391067
  0
ARC
  5
15C
330
72
100
AcDbEntity
  8
0
  6
Continuous
 62
     0
100
AcDbCircle
 10
23.0
 20
158.0
 30
0.0
 40
10.0
100
AcDbArc
 50
0.0
 51
89.99998201391067
  0
ARC
  5
15D
330
72
100
AcDbEntity
  8
0
  6
Continuous
 62
     0
100
AcDbCircle
 10
-30.0
 20
89.23845762895952
 30
0.0
 40
5.361540845161571
100
AcDbArc
 50
49.24715152300847
 51
130.7528484769915
  0
ARC
  5
15E
330
72
100
AcDbEntity
  8
0
  6
Continuous
 62
     0
100
AcDbCircle
 10
30.0
 20
89.23845762895952
 30
0.0
 40
5.361540845161571
100
AcDbArc
 50
49.24715152300853
 51
130.7528484769916
  0
MTEXT
  5
15F
330
72
100
AcDbEntity
  8
0
 62
     0
100
AcDbMText
 10
-46.74026834964752
 20
9.924705505371094
 30
0.0
 40
6.0
 41
0.0
 71
     7
 72
     1
  1
{\W0.833333;Ｏ１}
 73
     1
 44
1.0
  0
MTEXT
  5
160
330
72
100
AcDbEntity
  8
0
 62
     0
100
AcDbMText
 10
41.09320867061615
 20
10.10693168640137
 30
0.0
 40
6.0
 41
0.0
 71
     7
 72
     1
  1
{\W0.833333;Ｏ２}
 73
     1
 44
1.0
  0
MTEXT
  5
161
330
72
100
AcDbEntity
  8
0
 62
     0
100
AcDbMText
 10
-20.46988070011139
 20
-61.39011764526367
 30
0.0
 40
6.0
 41
0.0
 71
     7
 72
     1
  1
{\W0.833333;ＥＸ}
 73
     1
 44
1.0
  0
MTEXT
  5
162
330
72
100
AcDbEntity
  8
0
 62
     0
100
AcDbMText
 10
-17.41133655160666
 20
149.6441192626953
 30
0.0
 40
0.5
 41
0.0
 71
     7
 72
     1
  1
{\W1;BN-764S-10-G***}
 73
     1
 44
1.0
  0
ENDBLK
  5
74
330
72
100
AcDbEntity
  8
0
100
AcDbBlockEnd
  0
BLOCK
  5
76
330
75
100
AcDbEntity
  8
0
100
AcDbBlockBegin
  2
DTL0002
 70
     0
 10
0.0
 20
0.0
 30
0.0
  3
DTL0002
  1

  0
POINT
  5
163
330
75
100
AcDbEntity
  8
0
 62
     0
100
AcDbPoint
 10
0.0
 20
0.0
 30
0.0
  0
LINE
  5
164
330
75
100
AcDbEntity
  8
0
  6
CENTER
 62
     4
100
AcDbLine
 10
0.0
 20
84.0
 30
0.0
 11
0.0
 21
-45.32464599609375
 31
0.0
  0
LINE
  5
165
330
75
100
AcDbEntity
  8
0
  6
CENTER
 62
     4
100
AcDbLine
 10
-91.52499389648438
 20
0.0
 30
0.0
 11
130.7249908447265
 21
0.0
 31
0.0
  0
LINE
  5
166
330
75
100
AcDbEntity
  8
0
  6
Continuous
 62
     0
100
AcDbLine
 10
-85.99996948242188
 20
16.0
 30
0.0
 11
-85.99996948242188
 21
-16.0
 31
0.0
  0
LINE
  5
167
330
75
100
AcDbEntity
  8
0
  6
Continuous
 62
     0
100
AcDbLine
 10
-85.99996948242188
 20
16.0
 30
0.0
 11
-75.0
 21
16.0
 31
0.0
  0
LINE
  5
168
330
75
100
AcDbEntity
  8
0
  6
Continuous
 62
     0
100
AcDbLine
 10
-85.99996948242188
 20
-16.0
 30
0.0
 11
-74.99996948242188
 21
-16.0
 31
0.0
  0
LINE
  5
169
330
75
100
AcDbEntity
  8
0
  6
Continuous
 62
     0
100
AcDbLine
 10
-75.99996948242188
 20
-16.0
 30
0.0
 11
-75.99996948242188
 21
-35.0
 31
0.0
  0
LINE
  5
16A
330
75
100
AcDbEntity
  8
0
  6
Continuous
 62
     0
100
AcDbLine
 10
-74.99996948242188
 20
23.35000610351562
 30
0.0
 11
-74.99996948242188
 21
-23.35000610351562
 31
0.0
  0
LINE
  5
16B
330
75
100
AcDbEntity
  8
0
  6
Continuous
 62
     0
100
AcDbLine
 10
-71.0
 20
-23.3499755859375
 30
0.0
 11
-75.0
 21
-23.3499755859375
 31
0.0
  0
LINE
  5
16C
330
75
100
AcDbEntity
  8
0
  6
CENTER
 62
     4
100
AcDbLine
 10
-73.49996948242188
 20
-35.0
 30
0.0
 11
-56.49996948242188
 21
-35.0
 31
0.0
  0
LINE
  5
16D
330
75
100
AcDbEntity
  8
0
  6
CENTER
 62
     4
100
AcDbLine
 10
-64.99996948242188
 20
-26.5
 30
0.0
 11
-64.99996948242188
 21
-43.5
 31
0.0
  0
LINE
  5
16E
330
75
100
AcDbEntity
  8
0
  6
Continuous
 62
     0
100
AcDbLine
 10
-53.99996948242188
 20
-25.0
 30
0.0
 11
-53.99996948242188
 21
-35.0
 31
0.0
  0
LINE
  5
16F
330
75
100
AcDbEntity
  8
0
  6
Continuous
 62
     0
100
AcDbLine
 10
-70.99996948242188
 20
-26.0
 30
0.0
 11
-65.99996948242188
 21
-26.0
 31
0.0
  0
LINE
  5
170
330
75
100
AcDbEntity
  8
0
  6
Continuous
 62
     0
100
AcDbLine
 10
-65.99996948242188
 20
26.0
 30
0.0
 11
-65.99996948242188
 21
-26.0
 31
0.0
  0
LINE
  5
171
330
75
100
AcDbEntity
  8
0
  6
Continuous
 62
     0
100
AcDbLine
 10
-75.99996948242188
 20
35.0
 30
0.0
 11
-75.99996948242188
 21
16.0
 31
0.0
  0
LINE
  5
172
330
75
100
AcDbEntity
  8
0
  6
CENTER
 62
     4
100
AcDbLine
 10
-64.99996948242188
 20
43.5
 30
0.0
 11
-64.99996948242188
 21
26.5
 31
0.0
  0
LINE
  5
173
330
75
100
AcDbEntity
  8
0
  6
CENTER
 62
     4
100
AcDbLine
 10
-73.49996948242188
 20
35.0
 30
0.0
 11
-56.49996948242188
 21
35.0
 31
0.0
  0
LINE
  5
174
330
75
100
AcDbEntity
  8
0
  6
Continuous
 62
     0
100
AcDbLine
 10
-71.0
 20
23.3499755859375
 30
0.0
 11
-75.0
 21
23.3499755859375
 31
0.0
  0
LINE
  5
175
330
75
100
AcDbEntity
  8
0
  6
Continuous
 62
     0
100
AcDbLine
 10
-70.99996948242188
 20
26.0
 30
0.0
 11
-65.99996948242188
 21
26.0
 31
0.0
  0
LINE
  5
176
330
75
100
AcDbEntity
  8
0
  6
Continuous
 62
     0
100
AcDbLine
 10
-70.99996948242188
 20
26.0
 30
0.0
 11
-70.99996948242188
 21
-26.0
 31
0.0
  0
LINE
  5
177
330
75
100
AcDbEntity
  8
0
  6
Continuous
 62
     0
100
AcDbLine
 10
-66.0
 20
25.0
 30
0.0
 11
-53.0
 21
25.0
 31
0.0
  0
LINE
  5
178
330
75
100
AcDbEntity
  8
0
  6
Continuous
 62
     0
100
AcDbLine
 10
-53.99996948242188
 20
35.0
 30
0.0
 11
-53.99996948242188
 21
25.0
 31
0.0
  0
LINE
  5
179
330
75
100
AcDbEntity
  8
0
  6
CENTER
 62
     4
100
AcDbLine
 10
-45.49996948242188
 20
22.0
 30
0.0
 11
-45.49996948242188
 21
28.56884765625
 31
0.0
  0
LINE
  5
17A
330
75
100
AcDbEntity
  8
0
  6
Continuous
 62
     0
100
AcDbLine
 10
-52.99996948242188
 20
25.0
 30
0.0
 11
-52.99996948242188
 21
-25.0
 31
0.0
  0
LINE
  5
17B
330
75
100
AcDbEntity
  8
0
  6
Continuous
 62
     0
100
AcDbLine
 10
-53.0
 20
22.0
 30
0.0
 11
-35.0
 21
22.0
 31
0.0
  0
LINE
  5
17C
330
75
100
AcDbEntity
  8
0
  6
Continuous
 62
     0
100
AcDbLine
 10
-53.0
 20
-22.0
 30
0.0
 11
-35.0
 21
-22.0
 31
0.0
  0
LINE
  5
17D
330
75
100
AcDbEntity
  8
0
  6
Continuous
 62
     0
100
AcDbLine
 10
-66.0
 20
-25.0
 30
0.0
 11
-53.0
 21
-25.0
 31
0.0
  0
LINE
  5
17E
330
75
100
AcDbEntity
  8
0
  6
CENTER
 62
     4
100
AcDbLine
 10
-45.49996948242188
 20
-22.0
 30
0.0
 11
-45.49996948242188
 21
-28.56884765625
 31
0.0
  0
LINE
  5
17F
330
75
100
AcDbEntity
  8
0
  6
Continuous
 62
     0
100
AcDbLine
 10
-41.74996948242188
 20
-40.0
 30
0.0
 11
-41.74996948242188
 21
-30.27023315429688
 31
0.0
  0
LINE
  5
180
330
75
100
AcDbEntity
  8
0
  6
Continuous
 62
     0
100
AcDbLine
 10
-41.74996948242188
 20
-40.0
 30
0.0
 11
41.75
 21
-40.0
 31
0.0
  0
LINE
  5
181
330
75
100
AcDbEntity
  8
0
  6
Continuous
 62
     0
100
AcDbLine
 10
-33.375
 20
-40.0
 30
0.0
 11
-33.375
 21
-33.6890869140625
 31
0.0
  0
LINE
  5
182
330
75
100
AcDbEntity
  8
0
  6
CENTER
 62
     4
100
AcDbLine
 10
-25.0
 20
-43.65008905874542
 30
0.0
 11
-25.0
 21
-35.0
 31
0.0
  0
LINE
  5
183
330
75
100
AcDbEntity
  8
0
  6
Continuous
 62
     0
100
AcDbLine
 10
-16.75
 20
-35.0
 30
0.0
 11
-16.75
 21
-40.0
 31
0.0
  0
LINE
  5
184
330
75
100
AcDbEntity
  8
0
  6
Continuous
 62
     0
100
AcDbLine
 10
-8.375
 20
-40.0
 30
0.0
 11
-8.375
 21
-35.0
 31
0.0
  0
LINE
  5
185
330
75
100
AcDbEntity
  8
0
  6
Continuous
 62
     0
100
AcDbLine
 10
8.375
 20
-40.0
 30
0.0
 11
8.375
 21
-35.0
 31
0.0
  0
LINE
  5
186
330
75
100
AcDbEntity
  8
0
  6
Continuous
 62
     0
100
AcDbLine
 10
16.75
 20
-35.0
 30
0.0
 11
16.75
 21
-40.0
 31
0.0
  0
LINE
  5
187
330
75
100
AcDbEntity
  8
0
  6
CENTER
 62
     4
100
AcDbLine
 10
25.0
 20
-43.24041824048408
 30
0.0
 11
25.0
 21
-35.0
 31
0.0
  0
LINE
  5
188
330
75
100
AcDbEntity
  8
0
  6
Continuous
 62
     0
100
AcDbLine
 10
33.375
 20
-40.0
 30
0.0
 11
33.375
 21
-33.6890869140625
 31
0.0
  0
LINE
  5
189
330
75
100
AcDbEntity
  8
0
  6
Continuous
 62
     0
100
AcDbLine
 10
41.75
 20
-40.0
 30
0.0
 11
41.75
 21
-30.27023315429688
 31
0.0
  0
LINE
  5
18A
330
75
100
AcDbEntity
  8
0
  6
Continuous
 62
     0
100
AcDbLine
 10
35.0
 20
-22.0
 30
0.0
 11
54.0
 21
-22.0
 31
0.0
  0
LINE
  5
18B
330
75
100
AcDbEntity
  8
0
  6
CENTER
 62
     4
100
AcDbLine
 10
45.5
 20
-29.06753540039062
 30
0.0
 11
45.5
 21
-22.0
 31
0.0
  0
LINE
  5
18C
330
75
100
AcDbEntity
  8
0
  6
Continuous
 62
     0
100
AcDbLine
 10
35.0
 20
-11.0
 30
0.0
 11
112.0
 21
-11.0
 31
0.0
  0
LINE
  5
18D
330
75
100
AcDbEntity
  8
0
  6
Continuous
 62
     0
100
AcDbLine
 10
35.0
 20
11.0
 30
0.0
 11
112.0
 21
11.0
 31
0.0
  0
LINE
  5
18E
330
75
100
AcDbEntity
  8
0
  6
Continuous
 62
     0
100
AcDbLine
 10
35.0
 20
22.0
 30
0.0
 11
54.0
 21
22.0
 31
0.0
  0
LINE
  5
18F
330
75
100
AcDbEntity
  8
0
  6
CENTER
 62
     4
100
AcDbLine
 10
45.5
 20
29.06753540039062
 30
0.0
 11
45.5
 21
22.0
 31
0.0
  0
LINE
  5
190
330
75
100
AcDbEntity
  8
0
  6
Continuous
 62
     0
100
AcDbLine
 10
54.0
 20
23.0
 30
0.0
 11
54.0
 21
11.0
 31
0.0
  0
LINE
  5
191
330
75
100
AcDbEntity
  8
0
  6
Continuous
 62
     0
100
AcDbLine
 10
54.0
 20
36.0
 30
0.0
 11
54.0
 21
23.0
 31
0.0
  0
LINE
  5
192
330
75
100
AcDbEntity
  8
0
  6
CENTER
 62
     4
100
AcDbLine
 10
56.5
 20
35.0
 30
0.0
 11
73.5
 21
35.0
 31
0.0
  0
LINE
  5
193
330
75
100
AcDbEntity
  8
0
  6
CENTER
 62
     4
100
AcDbLine
 10
65.0
 20
43.5
 30
0.0
 11
65.0
 21
26.5
 31
0.0
  0
LINE
  5
194
330
75
100
AcDbEntity
  8
0
  6
Continuous
 62
     0
100
AcDbLine
 10
76.0
 20
35.0
 30
0.0
 11
76.0
 21
23.0
 31
0.0
  0
LINE
  5
195
330
75
100
AcDbEntity
  8
0
  6
Continuous
 62
     0
100
AcDbLine
 10
54.0
 20
23.0
 30
0.0
 11
94.0
 21
23.0
 31
0.0
  0
LINE
  5
196
330
75
100
AcDbEntity
  8
0
  6
Continuous
 62
     0
100
AcDbLine
 10
94.0
 20
25.0
 30
0.0
 11
107.0
 21
25.0
 31
0.0
  0
LINE
  5
197
330
75
100
AcDbEntity
  8
0
  6
Continuous
 62
     0
100
AcDbLine
 10
107.0
 20
26.0
 30
0.0
 11
112.0
 21
26.0
 31
0.0
  0
LINE
  5
198
330
75
100
AcDbEntity
  8
0
  6
Continuous
 62
     0
100
AcDbLine
 10
112.0
 20
26.0
 30
0.0
 11
112.0
 21
-26.0
 31
0.0
  0
LINE
  5
199
330
75
100
AcDbEntity
  8
0
  6
Continuous
 62
     0
100
AcDbLine
 10
112.0
 20
23.3499755859375
 30
0.0
 11
115.0
 21
23.3499755859375
 31
0.0
  0
LINE
  5
19A
330
75
100
AcDbEntity
  8
0
  6
Continuous
 62
     0
100
AcDbLine
 10
115.0
 20
23.35000610351562
 30
0.0
 11
115.0
 21
-23.35000610351562
 31
0.0
  0
LINE
  5
19B
330
75
100
AcDbEntity
  8
0
  6
Continuous
 62
     0
100
AcDbLine
 10
115.0
 20
16.0
 30
0.0
 11
126.0
 21
16.0
 31
0.0
  0
LINE
  5
19C
330
75
100
AcDbEntity
  8
0
  6
Continuous
 62
     0
100
AcDbLine
 10
126.0
 20
16.0
 30
0.0
 11
126.0
 21
-16.0
 31
0.0
  0
LINE
  5
19D
330
75
100
AcDbEntity
  8
0
  6
Continuous
 62
     0
100
AcDbLine
 10
115.0
 20
-16.0
 30
0.0
 11
126.0
 21
-16.0
 31
0.0
  0
LINE
  5
19E
330
75
100
AcDbEntity
  8
0
  6
Continuous
 62
     0
100
AcDbLine
 10
112.0
 20
-23.3499755859375
 30
0.0
 11
115.0
 21
-23.3499755859375
 31
0.0
  0
LINE
  5
19F
330
75
100
AcDbEntity
  8
0
  6
Continuous
 62
     0
100
AcDbLine
 10
107.0
 20
-26.0
 30
0.0
 11
112.0
 21
-26.0
 31
0.0
  0
LINE
  5
1A0
330
75
100
AcDbEntity
  8
0
  6
Continuous
 62
     0
100
AcDbLine
 10
107.0
 20
-11.0
 30
0.0
 11
107.0
 21
-26.0
 31
0.0
  0
LINE
  5
1A1
330
75
100
AcDbEntity
  8
0
  6
Continuous
 62
     0
100
AcDbLine
 10
107.0
 20
26.0
 30
0.0
 11
107.0
 21
11.0
 31
0.0
  0
LINE
  5
1A2
330
75
100
AcDbEntity
  8
0
  6
Continuous
 62
     0
100
AcDbLine
 10
94.0
 20
25.0
 30
0.0
 11
94.0
 21
11.0
 31
0.0
  0
LINE
  5
1A3
330
75
100
AcDbEntity
  8
0
  6
Continuous
 62
     0
100
AcDbLine
 10
94.0
 20
-11.0
 30
0.0
 11
94.0
 21
-25.0
 31
0.0
  0
LINE
  5
1A4
330
75
100
AcDbEntity
  8
0
  6
Continuous
 62
     0
100
AcDbLine
 10
94.0
 20
-25.0
 30
0.0
 11
107.0
 21
-25.0
 31
0.0
  0
LINE
  5
1A5
330
75
100
AcDbEntity
  8
0
  6
Continuous
 62
     0
100
AcDbLine
 10
54.0
 20
-23.0
 30
0.0
 11
94.0
 21
-23.0
 31
0.0
  0
LINE
  5
1A6
330
75
100
AcDbEntity
  8
0
  6
Continuous
 62
     0
100
AcDbLine
 10
54.0
 20
-11.0
 30
0.0
 11
54.0
 21
-23.0
 31
0.0
  0
LINE
  5
1A7
330
75
100
AcDbEntity
  8
0
  6
Continuous
 62
     0
100
AcDbLine
 10
76.0
 20
-23.0
 30
0.0
 11
76.0
 21
-35.0
 31
0.0
  0
LINE
  5
1A8
330
75
100
AcDbEntity
  8
0
  6
CENTER
 62
     4
100
AcDbLine
 10
56.5
 20
-35.0
 30
0.0
 11
73.5
 21
-35.0
 31
0.0
  0
LINE
  5
1A9
330
75
100
AcDbEntity
  8
0
  6
CENTER
 62
     4
100
AcDbLine
 10
65.0
 20
-26.5
 30
0.0
 11
65.0
 21
-43.5
 31
0.0
  0
LINE
  5
1AA
330
75
100
AcDbEntity
  8
0
  6
Continuous
 62
     0
100
AcDbLine
 10
54.0
 20
-23.0
 30
0.0
 11
54.0
 21
-35.0
 31
0.0
  0
LINE
  5
1AB
330
75
100
AcDbEntity
  8
0
  6
Continuous
 62
     0
100
AcDbLine
 10
-85.99996948242188
 20
0.0
 30
0.0
 11
-75.0
 21
0.0
 31
0.0
  0
LINE
  5
1AC
330
75
100
AcDbEntity
  8
0
  6
Continuous
 62
     0
100
AcDbLine
 10
115.0
 20
0.0
 30
0.0
 11
126.0
 21
0.0
 31
0.0
  0
LINE
  5
1AD
330
75
100
AcDbEntity
  8
0
  6
Continuous
 62
     0
100
AcDbLine
 10
-30.0
 20
-35.0
 30
0.0
 11
30.0
 21
-35.0
 31
0.0
  0
LINE
  5
1AE
330
75
100
AcDbEntity
  8
0
  6
Continuous
 62
     0
100
AcDbLine
 10
-25.0
 20
-33.0
 30
0.0
 11
25.0
 21
-33.0
 31
0.0
  0
LINE
  5
1AF
330
75
100
AcDbEntity
  8
0
  6
Continuous
 62
     0
100
AcDbLine
 10
-33.0
 20
25.0
 30
0.0
 11
-33.0
 21
-25.0
 31
0.0
  0
LINE
  5
1B0
330
75
100
AcDbEntity
  8
0
  6
Continuous
 62
     0
100
AcDbLine
 10
-35.0
 20
30.0
 30
0.0
 11
-35.0
 21
-30.0
 31
0.0
  0
LINE
  5
1B1
330
75
100
AcDbEntity
  8
0
  6
Continuous
 62
     0
100
AcDbLine
 10
-31.4142428952403
 20
-31.41414645059372
 30
0.0
 11
-28.58581565128483
 21
-28.58571944505682
 31
0.0
  0
LINE
  5
1B2
330
75
100
AcDbEntity
  8
0
  6
Continuous
 62
     0
100
AcDbLine
 10
-31.41424320140054
 20
-28.58576229727581
 30
0.0
 11
-28.58581604173876
 21
-31.41418921851902
 31
0.0
  0
LINE
  5
1B3
330
75
100
AcDbEntity
  8
0
  6
Continuous
 62
     0
100
AcDbLine
 10
28.58575358010937
 20
-31.41418694258657
 30
0.0
 11
31.41419161365851
 21
-28.58574914745691
 31
0.0
  0
LINE
  5
1B4
330
75
100
AcDbEntity
  8
0
  6
Continuous
 62
     0
100
AcDbLine
 10
28.58575240456412
 20
-28.585744928205
 30
0.0
 11
31.41420122770694
 21
-31.41419351292743
 31
0.0
  0
LINE
  5
1B5
330
75
100
AcDbEntity
  8
0
  6
Continuous
 62
     0
100
AcDbLine
 10
33.0
 20
25.0
 30
0.0
 11
33.0
 21
-25.0
 31
0.0
  0
LINE
  5
1B6
330
75
100
AcDbEntity
  8
0
  6
Continuous
 62
     0
100
AcDbLine
 10
35.0
 20
-9.0
 30
0.0
 11
35.0
 21
-30.0
 31
0.0
  0
LINE
  5
1B7
330
75
100
AcDbEntity
  8
0
  6
Continuous
 62
     0
100
AcDbLine
 10
33.0
 20
-9.0
 30
0.0
 11
51.0
 21
-9.0
 31
0.0
  0
LINE
  5
1B8
330
75
100
AcDbEntity
  8
0
  6
Continuous
 62
     0
100
AcDbLine
 10
51.0
 20
9.0
 30
0.0
 11
51.0
 21
-9.0
 31
0.0
  0
LINE
  5
1B9
330
75
100
AcDbEntity
  8
0
  6
Continuous
 62
     0
100
AcDbLine
 10
51.0
 20
-6.0
 30
0.0
 11
64.13748168945312
 21
-6.0
 31
0.0
  0
LINE
  5
1BA
330
75
100
AcDbEntity
  8
0
  6
Continuous
 62
     0
100
AcDbLine
 10
64.13748168945312
 20
6.0
 30
0.0
 11
64.13748168945312
 21
-6.0
 31
0.0
  0
LINE
  5
1BB
330
75
100
AcDbEntity
  8
0
  6
Continuous
 62
     0
100
AcDbLine
 10
51.0
 20
6.0
 30
0.0
 11
64.13748168945312
 21
6.0
 31
0.0
  0
LINE
  5
1BC
330
75
100
AcDbEntity
  8
0
  6
Continuous
 62
     0
100
AcDbLine
 10
33.0
 20
9.0
 30
0.0
 11
51.0
 21
9.0
 31
0.0
  0
LINE
  5
1BD
330
75
100
AcDbEntity
  8
0
  6
Continuous
 62
     0
100
AcDbLine
 10
35.0
 20
30.0
 30
0.0
 11
35.0
 21
9.0
 31
0.0
  0
LINE
  5
1BE
330
75
100
AcDbEntity
  8
0
  6
Continuous
 62
     0
100
AcDbLine
 10
-30.0
 20
35.0
 30
0.0
 11
30.0
 21
35.0
 31
0.0
  0
LINE
  5
1BF
330
75
100
AcDbEntity
  8
0
  6
Continuous
 62
     0
100
AcDbLine
 10
24.0
 20
36.0
 30
0.0
 11
24.0
 21
35.0
 31
0.0
  0
LINE
  5
1C0
330
75
100
AcDbEntity
  8
0
  6
Continuous
 62
     0
100
AcDbLine
 10
-24.0
 20
36.0
 30
0.0
 11
-24.0
 21
35.0
 31
0.0
  0
LINE
  5
1C1
330
75
100
AcDbEntity
  8
0
  6
Continuous
 62
     0
100
AcDbLine
 10
-25.0
 20
33.0
 30
0.0
 11
25.0
 21
33.0
 31
0.0
  0
LINE
  5
1C2
330
75
100
AcDbEntity
  8
0
  6
Continuous
 62
     0
100
AcDbLine
 10
28.5857596182386
 20
28.58585100526349
 30
0.0
 11
31.41418686219408
 21
31.41427801080039
 31
0.0
  0
LINE
  5
1C3
330
75
100
AcDbEntity
  8
0
  6
Continuous
 62
     0
100
AcDbLine
 10
28.58578932063524
 20
31.41422672921309
 30
0.0
 11
31.41421648029702
 21
28.58579980796988
 31
0.0
  0
LINE
  5
1C4
330
75
100
AcDbEntity
  8
0
  6
Continuous
 62
     0
100
AcDbLine
 10
-29.0
 20
36.0
 30
0.0
 11
55.0
 21
36.0
 31
0.0
  0
LINE
  5
1C5
330
75
100
AcDbEntity
  8
0
  6
Continuous
 62
     0
100
AcDbLine
 10
55.0
 20
70.0
 30
0.0
 11
55.0
 21
36.0
 31
0.0
  0
LINE
  5
1C6
330
75
100
AcDbEntity
  8
0
  6
Continuous
 62
     0
100
AcDbLine
 10
-31.41426174601193
 20
28.58580849022256
 30
0.0
 11
-28.58583450205646
 21
31.41423549575947
 31
0.0
  0
LINE
  5
1C7
330
75
100
AcDbEntity
  8
0
  6
Continuous
 62
     0
100
AcDbLine
 10
-31.41425010891479
 20
31.4142525276522
 30
0.0
 11
-28.58580128577196
 21
28.58580394292977
 31
0.0
  0
LINE
  5
1C8
330
75
100
AcDbEntity
  8
0
  6
Continuous
 62
     0
100
AcDbLine
 10
-34.0
 20
37.0
 30
0.0
 11
-29.0
 21
37.0
 31
0.0
  0
LINE
  5
1C9
330
75
100
AcDbEntity
  8
0
  6
Continuous
 62
     0
100
AcDbLine
 10
-34.0
 20
70.0
 30
0.0
 11
-34.0
 21
37.0
 31
0.0
  0
LINE
  5
1CA
330
75
100
AcDbEntity
  8
0
  6
Continuous
 62
     0
100
AcDbLine
 10
-34.0
 20
70.0
 30
0.0
 11
55.0
 21
70.0
 31
0.0
  0
LINE
  5
1CB
330
75
100
AcDbEntity
  8
0
  6
Continuous
 62
     0
100
AcDbLine
 10
-30.0
 20
74.0
 30
0.0
 11
-30.0
 21
65.0
 31
0.0
  0
LINE
  5
1CC
330
75
100
AcDbEntity
  8
0
  6
Continuous
 62
     0
100
AcDbLine
 10
-30.0
 20
65.0
 30
0.0
 11
30.0
 21
65.0
 31
0.0
  0
LINE
  5
1CD
330
75
100
AcDbEntity
  8
0
  6
Continuous
 62
     0
100
AcDbLine
 10
-29.0
 20
65.0
 30
0.0
 11
-29.0
 21
36.0
 31
0.0
  0
LINE
  5
1CE
330
75
100
AcDbEntity
  8
0
  6
Continuous
 62
     0
100
AcDbLine
 10
29.0
 20
65.0
 30
0.0
 11
29.0
 21
36.0
 31
0.0
  0
LINE
  5
1CF
330
75
100
AcDbEntity
  8
0
  6
Continuous
 62
     0
100
AcDbLine
 10
30.0
 20
74.0
 30
0.0
 11
30.0
 21
65.0
 31
0.0
  0
LINE
  5
1D0
330
75
100
AcDbEntity
  8
0
  6
DASHED
 62
     0
100
AcDbLine
 10
40.0
 20
43.70000076293945
 30
0.0
 11
55.0
 21
43.70000076293945
 31
0.0
  0
LINE
  5
1D1
330
75
100
AcDbEntity
  8
0
  6
DASHED
 62
     0
100
AcDbLine
 10
40.0
 20
42.5
 30
0.0
 11
55.0
 21
42.5
 31
0.0
  0
LINE
  5
1D2
330
75
100
AcDbEntity
  8
0
  6
CENTER
 62
     4
100
AcDbLine
 10
38.68526458740234
 20
53.0
 30
0.0
 11
58.42954254150391
 21
53.0
 31
0.0
  0
LINE
  5
1D3
330
75
100
AcDbEntity
  8
0
  6
DASHED
 62
     0
100
AcDbLine
 10
40.0
 20
63.5
 30
0.0
 11
55.0
 21
63.5
 31
0.0
  0
LINE
  5
1D4
330
75
100
AcDbEntity
  8
0
  6
DASHED
 62
     0
100
AcDbLine
 10
40.0
 20
62.29999923706055
 30
0.0
 11
55.0
 21
62.29999923706055
 31
0.0
  0
LINE
  5
1D5
330
75
100
AcDbEntity
  8
0
  6
Continuous
 62
     0
100
AcDbLine
 10
-30.0
 20
71.0
 30
0.0
 11
30.0
 21
71.0
 31
0.0
  0
LINE
  5
1D6
330
75
100
AcDbEntity
  8
0
  6
Continuous
 62
     0
100
AcDbLine
 10
-30.0
 20
74.0
 30
0.0
 11
30.0
 21
74.0
 31
0.0
  0
LINE
  5
1D7
330
75
100
AcDbEntity
  8
0
  6
Continuous
 62
     0
100
AcDbLine
 10
26.0
 20
81.0
 30
0.0
 11
26.0
 21
76.98146513837123
 31
0.0
  0
LINE
  5
1D8
330
75
100
AcDbEntity
  8
0
  6
Continuous
 62
     0
100
AcDbLine
 10
-26.0
 20
81.0
 30
0.0
 11
26.0
 21
81.0
 31
0.0
  0
LINE
  5
1D9
330
75
100
AcDbEntity
  8
0
  6
Continuous
 62
     0
100
AcDbLine
 10
17.5
 20
81.0
 30
0.0
 11
17.5
 21
74.0
 31
0.0
  0
LINE
  5
1DA
330
75
100
AcDbEntity
  8
0
  6
Continuous
 62
     0
100
AcDbLine
 10
-17.5
 20
81.0
 30
0.0
 11
-17.5
 21
74.0
 31
0.0
  0
LINE
  5
1DB
330
75
100
AcDbEntity
  8
0
  6
Continuous
 62
     0
100
AcDbLine
 10
-26.0
 20
81.0
 30
0.0
 11
-26.0
 21
76.98146513837123
 31
0.0
  0
LINE
  5
1DC
330
75
100
AcDbEntity
  8
0
  6
Continuous
 62
     0
100
AcDbLine
 10
-27.0
 20
76.29999923706055
 30
0.0
 11
-27.0
 21
74.0
 31
0.0
  0
LINE
  5
1DD
330
75
100
AcDbEntity
  8
0
  6
Continuous
 62
     0
100
AcDbLine
 10
-27.0
 20
75.0
 30
0.0
 11
-20.0
 21
75.0
 31
0.0
  0
LINE
  5
1DE
330
75
100
AcDbEntity
  8
0
  6
CENTER
 62
     4
100
AcDbLine
 10
-23.5
 20
78.7310488194198
 30
0.0
 11
-23.5
 21
74.0
 31
0.0
  0
LINE
  5
1DF
330
75
100
AcDbEntity
  8
0
  6
Continuous
 62
     0
100
AcDbLine
 10
-20.0
 20
76.29999923706055
 30
0.0
 11
-20.0
 21
74.0
 31
0.0
  0
LINE
  5
1E0
330
75
100
AcDbEntity
  8
0
  6
Continuous
 62
     0
100
AcDbLine
 10
27.0
 20
76.29999923706055
 30
0.0
 11
27.0
 21
74.0
 31
0.0
  0
LINE
  5
1E1
330
75
100
AcDbEntity
  8
0
  6
Continuous
 62
     0
100
AcDbLine
 10
27.0
 20
75.0
 30
0.0
 11
20.0
 21
75.0
 31
0.0
  0
LINE
  5
1E2
330
75
100
AcDbEntity
  8
0
  6
CENTER
 62
     4
100
AcDbLine
 10
23.5
 20
78.7310488194198
 30
0.0
 11
23.5
 21
74.0
 31
0.0
  0
LINE
  5
1E3
330
75
100
AcDbEntity
  8
0
  6
Continuous
 62
     0
100
AcDbLine
 10
20.0
 20
76.29999923706055
 30
0.0
 11
20.0
 21
74.0
 31
0.0
  0
LINE
  5
1E4
330
75
100
AcDbEntity
  8
0
  6
Continuous
 62
     0
100
AcDbLine
 10
-33.0
 20
-25.0
 30
0.0
 11
-30.0
 21
-25.0
 31
0.0
  0
LINE
  5
1E5
330
75
100
AcDbEntity
  8
0
  6
Continuous
 62
     0
100
AcDbLine
 10
-33.0
 20
25.0
 30
0.0
 11
-30.0
 21
25.0
 31
0.0
  0
LINE
  5
1E6
330
75
100
AcDbEntity
  8
0
  6
Continuous
 62
     0
100
AcDbLine
 10
-25.0
 20
33.0
 30
0.0
 11
-25.0
 21
30.0
 31
0.0
  0
LINE
  5
1E7
330
75
100
AcDbEntity
  8
0
  6
Continuous
 62
     0
100
AcDbLine
 10
25.0
 20
33.0
 30
0.0
 11
25.0
 21
30.0
 31
0.0
  0
LINE
  5
1E8
330
75
100
AcDbEntity
  8
0
  6
Continuous
 62
     0
100
AcDbLine
 10
30.0
 20
-25.0
 30
0.0
 11
33.0
 21
-25.0
 31
0.0
  0
LINE
  5
1E9
330
75
100
AcDbEntity
  8
0
  6
Continuous
 62
     0
100
AcDbLine
 10
-25.0
 20
-30.0
 30
0.0
 11
-25.0
 21
-33.0
 31
0.0
  0
LINE
  5
1EA
330
75
100
AcDbEntity
  8
0
  6
Continuous
 62
     0
100
AcDbLine
 10
25.0
 20
-30.0
 30
0.0
 11
25.0
 21
-33.0
 31
0.0
  0
LINE
  5
1EB
330
75
100
AcDbEntity
  8
0
  6
Continuous
 62
     0
100
AcDbLine
 10
30.0
 20
25.0
 30
0.0
 11
33.0
 21
25.0
 31
0.0
  0
ARC
  5
1EC
330
75
100
AcDbEntity
  8
0
  6
Continuous
 62
     0
100
AcDbCircle
 10
-64.99996948242188
 20
-35.0
 30
0.0
 40
11.0
100
AcDbArc
 50
179.9999776881997
 51
0.0
  0
CIRCLE
  5
1ED
330
75
100
AcDbEntity
  8
0
  6
Continuous
 62
     0
100
AcDbCircle
 10
-64.99996948242188
 20
-35.0
 30
0.0
 40
5.5
  0
ARC
  5
1EE
330
75
100
AcDbEntity
  8
0
  6
Continuous
 62
     0
100
AcDbCircle
 10
-64.99996948242188
 20
35.0
 30
0.0
 40
11.0
100
AcDbArc
 50
0.0
 51
179.9999640278213
  0
CIRCLE
  5
1EF
330
75
100
AcDbEntity
  8
0
  6
Continuous
 62
     0
100
AcDbCircle
 10
-64.99996948242188
 20
35.0
 30
0.0
 40
5.5
  0
ARC
  5
1F0
330
75
100
AcDbEntity
  8
0
  6
Continuous
 62
     0
100
AcDbCircle
 10
-45.49996948242188
 20
21.0
 30
0.0
 40
10.0
100
AcDbArc
 50
5.739178721337696
 51
148.2117172154484
  0
ARC
  5
1F1
330
75
100
AcDbEntity
  8
0
  6
Continuous
 62
     0
100
AcDbCircle
 10
-45.49996948242188
 20
21.0
 30
0.0
 40
4.0
100
AcDbArc
 50
14.47746021005579
 51
165.5224628366305
  0
ARC
  5
1F2
330
75
100
AcDbEntity
  8
0
  6
Continuous
 62
     0
100
AcDbCircle
 10
-45.49996948242188
 20
21.0
 30
0.0
 40
3.200000047683716
100
AcDbArc
 50
18.20991270465764
 51
161.7899966816503
  0
ARC
  5
1F3
330
75
100
AcDbEntity
  8
0
  6
Continuous
 62
     0
100
AcDbCircle
 10
-45.49996948242188
 20
-21.0
 30
0.0
 40
10.0
100
AcDbArc
 50
211.7882827845516
 51
354.2608212786623
  0
ARC
  5
1F4
330
75
100
AcDbEntity
  8
0
  6
Continuous
 62
     0
100
AcDbCircle
 10
-45.49996948242188
 20
-21.0
 30
0.0
 40
4.0
100
AcDbArc
 50
194.4774825218562
 51
345.5224851484309
  0
ARC
  5
1F5
330
75
100
AcDbEntity
  8
0
  6
Continuous
 62
     0
100
AcDbCircle
 10
-45.49996948242188
 20
-21.0
 30
0.0
 40
3.200000047683716
100
AcDbArc
 50
198.2099486768363
 51
341.790032653829
  0
ARC
  5
1F6
330
75
100
AcDbEntity
  8
0
  6
Continuous
 62
     0
100
AcDbCircle
 10
45.5
 20
-21.0
 30
0.0
 40
10.0
100
AcDbArc
 50
185.7391570637953
 51
328.2116917159245
  0
ARC
  5
1F7
330
75
100
AcDbEntity
  8
0
  6
Continuous
 62
     0
100
AcDbCircle
 10
45.5
 20
-21.0
 30
0.0
 40
4.0
100
AcDbArc
 50
194.4774278803428
 51
345.5224441672958
  0
ARC
  5
1F8
330
75
100
AcDbEntity
  8
0
  6
Continuous
 62
     0
100
AcDbCircle
 10
45.5
 20
-21.0
 30
0.0
 40
3.200000047683716
100
AcDbArc
 50
198.2098940353229
 51
341.7899780123157
  0
ARC
  5
1F9
330
75
100
AcDbEntity
  8
0
  6
Continuous
 62
     0
100
AcDbCircle
 10
45.5
 20
21.0
 30
0.0
 40
10.0
100
AcDbArc
 50
31.78830828407547
 51
174.2608429362047
  0
ARC
  5
1FA
330
75
100
AcDbEntity
  8
0
  6
Continuous
 62
     0
100
AcDbCircle
 10
45.5
 20
21.0
 30
0.0
 40
4.0
100
AcDbArc
 50
14.4775028987381
 51
165.5225174781439
  0
ARC
  5
1FB
330
75
100
AcDbEntity
  8
0
  6
Continuous
 62
     0
100
AcDbCircle
 10
45.5
 20
21.0
 30
0.0
 40
3.200000047683716
100
AcDbArc
 50
18.20997417636017
 51
161.7900513231637
  0
ARC
  5
1FC
330
75
100
AcDbEntity
  8
0
  6
Continuous
 62
     0
100
AcDbCircle
 10
65.0
 20
35.0
 30
0.0
 40
11.0
100
AcDbArc
 50
0.0
 51
155.3800417305118
  0
CIRCLE
  5
1FD
330
75
100
AcDbEntity
  8
0
  6
Continuous
 62
     0
100
AcDbCircle
 10
65.0
 20
35.0
 30
0.0
 40
5.5
  0
CIRCLE
  5
1FE
330
75
100
AcDbEntity
  8
0
  6
Continuous
 62
     0
100
AcDbCircle
 10
65.0
 20
-35.0
 30
0.0
 40
5.5
  0
ARC
  5
1FF
330
75
100
AcDbEntity
  8
0
  6
Continuous
 62
     0
100
AcDbCircle
 10
65.0
 20
-35.0
 30
0.0
 40
11.0
100
AcDbArc
 50
179.9999776881997
 51
0.0
  0
ARC
  5
200
330
75
100
AcDbEntity
  8
0
  6
Continuous
 62
     0
100
AcDbCircle
 10
-30.0
 20
-30.0
 30
0.0
 40
5.0
100
AcDbArc
 50
0.0
 51
90.00000000000001
  0
ARC
  5
201
330
75
100
AcDbEntity
  8
0
  6
Continuous
 62
     0
100
AcDbCircle
 10
-30.0
 20
-30.0
 30
0.0
 40
5.0
100
AcDbArc
 50
179.9999776881997
 51
270.000028004002
  0
CIRCLE
  5
202
330
75
100
AcDbEntity
  8
0
  6
Continuous
 62
     0
100
AcDbCircle
 10
-30.0
 20
-30.0
 30
0.0
 40
3.5
  0
ARC
  5
203
330
75
100
AcDbEntity
  8
0
  6
Continuous
 62
     0
100
AcDbCircle
 10
30.0
 20
-30.0
 30
0.0
 40
5.0
100
AcDbArc
 50
270.0000179860893
 51
0.0
  0
CIRCLE
  5
204
330
75
100
AcDbEntity
  8
0
  6
Continuous
 62
     0
100
AcDbCircle
 10
30.0
 20
-30.0
 30
0.0
 40
3.5
  0
ARC
  5
205
330
75
100
AcDbEntity
  8
0
  6
Continuous
 62
     0
100
AcDbCircle
 10
30.0
 20
-30.0
 30
0.0
 40
5.0
100
AcDbArc
 50
90.00000000000001
 51
180.0
  0
ARC
  5
206
330
75
100
AcDbEntity
  8
0
  6
Continuous
 62
     0
100
AcDbCircle
 10
30.0
 20
30.0
 30
0.0
 40
5.0
100
AcDbArc
 50
0.0
 51
89.99998201391067
  0
ARC
  5
207
330
75
100
AcDbEntity
  8
0
  6
Continuous
 62
     0
100
AcDbCircle
 10
-30.0
 20
30.0
 30
0.0
 40
5.0
100
AcDbArc
 50
270.0
 51
0.0
  0
ARC
  5
208
330
75
100
AcDbEntity
  8
0
  6
Continuous
 62
     0
100
AcDbCircle
 10
30.0
 20
30.0
 30
0.0
 40
5.0
100
AcDbArc
 50
180.0
 51
270.0
  0
CIRCLE
  5
209
330
75
100
AcDbEntity
  8
0
  6
Continuous
 62
     0
100
AcDbCircle
 10
30.0
 20
30.0
 30
0.0
 40
3.5
  0
CIRCLE
  5
20A
330
75
100
AcDbEntity
  8
0
  6
Continuous
 62
     0
100
AcDbCircle
 10
-30.0
 20
30.0
 30
0.0
 40
3.5
  0
ARC
  5
20B
330
75
100
AcDbEntity
  8
0
  6
Continuous
 62
     0
100
AcDbCircle
 10
-30.0
 20
30.0
 30
0.0
 40
5.0
100
AcDbArc
 50
89.99998201391067
 51
179.9999640278213
  0
ARC
  5
20C
330
75
100
AcDbEntity
  8
0
  6
Continuous
 62
     0
100
AcDbCircle
 10
-23.5
 20
72.23845762895952
 30
0.0
 40
5.361540845161571
100
AcDbArc
 50
49.24715152300847
 51
130.7528484769915
  0
ARC
  5
20D
330
75
100
AcDbEntity
  8
0
  6
Continuous
 62
     0
100
AcDbCircle
 10
23.5
 20
72.23845762895952
 30
0.0
 40
5.361540845161571
100
AcDbArc
 50
49.24715152300853
 51
130.7528484769916
  0
MTEXT
  5
20E
330
75
100
AcDbEntity
  8
0
 62
     0
100
AcDbMText
 10
-24.97222674936056
 20
-13.13207721710205
 30
0.0
 40
0.5
 41
0.0
 71
     7
 72
     1
  1
{\W1;BN-764S-10-G***}
 73
     1
 44
1.0
  0
ENDBLK
  5
77
330
75
100
AcDbEntity
  8
0
100
AcDbBlockEnd
  0
BLOCK
  5
79
330
78
100
AcDbEntity
  8
0
100
AcDbBlockBegin
  2
DTL0003
 70
     0
 10
0.0
 20
0.0
 30
0.0
  3
DTL0003
  1

  0
POINT
  5
20F
330
78
100
AcDbEntity
  8
0
 62
     0
100
AcDbPoint
 10
0.0
 20
0.0
 30
0.0
  0
LINE
  5
210
330
78
100
AcDbEntity
  8
0
  6
Continuous
 62
     0
100
AcDbLine
 10
-31.0
 20
-13.0
 30
0.0
 11
-31.0
 21
-36.0
 31
0.0
  0
LINE
  5
211
330
78
100
AcDbEntity
  8
0
  6
Continuous
 62
     0
100
AcDbLine
 10
-31.0
 20
-13.0
 30
0.0
 11
-22.51666259765625
 21
-13.0
 31
0.0
  0
LINE
  5
212
330
78
100
AcDbEntity
  8
0
  6
Continuous
 62
     0
100
AcDbLine
 10
-13.5
 20
-38.0
 30
0.0
 11
-28.5
 21
-38.0
 31
0.0
  0
LINE
  5
213
330
78
100
AcDbEntity
  8
0
  6
Continuous
 62
     0
100
AcDbLine
 10
-24.0
 20
35.0
 30
0.0
 11
24.00003051757812
 21
35.0
 31
0.0
  0
LINE
  5
214
330
78
100
AcDbEntity
  8
0
  6
CENTER
 62
     4
100
AcDbLine
 10
0.0
 20
173.9499969482422
 30
0.0
 11
0.0
 21
-68.27131652832031
 31
0.0
  0
LINE
  5
215
330
78
100
AcDbEntity
  8
0
  6
Continuous
 62
     0
100
AcDbLine
 10
14.5
 20
-38.0
 30
0.0
 11
14.5
 21
-43.5
 31
0.0
  0
LINE
  5
216
330
78
100
AcDbEntity
  8
0
  6
CENTER
 62
     4
100
AcDbLine
 10
-21.0
 20
-36.0
 30
0.0
 11
-21.0
 21
-45.62487030029297
 31
0.0
  0
LINE
  5
217
330
78
100
AcDbEntity
  8
0
  6
Continuous
 62
     0
100
AcDbLine
 10
-46.0
 20
-66.0
 30
0.0
 11
-24.0
 21
-66.0
 31
0.0
  0
LINE
  5
218
330
78
100
AcDbEntity
  8
0
  6
Continuous
 62
     0
100
AcDbLine
 10
14.5
 20
-43.5
 30
0.0
 11
27.5
 21
-43.5
 31
0.0
  0
LINE
  5
219
330
78
100
AcDbEntity
  8
0
  6
Continuous
 62
     0
100
AcDbLine
 10
13.5
 20
-38.0
 30
0.0
 11
28.5
 21
-38.0
 31
0.0
  0
LINE
  5
21A
330
78
100
AcDbEntity
  8
0
  6
Continuous
 62
     0
100
AcDbLine
 10
-46.0
 20
-54.0
 30
0.0
 11
46.0
 21
-54.0
 31
0.0
  0
LINE
  5
21B
330
78
100
AcDbEntity
  8
0
  6
Continuous
 62
     0
100
AcDbLine
 10
-35.0
 20
-63.0
 30
0.0
 11
35.0
 21
-63.0
 31
0.0
  0
LINE
  5
21C
330
78
100
AcDbEntity
  8
0
  6
CENTER
 62
     4
100
AcDbLine
 10
-35.0
 20
-52.46146681370421
 30
0.0
 11
-35.0
 21
-68.21220341043286
 31
0.0
  0
LINE
  5
21D
330
78
100
AcDbEntity
  8
0
  6
CENTER
 62
     4
100
AcDbLine
 10
35.0
 20
-52.05412017758191
 30
0.0
 11
35.0
 21
-68.4837678345144
 31
0.0
  0
LINE
  5
21E
330
78
100
AcDbEntity
  8
0
  6
CENTER
 62
     4
100
AcDbLine
 10
-45.41739654541016
 20
0.0
 30
0.0
 11
44.25872421264648
 21
0.0
 31
0.0
  0
LINE
  5
21F
330
78
100
AcDbEntity
  8
0
  6
Continuous
 62
     0
100
AcDbLine
 10
-14.5
 20
-43.5
 30
0.0
 11
-27.5
 21
-43.5
 31
0.0
  0
LINE
  5
220
330
78
100
AcDbEntity
  8
0
  6
Continuous
 62
     0
100
AcDbLine
 10
-14.5
 20
-38.0
 30
0.0
 11
-14.5
 21
-43.5
 31
0.0
  0
LINE
  5
221
330
78
100
AcDbEntity
  8
0
  6
Continuous
 62
     0
100
AcDbLine
 10
-27.5
 20
-38.0
 30
0.0
 11
-27.5
 21
-43.5
 31
0.0
  0
LINE
  5
222
330
78
100
AcDbEntity
  8
0
  6
Continuous
 62
     0
100
AcDbLine
 10
-46.0
 20
-54.0
 30
0.0
 11
-46.0
 21
-66.0
 31
0.0
  0
LINE
  5
223
330
78
100
AcDbEntity
  8
0
  6
CENTER
 62
     4
100
AcDbLine
 10
-15.0
 20
50.6793212890625
 30
0.0
 11
-15.0
 21
42.0
 31
0.0
  0
LINE
  5
224
330
78
100
AcDbEntity
  8
0
  6
CENTER
 62
     4
100
AcDbLine
 10
15.0
 20
51.0191535949707
 30
0.0
 11
15.0
 21
42.0
 31
0.0
  0
LINE
  5
225
330
78
100
AcDbEntity
  8
0
  6
Continuous
 62
     0
100
AcDbLine
 10
-24.0
 20
27.0
 30
0.0
 11
-11.0
 21
27.0
 31
0.0
  0
LINE
  5
226
330
78
100
AcDbEntity
  8
0
  6
Continuous
 62
     0
100
AcDbLine
 10
-24.0
 20
35.0
 30
0.0
 11
-24.0
 21
27.0
 31
0.0
  0
LINE
  5
227
330
78
100
AcDbEntity
  8
0
  6
Continuous
 62
     0
100
AcDbLine
 10
24.0
 20
35.0
 30
0.0
 11
24.0
 21
27.0
 31
0.0
  0
LINE
  5
228
330
78
100
AcDbEntity
  8
0
  6
Continuous
 62
     0
100
AcDbLine
 10
21.4949951171875
 20
49.5
 30
0.0
 11
21.4949951171875
 21
43.99996948242188
 31
0.0
  0
LINE
  5
229
330
78
100
AcDbEntity
  8
0
  6
Continuous
 62
     0
100
AcDbLine
 10
-14.0
 20
43.99996948242188
 30
0.0
 11
-22.5
 21
43.99996948242188
 31
0.0
  0
LINE
  5
22A
330
78
100
AcDbEntity
  8
0
  6
Continuous
 62
     0
100
AcDbLine
 10
-14.0
 20
49.5
 30
0.0
 11
-21.4949951171875
 21
49.5
 31
0.0
  0
LINE
  5
22B
330
78
100
AcDbEntity
  8
0
  6
Continuous
 62
     0
100
AcDbLine
 10
-15.0
 20
49.5
 30
0.0
 11
-15.0
 21
43.99996948242188
 31
0.0
  0
LINE
  5
22C
330
78
100
AcDbEntity
  8
0
  6
Continuous
 62
     0
100
AcDbLine
 10
-21.4949951171875
 20
49.5
 30
0.0
 11
-21.4949951171875
 21
43.99996948242188
 31
0.0
  0
LINE
  5
22D
330
78
100
AcDbEntity
  8
0
  6
Continuous
 62
     0
100
AcDbLine
 10
7.5
 20
43.99996948242188
 30
0.0
 11
22.5
 21
43.99996948242188
 31
0.0
  0
LINE
  5
22E
330
78
100
AcDbEntity
  8
0
  6
Continuous
 62
     0
100
AcDbLine
 10
-35.0
 20
77.0
 30
0.0
 11
35.0
 21
77.0
 31
0.0
  0
LINE
  5
22F
330
78
100
AcDbEntity
  8
0
  6
Continuous
 62
     0
100
AcDbLine
 10
10.0
 20
70.0
 30
0.0
 11
10.0
 21
62.5
 31
0.0
  0
LINE
  5
230
330
78
100
AcDbEntity
  8
0
  6
Continuous
 62
     0
100
AcDbLine
 10
-14.0
 20
52.5
 30
0.0
 11
-14.0
 21
42.0
 31
0.0
  0
LINE
  5
231
330
78
100
AcDbEntity
  8
0
  6
Continuous
 62
     0
100
AcDbLine
 10
14.0
 20
65.0
 30
0.0
 11
14.0
 21
49.5
 31
0.0
  0
LINE
  5
232
330
78
100
AcDbEntity
  8
0
  6
Continuous
 62
     0
100
AcDbLine
 10
24.0
 20
42.0
 30
0.0
 11
24.0
 21
35.0
 31
0.0
  0
LINE
  5
233
330
78
100
AcDbEntity
  8
0
  6
Continuous
 62
     0
100
AcDbLine
 10
-24.0
 20
42.0
 30
0.0
 11
-24.0
 21
35.0
 31
0.0
  0
LINE
  5
234
330
78
100
AcDbEntity
  8
0
  6
Continuous
 62
     0
100
AcDbLine
 10
-35.0
 20
52.5
 30
0.0
 11
-14.0
 21
52.5
 31
0.0
  0
LINE
  5
235
330
78
100
AcDbEntity
  8
0
  6
Continuous
 62
     0
100
AcDbLine
 10
13.0
 20
65.0
 30
0.0
 11
13.0
 21
70.0
 31
0.0
  0
LINE
  5
236
330
78
100
AcDbEntity
  8
0
  6
Continuous
 62
     0
100
AcDbLine
 10
23.0
 20
65.0
 30
0.0
 11
13.0
 21
65.0
 31
0.0
  0
LINE
  5
237
330
78
100
AcDbEntity
  8
0
  6
CENTER
 62
     4
100
AcDbLine
 10
-37.195556640625
 20
62.0
 30
0.0
 11
-25.72499847412109
 21
62.0
 31
0.0
  0
LINE
  5
238
330
78
100
AcDbEntity
  8
0
  6
Continuous
 62
     0
100
AcDbLine
 10
23.0
 20
65.0
 30
0.0
 11
23.0
 21
70.0
 31
0.0
  0
LINE
  5
239
330
78
100
AcDbEntity
  8
0
  6
Continuous
 62
     0
100
AcDbLine
 10
24.0
 20
42.0
 30
0.0
 11
-24.0
 21
42.0
 31
0.0
  0
LINE
  5
23A
330
78
100
AcDbEntity
  8
0
  6
Continuous
 62
     0
100
AcDbLine
 10
15.0
 20
48.5
 30
0.0
 11
15.0
 21
43.99996948242188
 31
0.0
  0
LINE
  5
23B
330
78
100
AcDbEntity
  8
0
  6
Continuous
 62
     0
100
AcDbLine
 10
21.4949951171875
 20
49.5
 30
0.0
 11
8.5050048828125
 21
49.5
 31
0.0
  0
LINE
  5
23C
330
78
100
AcDbEntity
  8
0
  6
Continuous
 62
     0
100
AcDbLine
 10
15.0
 20
49.5
 30
0.0
 11
15.0
 21
43.99996948242188
 31
0.0
  0
LINE
  5
23D
330
78
100
AcDbEntity
  8
0
  6
DASHED
 62
     0
100
AcDbLine
 10
-34.0
 20
67.69999694824219
 30
0.0
 11
-34.0
 21
56.29999923706055
 31
0.0
  0
LINE
  5
23E
330
78
100
AcDbEntity
  8
0
  6
DASHED
 62
     0
100
AcDbLine
 10
-35.00000403715384
 20
68.69998482306652
 30
0.0
 11
-34.00000295845005
 21
67.69998374436273
 31
0.0
  0
LINE
  5
23F
330
78
100
AcDbEntity
  8
0
  6
DASHED
 62
     0
100
AcDbLine
 10
-34.00004642708834
 20
67.70000088204807
 30
0.0
 11
-26.00001685447988
 21
67.69127420025814
 31
0.0
  0
LINE
  5
240
330
78
100
AcDbEntity
  8
0
  6
DASHED
 62
     0
100
AcDbLine
 10
-33.99995248777213
 20
56.29997762750023
 30
0.0
 11
-25.99999348702109
 21
56.30870423230819
 31
0.0
  0
LINE
  5
241
330
78
100
AcDbEntity
  8
0
  6
DASHED
 62
     0
100
AcDbLine
 10
-34.999960878781
 20
55.29995742092387
 30
0.0
 11
-33.99993822089077
 21
56.2999800788141
 31
0.0
  0
LINE
  5
242
330
78
100
AcDbEntity
  8
0
  6
Continuous
 62
     0
100
AcDbLine
 10
-10.0
 20
70.0
 30
0.0
 11
-10.0
 21
62.5
 31
0.0
  0
LINE
  5
243
330
78
100
AcDbEntity
  8
0
  6
Continuous
 62
     0
100
AcDbLine
 10
8.5050048828125
 20
49.5
 30
0.0
 11
8.5050048828125
 21
43.99996948242188
 31
0.0
  0
LINE
  5
244
330
78
100
AcDbEntity
  8
0
  6
Continuous
 62
     0
100
AcDbLine
 10
-25.7096194102603
 20
-53.99999928189614
 30
0.0
 11
-11.99999080374025
 21
-44.40041390226065
 31
0.0
  0
LINE
  5
245
330
78
100
AcDbEntity
  8
0
  6
Continuous
 62
     0
100
AcDbLine
 10
11.99998845850612
 20
-44.40042390232378
 30
0.0
 11
25.70961706502616
 21
-54.00000928195927
 31
0.0
  0
LINE
  5
246
330
78
100
AcDbEntity
  8
0
  6
CENTER
 62
     4
100
AcDbLine
 10
-42.64485168457031
 20
-43.0
 30
0.0
 11
-27.5
 21
-43.0
 31
0.0
  0
LINE
  5
247
330
78
100
AcDbEntity
  8
0
  6
Continuous
 62
     0
100
AcDbLine
 10
-40.0
 20
-43.0
 30
0.0
 11
-27.5
 21
-43.0
 31
0.0
  0
LINE
  5
248
330
78
100
AcDbEntity
  8
0
  6
Continuous
 62
     0
100
AcDbLine
 10
-14.5
 20
-43.0
 30
0.0
 11
-12.0
 21
-43.0
 31
0.0
  0
LINE
  5
249
330
78
100
AcDbEntity
  8
0
  6
CENTER
 62
     4
100
AcDbLine
 10
-9.1063232421875
 20
28.0
 30
0.0
 11
-0.86659421347057
 21
28.0
 31
0.0
  0
LINE
  5
24A
330
78
100
AcDbEntity
  8
0
  6
Continuous
 62
     0
100
AcDbLine
 10
-31.0
 20
-28.0
 30
0.0
 11
31.0
 21
-28.0
 31
0.0
  0
LINE
  5
24B
330
78
100
AcDbEntity
  8
0
  6
Continuous
 62
     0
100
AcDbLine
 10
11.0
 20
27.0
 30
0.0
 11
24.00003051757812
 21
27.0
 31
0.0
  0
LINE
  5
24C
330
78
100
AcDbEntity
  8
0
  6
CENTER
 62
     4
100
AcDbLine
 10
5.0
 20
32.0927734375
 30
0.0
 11
5.0
 21
23.93577766418457
 31
0.0
  0
LINE
  5
24D
330
78
100
AcDbEntity
  8
0
  6
CENTER
 62
     4
100
AcDbLine
 10
-5.0
 20
32.0523681640625
 30
0.0
 11
-5.0
 21
23.82903289794922
 31
0.0
  0
LINE
  5
24E
330
78
100
AcDbEntity
  8
0
  6
Continuous
 62
     0
100
AcDbLine
 10
-35.0
 20
70.0
 30
0.0
 11
-10.0
 21
70.0
 31
0.0
  0
LINE
  5
24F
330
78
100
AcDbEntity
  8
0
  6
Continuous
 62
     0
100
AcDbLine
 10
-23.0
 20
65.0
 30
0.0
 11
-13.0
 21
65.0
 31
0.0
  0
LINE
  5
250
330
78
100
AcDbEntity
  8
0
  6
Continuous
 62
     0
100
AcDbLine
 10
-13.0
 20
65.0
 30
0.0
 11
-13.0
 21
70.0
 31
0.0
  0
LINE
  5
251
330
78
100
AcDbEntity
  8
0
  6
Continuous
 62
     0
100
AcDbLine
 10
-23.0
 20
65.0
 30
0.0
 11
-23.0
 21
70.0
 31
0.0
  0
LINE
  5
252
330
78
100
AcDbEntity
  8
0
  6
Continuous
 62
     0
100
AcDbLine
 10
24.0
 20
-63.0
 30
0.0
 11
24.0
 21
-66.0
 31
0.0
  0
LINE
  5
253
330
78
100
AcDbEntity
  8
0
  6
Continuous
 62
     0
100
AcDbLine
 10
-11.0
 20
32.69938837348491
 30
0.0
 11
-11.0
 21
23.55843797877949
 31
0.0
  0
LINE
  5
254
330
78
100
AcDbEntity
  8
0
  6
Continuous
 62
     0
100
AcDbLine
 10
11.0
 20
32.69938837348491
 30
0.0
 11
11.0
 21
23.55843797877949
 31
0.0
  0
LINE
  5
255
330
78
100
AcDbEntity
  8
0
  6
Continuous
 62
     0
100
AcDbLine
 10
7.0
 20
55.35857009887695
 30
0.0
 11
7.0
 21
42.0
 31
0.0
  0
LINE
  5
256
330
78
100
AcDbEntity
  8
0
  6
Continuous
 62
     0
100
AcDbLine
 10
-7.0
 20
55.35857009887695
 30
0.0
 11
-7.0
 21
42.0
 31
0.0
  0
LINE
  5
257
330
78
100
AcDbEntity
  8
0
  6
Continuous
 62
     0
100
AcDbLine
 10
10.0
 20
70.0
 30
0.0
 11
35.0
 21
70.0
 31
0.0
  0
LINE
  5
258
330
78
100
AcDbEntity
  8
0
  6
CENTER
 62
     4
100
AcDbLine
 10
-4.1517333984375
 20
50.0
 30
0.0
 11
3.943153381347656
 21
50.0
 31
0.0
  0
LINE
  5
259
330
78
100
AcDbEntity
  8
0
  6
Continuous
 62
     0
100
AcDbLine
 10
24.0
 20
-66.0
 30
0.0
 11
46.0
 21
-66.0
 31
0.0
  0
LINE
  5
25A
330
78
100
AcDbEntity
  8
0
  6
Continuous
 62
     0
100
AcDbLine
 10
-24.0
 20
-63.0
 30
0.0
 11
-24.0
 21
-66.0
 31
0.0
  0
LINE
  5
25B
330
78
100
AcDbEntity
  8
0
  6
Continuous
 62
     0
100
AcDbLine
 10
27.5
 20
-38.0
 30
0.0
 11
27.5
 21
-43.5
 31
0.0
  0
LINE
  5
25C
330
78
100
AcDbEntity
  8
0
  6
Continuous
 62
     0
100
AcDbLine
 10
31.0
 20
-13.0
 30
0.0
 11
31.0
 21
-36.0
 31
0.0
  0
LINE
  5
25D
330
78
100
AcDbEntity
  8
0
  6
Continuous
 62
     0
100
AcDbLine
 10
46.0
 20
-54.0
 30
0.0
 11
46.0
 21
-66.0
 31
0.0
  0
LINE
  5
25E
330
78
100
AcDbEntity
  8
0
  6
Continuous
 62
     0
100
AcDbLine
 10
16.0
 20
-36.0
 30
0.0
 11
31.0
 21
-36.0
 31
0.0
  0
LINE
  5
25F
330
78
100
AcDbEntity
  8
0
  6
CENTER
 62
     4
100
AcDbLine
 10
21.0
 20
-36.0
 30
0.0
 11
21.0
 21
-45.62487030029297
 31
0.0
  0
LINE
  5
260
330
78
100
AcDbEntity
  8
0
  6
Continuous
 62
     0
100
AcDbLine
 10
22.51666069030762
 20
-13.0
 30
0.0
 11
31.0
 21
-13.0
 31
0.0
  0
LINE
  5
261
330
78
100
AcDbEntity
  8
0
  6
Continuous
 62
     0
100
AcDbLine
 10
-16.02145744801896
 20
9.249999366006413
 30
0.0
 11
0.000010891514021
 21
18.49999456068399
 31
0.0
  0
LINE
  5
262
330
78
100
AcDbEntity
  8
0
  6
Continuous
 62
     0
100
AcDbLine
 10
0.000009483515493
 20
18.49999284040139
 30
0.0
 11
16.02147815101267
 21
9.249990584379706
 31
0.0
  0
LINE
  5
263
330
78
100
AcDbEntity
  8
0
  6
Continuous
 62
     0
100
AcDbLine
 10
16.02146911621094
 20
9.249992370605469
 30
0.0
 11
16.02146911621094
 21
-9.250017166137695
 31
0.0
  0
LINE
  5
264
330
78
100
AcDbEntity
  8
0
  6
Continuous
 62
     0
100
AcDbLine
 10
16.02146480012611
 20
-9.250014525518356
 30
0.0
 11
-0.000006992541969
 21
-18.50000373918541
 31
0.0
  0
LINE
  5
265
330
78
100
AcDbEntity
  8
0
  6
Continuous
 62
     0
100
AcDbLine
 10
0.000003832393263
 20
-18.49998795343925
 30
0.0
 11
-16.02146402566376
 21
-9.249980480731526
 31
0.0
  0
LINE
  5
266
330
78
100
AcDbEntity
  8
0
  6
Continuous
 62
     0
100
AcDbLine
 10
-16.02146911621094
 20
-9.249988555908203
 30
0.0
 11
-16.02146911621094
 21
9.250008583068848
 31
0.0
  0
LINE
  5
267
330
78
100
AcDbEntity
  8
0
  6
Continuous
 62
     0
100
AcDbLine
 10
-12.0
 20
-43.0
 30
0.0
 11
-12.0
 21
-54.0
 31
0.0
  0
LINE
  5
268
330
78
100
AcDbEntity
  8
0
  6
Continuous
 62
     0
100
AcDbLine
 10
12.0
 20
-43.0
 30
0.0
 11
12.0
 21
-54.0
 31
0.0
  0
LINE
  5
269
330
78
100
AcDbEntity
  8
0
  6
Continuous
 62
     0
100
AcDbLine
 10
-40.0
 20
-28.5
 30
0.0
 11
-31.0
 21
-28.5
 31
0.0
  0
LINE
  5
26A
330
78
100
AcDbEntity
  8
0
  6
Continuous
 62
     0
100
AcDbLine
 10
-16.0
 20
-36.0
 30
0.0
 11
-31.0
 21
-36.0
 31
0.0
  0
LINE
  5
26B
330
78
100
AcDbEntity
  8
0
  6
Continuous
 62
     0
100
AcDbLine
 10
-40.0
 20
-28.5
 30
0.0
 11
-40.0
 21
-54.0
 31
0.0
  0
LINE
  5
26C
330
78
100
AcDbEntity
  8
0
  6
Continuous
 62
     0
100
AcDbLine
 10
-40.0
 20
0.0
 30
0.0
 11
-26.0
 21
0.0
 31
0.0
  0
LINE
  5
26D
330
78
100
AcDbEntity
  8
0
  6
Continuous
 62
     0
100
AcDbLine
 10
40.0
 20
0.0
 30
0.0
 11
26.0
 21
0.0
 31
0.0
  0
LINE
  5
26E
330
78
100
AcDbEntity
  8
0
  6
Continuous
 62
     0
100
AcDbLine
 10
-40.0
 20
14.5
 30
0.0
 11
-21.58123779296875
 21
14.5
 31
0.0
  0
LINE
  5
26F
330
78
100
AcDbEntity
  8
0
  6
Continuous
 62
     0
100
AcDbLine
 10
-40.0
 20
-14.5
 30
0.0
 11
-31.0
 21
-14.5
 31
0.0
  0
LINE
  5
270
330
78
100
AcDbEntity
  8
0
  6
Continuous
 62
     0
100
AcDbLine
 10
-40.0
 20
14.5
 30
0.0
 11
-40.0
 21
-14.5
 31
0.0
  0
LINE
  5
271
330
78
100
AcDbEntity
  8
0
  6
Continuous
 62
     0
100
AcDbLine
 10
40.0
 20
14.5
 30
0.0
 11
40.0
 21
-14.5
 31
0.0
  0
LINE
  5
272
330
78
100
AcDbEntity
  8
0
  6
Continuous
 62
     0
100
AcDbLine
 10
40.0
 20
-14.5
 30
0.0
 11
31.0
 21
-14.5
 31
0.0
  0
LINE
  5
273
330
78
100
AcDbEntity
  8
0
  6
Continuous
 62
     0
100
AcDbLine
 10
40.0
 20
14.5
 30
0.0
 11
21.58123779296875
 21
14.5
 31
0.0
  0
LINE
  5
274
330
78
100
AcDbEntity
  8
0
  6
Continuous
 62
     0
100
AcDbLine
 10
0.000001131797045
 20
-38.29999703142074
 30
0.0
 11
-4.070319725082136
 21
-40.64999603007708
 31
0.0
  0
LINE
  5
275
330
78
100
AcDbEntity
  8
0
  6
Continuous
 62
     0
100
AcDbLine
 10
-4.070320129394531
 20
-40.64999771118164
 30
0.0
 11
-4.070320129394531
 21
-45.34999847412109
 31
0.0
  0
LINE
  5
276
330
78
100
AcDbEntity
  8
0
  6
Continuous
 62
     0
100
AcDbLine
 10
-4.07031904897433
 20
-45.34999734074013
 30
0.0
 11
-0.000002415106792
 21
-47.69999983916779
 31
0.0
  0
LINE
  5
277
330
78
100
AcDbEntity
  8
0
  6
Continuous
 62
     0
100
AcDbLine
 10
-0.000003835225284
 20
-47.69999581895521
 30
0.0
 11
0.00308988545095
 21
-47.69999378465798
 31
0.0
  0
LINE
  5
278
330
78
100
AcDbEntity
  8
0
  6
Continuous
 62
     0
100
AcDbLine
 10
-0.000003706031716
 20
-47.69999816900229
 30
0.0
 11
4.070317654832969
 21
-45.35000004327536
 31
0.0
  0
LINE
  5
279
330
78
100
AcDbEntity
  8
0
  6
Continuous
 62
     0
100
AcDbLine
 10
4.070335865020752
 20
-45.34999847412109
 30
0.0
 11
4.070335865020752
 21
-40.64999771118164
 31
0.0
  0
LINE
  5
27A
330
78
100
AcDbEntity
  8
0
  6
Continuous
 62
     0
100
AcDbLine
 10
4.070319880189061
 20
-40.6500012245576
 30
0.0
 11
-0.000001065274965
 21
-38.29999856463741
 31
0.0
  0
LINE
  5
27B
330
78
100
AcDbEntity
  8
0
  6
CENTER
 62
     4
100
AcDbLine
 10
-10.61978149414062
 20
-43.0
 30
0.0
 11
10.49832153320312
 21
-43.0
 31
0.0
  0
LINE
  5
27C
330
78
100
AcDbEntity
  8
0
  6
DASHED
 62
     0
100
AcDbLine
 10
-40.00000000000001
 20
8.651453352256496
 30
0.0
 11
-31.0
 21
8.462930222726742
 31
0.0
  0
LINE
  5
27D
330
78
100
AcDbEntity
  8
0
  6
DASHED
 62
     0
100
AcDbLine
 10
-40.0
 20
7.851275761996315
 30
0.0
 11
-31.0
 21
7.662752632466561
 31
0.0
  0
LINE
  5
27E
330
78
100
AcDbEntity
  8
0
  6
DASHED
 62
     0
100
AcDbLine
 10
-40.0
 20
-7.851277669763356
 30
0.0
 11
-31.0
 21
-7.662754540233601
 31
0.0
  0
LINE
  5
27F
330
78
100
AcDbEntity
  8
0
  6
DASHED
 62
     0
100
AcDbLine
 10
-40.00000000000001
 20
-8.651454783081775
 30
0.0
 11
-31.0
 21
-8.46293165355202
 31
0.0
  0
LINE
  5
280
330
78
100
AcDbEntity
  8
0
  6
DASHED
 62
     0
100
AcDbLine
 10
-39.93047627147754
 20
-34.34999601074173
 30
0.0
 11
-33.0
 21
-34.49516879694513
 31
0.0
  0
LINE
  5
281
330
78
100
AcDbEntity
  8
0
  6
DASHED
 62
     0
100
AcDbLine
 10
-39.98729869155913
 20
-35.14898429483416
 30
0.0
 11
-33.0
 21
-35.29534734108881
 31
0.0
  0
LINE
  5
282
330
78
100
AcDbEntity
  8
0
  6
DASHED
 62
     0
100
AcDbLine
 10
-39.98721520506675
 20
-50.85100005328557
 30
0.0
 11
-32.99999999999999
 21
-50.70463875582367
 31
0.0
  0
LINE
  5
283
330
78
100
AcDbEntity
  8
0
  6
DASHED
 62
     0
100
AcDbLine
 10
-39.93056822257458
 20
-51.64999201227171
 30
0.0
 11
-33.0
 21
-51.50481729996735
 31
0.0
  0
LINE
  5
284
330
78
100
AcDbEntity
  8
0
  6
DASHED
 62
     0
100
AcDbLine
 10
40.0
 20
-7.851279577530391
 30
0.0
 11
31.0
 21
-7.662756448000636
 31
0.0
  0
LINE
  5
285
330
78
100
AcDbEntity
  8
0
  6
DASHED
 62
     0
100
AcDbLine
 10
40.00000000000001
 20
-8.651454783081775
 30
0.0
 11
31.0
 21
-8.46293165355202
 31
0.0
  0
LINE
  5
286
330
78
100
AcDbEntity
  8
0
  6
DASHED
 62
     0
100
AcDbLine
 10
40.0
 20
8.651452875314737
 30
0.0
 11
31.0
 21
8.462929745784983
 31
0.0
  0
LINE
  5
287
330
78
100
AcDbEntity
  8
0
  6
DASHED
 62
     0
100
AcDbLine
 10
40.00000000000001
 20
7.851278146705113
 30
0.0
 11
31.0
 21
7.662755017175359
 31
0.0
  0
LINE
  5
288
330
78
100
AcDbEntity
  8
0
  6
CENTER
 62
     4
100
AcDbLine
 10
-8.359514820218791
 20
62.0
 30
0.0
 11
8.48613201720572
 21
62.0
 31
0.0
  0
LINE
  5
289
330
78
100
AcDbEntity
  8
0
  6
DASHED
 62
     0
100
AcDbLine
 10
-29.5
 20
-54.0
 30
0.0
 11
-29.5
 21
-66.0
 31
0.0
  0
LINE
  5
28A
330
78
100
AcDbEntity
  8
0
  6
DASHED
 62
     0
100
AcDbLine
 10
-40.5
 20
-54.0
 30
0.0
 11
-40.5
 21
-66.0
 31
0.0
  0
LINE
  5
28B
330
78
100
AcDbEntity
  8
0
  6
DASHED
 62
     0
100
AcDbLine
 10
29.5
 20
-54.0
 30
0.0
 11
29.5
 21
-66.0
 31
0.0
  0
LINE
  5
28C
330
78
100
AcDbEntity
  8
0
  6
DASHED
 62
     0
100
AcDbLine
 10
40.5
 20
-54.0
 30
0.0
 11
40.5
 21
-66.0
 31
0.0
  0
LINE
  5
28D
330
78
100
AcDbEntity
  8
0
  6
Continuous
 62
     0
100
AcDbLine
 10
-21.0
 20
-38.0
 30
0.0
 11
-21.0
 21
-43.5
 31
0.0
  0
LINE
  5
28E
330
78
100
AcDbEntity
  8
0
  6
Continuous
 62
     0
100
AcDbLine
 10
21.0
 20
-38.0
 30
0.0
 11
21.0
 21
-43.5
 31
0.0
  0
LINE
  5
28F
330
78
100
AcDbEntity
  8
0
  6
Continuous
 62
     0
100
AcDbLine
 10
-35.0
 20
78.0
 30
0.0
 11
35.0
 21
78.0
 31
0.0
  0
LINE
  5
290
330
78
100
AcDbEntity
  8
0
  6
Continuous
 62
     0
100
AcDbLine
 10
-35.0
 20
91.0
 30
0.0
 11
-35.0
 21
52.5
 31
0.0
  0
LINE
  5
291
330
78
100
AcDbEntity
  8
0
  6
Continuous
 62
     0
100
AcDbLine
 10
-35.0
 20
91.0
 30
0.0
 11
35.0
 21
91.0
 31
0.0
  0
LINE
  5
292
330
78
100
AcDbEntity
  8
0
  6
Continuous
 62
     0
100
AcDbLine
 10
-33.5
 20
92.0
 30
0.0
 11
-26.5
 21
92.0
 31
0.0
  0
LINE
  5
293
330
78
100
AcDbEntity
  8
0
  6
Continuous
 62
     0
100
AcDbLine
 10
-33.5
 20
93.29999923706055
 30
0.0
 11
-33.5
 21
91.0
 31
0.0
  0
LINE
  5
294
330
78
100
AcDbEntity
  8
0
  6
Continuous
 62
     0
100
AcDbLine
 10
-33.0
 20
158.0
 30
0.0
 11
-33.0
 21
93.68211830843718
 31
0.0
  0
LINE
  5
295
330
78
100
AcDbEntity
  8
0
  6
CENTER
 62
     4
100
AcDbLine
 10
-30.0
 20
96.1836810269378
 30
0.0
 11
-30.0
 21
91.0
 31
0.0
  0
LINE
  5
296
330
78
100
AcDbEntity
  8
0
  6
Continuous
 62
     0
100
AcDbLine
 10
-26.5
 20
93.29999923706055
 30
0.0
 11
-26.5
 21
91.0
 31
0.0
  0
LINE
  5
297
330
78
100
AcDbEntity
  8
0
  6
Continuous
 62
     0
100
AcDbLine
 10
-25.0
 20
160.0
 30
0.0
 11
-25.0
 21
91.0
 31
0.0
  0
LINE
  5
298
330
78
100
AcDbEntity
  8
0
  6
Continuous
 62
     0
100
AcDbLine
 10
-23.0
 20
168.0
 30
0.0
 11
23.0
 21
168.0
 31
0.0
  0
LINE
  5
299
330
78
100
AcDbEntity
  8
0
  6
CENTER
 62
     4
100
AcDbLine
 10
-12.2308349609375
 20
138.0
 30
0.0
 11
11.89999961853027
 21
138.0
 31
0.0
  0
LINE
  5
29A
330
78
100
AcDbEntity
  8
0
  6
Continuous
 62
     0
100
AcDbLine
 10
33.0
 20
158.0
 30
0.0
 11
33.0
 21
93.68211830843718
 31
0.0
  0
LINE
  5
29B
330
78
100
AcDbEntity
  8
0
  6
Continuous
 62
     0
100
AcDbLine
 10
25.0
 20
160.0
 30
0.0
 11
25.0
 21
91.0
 31
0.0
  0
LINE
  5
29C
330
78
100
AcDbEntity
  8
0
  6
Continuous
 62
     0
100
AcDbLine
 10
35.0
 20
70.0
 30
0.0
 11
35.0
 21
91.0
 31
0.0
  0
LINE
  5
29D
330
78
100
AcDbEntity
  8
0
  6
Continuous
 62
     0
100
AcDbLine
 10
34.0
 20
99.0
 30
0.0
 11
34.0
 21
157.0
 31
0.0
  0
LINE
  5
29E
330
78
100
AcDbEntity
  8
0
  6
Continuous
 62
     0
100
AcDbLine
 10
33.99999618530273
 20
104.0
 30
0.0
 11
32.99999618530273
 21
104.0
 31
0.0
  0
LINE
  5
29F
330
78
100
AcDbEntity
  8
0
  6
Continuous
 62
     0
100
AcDbLine
 10
62.99999618530273
 20
99.0
 30
0.0
 11
34.0
 21
99.0
 31
0.0
  0
LINE
  5
2A0
330
78
100
AcDbEntity
  8
0
  6
Continuous
 62
     0
100
AcDbLine
 10
63.0
 20
97.99999237060547
 30
0.0
 11
63.0
 21
111.0
 31
0.0
  0
LINE
  5
2A1
330
78
100
AcDbEntity
  8
0
  6
Continuous
 62
     0
100
AcDbLine
 10
72.0
 20
98.0
 30
0.0
 11
62.99999618530273
 21
98.0
 31
0.0
  0
LINE
  5
2A2
330
78
100
AcDbEntity
  8
0
  6
Continuous
 62
     0
100
AcDbLine
 10
68.0
 20
97.99999237060547
 30
0.0
 11
68.0
 21
158.0
 31
0.0
  0
LINE
  5
2A3
330
78
100
AcDbEntity
  8
0
  6
Continuous
 62
     0
100
AcDbLine
 10
69.0
 20
97.99999237060547
 30
0.0
 11
69.0
 21
158.0
 31
0.0
  0
LINE
  5
2A4
330
78
100
AcDbEntity
  8
0
  6
Continuous
 62
     0
100
AcDbLine
 10
63.0
 20
111.0
 30
0.0
 11
51.0
 21
111.0
 31
0.0
  0
LINE
  5
2A5
330
78
100
AcDbEntity
  8
0
  6
CENTER
 62
     4
100
AcDbLine
 10
81.10639953613281
 20
128.0
 30
0.0
 11
33.0
 21
128.0
 31
0.0
  0
LINE
  5
2A6
330
78
100
AcDbEntity
  8
0
  6
CENTER
 62
     4
100
AcDbLine
 10
51.0
 20
141.6140734844443
 30
0.0
 11
51.0
 21
114.5988701186945
 31
0.0
  0
LINE
  5
2A7
330
78
100
AcDbEntity
  8
0
  6
Continuous
 62
     0
100
AcDbLine
 10
33.99999618530273
 20
152.0
 30
0.0
 11
32.99999618530273
 21
152.0
 31
0.0
  0
LINE
  5
2A8
330
78
100
AcDbEntity
  8
0
  6
Continuous
 62
     0
100
AcDbLine
 10
63.00000381469727
 20
157.0
 30
0.0
 11
34.0
 21
157.0
 31
0.0
  0
LINE
  5
2A9
330
78
100
AcDbEntity
  8
0
  6
Continuous
 62
     0
100
AcDbLine
 10
72.0
 20
158.0
 30
0.0
 11
63.00000381469727
 21
158.0
 31
0.0
  0
LINE
  5
2AA
330
78
100
AcDbEntity
  8
0
  6
Continuous
 62
     0
100
AcDbLine
 10
63.0
 20
145.0
 30
0.0
 11
63.0
 21
158.0
 31
0.0
  0
LINE
  5
2AB
330
78
100
AcDbEntity
  8
0
  6
Continuous
 62
     0
100
AcDbLine
 10
63.0
 20
145.0
 30
0.0
 11
51.0
 21
145.0
 31
0.0
  0
LINE
  5
2AC
330
78
100
AcDbEntity
  8
0
  6
Continuous
 62
     0
100
AcDbLine
 10
72.0
 20
97.99999237060547
 30
0.0
 11
72.0
 21
158.0
 31
0.0
  0
LINE
  5
2AD
330
78
100
AcDbEntity
  8
0
  6
Continuous
 62
     0
100
AcDbLine
 10
73.0
 20
148.0
 30
0.0
 11
73.0
 21
155.0
 31
0.0
  0
LINE
  5
2AE
330
78
100
AcDbEntity
  8
0
  6
CENTER
 62
     4
100
AcDbLine
 10
76.6156468572839
 20
151.5
 30
0.0
 11
72.0
 21
151.5
 31
0.0
  0
LINE
  5
2AF
330
78
100
AcDbEntity
  8
0
  6
Continuous
 62
     0
100
AcDbLine
 10
74.29999923706055
 20
148.0
 30
0.0
 11
72.0
 21
148.0
 31
0.0
  0
LINE
  5
2B0
330
78
100
AcDbEntity
  8
0
  6
Continuous
 62
     0
100
AcDbLine
 10
79.0
 20
154.0
 30
0.0
 11
74.98146513837123
 21
154.0
 31
0.0
  0
LINE
  5
2B1
330
78
100
AcDbEntity
  8
0
  6
Continuous
 62
     0
100
AcDbLine
 10
74.29999923706055
 20
155.0
 30
0.0
 11
72.0
 21
155.0
 31
0.0
  0
LINE
  5
2B2
330
78
100
AcDbEntity
  8
0
  6
Continuous
 62
     0
100
AcDbLine
 10
79.0
 20
102.0
 30
0.0
 11
79.0
 21
154.0
 31
0.0
  0
LINE
  5
2B3
330
78
100
AcDbEntity
  8
0
  6
Continuous
 62
     0
100
AcDbLine
 10
79.0
 20
145.5
 30
0.0
 11
72.0
 21
145.5
 31
0.0
  0
LINE
  5
2B4
330
78
100
AcDbEntity
  8
0
  6
Continuous
 62
     0
100
AcDbLine
 10
79.0
 20
110.5
 30
0.0
 11
72.0
 21
110.5
 31
0.0
  0
LINE
  5
2B5
330
78
100
AcDbEntity
  8
0
  6
Continuous
 62
     0
100
AcDbLine
 10
79.0
 20
102.0
 30
0.0
 11
74.98146513837123
 21
102.0
 31
0.0
  0
LINE
  5
2B6
330
78
100
AcDbEntity
  8
0
  6
Continuous
 62
     0
100
AcDbLine
 10
73.0
 20
108.0
 30
0.0
 11
73.0
 21
101.0
 31
0.0
  0
LINE
  5
2B7
330
78
100
AcDbEntity
  8
0
  6
CENTER
 62
     4
100
AcDbLine
 10
76.6156468572839
 20
104.5
 30
0.0
 11
72.0
 21
104.5
 31
0.0
  0
LINE
  5
2B8
330
78
100
AcDbEntity
  8
0
  6
Continuous
 62
     0
100
AcDbLine
 10
74.29999923706055
 20
108.0
 30
0.0
 11
72.0
 21
108.0
 31
0.0
  0
LINE
  5
2B9
330
78
100
AcDbEntity
  8
0
  6
Continuous
 62
     0
100
AcDbLine
 10
74.29999923706055
 20
101.0
 30
0.0
 11
72.0
 21
101.0
 31
0.0
  0
LINE
  5
2BA
330
78
100
AcDbEntity
  8
0
  6
Continuous
 62
     0
100
AcDbLine
 10
33.5
 20
92.0
 30
0.0
 11
26.5
 21
92.0
 31
0.0
  0
LINE
  5
2BB
330
78
100
AcDbEntity
  8
0
  6
Continuous
 62
     0
100
AcDbLine
 10
33.5
 20
93.29999923706055
 30
0.0
 11
33.5
 21
91.0
 31
0.0
  0
LINE
  5
2BC
330
78
100
AcDbEntity
  8
0
  6
CENTER
 62
     4
100
AcDbLine
 10
30.0
 20
96.1836810269378
 30
0.0
 11
30.0
 21
91.0
 31
0.0
  0
LINE
  5
2BD
330
78
100
AcDbEntity
  8
0
  6
Continuous
 62
     0
100
AcDbLine
 10
26.5
 20
93.29999923706055
 30
0.0
 11
26.5
 21
91.0
 31
0.0
  0
LINE
  5
2BE
330
78
100
AcDbEntity
  8
0
  6
Continuous
 62
     0
100
AcDbLine
 10
-22.5
 20
43.99996948242188
 30
0.0
 11
-22.5
 21
42.0
 31
0.0
  0
LINE
  5
2BF
330
78
100
AcDbEntity
  8
0
  6
Continuous
 62
     0
100
AcDbLine
 10
22.5
 20
43.99996948242188
 30
0.0
 11
22.5
 21
42.0
 31
0.0
  0
LINE
  5
2C0
330
78
100
AcDbEntity
  8
0
  6
Continuous
 62
     0
100
AcDbLine
 10
7.5
 20
43.99996948242188
 30
0.0
 11
7.5
 21
42.0
 31
0.0
  0
LINE
  5
2C1
330
78
100
AcDbEntity
  8
0
  6
CENTER
 62
     4
100
AcDbLine
 10
0.941740991445713
 20
28.0
 30
0.0
 11
9.156970977783203
 21
28.0
 31
0.0
  0
LINE
  5
2C2
330
78
100
AcDbEntity
  8
0
  6
Continuous
 62
     0
100
AcDbLine
 10
-28.5
 20
-36.0
 30
0.0
 11
-28.5
 21
-38.0
 31
0.0
  0
LINE
  5
2C3
330
78
100
AcDbEntity
  8
0
  6
Continuous
 62
     0
100
AcDbLine
 10
-13.5
 20
-36.54564394268214
 30
0.0
 11
-13.5
 21
-38.0
 31
0.0
  0
LINE
  5
2C4
330
78
100
AcDbEntity
  8
0
  6
Continuous
 62
     0
100
AcDbLine
 10
13.5
 20
-36.54564394268214
 30
0.0
 11
13.5
 21
-38.0
 31
0.0
  0
LINE
  5
2C5
330
78
100
AcDbEntity
  8
0
  6
Continuous
 62
     0
100
AcDbLine
 10
28.5
 20
-36.0
 30
0.0
 11
28.5
 21
-38.0
 31
0.0
  0
CIRCLE
  5
2C6
330
78
100
AcDbEntity
  8
0
  6
Continuous
 62
     0
100
AcDbCircle
 10
-5.0
 20
28.0
 30
0.0
 40
2.799999952316284
  0
CIRCLE
  5
2C7
330
78
100
AcDbEntity
  8
0
  6
Continuous
 62
     0
100
AcDbCircle
 10
5.0
 20
28.0
 30
0.0
 40
2.799999952316284
  0
ARC
  5
2C8
330
78
100
AcDbEntity
  8
0
  6
Continuous
 62
     0
100
AcDbCircle
 10
0.0
 20
62.5
 30
0.0
 40
10.0
100
AcDbArc
 50
179.9999776881997
 51
0.0
  0
CIRCLE
  5
2C9
330
78
100
AcDbEntity
  8
0
  6
Continuous
 62
     0
100
AcDbCircle
 10
0.006179809570312
 20
62.0
 30
0.0
 40
5.66290283203125
  0
CIRCLE
  5
2CA
330
78
100
AcDbEntity
  8
0
  6
Continuous
 62
     0
100
AcDbCircle
 10
0.0
 20
61.99993896484375
 30
0.0
 40
6.700019836425781
  0
ARC
  5
2CB
330
78
100
AcDbEntity
  8
0
  6
Continuous
 62
     0
100
AcDbCircle
 10
0.0
 20
0.0
 30
0.0
 40
26.0
100
AcDbArc
 50
115.0289994876151
 51
64.97100051238493
  0
ARC
  5
2CC
330
78
100
AcDbEntity
  8
0
  6
Continuous
 62
     0
100
AcDbCircle
 10
0.0
 20
0.0
 30
0.0
 40
34.5
100
AcDbArc
 50
71.40717745057336
 51
108.5928225494266
  0
CIRCLE
  5
2CD
330
78
100
AcDbEntity
  8
0
  6
Continuous
 62
     0
100
AcDbCircle
 10
0.0
 20
50.0
 30
0.0
 40
1.850000023841858
  0
CIRCLE
  5
2CE
330
78
100
AcDbEntity
  8
0
  6
Continuous
 62
     0
100
AcDbCircle
 10
0.0
 20
-43.0
 30
0.0
 40
8.649999618530273
  0
CIRCLE
  5
2CF
330
78
100
AcDbEntity
  8
0
  6
Continuous
 62
     0
100
AcDbCircle
 10
0.0
 20
0.0
 30
0.0
 40
23.35000038146973
  0
ARC
  5
2D0
330
78
100
AcDbEntity
  8
0
  6
Continuous
 62
     0
100
AcDbCircle
 10
0.0
 20
-43.0
 30
0.0
 40
12.0
100
AcDbArc
 50
0.0
 51
179.9999640278213
  0
CIRCLE
  5
2D1
330
78
100
AcDbEntity
  8
0
  6
Continuous
 62
     0
100
AcDbCircle
 10
0.0
 20
-43.0
 30
0.0
 40
7.799999713897705
  0
ARC
  5
2D2
330
78
100
AcDbEntity
  8
0
  6
Continuous
 62
     0
100
AcDbCircle
 10
16.0
 20
-42.0
 30
0.0
 40
6.0
100
AcDbArc
 50
89.99998201391067
 51
144.3388087107544
  0
ARC
  5
2D3
330
78
100
AcDbEntity
  8
0
  6
Continuous
 62
     0
100
AcDbCircle
 10
-16.0
 20
-42.0
 30
0.0
 40
6.0
100
AcDbArc
 50
35.66115531706694
 51
89.99998201391067
  0
ARC
  5
2D4
330
78
100
AcDbEntity
  8
0
  6
Continuous
 62
     0
100
AcDbCircle
 10
-23.0
 20
158.0
 30
0.0
 40
10.0
100
AcDbArc
 50
89.99998201391067
 51
179.9999640278213
  0
ARC
  5
2D5
330
78
100
AcDbEntity
  8
0
  6
Continuous
 62
     0
100
AcDbCircle
 10
-17.0
 20
160.0
 30
0.0
 40
8.0
100
AcDbArc
 50
89.99998201391067
 51
179.9999640278213
  0
CIRCLE
  5
2D6
330
78
100
AcDbEntity
  8
0
  6
Continuous
 62
     0
100
AcDbCircle
 10
0.0
 20
138.0
 30
0.0
 40
9.0
  0
CIRCLE
  5
2D7
330
78
100
AcDbEntity
  8
0
  6
Continuous
 62
     0
100
AcDbCircle
 10
0.0
 20
138.0
 30
0.0
 40
6.0
  0
ARC
  5
2D8
330
78
100
AcDbEntity
  8
0
  6
Continuous
 62
     0
100
AcDbCircle
 10
17.0
 20
160.0
 30
0.0
 40
8.0
100
AcDbArc
 50
0.0
 51
89.99998201391067
  0
ARC
  5
2D9
330
78
100
AcDbEntity
  8
0
  6
Continuous
 62
     0
100
AcDbCircle
 10
23.0
 20
158.0
 30
0.0
 40
10.0
100
AcDbArc
 50
0.0
 51
89.99998201391067
  0
CIRCLE
  5
2DA
330
78
100
AcDbEntity
  8
0
  6
Continuous
 62
     0
100
AcDbCircle
 10
51.0
 20
128.0
 30
0.0
 40
17.0
  0
CIRCLE
  5
2DB
330
78
100
AcDbEntity
  8
0
  6
Continuous
 62
     0
100
AcDbCircle
 10
51.0
 20
128.0
 30
0.0
 40
10.5
  0
CIRCLE
  5
2DC
330
78
100
AcDbEntity
  8
0
  6
Continuous
 62
     0
100
AcDbCircle
 10
51.0
 20
128.0
 30
0.0
 40
9.300000190734863
  0
ARC
  5
2DD
330
78
100
AcDbEntity
  8
0
  6
Continuous
 62
     0
100
AcDbCircle
 10
70.23845762895952
 20
151.5
 30
0.0
 40
5.361540845161571
100
AcDbArc
 50
319.2471515230085
 51
40.75284847699152
  0
ARC
  5
2DE
330
78
100
AcDbEntity
  8
0
  6
Continuous
 62
     0
100
AcDbCircle
 10
70.23845762895952
 20
104.5
 30
0.0
 40
5.361540845161571
100
AcDbArc
 50
319.2471515230085
 51
40.75284847699152
  0
ARC
  5
2DF
330
78
100
AcDbEntity
  8
0
  6
Continuous
 62
     0
100
AcDbCircle
 10
-30.0
 20
89.23845762895952
 30
0.0
 40
5.361540845161571
100
AcDbArc
 50
49.24715152300847
 51
130.7528484769915
  0
ARC
  5
2E0
330
78
100
AcDbEntity
  8
0
  6
Continuous
 62
     0
100
AcDbCircle
 10
30.0
 20
89.23845762895952
 30
0.0
 40
5.361540845161571
100
AcDbArc
 50
49.24715152300853
 51
130.7528484769916
  0
MTEXT
  5
2E1
330
78
100
AcDbEntity
  8
0
 62
     0
100
AcDbMText
 10
-18.7129284247756
 20
157.5674285888672
 30
0.0
 40
0.5
 41
0.0
 71
     7
 72
     1
  1
{\W1;BN-764S-10-G***}
 73
     1
 44
1.0
  0
ENDBLK
  5
7A
330
78
100
AcDbEntity
  8
0
100
AcDbBlockEnd
  0
BLOCK
  5
7C
330
7B
100
AcDbEntity
  8
0
100
AcDbBlockBegin
  2
DTL0004
 70
     0
 10
0.0
 20
0.0
 30
0.0
  3
DTL0004
  1

  0
POINT
  5
2E2
330
7B
100
AcDbEntity
  8
0
 62
     0
100
AcDbPoint
 10
0.0
 20
0.0
 30
0.0
  0
LINE
  5
2E3
330
7B
100
AcDbEntity
  8
0
  6
Continuous
 62
     0
100
AcDbLine
 10
-29.0
 20
42.0
 30
0.0
 11
-29.0
 21
27.0
 31
0.0
  0
LINE
  5
2E4
330
7B
100
AcDbEntity
  8
0
  6
Continuous
 62
     0
100
AcDbLine
 10
29.0
 20
42.0
 30
0.0
 11
29.0
 21
19.05255889892578
 31
0.0
  0
LINE
  5
2E5
330
7B
100
AcDbEntity
  8
0
  6
Continuous
 62
     0
100
AcDbLine
 10
29.0
 20
27.0
 30
0.0
 11
-29.0
 21
27.0
 31
0.0
  0
LINE
  5
2E6
330
7B
100
AcDbEntity
  8
0
  6
Continuous
 62
     0
100
AcDbLine
 10
11.0
 20
35.0
 30
0.0
 11
11.0
 21
19.05255889892578
 31
0.0
  0
LINE
  5
2E7
330
7B
100
AcDbEntity
  8
0
  6
Continuous
 62
     0
100
AcDbLine
 10
-11.0
 20
35.0
 30
0.0
 11
-11.0
 21
27.0
 31
0.0
  0
LINE
  5
2E8
330
7B
100
AcDbEntity
  8
0
  6
Continuous
 62
     0
100
AcDbLine
 10
27.0
 20
27.0
 30
0.0
 11
27.0
 21
19.05255889892578
 31
0.0
  0
LINE
  5
2E9
330
7B
100
AcDbEntity
  8
0
  6
Continuous
 62
     0
100
AcDbLine
 10
13.0
 20
27.0
 30
0.0
 11
13.0
 21
19.05255889892578
 31
0.0
  0
LINE
  5
2EA
330
7B
100
AcDbEntity
  8
0
  6
Continuous
 62
     0
100
AcDbLine
 10
27.0
 20
22.0
 30
0.0
 11
13.0
 21
22.0
 31
0.0
  0
LINE
  5
2EB
330
7B
100
AcDbEntity
  8
0
  6
Continuous
 62
     0
100
AcDbLine
 10
-8.0
 20
22.0
 30
0.0
 11
-13.0
 21
22.0
 31
0.0
  0
LINE
  5
2EC
330
7B
100
AcDbEntity
  8
0
  6
Continuous
 62
     0
100
AcDbLine
 10
-13.0
 20
27.0
 30
0.0
 11
-13.0
 21
19.05255889892578
 31
0.0
  0
LINE
  5
2ED
330
7B
100
AcDbEntity
  8
0
  6
Continuous
 62
     0
100
AcDbLine
 10
8.0
 20
27.0
 30
0.0
 11
8.0
 21
22.0
 31
0.0
  0
LINE
  5
2EE
330
7B
100
AcDbEntity
  8
0
  6
Continuous
 62
     0
100
AcDbLine
 10
-8.0
 20
27.0
 30
0.0
 11
-8.0
 21
22.0
 31
0.0
  0
LINE
  5
2EF
330
7B
100
AcDbEntity
  8
0
  6
Continuous
 62
     0
100
AcDbLine
 10
11.0
 20
22.0
 30
0.0
 11
8.0
 21
22.0
 31
0.0
  0
LINE
  5
2F0
330
7B
100
AcDbEntity
  8
0
  6
Continuous
 62
     0
100
AcDbLine
 10
29.0
 20
35.0
 30
0.0
 11
-29.0
 21
35.0
 31
0.0
  0
LINE
  5
2F1
330
7B
100
AcDbEntity
  8
0
  6
DASHED
 62
     0
100
AcDbLine
 10
34.00001679833167
 20
56.30000262996641
 30
0.0
 11
27.50000000000001
 21
56.50312815491427
 31
0.0
  0
LINE
  5
2F2
330
7B
100
AcDbEntity
  8
0
  6
DASHED
 62
     0
100
AcDbLine
 10
-33.99999415961802
 20
56.30001097054512
 30
0.0
 11
-27.50000000000001
 21
56.50313578803318
 31
0.0
  0
LINE
  5
2F3
330
7B
100
AcDbEntity
  8
0
  6
DASHED
 62
     0
100
AcDbLine
 10
-34.00002358994577
 20
67.69997996675964
 30
0.0
 11
-27.50000000000001
 21
67.49685422957384
 31
0.0
  0
LINE
  5
2F4
330
7B
100
AcDbEntity
  8
0
  6
Continuous
 62
     0
100
AcDbLine
 10
35.0
 20
52.5
 30
0.0
 11
20.0
 21
52.5
 31
0.0
  0
LINE
  5
2F5
330
7B
100
AcDbEntity
  8
0
  6
Continuous
 62
     0
100
AcDbLine
 10
24.0
 20
70.0
 30
0.0
 11
24.0
 21
65.0
 31
0.0
  0
LINE
  5
2F6
330
7B
100
AcDbEntity
  8
0
  6
DASHED
 62
     0
100
AcDbLine
 10
34.99998380666656
 20
68.69997268477414
 30
0.0
 11
33.99999351755599
 21
67.69998239566357
 31
0.0
  0
LINE
  5
2F7
330
7B
100
AcDbEntity
  8
0
  6
DASHED
 62
     0
100
AcDbLine
 10
-35.00001482674706
 20
68.69998482306652
 30
0.0
 11
-34.00002453763649
 21
67.69999453395594
 31
0.0
  0
LINE
  5
2F8
330
7B
100
AcDbEntity
  8
0
  6
Continuous
 62
     0
100
AcDbLine
 10
-24.0
 20
65.0
 30
0.0
 11
-24.0
 21
70.0
 31
0.0
  0
LINE
  5
2F9
330
7B
100
AcDbEntity
  8
0
  6
DASHED
 62
     0
100
AcDbLine
 10
33.99998498498143
 20
67.69999402659234
 30
0.0
 11
27.50000000000001
 21
67.49686949581167
 31
0.0
  0
LINE
  5
2FA
330
7B
100
AcDbEntity
  8
0
  6
DASHED
 62
     0
100
AcDbLine
 10
34.0
 20
67.69999694824219
 30
0.0
 11
34.0
 21
56.30000305175781
 31
0.0
  0
LINE
  5
2FB
330
7B
100
AcDbEntity
  8
0
  6
DASHED
 62
     0
100
AcDbLine
 10
-35.00000403715387
 20
55.29998978970353
 30
0.0
 11
-34.00000295845008
 21
56.29999086840732
 31
0.0
  0
LINE
  5
2FC
330
7B
100
AcDbEntity
  8
0
  6
Continuous
 62
     0
100
AcDbLine
 10
-26.0
 20
55.35857009887695
 30
0.0
 11
-26.0
 21
49.5
 31
0.0
  0
LINE
  5
2FD
330
7B
100
AcDbEntity
  8
0
  6
Continuous
 62
     0
100
AcDbLine
 10
20.0
 20
53.83974456787109
 30
0.0
 11
20.0
 21
42.0
 31
0.0
  0
LINE
  5
2FE
330
7B
100
AcDbEntity
  8
0
  6
Continuous
 62
     0
100
AcDbLine
 10
29.0
 20
42.0
 30
0.0
 11
-29.0
 21
42.0
 31
0.0
  0
LINE
  5
2FF
330
7B
100
AcDbEntity
  8
0
  6
CENTER
 62
     4
100
AcDbLine
 10
37.21603393554688
 20
62.0
 30
0.0
 11
27.5
 21
62.0
 31
0.0
  0
LINE
  5
300
330
7B
100
AcDbEntity
  8
0
  6
DASHED
 62
     0
100
AcDbLine
 10
-34.0
 20
56.30000305175781
 30
0.0
 11
-34.0
 21
67.69999694824219
 31
0.0
  0
LINE
  5
301
330
7B
100
AcDbEntity
  8
0
  6
DASHED
 62
     0
100
AcDbLine
 10
34.99994334569202
 20
55.29998034880947
 30
0.0
 11
33.99994226698823
 21
56.29998142751326
 31
0.0
  0
LINE
  5
302
330
7B
100
AcDbEntity
  8
0
  6
CENTER
 62
     4
100
AcDbLine
 10
-27.5
 20
62.0
 30
0.0
 11
-37.50421142578125
 21
62.0
 31
0.0
  0
LINE
  5
303
330
7B
100
AcDbEntity
  8
0
  6
Continuous
 62
     0
100
AcDbLine
 10
20.0
 20
49.5
 30
0.0
 11
27.5
 21
49.5
 31
0.0
  0
LINE
  5
304
330
7B
100
AcDbEntity
  8
0
  6
Continuous
 62
     0
100
AcDbLine
 10
20.0
 20
44.0
 30
0.0
 11
27.5
 21
44.0
 31
0.0
  0
LINE
  5
305
330
7B
100
AcDbEntity
  8
0
  6
Continuous
 62
     0
100
AcDbLine
 10
27.5
 20
49.5
 30
0.0
 11
27.5
 21
42.0
 31
0.0
  0
LINE
  5
306
330
7B
100
AcDbEntity
  8
0
  6
Continuous
 62
     0
100
AcDbLine
 10
24.33010864257812
 20
49.5
 30
0.0
 11
24.33010864257812
 21
44.0
 31
0.0
  0
LINE
  5
307
330
7B
100
AcDbEntity
  8
0
  6
Continuous
 62
     0
100
AcDbLine
 10
35.0
 20
70.0
 30
0.0
 11
-35.0
 21
70.0
 31
0.0
  0
LINE
  5
308
330
7B
100
AcDbEntity
  8
0
  6
Continuous
 62
     0
100
AcDbLine
 10
-27.5
 20
49.5
 30
0.0
 11
-27.5
 21
42.0
 31
0.0
  0
LINE
  5
309
330
7B
100
AcDbEntity
  8
0
  6
Continuous
 62
     0
100
AcDbLine
 10
-15.66989135742188
 20
49.5
 30
0.0
 11
-15.66989135742188
 21
44.0
 31
0.0
  0
LINE
  5
30A
330
7B
100
AcDbEntity
  8
0
  6
CENTER
 62
     4
100
AcDbLine
 10
0.0
 20
166.9499969482422
 30
0.0
 11
0.0
 21
-70.4000015258789
 31
0.0
  0
LINE
  5
30B
330
7B
100
AcDbEntity
  8
0
  6
Continuous
 62
     0
100
AcDbLine
 10
24.0
 20
65.0
 30
0.0
 11
-24.0
 21
65.0
 31
0.0
  0
LINE
  5
30C
330
7B
100
AcDbEntity
  8
0
  6
Continuous
 62
     0
100
AcDbLine
 10
-11.46987915039062
 20
55.35855102539062
 30
0.0
 11
-26.0
 21
55.35855102539062
 31
0.0
  0
LINE
  5
30D
330
7B
100
AcDbEntity
  8
0
  6
Continuous
 62
     0
100
AcDbLine
 10
-26.0
 20
52.5
 30
0.0
 11
-35.0
 21
52.5
 31
0.0
  0
LINE
  5
30E
330
7B
100
AcDbEntity
  8
0
  6
Continuous
 62
     0
100
AcDbLine
 10
20.0
 20
53.83975219726562
 30
0.0
 11
12.34677124023438
 21
53.83975219726562
 31
0.0
  0
LINE
  5
30F
330
7B
100
AcDbEntity
  8
0
  6
Continuous
 62
     0
100
AcDbLine
 10
12.34677124023438
 20
53.83974456787109
 30
0.0
 11
12.34677124023438
 21
42.0
 31
0.0
  0
LINE
  5
310
330
7B
100
AcDbEntity
  8
0
  6
Continuous
 62
     0
100
AcDbLine
 10
-11.46987915039062
 20
55.35857009887695
 30
0.0
 11
-11.46987915039062
 21
42.0
 31
0.0
  0
LINE
  5
311
330
7B
100
AcDbEntity
  8
0
  6
Continuous
 62
     0
100
AcDbLine
 10
55.5
 20
-28.0
 30
0.0
 11
35.5
 21
-28.0
 31
0.0
  0
LINE
  5
312
330
7B
100
AcDbEntity
  8
0
  6
Continuous
 62
     0
100
AcDbLine
 10
76.0
 20
-66.0
 30
0.0
 11
54.0
 21
-66.0
 31
0.0
  0
LINE
  5
313
330
7B
100
AcDbEntity
  8
0
  6
CENTER
 62
     4
100
AcDbLine
 10
-65.0
 20
-51.20898818969727
 30
0.0
 11
-65.0
 21
-69.02591100780297
 31
0.0
  0
LINE
  5
314
330
7B
100
AcDbEntity
  8
0
  6
CENTER
 62
     4
100
AcDbLine
 10
64.99996948242188
 20
-51.0216064453125
 30
0.0
 11
64.99996948242188
 21
-68.84879726586786
 31
0.0
  0
LINE
  5
315
330
7B
100
AcDbEntity
  8
0
  6
Continuous
 62
     0
100
AcDbLine
 10
75.99996948242188
 20
-54.0
 30
0.0
 11
75.99996948242188
 21
-66.0
 31
0.0
  0
LINE
  5
316
330
7B
100
AcDbEntity
  8
0
  6
Continuous
 62
     0
100
AcDbLine
 10
-76.0
 20
-54.0
 30
0.0
 11
-76.0
 21
-66.0
 31
0.0
  0
LINE
  5
317
330
7B
100
AcDbEntity
  8
0
  6
Continuous
 62
     0
100
AcDbLine
 10
76.0
 20
-63.0
 30
0.0
 11
-76.0
 21
-63.0
 31
0.0
  0
LINE
  5
318
330
7B
100
AcDbEntity
  8
0
  6
Continuous
 62
     0
100
AcDbLine
 10
53.99996948242188
 20
-54.0
 30
0.0
 11
53.99996948242188
 21
-66.0
 31
0.0
  0
LINE
  5
319
330
7B
100
AcDbEntity
  8
0
  6
Continuous
 62
     0
100
AcDbLine
 10
-54.0
 20
-54.0
 30
0.0
 11
-54.0
 21
-66.0
 31
0.0
  0
LINE
  5
31A
330
7B
100
AcDbEntity
  8
0
  6
Continuous
 62
     0
100
AcDbLine
 10
-54.0
 20
-66.0
 30
0.0
 11
-76.0
 21
-66.0
 31
0.0
  0
LINE
  5
31B
330
7B
100
AcDbEntity
  8
0
  6
Continuous
 62
     0
100
AcDbLine
 10
55.5
 20
-36.0
 30
0.0
 11
35.5
 21
-36.0
 31
0.0
  0
LINE
  5
31C
330
7B
100
AcDbEntity
  8
0
  6
Continuous
 62
     0
100
AcDbLine
 10
-35.5
 20
-36.0
 30
0.0
 11
-55.5
 21
-36.0
 31
0.0
  0
LINE
  5
31D
330
7B
100
AcDbEntity
  8
0
  6
Continuous
 62
     0
100
AcDbLine
 10
-35.5
 20
-28.0
 30
0.0
 11
-55.5
 21
-28.0
 31
0.0
  0
LINE
  5
31E
330
7B
100
AcDbEntity
  8
0
  6
Continuous
 62
     0
100
AcDbLine
 10
58.49996948242188
 20
-33.0
 30
0.0
 11
55.5
 21
-33.0
 31
0.0
  0
LINE
  5
31F
330
7B
100
AcDbEntity
  8
0
  6
Continuous
 62
     0
100
AcDbLine
 10
-38.0
 20
-38.0
 30
0.0
 11
-53.0
 21
-38.0
 31
0.0
  0
LINE
  5
320
330
7B
100
AcDbEntity
  8
0
  6
Continuous
 62
     0
100
AcDbLine
 10
-38.0
 20
-43.5
 30
0.0
 11
-53.0
 21
-43.5
 31
0.0
  0
LINE
  5
321
330
7B
100
AcDbEntity
  8
0
  6
Continuous
 62
     0
100
AcDbLine
 10
-38.0
 20
-36.0
 30
0.0
 11
-38.0
 21
-43.5
 31
0.0
  0
LINE
  5
322
330
7B
100
AcDbEntity
  8
0
  6
Continuous
 62
     0
100
AcDbLine
 10
-53.0
 20
-36.0
 30
0.0
 11
-53.0
 21
-43.5
 31
0.0
  0
LINE
  5
323
330
7B
100
AcDbEntity
  8
0
  6
Continuous
 62
     0
100
AcDbLine
 10
-49.25
 20
-38.0
 30
0.0
 11
-49.25
 21
-43.5
 31
0.0
  0
LINE
  5
324
330
7B
100
AcDbEntity
  8
0
  6
Continuous
 62
     0
100
AcDbLine
 10
-41.75
 20
-38.0
 30
0.0
 11
-41.75
 21
-43.5
 31
0.0
  0
LINE
  5
325
330
7B
100
AcDbEntity
  8
0
  6
CENTER
 62
     4
100
AcDbLine
 10
45.5
 20
-36.0
 30
0.0
 11
45.5
 21
-46.23414611816406
 31
0.0
  0
LINE
  5
326
330
7B
100
AcDbEntity
  8
0
  6
Continuous
 62
     0
100
AcDbLine
 10
52.99996948242188
 20
-38.0
 30
0.0
 11
38.0
 21
-38.0
 31
0.0
  0
LINE
  5
327
330
7B
100
AcDbEntity
  8
0
  6
Continuous
 62
     0
100
AcDbLine
 10
52.99996948242188
 20
-43.5
 30
0.0
 11
38.0
 21
-43.5
 31
0.0
  0
LINE
  5
328
330
7B
100
AcDbEntity
  8
0
  6
Continuous
 62
     0
100
AcDbLine
 10
52.99996948242188
 20
-36.0
 30
0.0
 11
52.99996948242188
 21
-43.5
 31
0.0
  0
LINE
  5
329
330
7B
100
AcDbEntity
  8
0
  6
Continuous
 62
     0
100
AcDbLine
 10
38.0
 20
-36.0
 30
0.0
 11
38.0
 21
-43.5
 31
0.0
  0
LINE
  5
32A
330
7B
100
AcDbEntity
  8
0
  6
Continuous
 62
     0
100
AcDbLine
 10
41.75
 20
-38.0
 30
0.0
 11
41.75
 21
-43.5
 31
0.0
  0
LINE
  5
32B
330
7B
100
AcDbEntity
  8
0
  6
Continuous
 62
     0
100
AcDbLine
 10
49.25
 20
-38.0
 30
0.0
 11
49.25
 21
-43.5
 31
0.0
  0
LINE
  5
32C
330
7B
100
AcDbEntity
  8
0
  6
Continuous
 62
     0
100
AcDbLine
 10
75.99996948242188
 20
-54.0
 30
0.0
 11
-76.0
 21
-54.0
 31
0.0
  0
LINE
  5
32D
330
7B
100
AcDbEntity
  8
0
  6
Continuous
 62
     0
100
AcDbLine
 10
35.5
 20
-33.0
 30
0.0
 11
-35.5
 21
-33.0
 31
0.0
  0
LINE
  5
32E
330
7B
100
AcDbEntity
  8
0
  6
Continuous
 62
     0
100
AcDbLine
 10
-64.5
 20
-31.0
 30
0.0
 11
-64.5
 21
-54.0
 31
0.0
  0
LINE
  5
32F
330
7B
100
AcDbEntity
  8
0
  6
Continuous
 62
     0
100
AcDbLine
 10
58.49996948242188
 20
-33.0
 30
0.0
 11
58.49996948242188
 21
-54.0
 31
0.0
  0
LINE
  5
330
330
7B
100
AcDbEntity
  8
0
  6
Continuous
 62
     0
100
AcDbLine
 10
-55.5
 20
-31.0
 30
0.0
 11
-64.5
 21
-31.0
 31
0.0
  0
LINE
  5
331
330
7B
100
AcDbEntity
  8
0
  6
Continuous
 62
     0
100
AcDbLine
 10
53.49996948242188
 20
-36.0
 30
0.0
 11
53.49996948242188
 21
-39.0
 31
0.0
  0
LINE
  5
332
330
7B
100
AcDbEntity
  8
0
  6
Continuous
 62
     0
100
AcDbLine
 10
37.5
 20
-36.0
 30
0.0
 11
37.5
 21
-39.0
 31
0.0
  0
LINE
  5
333
330
7B
100
AcDbEntity
  8
0
  6
Continuous
 62
     0
100
AcDbLine
 10
-37.5
 20
-36.0
 30
0.0
 11
-37.5
 21
-39.0
 31
0.0
  0
LINE
  5
334
330
7B
100
AcDbEntity
  8
0
  6
Continuous
 62
     0
100
AcDbLine
 10
-53.5
 20
-36.0
 30
0.0
 11
-53.5
 21
-39.0
 31
0.0
  0
LINE
  5
335
330
7B
100
AcDbEntity
  8
0
  6
CENTER
 62
     4
100
AcDbLine
 10
91.3499984741211
 20
0.0
 30
0.0
 11
-131.25
 21
0.0
 31
0.0
  0
LINE
  5
336
330
7B
100
AcDbEntity
  8
0
  6
Continuous
 62
     0
100
AcDbLine
 10
-29.0
 20
34.5
 30
0.0
 11
-112.0
 21
34.5
 31
0.0
  0
LINE
  5
337
330
7B
100
AcDbEntity
  8
0
  6
Continuous
 62
     0
100
AcDbLine
 10
-29.0
 20
32.69937133789062
 30
0.0
 11
-112.0
 21
32.69937133789062
 31
0.0
  0
LINE
  5
338
330
7B
100
AcDbEntity
  8
0
  6
Continuous
 62
     0
100
AcDbLine
 10
-13.0
 20
19.05255126953125
 30
0.0
 11
-54.0
 21
19.05255126953125
 31
0.0
  0
LINE
  5
339
330
7B
100
AcDbEntity
  8
0
  6
Continuous
 62
     0
100
AcDbLine
 10
85.99996948242188
 20
18.5
 30
0.0
 11
85.99996948242188
 21
-18.5
 31
0.0
  0
LINE
  5
33A
330
7B
100
AcDbEntity
  8
0
  6
Continuous
 62
     0
100
AcDbLine
 10
75.0
 20
18.5
 30
0.0
 11
85.99996948242188
 21
18.5
 31
0.0
  0
LINE
  5
33B
330
7B
100
AcDbEntity
  8
0
  6
Continuous
 62
     0
100
AcDbLine
 10
71.0
 20
23.35000610351562
 30
0.0
 11
75.0
 21
23.35000610351562
 31
0.0
  0
LINE
  5
33C
330
7B
100
AcDbEntity
  8
0
  6
Continuous
 62
     0
100
AcDbLine
 10
70.99996948242188
 20
26.0
 30
0.0
 11
70.99996948242188
 21
-26.0
 31
0.0
  0
LINE
  5
33D
330
7B
100
AcDbEntity
  8
0
  6
Continuous
 62
     0
100
AcDbLine
 10
65.99996948242188
 20
26.0
 30
0.0
 11
65.99996948242188
 21
-26.0
 31
0.0
  0
LINE
  5
33E
330
7B
100
AcDbEntity
  8
0
  6
Continuous
 62
     0
100
AcDbLine
 10
70.99996948242188
 20
26.0
 30
0.0
 11
65.99996948242188
 21
26.0
 31
0.0
  0
LINE
  5
33F
330
7B
100
AcDbEntity
  8
0
  6
Continuous
 62
     0
100
AcDbLine
 10
52.99996948242188
 20
25.0
 30
0.0
 11
52.99996948242188
 21
-13.0
 31
0.0
  0
LINE
  5
340
330
7B
100
AcDbEntity
  8
0
  6
Continuous
 62
     0
100
AcDbLine
 10
66.0
 20
25.0
 30
0.0
 11
53.0
 21
25.0
 31
0.0
  0
LINE
  5
341
330
7B
100
AcDbEntity
  8
0
  6
Continuous
 62
     0
100
AcDbLine
 10
74.99996948242188
 20
23.35000038146973
 30
0.0
 11
74.99996948242188
 21
-23.35000038146973
 31
0.0
  0
LINE
  5
342
330
7B
100
AcDbEntity
  8
0
  6
Continuous
 62
     0
100
AcDbLine
 10
75.0
 20
9.25
 30
0.0
 11
85.99996948242188
 21
9.25
 31
0.0
  0
LINE
  5
343
330
7B
100
AcDbEntity
  8
0
  6
Continuous
 62
     0
100
AcDbLine
 10
53.0
 20
22.0
 30
0.0
 11
29.0
 21
22.0
 31
0.0
  0
LINE
  5
344
330
7B
100
AcDbEntity
  8
0
  6
Continuous
 62
     0
100
AcDbLine
 10
55.49996948242188
 20
-13.0
 30
0.0
 11
55.49996948242188
 21
-39.0
 31
0.0
  0
LINE
  5
345
330
7B
100
AcDbEntity
  8
0
  6
Continuous
 62
     0
100
AcDbLine
 10
55.5
 20
-13.0
 30
0.0
 11
35.5
 21
-13.0
 31
0.0
  0
LINE
  5
346
330
7B
100
AcDbEntity
  8
0
  6
Continuous
 62
     0
100
AcDbLine
 10
35.5
 20
-13.0
 30
0.0
 11
35.5
 21
-39.0
 31
0.0
  0
LINE
  5
347
330
7B
100
AcDbEntity
  8
0
  6
Continuous
 62
     0
100
AcDbLine
 10
66.0
 20
-25.0
 30
0.0
 11
55.5
 21
-25.0
 31
0.0
  0
LINE
  5
348
330
7B
100
AcDbEntity
  8
0
  6
Continuous
 62
     0
100
AcDbLine
 10
70.99996948242188
 20
-26.0
 30
0.0
 11
65.99996948242188
 21
-26.0
 31
0.0
  0
LINE
  5
349
330
7B
100
AcDbEntity
  8
0
  6
Continuous
 62
     0
100
AcDbLine
 10
71.0
 20
-23.35000610351562
 30
0.0
 11
75.0
 21
-23.35000610351562
 31
0.0
  0
LINE
  5
34A
330
7B
100
AcDbEntity
  8
0
  6
Continuous
 62
     0
100
AcDbLine
 10
75.0
 20
-18.5
 30
0.0
 11
85.99996948242188
 21
-18.5
 31
0.0
  0
LINE
  5
34B
330
7B
100
AcDbEntity
  8
0
  6
Continuous
 62
     0
100
AcDbLine
 10
75.0
 20
-9.25
 30
0.0
 11
85.99996948242188
 21
-9.25
 31
0.0
  0
LINE
  5
34C
330
7B
100
AcDbEntity
  8
0
  6
Continuous
 62
     0
100
AcDbLine
 10
35.5
 20
-22.0
 30
0.0
 11
-35.5
 21
-22.0
 31
0.0
  0
LINE
  5
34D
330
7B
100
AcDbEntity
  8
0
  6
Continuous
 62
     0
100
AcDbLine
 10
-54.0
 20
23.0
 30
0.0
 11
-54.0
 21
-13.0
 31
0.0
  0
LINE
  5
34E
330
7B
100
AcDbEntity
  8
0
  6
Continuous
 62
     0
100
AcDbLine
 10
-54.0
 20
23.0
 30
0.0
 11
-94.0
 21
23.0
 31
0.0
  0
LINE
  5
34F
330
7B
100
AcDbEntity
  8
0
  6
Continuous
 62
     0
100
AcDbLine
 10
-35.5
 20
-13.0
 30
0.0
 11
-35.5
 21
-39.0
 31
0.0
  0
LINE
  5
350
330
7B
100
AcDbEntity
  8
0
  6
Continuous
 62
     0
100
AcDbLine
 10
-35.5
 20
-13.0
 30
0.0
 11
-55.5
 21
-13.0
 31
0.0
  0
LINE
  5
351
330
7B
100
AcDbEntity
  8
0
  6
Continuous
 62
     0
100
AcDbLine
 10
-55.5
 20
-13.0
 30
0.0
 11
-55.5
 21
-39.0
 31
0.0
  0
LINE
  5
352
330
7B
100
AcDbEntity
  8
0
  6
CENTER
 62
     4
100
AcDbLine
 10
-45.5
 20
-36.0
 30
0.0
 11
-45.5
 21
-45.4865117840067
 31
0.0
  0
LINE
  5
353
330
7B
100
AcDbEntity
  8
0
  6
Continuous
 62
     0
100
AcDbLine
 10
-55.5
 20
-23.0
 30
0.0
 11
-94.0
 21
-23.0
 31
0.0
  0
LINE
  5
354
330
7B
100
AcDbEntity
  8
0
  6
Continuous
 62
     0
100
AcDbLine
 10
-94.0
 20
25.0
 30
0.0
 11
-94.0
 21
-25.0
 31
0.0
  0
LINE
  5
355
330
7B
100
AcDbEntity
  8
0
  6
Continuous
 62
     0
100
AcDbLine
 10
-94.0
 20
25.0
 30
0.0
 11
-107.0
 21
25.0
 31
0.0
  0
LINE
  5
356
330
7B
100
AcDbEntity
  8
0
  6
Continuous
 62
     0
100
AcDbLine
 10
-107.0
 20
26.0
 30
0.0
 11
-112.0
 21
26.0
 31
0.0
  0
LINE
  5
357
330
7B
100
AcDbEntity
  8
0
  6
Continuous
 62
     0
100
AcDbLine
 10
-112.0
 20
34.5
 30
0.0
 11
-112.0
 21
-26.0
 31
0.0
  0
LINE
  5
358
330
7B
100
AcDbEntity
  8
0
  6
Continuous
 62
     0
100
AcDbLine
 10
-112.0
 20
23.35000610351562
 30
0.0
 11
-115.0
 21
23.35000610351562
 31
0.0
  0
LINE
  5
359
330
7B
100
AcDbEntity
  8
0
  6
Continuous
 62
     0
100
AcDbLine
 10
-115.0
 20
23.35000038146973
 30
0.0
 11
-115.0
 21
-23.35000038146973
 31
0.0
  0
LINE
  5
35A
330
7B
100
AcDbEntity
  8
0
  6
Continuous
 62
     0
100
AcDbLine
 10
-115.0
 20
18.5
 30
0.0
 11
-126.0
 21
18.5
 31
0.0
  0
LINE
  5
35B
330
7B
100
AcDbEntity
  8
0
  6
Continuous
 62
     0
100
AcDbLine
 10
-115.0
 20
9.25
 30
0.0
 11
-126.0
 21
9.25
 31
0.0
  0
LINE
  5
35C
330
7B
100
AcDbEntity
  8
0
  6
Continuous
 62
     0
100
AcDbLine
 10
-126.0
 20
18.5
 30
0.0
 11
-126.0
 21
-18.5
 31
0.0
  0
LINE
  5
35D
330
7B
100
AcDbEntity
  8
0
  6
Continuous
 62
     0
100
AcDbLine
 10
-115.0
 20
-9.25
 30
0.0
 11
-126.0
 21
-9.25
 31
0.0
  0
LINE
  5
35E
330
7B
100
AcDbEntity
  8
0
  6
Continuous
 62
     0
100
AcDbLine
 10
-115.0
 20
-18.5
 30
0.0
 11
-126.0
 21
-18.5
 31
0.0
  0
LINE
  5
35F
330
7B
100
AcDbEntity
  8
0
  6
Continuous
 62
     0
100
AcDbLine
 10
-112.0
 20
-23.35000610351562
 30
0.0
 11
-115.0
 21
-23.35000610351562
 31
0.0
  0
LINE
  5
360
330
7B
100
AcDbEntity
  8
0
  6
Continuous
 62
     0
100
AcDbLine
 10
-107.0
 20
-26.0
 30
0.0
 11
-112.0
 21
-26.0
 31
0.0
  0
LINE
  5
361
330
7B
100
AcDbEntity
  8
0
  6
Continuous
 62
     0
100
AcDbLine
 10
-107.0
 20
26.0
 30
0.0
 11
-107.0
 21
-26.0
 31
0.0
  0
LINE
  5
362
330
7B
100
AcDbEntity
  8
0
  6
Continuous
 62
     0
100
AcDbLine
 10
-94.0
 20
-25.0
 30
0.0
 11
-107.0
 21
-25.0
 31
0.0
  0
LINE
  5
363
330
7B
100
AcDbEntity
  8
0
  6
Continuous
 62
     0
100
AcDbLine
 10
-64.49996501006439
 20
-47.00002505272241
 30
0.0
 11
-71.49996746122233
 21
-54.0000269138243
 31
0.0
  0
LINE
  5
364
330
7B
100
AcDbEntity
  8
0
  6
Continuous
 62
     0
100
AcDbLine
 10
58.50006011174565
 20
-41.00000332333648
 30
0.0
 11
71.50003152442983
 21
-53.99997364020508
 31
0.0
  0
LINE
  5
365
330
7B
100
AcDbEntity
  8
0
  6
Continuous
 62
     0
100
AcDbLine
 10
37.5
 20
-54.0
 30
0.0
 11
37.5
 21
-63.0
 31
0.0
  0
LINE
  5
366
330
7B
100
AcDbEntity
  8
0
  6
Continuous
 62
     0
100
AcDbLine
 10
-37.5
 20
-54.0
 30
0.0
 11
-37.5
 21
-63.0
 31
0.0
  0
LINE
  5
367
330
7B
100
AcDbEntity
  8
0
  6
Continuous
 62
     0
100
AcDbLine
 10
-10.97653559171927
 20
-33.00001302740524
 30
0.0
 11
-8.375031726688558
 21
-28.49407289041391
 31
0.0
  0
LINE
  5
368
330
7B
100
AcDbEntity
  8
0
  6
Continuous
 62
     0
100
AcDbLine
 10
-8.374969482421875
 20
-28.494140625
 30
0.0
 11
8.375030517578125
 21
-28.494140625
 31
0.0
  0
LINE
  5
369
330
7B
100
AcDbEntity
  8
0
  6
Continuous
 62
     0
100
AcDbLine
 10
8.374995111455867
 20
-28.49404418711238
 30
0.0
 11
10.97651210270186
 21
-33.00000317467799
 31
0.0
  0
LINE
  5
36A
330
7B
100
AcDbEntity
  8
0
  6
Continuous
 62
     0
100
AcDbLine
 10
8.375
 20
-14.50605773925781
 30
0.0
 11
-8.375
 21
-14.50605773925781
 31
0.0
  0
LINE
  5
36B
330
7B
100
AcDbEntity
  8
0
  6
Continuous
 62
     0
100
AcDbLine
 10
-8.374977283920881
 20
-14.50592663356164
 30
0.0
 11
-16.74998007531831
 21
-0.000002731786704
 31
0.0
  0
LINE
  5
36C
330
7B
100
AcDbEntity
  8
0
  6
Continuous
 62
     0
100
AcDbLine
 10
-16.75002096226327
 20
0.000003540754679
 30
0.0
 11
-8.375021701287011
 21
14.5059382904846
 31
0.0
  0
LINE
  5
36D
330
7B
100
AcDbEntity
  8
0
  6
Continuous
 62
     0
100
AcDbLine
 10
-8.374969482421875
 20
14.505859375
 30
0.0
 11
8.375030517578125
 21
14.505859375
 31
0.0
  0
LINE
  5
36E
330
7B
100
AcDbEntity
  8
0
  6
Continuous
 62
     0
100
AcDbLine
 10
8.37506317562854
 20
14.5059574766175
 30
0.0
 11
16.75006403714919
 21
0.000032460627364
 31
0.0
  0
LINE
  5
36F
330
7B
100
AcDbEntity
  8
0
  6
Continuous
 62
     0
100
AcDbLine
 10
16.75001342640155
 20
-0.000026339851282
 30
0.0
 11
8.375014494757856
 21
-14.50595247005637
 31
0.0
  0
LINE
  5
370
330
7B
100
AcDbEntity
  8
0
  6
CENTER
 62
     4
100
AcDbLine
 10
-20.0
 20
51.62439346313477
 30
0.0
 11
-20.0
 21
42.0
 31
0.0
  0
LINE
  5
371
330
7B
100
AcDbEntity
  8
0
  6
Continuous
 62
     0
100
AcDbLine
 10
-24.33010864257812
 20
49.5
 30
0.0
 11
-24.33010864257812
 21
44.0
 31
0.0
  0
LINE
  5
372
330
7B
100
AcDbEntity
  8
0
  6
Continuous
 62
     0
100
AcDbLine
 10
-12.5
 20
49.5
 30
0.0
 11
-12.5
 21
42.0
 31
0.0
  0
LINE
  5
373
330
7B
100
AcDbEntity
  8
0
  6
Continuous
 62
     0
100
AcDbLine
 10
-12.5
 20
49.5
 30
0.0
 11
-27.5
 21
49.5
 31
0.0
  0
LINE
  5
374
330
7B
100
AcDbEntity
  8
0
  6
Continuous
 62
     0
100
AcDbLine
 10
-12.5
 20
44.0
 30
0.0
 11
-27.5
 21
44.0
 31
0.0
  0
LINE
  5
375
330
7B
100
AcDbEntity
  8
0
  6
Continuous
 62
     0
100
AcDbLine
 10
11.0
 20
19.05255889892578
 30
0.0
 11
13.0
 21
19.05255889892578
 31
0.0
  0
LINE
  5
376
330
7B
100
AcDbEntity
  8
0
  6
Continuous
 62
     0
100
AcDbLine
 10
27.0
 20
19.05255889892578
 30
0.0
 11
29.0
 21
19.05255889892578
 31
0.0
  0
LINE
  5
377
330
7B
100
AcDbEntity
  8
0
  6
DASHED
 62
     0
100
AcDbLine
 10
-59.5
 20
-54.0
 30
0.0
 11
-59.5
 21
-66.0
 31
0.0
  0
LINE
  5
378
330
7B
100
AcDbEntity
  8
0
  6
DASHED
 62
     0
100
AcDbLine
 10
-70.5
 20
-54.0
 30
0.0
 11
-70.5
 21
-66.0
 31
0.0
  0
LINE
  5
379
330
7B
100
AcDbEntity
  8
0
  6
DASHED
 62
     0
100
AcDbLine
 10
59.49996948242188
 20
-54.0
 30
0.0
 11
59.49996948242188
 21
-66.0
 31
0.0
  0
LINE
  5
37A
330
7B
100
AcDbEntity
  8
0
  6
DASHED
 62
     0
100
AcDbLine
 10
70.49996948242188
 20
-54.0
 30
0.0
 11
70.49996948242188
 21
-66.0
 31
0.0
  0
LINE
  5
37B
330
7B
100
AcDbEntity
  8
0
  6
Continuous
 62
     0
100
AcDbLine
 10
35.0
 20
71.0
 30
0.0
 11
-35.0
 21
71.0
 31
0.0
  0
LINE
  5
37C
330
7B
100
AcDbEntity
  8
0
  6
Continuous
 62
     0
100
AcDbLine
 10
-35.0
 20
52.5
 30
0.0
 11
-35.0
 21
84.0
 31
0.0
  0
LINE
  5
37D
330
7B
100
AcDbEntity
  8
0
  6
Continuous
 62
     0
100
AcDbLine
 10
35.0
 20
84.0
 30
0.0
 11
-35.0
 21
84.0
 31
0.0
  0
LINE
  5
37E
330
7B
100
AcDbEntity
  8
0
  6
Continuous
 62
     0
100
AcDbLine
 10
35.0
 20
84.0
 30
0.0
 11
35.0
 21
52.5
 31
0.0
  0
LINE
  5
37F
330
7B
100
AcDbEntity
  8
0
  6
Continuous
 62
     0
100
AcDbLine
 10
33.0
 20
108.0
 30
0.0
 11
33.0
 21
86.68211830843718
 31
0.0
  0
LINE
  5
380
330
7B
100
AcDbEntity
  8
0
  6
Continuous
 62
     0
100
AcDbLine
 10
-26.5
 20
85.0
 30
0.0
 11
-33.5
 21
85.0
 31
0.0
  0
LINE
  5
381
330
7B
100
AcDbEntity
  8
0
  6
Continuous
 62
     0
100
AcDbLine
 10
-33.5
 20
86.29999923706055
 30
0.0
 11
-33.5
 21
84.0
 31
0.0
  0
LINE
  5
382
330
7B
100
AcDbEntity
  8
0
  6
Continuous
 62
     0
100
AcDbLine
 10
-33.0
 20
104.0
 30
0.0
 11
-33.0
 21
86.68211830843718
 31
0.0
  0
LINE
  5
383
330
7B
100
AcDbEntity
  8
0
  6
CENTER
 62
     4
100
AcDbLine
 10
-30.0
 20
89.25984632306952
 30
0.0
 11
-30.0
 21
84.0
 31
0.0
  0
LINE
  5
384
330
7B
100
AcDbEntity
  8
0
  6
Continuous
 62
     0
100
AcDbLine
 10
-26.5
 20
86.29999923706055
 30
0.0
 11
-26.5
 21
84.0
 31
0.0
  0
LINE
  5
385
330
7B
100
AcDbEntity
  8
0
  6
Continuous
 62
     0
100
AcDbLine
 10
-25.0
 20
92.78045654296875
 30
0.0
 11
-25.0
 21
84.0
 31
0.0
  0
LINE
  5
386
330
7B
100
AcDbEntity
  8
0
  6
Continuous
 62
     0
100
AcDbLine
 10
-30.0
 20
140.0
 30
0.0
 11
-30.0
 21
102.0
 31
0.0
  0
LINE
  5
387
330
7B
100
AcDbEntity
  8
0
  6
Continuous
 62
     0
100
AcDbLine
 10
-30.0
 20
104.0
 30
0.0
 11
-55.0
 21
104.0
 31
0.0
  0
LINE
  5
388
330
7B
100
AcDbEntity
  8
0
  6
Continuous
 62
     0
100
AcDbLine
 10
19.0
 20
91.0
 30
0.0
 11
-19.0
 21
91.0
 31
0.0
  0
LINE
  5
389
330
7B
100
AcDbEntity
  8
0
  6
Continuous
 62
     0
100
AcDbLine
 10
25.0
 20
92.78045654296875
 30
0.0
 11
25.0
 21
84.0
 31
0.0
  0
LINE
  5
38A
330
7B
100
AcDbEntity
  8
0
  6
Continuous
 62
     0
100
AcDbLine
 10
30.0
 20
140.0
 30
0.0
 11
30.0
 21
102.0
 31
0.0
  0
LINE
  5
38B
330
7B
100
AcDbEntity
  8
0
  6
Continuous
 62
     0
100
AcDbLine
 10
34.0
 20
108.0
 30
0.0
 11
30.0
 21
108.0
 31
0.0
  0
LINE
  5
38C
330
7B
100
AcDbEntity
  8
0
  6
Continuous
 62
     0
100
AcDbLine
 10
34.0
 20
134.0
 30
0.0
 11
34.0
 21
108.0
 31
0.0
  0
LINE
  5
38D
330
7B
100
AcDbEntity
  8
0
  6
Continuous
 62
     0
100
AcDbLine
 10
34.0
 20
134.0
 30
0.0
 11
30.0
 21
134.0
 31
0.0
  0
LINE
  5
38E
330
7B
100
AcDbEntity
  8
0
  6
Continuous
 62
     0
100
AcDbLine
 10
33.0
 20
151.0
 30
0.0
 11
33.0
 21
134.0
 31
0.0
  0
LINE
  5
38F
330
7B
100
AcDbEntity
  8
0
  6
CENTER
 62
     4
100
AcDbLine
 10
35.66304779052734
 20
121.0
 30
0.0
 11
-58.05278396606445
 21
121.0
 31
0.0
  0
LINE
  5
390
330
7B
100
AcDbEntity
  8
0
  6
Continuous
 62
     0
100
AcDbLine
 10
25.0
 20
153.0
 30
0.0
 11
25.0
 21
149.2195434570312
 31
0.0
  0
LINE
  5
391
330
7B
100
AcDbEntity
  8
0
  6
Continuous
 62
     0
100
AcDbLine
 10
23.0
 20
161.0
 30
0.0
 11
-23.0
 21
161.0
 31
0.0
  0
LINE
  5
392
330
7B
100
AcDbEntity
  8
0
  6
Continuous
 62
     0
100
AcDbLine
 10
-25.0
 20
153.0
 30
0.0
 11
-25.0
 21
149.2195434570312
 31
0.0
  0
LINE
  5
393
330
7B
100
AcDbEntity
  8
0
  6
Continuous
 62
     0
100
AcDbLine
 10
-33.0
 20
151.0
 30
0.0
 11
-33.0
 21
138.0
 31
0.0
  0
LINE
  5
394
330
7B
100
AcDbEntity
  8
0
  6
Continuous
 62
     0
100
AcDbLine
 10
19.0
 20
151.0
 30
0.0
 11
-19.0
 21
151.0
 31
0.0
  0
LINE
  5
395
330
7B
100
AcDbEntity
  8
0
  6
Continuous
 62
     0
100
AcDbLine
 10
17.5
 20
147.0
 30
0.0
 11
-17.5
 21
147.0
 31
0.0
  0
LINE
  5
396
330
7B
100
AcDbEntity
  8
0
  6
Continuous
 62
     0
100
AcDbLine
 10
17.5
 20
147.0
 30
0.0
 11
17.5
 21
144.5
 31
0.0
  0
LINE
  5
397
330
7B
100
AcDbEntity
  8
0
  6
Continuous
 62
     0
100
AcDbLine
 10
23.5
 20
138.5
 30
0.0
 11
26.0
 21
138.5
 31
0.0
  0
LINE
  5
398
330
7B
100
AcDbEntity
  8
0
  6
Continuous
 62
     0
100
AcDbLine
 10
26.0
 20
138.5
 30
0.0
 11
26.0
 21
103.5
 31
0.0
  0
LINE
  5
399
330
7B
100
AcDbEntity
  8
0
  6
Continuous
 62
     0
100
AcDbLine
 10
22.08578945295164
 20
145.9142247064089
 30
0.0
 11
24.91421669690711
 21
143.085797700872
 31
0.0
  0
LINE
  5
39A
330
7B
100
AcDbEntity
  8
0
  6
Continuous
 62
     0
100
AcDbLine
 10
22.08576926461169
 20
143.0857957199707
 30
0.0
 11
24.91419650856717
 21
145.9142227255077
 31
0.0
  0
LINE
  5
39B
330
7B
100
AcDbEntity
  8
0
  6
Continuous
 62
     0
100
AcDbLine
 10
23.5
 20
103.5
 30
0.0
 11
26.0
 21
103.5
 31
0.0
  0
LINE
  5
39C
330
7B
100
AcDbEntity
  8
0
  6
Continuous
 62
     0
100
AcDbLine
 10
17.5
 20
97.5
 30
0.0
 11
17.5
 21
95.0
 31
0.0
  0
LINE
  5
39D
330
7B
100
AcDbEntity
  8
0
  6
Continuous
 62
     0
100
AcDbLine
 10
17.5
 20
95.0
 30
0.0
 11
-17.5
 21
95.0
 31
0.0
  0
LINE
  5
39E
330
7B
100
AcDbEntity
  8
0
  6
Continuous
 62
     0
100
AcDbLine
 10
22.08578603905739
 20
98.91421177090683
 30
0.0
 11
24.91421328301286
 21
96.08578476536994
 31
0.0
  0
LINE
  5
39F
330
7B
100
AcDbEntity
  8
0
  6
Continuous
 62
     0
100
AcDbLine
 10
22.08578346809961
 20
96.08579357406146
 30
0.0
 11
24.91421071205509
 21
98.91422057959835
 31
0.0
  0
LINE
  5
3A0
330
7B
100
AcDbEntity
  8
0
  6
Continuous
 62
     0
100
AcDbLine
 10
-17.5
 20
97.5
 30
0.0
 11
-17.5
 21
95.0
 31
0.0
  0
LINE
  5
3A1
330
7B
100
AcDbEntity
  8
0
  6
Continuous
 62
     0
100
AcDbLine
 10
-26.0
 20
103.5
 30
0.0
 11
-23.5
 21
103.5
 31
0.0
  0
LINE
  5
3A2
330
7B
100
AcDbEntity
  8
0
  6
Continuous
 62
     0
100
AcDbLine
 10
-26.0
 20
138.5
 30
0.0
 11
-26.0
 21
103.5
 31
0.0
  0
LINE
  5
3A3
330
7B
100
AcDbEntity
  8
0
  6
Continuous
 62
     0
100
AcDbLine
 10
-26.0
 20
138.5
 30
0.0
 11
-23.5
 21
138.5
 31
0.0
  0
LINE
  5
3A4
330
7B
100
AcDbEntity
  8
0
  6
Continuous
 62
     0
100
AcDbLine
 10
-17.5
 20
147.0
 30
0.0
 11
-17.5
 21
144.5
 31
0.0
  0
LINE
  5
3A5
330
7B
100
AcDbEntity
  8
0
  6
Continuous
 62
     0
100
AcDbLine
 10
-24.91423288129625
 20
143.0858138852625
 30
0.0
 11
-22.08580563734078
 21
145.9142408907994
 31
0.0
  0
LINE
  5
3A6
330
7B
100
AcDbEntity
  8
0
  6
Continuous
 62
     0
100
AcDbLine
 10
-24.91420729816084
 20
145.9142335151004
 30
0.0
 11
-22.08578005420537
 21
143.0858065095635
 31
0.0
  0
LINE
  5
3A7
330
7B
100
AcDbEntity
  8
0
  6
Continuous
 62
     0
100
AcDbLine
 10
-30.0
 20
138.0
 30
0.0
 11
-55.0
 21
138.0
 31
0.0
  0
LINE
  5
3A8
330
7B
100
AcDbEntity
  8
0
  6
Continuous
 62
     0
100
AcDbLine
 10
-33.0
 20
140.0
 30
0.0
 11
-51.0
 21
140.0
 31
0.0
  0
LINE
  5
3A9
330
7B
100
AcDbEntity
  8
0
  6
Continuous
 62
     0
100
AcDbLine
 10
-24.91421328301286
 20
96.08578476536994
 30
0.0
 11
-22.08578603905739
 21
98.91421177090683
 31
0.0
  0
LINE
  5
3AA
330
7B
100
AcDbEntity
  8
0
  6
Continuous
 62
     0
100
AcDbLine
 10
-24.91421071205509
 20
98.91422057959835
 30
0.0
 11
-22.08578346809961
 21
96.08579357406146
 31
0.0
  0
LINE
  5
3AB
330
7B
100
AcDbEntity
  8
0
  6
Continuous
 62
     0
100
AcDbLine
 10
-55.0
 20
138.0
 30
0.0
 11
-55.0
 21
104.0
 31
0.0
  0
LINE
  5
3AC
330
7B
100
AcDbEntity
  8
0
  6
DASHED
 62
     0
100
AcDbLine
 10
-42.5
 20
110.5
 30
0.0
 11
-55.0
 21
110.5
 31
0.0
  0
LINE
  5
3AD
330
7B
100
AcDbEntity
  8
0
  6
DASHED
 62
     0
100
AcDbLine
 10
-42.5
 20
111.6999969482422
 30
0.0
 11
-55.0
 21
111.6999969482422
 31
0.0
  0
LINE
  5
3AE
330
7B
100
AcDbEntity
  8
0
  6
DASHED
 62
     0
100
AcDbLine
 10
-42.5
 20
130.3000030517578
 30
0.0
 11
-55.0
 21
130.3000030517578
 31
0.0
  0
LINE
  5
3AF
330
7B
100
AcDbEntity
  8
0
  6
DASHED
 62
     0
100
AcDbLine
 10
-42.5
 20
131.5
 30
0.0
 11
-55.0
 21
131.5
 31
0.0
  0
LINE
  5
3B0
330
7B
100
AcDbEntity
  8
0
  6
Continuous
 62
     0
100
AcDbLine
 10
-51.0
 20
140.0
 30
0.0
 11
-51.0
 21
138.0
 31
0.0
  0
LINE
  5
3B1
330
7B
100
AcDbEntity
  8
0
  6
Continuous
 62
     0
100
AcDbLine
 10
-64.13749694824219
 20
137.0
 30
0.0
 11
-55.0
 21
137.0
 31
0.0
  0
LINE
  5
3B2
330
7B
100
AcDbEntity
  8
0
  6
Continuous
 62
     0
100
AcDbLine
 10
-64.13749694824219
 20
137.0
 30
0.0
 11
-64.13749694824219
 21
125.0
 31
0.0
  0
LINE
  5
3B3
330
7B
100
AcDbEntity
  8
0
  6
CENTER
 62
     4
100
AcDbLine
 10
-55.0
 20
131.0
 30
0.0
 11
-65.46476745605469
 21
131.0
 31
0.0
  0
LINE
  5
3B4
330
7B
100
AcDbEntity
  8
0
  6
Continuous
 62
     0
100
AcDbLine
 10
-64.13749694824219
 20
125.0
 30
0.0
 11
-55.0
 21
125.0
 31
0.0
  0
LINE
  5
3B5
330
7B
100
AcDbEntity
  8
0
  6
Continuous
 62
     0
100
AcDbLine
 10
26.5
 20
85.0
 30
0.0
 11
33.5
 21
85.0
 31
0.0
  0
LINE
  5
3B6
330
7B
100
AcDbEntity
  8
0
  6
Continuous
 62
     0
100
AcDbLine
 10
33.5
 20
86.29999923706055
 30
0.0
 11
33.5
 21
84.0
 31
0.0
  0
LINE
  5
3B7
330
7B
100
AcDbEntity
  8
0
  6
CENTER
 62
     4
100
AcDbLine
 10
30.0
 20
89.25984632306952
 30
0.0
 11
30.0
 21
84.0
 31
0.0
  0
LINE
  5
3B8
330
7B
100
AcDbEntity
  8
0
  6
Continuous
 62
     0
100
AcDbLine
 10
26.5
 20
86.29999923706055
 30
0.0
 11
26.5
 21
84.0
 31
0.0
  0
ARC
  5
3B9
330
7B
100
AcDbEntity
  8
0
  6
Continuous
 62
     0
100
AcDbCircle
 10
0.0
 20
37.0
 30
0.0
 40
17.0
100
AcDbArc
 50
241.9275033652301
 51
298.0724916258136
  0
ARC
  5
3BA
330
7B
100
AcDbEntity
  8
0
  6
Continuous
 62
     0
100
AcDbCircle
 10
-21.49703979492188
 20
62.0
 30
0.0
 40
12.02715396881104
100
AcDbArc
 50
326.4817243274708
 51
14.44412034916966
  0
CIRCLE
  5
3BB
330
7B
100
AcDbEntity
  8
0
  6
Continuous
 62
     0
100
AcDbCircle
 10
0.0
 20
0.0
 30
0.0
 40
7.789999485015869
  0
CIRCLE
  5
3BC
330
7B
100
AcDbEntity
  8
0
  6
Continuous
 62
     0
100
AcDbCircle
 10
0.0
 20
0.0
 30
0.0
 40
8.649999618530273
  0
ARC
  5
3BD
330
7B
100
AcDbEntity
  8
0
  6
Continuous
 62
     0
100
AcDbCircle
 10
21.18208312988281
 20
62.0
 30
0.0
 40
12.02715396881104
100
AcDbArc
 50
165.5558488012935
 51
222.725365437379
  0
ARC
  5
3BE
330
7B
100
AcDbEntity
  8
0
  6
Continuous
 62
     0
100
AcDbCircle
 10
-19.0
 20
102.0
 30
0.0
 40
11.0
100
AcDbArc
 50
179.9999813306653
 51
270.0000179860893
  0
ARC
  5
3BF
330
7B
100
AcDbEntity
  8
0
  6
Continuous
 62
     0
100
AcDbCircle
 10
19.0
 20
102.0
 30
0.0
 40
11.0
100
AcDbArc
 50
270.0000179860893
 51
0.0
  0
ARC
  5
3C0
330
7B
100
AcDbEntity
  8
0
  6
Continuous
 62
     0
100
AcDbCircle
 10
19.0
 20
140.0
 30
0.0
 40
11.0
100
AcDbArc
 50
0.0
 51
89.99998201391067
  0
ARC
  5
3C1
330
7B
100
AcDbEntity
  8
0
  6
Continuous
 62
     0
100
AcDbCircle
 10
23.0
 20
151.0
 30
0.0
 40
10.0
100
AcDbArc
 50
0.0
 51
89.99998201391067
  0
ARC
  5
3C2
330
7B
100
AcDbEntity
  8
0
  6
Continuous
 62
     0
100
AcDbCircle
 10
17.0
 20
153.0
 30
0.0
 40
8.0
100
AcDbArc
 50
0.0
 51
89.99998201391067
  0
ARC
  5
3C3
330
7B
100
AcDbEntity
  8
0
  6
Continuous
 62
     0
100
AcDbCircle
 10
-17.0
 20
153.0
 30
0.0
 40
8.0
100
AcDbArc
 50
89.99998201391067
 51
179.9999640278213
  0
ARC
  5
3C4
330
7B
100
AcDbEntity
  8
0
  6
Continuous
 62
     0
100
AcDbCircle
 10
-23.0
 20
151.0
 30
0.0
 40
10.0
100
AcDbArc
 50
89.99998201391067
 51
179.9999640278213
  0
ARC
  5
3C5
330
7B
100
AcDbEntity
  8
0
  6
Continuous
 62
     0
100
AcDbCircle
 10
-19.0
 20
140.0
 30
0.0
 40
11.0
100
AcDbArc
 50
89.99998201391067
 51
179.9999640278213
  0
ARC
  5
3C6
330
7B
100
AcDbEntity
  8
0
  6
Continuous
 62
     0
100
AcDbCircle
 10
23.5
 20
144.5
 30
0.0
 40
6.0
100
AcDbArc
 50
180.0
 51
270.0
  0
CIRCLE
  5
3C7
330
7B
100
AcDbEntity
  8
0
  6
Continuous
 62
     0
100
AcDbCircle
 10
23.5
 20
144.5
 30
0.0
 40
3.5
  0
ARC
  5
3C8
330
7B
100
AcDbEntity
  8
0
  6
Continuous
 62
     0
100
AcDbCircle
 10
23.5
 20
97.5
 30
0.0
 40
6.0
100
AcDbArc
 50
90.00000000000001
 51
180.0
  0
CIRCLE
  5
3C9
330
7B
100
AcDbEntity
  8
0
  6
Continuous
 62
     0
100
AcDbCircle
 10
23.5
 20
97.5
 30
0.0
 40
3.5
  0
ARC
  5
3CA
330
7B
100
AcDbEntity
  8
0
  6
Continuous
 62
     0
100
AcDbCircle
 10
-23.5
 20
97.5
 30
0.0
 40
6.0
100
AcDbArc
 50
0.0
 51
90.00000000000001
  0
ARC
  5
3CB
330
7B
100
AcDbEntity
  8
0
  6
Continuous
 62
     0
100
AcDbCircle
 10
-23.5
 20
144.5
 30
0.0
 40
6.0
100
AcDbArc
 50
270.0
 51
0.0
  0
CIRCLE
  5
3CC
330
7B
100
AcDbEntity
  8
0
  6
Continuous
 62
     0
100
AcDbCircle
 10
-23.5
 20
144.5
 30
0.0
 40
3.5
  0
CIRCLE
  5
3CD
330
7B
100
AcDbEntity
  8
0
  6
Continuous
 62
     0
100
AcDbCircle
 10
-23.5
 20
97.5
 30
0.0
 40
3.5
  0
ARC
  5
3CE
330
7B
100
AcDbEntity
  8
0
  6
Continuous
 62
     0
100
AcDbCircle
 10
-30.0
 20
82.23845762895952
 30
0.0
 40
5.361540845161571
100
AcDbArc
 50
49.24715152300847
 51
130.7528484769915
  0
ARC
  5
3CF
330
7B
100
AcDbEntity
  8
0
  6
Continuous
 62
     0
100
AcDbCircle
 10
30.0
 20
82.23845762895952
 30
0.0
 40
5.361540845161571
100
AcDbArc
 50
49.24715152300853
 51
130.7528484769916
  0
MTEXT
  5
3D0
330
7B
100
AcDbEntity
  8
0
 62
     0
100
AcDbMText
 10
-26.29645241189885
 20
6.422281505443424
 30
0.0
 40
6.0
 41
0.0
 71
     7
 72
     1
  1
{\W0.833333;ＩＮ}
 73
     1
 44
1.0
  0
MTEXT
  5
3D1
330
7B
100
AcDbEntity
  8
0
 62
     0
100
AcDbMText
 10
-17.56224979013205
 20
156.2417297363281
 30
0.0
 40
0.5
 41
0.0
 71
     7
 72
     1
  1
{\W1;BN-764S-10-G***}
 73
     1
 44
1.0
  0
ENDBLK
  5
7D
330
7B
100
AcDbEntity
  8
0
100
AcDbBlockEnd
  0
BLOCK
  5
3D4
330
3D3
100
AcDbEntity
  8
0
100
AcDbBlockBegin
  2
_Closed
 70
     0
 10
0.0
 20
0.0
 30
0.0
  3
_Closed
  1

  0
LINE
  5
3D6
330
3D3
100
AcDbEntity
  8
0
  6
ByBlock
 62
     0
370
    -2
100
AcDbLine
 10
-1.0
 20
0.166667
 30
0.0
 11
0.0
 21
0.0
 31
0.0
  0
LINE
  5
3D7
330
3D3
100
AcDbEntity
  8
0
  6
ByBlock
 62
     0
370
    -2
100
AcDbLine
 10
0.0
 20
0.0
 30
0.0
 11
-1.0
 21
-0.166667
 31
0.0
  0
LINE
  5
3D8
330
3D3
100
AcDbEntity
  8
0
  6
ByBlock
 62
     0
370
    -2
100
AcDbLine
 10
-1.0
 20
0.166667
 30
0.0
 11
-1.0
 21
-0.166667
 31
0.0
  0
LINE
  5
3D9
330
3D3
100
AcDbEntity
  8
0
  6
ByBlock
 62
     0
370
    -2
100
AcDbLine
 10
0.0
 20
0.0
 30
0.0
 11
-1.0
 21
0.0
 31
0.0
  0
ENDBLK
  5
3D5
330
3D3
100
AcDbEntity
  8
0
100
AcDbBlockEnd
  0
BLOCK
  5
3F1
330
3EA
100
AcDbEntity
  8
0
100
AcDbBlockBegin
  2
SYM0001
 70
     0
 10
0.0
 20
0.0
 30
0.0
  3
SYM0001
  1

  0
LINE
  5
3EB
330
3EA
100
AcDbEntity
  8
0
  6
Continuous
 62
     7
100
AcDbLine
 10
0.0
 20
0.0
 30
0.0
 11
30.59388960189065
 21
-32.46694982841052
 31
0.0
  0
LINE
  5
3EC
330
3EA
100
AcDbEntity
  8
0
  6
Continuous
 62
     7
100
AcDbLine
 10
0.0
 20
0.0
 30
0.0
 11
2.535141934150658
 21
-1.889828662527577
 31
0.0
  0
LINE
  5
3ED
330
3EA
100
AcDbEntity
  8
0
  6
Continuous
 62
     7
100
AcDbLine
 10
0.0
 20
0.0
 30
0.0
 11
1.736030048925329
 21
-2.642838752029377
 31
0.0
  0
LINE
  5
3EE
330
3EA
100
AcDbEntity
  8
0
  6
Continuous
 62
     7
100
AcDbLine
 10
30.59388960189062
 20
-32.46694982841052
 30
0.0
 11
38.2448370741034
 21
-32.46697271656541
 31
0.0
  0
MTEXT
  5
3EF
330
3EA
100
AcDbEntity
  8
0
 62
     7
100
AcDbMText
 10
41.67382783142665
 20
-35.4669724591356
 30
0.0
 40
6.0
 41
0.0
 71
     7
 72
     1
  1
{\W1;4-Rc3/8}
 73
     1
 44
1.0
  0
ENDBLK
  5
3F2
330
3EA
100
AcDbEntity
  8
0
100
AcDbBlockEnd
  0
BLOCK
  5
3F5
330
3F4
100
AcDbEntity
  8
0
100
AcDbBlockBegin
  2
_Open30
 70
     0
 10
0.0
 20
0.0
 30
0.0
  3
_Open30
  1

  0
LINE
  5
3F7
330
3F4
100
AcDbEntity
  8
0
  6
ByBlock
 62
     0
370
    -2
100
AcDbLine
 10
-1.0
 20
0.267949
 30
0.0
 11
0.0
 21
0.0
 31
0.0
  0
LINE
  5
3F8
330
3F4
100
AcDbEntity
  8
0
  6
ByBlock
 62
     0
370
    -2
100
AcDbLine
 10
0.0
 20
0.0
 30
0.0
 11
-1.0
 21
-0.267949
 31
0.0
  0
LINE
  5
3F9
330
3F4
100
AcDbEntity
  8
0
  6
ByBlock
 62
     0
370
    -2
100
AcDbLine
 10
0.0
 20
0.0
 30
0.0
 11
-1.0
 21
0.0
 31
0.0
  0
ENDBLK
  5
3F6
330
3F4
100
AcDbEntity
  8
0
100
AcDbBlockEnd
  0
BLOCK
  5
3FC
330
3FB
100
AcDbEntity
  8
0
100
AcDbBlockBegin
  2
*D8
 70
     1
 10
0.0
 20
0.0
 30
0.0
  3
*D8
  1

  0
LINE
  5
3FE
330
3FB
100
AcDbEntity
  8
0
  6
ByBlock
 62
     0
370
    -2
100
AcDbLine
 10
-366.5380078605522
 20
-232.3925388516568
 30
0.0
 11
-366.5380078605522
 21
-321.9879972867154
 31
0.0
  0
LINE
  5
3FF
330
3FB
100
AcDbEntity
  8
0
  6
ByBlock
 62
     0
370
    -2
100
AcDbLine
 10
-280.5380383781303
 20
-281.5175388516568
 30
0.0
 11
-280.5380383781303
 21
-321.9879972867154
 31
0.0
  0
LINE
  5
400
330
3FB
100
AcDbEntity
  8
0
  6
ByBlock
 62
     0
370
    -2
100
AcDbLine
 10
-363.5380078605522
 20
-319.1309950284146
 30
0.0
 11
-283.5380383781303
 21
-319.1309950284146
 31
0.0
  0
INSERT
  5
401
330
3FB
100
AcDbEntity
  8
0
 62
     0
370
    -2
100
AcDbBlockReference
  2
_Open30
 10
-366.5380078605522
 20
-319.1309950284146
 30
0.0
 41
3.0
 42
3.0
 43
3.0
 50
180.0
  0
INSERT
  5
402
330
3FB
100
AcDbEntity
  8
0
 62
     0
370
    -2
100
AcDbBlockReference
  2
_Open30
 10
-280.5380383781303
 20
-319.1309950284146
 30
0.0
 41
3.0
 42
3.0
 43
3.0
  0
MTEXT
  5
403
330
3FB
100
AcDbEntity
  8
0
 62
     0
100
AcDbMText
 10
-323.5370078605522
 20
-314.6309950284146
 30
0.0
 40
6.0
 41
0.0
 71
     5
 72
     1
  1
86
 73
     1
 44
1.0
  0
POINT
  5
404
330
3FB
100
AcDbEntity
  8
Defpoints
 62
     0
100
AcDbPoint
 10
-366.5380078605522
 20
-232.3925388516568
 30
0.0
  0
POINT
  5
405
330
3FB
100
AcDbEntity
  8
Defpoints
 62
     0
100
AcDbPoint
 10
-280.5380383781303
 20
-281.5175388516568
 30
0.0
  0
POINT
  5
406
330
3FB
100
AcDbEntity
  8
Defpoints
 62
     0
100
AcDbPoint
 10
-280.5380383781303
 20
-319.1319950284146
 30
0.0
  0
ENDBLK
  5
3FD
330
3FB
100
AcDbEntity
  8
0
100
AcDbBlockEnd
  0
BLOCK
  5
409
330
408
100
AcDbEntity
  8
0
100
AcDbBlockBegin
  2
*D9
 70
     1
 10
0.0
 20
0.0
 30
0.0
  3
*D9
  1

  0
LINE
  5
40B
330
408
100
AcDbEntity
  8
0
  6
ByBlock
 62
     0
370
    -2
100
AcDbLine
 10
-154.5380383781304
 20
-232.3925388516568
 30
0.0
 11
-154.5380383781304
 21
-321.9879972867154
 31
0.0
  0
LINE
  5
40C
330
408
100
AcDbEntity
  8
0
  6
ByBlock
 62
     0
370
    -2
100
AcDbLine
 10
-277.5380383781303
 20
-319.1309950284146
 30
0.0
 11
-157.5380383781304
 21
-319.1309950284146
 31
0.0
  0
INSERT
  5
40D
330
408
100
AcDbEntity
  8
0
 62
     0
370
    -2
100
AcDbBlockReference
  2
_Open30
 10
-280.5380383781303
 20
-319.1309950284146
 30
0.0
 41
3.0
 42
3.0
 43
3.0
 50
180.0
  0
INSERT
  5
40E
330
408
100
AcDbEntity
  8
0
 62
     0
370
    -2
100
AcDbBlockReference
  2
_Open30
 10
-154.5380383781304
 20
-319.1309950284146
 30
0.0
 41
3.0
 42
3.0
 43
3.0
  0
MTEXT
  5
40F
330
408
100
AcDbEntity
  8
0
 62
     0
100
AcDbMText
 10
-217.5370383781304
 20
-314.6309950284146
 30
0.0
 40
6.0
 41
0.0
 71
     5
 72
     1
  1
126
 73
     1
 44
1.0
  0
POINT
  5
410
330
408
100
AcDbEntity
  8
Defpoints
 62
     0
100
AcDbPoint
 10
-280.5380383781303
 20
-281.5175388516568
 30
0.0
  0
POINT
  5
411
330
408
100
AcDbEntity
  8
Defpoints
 62
     0
100
AcDbPoint
 10
-154.5380383781304
 20
-232.3925388516568
 30
0.0
  0
POINT
  5
412
330
408
100
AcDbEntity
  8
Defpoints
 62
     0
100
AcDbPoint
 10
-154.5380383781304
 20
-319.1319950284146
 30
0.0
  0
ENDBLK
  5
40A
330
408
100
AcDbEntity
  8
0
100
AcDbBlockEnd
  0
BLOCK
  5
415
330
414
100
AcDbEntity
  8
0
100
AcDbBlockBegin
  2
*D10
 70
     1
 10
0.0
 20
0.0
 30
0.0
  3
*D10
  1

  0
LINE
  5
417
330
414
100
AcDbEntity
  8
0
  6
ByBlock
 62
     0
370
    -2
100
AcDbLine
 10
-366.5380078605522
 20
-232.3925388516568
 30
0.0
 11
-366.5380078605522
 21
-336.6605741910123
 31
0.0
  0
LINE
  5
418
330
414
100
AcDbEntity
  8
0
  6
ByBlock
 62
     0
370
    -2
100
AcDbLine
 10
-154.5380383781304
 20
-232.3925388516568
 30
0.0
 11
-154.5380383781304
 21
-336.6605741910123
 31
0.0
  0
LINE
  5
419
330
414
100
AcDbEntity
  8
0
  6
ByBlock
 62
     0
370
    -2
100
AcDbLine
 10
-363.5380078605522
 20
-333.8035719327115
 30
0.0
 11
-157.5380383781304
 21
-333.8035719327115
 31
0.0
  0
INSERT
  5
41A
330
414
100
AcDbEntity
  8
0
 62
     0
370
    -2
100
AcDbBlockReference
  2
_Open30
 10
-366.5380078605522
 20
-333.8035719327115
 30
0.0
 41
3.0
 42
3.0
 43
3.0
 50
180.0
  0
INSERT
  5
41B
330
414
100
AcDbEntity
  8
0
 62
     0
370
    -2
100
AcDbBlockReference
  2
_Open30
 10
-154.5380383781304
 20
-333.8035719327115
 30
0.0
 41
3.0
 42
3.0
 43
3.0
  0
MTEXT
  5
41C
330
414
100
AcDbEntity
  8
0
 62
     0
100
AcDbMText
 10
-260.5370078605523
 20
-329.3035719327115
 30
0.0
 40
6.0
 41
0.0
 71
     5
 72
     1
  1
212
 73
     1
 44
1.0
  0
POINT
  5
41D
330
414
100
AcDbEntity
  8
Defpoints
 62
     0
100
AcDbPoint
 10
-366.5380078605522
 20
-232.3925388516568
 30
0.0
  0
POINT
  5
41E
330
414
100
AcDbEntity
  8
Defpoints
 62
     0
100
AcDbPoint
 10
-154.5380383781304
 20
-232.3925388516568
 30
0.0
  0
POINT
  5
41F
330
414
100
AcDbEntity
  8
Defpoints
 62
     0
100
AcDbPoint
 10
-154.5380383781304
 20
-333.8045719327115
 30
0.0
  0
ENDBLK
  5
416
330
414
100
AcDbEntity
  8
0
100
AcDbBlockEnd
  0
BLOCK
  5
422
330
421
100
AcDbEntity
  8
0
100
AcDbBlockBegin
  2
*D11
 70
     1
 10
0.0
 20
0.0
 30
0.0
  3
*D11
  1

  0
LINE
  5
424
330
421
100
AcDbEntity
  8
0
  6
ByBlock
 62
     0
370
    -2
100
AcDbLine
 10
-204.5380383781303
 20
-272.5175388516568
 30
0.0
 11
-168.3698936027397
 21
-272.5175388516568
 31
0.0
  0
LINE
  5
425
330
421
100
AcDbEntity
  8
0
  6
ByBlock
 62
     0
370
    -2
100
AcDbLine
 10
-204.5380383781303
 20
-284.5175388516568
 30
0.0
 11
-168.3698936027397
 21
-284.5175388516568
 31
0.0
  0
LINE
  5
426
330
421
100
AcDbEntity
  8
0
  6
ByBlock
 62
     0
370
    -2
100
AcDbLine
 10
-171.226888231646
 20
-275.5175388516568
 30
0.0
 11
-171.226888231646
 21
-281.5175388516568
 31
0.0
  0
INSERT
  5
427
330
421
100
AcDbEntity
  8
0
 62
     0
370
    -2
100
AcDbBlockReference
  2
_Open30
 10
-171.226888231646
 20
-272.5175388516568
 30
0.0
 41
3.0
 42
3.0
 43
3.0
 50
90.0
  0
INSERT
  5
428
330
421
100
AcDbEntity
  8
0
 62
     0
370
    -2
100
AcDbBlockReference
  2
_Open30
 10
-171.226888231646
 20
-284.5175388516568
 30
0.0
 41
3.0
 42
3.0
 43
3.0
 50
270.0
  0
MTEXT
  5
429
330
421
100
AcDbEntity
  8
0
 62
     0
100
AcDbMText
 10
-175.726888231646
 20
-278.5165388516568
 30
0.0
 40
6.0
 41
0.0
 71
     5
 72
     1
  1
12
 11
0.0
 21
1.0
 31
0.0
 73
     1
 44
1.0
  0
POINT
  5
42A
330
421
100
AcDbEntity
  8
Defpoints
 62
     0
100
AcDbPoint
 10
-204.5380383781303
 20
-272.5175388516568
 30
0.0
  0
POINT
  5
42B
330
421
100
AcDbEntity
  8
Defpoints
 62
     0
100
AcDbPoint
 10
-204.5380383781303
 20
-284.5175388516568
 30
0.0
  0
POINT
  5
42C
330
421
100
AcDbEntity
  8
Defpoints
 62
     0
100
AcDbPoint
 10
-171.227888231646
 20
-284.5175388516568
 30
0.0
  0
ENDBLK
  5
423
330
421
100
AcDbEntity
  8
0
100
AcDbBlockEnd
  0
BLOCK
  5
42F
330
42E
100
AcDbEntity
  8
0
100
AcDbBlockBegin
  2
*D12
 70
     1
 10
0.0
 20
0.0
 30
0.0
  3
*D12
  1

  0
LINE
  5
431
330
42E
100
AcDbEntity
  8
0
  6
ByBlock
 62
     0
370
    -2
100
AcDbLine
 10
-154.5380383781303
 20
-218.5175388516568
 30
0.0
 11
-128.1650519889701
 21
-218.5175388516568
 31
0.0
  0
LINE
  5
432
330
42E
100
AcDbEntity
  8
0
  6
ByBlock
 62
     0
370
    -2
100
AcDbLine
 10
-263.787977342974
 20
-261.5175388516568
 30
0.0
 11
-128.1650519889701
 21
-261.5175388516568
 31
0.0
  0
LINE
  5
433
330
42E
100
AcDbEntity
  8
0
  6
ByBlock
 62
     0
370
    -2
100
AcDbLine
 10
-131.022054247271
 20
-221.5175388516568
 30
0.0
 11
-131.022054247271
 21
-258.5175388516568
 31
0.0
  0
INSERT
  5
434
330
42E
100
AcDbEntity
  8
0
 62
     0
370
    -2
100
AcDbBlockReference
  2
_Open30
 10
-131.022054247271
 20
-218.5175388516568
 30
0.0
 41
3.0
 42
3.0
 43
3.0
 50
90.00000000000004
  0
INSERT
  5
435
330
42E
100
AcDbEntity
  8
0
 62
     0
370
    -2
100
AcDbBlockReference
  2
_Open30
 10
-131.022054247271
 20
-261.5175388516568
 30
0.0
 41
3.0
 42
3.0
 43
3.0
 50
270.0000000000001
  0
MTEXT
  5
436
330
42E
100
AcDbEntity
  8
0
 62
     0
100
AcDbMText
 10
-135.522054247271
 20
-240.0165388516568
 30
0.0
 40
6.0
 41
0.0
 71
     5
 72
     1
  1
43
 11
-6.609699867535816E-16
 21
1.0
 31
0.0
 73
     1
 44
1.0
  0
POINT
  5
437
330
42E
100
AcDbEntity
  8
Defpoints
 62
     0
100
AcDbPoint
 10
-154.5380383781303
 20
-218.5175388516568
 30
0.0
  0
POINT
  5
438
330
42E
100
AcDbEntity
  8
Defpoints
 62
     0
100
AcDbPoint
 10
-263.787977342974
 20
-261.5175388516568
 30
0.0
  0
POINT
  5
439
330
42E
100
AcDbEntity
  8
Defpoints
 62
     0
100
AcDbPoint
 10
-131.023054247271
 20
-261.5175388516568
 30
0.0
  0
ENDBLK
  5
430
330
42E
100
AcDbEntity
  8
0
100
AcDbBlockEnd
  0
BLOCK
  5
43C
330
43B
100
AcDbEntity
  8
0
100
AcDbBlockBegin
  2
*D13
 70
     1
 10
0.0
 20
0.0
 30
0.0
  3
*D13
  1

  0
LINE
  5
43E
330
43B
100
AcDbEntity
  8
0
  6
ByBlock
 62
     0
370
    -2
100
AcDbLine
 10
-204.5380383781303
 20
-284.5175388516568
 30
0.0
 11
-112.6395932487358
 21
-284.5175388516568
 31
0.0
  0
LINE
  5
43F
330
43B
100
AcDbEntity
  8
0
  6
ByBlock
 62
     0
370
    -2
100
AcDbLine
 10
-154.5380383781303
 20
-218.5175388516568
 30
0.0
 11
-112.6395932487358
 21
-218.5175388516568
 31
0.0
  0
LINE
  5
440
330
43B
100
AcDbEntity
  8
0
  6
ByBlock
 62
     0
370
    -2
100
AcDbLine
 10
-115.4965955070367
 20
-281.5175388516568
 30
0.0
 11
-115.4965955070367
 21
-221.5175388516568
 31
0.0
  0
INSERT
  5
441
330
43B
100
AcDbEntity
  8
0
 62
     0
370
    -2
100
AcDbBlockReference
  2
_Open30
 10
-115.4965955070367
 20
-284.5175388516568
 30
0.0
 41
3.0
 42
3.0
 43
3.0
 50
270.0
  0
INSERT
  5
442
330
43B
100
AcDbEntity
  8
0
 62
     0
370
    -2
100
AcDbBlockReference
  2
_Open30
 10
-115.4965955070367
 20
-218.5175388516568
 30
0.0
 41
3.0
 42
3.0
 43
3.0
 50
89.99999999999999
  0
MTEXT
  5
443
330
43B
100
AcDbEntity
  8
0
 62
     0
100
AcDbMText
 10
-119.9965955070367
 20
-251.5165388516568
 30
0.0
 40
6.0
 41
0.0
 71
     5
 72
     1
  1
66
 11
2.153159805333637E-16
 21
1.0
 31
0.0
 73
     1
 44
1.0
  0
POINT
  5
444
330
43B
100
AcDbEntity
  8
Defpoints
 62
     0
100
AcDbPoint
 10
-204.5380383781303
 20
-284.5175388516568
 30
0.0
  0
POINT
  5
445
330
43B
100
AcDbEntity
  8
Defpoints
 62
     0
100
AcDbPoint
 10
-154.5380383781303
 20
-218.5175388516568
 30
0.0
  0
POINT
  5
446
330
43B
100
AcDbEntity
  8
Defpoints
 62
     0
100
AcDbPoint
 10
-115.4965955070367
 20
-218.5175388516568
 30
0.0
  0
ENDBLK
  5
43D
330
43B
100
AcDbEntity
  8
0
100
AcDbBlockEnd
  0
BLOCK
  5
449
330
448
100
AcDbEntity
  8
0
100
AcDbBlockBegin
  2
*D14
 70
     1
 10
0.0
 20
0.0
 30
0.0
  3
*D14
  1

  0
LINE
  5
44B
330
448
100
AcDbEntity
  8
0
  6
ByBlock
 62
     0
370
    -2
100
AcDbLine
 10
-345.5380078605522
 20
39.80664938084965
 30
0.0
 11
-345.5380078605522
 21
8.601487881741631
 31
0.0
  0
LINE
  5
44C
330
448
100
AcDbEntity
  8
0
  6
ByBlock
 62
     0
370
    -2
100
AcDbLine
 10
-280.5380688957084
 20
40.30664938076507
 30
0.0
 11
-280.5380688957084
 21
8.601487881741624
 31
0.0
  0
LINE
  5
44D
330
448
100
AcDbEntity
  8
0
  6
ByBlock
 62
     0
370
    -2
100
AcDbLine
 10
-342.5380078605522
 20
11.45849776943694
 30
0.0
 11
-283.5380688957084
 21
11.45849776943694
 31
0.0
  0
INSERT
  5
44E
330
448
100
AcDbEntity
  8
0
 62
     0
370
    -2
100
AcDbBlockReference
  2
_Open30
 10
-345.5380078605522
 20
11.45849776943694
 30
0.0
 41
3.0
 42
3.0
 43
3.0
 50
180.0
  0
INSERT
  5
44F
330
448
100
AcDbEntity
  8
0
 62
     0
370
    -2
100
AcDbBlockReference
  2
_Open30
 10
-280.5380688957084
 20
11.45849776943694
 30
0.0
 41
3.0
 42
3.0
 43
3.0
 50
360.0
  0
MTEXT
  5
450
330
448
100
AcDbEntity
  8
0
 62
     0
100
AcDbMText
 10
-313.0370078605522
 20
15.95849776943694
 30
0.0
 40
6.0
 41
0.0
 71
     5
 72
     1
  1
65
 73
     1
 44
1.0
  0
POINT
  5
451
330
448
100
AcDbEntity
  8
Defpoints
 62
     0
100
AcDbPoint
 10
-345.5380078605522
 20
39.80664938084965
 30
0.0
  0
POINT
  5
452
330
448
100
AcDbEntity
  8
Defpoints
 62
     0
100
AcDbPoint
 10
-280.5380688957084
 20
40.30664938076507
 30
0.0
  0
POINT
  5
453
330
448
100
AcDbEntity
  8
Defpoints
 62
     0
100
AcDbPoint
 10
-280.5380688957084
 20
11.45749776943694
 30
0.0
  0
ENDBLK
  5
44A
330
448
100
AcDbEntity
  8
0
100
AcDbBlockEnd
  0
BLOCK
  5
456
330
455
100
AcDbEntity
  8
0
100
AcDbBlockBegin
  2
*D15
 70
     1
 10
0.0
 20
0.0
 30
0.0
  3
*D15
  1

  0
LINE
  5
458
330
455
100
AcDbEntity
  8
0
  6
ByBlock
 62
     0
370
    -2
100
AcDbLine
 10
-215.5380383781304
 20
39.80664938084965
 30
0.0
 11
-215.5380383781304
 21
8.601487881741624
 31
0.0
  0
LINE
  5
459
330
455
100
AcDbEntity
  8
0
  6
ByBlock
 62
     0
370
    -2
100
AcDbLine
 10
-277.5380688957084
 20
11.45849776943694
 30
0.0
 11
-218.5380383781304
 21
11.45849776943694
 31
0.0
  0
INSERT
  5
45A
330
455
100
AcDbEntity
  8
0
 62
     0
370
    -2
100
AcDbBlockReference
  2
_Open30
 10
-280.5380688957084
 20
11.45849776943694
 30
0.0
 41
3.0
 42
3.0
 43
3.0
 50
180.0
  0
INSERT
  5
45B
330
455
100
AcDbEntity
  8
0
 62
     0
370
    -2
100
AcDbBlockReference
  2
_Open30
 10
-215.5380383781304
 20
11.45849776943694
 30
0.0
 41
3.0
 42
3.0
 43
3.0
 50
360.0
  0
MTEXT
  5
45C
330
455
100
AcDbEntity
  8
0
 62
     0
100
AcDbMText
 10
-248.0370383781304
 20
15.95849776943694
 30
0.0
 40
6.0
 41
0.0
 71
     5
 72
     1
  1
65
 73
     1
 44
1.0
  0
POINT
  5
45D
330
455
100
AcDbEntity
  8
Defpoints
 62
     0
100
AcDbPoint
 10
-280.5380688957084
 20
40.30664938076507
 30
0.0
  0
POINT
  5
45E
330
455
100
AcDbEntity
  8
Defpoints
 62
     0
100
AcDbPoint
 10
-215.5380383781304
 20
39.80664938084965
 30
0.0
  0
POINT
  5
45F
330
455
100
AcDbEntity
  8
Defpoints
 62
     0
100
AcDbPoint
 10
-215.5380383781304
 20
11.45749776943694
 30
0.0
  0
ENDBLK
  5
457
330
455
100
AcDbEntity
  8
0
100
AcDbBlockEnd
  0
BLOCK
  5
462
330
461
100
AcDbEntity
  8
0
100
AcDbBlockBegin
  2
*D16
 70
     1
 10
0.0
 20
0.0
 30
0.0
  3
*D16
  1

  0
LINE
  5
464
330
461
100
AcDbEntity
  8
0
  6
ByBlock
 62
     0
370
    -2
100
AcDbLine
 10
-345.5380078605522
 20
8.600487881741628
 30
0.0
 11
-345.5380078605522
 21
-7.030760043063051
 31
0.0
  0
LINE
  5
465
330
461
100
AcDbEntity
  8
0
  6
ByBlock
 62
     0
370
    -2
100
AcDbLine
 10
-215.5380383781304
 20
8.600487881741628
 30
0.0
 11
-215.5380383781304
 21
-7.030760043063067
 31
0.0
  0
LINE
  5
466
330
461
100
AcDbEntity
  8
0
  6
ByBlock
 62
     0
370
    -2
100
AcDbLine
 10
-342.5380078605522
 20
-4.173765414156801
 30
0.0
 11
-218.5380383781304
 21
-4.173765414156817
 31
0.0
  0
INSERT
  5
467
330
461
100
AcDbEntity
  8
0
 62
     0
370
    -2
100
AcDbBlockReference
  2
_Open30
 10
-345.5380078605522
 20
-4.173765414156801
 30
0.0
 41
3.0
 42
3.0
 43
3.0
 50
180.0
  0
INSERT
  5
468
330
461
100
AcDbEntity
  8
0
 62
     0
370
    -2
100
AcDbBlockReference
  2
_Open30
 10
-215.5380383781304
 20
-4.173765414156817
 30
0.0
 41
3.0
 42
3.0
 43
3.0
 50
360.0
  0
MTEXT
  5
469
330
461
100
AcDbEntity
  8
0
 62
     0
100
AcDbMText
 10
-280.5370078605522
 20
0.326234585843191
 30
0.0
 40
6.0
 41
0.0
 71
     5
 72
     1
  1
130
 73
     1
 44
1.0
  0
POINT
  5
46A
330
461
100
AcDbEntity
  8
Defpoints
 62
     0
100
AcDbPoint
 10
-345.5380078605522
 20
8.600487881741628
 30
0.0
  0
POINT
  5
46B
330
461
100
AcDbEntity
  8
Defpoints
 62
     0
100
AcDbPoint
 10
-215.5380383781304
 20
8.600487881741628
 30
0.0
  0
POINT
  5
46C
330
461
100
AcDbEntity
  8
Defpoints
 62
     0
100
AcDbPoint
 10
-215.5380383781304
 20
-4.174765414156809
 30
0.0
  0
ENDBLK
  5
463
330
461
100
AcDbEntity
  8
0
100
AcDbBlockEnd
  0
BLOCK
  5
46F
330
46E
100
AcDbEntity
  8
0
100
AcDbBlockBegin
  2
*D17
 70
     1
 10
0.0
 20
0.0
 30
0.0
  3
*D17
  1

  0
LINE
  5
471
330
46E
100
AcDbEntity
  8
0
  6
ByBlock
 62
     0
370
    -2
100
AcDbLine
 10
-210.0380688957084
 20
45.30664938076507
 30
0.0
 11
-130.4082394889701
 21
45.30664938076505
 31
0.0
  0
LINE
  5
472
330
46E
100
AcDbEntity
  8
0
  6
ByBlock
 62
     0
370
    -2
100
AcDbLine
 10
-210.0380688957084
 20
115.3066493807651
 30
0.0
 11
-130.4082394889701
 21
115.3066493807651
 31
0.0
  0
LINE
  5
473
330
46E
100
AcDbEntity
  8
0
  6
ByBlock
 62
     0
370
    -2
100
AcDbLine
 10
-133.265241747271
 20
48.30664938076505
 30
0.0
 11
-133.265241747271
 21
112.3066493807651
 31
0.0
  0
INSERT
  5
474
330
46E
100
AcDbEntity
  8
0
 62
     0
370
    -2
100
AcDbBlockReference
  2
_Open30
 10
-133.265241747271
 20
45.30664938076505
 30
0.0
 41
3.0
 42
3.0
 43
3.0
 50
270.0
  0
INSERT
  5
475
330
46E
100
AcDbEntity
  8
0
 62
     0
370
    -2
100
AcDbBlockReference
  2
_Open30
 10
-133.265241747271
 20
115.3066493807651
 30
0.0
 41
3.0
 42
3.0
 43
3.0
 50
90.0
  0
MTEXT
  5
476
330
46E
100
AcDbEntity
  8
0
 62
     0
100
AcDbMText
 10
-137.765241747271
 20
80.30764938076507
 30
0.0
 40
6.0
 41
0.0
 71
     5
 72
     1
  1
70
 11
0.0
 21
1.0
 31
0.0
 73
     1
 44
1.0
  0
POINT
  5
477
330
46E
100
AcDbEntity
  8
Defpoints
 62
     0
100
AcDbPoint
 10
-210.0380688957084
 20
45.30664938076507
 30
0.0
  0
POINT
  5
478
330
46E
100
AcDbEntity
  8
Defpoints
 62
     0
100
AcDbPoint
 10
-210.0380688957084
 20
115.3066493807651
 30
0.0
  0
POINT
  5
479
330
46E
100
AcDbEntity
  8
Defpoints
 62
     0
100
AcDbPoint
 10
-133.265241747271
 20
115.3066493807651
 30
0.0
  0
ENDBLK
  5
470
330
46E
100
AcDbEntity
  8
0
100
AcDbBlockEnd
  0
BLOCK
  5
47C
330
47B
100
AcDbEntity
  8
0
100
AcDbBlockBegin
  2
*D18
 70
     1
 10
0.0
 20
0.0
 30
0.0
  3
*D18
  1

  0
LINE
  5
47E
330
47B
100
AcDbEntity
  8
0
  6
ByBlock
 62
     0
370
    -2
100
AcDbLine
 10
-215.5380383781303
 20
34.30664938076507
 30
0.0
 11
-112.972402696978
 21
34.30664938076505
 31
0.0
  0
LINE
  5
47F
330
47B
100
AcDbEntity
  8
0
  6
ByBlock
 62
     0
370
    -2
100
AcDbLine
 10
-215.5380383781303
 20
126.3066493807651
 30
0.0
 11
-112.972402696978
 21
126.3066493807651
 31
0.0
  0
LINE
  5
480
330
47B
100
AcDbEntity
  8
0
  6
ByBlock
 62
     0
370
    -2
100
AcDbLine
 10
-115.8294049552789
 20
37.30664938076505
 30
0.0
 11
-115.8294049552788
 21
123.3066493807651
 31
0.0
  0
INSERT
  5
481
330
47B
100
AcDbEntity
  8
0
 62
     0
370
    -2
100
AcDbBlockReference
  2
_Open30
 10
-115.8294049552789
 20
34.30664938076505
 30
0.0
 41
3.0
 42
3.0
 43
3.0
 50
270.0
  0
INSERT
  5
482
330
47B
100
AcDbEntity
  8
0
 62
     0
370
    -2
100
AcDbBlockReference
  2
_Open30
 10
-115.8294049552788
 20
126.3066493807651
 30
0.0
 41
3.0
 42
3.0
 43
3.0
 50
90.0
  0
MTEXT
  5
483
330
47B
100
AcDbEntity
  8
0
 62
     0
100
AcDbMText
 10
-120.3294049552788
 20
80.30764938076507
 30
0.0
 40
6.0
 41
0.0
 71
     5
 72
     1
  1
92
 11
1.544658121217609E-16
 21
1.0
 31
0.0
 73
     1
 44
1.0
  0
POINT
  5
484
330
47B
100
AcDbEntity
  8
Defpoints
 62
     0
100
AcDbPoint
 10
-215.5380383781303
 20
34.30664938076507
 30
0.0
  0
POINT
  5
485
330
47B
100
AcDbEntity
  8
Defpoints
 62
     0
100
AcDbPoint
 10
-215.5380383781303
 20
126.3066493807651
 30
0.0
  0
POINT
  5
486
330
47B
100
AcDbEntity
  8
Defpoints
 62
     0
100
AcDbPoint
 10
-115.8294049552788
 20
126.3066493807651
 30
0.0
  0
ENDBLK
  5
47D
330
47B
100
AcDbEntity
  8
0
100
AcDbBlockEnd
  0
BLOCK
  5
48E
330
487
100
AcDbEntity
  8
0
100
AcDbBlockBegin
  2
SYM0002
 70
     0
 10
0.0
 20
0.0
 30
0.0
  3
SYM0002
  1

  0
LINE
  5
488
330
487
100
AcDbEntity
  8
0
  6
Continuous
 62
     7
100
AcDbLine
 10
0.0
 20
0.0
 30
0.0
 11
16.57267809446236
 21
-29.33218367675424
 31
0.0
  0
LINE
  5
489
330
487
100
AcDbEntity
  8
0
  6
Continuous
 62
     7
100
AcDbLine
 10
0.0
 20
0.0
 30
0.0
 11
2.009802736057168
 21
-2.441124733014931
 31
0.0
  0
LINE
  5
48A
330
487
100
AcDbEntity
  8
0
  6
Continuous
 62
     7
100
AcDbLine
 10
0.0
 20
0.0
 30
0.0
 11
1.053835650079975
 21
-2.981245951380146
 31
0.0
  0
LINE
  5
48B
330
487
100
AcDbEntity
  8
0
  6
Continuous
 62
     7
100
AcDbLine
 10
16.57267809446236
 20
-29.33218367675424
 30
0.0
 11
25.75558857200903
 21
-29.33218367675424
 31
0.0
  0
MTEXT
  5
48C
330
487
100
AcDbEntity
  8
0
 62
     7
100
AcDbMText
 10
29.18458120106035
 20
-32.33218923563622
 30
0.0
 40
6.0
 41
0.0
 71
     7
 72
     1
  1
{\W1;4-\U+220511}
 73
     1
 44
1.0
  0
ENDBLK
  5
48F
330
487
100
AcDbEntity
  8
0
100
AcDbBlockEnd
  0
BLOCK
  5
492
330
491
100
AcDbEntity
  8
0
100
AcDbBlockBegin
  2
_Open
 70
     0
 10
0.0
 20
0.0
 30
0.0
  3
_Open
  1

  0
LINE
  5
494
330
491
100
AcDbEntity
  8
0
  6
ByBlock
 62
     0
370
    -2
100
AcDbLine
 10
-1.0
 20
0.166667
 30
0.0
 11
0.0
 21
0.0
 31
0.0
  0
LINE
  5
495
330
491
100
AcDbEntity
  8
0
  6
ByBlock
 62
     0
370
    -2
100
AcDbLine
 10
-1.0
 20
-0.166667
 30
0.0
 11
0.0
 21
0.0
 31
0.0
  0
LINE
  5
496
330
491
100
AcDbEntity
  8
0
  6
ByBlock
 62
     0
370
    -2
100
AcDbLine
 10
0.0
 20
0.0
 30
0.0
 11
-1.0
 21
0.0
 31
0.0
  0
ENDBLK
  5
493
330
491
100
AcDbEntity
  8
0
100
AcDbBlockEnd
  0
BLOCK
  5
498
330
497
100
AcDbEntity
  8
0
100
AcDbBlockBegin
  2
*D21
 70
     1
 10
0.0
 20
0.0
 30
0.0
  3
*D21
  1

  0
LINE
  5
49A
330
497
100
AcDbEntity
  8
0
  6
ByBlock
 62
     0
370
    -2
100
AcDbLine
 10
-305.5380383781303
 20
-233.0235965909146
 30
0.0
 11
-305.5380383781303
 21
-307.680972079196
 31
0.0
  0
LINE
  5
49B
330
497
100
AcDbEntity
  8
0
  6
ByBlock
 62
     0
370
    -2
100
AcDbLine
 10
-255.5380383781304
 20
-233.0235965909146
 30
0.0
 11
-255.5380383781304
 21
-307.680972079196
 31
0.0
  0
LINE
  5
49C
330
497
100
AcDbEntity
  8
0
  6
ByBlock
 62
     0
370
    -2
100
AcDbLine
 10
-302.4240383781303
 20
-305.3949720791959
 30
0.0
 11
-258.6520383781304
 21
-305.3949720791959
 31
0.0
  0
INSERT
  5
49D
330
497
100
AcDbEntity
  8
0
 62
     0
370
    -2
100
AcDbBlockReference
  2
_Open
 10
-305.5380383781303
 20
-305.3949720791959
 30
0.0
 41
3.114
 42
3.114
 43
3.114
 50
180.0
  0
INSERT
  5
49E
330
497
100
AcDbEntity
  8
0
 62
     0
370
    -2
100
AcDbBlockReference
  2
_Open
 10
-255.5380383781304
 20
-305.3949720791959
 30
0.0
 41
3.114
 42
3.114
 43
3.114
  0
MTEXT
  5
49F
330
497
100
AcDbEntity
  8
0
 62
     0
100
AcDbMText
 10
-292.2919135864156
 20
-300.8949720791959
 30
0.0
 40
6.0
 41
0.0
 71
     5
 72
     1
  1
50
 73
     1
 44
1.0
  0
POINT
  5
4A0
330
497
100
AcDbEntity
  8
Defpoints
 62
     0
100
AcDbPoint
 10
-305.5380383781303
 20
-233.0235965909146
 30
0.0
  0
POINT
  5
4A1
330
497
100
AcDbEntity
  8
Defpoints
 62
     0
100
AcDbPoint
 10
-255.5380383781304
 20
-233.0235965909146
 30
0.0
  0
POINT
  5
4A2
330
497
100
AcDbEntity
  8
Defpoints
 62
     0
100
AcDbPoint
 10
-255.5380383781304
 20
-305.3959720791959
 30
0.0
  0
ENDBLK
  5
499
330
497
100
AcDbEntity
  8
0
100
AcDbBlockEnd
  0
BLOCK
  5
4A5
330
4A4
100
AcDbEntity
  8
0
100
AcDbBlockBegin
  2
*D22
 70
     1
 10
0.0
 20
0.0
 30
0.0
  3
*D22
  1

  0
LINE
  5
4A7
330
4A4
100
AcDbEntity
  8
0
  6
ByBlock
 62
     0
370
    -2
100
AcDbLine
 10
-204.5380383781303
 20
-284.5175388516568
 30
0.0
 11
-95.99436009443892
 21
-284.5175388516568
 31
0.0
  0
LINE
  5
4A8
330
4A4
100
AcDbEntity
  8
0
  6
ByBlock
 62
     0
370
    -2
100
AcDbLine
 10
-257.5380383781303
 20
-50.51753885165681
 30
0.0
 11
-95.99436009443887
 21
-50.51753885165681
 31
0.0
  0
LINE
  5
4A9
330
4A4
100
AcDbEntity
  8
0
  6
ByBlock
 62
     0
370
    -2
100
AcDbLine
 10
-98.85136235273981
 20
-281.5175388516568
 30
0.0
 11
-98.85136235273977
 21
-53.51753885165681
 31
0.0
  0
INSERT
  5
4AA
330
4A4
100
AcDbEntity
  8
0
 62
     0
370
    -2
100
AcDbBlockReference
  2
_Open30
 10
-98.85136235273981
 20
-284.5175388516568
 30
0.0
 41
3.0
 42
3.0
 43
3.0
 50
270.0
  0
INSERT
  5
4AB
330
4A4
100
AcDbEntity
  8
0
 62
     0
370
    -2
100
AcDbBlockReference
  2
_Open30
 10
-98.85136235273977
 20
-50.51753885165681
 30
0.0
 41
3.0
 42
3.0
 43
3.0
 50
89.99999999999999
  0
MTEXT
  5
4AC
330
4A4
100
AcDbEntity
  8
0
 62
     0
100
AcDbMText
 10
-103.3513623527398
 20
-167.5165388516568
 30
0.0
 40
6.0
 41
0.0
 71
     5
 72
     1
  1
234
 11
1.821904450666923E-16
 21
1.0
 31
0.0
 73
     1
 44
1.0
  0
POINT
  5
4AD
330
4A4
100
AcDbEntity
  8
Defpoints
 62
     0
100
AcDbPoint
 10
-204.5380383781303
 20
-284.5175388516568
 30
0.0
  0
POINT
  5
4AE
330
4A4
100
AcDbEntity
  8
Defpoints
 62
     0
100
AcDbPoint
 10
-257.5380383781303
 20
-50.51753885165681
 30
0.0
  0
POINT
  5
4AF
330
4A4
100
AcDbEntity
  8
Defpoints
 62
     0
100
AcDbPoint
 10
-98.85136235273978
 20
-50.51753885165681
 30
0.0
  0
ENDBLK
  5
4A6
330
4A4
100
AcDbEntity
  8
0
100
AcDbBlockEnd
  0
BLOCK
  5
4B2
330
4B1
100
AcDbEntity
  8
0
100
AcDbBlockBegin
  2
*D23
 70
     1
 10
0.0
 20
0.0
 30
0.0
  3
*D23
  1

  0
LINE
  5
4B4
330
4B1
100
AcDbEntity
  8
0
  6
ByBlock
 62
     0
370
    -2
100
AcDbLine
 10
-255.2864209464897
 20
161.3066798983432
 30
0.0
 11
-93.62745433272015
 21
161.3066798983432
 31
0.0
  0
LINE
  5
4B5
330
4B1
100
AcDbEntity
  8
0
  6
ByBlock
 62
     0
370
    -2
100
AcDbLine
 10
-215.5380383781303
 20
34.30664938076507
 30
0.0
 11
-93.6274543327201
 21
34.30664938076511
 31
0.0
  0
LINE
  5
4B6
330
4B1
100
AcDbEntity
  8
0
  6
ByBlock
 62
     0
370
    -2
100
AcDbLine
 10
-96.48445659102104
 20
158.3066798983432
 30
0.0
 11
-96.484456591021
 21
37.30664938076511
 31
0.0
  0
INSERT
  5
4B7
330
4B1
100
AcDbEntity
  8
0
 62
     0
370
    -2
100
AcDbBlockReference
  2
_Open30
 10
-96.48445659102104
 20
161.3066798983432
 30
0.0
 41
3.0
 42
3.0
 43
3.0
 50
90.00000000000001
  0
INSERT
  5
4B8
330
4B1
100
AcDbEntity
  8
0
 62
     0
370
    -2
100
AcDbBlockReference
  2
_Open30
 10
-96.484456591021
 20
34.30664938076511
 30
0.0
 41
3.0
 42
3.0
 43
3.0
 50
270.0
  0
MTEXT
  5
4B9
330
4B1
100
AcDbEntity
  8
0
 62
     0
100
AcDbMText
 10
-100.984456591021
 20
97.80764938076507
 30
0.0
 40
6.0
 41
0.0
 71
     5
 72
     1
  1
127
 11
-3.356894007966809E-16
 21
1.0
 31
0.0
 73
     1
 44
1.0
  0
POINT
  5
4BA
330
4B1
100
AcDbEntity
  8
Defpoints
 62
     0
100
AcDbPoint
 10
-255.2864209464897
 20
161.3066798983432
 30
0.0
  0
POINT
  5
4BB
330
4B1
100
AcDbEntity
  8
Defpoints
 62
     0
100
AcDbPoint
 10
-215.5380383781303
 20
34.30664938076507
 30
0.0
  0
POINT
  5
4BC
330
4B1
100
AcDbEntity
  8
Defpoints
 62
     0
100
AcDbPoint
 10
-96.48545659102103
 20
34.30664938076507
 30
0.0
  0
ENDBLK
  5
4B3
330
4B1
100
AcDbEntity
  8
0
100
AcDbBlockEnd
  0
BLOCK
  5
4BF
330
4BE
100
AcDbEntity
  8
0
100
AcDbBlockBegin
  2
*D24
 70
     1
 10
0.0
 20
0.0
 30
0.0
  3
*D24
  1

  0
LINE
  5
4C1
330
4BE
100
AcDbEntity
  8
0
  6
ByBlock
 62
     0
370
    -2
100
AcDbLine
 10
1.68177973710408
 20
-50.51753885165681
 30
0.0
 11
1.68177973710408
 21
-27.0862644375943
 31
0.0
  0
LINE
  5
4C2
330
4BE
100
AcDbEntity
  8
0
  6
ByBlock
 62
     0
370
    -2
100
AcDbLine
 10
80.68177973710408
 20
-64.51753885165681
 30
0.0
 11
80.68177973710408
 21
-27.08626443759431
 31
0.0
  0
LINE
  5
4C3
330
4BE
100
AcDbEntity
  8
0
  6
ByBlock
 62
     0
370
    -2
100
AcDbLine
 10
4.68177973710408
 20
-29.94325906650055
 30
0.0
 11
77.68177973710408
 21
-29.94325906650056
 31
0.0
  0
INSERT
  5
4C4
330
4BE
100
AcDbEntity
  8
0
 62
     0
370
    -2
100
AcDbBlockReference
  2
_Open30
 10
1.68177973710408
 20
-29.94325906650055
 30
0.0
 41
3.0
 42
3.0
 43
3.0
 50
180.0
  0
INSERT
  5
4C5
330
4BE
100
AcDbEntity
  8
0
 62
     0
370
    -2
100
AcDbBlockReference
  2
_Open30
 10
80.68177973710408
 20
-29.94325906650056
 30
0.0
 41
3.0
 42
3.0
 43
3.0
 50
360.0
  0
MTEXT
  5
4C6
330
4BE
100
AcDbEntity
  8
0
 62
     0
100
AcDbMText
 10
41.18277973710408
 20
-25.44325906650056
 30
0.0
 40
6.0
 41
0.0
 71
     5
 72
     1
  1
79
 73
     1
 44
1.0
  0
POINT
  5
4C7
330
4BE
100
AcDbEntity
  8
Defpoints
 62
     0
100
AcDbPoint
 10
1.68177973710408
 20
-50.51753885165681
 30
0.0
  0
POINT
  5
4C8
330
4BE
100
AcDbEntity
  8
Defpoints
 62
     0
100
AcDbPoint
 10
80.68177973710408
 20
-64.51753885165681
 30
0.0
  0
POINT
  5
4C9
330
4BE
100
AcDbEntity
  8
Defpoints
 62
     0
100
AcDbPoint
 10
80.68177973710408
 20
-29.94325906650056
 30
0.0
  0
ENDBLK
  5
4C0
330
4BE
100
AcDbEntity
  8
0
100
AcDbBlockEnd
  0
BLOCK
  5
4D1
330
4CA
100
AcDbEntity
  8
0
100
AcDbBlockBegin
  2
SYM0003
 70
     0
 10
0.0
 20
0.0
 30
0.0
  3
SYM0003
  1

  0
LINE
  5
4CB
330
4CA
100
AcDbEntity
  8
0
  6
Continuous
 62
     7
100
AcDbLine
 10
0.0
 20
0.0
 30
0.0
 11
5.051650105462933
 21
-33.01550552886118
 31
0.0
  0
LINE
  5
4CC
330
4CA
100
AcDbEntity
  8
0
  6
Continuous
 62
     7
100
AcDbLine
 10
0.0
 20
0.0
 30
0.0
 11
1.013671028823019
 21
-2.995140738817611
 31
0.0
  0
LINE
  5
4CD
330
4CA
100
AcDbEntity
  8
0
  6
Continuous
 62
     7
100
AcDbLine
 10
0.0
 20
0.0
 30
0.0
 11
-0.071697383107512
 21
-3.161211237050679
 31
0.0
  0
LINE
  5
4CE
330
4CA
100
AcDbEntity
  8
0
  6
Continuous
 62
     7
100
AcDbLine
 10
5.051650105462933
 20
-33.01550552886121
 30
0.0
 11
11.27253890396344
 21
-33.0155360464486
 31
0.0
  0
MTEXT
  5
4CF
330
4CA
100
AcDbEntity
  8
0
 62
     7
100
AcDbMText
 10
14.70153753490436
 20
-36.01554497435245
 30
0.0
 40
6.0
 41
0.0
 71
     7
 72
     1
  1
{\W1;G1/2}
 73
     1
 44
1.0
  0
ENDBLK
  5
4D2
330
4CA
100
AcDbEntity
  8
0
100
AcDbBlockEnd
  0
BLOCK
  5
4D5
330
4D4
100
AcDbEntity
  8
0
100
AcDbBlockBegin
  2
*D26
 70
     1
 10
0.0
 20
0.0
 30
0.0
  3
*D26
  1

  0
LINE
  5
4D7
330
4D4
100
AcDbEntity
  8
0
  6
ByBlock
 62
     0
370
    -2
100
AcDbLine
 10
-38.31822026289592
 20
-211.2675388516568
 30
0.0
 11
-38.31822026289592
 21
-193.7167499722623
 31
0.0
  0
LINE
  5
4D8
330
4D4
100
AcDbEntity
  8
0
  6
ByBlock
 62
     0
370
    -2
100
AcDbLine
 10
41.68177973710408
 20
-211.2675388516568
 30
0.0
 11
41.68177973710407
 21
-193.7167499722623
 31
0.0
  0
LINE
  5
4D9
330
4D4
100
AcDbEntity
  8
0
  6
ByBlock
 62
     0
370
    -2
100
AcDbLine
 10
-38.31822026289592
 20
-196.5737503232144
 30
0.0
 11
-57.37638567252901
 21
-196.5737503232144
 31
0.0
  0
LINE
  5
4DA
330
4D4
100
AcDbEntity
  8
0
  6
ByBlock
 62
     0
370
    -2
100
AcDbLine
 10
-35.31822026289592
 20
-196.5737503232144
 30
0.0
 11
38.68177973710407
 21
-196.5737503232144
 31
0.0
  0
INSERT
  5
4DB
330
4D4
100
AcDbEntity
  8
0
 62
     0
370
    -2
100
AcDbBlockReference
  2
_Open30
 10
-38.31822026289592
 20
-196.5737503232144
 30
0.0
 41
3.0
 42
3.0
 43
3.0
 50
180.0
  0
INSERT
  5
4DC
330
4D4
100
AcDbEntity
  8
0
 62
     0
370
    -2
100
AcDbBlockReference
  2
_Open30
 10
41.68177973710407
 20
-196.5737503232144
 30
0.0
 41
3.0
 42
3.0
 43
3.0
  0
MTEXT
  5
4DD
330
4D4
100
AcDbEntity
  8
0
 62
     0
100
AcDbMText
 10
-51.01924281538616
 20
-192.0737503232144
 30
0.0
 40
6.0
 41
0.0
 71
     5
 72
     1
  1
80
 73
     1
 44
1.0
  0
POINT
  5
4DE
330
4D4
100
AcDbEntity
  8
Defpoints
 62
     0
100
AcDbPoint
 10
-38.31822026289592
 20
-211.2675388516568
 30
0.0
  0
POINT
  5
4DF
330
4D4
100
AcDbEntity
  8
Defpoints
 62
     0
100
AcDbPoint
 10
41.68177973710408
 20
-211.2675388516568
 30
0.0
  0
POINT
  5
4E0
330
4D4
100
AcDbEntity
  8
Defpoints
 62
     0
100
AcDbPoint
 10
41.68177973710408
 20
-196.5737503232144
 30
0.0
  0
ENDBLK
  5
4D6
330
4D4
100
AcDbEntity
  8
0
100
AcDbBlockEnd
  0
BLOCK
  5
4E3
330
4E2
100
AcDbEntity
  8
0
100
AcDbBlockBegin
  2
*D27
 70
     1
 10
0.0
 20
0.0
 30
0.0
  3
*D27
  1

  0
LINE
  5
4E5
330
4E2
100
AcDbEntity
  8
0
  6
ByBlock
 62
     0
370
    -2
100
AcDbLine
 10
-128.1660519889701
 20
-261.5175388516568
 30
0.0
 11
-133.8780488761772
 21
-261.5175388516568
 31
0.0
  0
LINE
  5
4E6
330
4E2
100
AcDbEntity
  8
0
  6
ByBlock
 62
     0
370
    -2
100
AcDbLine
 10
-95.99436009443889
 20
-284.5175388516568
 30
0.0
 11
-133.8780488761772
 21
-284.5175388516568
 31
0.0
  0
LINE
  5
4E7
330
4E2
100
AcDbEntity
  8
0
  6
ByBlock
 62
     0
370
    -2
100
AcDbLine
 10
-131.021054247271
 20
-264.5175388516568
 30
0.0
 11
-131.021054247271
 21
-281.5175388516568
 31
0.0
  0
INSERT
  5
4E8
330
4E2
100
AcDbEntity
  8
0
 62
     0
370
    -2
100
AcDbBlockReference
  2
_Open30
 10
-131.021054247271
 20
-261.5175388516568
 30
0.0
 41
3.0
 42
3.0
 43
3.0
 50
90.0
  0
INSERT
  5
4E9
330
4E2
100
AcDbEntity
  8
0
 62
     0
370
    -2
100
AcDbBlockReference
  2
_Open30
 10
-131.021054247271
 20
-284.5175388516568
 30
0.0
 41
3.0
 42
3.0
 43
3.0
 50
270.0
  0
MTEXT
  5
4EA
330
4E2
100
AcDbEntity
  8
0
 62
     0
100
AcDbMText
 10
-135.521054247271
 20
-273.0165388516568
 30
0.0
 40
6.0
 41
0.0
 71
     5
 72
     1
  1
23
 11
0.0
 21
1.0
 31
0.0
 73
     1
 44
1.0
  0
POINT
  5
4EB
330
4E2
100
AcDbEntity
  8
Defpoints
 62
     0
100
AcDbPoint
 10
-128.1660519889701
 20
-261.5175388516568
 30
0.0
  0
POINT
  5
4EC
330
4E2
100
AcDbEntity
  8
Defpoints
 62
     0
100
AcDbPoint
 10
-95.99436009443889
 20
-284.5175388516568
 30
0.0
  0
POINT
  5
4ED
330
4E2
100
AcDbEntity
  8
Defpoints
 62
     0
100
AcDbPoint
 10
-131.023054247271
 20
-284.5175388516568
 30
0.0
  0
ENDBLK
  5
4E4
330
4E2
100
AcDbEntity
  8
0
100
AcDbBlockEnd
  0
ENDSEC
  0
SECTION
  2
ENTITIES
  0
LINE
  5
3DB
330
1F
100
AcDbEntity
  8
0
  6
Continuous
 62
     7
100
AcDbLine
 10
-412.9252619257821
 20
194.3176351549293
 30
0.0
 11
387.0747380742179
 21
194.3176351549293
 31
0.0
  0
LINE
  5
3DC
330
1F
100
AcDbEntity
  8
0
  6
Continuous
 62
     7
100
AcDbLine
 10
-412.9252619257821
 20
224.3176351549293
 30
0.0
 11
-412.9252619257821
 21
-355.6823648450707
 31
0.0
  0
LINE
  5
3DD
330
1F
100
AcDbEntity
  8
0
  6
Continuous
 62
     7
100
AcDbLine
 10
387.0747380742179
 20
224.3176351549293
 30
0.0
 11
387.0747380742179
 21
-355.6823648450707
 31
0.0
  0
LINE
  5
3DE
330
1F
100
AcDbEntity
  8
0
  6
Continuous
 62
     7
100
AcDbLine
 10
-412.9252619257821
 20
-355.6823648450707
 30
0.0
 11
387.0747380742179
 21
-355.6823648450707
 31
0.0
  0
LINE
  5
3DF
330
1F
100
AcDbEntity
  8
0
  6
Continuous
 62
     7
100
AcDbLine
 10
-412.9252619257821
 20
224.3176351549293
 30
0.0
 11
387.0747380742179
 21
224.3176351549293
 31
0.0
  0
MTEXT
  5
3E0
330
1F
100
AcDbEntity
  8
0
 62
     7
100
AcDbMText
 10
-132.155015820236
 20
13.3990575059006
 30
0.0
 40
10.0
 41
0.0
 71
     7
 72
     1
  1
{\W0.833333;*2}
 73
     1
 44
1.0
  0
MTEXT
  5
3E1
330
1F
100
AcDbEntity
  8
0
 62
     7
100
AcDbMText
 10
-130.6129145402249
 20
-40.07932318736607
 30
0.0
 40
10.0
 41
0.0
 71
     7
 72
     1
  1
{\W0.833333;*1}
 73
     1
 44
1.0
  0
MTEXT
  5
3E2
330
1F
100
AcDbEntity
  8
0
 62
     7
100
AcDbMText
 10
179.416008264915
 20
-45.03845464179085
 30
0.0
 40
10.0
 41
0.0
 71
     7
 72
     1
  1
{\W0.833333;*4}
 73
     1
 44
1.0
  0
MTEXT
  5
3E3
330
1F
100
AcDbEntity
  8
0
 62
     7
100
AcDbMText
 10
-45.50334641356049
 20
-41.9376107010487
 30
0.0
 40
10.0
 41
0.0
 71
     7
 72
     1
  1
{\W0.833333;*3}
 73
     1
 44
1.0
  0
MTEXT
  5
3E4
330
1F
100
AcDbEntity
  8
0
 62
     7
100
AcDbMText
 10
381.3960815665213
 20
-355.4649381055089
 30
0.0
 40
0.5
 41
0.0
 71
     7
 72
     1
  1
{\W0.833333;JCAD-0003-A}
 73
     1
 44
1.0
  0
MTEXT
  5
3E5
330
1F
100
AcDbEntity
  8
0
 62
     7
100
AcDbMText
 10
-363.3538119307412
 20
203.3176351549293
 30
0.0
 40
12.0
 41
0.0
 71
     7
 72
     1
  1
{\W0.833333;NIHON　SEIKI　BN-764S-10-G***}
 73
     1
 44
1.0
  0
INSERT
  5
3E6
330
1F
100
AcDbEntity
  8
0
 62
     7
100
AcDbBlockReference
  2
DTL0001
 10
-280.5380383781303
 20
-218.5175388516568
 30
0.0
  0
INSERT
  5
3E7
330
1F
100
AcDbEntity
  8
0
 62
     7
100
AcDbBlockReference
  2
DTL0002
 10
-280.5380688957084
 20
80.30664938076507
 30
0.0
  0
INSERT
  5
3E8
330
1F
100
AcDbEntity
  8
0
 62
     7
100
AcDbBlockReference
  2
DTL0003
 10
1.68177973710408
 20
-218.5175388516568
 30
0.0
  0
INSERT
  5
3E9
330
1F
100
AcDbEntity
  8
0
 62
     7
100
AcDbBlockReference
  2
DTL0004
 10
236.9015978523385
 20
-218.5175388516568
 30
0.0
  0
INSERT
  5
3F0
330
1F
100
AcDbEntity
  8
0
 62
     7
100
AcDbBlockReference
  2
SYM0001
 10
-273.4608520961289
 20
-267.934096055609
 30
0.0
  0
DIMENSION
  5
3F3
330
1F
100
AcDbEntity
  8
0
 62
     7
100
AcDbDimension
  2
*D8
 10
-280.5380383781303
 20
-319.1309950284146
 30
0.0
 11
-323.5370078605522
 21
-319.1309950284146
 31
0.0
 70
   160
 71
     5
 42
85.99996948242188
  3
DIMSTYLE_FULLSCALE
100
AcDbAlignedDimension
 13
-366.5380078605522
 23
-232.3925388516568
 33
0.0
 14
-280.5380383781303
 24
-281.5175388516568
 34
0.0
 50
180.0
100
AcDbRotatedDimension
1001
ACAD
1000
DSTYLE
1002
{
1070
    40
1040
1.0
1070
   278
1070
    46
1070
   147
1040
1.5
1070
    77
1070
     1
1070
    74
1070
     0
1070
    73
1070
     0
1070
    42
1040
0.0
1070
    44
1040
2.857002258300781
1070
    76
1070
     0
1070
    75
1070
     0
1070
   279
1070
     0
1070
   271
1070
     0
1070
   144
1040
1.0
1070
   173
1070
     1
1070
    41
1040
3.0
1070
   140
1040
6.0
1070
   344
1005
3F4
1070
   343
1005
3F4
1002
}
  0
DIMENSION
  5
407
330
1F
100
AcDbEntity
  8
0
 62
     7
100
AcDbDimension
  2
*D9
 10
-154.5380383781304
 20
-319.1309950284146
 30
0.0
 11
-217.5370383781304
 21
-319.1309950284146
 31
0.0
 70
   160
 71
     5
 42
126.0
  3
DIMSTYLE_FULLSCALE
100
AcDbAlignedDimension
 13
-280.5380383781303
 23
-281.5175388516568
 33
0.0
 14
-154.5380383781304
 24
-232.3925388516568
 34
0.0
 50
180.0
100
AcDbRotatedDimension
1001
ACAD
1000
DSTYLE
1002
{
1070
    40
1040
1.0
1070
   278
1070
    46
1070
   147
1040
1.5
1070
    77
1070
     1
1070
    74
1070
     0
1070
    73
1070
     0
1070
    42
1040
0.0
1070
    44
1040
2.857002258300781
1070
    76
1070
     0
1070
    75
1070
     1
1070
   279
1070
     0
1070
   271
1070
     0
1070
   144
1040
1.000000000000001
1070
   173
1070
     1
1070
    41
1040
3.0
1070
   140
1040
6.0
1070
   344
1005
3F4
1070
   343
1005
3F4
1002
}
  0
DIMENSION
  5
413
330
1F
100
AcDbEntity
  8
0
 62
     7
100
AcDbDimension
  2
*D10
 10
-154.5380383781304
 20
-333.8035719327115
 30
0.0
 11
-260.5370078605523
 21
-333.8035719327115
 31
0.0
 70
   160
 71
     5
 42
211.9999694824218
  3
DIMSTYLE_FULLSCALE
100
AcDbAlignedDimension
 13
-366.5380078605522
 23
-232.3925388516568
 33
0.0
 14
-154.5380383781304
 24
-232.3925388516568
 34
0.0
 50
180.0
100
AcDbRotatedDimension
1001
ACAD
1000
DSTYLE
1002
{
1070
    40
1040
1.0
1070
   278
1070
    46
1070
   147
1040
1.5
1070
    77
1070
     1
1070
    74
1070
     0
1070
    73
1070
     0
1070
    42
1040
0.0
1070
    44
1040
2.857002258300781
1070
    76
1070
     0
1070
    75
1070
     0
1070
   279
1070
     0
1070
   271
1070
     0
1070
   144
1040
1.0
1070
   173
1070
     1
1070
    41
1040
3.0
1070
   140
1040
6.0
1070
   344
1005
3F4
1070
   343
1005
3F4
1002
}
  0
DIMENSION
  5
420
330
1F
100
AcDbEntity
  8
0
 62
     7
100
AcDbDimension
  2
*D11
 10
-171.226888231646
 20
-284.5175388516568
 30
0.0
 11
-171.226888231646
 21
-278.5165388516568
 31
0.0
 70
   160
 71
     5
 42
12.0
  3
DIMSTYLE_FULLSCALE
100
AcDbAlignedDimension
 13
-204.5380383781303
 23
-272.5175388516568
 33
0.0
 14
-204.5380383781303
 24
-284.5175388516568
 34
0.0
 50
90.00000000000001
100
AcDbRotatedDimension
1001
ACAD
1000
DSTYLE
1002
{
1070
    40
1040
1.0
1070
   278
1070
    46
1070
   147
1040
1.5
1070
    77
1070
     1
1070
    74
1070
     0
1070
    73
1070
     0
1070
    42
1040
0.0
1070
    44
1040
2.856994628906364
1070
    76
1070
     0
1070
    75
1070
     0
1070
   279
1070
     0
1070
   271
1070
     0
1070
   144
1040
1.0
1070
   173
1070
     1
1070
    41
1040
3.0
1070
   140
1040
6.0
1070
   344
1005
3F4
1070
   343
1005
3F4
1002
}
  0
DIMENSION
  5
42D
330
1F
100
AcDbEntity
  8
0
 62
     7
100
AcDbDimension
  2
*D12
 10
-131.022054247271
 20
-261.5175388516568
 30
0.0
 11
-131.022054247271
 21
-240.0165388516568
 31
0.0
 70
   160
 71
     5
 42
42.99999999999996
  3
DIMSTYLE_FULLSCALE
100
AcDbAlignedDimension
 13
-154.5380383781303
 23
-218.5175388516568
 33
0.0
 14
-263.787977342974
 24
-261.5175388516568
 34
0.0
 50
90.00000000000001
100
AcDbRotatedDimension
1001
ACAD
1000
DSTYLE
1002
{
1070
    40
1040
1.0
1070
   278
1070
    46
1070
   147
1040
1.5
1070
    77
1070
     1
1070
    74
1070
     0
1070
    73
1070
     0
1070
    42
1040
0.0
1070
    44
1040
2.857002258300895
1070
    76
1070
     0
1070
    75
1070
     0
1070
   279
1070
     0
1070
   271
1070
     0
1070
   144
1040
1.0
1070
   173
1070
     1
1070
    41
1040
3.0
1070
   140
1040
6.0
1070
   344
1005
3F4
1070
   343
1005
3F4
1002
}
  0
DIMENSION
  5
43A
330
1F
100
AcDbEntity
  8
0
 62
     7
100
AcDbDimension
  2
*D13
 10
-115.4965955070367
 20
-218.5175388516568
 30
0.0
 11
-115.4965955070367
 21
-251.5165388516568
 31
0.0
 70
   160
 71
     5
 42
66.00000000000001
  3
DIMSTYLE_FULLSCALE
100
AcDbAlignedDimension
 13
-204.5380383781303
 23
-284.5175388516568
 33
0.0
 14
-154.5380383781303
 24
-218.5175388516568
 34
0.0
 50
270.0
100
AcDbRotatedDimension
1001
ACAD
1000
DSTYLE
1002
{
1070
    40
1040
1.0
1070
   278
1070
    46
1070
   147
1040
1.5
1070
    77
1070
     1
1070
    74
1070
     0
1070
    73
1070
     0
1070
    42
1040
0.0
1070
    44
1040
2.857002258300895
1070
    76
1070
     0
1070
    75
1070
     0
1070
   279
1070
     0
1070
   271
1070
     0
1070
   144
1040
1.0
1070
   173
1070
     1
1070
    41
1040
3.0
1070
   140
1040
6.0
1070
   344
1005
3F4
1070
   343
1005
3F4
1002
}
  0
DIMENSION
  5
447
330
1F
100
AcDbEntity
  8
0
 62
     7
100
AcDbDimension
  2
*D14
 10
-280.5380688957084
 20
11.45849776943694
 30
0.0
 11
-313.0370078605522
 21
11.45849776943694
 31
0.0
 70
   160
 71
     5
 42
64.99996948242189
  3
DIMSTYLE_FULLSCALE
100
AcDbAlignedDimension
 13
-345.5380078605522
 23
39.80664938084965
 33
0.0
 14
-280.5380688957084
 24
40.30664938076507
 34
0.0
 50
180.0
100
AcDbRotatedDimension
1001
ACAD
1000
DSTYLE
1002
{
1070
    40
1040
1.0
1070
   278
1070
    46
1070
   147
1040
1.5
1070
    77
1070
     1
1070
    74
1070
     0
1070
    73
1070
     0
1070
    42
1040
0.0
1070
    44
1040
2.857009887695312
1070
    76
1070
     0
1070
    75
1070
     0
1070
   279
1070
     0
1070
   271
1070
     0
1070
   144
1040
1.000000469501643
1070
   173
1070
     1
1070
    41
1040
3.0
1070
   140
1040
6.0
1070
   344
1005
3F4
1070
   343
1005
3F4
1002
}
  0
DIMENSION
  5
454
330
1F
100
AcDbEntity
  8
0
 62
     7
100
AcDbDimension
  2
*D15
 10
-215.5380383781304
 20
11.45849776943694
 30
0.0
 11
-248.0370383781304
 21
11.45849776943694
 31
0.0
 70
   160
 71
     5
 42
65.0
  3
DIMSTYLE_FULLSCALE
100
AcDbAlignedDimension
 13
-280.5380688957084
 23
40.30664938076507
 33
0.0
 14
-215.5380383781304
 24
39.80664938084965
 34
0.0
 50
180.0
100
AcDbRotatedDimension
1001
ACAD
1000
DSTYLE
1002
{
1070
    40
1040
1.0
1070
   278
1070
    46
1070
   147
1040
1.5
1070
    77
1070
     1
1070
    74
1070
     0
1070
    73
1070
     0
1070
    42
1040
0.0
1070
    44
1040
2.857009887695312
1070
    76
1070
     0
1070
    75
1070
     1
1070
   279
1070
     0
1070
   271
1070
     0
1070
   144
1040
0.99999953049902
1070
   173
1070
     1
1070
    41
1040
3.0
1070
   140
1040
6.0
1070
   344
1005
3F4
1070
   343
1005
3F4
1002
}
  0
DIMENSION
  5
460
330
1F
100
AcDbEntity
  8
0
 62
     7
100
AcDbDimension
  2
*D16
 10
-215.5380383781304
 20
-4.173765414156817
 30
0.0
 11
-280.5370078605522
 21
-4.173765414156809
 31
0.0
 70
   160
 71
     5
 42
129.9999694824219
  3
DIMSTYLE_FULLSCALE
100
AcDbAlignedDimension
 13
-345.5380078605522
 23
8.600487881741628
 33
0.0
 14
-215.5380383781304
 24
8.600487881741628
 34
0.0
 50
180.0
100
AcDbRotatedDimension
1001
ACAD
1000
DSTYLE
1002
{
1070
    40
1040
1.0
1070
   278
1070
    46
1070
   147
1040
1.5
1070
    77
1070
     1
1070
    74
1070
     0
1070
    73
1070
     0
1070
    42
1040
0.0
1070
    44
1040
2.85699462890625
1070
    76
1070
     0
1070
    75
1070
     0
1070
   279
1070
     0
1070
   271
1070
     0
1070
   144
1040
1.000000000000001
1070
   173
1070
     1
1070
    41
1040
3.0
1070
   140
1040
6.0
1070
   344
1005
3F4
1070
   343
1005
3F4
1002
}
  0
DIMENSION
  5
46D
330
1F
100
AcDbEntity
  8
0
 62
     7
100
AcDbDimension
  2
*D17
 10
-133.265241747271
 20
115.3066493807651
 30
0.0
 11
-133.265241747271
 21
80.30764938076507
 31
0.0
 70
   160
 71
     5
 42
70.0
  3
DIMSTYLE_FULLSCALE
100
AcDbAlignedDimension
 13
-210.0380688957084
 23
45.30664938076507
 33
0.0
 14
-210.0380688957084
 24
115.3066493807651
 34
0.0
 50
270.0
100
AcDbRotatedDimension
1001
ACAD
1000
DSTYLE
1002
{
1070
    40
1040
1.0
1070
   278
1070
    46
1070
   147
1040
1.5
1070
    77
1070
     1
1070
    74
1070
     0
1070
    73
1070
     0
1070
    42
1040
0.0
1070
    44
1040
2.857002258300895
1070
    76
1070
     0
1070
    75
1070
     0
1070
   279
1070
     0
1070
   271
1070
     0
1070
   144
1040
1.0
1070
   173
1070
     1
1070
    41
1040
3.0
1070
   140
1040
6.0
1070
   344
1005
3F4
1070
   343
1005
3F4
1002
}
  0
DIMENSION
  5
47A
330
1F
100
AcDbEntity
  8
0
 62
     7
100
AcDbDimension
  2
*D18
 10
-115.8294049552788
 20
126.3066493807651
 30
0.0
 11
-115.8294049552788
 21
80.30764938076507
 31
0.0
 70
   160
 71
     5
 42
92.0
  3
DIMSTYLE_FULLSCALE
100
AcDbAlignedDimension
 13
-215.5380383781303
 23
34.30664938076507
 33
0.0
 14
-215.5380383781303
 24
126.3066493807651
 34
0.0
 50
270.0
100
AcDbRotatedDimension
1001
ACAD
1000
DSTYLE
1002
{
1070
    40
1040
1.0
1070
   278
1070
    46
1070
   147
1040
1.5
1070
    77
1070
     1
1070
    74
1070
     0
1070
    73
1070
     0
1070
    42
1040
0.0
1070
    44
1040
2.857002258300895
1070
    76
1070
     0
1070
    75
1070
     0
1070
   279
1070
     0
1070
   271
1070
     0
1070
   144
1040
1.0
1070
   173
1070
     1
1070
    41
1040
3.0
1070
   140
1040
6.0
1070
   344
1005
3F4
1070
   343
1005
3F4
1002
}
  0
INSERT
  5
48D
330
1F
100
AcDbEntity
  8
0
 62
     7
100
AcDbBlockReference
  2
SYM0002
 10
-213.406114743109
 20
40.05052074530614
 30
0.0
  0
DIMENSION
  5
490
330
1F
100
AcDbEntity
  8
0
 62
     7
100
AcDbDimension
  2
*D21
 10
-255.5380383781304
 20
-305.3949720791959
 30
0.0
 11
-292.2919135864156
 21
-305.3949720791959
 31
0.0
 70
   160
 71
     5
 42
50.0
  3
DIMSTYLE_FULLSCALE
100
AcDbAlignedDimension
 13
-305.5380383781303
 23
-233.0235965909146
 33
0.0
 14
-255.5380383781304
 24
-233.0235965909146
 34
0.0
 50
180.0
100
AcDbRotatedDimension
1001
ACAD
1000
DSTYLE
1002
{
1070
    40
1040
1.0
1070
   278
1070
    46
1070
   147
1040
1.5
1070
    77
1070
     1
1070
    74
1070
     0
1070
    73
1070
     0
1070
    42
1040
0.0
1070
    44
1040
2.286000000000058
1070
    76
1070
     0
1070
    75
1070
     0
1070
   279
1070
     0
1070
   271
1070
     0
1070
   144
1040
1.000000000000002
1070
   173
1070
     1
1070
    41
1040
3.114
1070
   140
1040
6.0
1070
   344
1005
491
1070
   343
1005
491
1002
}
  0
DIMENSION
  5
4A3
330
1F
100
AcDbEntity
  8
0
 62
     7
100
AcDbDimension
  2
*D22
 10
-98.85136235273977
 20
-50.51753885165681
 30
0.0
 11
-98.85136235273978
 21
-167.5165388516568
 31
0.0
 70
   160
 71
     5
 42
234.0
  3
DIMSTYLE_FULLSCALE
100
AcDbAlignedDimension
 13
-204.5380383781303
 23
-284.5175388516568
 33
0.0
 14
-257.5380383781303
 24
-50.51753885165681
 34
0.0
 50
270.0
100
AcDbRotatedDimension
1001
ACAD
1000
DSTYLE
1002
{
1070
    40
1040
1.0
1070
   278
1070
    46
1070
   147
1040
1.5
1070
    77
1070
     1
1070
    74
1070
     0
1070
    73
1070
     0
1070
    42
1040
0.0
1070
    44
1040
2.857002258300895
1070
    76
1070
     0
1070
    75
1070
     0
1070
   279
1070
     0
1070
   271
1070
     0
1070
   144
1040
1.0
1070
   173
1070
     1
1070
    41
1040
3.0
1070
   140
1040
6.0
1070
   344
1005
3F4
1070
   343
1005
3F4
1002
}
  0
DIMENSION
  5
4B0
330
1F
100
AcDbEntity
  8
0
 62
     7
100
AcDbDimension
  2
*D23
 10
-96.484456591021
 20
34.30664938076511
 30
0.0
 11
-96.48445659102103
 21
97.80764938076507
 31
0.0
 70
   160
 71
     5
 42
127.0
  3
DIMSTYLE_FULLSCALE
100
AcDbAlignedDimension
 13
-255.2864209464897
 23
161.3066798983432
 33
0.0
 14
-215.5380383781303
 24
34.30664938076507
 34
0.0
 50
90.00000000000001
100
AcDbRotatedDimension
1001
ACAD
1000
DSTYLE
1002
{
1070
    40
1040
1.0
1070
   278
1070
    46
1070
   147
1040
1.5
1070
    77
1070
     1
1070
    74
1070
     0
1070
    73
1070
     0
1070
    42
1040
0.0
1070
    44
1040
2.857002258300895
1070
    76
1070
     0
1070
    75
1070
     0
1070
   279
1070
     0
1070
   271
1070
     0
1070
   144
1040
0.999999759704167
1070
   173
1070
     1
1070
    41
1040
3.0
1070
   140
1040
6.0
1070
   344
1005
3F4
1070
   343
1005
3F4
1002
}
  0
DIMENSION
  5
4BD
330
1F
100
AcDbEntity
  8
0
 62
     7
100
AcDbDimension
  2
*D24
 10
80.68177973710408
 20
-29.94325906650056
 30
0.0
 11
41.18277973710408
 21
-29.94325906650056
 31
0.0
 70
   160
 71
     5
 42
79.0
  3
DIMSTYLE_FULLSCALE
100
AcDbAlignedDimension
 13
1.68177973710408
 23
-50.51753885165681
 33
0.0
 14
80.68177973710408
 24
-64.51753885165681
 34
0.0
 50
180.0
100
AcDbRotatedDimension
1001
ACAD
1000
DSTYLE
1002
{
1070
    40
1040
1.0
1070
   278
1070
    46
1070
   147
1040
1.5
1070
    77
1070
     1
1070
    74
1070
     0
1070
    73
1070
     0
1070
    42
1040
0.0
1070
    44
1040
2.85699462890625
1070
    76
1070
     0
1070
    75
1070
     0
1070
   279
1070
     0
1070
   271
1070
     0
1070
   144
1040
1.0
1070
   173
1070
     1
1070
    41
1040
3.0
1070
   140
1040
6.0
1070
   344
1005
3F4
1070
   343
1005
3F4
1002
}
  0
INSERT
  5
4D0
330
1F
100
AcDbEntity
  8
0
 62
     7
100
AcDbBlockReference
  2
SYM0003
 10
54.97373373261478
 20
-100.9675319022079
 30
0.0
  0
DIMENSION
  5
4D3
330
1F
100
AcDbEntity
  8
0
 62
     7
100
AcDbDimension
  2
*D26
 10
41.68177973710407
 20
-196.5737503232144
 30
0.0
 11
-51.01924281538616
 21
-196.5737503232144
 31
0.0
 70
   160
 71
     5
 42
80.0
  3
DIMSTYLE_FULLSCALE
100
AcDbAlignedDimension
 13
-38.31822026289592
 23
-211.2675388516568
 33
0.0
 14
41.68177973710408
 24
-211.2675388516568
 34
0.0
 50
180.0
100
AcDbRotatedDimension
1001
ACAD
1000
DSTYLE
1002
{
1070
    40
1040
1.0
1070
   278
1070
    46
1070
   147
1040
1.5
1070
    77
1070
     1
1070
    74
1070
     0
1070
    73
1070
     0
1070
    42
1040
0.0
1070
    44
1040
2.857000350952148
1070
    76
1070
     0
1070
    75
1070
     0
1070
   279
1070
     0
1070
   271
1070
     0
1070
   144
1040
1.0
1070
   173
1070
     1
1070
    41
1040
3.0
1070
   140
1040
6.0
1070
   344
1005
3F4
1070
   343
1005
3F4
1002
}
  0
DIMENSION
  5
4E1
330
1F
100
AcDbEntity
  8
0
 62
     7
100
AcDbDimension
  2
*D27
 10
-131.021054247271
 20
-284.5175388516568
 30
0.0
 11
-131.021054247271
 21
-273.0165388516568
 31
0.0
 70
   160
 71
     5
 42
23.00000000000001
  3
DIMSTYLE_FULLSCALE
100
AcDbAlignedDimension
 13
-128.1660519889701
 23
-261.5175388516568
 33
0.0
 14
-95.99436009443889
 24
-284.5175388516568
 34
0.0
 50
90.00000000000001
100
AcDbRotatedDimension
1001
ACAD
1000
DSTYLE
1002
{
1070
    40
1040
1.0
1070
   278
1070
    46
1070
   147
1040
1.5
1070
    77
1070
     1
1070
    74
1070
     0
1070
    73
1070
     0
1070
    42
1040
0.0
1070
    44
1040
2.856994628906136
1070
    76
1070
     0
1070
    75
1070
     0
1070
   279
1070
     0
1070
   271
1070
     0
1070
   144
1040
1.0
1070
   173
1070
     1
1070
    41
1040
3.0
1070
   140
1040
6.0
1070
   344
1005
3F4
1070
   343
1005
3F4
1002
}
  0
ENDSEC
  0
SECTION
  2
OBJECTS
  0
DICTIONARY
  5
C
330
0
100
AcDbDictionary
281
     1
  3
ACAD_GROUP
350
D
  3
ACAD_LAYOUT
350
1A
  3
ACAD_MATERIAL
350
43
  3
ACAD_MLEADERSTYLE
350
6B
  3
ACAD_MLINESTYLE
350
17
  3
ACAD_PLOTSETTINGS
350
19
  3
ACAD_PLOTSTYLENAME
350
E
  3
ACAD_SCALELIST
350
47
  3
ACAD_TABLESTYLE
350
69
  3
ACAD_VISUALSTYLE
350
2A
  3
AcDbVariableDictionary
350
4EE
  3
DWGPROPS
350
4F9
  0
DICTIONARY
  5
4FA
330
8
100
AcDbDictionary
280
     1
281
     1
  3
ACAD_XREC_ROUNDTRIP
360
4FB
  0
DICTIONARY
  5
D
102
{ACAD_REACTORS
330
C
102
}
330
C
100
AcDbDictionary
281
     1
  0
DICTIONARY
  5
1A
102
{ACAD_REACTORS
330
C
102
}
330
C
100
AcDbDictionary
281
     1
  3
Layout1
350
1E
  3
Layout2
350
26
  3
Model
350
22
  0
DICTIONARY
  5
43
102
{ACAD_REACTORS
330
C
102
}
330
C
100
AcDbDictionary
281
     1
  3
ByBlock
350
45
  3
ByLayer
350
44
  3
Global
350
46
  0
DICTIONARY
  5
6B
102
{ACAD_REACTORS
330
C
102
}
330
C
100
AcDbDictionary
281
     1
  3
Standard
350
6C
  0
DICTIONARY
  5
17
102
{ACAD_REACTORS
330
C
102
}
330
C
100
AcDbDictionary
281
     1
  3
Standard
350
18
  0
DICTIONARY
  5
19
102
{ACAD_REACTORS
330
C
102
}
330
C
100
AcDbDictionary
281
     1
  0
ACDBDICTIONARYWDFLT
  5
E
102
{ACAD_REACTORS
330
C
102
}
330
C
100
AcDbDictionary
281
     1
  3
Normal
350
F
100
AcDbDictionaryWithDefault
340
F
  0
DICTIONARY
  5
47
102
{ACAD_REACTORS
330
C
102
}
330
C
100
AcDbDictionary
281
     1
  3
A0
350
48
  3
A1
350
49
  3
A2
350
4A
  3
A3
350
4B
  3
A4
350
4C
  3
A5
350
4D
  3
A6
350
4E
  3
A7
350
4F
  3
A8
350
50
  3
A9
350
51
  3
B0
350
52
  3
B1
350
53
  3
B2
350
54
  3
B3
350
55
  3
B4
350
56
  3
B5
350
57
  3
B6
350
58
  3
B7
350
59
  3
B8
350
5A
  3
B9
350
5B
  3
C0
350
5C
  3
C1
350
5D
  3
C2
350
5E
  3
C3
350
5F
  3
C4
350
60
  3
C5
350
61
  3
C6
350
62
  3
C7
350
63
  3
C8
350
64
  3
C9
350
65
  3
D0
350
66
  3
D1
350
67
  3
D2
350
68
  0
DICTIONARY
  5
69
102
{ACAD_REACTORS
330
C
102
}
330
C
100
AcDbDictionary
281
     1
  3
Standard
350
6A
  0
DICTIONARY
  5
2A
102
{ACAD_REACTORS
330
C
102
}
330
C
100
AcDbDictionary
281
     1
  3
2dWireframe
350
2F
  3
Basic
350
32
  3
Brighten
350
36
  3
ColorChange
350
3A
  3
Conceptual
350
34
  3
Dim
350
35
  3
EdgeColorOff
350
3D
  3
Facepattern
350
39
  3
Flat
350
2B
  3
FlatWithEdges
350
2C
  3
Gouraud
350
2D
  3
GouraudWithEdges
350
2E
  3
Hidden
350
31
  3
JitterOff
350
3B
  3
Linepattern
350
38
  3
OverhangOff
350
3C
  3
Realistic
350
33
  3
Shaded
350
42
  3
Shaded with edges
350
41
  3
Shades of Gray
350
3E
  3
Sketchy
350
3F
  3
Thicken
350
37
  3
Wireframe
350
30
  3
X-Ray
350
40
  0
DICTIONARY
  5
4EE
102
{ACAD_REACTORS
330
C
102
}
330
C
100
AcDbDictionary
281
     1
  3
CANNOSCALE
350
500
  3
CENTEREXE
350
4F5
  3
CENTERLTYPEFILE
350
4F6
  3
CMLEADERSTYLE
350
4F0
  3
CTABLESTYLE
350
4EF
  3
DIMASSOC
350
4F7
  3
HIDETEXT
350
4F8
  3
MSLTSCALE
350
501
  3
PSOLHEIGHT
350
4F2
  3
PSOLWIDTH
350
4F1
  0
XRECORD
  5
4F9
102
{ACAD_REACTORS
330
C
102
}
330
C
100
AcDbXrecord
280
     1
  1
DWGPROPS COOKIE
  2

  3

  4

  6

  7

  8
CADAM
  9

300
=
301
=
302
=
303
=
304
=
305
=
306
=
307
=
308
=
309
=
 40
0.0
 41
2459069.101166817
 42
2459069.101167188
  1

 90
        0
  0
XRECORD
  5
4FB
102
{ACAD_REACTORS
330
4FA
102
}
330
4FA
100
AcDbXrecord
280
     1
102
VTR_0.000_0.000_1.000_1.000_VISUALSTYLE
340
2F
102
VTR_0.000_0.000_1.000_1.000_GRIDDISPLAY
 70
     3
102
VTR_0.000_0.000_1.000_1.000_GRIDMAJOR
 70
     5
102
VTR_0.000_0.000_1.000_1.000_DEFAULTLIGHTING
280
     1
102
VTR_0.000_0.000_1.000_1.000_DEFAULTLIGHTINGTYPE
 70
     1
102
VTR_0.000_0.000_1.000_1.000_BRIGHTNESS
141
0.0
102
VTR_0.000_0.000_1.000_1.000_CONTRAST
142
0.0
  0
LAYOUT
  5
1E
102
{ACAD_REACTORS
330
1A
102
}
330
1A
100
AcDbPlotSettings
  1

  2
none_device
  4

  6

 40
0.0
 41
0.0
 42
0.0
 43
0.0
 44
0.0
 45
0.0
 46
0.0
 47
0.0
 48
0.0
 49
0.0
140
0.0
141
0.0
142
1.0
143
1.0
 70
   688
 72
     1
 73
     0
 74
     5
  7

 75
    16
147
1.0
148
0.0
149
0.0
100
AcDbLayout
  1
Layout1
 70
     1
 71
     1
 10
-412.9252619257821
 20
-355.6823648450707
 11
387.0747380742179
 21
224.3176351549293
 12
0.0
 22
0.0
 32
0.0
 14
1.000000000000000E+20
 24
1.000000000000000E+20
 34
1.000000000000000E+20
 15
-1.000000000000000E+20
 25
-1.000000000000000E+20
 35
-1.000000000000000E+20
146
0.0
 13
0.0
 23
0.0
 33
0.0
 16
1.0
 26
0.0
 36
0.0
 17
0.0
 27
1.0
 37
0.0
 76
     0
330
1B
  0
LAYOUT
  5
26
102
{ACAD_REACTORS
330
1A
102
}
330
1A
100
AcDbPlotSettings
  1

  2
none_device
  4

  6

 40
0.0
 41
0.0
 42
0.0
 43
0.0
 44
0.0
 45
0.0
 46
0.0
 47
0.0
 48
0.0
 49
0.0
140
0.0
141
0.0
142
1.0
143
1.0
 70
   688
 72
     1
 73
     0
 74
     5
  7

 75
    16
147
1.0
148
0.0
149
0.0
100
AcDbLayout
  1
Layout2
 70
     1
 71
     2
 10
0.0
 20
0.0
 11
0.0
 21
0.0
 12
0.0
 22
0.0
 32
0.0
 14
0.0
 24
0.0
 34
0.0
 15
0.0
 25
0.0
 35
0.0
146
0.0
 13
0.0
 23
0.0
 33
0.0
 16
1.0
 26
0.0
 36
0.0
 17
0.0
 27
1.0
 37
0.0
 76
     0
330
23
  0
LAYOUT
  5
22
102
{ACAD_REACTORS
330
1A
102
}
330
1A
100
AcDbPlotSettings
  1

  2
none_device
  4
Letter_(8.50_x_11.00_Inches)
  6

 40
6.35
 41
6.35
 42
6.35000508
 43
6.35000508
 44
215.9
 45
279.4
 46
0.0
 47
0.0
 48
0.0
 49
0.0
140
0.0
141
0.0
142
1.0
143
1.0
 70
  1712
 72
     1
 73
     0
 74
     0
  7

 75
     0
147
1.0
148
0.0
149
0.0
100
AcDbLayout
  1
Model
 70
     1
 71
     0
 10
-412.9252619257821
 20
-355.6823648450707
 11
387.0747380742179
 21
224.3176351549293
 12
0.0
 22
0.0
 32
0.0
 14
-412.9252619257821
 24
-355.6823648450707
 34
0.0
 15
387.0747380742179
 25
224.3176351549293
 35
0.0
146
0.0
 13
0.0
 23
0.0
 33
0.0
 16
1.0
 26
0.0
 36
0.0
 17
0.0
 27
1.0
 37
0.0
 76
     0
330
1F
331
29
  0
MATERIAL
  5
45
102
{ACAD_REACTORS
330
43
102
}
102
{ACAD_XDICTIONARY
360
534
102
}
330
43
100
AcDbMaterial
  1
ByBlock
  0
MATERIAL
  5
44
102
{ACAD_REACTORS
330
43
102
}
102
{ACAD_XDICTIONARY
360
532
102
}
330
43
100
AcDbMaterial
  1
ByLayer
  0
MATERIAL
  5
46
102
{ACAD_REACTORS
330
43
102
}
102
{ACAD_XDICTIONARY
360
536
102
}
330
43
100
AcDbMaterial
  1
Global
  0
MLEADERSTYLE
  5
6C
102
{ACAD_REACTORS
330
6B
102
}
102
{ACAD_XDICTIONARY
360
539
102
}
330
6B
100
AcDbMLeaderStyle
170
     2
171
     1
172
     0
 90
        2
 40
0.0
 41
0.0
173
     1
 91
-1056964608
340
14
 92
       -2
290
     1
 42
2.0
291
     1
 43
8.0
  3
Standard
341
0
 44
4.0
300

342
11
174
     1
178
     6
175
     1
176
     0
 93
-1056964608
 45
4.0
292
     0
297
     0
 46
4.0
343
0
 94
-1056964608
 47
1.0
 49
1.0
140
1.0
293
     1
141
0.0
294
     1
177
     0
142
1.0
295
     0
296
     0
143
3.75
1001
ACAD_MLEADERVER
1070
     2
  0
MLINESTYLE
  5
18
102
{ACAD_REACTORS
330
17
102
}
330
17
100
AcDbMlineStyle
  2
Standard
 70
     0
  3

 62
   256
 51
90.0
 52
90.0
 71
     2
 49
0.5
 62
   256
  6
BYLAYER
 49
-0.5
 62
   256
  6
BYLAYER
  0
ACDBPLACEHOLDER
  5
F
102
{ACAD_REACTORS
330
E
102
}
330
E
  0
SCALE
  5
48
102
{ACAD_REACTORS
330
47
102
}
330
47
100
AcDbScale
 70
     0
300
1:1
140
1.0
141
1.0
290
     1
  0
SCALE
  5
49
102
{ACAD_REACTORS
330
47
102
}
330
47
100
AcDbScale
 70
     0
300
1:2
140
1.0
141
2.0
290
     0
  0
SCALE
  5
4A
102
{ACAD_REACTORS
330
47
102
}
330
47
100
AcDbScale
 70
     0
300
1:4
140
1.0
141
4.0
290
     0
  0
SCALE
  5
4B
102
{ACAD_REACTORS
330
47
102
}
330
47
100
AcDbScale
 70
     0
300
1:5
140
1.0
141
5.0
290
     0
  0
SCALE
  5
4C
102
{ACAD_REACTORS
330
47
102
}
330
47
100
AcDbScale
 70
     0
300
1:8
140
1.0
141
8.0
290
     0
  0
SCALE
  5
4D
102
{ACAD_REACTORS
330
47
102
}
330
47
100
AcDbScale
 70
     0
300
1:10
140
1.0
141
10.0
290
     0
  0
SCALE
  5
4E
102
{ACAD_REACTORS
330
47
102
}
330
47
100
AcDbScale
 70
     0
300
1:16
140
1.0
141
16.0
290
     0
  0
SCALE
  5
4F
102
{ACAD_REACTORS
330
47
102
}
330
47
100
AcDbScale
 70
     0
300
1:20
140
1.0
141
20.0
290
     0
  0
SCALE
  5
50
102
{ACAD_REACTORS
330
47
102
}
330
47
100
AcDbScale
 70
     0
300
1:30
140
1.0
141
30.0
290
     0
  0
SCALE
  5
51
102
{ACAD_REACTORS
330
47
102
}
330
47
100
AcDbScale
 70
     0
300
1:40
140
1.0
141
40.0
290
     0
  0
SCALE
  5
52
102
{ACAD_REACTORS
330
47
102
}
330
47
100
AcDbScale
 70
     0
300
1:50
140
1.0
141
50.0
290
     0
  0
SCALE
  5
53
102
{ACAD_REACTORS
330
47
102
}
330
47
100
AcDbScale
 70
     0
300
1:100
140
1.0
141
100.0
290
     0
  0
SCALE
  5
54
102
{ACAD_REACTORS
330
47
102
}
330
47
100
AcDbScale
 70
     0
300
2:1
140
2.0
141
1.0
290
     0
  0
SCALE
  5
55
102
{ACAD_REACTORS
330
47
102
}
330
47
100
AcDbScale
 70
     0
300
4:1
140
4.0
141
1.0
290
     0
  0
SCALE
  5
56
102
{ACAD_REACTORS
330
47
102
}
330
47
100
AcDbScale
 70
     0
300
8:1
140
8.0
141
1.0
290
     0
  0
SCALE
  5
57
102
{ACAD_REACTORS
330
47
102
}
330
47
100
AcDbScale
 70
     0
300
10:1
140
10.0
141
1.0
290
     0
  0
SCALE
  5
58
102
{ACAD_REACTORS
330
47
102
}
330
47
100
AcDbScale
 70
     0
300
100:1
140
100.0
141
1.0
290
     0
  0
SCALE
  5
59
102
{ACAD_REACTORS
330
47
102
}
330
47
100
AcDbScale
 70
     0
300
1/128" = 1'-0"
140
0.0078125
141
12.0
290
     0
  0
SCALE
  5
5A
102
{ACAD_REACTORS
330
47
102
}
330
47
100
AcDbScale
 70
     0
300
1/64" = 1'-0"
140
0.015625
141
12.0
290
     0
  0
SCALE
  5
5B
102
{ACAD_REACTORS
330
47
102
}
330
47
100
AcDbScale
 70
     0
300
1/32" = 1'-0"
140
0.03125
141
12.0
290
     0
  0
SCALE
  5
5C
102
{ACAD_REACTORS
330
47
102
}
330
47
100
AcDbScale
 70
     0
300
1/16" = 1'-0"
140
0.0625
141
12.0
290
     0
  0
SCALE
  5
5D
102
{ACAD_REACTORS
330
47
102
}
330
47
100
AcDbScale
 70
     0
300
3/32" = 1'-0"
140
0.09375
141
12.0
290
     0
  0
SCALE
  5
5E
102
{ACAD_REACTORS
330
47
102
}
330
47
100
AcDbScale
 70
     0
300
1/8" = 1'-0"
140
0.125
141
12.0
290
     0
  0
SCALE
  5
5F
102
{ACAD_REACTORS
330
47
102
}
330
47
100
AcDbScale
 70
     0
300
3/16" = 1'-0"
140
0.1875
141
12.0
290
     0
  0
SCALE
  5
60
102
{ACAD_REACTORS
330
47
102
}
330
47
100
AcDbScale
 70
     0
300
1/4" = 1'-0"
140
0.25
141
12.0
290
     0
  0
SCALE
  5
61
102
{ACAD_REACTORS
330
47
102
}
330
47
100
AcDbScale
 70
     0
300
3/8" = 1'-0"
140
0.375
141
12.0
290
     0
  0
SCALE
  5
62
102
{ACAD_REACTORS
330
47
102
}
330
47
100
AcDbScale
 70
     0
300
1/2" = 1'-0"
140
0.5
141
12.0
290
     0
  0
SCALE
  5
63
102
{ACAD_REACTORS
330
47
102
}
330
47
100
AcDbScale
 70
     0
300
3/4" = 1'-0"
140
0.75
141
12.0
290
     0
  0
SCALE
  5
64
102
{ACAD_REACTORS
330
47
102
}
330
47
100
AcDbScale
 70
     0
300
1" = 1'-0"
140
1.0
141
12.0
290
     0
  0
SCALE
  5
65
102
{ACAD_REACTORS
330
47
102
}
330
47
100
AcDbScale
 70
     0
300
1-1/2" = 1'-0"
140
1.5
141
12.0
290
     0
  0
SCALE
  5
66
102
{ACAD_REACTORS
330
47
102
}
330
47
100
AcDbScale
 70
     0
300
3" = 1'-0"
140
3.0
141
12.0
290
     0
  0
SCALE
  5
67
102
{ACAD_REACTORS
330
47
102
}
330
47
100
AcDbScale
 70
     0
300
6" = 1'-0"
140
6.0
141
12.0
290
     0
  0
SCALE
  5
68
102
{ACAD_REACTORS
330
47
102
}
330
47
100
AcDbScale
 70
     0
300
1'-0" = 1'-0"
140
12.0
141
12.0
290
     0
  0
TABLESTYLE
  5
6A
102
{ACAD_REACTORS
330
69
102
}
330
69
100
AcDbTableStyle
  3
Standard
 70
     0
 71
     0
 40
1.5
 41
1.5
280
     0
281
     0
  7
Standard
140
4.5
170
     2
 62
     0
 63
   257
283
     0
274
    -2
284
     1
 64
     0
275
    -2
285
     1
 65
     0
276
    -2
286
     1
 66
     0
277
    -2
287
     1
 67
     0
278
    -2
288
     1
 68
     0
279
    -2
289
     1
 69
     0
  7
Standard
140
6.0
170
     5
 62
     0
 63
   257
283
     0
274
    -2
284
     1
 64
     0
275
    -2
285
     1
 65
     0
276
    -2
286
     1
 66
     0
277
    -2
287
     1
 67
     0
278
    -2
288
     1
 68
     0
279
    -2
289
     1
 69
     0
  7
Standard
140
4.5
170
     5
 62
     0
 63
   257
283
     0
274
    -2
284
     1
 64
     0
275
    -2
285
     1
 65
     0
276
    -2
286
     1
 66
     0
277
    -2
287
     1
 67
     0
278
    -2
288
     1
 68
     0
279
    -2
289
     1
 69
     0
  0
VISUALSTYLE
  5
2F
102
{ACAD_REACTORS
330
2A
102
}
102
{ACAD_XDICTIONARY
360
50A
102
}
330
2A
100
AcDbVisualStyle
  2
2dWireframe
 70
     4
 71
     0
 72
     2
 73
     0
 90
        0
 40
0.6
 41
30.0
 62
     5
 63
     7
 74
     1
 91
        4
 64
     7
 65
   257
 75
     1
175
     1
 42
1.0
 92
        0
 66
   257
 43
1.0
 76
     1
 77
     6
 78
     2
 67
     7
 79
     5
170
     0
171
     0
290
     0
174
     0
 93
        1
 44
0.0
173
     0
291
     0
 45
0.0
1001
ACAD
1000
AcDbSavedByObjectVersion
1070
     0
  0
VISUALSTYLE
  5
32
102
{ACAD_REACTORS
330
2A
102
}
102
{ACAD_XDICTIONARY
360
510
102
}
330
2A
100
AcDbVisualStyle
  2
Basic
 70
     7
 71
     1
 72
     0
 73
     1
 90
        0
 40
0.6
 41
30.0
 62
     5
 63
     7
 74
     0
 91
        4
 64
     7
 65
   257
 75
     1
175
     1
 42
1.0
 92
        8
 66
     7
 43
1.0
 76
     1
 77
     6
 78
     2
 67
     7
 79
     5
170
     0
171
     0
290
     0
174
     0
 93
        1
 44
0.0
173
     0
291
     1
 45
0.0
1001
ACAD
1000
AcDbSavedByObjectVersion
1070
     0
  0
VISUALSTYLE
  5
36
102
{ACAD_REACTORS
330
2A
102
}
102
{ACAD_XDICTIONARY
360
518
102
}
330
2A
100
AcDbVisualStyle
  2
Brighten
 70
    12
 71
     2
 72
     2
 73
     0
 90
        0
 40
0.6
 41
30.0
 62
     5
 63
     7
 74
     1
 91
        4
 64
     7
 65
   257
 75
     1
175
     1
 42
1.0
 92
        8
 66
     7
 43
1.0
 76
     1
 77
     6
 78
     2
 67
     7
 79
     5
170
     0
171
     0
290
     0
174
     0
 93
        1
 44
50.0
173
     0
291
     1
 45
0.0
1001
ACAD
1000
AcDbSavedByObjectVersion
1070
     0
  0
VISUALSTYLE
  5
3A
102
{ACAD_REACTORS
330
2A
102
}
102
{ACAD_XDICTIONARY
360
520
102
}
330
2A
100
AcDbVisualStyle
  2
ColorChange
 70
    16
 71
     2
 72
     2
 73
     3
 90
        0
 40
0.6
 41
30.0
 62
     5
 63
     8
 74
     1
 91
        4
 64
     7
 65
   257
 75
     1
175
     1
 42
1.0
 92
        8
 66
     8
 43
1.0
 76
     1
 77
     6
 78
     2
 67
     7
 79
     5
170
     0
171
     0
290
     0
174
     0
 93
        1
 44
0.0
173
     0
291
     1
 45
0.0
1001
ACAD
1000
AcDbSavedByObjectVersion
1070
     0
  0
VISUALSTYLE
  5
34
102
{ACAD_REACTORS
330
2A
102
}
102
{ACAD_XDICTIONARY
360
514
102
}
330
2A
100
AcDbVisualStyle
  2
Conceptual
 70
     9
 71
     3
 72
     2
 73
     0
 90
        0
 40
0.6
 41
30.0
 62
     5
 63
     7
 74
     2
 91
        2
 64
     7
 65
   257
 75
     1
175
     1
 42
179.0
 92
        8
 66
     7
 43
1.0
 76
     1
 77
     6
 78
     2
 67
     7
 79
     3
170
     0
171
     0
290
     0
174
     0
 93
        1
 44
0.0
173
     0
291
     0
 45
0.0
1001
ACAD
1000
AcDbSavedByObjectVersion
1070
     0
  0
VISUALSTYLE
  5
35
102
{ACAD_REACTORS
330
2A
102
}
102
{ACAD_XDICTIONARY
360
516
102
}
330
2A
100
AcDbVisualStyle
  2
Dim
 70
    11
 71
     2
 72
     2
 73
     0
 90
        0
 40
0.6
 41
30.0
 62
     5
 63
     7
 74
     1
 91
        4
 64
     7
 65
   257
 75
     1
175
     1
 42
1.0
 92
        8
 66
     7
 43
1.0
 76
     1
 77
     6
 78
     2
 67
     7
 79
     5
170
     0
171
     0
290
     0
174
     0
 93
        1
 44
-50.0
173
     0
291
     1
 45
0.0
1001
ACAD
1000
AcDbSavedByObjectVersion
1070
     0
  0
VISUALSTYLE
  5
3D
102
{ACAD_REACTORS
330
2A
102
}
102
{ACAD_XDICTIONARY
360
526
102
}
330
2A
100
AcDbVisualStyle
  2
EdgeColorOff
 70
    22
 71
     2
 72
     2
 73
     0
 90
        0
 40
0.6
 41
30.0
 62
     5
 63
     7
 74
     1
 91
        4
 64
     7
 65
   257
 75
     1
175
     1
 42
1.0
 92
        8
 66
     7
 43
1.0
 76
     1
 77
     6
 78
     2
 67
     7
 79
     5
170
     0
171
     0
290
     0
174
     0
 93
        1
 44
0.0
173
     0
291
     1
 45
0.0
1001
ACAD
1000
AcDbSavedByObjectVersion
1070
     0
  0
VISUALSTYLE
  5
39
102
{ACAD_REACTORS
330
2A
102
}
102
{ACAD_XDICTIONARY
360
51E
102
}
330
2A
100
AcDbVisualStyle
  2
Facepattern
 70
    15
 71
     2
 72
     2
 73
     0
 90
        0
 40
0.6
 41
30.0
 62
     5
 63
     7
 74
     1
 91
        4
 64
     7
 65
   257
 75
     1
175
     1
 42
1.0
 92
        8
 66
     7
 43
1.0
 76
     1
 77
     6
 78
     2
 67
     7
 79
     5
170
     0
171
     0
290
     0
174
     0
 93
        1
 44
0.0
173
     0
291
     1
 45
0.0
1001
ACAD
1000
AcDbSavedByObjectVersion
1070
     0
  0
VISUALSTYLE
  5
2B
102
{ACAD_REACTORS
330
2A
102
}
102
{ACAD_XDICTIONARY
360
502
102
}
330
2A
100
AcDbVisualStyle
  2
Flat
 70
     0
 71
     2
 72
     1
 73
     1
 90
        2
 40
0.6
 41
30.0
 62
     5
 63
     7
 74
     0
 91
        0
 64
     7
 65
   257
 75
     1
175
     1
 42
1.0
 92
        8
 66
     7
 43
1.0
 76
     1
 77
     6
 78
     2
 67
     7
 79
     5
170
     0
171
     0
290
     0
174
     0
 93
       13
 44
0.0
173
     0
291
     1
 45
0.0
1001
ACAD
1000
AcDbSavedByObjectVersion
1070
     0
  0
VISUALSTYLE
  5
2C
102
{ACAD_REACTORS
330
2A
102
}
102
{ACAD_XDICTIONARY
360
504
102
}
330
2A
100
AcDbVisualStyle
  2
FlatWithEdges
 70
     1
 71
     2
 72
     1
 73
     1
 90
        2
 40
0.6
 41
30.0
 62
     5
 63
     7
 74
     1
 91
        0
 64
     7
 65
   257
 75
     1
175
     1
 42
1.0
 92
        0
 66
   257
 43
1.0
 76
     1
 77
     6
 78
     2
 67
     7
 79
     5
170
     0
171
     0
290
     0
174
     0
 93
       13
 44
0.0
173
     0
291
     1
 45
0.0
1001
ACAD
1000
AcDbSavedByObjectVersion
1070
     0
  0
VISUALSTYLE
  5
2D
102
{ACAD_REACTORS
330
2A
102
}
102
{ACAD_XDICTIONARY
360
506
102
}
330
2A
100
AcDbVisualStyle
  2
Gouraud
 70
     2
 71
     2
 72
     2
 73
     1
 90
        2
 40
0.6
 41
30.0
 62
     5
 63
     7
 74
     0
 91
        0
 64
     7
 65
   257
 75
     1
175
     1
 42
1.0
 92
        0
 66
     7
 43
1.0
 76
     1
 77
     6
 78
     2
 67
     7
 79
     5
170
     0
171
     0
290
     0
174
     0
 93
       13
 44
0.0
173
     0
291
     1
 45
0.0
1001
ACAD
1000
AcDbSavedByObjectVersion
1070
     0
  0
VISUALSTYLE
  5
2E
102
{ACAD_REACTORS
330
2A
102
}
102
{ACAD_XDICTIONARY
360
508
102
}
330
2A
100
AcDbVisualStyle
  2
GouraudWithEdges
 70
     3
 71
     2
 72
     2
 73
     1
 90
        2
 40
0.6
 41
30.0
 62
     5
 63
     7
 74
     1
 91
        0
 64
     7
 65
   257
 75
     1
175
     1
 42
1.0
 92
        0
 66
   257
 43
1.0
 76
     1
 77
     6
 78
     2
 67
     7
 79
     5
170
     0
171
     0
290
     0
174
     0
 93
       13
 44
0.0
173
     0
291
     1
 45
0.0
1001
ACAD
1000
AcDbSavedByObjectVersion
1070
     0
  0
VISUALSTYLE
  5
31
102
{ACAD_REACTORS
330
2A
102
}
102
{ACAD_XDICTIONARY
360
50E
102
}
330
2A
100
AcDbVisualStyle
  2
Hidden
 70
     6
 71
     1
 72
     2
 73
     2
 90
        0
 40
0.6
 41
30.0
 62
     5
 63
     7
 74
     2
 91
        2
 64
     7
 65
   257
 75
     2
175
     1
 42
40.0
 92
        0
 66
   257
 43
1.0
 76
     1
 77
     6
 78
     2
 67
     7
 79
     3
170
     0
171
     0
290
     0
174
     0
 93
        1
 44
0.0
173
     0
291
     0
 45
0.0
1001
ACAD
1000
AcDbSavedByObjectVersion
1070
     0
  0
VISUALSTYLE
  5
3B
102
{ACAD_REACTORS
330
2A
102
}
102
{ACAD_XDICTIONARY
360
522
102
}
330
2A
100
AcDbVisualStyle
  2
JitterOff
 70
    20
 71
     2
 72
     2
 73
     0
 90
        0
 40
0.6
 41
30.0
 62
     5
 63
     7
 74
     1
 91
        4
 64
     7
 65
   257
 75
     1
175
     1
 42
1.0
 92
       10
 66
     7
 43
1.0
 76
     1
 77
     6
 78
     2
 67
     7
 79
     5
170
     0
171
     0
290
     0
174
     0
 93
        1
 44
0.0
173
     0
291
     1
 45
0.0
1001
ACAD
1000
AcDbSavedByObjectVersion
1070
     0
  0
VISUALSTYLE
  5
38
102
{ACAD_REACTORS
330
2A
102
}
102
{ACAD_XDICTIONARY
360
51C
102
}
330
2A
100
AcDbVisualStyle
  2
Linepattern
 70
    14
 71
     2
 72
     2
 73
     0
 90
        0
 40
0.6
 41
30.0
 62
     5
 63
     7
 74
     1
 91
        4
 64
     7
 65
   257
 75
     7
175
     7
 42
1.0
 92
        8
 66
     7
 43
1.0
 76
     1
 77
     6
 78
     2
 67
     7
 79
     5
170
     0
171
     0
290
     0
174
     0
 93
        1
 44
0.0
173
     0
291
     1
 45
0.0
1001
ACAD
1000
AcDbSavedByObjectVersion
1070
     0
  0
VISUALSTYLE
  5
3C
102
{ACAD_REACTORS
330
2A
102
}
102
{ACAD_XDICTIONARY
360
524
102
}
330
2A
100
AcDbVisualStyle
  2
OverhangOff
 70
    21
 71
     2
 72
     2
 73
     0
 90
        0
 40
0.6
 41
30.0
 62
     5
 63
     7
 74
     1
 91
        4
 64
     7
 65
   257
 75
     1
175
     1
 42
1.0
 92
        9
 66
     7
 43
1.0
 76
     1
 77
     6
 78
     2
 67
     7
 79
     5
170
     0
171
     0
290
     0
174
     0
 93
        1
 44
0.0
173
     0
291
     1
 45
0.0
1001
ACAD
1000
AcDbSavedByObjectVersion
1070
     0
  0
VISUALSTYLE
  5
33
102
{ACAD_REACTORS
330
2A
102
}
102
{ACAD_XDICTIONARY
360
512
102
}
330
2A
100
AcDbVisualStyle
  2
Realistic
 70
     8
 71
     2
 72
     3
 73
     0
 90
        2
 40
0.6
 41
30.0
 62
     5
 63
     7
 74
     0
 91
        0
 64
     7
 65
   257
 75
     1
175
     1
 42
1.0
 92
        8
 66
   257
 43
1.0
 76
     1
 77
     6
 78
     2
 67
     7
 79
     3
170
     0
171
     0
290
     0
174
     0
 93
       13
 44
0.0
173
     0
291
     0
 45
0.0
1001
ACAD
1000
AcDbSavedByObjectVersion
1070
     0
  0
VISUALSTYLE
  5
42
102
{ACAD_REACTORS
330
2A
102
}
102
{ACAD_XDICTIONARY
360
530
102
}
330
2A
100
AcDbVisualStyle
  2
Shaded
 70
    27
 71
     2
 72
     2
 73
     1
 90
        2
 40
0.6
 41
30.0
 62
     5
 63
     7
 74
     0
 91
        4
 64
     7
 65
   257
 75
     1
175
     1
 42
1.0
 92
        8
 66
   257
 43
1.0
 76
     1
 77
     6
 78
     2
 67
     8
 79
     3
170
     0
171
     0
290
     0
174
     0
 93
        5
 44
0.0
173
     0
291
     0
 45
0.0
1001
ACAD
1000
AcDbSavedByObjectVersion
1070
     0
  0
VISUALSTYLE
  5
41
102
{ACAD_REACTORS
330
2A
102
}
102
{ACAD_XDICTIONARY
360
52E
102
}
330
2A
100
AcDbVisualStyle
  2
Shaded with edges
 70
    26
 71
     2
 72
     2
 73
     1
 90
        2
 40
0.6
 41
30.0
 62
     5
 63
     7
 74
     1
 91
       10
 64
     7
 65
   257
 75
     2
175
     1
 42
1.0
 92
        8
 66
   257
 43
1.0
 76
     1
 77
     6
 78
     2
 67
     7
 79
     3
170
     0
171
     0
290
     0
174
     0
 93
        5
 44
0.0
173
     0
291
     0
 45
0.0
1001
ACAD
1000
AcDbSavedByObjectVersion
1070
     0
  0
VISUALSTYLE
  5
3E
102
{ACAD_REACTORS
330
2A
102
}
102
{ACAD_XDICTIONARY
360
528
102
}
330
2A
100
AcDbVisualStyle
  2
Shades of Gray
 70
    23
 71
     2
 72
     2
 73
     3
 90
        0
 40
0.6
 41
30.0
 62
     5
 63
     7
 74
     2
 91
        2
 64
     7
 65
     7
 75
     1
175
     1
 42
40.0
 92
        8
 66
     7
 43
1.0
 76
     1
 77
     6
 78
     2
 67
     7
 79
     3
170
     0
171
     0
290
     0
174
     0
 93
        1
 44
0.0
173
     0
291
     0
 45
0.0
1001
ACAD
1000
AcDbSavedByObjectVersion
1070
     0
  0
VISUALSTYLE
  5
3F
102
{ACAD_REACTORS
330
2A
102
}
102
{ACAD_XDICTIONARY
360
52A
102
}
330
2A
100
AcDbVisualStyle
  2
Sketchy
 70
    24
 71
     1
 72
     2
 73
     2
 90
        0
 40
0.6
 41
30.0
 62
     5
 63
     7
 74
     2
 91
        2
 64
     7
 65
     7
 75
     1
175
     1
 42
40.0
 92
       11
 66
     7
 43
1.0
 76
     1
 77
     6
 78
     2
 67
     7
 79
     6
170
     0
171
     0
290
     0
174
     0
 93
        1
 44
0.0
173
     0
291
     0
 45
0.0
1001
ACAD
1000
AcDbSavedByObjectVersion
1070
     0
  0
VISUALSTYLE
  5
37
102
{ACAD_REACTORS
330
2A
102
}
102
{ACAD_XDICTIONARY
360
51A
102
}
330
2A
100
AcDbVisualStyle
  2
Thicken
 70
    13
 71
     2
 72
     2
 73
     0
 90
        0
 40
0.6
 41
30.0
 62
     5
 63
     7
 74
     1
 91
        4
 64
     7
 65
   257
 75
     1
175
     1
 42
1.0
 92
       12
 66
     7
 43
1.0
 76
     1
 77
     6
 78
     2
 67
     7
 79
     5
170
     0
171
     0
290
     0
174
     0
 93
        1
 44
0.0
173
     0
291
     1
 45
0.0
1001
ACAD
1000
AcDbSavedByObjectVersion
1070
     0
  0
VISUALSTYLE
  5
30
102
{ACAD_REACTORS
330
2A
102
}
102
{ACAD_XDICTIONARY
360
50C
102
}
330
2A
100
AcDbVisualStyle
  2
Wireframe
 70
     5
 71
     0
 72
     2
 73
     0
 90
        0
 40
0.6
 41
30.0
 62
     5
 63
     7
 74
     1
 91
        4
 64
     7
 65
   257
 75
     1
175
     1
 42
1.0
 92
        0
 66
   257
 43
1.0
 76
     1
 77
     6
 78
     2
 67
     7
 79
     3
170
     0
171
     0
290
     0
174
     0
 93
        1
 44
0.0
173
     0
291
     0
 45
0.0
1001
ACAD
1000
AcDbSavedByObjectVersion
1070
     0
  0
VISUALSTYLE
  5
40
102
{ACAD_REACTORS
330
2A
102
}
102
{ACAD_XDICTIONARY
360
52C
102
}
330
2A
100
AcDbVisualStyle
  2
X-Ray
 70
    25
 71
     2
 72
     2
 73
     1
 90
        1
 40
0.5
 41
30.0
 62
     5
 63
     7
 74
     1
 91
        0
 64
     7
 65
   257
 75
     1
175
     1
 42
1.0
 92
        8
 66
     7
 43
1.0
 76
     1
 77
     6
 78
     2
 67
     7
 79
     3
170
     0
171
     0
290
     0
174
     0
 93
       13
 44
0.0
173
     0
291
     0
 45
0.0
1001
ACAD
1000
AcDbSavedByObjectVersion
1070
     0
  0
DICTIONARYVAR
  5
500
102
{ACAD_REACTORS
330
4EE
102
}
330
4EE
100
DictionaryVariables
280
     0
  1
1:1
  0
DICTIONARYVAR
  5
4F5
102
{ACAD_REACTORS
330
4EE
102
}
330
4EE
100
DictionaryVariables
280
     0
  1
3.500000
  0
DICTIONARYVAR
  5
4F6
102
{ACAD_REACTORS
330
4EE
102
}
330
4EE
100
DictionaryVariables
280
     0
  1
acadiso.lin
  0
DICTIONARYVAR
  5
4F0
102
{ACAD_REACTORS
330
4EE
102
}
330
4EE
100
DictionaryVariables
280
     0
  1
Standard
  0
DICTIONARYVAR
  5
4EF
102
{ACAD_REACTORS
330
4EE
102
}
330
4EE
100
DictionaryVariables
280
     0
  1
Standard
  0
DICTIONARYVAR
  5
4F7
102
{ACAD_REACTORS
330
4EE
102
}
330
4EE
100
DictionaryVariables
280
     0
  1
2
  0
DICTIONARYVAR
  5
4F8
102
{ACAD_REACTORS
330
4EE
102
}
330
4EE
100
DictionaryVariables
280
     0
  1
1
  0
DICTIONARYVAR
  5
501
102
{ACAD_REACTORS
330
4EE
102
}
330
4EE
100
DictionaryVariables
280
     0
  1
1
  0
DICTIONARYVAR
  5
4F2
102
{ACAD_REACTORS
330
4EE
102
}
330
4EE
100
DictionaryVariables
280
     0
  1
80.000000
  0
DICTIONARYVAR
  5
4F1
102
{ACAD_REACTORS
330
4EE
102
}
330
4EE
100
DictionaryVariables
280
     0
  1
5.000000
  0
DICTIONARY
  5
534
330
45
100
AcDbDictionary
280
     1
281
     1
  3
ACAD_XREC_ROUNDTRIP
360
535
  0
DICTIONARY
  5
532
330
44
100
AcDbDictionary
280
     1
281
     1
  3
ACAD_XREC_ROUNDTRIP
360
533
  0
DICTIONARY
  5
536
330
46
100
AcDbDictionary
280
     1
281
     1
  3
ACAD_XREC_ROUNDTRIP
360
537
  0
DICTIONARY
  5
539
330
6C
100
AcDbDictionary
280
     1
281
     1
  3
ACAD_XREC_ROUNDTRIP
360
53A
  0
DICTIONARY
  5
50A
330
2F
100
AcDbDictionary
280
     1
281
     1
  3
ACAD_XREC_ROUNDTRIP
360
50B
  0
DICTIONARY
  5
510
330
32
100
AcDbDictionary
280
     1
281
     1
  3
ACAD_XREC_ROUNDTRIP
360
511
  0
DICTIONARY
  5
518
330
36
100
AcDbDictionary
280
     1
281
     1
  3
ACAD_XREC_ROUNDTRIP
360
519
  0
DICTIONARY
  5
520
330
3A
100
AcDbDictionary
280
     1
281
     1
  3
ACAD_XREC_ROUNDTRIP
360
521
  0
DICTIONARY
  5
514
330
34
100
AcDbDictionary
280
     1
281
     1
  3
ACAD_XREC_ROUNDTRIP
360
515
  0
DICTIONARY
  5
516
330
35
100
AcDbDictionary
280
     1
281
     1
  3
ACAD_XREC_ROUNDTRIP
360
517
  0
DICTIONARY
  5
526
330
3D
100
AcDbDictionary
280
     1
281
     1
  3
ACAD_XREC_ROUNDTRIP
360
527
  0
DICTIONARY
  5
51E
330
39
100
AcDbDictionary
280
     1
281
     1
  3
ACAD_XREC_ROUNDTRIP
360
51F
  0
DICTIONARY
  5
502
330
2B
100
AcDbDictionary
280
     1
281
     1
  3
ACAD_XREC_ROUNDTRIP
360
503
  0
DICTIONARY
  5
504
330
2C
100
AcDbDictionary
280
     1
281
     1
  3
ACAD_XREC_ROUNDTRIP
360
505
  0
DICTIONARY
  5
506
330
2D
100
AcDbDictionary
280
     1
281
     1
  3
ACAD_XREC_ROUNDTRIP
360
507
  0
DICTIONARY
  5
508
330
2E
100
AcDbDictionary
280
     1
281
     1
  3
ACAD_XREC_ROUNDTRIP
360
509
  0
DICTIONARY
  5
50E
330
31
100
AcDbDictionary
280
     1
281
     1
  3
ACAD_XREC_ROUNDTRIP
360
50F
  0
DICTIONARY
  5
522
330
3B
100
AcDbDictionary
280
     1
281
     1
  3
ACAD_XREC_ROUNDTRIP
360
523
  0
DICTIONARY
  5
51C
330
38
100
AcDbDictionary
280
     1
281
     1
  3
ACAD_XREC_ROUNDTRIP
360
51D
  0
DICTIONARY
  5
524
330
3C
100
AcDbDictionary
280
     1
281
     1
  3
ACAD_XREC_ROUNDTRIP
360
525
  0
DICTIONARY
  5
512
330
33
100
AcDbDictionary
280
     1
281
     1
  3
ACAD_XREC_ROUNDTRIP
360
513
  0
DICTIONARY
  5
530
330
42
100
AcDbDictionary
280
     1
281
     1
  3
ACAD_XREC_ROUNDTRIP
360
531
  0
DICTIONARY
  5
52E
330
41
100
AcDbDictionary
280
     1
281
     1
  3
ACAD_XREC_ROUNDTRIP
360
52F
  0
DICTIONARY
  5
528
330
3E
100
AcDbDictionary
280
     1
281
     1
  3
ACAD_XREC_ROUNDTRIP
360
529
  0
DICTIONARY
  5
52A
330
3F
100
AcDbDictionary
280
     1
281
     1
  3
ACAD_XREC_ROUNDTRIP
360
52B
  0
DICTIONARY
  5
51A
330
37
100
AcDbDictionary
280
     1
281
     1
  3
ACAD_XREC_ROUNDTRIP
360
51B
  0
DICTIONARY
  5
50C
330
30
100
AcDbDictionary
280
     1
281
     1
  3
ACAD_XREC_ROUNDTRIP
360
50D
  0
DICTIONARY
  5
52C
330
40
100
AcDbDictionary
280
     1
281
     1
  3
ACAD_XREC_ROUNDTRIP
360
52D
  0
XRECORD
  5
535
102
{ACAD_REACTORS
330
534
102
}
330
534
100
AcDbXrecord
280
     1
102
MATERIAL
148
0.0
149
0.0
149
0.0
 93
        0
 94
      127
282
     0
 72
     1
 77
     1
171
     1
175
     1
179
     1
273
     0
  0
XRECORD
  5
533
102
{ACAD_REACTORS
330
532
102
}
330
532
100
AcDbXrecord
280
     1
102
MATERIAL
148
0.0
149
0.0
149
0.0
 93
        0
 94
      127
282
     0
 72
     1
 77
     1
171
     1
175
     1
179
     1
273
     0
  0
XRECORD
  5
537
102
{ACAD_REACTORS
330
536
102
}
330
536
100
AcDbXrecord
280
     1
102
MATERIAL
148
0.0
149
0.0
149
0.0
 93
        0
 94
      127
282
     0
 72
     1
 77
     1
171
     1
175
     1
179
     1
273
     0
  0
XRECORD
  5
53A
102
{ACAD_REACTORS
330
539
102
}
330
539
100
AcDbXrecord
280
     1
102
ACAD_ROUNDTRIP_2010_MLEADER_STYLE
  0
XRECORD
  5
50B
102
{ACAD_REACTORS
330
50A
102
}
330
50A
100
AcDbXrecord
280
     1
102
RTVSPropertyOp0
 70
     1
102
RTVSPropertyOp1
 70
     1
102
RTVSPropertyOp2
 70
     1
102
RTVSPropertyOp3
 70
     1
102
RTVSPropertyOp4
 70
     1
102
RTVSPropertyOp5
 70
     1
102
RTVSPropertyOp6
 70
     1
102
RTVSPropertyOp7
 70
     1
102
RTVSPropertyOp8
 70
     1
102
RTVSPropertyOp9
 70
     1
102
RTVSPropertyOp10
 70
     1
102
RTVSPropertyOp11
 70
     1
102
RTVSPropertyOp12
 70
     1
102
RTVSPropertyOp13
 70
     1
102
RTVSPropertyOp14
 70
     1
102
RTVSPropertyOp15
 70
     1
102
RTVSPropertyOp16
 70
     1
102
RTVSPropertyOp17
 70
     1
102
RTVSPropertyOp18
 70
     1
102
RTVSPropertyOp19
 70
     1
102
RTVSPropertyOp20
 70
     1
102
RTVSPropertyOp21
 70
     1
102
RTVSPropertyOp22
 70
     1
102
RTVSPropertyOp23
 70
     1
102
RTVSPropertyOp24
 70
     1
102
RTVSPropertyOp25
 70
     1
102
RTVSPropertyOp26
 70
     1
102
RTVSPropertyOp27
 70
     1
102
RTVSPropertyOp28
 70
     1
102
RTVSPropertyOp29
 70
     1
102
RTVSPropertyOp30
 70
     1
102
RTVSPropertyOp31
 70
     1
102
RTVSPropertyOp32
 70
     1
102
RTVSPropertyOp33
 70
     1
102
RTVSPropertyOp34
 70
     1
102
RTVSPropertyOp35
 70
     1
102
RTVSPropertyOp36
 70
     1
102
RTVSPropertyOp37
 70
     1
102
RTVSPropertyOp38
 70
     1
102
RTVSPropertyOp39
 70
     1
102
RTVSPropertyOp40
 70
     1
102
RTVSPropertyOp41
 70
     1
102
RTVSPropertyOp42
 70
     1
102
RTVSPropertyOp43
 70
     1
102
RTVSPropertyOp44
 70
     1
102
RTVSPropertyOp45
 70
     1
102
RTVSPropertyOp46
 70
     1
102
RTVSPropertyOp47
 70
     1
102
RTVSPropertyOp48
 70
     1
102
RTVSPropertyOp49
 70
     1
102
RTVSPropertyOp50
 70
     1
102
RTVSPropertyOp51
 70
     0
102
RTVSPropertyOp52
 70
     0
102
RTVSPropertyOp53
 70
     1
102
RTVSPropertyOp54
 70
     1
102
RTVSPropertyOp55
 70
     1
102
RTVSPropertyOp56
 70
     1
102
RTVSPropertyOp57
 70
     1
102
RTVSPost2010Prop28
280
     1
102
RTVSPost2010PropOp28
 70
     1
102
RTVSPost2010Prop29
280
     1
102
RTVSPost2010PropOp29
 70
     1
102
RTVSPost2010Prop30
280
     0
102
RTVSPost2010PropOp30
 70
     1
102
RTVSPost2010Prop31
280
     0
102
RTVSPost2010PropOp31
 70
     1
102
RTVSPost2010Prop32
280
     0
102
RTVSPost2010PropOp32
 70
     1
102
RTVSPost2010Prop33
280
     0
102
RTVSPost2010PropOp33
 70
     1
102
RTVSPost2010Prop34
280
     0
102
RTVSPost2010PropOp34
 70
     1
102
RTVSPost2010Prop35
280
     0
102
RTVSPost2010PropOp35
 70
     1
102
RTVSPost2010Prop36
280
     0
102
RTVSPost2010PropOp36
 70
     1
102
RTVSPost2010Prop37
 90
       50
102
RTVSPost2010PropOp37
 70
     1
102
RTVSPost2010Prop38
140
0.0
102
RTVSPost2010PropOp38
 70
     1
102
RTVSPost2010Prop39
140
1.0
102
RTVSPost2010PropOp39
 70
     1
102
RTVSPost2010Prop40
 90
        0
102
RTVSPost2010PropOp40
 70
     1
102
RTVSPost2010Prop41ColorIndex
 90
       18
102
RTVSPost2010Prop41ColorRGB
 90
        0
102
RTVSPost2010PropOp41
 70
     1
102
RTVSPost2010Prop42
 90
       50
102
RTVSPost2010PropOp42
 70
     1
102
RTVSPost2010Prop43
 90
        3
102
RTVSPost2010PropOp43
 70
     1
102
RTVSPost2010Prop44ColorIndex
 90
        5
102
RTVSPost2010Prop44ColorRGB
 90
      255
102
RTVSPost2010PropOp44
 70
     1
102
RTVSPost2010Prop45
280
     0
102
RTVSPost2010PropOp45
 70
     1
102
RTVSPost2010Prop46
 90
       50
102
RTVSPost2010PropOp46
 70
     1
102
RTVSPost2010Prop47
 90
       50
102
RTVSPost2010PropOp47
 70
     1
102
RTVSPost2010Prop48
 90
       50
102
RTVSPost2010PropOp48
 70
     1
102
RTVSPost2010Prop49
280
     0
102
RTVSPost2010PropOp49
 70
     1
102
RTVSPost2010Prop50
 90
       50
102
RTVSPost2010PropOp50
 70
     1
102
RTVSPost2010Prop51ColorIndex
 90
      256
102
RTVSPost2010Prop51ColorRGB
 90
-16777216
102
RTVSPost2010PropOp51
 70
     0
102
RTVSPost2010Prop52
140
1.0
102
RTVSPost2010PropOp52
 70
     0
102
RTVSPost2010Prop53
 90
        2
102
RTVSPost2010PropOp53
 70
     1
102
RTVSPost2010Prop54
  1
strokes_ogs.tif
102
RTVSPost2010PropOp54
 70
     1
102
RTVSPost2010Prop55
280
     0
102
RTVSPost2010PropOp55
 70
     1
102
RTVSPost2010Prop56
140
1.0
102
RTVSPost2010PropOp56
 70
     1
102
RTVSPost2010Prop57
140
1.0
102
RTVSPost2010PropOp57
 70
     1
  0
XRECORD
  5
511
102
{ACAD_REACTORS
330
510
102
}
330
510
100
AcDbXrecord
280
     1
102
RTVSPropertyOp0
 70
     1
102
RTVSPropertyOp1
 70
     1
102
RTVSPropertyOp2
 70
     1
102
RTVSPropertyOp3
 70
     1
102
RTVSPropertyOp4
 70
     1
102
RTVSPropertyOp5
 70
     1
102
RTVSPropertyOp6
 70
     1
102
RTVSPropertyOp7
 70
     1
102
RTVSPropertyOp8
 70
     1
102
RTVSPropertyOp9
 70
     1
102
RTVSPropertyOp10
 70
     1
102
RTVSPropertyOp11
 70
     1
102
RTVSPropertyOp12
 70
     1
102
RTVSPropertyOp13
 70
     1
102
RTVSPropertyOp14
 70
     1
102
RTVSPropertyOp15
 70
     1
102
RTVSPropertyOp16
 70
     1
102
RTVSPropertyOp17
 70
     1
102
RTVSPropertyOp18
 70
     1
102
RTVSPropertyOp19
 70
     1
102
RTVSPropertyOp20
 70
     1
102
RTVSPropertyOp21
 70
     1
102
RTVSPropertyOp22
 70
     1
102
RTVSPropertyOp23
 70
     1
102
RTVSPropertyOp24
 70
     1
102
RTVSPropertyOp25
 70
     1
102
RTVSPropertyOp26
 70
     1
102
RTVSPropertyOp27
 70
     1
102
RTVSPropertyOp28
 70
     1
102
RTVSPropertyOp29
 70
     1
102
RTVSPropertyOp30
 70
     1
102
RTVSPropertyOp31
 70
     1
102
RTVSPropertyOp32
 70
     1
102
RTVSPropertyOp33
 70
     1
102
RTVSPropertyOp34
 70
     1
102
RTVSPropertyOp35
 70
     1
102
RTVSPropertyOp36
 70
     1
102
RTVSPropertyOp37
 70
     1
102
RTVSPropertyOp38
 70
     1
102
RTVSPropertyOp39
 70
     1
102
RTVSPropertyOp40
 70
     1
102
RTVSPropertyOp41
 70
     1
102
RTVSPropertyOp42
 70
     1
102
RTVSPropertyOp43
 70
     1
102
RTVSPropertyOp44
 70
     1
102
RTVSPropertyOp45
 70
     1
102
RTVSPropertyOp46
 70
     1
102
RTVSPropertyOp47
 70
     1
102
RTVSPropertyOp48
 70
     1
102
RTVSPropertyOp49
 70
     1
102
RTVSPropertyOp50
 70
     1
102
RTVSPropertyOp51
 70
     0
102
RTVSPropertyOp52
 70
     0
102
RTVSPropertyOp53
 70
     1
102
RTVSPropertyOp54
 70
     1
102
RTVSPropertyOp55
 70
     1
102
RTVSPropertyOp56
 70
     1
102
RTVSPropertyOp57
 70
     1
102
RTVSPost2010Prop28
280
     0
102
RTVSPost2010PropOp28
 70
     1
102
RTVSPost2010Prop29
280
     1
102
RTVSPost2010PropOp29
 70
     1
102
RTVSPost2010Prop30
280
     1
102
RTVSPost2010PropOp30
 70
     1
102
RTVSPost2010Prop31
280
     0
102
RTVSPost2010PropOp31
 70
     1
102
RTVSPost2010Prop32
280
     0
102
RTVSPost2010PropOp32
 70
     1
102
RTVSPost2010Prop33
280
     0
102
RTVSPost2010PropOp33
 70
     1
102
RTVSPost2010Prop34
280
     0
102
RTVSPost2010PropOp34
 70
     1
102
RTVSPost2010Prop35
280
     0
102
RTVSPost2010PropOp35
 70
     1
102
RTVSPost2010Prop36
280
     0
102
RTVSPost2010PropOp36
 70
     1
102
RTVSPost2010Prop37
 90
       50
102
RTVSPost2010PropOp37
 70
     1
102
RTVSPost2010Prop38
140
0.0
102
RTVSPost2010PropOp38
 70
     1
102
RTVSPost2010Prop39
140
1.0
102
RTVSPost2010PropOp39
 70
     1
102
RTVSPost2010Prop40
 90
        0
102
RTVSPost2010PropOp40
 70
     1
102
RTVSPost2010Prop41ColorIndex
 90
       18
102
RTVSPost2010Prop41ColorRGB
 90
        0
102
RTVSPost2010PropOp41
 70
     1
102
RTVSPost2010Prop42
 90
       50
102
RTVSPost2010PropOp42
 70
     1
102
RTVSPost2010Prop43
 90
        3
102
RTVSPost2010PropOp43
 70
     1
102
RTVSPost2010Prop44ColorIndex
 90
        5
102
RTVSPost2010Prop44ColorRGB
 90
      255
102
RTVSPost2010PropOp44
 70
     1
102
RTVSPost2010Prop45
280
     0
102
RTVSPost2010PropOp45
 70
     1
102
RTVSPost2010Prop46
 90
       50
102
RTVSPost2010PropOp46
 70
     1
102
RTVSPost2010Prop47
 90
       50
102
RTVSPost2010PropOp47
 70
     1
102
RTVSPost2010Prop48
 90
       50
102
RTVSPost2010PropOp48
 70
     1
102
RTVSPost2010Prop49
280
     0
102
RTVSPost2010PropOp49
 70
     1
102
RTVSPost2010Prop50
 90
       50
102
RTVSPost2010PropOp50
 70
     1
102
RTVSPost2010Prop51ColorIndex
 90
      256
102
RTVSPost2010Prop51ColorRGB
 90
-16777216
102
RTVSPost2010PropOp51
 70
     0
102
RTVSPost2010Prop52
140
1.0
102
RTVSPost2010PropOp52
 70
     0
102
RTVSPost2010Prop53
 90
        2
102
RTVSPost2010PropOp53
 70
     1
102
RTVSPost2010Prop54
  1
strokes_ogs.tif
102
RTVSPost2010PropOp54
 70
     1
102
RTVSPost2010Prop55
280
     0
102
RTVSPost2010PropOp55
 70
     1
102
RTVSPost2010Prop56
140
1.0
102
RTVSPost2010PropOp56
 70
     1
102
RTVSPost2010Prop57
140
1.0
102
RTVSPost2010PropOp57
 70
     1
  0
XRECORD
  5
519
102
{ACAD_REACTORS
330
518
102
}
330
518
100
AcDbXrecord
280
     1
102
RTVSPropertyOp0
 70
     1
102
RTVSPropertyOp1
 70
     1
102
RTVSPropertyOp2
 70
     1
102
RTVSPropertyOp3
 70
     1
102
RTVSPropertyOp4
 70
     1
102
RTVSPropertyOp5
 70
     1
102
RTVSPropertyOp6
 70
     1
102
RTVSPropertyOp7
 70
     1
102
RTVSPropertyOp8
 70
     1
102
RTVSPropertyOp9
 70
     1
102
RTVSPropertyOp10
 70
     1
102
RTVSPropertyOp11
 70
     1
102
RTVSPropertyOp12
 70
     1
102
RTVSPropertyOp13
 70
     1
102
RTVSPropertyOp14
 70
     1
102
RTVSPropertyOp15
 70
     1
102
RTVSPropertyOp16
 70
     1
102
RTVSPropertyOp17
 70
     1
102
RTVSPropertyOp18
 70
     1
102
RTVSPropertyOp19
 70
     1
102
RTVSPropertyOp20
 70
     1
102
RTVSPropertyOp21
 70
     1
102
RTVSPropertyOp22
 70
     1
102
RTVSPropertyOp23
 70
     1
102
RTVSPropertyOp24
 70
     1
102
RTVSPropertyOp25
 70
     1
102
RTVSPropertyOp26
 70
     1
102
RTVSPropertyOp27
 70
     1
102
RTVSPropertyOp28
 70
     1
102
RTVSPropertyOp29
 70
     1
102
RTVSPropertyOp30
 70
     1
102
RTVSPropertyOp31
 70
     1
102
RTVSPropertyOp32
 70
     1
102
RTVSPropertyOp33
 70
     1
102
RTVSPropertyOp34
 70
     1
102
RTVSPropertyOp35
 70
     1
102
RTVSPropertyOp36
 70
     1
102
RTVSPropertyOp37
 70
     1
102
RTVSPropertyOp38
 70
     1
102
RTVSPropertyOp39
 70
     1
102
RTVSPropertyOp40
 70
     1
102
RTVSPropertyOp41
 70
     1
102
RTVSPropertyOp42
 70
     1
102
RTVSPropertyOp43
 70
     1
102
RTVSPropertyOp44
 70
     1
102
RTVSPropertyOp45
 70
     1
102
RTVSPropertyOp46
 70
     1
102
RTVSPropertyOp47
 70
     1
102
RTVSPropertyOp48
 70
     1
102
RTVSPropertyOp49
 70
     1
102
RTVSPropertyOp50
 70
     1
102
RTVSPropertyOp51
 70
     0
102
RTVSPropertyOp52
 70
     0
102
RTVSPropertyOp53
 70
     1
102
RTVSPropertyOp54
 70
     1
102
RTVSPropertyOp55
 70
     1
102
RTVSPropertyOp56
 70
     1
102
RTVSPropertyOp57
 70
     1
102
RTVSPost2010Prop28
280
     0
102
RTVSPost2010PropOp28
 70
     1
102
RTVSPost2010Prop29
280
     1
102
RTVSPost2010PropOp29
 70
     1
102
RTVSPost2010Prop30
280
     1
102
RTVSPost2010PropOp30
 70
     1
102
RTVSPost2010Prop31
280
     0
102
RTVSPost2010PropOp31
 70
     1
102
RTVSPost2010Prop32
280
     0
102
RTVSPost2010PropOp32
 70
     1
102
RTVSPost2010Prop33
280
     0
102
RTVSPost2010PropOp33
 70
     1
102
RTVSPost2010Prop34
280
     0
102
RTVSPost2010PropOp34
 70
     1
102
RTVSPost2010Prop35
280
     0
102
RTVSPost2010PropOp35
 70
     1
102
RTVSPost2010Prop36
280
     0
102
RTVSPost2010PropOp36
 70
     1
102
RTVSPost2010Prop37
 90
       50
102
RTVSPost2010PropOp37
 70
     1
102
RTVSPost2010Prop38
140
0.0
102
RTVSPost2010PropOp38
 70
     1
102
RTVSPost2010Prop39
140
1.0
102
RTVSPost2010PropOp39
 70
     1
102
RTVSPost2010Prop40
 90
        0
102
RTVSPost2010PropOp40
 70
     1
102
RTVSPost2010Prop41ColorIndex
 90
       18
102
RTVSPost2010Prop41ColorRGB
 90
        0
102
RTVSPost2010PropOp41
 70
     1
102
RTVSPost2010Prop42
 90
       50
102
RTVSPost2010PropOp42
 70
     1
102
RTVSPost2010Prop43
 90
        3
102
RTVSPost2010PropOp43
 70
     1
102
RTVSPost2010Prop44ColorIndex
 90
        5
102
RTVSPost2010Prop44ColorRGB
 90
      255
102
RTVSPost2010PropOp44
 70
     1
102
RTVSPost2010Prop45
280
     0
102
RTVSPost2010PropOp45
 70
     1
102
RTVSPost2010Prop46
 90
       50
102
RTVSPost2010PropOp46
 70
     1
102
RTVSPost2010Prop47
 90
       50
102
RTVSPost2010PropOp47
 70
     1
102
RTVSPost2010Prop48
 90
       50
102
RTVSPost2010PropOp48
 70
     1
102
RTVSPost2010Prop49
280
     0
102
RTVSPost2010PropOp49
 70
     1
102
RTVSPost2010Prop50
 90
       50
102
RTVSPost2010PropOp50
 70
     1
102
RTVSPost2010Prop51ColorIndex
 90
      256
102
RTVSPost2010Prop51ColorRGB
 90
-16777216
102
RTVSPost2010PropOp51
 70
     0
102
RTVSPost2010Prop52
140
1.0
102
RTVSPost2010PropOp52
 70
     0
102
RTVSPost2010Prop53
 90
        2
102
RTVSPost2010PropOp53
 70
     1
102
RTVSPost2010Prop54
  1
strokes_ogs.tif
102
RTVSPost2010PropOp54
 70
     1
102
RTVSPost2010Prop55
280
     0
102
RTVSPost2010PropOp55
 70
     1
102
RTVSPost2010Prop56
140
1.0
102
RTVSPost2010PropOp56
 70
     1
102
RTVSPost2010Prop57
140
1.0
102
RTVSPost2010PropOp57
 70
     1
  0
XRECORD
  5
521
102
{ACAD_REACTORS
330
520
102
}
330
520
100
AcDbXrecord
280
     1
102
RTVSPropertyOp0
 70
     1
102
RTVSPropertyOp1
 70
     1
102
RTVSPropertyOp2
 70
     1
102
RTVSPropertyOp3
 70
     1
102
RTVSPropertyOp4
 70
     1
102
RTVSPropertyOp5
 70
     1
102
RTVSPropertyOp6
 70
     1
102
RTVSPropertyOp7
 70
     1
102
RTVSPropertyOp8
 70
     1
102
RTVSPropertyOp9
 70
     1
102
RTVSPropertyOp10
 70
     1
102
RTVSPropertyOp11
 70
     1
102
RTVSPropertyOp12
 70
     1
102
RTVSPropertyOp13
 70
     1
102
RTVSPropertyOp14
 70
     1
102
RTVSPropertyOp15
 70
     1
102
RTVSPropertyOp16
 70
     1
102
RTVSPropertyOp17
 70
     1
102
RTVSPropertyOp18
 70
     1
102
RTVSPropertyOp19
 70
     1
102
RTVSPropertyOp20
 70
     1
102
RTVSPropertyOp21
 70
     1
102
RTVSPropertyOp22
 70
     1
102
RTVSPropertyOp23
 70
     1
102
RTVSPropertyOp24
 70
     1
102
RTVSPropertyOp25
 70
     1
102
RTVSPropertyOp26
 70
     1
102
RTVSPropertyOp27
 70
     1
102
RTVSPropertyOp28
 70
     1
102
RTVSPropertyOp29
 70
     1
102
RTVSPropertyOp30
 70
     1
102
RTVSPropertyOp31
 70
     1
102
RTVSPropertyOp32
 70
     1
102
RTVSPropertyOp33
 70
     1
102
RTVSPropertyOp34
 70
     1
102
RTVSPropertyOp35
 70
     1
102
RTVSPropertyOp36
 70
     1
102
RTVSPropertyOp37
 70
     1
102
RTVSPropertyOp38
 70
     1
102
RTVSPropertyOp39
 70
     1
102
RTVSPropertyOp40
 70
     1
102
RTVSPropertyOp41
 70
     1
102
RTVSPropertyOp42
 70
     1
102
RTVSPropertyOp43
 70
     1
102
RTVSPropertyOp44
 70
     1
102
RTVSPropertyOp45
 70
     1
102
RTVSPropertyOp46
 70
     1
102
RTVSPropertyOp47
 70
     1
102
RTVSPropertyOp48
 70
     1
102
RTVSPropertyOp49
 70
     1
102
RTVSPropertyOp50
 70
     1
102
RTVSPropertyOp51
 70
     0
102
RTVSPropertyOp52
 70
     0
102
RTVSPropertyOp53
 70
     1
102
RTVSPropertyOp54
 70
     1
102
RTVSPropertyOp55
 70
     1
102
RTVSPropertyOp56
 70
     1
102
RTVSPropertyOp57
 70
     1
102
RTVSPost2010Prop28
280
     0
102
RTVSPost2010PropOp28
 70
     1
102
RTVSPost2010Prop29
280
     1
102
RTVSPost2010PropOp29
 70
     1
102
RTVSPost2010Prop30
280
     1
102
RTVSPost2010PropOp30
 70
     1
102
RTVSPost2010Prop31
280
     0
102
RTVSPost2010PropOp31
 70
     1
102
RTVSPost2010Prop32
280
     0
102
RTVSPost2010PropOp32
 70
     1
102
RTVSPost2010Prop33
280
     0
102
RTVSPost2010PropOp33
 70
     1
102
RTVSPost2010Prop34
280
     0
102
RTVSPost2010PropOp34
 70
     1
102
RTVSPost2010Prop35
280
     0
102
RTVSPost2010PropOp35
 70
     1
102
RTVSPost2010Prop36
280
     0
102
RTVSPost2010PropOp36
 70
     1
102
RTVSPost2010Prop37
 90
       50
102
RTVSPost2010PropOp37
 70
     1
102
RTVSPost2010Prop38
140
0.0
102
RTVSPost2010PropOp38
 70
     1
102
RTVSPost2010Prop39
140
1.0
102
RTVSPost2010PropOp39
 70
     1
102
RTVSPost2010Prop40
 90
        0
102
RTVSPost2010PropOp40
 70
     1
102
RTVSPost2010Prop41ColorIndex
 90
       18
102
RTVSPost2010Prop41ColorRGB
 90
        0
102
RTVSPost2010PropOp41
 70
     1
102
RTVSPost2010Prop42
 90
       50
102
RTVSPost2010PropOp42
 70
     1
102
RTVSPost2010Prop43
 90
        3
102
RTVSPost2010PropOp43
 70
     1
102
RTVSPost2010Prop44ColorIndex
 90
        5
102
RTVSPost2010Prop44ColorRGB
 90
      255
102
RTVSPost2010PropOp44
 70
     1
102
RTVSPost2010Prop45
280
     0
102
RTVSPost2010PropOp45
 70
     1
102
RTVSPost2010Prop46
 90
       50
102
RTVSPost2010PropOp46
 70
     1
102
RTVSPost2010Prop47
 90
       50
102
RTVSPost2010PropOp47
 70
     1
102
RTVSPost2010Prop48
 90
       50
102
RTVSPost2010PropOp48
 70
     1
102
RTVSPost2010Prop49
280
     0
102
RTVSPost2010PropOp49
 70
     1
102
RTVSPost2010Prop50
 90
       50
102
RTVSPost2010PropOp50
 70
     1
102
RTVSPost2010Prop51ColorIndex
 90
      256
102
RTVSPost2010Prop51ColorRGB
 90
-16777216
102
RTVSPost2010PropOp51
 70
     0
102
RTVSPost2010Prop52
140
1.0
102
RTVSPost2010PropOp52
 70
     0
102
RTVSPost2010Prop53
 90
        2
102
RTVSPost2010PropOp53
 70
     1
102
RTVSPost2010Prop54
  1
strokes_ogs.tif
102
RTVSPost2010PropOp54
 70
     1
102
RTVSPost2010Prop55
280
     0
102
RTVSPost2010PropOp55
 70
     1
102
RTVSPost2010Prop56
140
1.0
102
RTVSPost2010PropOp56
 70
     1
102
RTVSPost2010Prop57
140
1.0
102
RTVSPost2010PropOp57
 70
     1
  0
XRECORD
  5
515
102
{ACAD_REACTORS
330
514
102
}
330
514
100
AcDbXrecord
280
     1
102
RTVSPropertyOp0
 70
     1
102
RTVSPropertyOp1
 70
     1
102
RTVSPropertyOp2
 70
     1
102
RTVSPropertyOp3
 70
     1
102
RTVSPropertyOp4
 70
     1
102
RTVSPropertyOp5
 70
     1
102
RTVSPropertyOp6
 70
     1
102
RTVSPropertyOp7
 70
     1
102
RTVSPropertyOp8
 70
     1
102
RTVSPropertyOp9
 70
     1
102
RTVSPropertyOp10
 70
     1
102
RTVSPropertyOp11
 70
     1
102
RTVSPropertyOp12
 70
     1
102
RTVSPropertyOp13
 70
     1
102
RTVSPropertyOp14
 70
     1
102
RTVSPropertyOp15
 70
     1
102
RTVSPropertyOp16
 70
     1
102
RTVSPropertyOp17
 70
     1
102
RTVSPropertyOp18
 70
     1
102
RTVSPropertyOp19
 70
     1
102
RTVSPropertyOp20
 70
     1
102
RTVSPropertyOp21
 70
     1
102
RTVSPropertyOp22
 70
     1
102
RTVSPropertyOp23
 70
     1
102
RTVSPropertyOp24
 70
     1
102
RTVSPropertyOp25
 70
     1
102
RTVSPropertyOp26
 70
     1
102
RTVSPropertyOp27
 70
     1
102
RTVSPropertyOp28
 70
     1
102
RTVSPropertyOp29
 70
     1
102
RTVSPropertyOp30
 70
     1
102
RTVSPropertyOp31
 70
     1
102
RTVSPropertyOp32
 70
     1
102
RTVSPropertyOp33
 70
     1
102
RTVSPropertyOp34
 70
     1
102
RTVSPropertyOp35
 70
     1
102
RTVSPropertyOp36
 70
     1
102
RTVSPropertyOp37
 70
     1
102
RTVSPropertyOp38
 70
     1
102
RTVSPropertyOp39
 70
     1
102
RTVSPropertyOp40
 70
     1
102
RTVSPropertyOp41
 70
     1
102
RTVSPropertyOp42
 70
     1
102
RTVSPropertyOp43
 70
     1
102
RTVSPropertyOp44
 70
     1
102
RTVSPropertyOp45
 70
     1
102
RTVSPropertyOp46
 70
     1
102
RTVSPropertyOp47
 70
     1
102
RTVSPropertyOp48
 70
     1
102
RTVSPropertyOp49
 70
     1
102
RTVSPropertyOp50
 70
     1
102
RTVSPropertyOp51
 70
     0
102
RTVSPropertyOp52
 70
     0
102
RTVSPropertyOp53
 70
     1
102
RTVSPropertyOp54
 70
     1
102
RTVSPropertyOp55
 70
     1
102
RTVSPropertyOp56
 70
     1
102
RTVSPropertyOp57
 70
     1
102
RTVSPost2010Prop28
280
     0
102
RTVSPost2010PropOp28
 70
     1
102
RTVSPost2010Prop29
280
     1
102
RTVSPost2010PropOp29
 70
     1
102
RTVSPost2010Prop30
280
     1
102
RTVSPost2010PropOp30
 70
     1
102
RTVSPost2010Prop31
280
     0
102
RTVSPost2010PropOp31
 70
     1
102
RTVSPost2010Prop32
280
     0
102
RTVSPost2010PropOp32
 70
     1
102
RTVSPost2010Prop33
280
     0
102
RTVSPost2010PropOp33
 70
     1
102
RTVSPost2010Prop34
280
     0
102
RTVSPost2010PropOp34
 70
     1
102
RTVSPost2010Prop35
280
     0
102
RTVSPost2010PropOp35
 70
     1
102
RTVSPost2010Prop36
280
     0
102
RTVSPost2010PropOp36
 70
     1
102
RTVSPost2010Prop37
 90
       50
102
RTVSPost2010PropOp37
 70
     1
102
RTVSPost2010Prop38
140
0.0
102
RTVSPost2010PropOp38
 70
     1
102
RTVSPost2010Prop39
140
1.0
102
RTVSPost2010PropOp39
 70
     1
102
RTVSPost2010Prop40
 90
        0
102
RTVSPost2010PropOp40
 70
     1
102
RTVSPost2010Prop41ColorIndex
 90
       18
102
RTVSPost2010Prop41ColorRGB
 90
        0
102
RTVSPost2010PropOp41
 70
     1
102
RTVSPost2010Prop42
 90
       50
102
RTVSPost2010PropOp42
 70
     1
102
RTVSPost2010Prop43
 90
        3
102
RTVSPost2010PropOp43
 70
     1
102
RTVSPost2010Prop44ColorIndex
 90
        5
102
RTVSPost2010Prop44ColorRGB
 90
      255
102
RTVSPost2010PropOp44
 70
     1
102
RTVSPost2010Prop45
280
     0
102
RTVSPost2010PropOp45
 70
     1
102
RTVSPost2010Prop46
 90
       50
102
RTVSPost2010PropOp46
 70
     1
102
RTVSPost2010Prop47
 90
       50
102
RTVSPost2010PropOp47
 70
     1
102
RTVSPost2010Prop48
 90
       50
102
RTVSPost2010PropOp48
 70
     1
102
RTVSPost2010Prop49
280
     0
102
RTVSPost2010PropOp49
 70
     1
102
RTVSPost2010Prop50
 90
       50
102
RTVSPost2010PropOp50
 70
     1
102
RTVSPost2010Prop51ColorIndex
 90
      256
102
RTVSPost2010Prop51ColorRGB
 90
-16777216
102
RTVSPost2010PropOp51
 70
     0
102
RTVSPost2010Prop52
140
1.0
102
RTVSPost2010PropOp52
 70
     0
102
RTVSPost2010Prop53
 90
        2
102
RTVSPost2010PropOp53
 70
     1
102
RTVSPost2010Prop54
  1
strokes_ogs.tif
102
RTVSPost2010PropOp54
 70
     1
102
RTVSPost2010Prop55
280
     0
102
RTVSPost2010PropOp55
 70
     1
102
RTVSPost2010Prop56
140
1.0
102
RTVSPost2010PropOp56
 70
     1
102
RTVSPost2010Prop57
140
1.0
102
RTVSPost2010PropOp57
 70
     1
  0
XRECORD
  5
517
102
{ACAD_REACTORS
330
516
102
}
330
516
100
AcDbXrecord
280
     1
102
RTVSPropertyOp0
 70
     1
102
RTVSPropertyOp1
 70
     1
102
RTVSPropertyOp2
 70
     1
102
RTVSPropertyOp3
 70
     1
102
RTVSPropertyOp4
 70
     1
102
RTVSPropertyOp5
 70
     1
102
RTVSPropertyOp6
 70
     1
102
RTVSPropertyOp7
 70
     1
102
RTVSPropertyOp8
 70
     1
102
RTVSPropertyOp9
 70
     1
102
RTVSPropertyOp10
 70
     1
102
RTVSPropertyOp11
 70
     1
102
RTVSPropertyOp12
 70
     1
102
RTVSPropertyOp13
 70
     1
102
RTVSPropertyOp14
 70
     1
102
RTVSPropertyOp15
 70
     1
102
RTVSPropertyOp16
 70
     1
102
RTVSPropertyOp17
 70
     1
102
RTVSPropertyOp18
 70
     1
102
RTVSPropertyOp19
 70
     1
102
RTVSPropertyOp20
 70
     1
102
RTVSPropertyOp21
 70
     1
102
RTVSPropertyOp22
 70
     1
102
RTVSPropertyOp23
 70
     1
102
RTVSPropertyOp24
 70
     1
102
RTVSPropertyOp25
 70
     1
102
RTVSPropertyOp26
 70
     1
102
RTVSPropertyOp27
 70
     1
102
RTVSPropertyOp28
 70
     1
102
RTVSPropertyOp29
 70
     1
102
RTVSPropertyOp30
 70
     1
102
RTVSPropertyOp31
 70
     1
102
RTVSPropertyOp32
 70
     1
102
RTVSPropertyOp33
 70
     1
102
RTVSPropertyOp34
 70
     1
102
RTVSPropertyOp35
 70
     1
102
RTVSPropertyOp36
 70
     1
102
RTVSPropertyOp37
 70
     1
102
RTVSPropertyOp38
 70
     1
102
RTVSPropertyOp39
 70
     1
102
RTVSPropertyOp40
 70
     1
102
RTVSPropertyOp41
 70
     1
102
RTVSPropertyOp42
 70
     1
102
RTVSPropertyOp43
 70
     1
102
RTVSPropertyOp44
 70
     1
102
RTVSPropertyOp45
 70
     1
102
RTVSPropertyOp46
 70
     1
102
RTVSPropertyOp47
 70
     1
102
RTVSPropertyOp48
 70
     1
102
RTVSPropertyOp49
 70
     1
102
RTVSPropertyOp50
 70
     1
102
RTVSPropertyOp51
 70
     0
102
RTVSPropertyOp52
 70
     0
102
RTVSPropertyOp53
 70
     1
102
RTVSPropertyOp54
 70
     1
102
RTVSPropertyOp55
 70
     1
102
RTVSPropertyOp56
 70
     1
102
RTVSPropertyOp57
 70
     1
102
RTVSPost2010Prop28
280
     0
102
RTVSPost2010PropOp28
 70
     1
102
RTVSPost2010Prop29
280
     1
102
RTVSPost2010PropOp29
 70
     1
102
RTVSPost2010Prop30
280
     1
102
RTVSPost2010PropOp30
 70
     1
102
RTVSPost2010Prop31
280
     0
102
RTVSPost2010PropOp31
 70
     1
102
RTVSPost2010Prop32
280
     0
102
RTVSPost2010PropOp32
 70
     1
102
RTVSPost2010Prop33
280
     0
102
RTVSPost2010PropOp33
 70
     1
102
RTVSPost2010Prop34
280
     0
102
RTVSPost2010PropOp34
 70
     1
102
RTVSPost2010Prop35
280
     0
102
RTVSPost2010PropOp35
 70
     1
102
RTVSPost2010Prop36
280
     0
102
RTVSPost2010PropOp36
 70
     1
102
RTVSPost2010Prop37
 90
       50
102
RTVSPost2010PropOp37
 70
     1
102
RTVSPost2010Prop38
140
0.0
102
RTVSPost2010PropOp38
 70
     1
102
RTVSPost2010Prop39
140
1.0
102
RTVSPost2010PropOp39
 70
     1
102
RTVSPost2010Prop40
 90
        0
102
RTVSPost2010PropOp40
 70
     1
102
RTVSPost2010Prop41ColorIndex
 90
       18
102
RTVSPost2010Prop41ColorRGB
 90
        0
102
RTVSPost2010PropOp41
 70
     1
102
RTVSPost2010Prop42
 90
       50
102
RTVSPost2010PropOp42
 70
     1
102
RTVSPost2010Prop43
 90
        3
102
RTVSPost2010PropOp43
 70
     1
102
RTVSPost2010Prop44ColorIndex
 90
        5
102
RTVSPost2010Prop44ColorRGB
 90
      255
102
RTVSPost2010PropOp44
 70
     1
102
RTVSPost2010Prop45
280
     0
102
RTVSPost2010PropOp45
 70
     1
102
RTVSPost2010Prop46
 90
       50
102
RTVSPost2010PropOp46
 70
     1
102
RTVSPost2010Prop47
 90
       50
102
RTVSPost2010PropOp47
 70
     1
102
RTVSPost2010Prop48
 90
       50
102
RTVSPost2010PropOp48
 70
     1
102
RTVSPost2010Prop49
280
     0
102
RTVSPost2010PropOp49
 70
     1
102
RTVSPost2010Prop50
 90
       50
102
RTVSPost2010PropOp50
 70
     1
102
RTVSPost2010Prop51ColorIndex
 90
      256
102
RTVSPost2010Prop51ColorRGB
 90
-16777216
102
RTVSPost2010PropOp51
 70
     0
102
RTVSPost2010Prop52
140
1.0
102
RTVSPost2010PropOp52
 70
     0
102
RTVSPost2010Prop53
 90
        2
102
RTVSPost2010PropOp53
 70
     1
102
RTVSPost2010Prop54
  1
strokes_ogs.tif
102
RTVSPost2010PropOp54
 70
     1
102
RTVSPost2010Prop55
280
     0
102
RTVSPost2010PropOp55
 70
     1
102
RTVSPost2010Prop56
140
1.0
102
RTVSPost2010PropOp56
 70
     1
102
RTVSPost2010Prop57
140
1.0
102
RTVSPost2010PropOp57
 70
     1
  0
XRECORD
  5
527
102
{ACAD_REACTORS
330
526
102
}
330
526
100
AcDbXrecord
280
     1
102
RTVSPropertyOp0
 70
     0
102
RTVSPropertyOp1
 70
     0
102
RTVSPropertyOp2
 70
     0
102
RTVSPropertyOp3
 70
     0
102
RTVSPropertyOp4
 70
     0
102
RTVSPropertyOp5
 70
     0
102
RTVSPropertyOp6
 70
     0
102
RTVSPropertyOp7
 70
     0
102
RTVSPropertyOp8
 70
     0
102
RTVSPropertyOp9
 70
     0
102
RTVSPropertyOp10
 70
     0
102
RTVSPropertyOp11
 70
     0
102
RTVSPropertyOp12
 70
     0
102
RTVSPropertyOp13
 70
     0
102
RTVSPropertyOp14
 70
     2
102
RTVSPropertyOp15
 70
     0
102
RTVSPropertyOp16
 70
     0
102
RTVSPropertyOp17
 70
     0
102
RTVSPropertyOp18
 70
     0
102
RTVSPropertyOp19
 70
     0
102
RTVSPropertyOp20
 70
     0
102
RTVSPropertyOp21
 70
     0
102
RTVSPropertyOp22
 70
     0
102
RTVSPropertyOp23
 70
     0
102
RTVSPropertyOp24
 70
     0
102
RTVSPropertyOp25
 70
     0
102
RTVSPropertyOp26
 70
     0
102
RTVSPropertyOp27
 70
     0
102
RTVSPropertyOp28
 70
     0
102
RTVSPropertyOp29
 70
     0
102
RTVSPropertyOp30
 70
     0
102
RTVSPropertyOp31
 70
     0
102
RTVSPropertyOp32
 70
     0
102
RTVSPropertyOp33
 70
     0
102
RTVSPropertyOp34
 70
     0
102
RTVSPropertyOp35
 70
     0
102
RTVSPropertyOp36
 70
     0
102
RTVSPropertyOp37
 70
     0
102
RTVSPropertyOp38
 70
     0
102
RTVSPropertyOp39
 70
     0
102
RTVSPropertyOp40
 70
     0
102
RTVSPropertyOp41
 70
     0
102
RTVSPropertyOp42
 70
     0
102
RTVSPropertyOp43
 70
     0
102
RTVSPropertyOp44
 70
     0
102
RTVSPropertyOp45
 70
     0
102
RTVSPropertyOp46
 70
     0
102
RTVSPropertyOp47
 70
     0
102
RTVSPropertyOp48
 70
     0
102
RTVSPropertyOp49
 70
     0
102
RTVSPropertyOp50
 70
     0
102
RTVSPropertyOp51
 70
     0
102
RTVSPropertyOp52
 70
     0
102
RTVSPropertyOp53
 70
     0
102
RTVSPropertyOp54
 70
     0
102
RTVSPropertyOp55
 70
     0
102
RTVSPropertyOp56
 70
     0
102
RTVSPropertyOp57
 70
     0
102
RTVSPost2010Prop28
280
     0
102
RTVSPost2010PropOp28
 70
     0
102
RTVSPost2010Prop29
280
     1
102
RTVSPost2010PropOp29
 70
     0
102
RTVSPost2010Prop30
280
     1
102
RTVSPost2010PropOp30
 70
     0
102
RTVSPost2010Prop31
280
     0
102
RTVSPost2010PropOp31
 70
     0
102
RTVSPost2010Prop32
280
     0
102
RTVSPost2010PropOp32
 70
     0
102
RTVSPost2010Prop33
280
     0
102
RTVSPost2010PropOp33
 70
     0
102
RTVSPost2010Prop34
280
     0
102
RTVSPost2010PropOp34
 70
     0
102
RTVSPost2010Prop35
280
     0
102
RTVSPost2010PropOp35
 70
     0
102
RTVSPost2010Prop36
280
     0
102
RTVSPost2010PropOp36
 70
     0
102
RTVSPost2010Prop37
 90
       50
102
RTVSPost2010PropOp37
 70
     0
102
RTVSPost2010Prop38
140
0.0
102
RTVSPost2010PropOp38
 70
     0
102
RTVSPost2010Prop39
140
1.0
102
RTVSPost2010PropOp39
 70
     0
102
RTVSPost2010Prop40
 90
        0
102
RTVSPost2010PropOp40
 70
     0
102
RTVSPost2010Prop41ColorIndex
 90
       18
102
RTVSPost2010Prop41ColorRGB
 90
        0
102
RTVSPost2010PropOp41
 70
     0
102
RTVSPost2010Prop42
 90
       50
102
RTVSPost2010PropOp42
 70
     0
102
RTVSPost2010Prop43
 90
        3
102
RTVSPost2010PropOp43
 70
     0
102
RTVSPost2010Prop44ColorIndex
 90
        5
102
RTVSPost2010Prop44ColorRGB
 90
      255
102
RTVSPost2010PropOp44
 70
     0
102
RTVSPost2010Prop45
280
     0
102
RTVSPost2010PropOp45
 70
     0
102
RTVSPost2010Prop46
 90
       50
102
RTVSPost2010PropOp46
 70
     0
102
RTVSPost2010Prop47
 90
       50
102
RTVSPost2010PropOp47
 70
     0
102
RTVSPost2010Prop48
 90
       50
102
RTVSPost2010PropOp48
 70
     0
102
RTVSPost2010Prop49
280
     0
102
RTVSPost2010PropOp49
 70
     0
102
RTVSPost2010Prop50
 90
       50
102
RTVSPost2010PropOp50
 70
     0
102
RTVSPost2010Prop51ColorIndex
 90
      256
102
RTVSPost2010Prop51ColorRGB
 90
-16777216
102
RTVSPost2010PropOp51
 70
     0
102
RTVSPost2010Prop52
140
1.0
102
RTVSPost2010PropOp52
 70
     0
102
RTVSPost2010Prop53
 90
        2
102
RTVSPost2010PropOp53
 70
     0
102
RTVSPost2010Prop54
  1
strokes_ogs.tif
102
RTVSPost2010PropOp54
 70
     0
102
RTVSPost2010Prop55
280
     0
102
RTVSPost2010PropOp55
 70
     0
102
RTVSPost2010Prop56
140
1.0
102
RTVSPost2010PropOp56
 70
     0
102
RTVSPost2010Prop57
140
1.0
102
RTVSPost2010PropOp57
 70
     0
  0
XRECORD
  5
51F
102
{ACAD_REACTORS
330
51E
102
}
330
51E
100
AcDbXrecord
280
     1
102
RTVSPropertyOp0
 70
     1
102
RTVSPropertyOp1
 70
     1
102
RTVSPropertyOp2
 70
     1
102
RTVSPropertyOp3
 70
     1
102
RTVSPropertyOp4
 70
     1
102
RTVSPropertyOp5
 70
     1
102
RTVSPropertyOp6
 70
     1
102
RTVSPropertyOp7
 70
     1
102
RTVSPropertyOp8
 70
     1
102
RTVSPropertyOp9
 70
     1
102
RTVSPropertyOp10
 70
     1
102
RTVSPropertyOp11
 70
     1
102
RTVSPropertyOp12
 70
     1
102
RTVSPropertyOp13
 70
     1
102
RTVSPropertyOp14
 70
     1
102
RTVSPropertyOp15
 70
     1
102
RTVSPropertyOp16
 70
     1
102
RTVSPropertyOp17
 70
     1
102
RTVSPropertyOp18
 70
     1
102
RTVSPropertyOp19
 70
     1
102
RTVSPropertyOp20
 70
     1
102
RTVSPropertyOp21
 70
     1
102
RTVSPropertyOp22
 70
     1
102
RTVSPropertyOp23
 70
     1
102
RTVSPropertyOp24
 70
     1
102
RTVSPropertyOp25
 70
     1
102
RTVSPropertyOp26
 70
     1
102
RTVSPropertyOp27
 70
     1
102
RTVSPropertyOp28
 70
     1
102
RTVSPropertyOp29
 70
     1
102
RTVSPropertyOp30
 70
     1
102
RTVSPropertyOp31
 70
     1
102
RTVSPropertyOp32
 70
     1
102
RTVSPropertyOp33
 70
     1
102
RTVSPropertyOp34
 70
     1
102
RTVSPropertyOp35
 70
     1
102
RTVSPropertyOp36
 70
     1
102
RTVSPropertyOp37
 70
     1
102
RTVSPropertyOp38
 70
     1
102
RTVSPropertyOp39
 70
     1
102
RTVSPropertyOp40
 70
     1
102
RTVSPropertyOp41
 70
     1
102
RTVSPropertyOp42
 70
     1
102
RTVSPropertyOp43
 70
     1
102
RTVSPropertyOp44
 70
     1
102
RTVSPropertyOp45
 70
     1
102
RTVSPropertyOp46
 70
     1
102
RTVSPropertyOp47
 70
     1
102
RTVSPropertyOp48
 70
     1
102
RTVSPropertyOp49
 70
     1
102
RTVSPropertyOp50
 70
     1
102
RTVSPropertyOp51
 70
     0
102
RTVSPropertyOp52
 70
     0
102
RTVSPropertyOp53
 70
     1
102
RTVSPropertyOp54
 70
     1
102
RTVSPropertyOp55
 70
     1
102
RTVSPropertyOp56
 70
     1
102
RTVSPropertyOp57
 70
     1
102
RTVSPost2010Prop28
280
     0
102
RTVSPost2010PropOp28
 70
     1
102
RTVSPost2010Prop29
280
     1
102
RTVSPost2010PropOp29
 70
     1
102
RTVSPost2010Prop30
280
     1
102
RTVSPost2010PropOp30
 70
     1
102
RTVSPost2010Prop31
280
     0
102
RTVSPost2010PropOp31
 70
     1
102
RTVSPost2010Prop32
280
     0
102
RTVSPost2010PropOp32
 70
     1
102
RTVSPost2010Prop33
280
     0
102
RTVSPost2010PropOp33
 70
     1
102
RTVSPost2010Prop34
280
     0
102
RTVSPost2010PropOp34
 70
     1
102
RTVSPost2010Prop35
280
     0
102
RTVSPost2010PropOp35
 70
     1
102
RTVSPost2010Prop36
280
     0
102
RTVSPost2010PropOp36
 70
     1
102
RTVSPost2010Prop37
 90
       50
102
RTVSPost2010PropOp37
 70
     1
102
RTVSPost2010Prop38
140
0.0
102
RTVSPost2010PropOp38
 70
     1
102
RTVSPost2010Prop39
140
1.0
102
RTVSPost2010PropOp39
 70
     1
102
RTVSPost2010Prop40
 90
        0
102
RTVSPost2010PropOp40
 70
     1
102
RTVSPost2010Prop41ColorIndex
 90
       18
102
RTVSPost2010Prop41ColorRGB
 90
        0
102
RTVSPost2010PropOp41
 70
     1
102
RTVSPost2010Prop42
 90
       50
102
RTVSPost2010PropOp42
 70
     1
102
RTVSPost2010Prop43
 90
        3
102
RTVSPost2010PropOp43
 70
     1
102
RTVSPost2010Prop44ColorIndex
 90
        5
102
RTVSPost2010Prop44ColorRGB
 90
      255
102
RTVSPost2010PropOp44
 70
     1
102
RTVSPost2010Prop45
280
     0
102
RTVSPost2010PropOp45
 70
     1
102
RTVSPost2010Prop46
 90
       50
102
RTVSPost2010PropOp46
 70
     1
102
RTVSPost2010Prop47
 90
       50
102
RTVSPost2010PropOp47
 70
     1
102
RTVSPost2010Prop48
 90
       50
102
RTVSPost2010PropOp48
 70
     1
102
RTVSPost2010Prop49
280
     0
102
RTVSPost2010PropOp49
 70
     1
102
RTVSPost2010Prop50
 90
       50
102
RTVSPost2010PropOp50
 70
     1
102
RTVSPost2010Prop51ColorIndex
 90
      256
102
RTVSPost2010Prop51ColorRGB
 90
-16777216
102
RTVSPost2010PropOp51
 70
     0
102
RTVSPost2010Prop52
140
1.0
102
RTVSPost2010PropOp52
 70
     0
102
RTVSPost2010Prop53
 90
        2
102
RTVSPost2010PropOp53
 70
     1
102
RTVSPost2010Prop54
  1
strokes_ogs.tif
102
RTVSPost2010PropOp54
 70
     1
102
RTVSPost2010Prop55
280
     0
102
RTVSPost2010PropOp55
 70
     1
102
RTVSPost2010Prop56
140
1.0
102
RTVSPost2010PropOp56
 70
     1
102
RTVSPost2010Prop57
140
1.0
102
RTVSPost2010PropOp57
 70
     1
  0
XRECORD
  5
503
102
{ACAD_REACTORS
330
502
102
}
330
502
100
AcDbXrecord
280
     1
102
RTVSPropertyOp0
 70
     1
102
RTVSPropertyOp1
 70
     1
102
RTVSPropertyOp2
 70
     1
102
RTVSPropertyOp3
 70
     1
102
RTVSPropertyOp4
 70
     1
102
RTVSPropertyOp5
 70
     1
102
RTVSPropertyOp6
 70
     1
102
RTVSPropertyOp7
 70
     1
102
RTVSPropertyOp8
 70
     1
102
RTVSPropertyOp9
 70
     1
102
RTVSPropertyOp10
 70
     1
102
RTVSPropertyOp11
 70
     1
102
RTVSPropertyOp12
 70
     1
102
RTVSPropertyOp13
 70
     1
102
RTVSPropertyOp14
 70
     1
102
RTVSPropertyOp15
 70
     1
102
RTVSPropertyOp16
 70
     1
102
RTVSPropertyOp17
 70
     1
102
RTVSPropertyOp18
 70
     1
102
RTVSPropertyOp19
 70
     1
102
RTVSPropertyOp20
 70
     1
102
RTVSPropertyOp21
 70
     1
102
RTVSPropertyOp22
 70
     1
102
RTVSPropertyOp23
 70
     1
102
RTVSPropertyOp24
 70
     1
102
RTVSPropertyOp25
 70
     1
102
RTVSPropertyOp26
 70
     1
102
RTVSPropertyOp27
 70
     1
102
RTVSPropertyOp28
 70
     1
102
RTVSPropertyOp29
 70
     1
102
RTVSPropertyOp30
 70
     1
102
RTVSPropertyOp31
 70
     1
102
RTVSPropertyOp32
 70
     1
102
RTVSPropertyOp33
 70
     1
102
RTVSPropertyOp34
 70
     1
102
RTVSPropertyOp35
 70
     1
102
RTVSPropertyOp36
 70
     1
102
RTVSPropertyOp37
 70
     1
102
RTVSPropertyOp38
 70
     1
102
RTVSPropertyOp39
 70
     1
102
RTVSPropertyOp40
 70
     1
102
RTVSPropertyOp41
 70
     1
102
RTVSPropertyOp42
 70
     1
102
RTVSPropertyOp43
 70
     1
102
RTVSPropertyOp44
 70
     1
102
RTVSPropertyOp45
 70
     1
102
RTVSPropertyOp46
 70
     1
102
RTVSPropertyOp47
 70
     1
102
RTVSPropertyOp48
 70
     1
102
RTVSPropertyOp49
 70
     1
102
RTVSPropertyOp50
 70
     1
102
RTVSPropertyOp51
 70
     0
102
RTVSPropertyOp52
 70
     0
102
RTVSPropertyOp53
 70
     1
102
RTVSPropertyOp54
 70
     1
102
RTVSPropertyOp55
 70
     1
102
RTVSPropertyOp56
 70
     1
102
RTVSPropertyOp57
 70
     1
102
RTVSPost2010Prop28
280
     0
102
RTVSPost2010PropOp28
 70
     1
102
RTVSPost2010Prop29
280
     1
102
RTVSPost2010PropOp29
 70
     1
102
RTVSPost2010Prop30
280
     1
102
RTVSPost2010PropOp30
 70
     1
102
RTVSPost2010Prop31
280
     0
102
RTVSPost2010PropOp31
 70
     1
102
RTVSPost2010Prop32
280
     0
102
RTVSPost2010PropOp32
 70
     1
102
RTVSPost2010Prop33
280
     0
102
RTVSPost2010PropOp33
 70
     1
102
RTVSPost2010Prop34
280
     0
102
RTVSPost2010PropOp34
 70
     1
102
RTVSPost2010Prop35
280
     0
102
RTVSPost2010PropOp35
 70
     1
102
RTVSPost2010Prop36
280
     0
102
RTVSPost2010PropOp36
 70
     1
102
RTVSPost2010Prop37
 90
       50
102
RTVSPost2010PropOp37
 70
     1
102
RTVSPost2010Prop38
140
0.0
102
RTVSPost2010PropOp38
 70
     1
102
RTVSPost2010Prop39
140
1.0
102
RTVSPost2010PropOp39
 70
     1
102
RTVSPost2010Prop40
 90
        0
102
RTVSPost2010PropOp40
 70
     1
102
RTVSPost2010Prop41ColorIndex
 90
       18
102
RTVSPost2010Prop41ColorRGB
 90
        0
102
RTVSPost2010PropOp41
 70
     1
102
RTVSPost2010Prop42
 90
       50
102
RTVSPost2010PropOp42
 70
     1
102
RTVSPost2010Prop43
 90
        3
102
RTVSPost2010PropOp43
 70
     1
102
RTVSPost2010Prop44ColorIndex
 90
        5
102
RTVSPost2010Prop44ColorRGB
 90
      255
102
RTVSPost2010PropOp44
 70
     1
102
RTVSPost2010Prop45
280
     0
102
RTVSPost2010PropOp45
 70
     1
102
RTVSPost2010Prop46
 90
       50
102
RTVSPost2010PropOp46
 70
     1
102
RTVSPost2010Prop47
 90
       50
102
RTVSPost2010PropOp47
 70
     1
102
RTVSPost2010Prop48
 90
       50
102
RTVSPost2010PropOp48
 70
     1
102
RTVSPost2010Prop49
280
     0
102
RTVSPost2010PropOp49
 70
     1
102
RTVSPost2010Prop50
 90
       50
102
RTVSPost2010PropOp50
 70
     1
102
RTVSPost2010Prop51ColorIndex
 90
      256
102
RTVSPost2010Prop51ColorRGB
 90
-16777216
102
RTVSPost2010PropOp51
 70
     0
102
RTVSPost2010Prop52
140
1.0
102
RTVSPost2010PropOp52
 70
     0
102
RTVSPost2010Prop53
 90
        2
102
RTVSPost2010PropOp53
 70
     1
102
RTVSPost2010Prop54
  1
strokes_ogs.tif
102
RTVSPost2010PropOp54
 70
     1
102
RTVSPost2010Prop55
280
     0
102
RTVSPost2010PropOp55
 70
     1
102
RTVSPost2010Prop56
140
1.0
102
RTVSPost2010PropOp56
 70
     1
102
RTVSPost2010Prop57
140
1.0
102
RTVSPost2010PropOp57
 70
     1
  0
XRECORD
  5
505
102
{ACAD_REACTORS
330
504
102
}
330
504
100
AcDbXrecord
280
     1
102
RTVSPropertyOp0
 70
     1
102
RTVSPropertyOp1
 70
     1
102
RTVSPropertyOp2
 70
     1
102
RTVSPropertyOp3
 70
     1
102
RTVSPropertyOp4
 70
     1
102
RTVSPropertyOp5
 70
     1
102
RTVSPropertyOp6
 70
     1
102
RTVSPropertyOp7
 70
     1
102
RTVSPropertyOp8
 70
     1
102
RTVSPropertyOp9
 70
     1
102
RTVSPropertyOp10
 70
     1
102
RTVSPropertyOp11
 70
     1
102
RTVSPropertyOp12
 70
     1
102
RTVSPropertyOp13
 70
     1
102
RTVSPropertyOp14
 70
     1
102
RTVSPropertyOp15
 70
     1
102
RTVSPropertyOp16
 70
     1
102
RTVSPropertyOp17
 70
     1
102
RTVSPropertyOp18
 70
     1
102
RTVSPropertyOp19
 70
     1
102
RTVSPropertyOp20
 70
     1
102
RTVSPropertyOp21
 70
     1
102
RTVSPropertyOp22
 70
     1
102
RTVSPropertyOp23
 70
     1
102
RTVSPropertyOp24
 70
     1
102
RTVSPropertyOp25
 70
     1
102
RTVSPropertyOp26
 70
     1
102
RTVSPropertyOp27
 70
     1
102
RTVSPropertyOp28
 70
     1
102
RTVSPropertyOp29
 70
     1
102
RTVSPropertyOp30
 70
     1
102
RTVSPropertyOp31
 70
     1
102
RTVSPropertyOp32
 70
     1
102
RTVSPropertyOp33
 70
     1
102
RTVSPropertyOp34
 70
     1
102
RTVSPropertyOp35
 70
     1
102
RTVSPropertyOp36
 70
     1
102
RTVSPropertyOp37
 70
     1
102
RTVSPropertyOp38
 70
     1
102
RTVSPropertyOp39
 70
     1
102
RTVSPropertyOp40
 70
     1
102
RTVSPropertyOp41
 70
     1
102
RTVSPropertyOp42
 70
     1
102
RTVSPropertyOp43
 70
     1
102
RTVSPropertyOp44
 70
     1
102
RTVSPropertyOp45
 70
     1
102
RTVSPropertyOp46
 70
     1
102
RTVSPropertyOp47
 70
     1
102
RTVSPropertyOp48
 70
     1
102
RTVSPropertyOp49
 70
     1
102
RTVSPropertyOp50
 70
     1
102
RTVSPropertyOp51
 70
     0
102
RTVSPropertyOp52
 70
     0
102
RTVSPropertyOp53
 70
     1
102
RTVSPropertyOp54
 70
     1
102
RTVSPropertyOp55
 70
     1
102
RTVSPropertyOp56
 70
     1
102
RTVSPropertyOp57
 70
     1
102
RTVSPost2010Prop28
280
     0
102
RTVSPost2010PropOp28
 70
     1
102
RTVSPost2010Prop29
280
     1
102
RTVSPost2010PropOp29
 70
     1
102
RTVSPost2010Prop30
280
     1
102
RTVSPost2010PropOp30
 70
     1
102
RTVSPost2010Prop31
280
     0
102
RTVSPost2010PropOp31
 70
     1
102
RTVSPost2010Prop32
280
     0
102
RTVSPost2010PropOp32
 70
     1
102
RTVSPost2010Prop33
280
     0
102
RTVSPost2010PropOp33
 70
     1
102
RTVSPost2010Prop34
280
     0
102
RTVSPost2010PropOp34
 70
     1
102
RTVSPost2010Prop35
280
     0
102
RTVSPost2010PropOp35
 70
     1
102
RTVSPost2010Prop36
280
     0
102
RTVSPost2010PropOp36
 70
     1
102
RTVSPost2010Prop37
 90
       50
102
RTVSPost2010PropOp37
 70
     1
102
RTVSPost2010Prop38
140
0.0
102
RTVSPost2010PropOp38
 70
     1
102
RTVSPost2010Prop39
140
1.0
102
RTVSPost2010PropOp39
 70
     1
102
RTVSPost2010Prop40
 90
        0
102
RTVSPost2010PropOp40
 70
     1
102
RTVSPost2010Prop41ColorIndex
 90
       18
102
RTVSPost2010Prop41ColorRGB
 90
        0
102
RTVSPost2010PropOp41
 70
     1
102
RTVSPost2010Prop42
 90
       50
102
RTVSPost2010PropOp42
 70
     1
102
RTVSPost2010Prop43
 90
        3
102
RTVSPost2010PropOp43
 70
     1
102
RTVSPost2010Prop44ColorIndex
 90
        5
102
RTVSPost2010Prop44ColorRGB
 90
      255
102
RTVSPost2010PropOp44
 70
     1
102
RTVSPost2010Prop45
280
     0
102
RTVSPost2010PropOp45
 70
     1
102
RTVSPost2010Prop46
 90
       50
102
RTVSPost2010PropOp46
 70
     1
102
RTVSPost2010Prop47
 90
       50
102
RTVSPost2010PropOp47
 70
     1
102
RTVSPost2010Prop48
 90
       50
102
RTVSPost2010PropOp48
 70
     1
102
RTVSPost2010Prop49
280
     0
102
RTVSPost2010PropOp49
 70
     1
102
RTVSPost2010Prop50
 90
       50
102
RTVSPost2010PropOp50
 70
     1
102
RTVSPost2010Prop51ColorIndex
 90
      256
102
RTVSPost2010Prop51ColorRGB
 90
-16777216
102
RTVSPost2010PropOp51
 70
     0
102
RTVSPost2010Prop52
140
1.0
102
RTVSPost2010PropOp52
 70
     0
102
RTVSPost2010Prop53
 90
        2
102
RTVSPost2010PropOp53
 70
     1
102
RTVSPost2010Prop54
  1
strokes_ogs.tif
102
RTVSPost2010PropOp54
 70
     1
102
RTVSPost2010Prop55
280
     0
102
RTVSPost2010PropOp55
 70
     1
102
RTVSPost2010Prop56
140
1.0
102
RTVSPost2010PropOp56
 70
     1
102
RTVSPost2010Prop57
140
1.0
102
RTVSPost2010PropOp57
 70
     1
  0
XRECORD
  5
507
102
{ACAD_REACTORS
330
506
102
}
330
506
100
AcDbXrecord
280
     1
102
RTVSPropertyOp0
 70
     1
102
RTVSPropertyOp1
 70
     1
102
RTVSPropertyOp2
 70
     1
102
RTVSPropertyOp3
 70
     1
102
RTVSPropertyOp4
 70
     1
102
RTVSPropertyOp5
 70
     1
102
RTVSPropertyOp6
 70
     1
102
RTVSPropertyOp7
 70
     1
102
RTVSPropertyOp8
 70
     1
102
RTVSPropertyOp9
 70
     1
102
RTVSPropertyOp10
 70
     1
102
RTVSPropertyOp11
 70
     1
102
RTVSPropertyOp12
 70
     1
102
RTVSPropertyOp13
 70
     1
102
RTVSPropertyOp14
 70
     1
102
RTVSPropertyOp15
 70
     1
102
RTVSPropertyOp16
 70
     1
102
RTVSPropertyOp17
 70
     1
102
RTVSPropertyOp18
 70
     1
102
RTVSPropertyOp19
 70
     1
102
RTVSPropertyOp20
 70
     1
102
RTVSPropertyOp21
 70
     1
102
RTVSPropertyOp22
 70
     1
102
RTVSPropertyOp23
 70
     1
102
RTVSPropertyOp24
 70
     1
102
RTVSPropertyOp25
 70
     1
102
RTVSPropertyOp26
 70
     1
102
RTVSPropertyOp27
 70
     1
102
RTVSPropertyOp28
 70
     1
102
RTVSPropertyOp29
 70
     1
102
RTVSPropertyOp30
 70
     1
102
RTVSPropertyOp31
 70
     1
102
RTVSPropertyOp32
 70
     1
102
RTVSPropertyOp33
 70
     1
102
RTVSPropertyOp34
 70
     1
102
RTVSPropertyOp35
 70
     1
102
RTVSPropertyOp36
 70
     1
102
RTVSPropertyOp37
 70
     1
102
RTVSPropertyOp38
 70
     1
102
RTVSPropertyOp39
 70
     1
102
RTVSPropertyOp40
 70
     1
102
RTVSPropertyOp41
 70
     1
102
RTVSPropertyOp42
 70
     1
102
RTVSPropertyOp43
 70
     1
102
RTVSPropertyOp44
 70
     1
102
RTVSPropertyOp45
 70
     1
102
RTVSPropertyOp46
 70
     1
102
RTVSPropertyOp47
 70
     1
102
RTVSPropertyOp48
 70
     1
102
RTVSPropertyOp49
 70
     1
102
RTVSPropertyOp50
 70
     1
102
RTVSPropertyOp51
 70
     0
102
RTVSPropertyOp52
 70
     0
102
RTVSPropertyOp53
 70
     1
102
RTVSPropertyOp54
 70
     1
102
RTVSPropertyOp55
 70
     1
102
RTVSPropertyOp56
 70
     1
102
RTVSPropertyOp57
 70
     1
102
RTVSPost2010Prop28
280
     0
102
RTVSPost2010PropOp28
 70
     1
102
RTVSPost2010Prop29
280
     1
102
RTVSPost2010PropOp29
 70
     1
102
RTVSPost2010Prop30
280
     1
102
RTVSPost2010PropOp30
 70
     1
102
RTVSPost2010Prop31
280
     0
102
RTVSPost2010PropOp31
 70
     1
102
RTVSPost2010Prop32
280
     0
102
RTVSPost2010PropOp32
 70
     1
102
RTVSPost2010Prop33
280
     0
102
RTVSPost2010PropOp33
 70
     1
102
RTVSPost2010Prop34
280
     0
102
RTVSPost2010PropOp34
 70
     1
102
RTVSPost2010Prop35
280
     0
102
RTVSPost2010PropOp35
 70
     1
102
RTVSPost2010Prop36
280
     0
102
RTVSPost2010PropOp36
 70
     1
102
RTVSPost2010Prop37
 90
       50
102
RTVSPost2010PropOp37
 70
     1
102
RTVSPost2010Prop38
140
0.0
102
RTVSPost2010PropOp38
 70
     1
102
RTVSPost2010Prop39
140
1.0
102
RTVSPost2010PropOp39
 70
     1
102
RTVSPost2010Prop40
 90
        0
102
RTVSPost2010PropOp40
 70
     1
102
RTVSPost2010Prop41ColorIndex
 90
       18
102
RTVSPost2010Prop41ColorRGB
 90
        0
102
RTVSPost2010PropOp41
 70
     1
102
RTVSPost2010Prop42
 90
       50
102
RTVSPost2010PropOp42
 70
     1
102
RTVSPost2010Prop43
 90
        3
102
RTVSPost2010PropOp43
 70
     1
102
RTVSPost2010Prop44ColorIndex
 90
        5
102
RTVSPost2010Prop44ColorRGB
 90
      255
102
RTVSPost2010PropOp44
 70
     1
102
RTVSPost2010Prop45
280
     0
102
RTVSPost2010PropOp45
 70
     1
102
RTVSPost2010Prop46
 90
       50
102
RTVSPost2010PropOp46
 70
     1
102
RTVSPost2010Prop47
 90
       50
102
RTVSPost2010PropOp47
 70
     1
102
RTVSPost2010Prop48
 90
       50
102
RTVSPost2010PropOp48
 70
     1
102
RTVSPost2010Prop49
280
     0
102
RTVSPost2010PropOp49
 70
     1
102
RTVSPost2010Prop50
 90
       50
102
RTVSPost2010PropOp50
 70
     1
102
RTVSPost2010Prop51ColorIndex
 90
      256
102
RTVSPost2010Prop51ColorRGB
 90
-16777216
102
RTVSPost2010PropOp51
 70
     0
102
RTVSPost2010Prop52
140
1.0
102
RTVSPost2010PropOp52
 70
     0
102
RTVSPost2010Prop53
 90
        2
102
RTVSPost2010PropOp53
 70
     1
102
RTVSPost2010Prop54
  1
strokes_ogs.tif
102
RTVSPost2010PropOp54
 70
     1
102
RTVSPost2010Prop55
280
     0
102
RTVSPost2010PropOp55
 70
     1
102
RTVSPost2010Prop56
140
1.0
102
RTVSPost2010PropOp56
 70
     1
102
RTVSPost2010Prop57
140
1.0
102
RTVSPost2010PropOp57
 70
     1
  0
XRECORD
  5
509
102
{ACAD_REACTORS
330
508
102
}
330
508
100
AcDbXrecord
280
     1
102
RTVSPropertyOp0
 70
     1
102
RTVSPropertyOp1
 70
     1
102
RTVSPropertyOp2
 70
     1
102
RTVSPropertyOp3
 70
     1
102
RTVSPropertyOp4
 70
     1
102
RTVSPropertyOp5
 70
     1
102
RTVSPropertyOp6
 70
     1
102
RTVSPropertyOp7
 70
     1
102
RTVSPropertyOp8
 70
     1
102
RTVSPropertyOp9
 70
     1
102
RTVSPropertyOp10
 70
     1
102
RTVSPropertyOp11
 70
     1
102
RTVSPropertyOp12
 70
     1
102
RTVSPropertyOp13
 70
     1
102
RTVSPropertyOp14
 70
     1
102
RTVSPropertyOp15
 70
     1
102
RTVSPropertyOp16
 70
     1
102
RTVSPropertyOp17
 70
     1
102
RTVSPropertyOp18
 70
     1
102
RTVSPropertyOp19
 70
     1
102
RTVSPropertyOp20
 70
     1
102
RTVSPropertyOp21
 70
     1
102
RTVSPropertyOp22
 70
     1
102
RTVSPropertyOp23
 70
     1
102
RTVSPropertyOp24
 70
     1
102
RTVSPropertyOp25
 70
     1
102
RTVSPropertyOp26
 70
     1
102
RTVSPropertyOp27
 70
     1
102
RTVSPropertyOp28
 70
     1
102
RTVSPropertyOp29
 70
     1
102
RTVSPropertyOp30
 70
     1
102
RTVSPropertyOp31
 70
     1
102
RTVSPropertyOp32
 70
     1
102
RTVSPropertyOp33
 70
     1
102
RTVSPropertyOp34
 70
     1
102
RTVSPropertyOp35
 70
     1
102
RTVSPropertyOp36
 70
     1
102
RTVSPropertyOp37
 70
     1
102
RTVSPropertyOp38
 70
     1
102
RTVSPropertyOp39
 70
     1
102
RTVSPropertyOp40
 70
     1
102
RTVSPropertyOp41
 70
     1
102
RTVSPropertyOp42
 70
     1
102
RTVSPropertyOp43
 70
     1
102
RTVSPropertyOp44
 70
     1
102
RTVSPropertyOp45
 70
     1
102
RTVSPropertyOp46
 70
     1
102
RTVSPropertyOp47
 70
     1
102
RTVSPropertyOp48
 70
     1
102
RTVSPropertyOp49
 70
     1
102
RTVSPropertyOp50
 70
     1
102
RTVSPropertyOp51
 70
     0
102
RTVSPropertyOp52
 70
     0
102
RTVSPropertyOp53
 70
     1
102
RTVSPropertyOp54
 70
     1
102
RTVSPropertyOp55
 70
     1
102
RTVSPropertyOp56
 70
     1
102
RTVSPropertyOp57
 70
     1
102
RTVSPost2010Prop28
280
     0
102
RTVSPost2010PropOp28
 70
     1
102
RTVSPost2010Prop29
280
     1
102
RTVSPost2010PropOp29
 70
     1
102
RTVSPost2010Prop30
280
     1
102
RTVSPost2010PropOp30
 70
     1
102
RTVSPost2010Prop31
280
     0
102
RTVSPost2010PropOp31
 70
     1
102
RTVSPost2010Prop32
280
     0
102
RTVSPost2010PropOp32
 70
     1
102
RTVSPost2010Prop33
280
     0
102
RTVSPost2010PropOp33
 70
     1
102
RTVSPost2010Prop34
280
     0
102
RTVSPost2010PropOp34
 70
     1
102
RTVSPost2010Prop35
280
     0
102
RTVSPost2010PropOp35
 70
     1
102
RTVSPost2010Prop36
280
     0
102
RTVSPost2010PropOp36
 70
     1
102
RTVSPost2010Prop37
 90
       50
102
RTVSPost2010PropOp37
 70
     1
102
RTVSPost2010Prop38
140
0.0
102
RTVSPost2010PropOp38
 70
     1
102
RTVSPost2010Prop39
140
1.0
102
RTVSPost2010PropOp39
 70
     1
102
RTVSPost2010Prop40
 90
        0
102
RTVSPost2010PropOp40
 70
     1
102
RTVSPost2010Prop41ColorIndex
 90
       18
102
RTVSPost2010Prop41ColorRGB
 90
        0
102
RTVSPost2010PropOp41
 70
     1
102
RTVSPost2010Prop42
 90
       50
102
RTVSPost2010PropOp42
 70
     1
102
RTVSPost2010Prop43
 90
        3
102
RTVSPost2010PropOp43
 70
     1
102
RTVSPost2010Prop44ColorIndex
 90
        5
102
RTVSPost2010Prop44ColorRGB
 90
      255
102
RTVSPost2010PropOp44
 70
     1
102
RTVSPost2010Prop45
280
     0
102
RTVSPost2010PropOp45
 70
     1
102
RTVSPost2010Prop46
 90
       50
102
RTVSPost2010PropOp46
 70
     1
102
RTVSPost2010Prop47
 90
       50
102
RTVSPost2010PropOp47
 70
     1
102
RTVSPost2010Prop48
 90
       50
102
RTVSPost2010PropOp48
 70
     1
102
RTVSPost2010Prop49
280
     0
102
RTVSPost2010PropOp49
 70
     1
102
RTVSPost2010Prop50
 90
       50
102
RTVSPost2010PropOp50
 70
     1
102
RTVSPost2010Prop51ColorIndex
 90
      256
102
RTVSPost2010Prop51ColorRGB
 90
-16777216
102
RTVSPost2010PropOp51
 70
     0
102
RTVSPost2010Prop52
140
1.0
102
RTVSPost2010PropOp52
 70
     0
102
RTVSPost2010Prop53
 90
        2
102
RTVSPost2010PropOp53
 70
     1
102
RTVSPost2010Prop54
  1
strokes_ogs.tif
102
RTVSPost2010PropOp54
 70
     1
102
RTVSPost2010Prop55
280
     0
102
RTVSPost2010PropOp55
 70
     1
102
RTVSPost2010Prop56
140
1.0
102
RTVSPost2010PropOp56
 70
     1
102
RTVSPost2010Prop57
140
1.0
102
RTVSPost2010PropOp57
 70
     1
  0
XRECORD
  5
50F
102
{ACAD_REACTORS
330
50E
102
}
330
50E
100
AcDbXrecord
280
     1
102
RTVSPropertyOp0
 70
     1
102
RTVSPropertyOp1
 70
     1
102
RTVSPropertyOp2
 70
     1
102
RTVSPropertyOp3
 70
     1
102
RTVSPropertyOp4
 70
     1
102
RTVSPropertyOp5
 70
     1
102
RTVSPropertyOp6
 70
     1
102
RTVSPropertyOp7
 70
     1
102
RTVSPropertyOp8
 70
     1
102
RTVSPropertyOp9
 70
     1
102
RTVSPropertyOp10
 70
     1
102
RTVSPropertyOp11
 70
     1
102
RTVSPropertyOp12
 70
     1
102
RTVSPropertyOp13
 70
     1
102
RTVSPropertyOp14
 70
     1
102
RTVSPropertyOp15
 70
     1
102
RTVSPropertyOp16
 70
     1
102
RTVSPropertyOp17
 70
     1
102
RTVSPropertyOp18
 70
     1
102
RTVSPropertyOp19
 70
     1
102
RTVSPropertyOp20
 70
     1
102
RTVSPropertyOp21
 70
     1
102
RTVSPropertyOp22
 70
     1
102
RTVSPropertyOp23
 70
     1
102
RTVSPropertyOp24
 70
     1
102
RTVSPropertyOp25
 70
     1
102
RTVSPropertyOp26
 70
     1
102
RTVSPropertyOp27
 70
     1
102
RTVSPropertyOp28
 70
     1
102
RTVSPropertyOp29
 70
     1
102
RTVSPropertyOp30
 70
     1
102
RTVSPropertyOp31
 70
     1
102
RTVSPropertyOp32
 70
     1
102
RTVSPropertyOp33
 70
     1
102
RTVSPropertyOp34
 70
     1
102
RTVSPropertyOp35
 70
     1
102
RTVSPropertyOp36
 70
     1
102
RTVSPropertyOp37
 70
     1
102
RTVSPropertyOp38
 70
     1
102
RTVSPropertyOp39
 70
     1
102
RTVSPropertyOp40
 70
     1
102
RTVSPropertyOp41
 70
     1
102
RTVSPropertyOp42
 70
     1
102
RTVSPropertyOp43
 70
     1
102
RTVSPropertyOp44
 70
     1
102
RTVSPropertyOp45
 70
     1
102
RTVSPropertyOp46
 70
     1
102
RTVSPropertyOp47
 70
     1
102
RTVSPropertyOp48
 70
     1
102
RTVSPropertyOp49
 70
     1
102
RTVSPropertyOp50
 70
     1
102
RTVSPropertyOp51
 70
     0
102
RTVSPropertyOp52
 70
     0
102
RTVSPropertyOp53
 70
     1
102
RTVSPropertyOp54
 70
     1
102
RTVSPropertyOp55
 70
     1
102
RTVSPropertyOp56
 70
     1
102
RTVSPropertyOp57
 70
     1
102
RTVSPost2010Prop28
280
     0
102
RTVSPost2010PropOp28
 70
     1
102
RTVSPost2010Prop29
280
     1
102
RTVSPost2010PropOp29
 70
     1
102
RTVSPost2010Prop30
280
     1
102
RTVSPost2010PropOp30
 70
     1
102
RTVSPost2010Prop31
280
     0
102
RTVSPost2010PropOp31
 70
     1
102
RTVSPost2010Prop32
280
     0
102
RTVSPost2010PropOp32
 70
     1
102
RTVSPost2010Prop33
280
     0
102
RTVSPost2010PropOp33
 70
     1
102
RTVSPost2010Prop34
280
     0
102
RTVSPost2010PropOp34
 70
     1
102
RTVSPost2010Prop35
280
     0
102
RTVSPost2010PropOp35
 70
     1
102
RTVSPost2010Prop36
280
     0
102
RTVSPost2010PropOp36
 70
     1
102
RTVSPost2010Prop37
 90
       50
102
RTVSPost2010PropOp37
 70
     1
102
RTVSPost2010Prop38
140
0.0
102
RTVSPost2010PropOp38
 70
     1
102
RTVSPost2010Prop39
140
1.0
102
RTVSPost2010PropOp39
 70
     1
102
RTVSPost2010Prop40
 90
        0
102
RTVSPost2010PropOp40
 70
     1
102
RTVSPost2010Prop41ColorIndex
 90
       18
102
RTVSPost2010Prop41ColorRGB
 90
        0
102
RTVSPost2010PropOp41
 70
     1
102
RTVSPost2010Prop42
 90
       50
102
RTVSPost2010PropOp42
 70
     1
102
RTVSPost2010Prop43
 90
        3
102
RTVSPost2010PropOp43
 70
     1
102
RTVSPost2010Prop44ColorIndex
 90
        5
102
RTVSPost2010Prop44ColorRGB
 90
      255
102
RTVSPost2010PropOp44
 70
     1
102
RTVSPost2010Prop45
280
     0
102
RTVSPost2010PropOp45
 70
     1
102
RTVSPost2010Prop46
 90
       50
102
RTVSPost2010PropOp46
 70
     1
102
RTVSPost2010Prop47
 90
       50
102
RTVSPost2010PropOp47
 70
     1
102
RTVSPost2010Prop48
 90
       50
102
RTVSPost2010PropOp48
 70
     1
102
RTVSPost2010Prop49
280
     0
102
RTVSPost2010PropOp49
 70
     1
102
RTVSPost2010Prop50
 90
       50
102
RTVSPost2010PropOp50
 70
     1
102
RTVSPost2010Prop51ColorIndex
 90
      256
102
RTVSPost2010Prop51ColorRGB
 90
-16777216
102
RTVSPost2010PropOp51
 70
     0
102
RTVSPost2010Prop52
140
1.0
102
RTVSPost2010PropOp52
 70
     0
102
RTVSPost2010Prop53
 90
        2
102
RTVSPost2010PropOp53
 70
     1
102
RTVSPost2010Prop54
  1
strokes_ogs.tif
102
RTVSPost2010PropOp54
 70
     1
102
RTVSPost2010Prop55
280
     0
102
RTVSPost2010PropOp55
 70
     1
102
RTVSPost2010Prop56
140
1.0
102
RTVSPost2010PropOp56
 70
     1
102
RTVSPost2010Prop57
140
1.0
102
RTVSPost2010PropOp57
 70
     1
  0
XRECORD
  5
523
102
{ACAD_REACTORS
330
522
102
}
330
522
100
AcDbXrecord
280
     1
102
RTVSPropertyOp0
 70
     0
102
RTVSPropertyOp1
 70
     0
102
RTVSPropertyOp2
 70
     0
102
RTVSPropertyOp3
 70
     0
102
RTVSPropertyOp4
 70
     0
102
RTVSPropertyOp5
 70
     0
102
RTVSPropertyOp6
 70
     0
102
RTVSPropertyOp7
 70
     0
102
RTVSPropertyOp8
 70
     0
102
RTVSPropertyOp9
 70
     0
102
RTVSPropertyOp10
 70
     0
102
RTVSPropertyOp11
 70
     0
102
RTVSPropertyOp12
 70
     0
102
RTVSPropertyOp13
 70
     0
102
RTVSPropertyOp14
 70
     2
102
RTVSPropertyOp15
 70
     0
102
RTVSPropertyOp16
 70
     0
102
RTVSPropertyOp17
 70
     0
102
RTVSPropertyOp18
 70
     0
102
RTVSPropertyOp19
 70
     0
102
RTVSPropertyOp20
 70
     0
102
RTVSPropertyOp21
 70
     0
102
RTVSPropertyOp22
 70
     0
102
RTVSPropertyOp23
 70
     0
102
RTVSPropertyOp24
 70
     0
102
RTVSPropertyOp25
 70
     0
102
RTVSPropertyOp26
 70
     0
102
RTVSPropertyOp27
 70
     0
102
RTVSPropertyOp28
 70
     0
102
RTVSPropertyOp29
 70
     0
102
RTVSPropertyOp30
 70
     0
102
RTVSPropertyOp31
 70
     0
102
RTVSPropertyOp32
 70
     0
102
RTVSPropertyOp33
 70
     0
102
RTVSPropertyOp34
 70
     0
102
RTVSPropertyOp35
 70
     0
102
RTVSPropertyOp36
 70
     0
102
RTVSPropertyOp37
 70
     0
102
RTVSPropertyOp38
 70
     0
102
RTVSPropertyOp39
 70
     0
102
RTVSPropertyOp40
 70
     0
102
RTVSPropertyOp41
 70
     0
102
RTVSPropertyOp42
 70
     0
102
RTVSPropertyOp43
 70
     0
102
RTVSPropertyOp44
 70
     0
102
RTVSPropertyOp45
 70
     0
102
RTVSPropertyOp46
 70
     0
102
RTVSPropertyOp47
 70
     0
102
RTVSPropertyOp48
 70
     0
102
RTVSPropertyOp49
 70
     0
102
RTVSPropertyOp50
 70
     0
102
RTVSPropertyOp51
 70
     0
102
RTVSPropertyOp52
 70
     0
102
RTVSPropertyOp53
 70
     0
102
RTVSPropertyOp54
 70
     0
102
RTVSPropertyOp55
 70
     0
102
RTVSPropertyOp56
 70
     0
102
RTVSPropertyOp57
 70
     0
102
RTVSPost2010Prop28
280
     0
102
RTVSPost2010PropOp28
 70
     0
102
RTVSPost2010Prop29
280
     1
102
RTVSPost2010PropOp29
 70
     0
102
RTVSPost2010Prop30
280
     1
102
RTVSPost2010PropOp30
 70
     0
102
RTVSPost2010Prop31
280
     0
102
RTVSPost2010PropOp31
 70
     0
102
RTVSPost2010Prop32
280
     0
102
RTVSPost2010PropOp32
 70
     0
102
RTVSPost2010Prop33
280
     0
102
RTVSPost2010PropOp33
 70
     0
102
RTVSPost2010Prop34
280
     0
102
RTVSPost2010PropOp34
 70
     0
102
RTVSPost2010Prop35
280
     0
102
RTVSPost2010PropOp35
 70
     0
102
RTVSPost2010Prop36
280
     0
102
RTVSPost2010PropOp36
 70
     0
102
RTVSPost2010Prop37
 90
       50
102
RTVSPost2010PropOp37
 70
     0
102
RTVSPost2010Prop38
140
0.0
102
RTVSPost2010PropOp38
 70
     0
102
RTVSPost2010Prop39
140
1.0
102
RTVSPost2010PropOp39
 70
     0
102
RTVSPost2010Prop40
 90
        0
102
RTVSPost2010PropOp40
 70
     0
102
RTVSPost2010Prop41ColorIndex
 90
       18
102
RTVSPost2010Prop41ColorRGB
 90
        0
102
RTVSPost2010PropOp41
 70
     0
102
RTVSPost2010Prop42
 90
       50
102
RTVSPost2010PropOp42
 70
     0
102
RTVSPost2010Prop43
 90
        3
102
RTVSPost2010PropOp43
 70
     0
102
RTVSPost2010Prop44ColorIndex
 90
        5
102
RTVSPost2010Prop44ColorRGB
 90
      255
102
RTVSPost2010PropOp44
 70
     0
102
RTVSPost2010Prop45
280
     0
102
RTVSPost2010PropOp45
 70
     0
102
RTVSPost2010Prop46
 90
       50
102
RTVSPost2010PropOp46
 70
     0
102
RTVSPost2010Prop47
 90
       50
102
RTVSPost2010PropOp47
 70
     0
102
RTVSPost2010Prop48
 90
       50
102
RTVSPost2010PropOp48
 70
     0
102
RTVSPost2010Prop49
280
     0
102
RTVSPost2010PropOp49
 70
     0
102
RTVSPost2010Prop50
 90
       50
102
RTVSPost2010PropOp50
 70
     0
102
RTVSPost2010Prop51ColorIndex
 90
      256
102
RTVSPost2010Prop51ColorRGB
 90
-16777216
102
RTVSPost2010PropOp51
 70
     0
102
RTVSPost2010Prop52
140
1.0
102
RTVSPost2010PropOp52
 70
     0
102
RTVSPost2010Prop53
 90
        2
102
RTVSPost2010PropOp53
 70
     0
102
RTVSPost2010Prop54
  1
strokes_ogs.tif
102
RTVSPost2010PropOp54
 70
     0
102
RTVSPost2010Prop55
280
     0
102
RTVSPost2010PropOp55
 70
     0
102
RTVSPost2010Prop56
140
1.0
102
RTVSPost2010PropOp56
 70
     0
102
RTVSPost2010Prop57
140
1.0
102
RTVSPost2010PropOp57
 70
     0
  0
XRECORD
  5
51D
102
{ACAD_REACTORS
330
51C
102
}
330
51C
100
AcDbXrecord
280
     1
102
RTVSPropertyOp0
 70
     1
102
RTVSPropertyOp1
 70
     1
102
RTVSPropertyOp2
 70
     1
102
RTVSPropertyOp3
 70
     1
102
RTVSPropertyOp4
 70
     1
102
RTVSPropertyOp5
 70
     1
102
RTVSPropertyOp6
 70
     1
102
RTVSPropertyOp7
 70
     1
102
RTVSPropertyOp8
 70
     1
102
RTVSPropertyOp9
 70
     1
102
RTVSPropertyOp10
 70
     1
102
RTVSPropertyOp11
 70
     1
102
RTVSPropertyOp12
 70
     1
102
RTVSPropertyOp13
 70
     1
102
RTVSPropertyOp14
 70
     1
102
RTVSPropertyOp15
 70
     1
102
RTVSPropertyOp16
 70
     1
102
RTVSPropertyOp17
 70
     1
102
RTVSPropertyOp18
 70
     1
102
RTVSPropertyOp19
 70
     1
102
RTVSPropertyOp20
 70
     1
102
RTVSPropertyOp21
 70
     1
102
RTVSPropertyOp22
 70
     1
102
RTVSPropertyOp23
 70
     1
102
RTVSPropertyOp24
 70
     1
102
RTVSPropertyOp25
 70
     1
102
RTVSPropertyOp26
 70
     1
102
RTVSPropertyOp27
 70
     1
102
RTVSPropertyOp28
 70
     1
102
RTVSPropertyOp29
 70
     1
102
RTVSPropertyOp30
 70
     1
102
RTVSPropertyOp31
 70
     1
102
RTVSPropertyOp32
 70
     1
102
RTVSPropertyOp33
 70
     1
102
RTVSPropertyOp34
 70
     1
102
RTVSPropertyOp35
 70
     1
102
RTVSPropertyOp36
 70
     1
102
RTVSPropertyOp37
 70
     1
102
RTVSPropertyOp38
 70
     1
102
RTVSPropertyOp39
 70
     1
102
RTVSPropertyOp40
 70
     1
102
RTVSPropertyOp41
 70
     1
102
RTVSPropertyOp42
 70
     1
102
RTVSPropertyOp43
 70
     1
102
RTVSPropertyOp44
 70
     1
102
RTVSPropertyOp45
 70
     1
102
RTVSPropertyOp46
 70
     1
102
RTVSPropertyOp47
 70
     1
102
RTVSPropertyOp48
 70
     1
102
RTVSPropertyOp49
 70
     1
102
RTVSPropertyOp50
 70
     1
102
RTVSPropertyOp51
 70
     0
102
RTVSPropertyOp52
 70
     0
102
RTVSPropertyOp53
 70
     1
102
RTVSPropertyOp54
 70
     1
102
RTVSPropertyOp55
 70
     1
102
RTVSPropertyOp56
 70
     1
102
RTVSPropertyOp57
 70
     1
102
RTVSPost2010Prop28
280
     0
102
RTVSPost2010PropOp28
 70
     1
102
RTVSPost2010Prop29
280
     1
102
RTVSPost2010PropOp29
 70
     1
102
RTVSPost2010Prop30
280
     1
102
RTVSPost2010PropOp30
 70
     1
102
RTVSPost2010Prop31
280
     0
102
RTVSPost2010PropOp31
 70
     1
102
RTVSPost2010Prop32
280
     0
102
RTVSPost2010PropOp32
 70
     1
102
RTVSPost2010Prop33
280
     0
102
RTVSPost2010PropOp33
 70
     1
102
RTVSPost2010Prop34
280
     0
102
RTVSPost2010PropOp34
 70
     1
102
RTVSPost2010Prop35
280
     0
102
RTVSPost2010PropOp35
 70
     1
102
RTVSPost2010Prop36
280
     0
102
RTVSPost2010PropOp36
 70
     1
102
RTVSPost2010Prop37
 90
       50
102
RTVSPost2010PropOp37
 70
     1
102
RTVSPost2010Prop38
140
0.0
102
RTVSPost2010PropOp38
 70
     1
102
RTVSPost2010Prop39
140
1.0
102
RTVSPost2010PropOp39
 70
     1
102
RTVSPost2010Prop40
 90
        0
102
RTVSPost2010PropOp40
 70
     1
102
RTVSPost2010Prop41ColorIndex
 90
       18
102
RTVSPost2010Prop41ColorRGB
 90
        0
102
RTVSPost2010PropOp41
 70
     1
102
RTVSPost2010Prop42
 90
       50
102
RTVSPost2010PropOp42
 70
     1
102
RTVSPost2010Prop43
 90
        3
102
RTVSPost2010PropOp43
 70
     1
102
RTVSPost2010Prop44ColorIndex
 90
        5
102
RTVSPost2010Prop44ColorRGB
 90
      255
102
RTVSPost2010PropOp44
 70
     1
102
RTVSPost2010Prop45
280
     0
102
RTVSPost2010PropOp45
 70
     1
102
RTVSPost2010Prop46
 90
       50
102
RTVSPost2010PropOp46
 70
     1
102
RTVSPost2010Prop47
 90
       50
102
RTVSPost2010PropOp47
 70
     1
102
RTVSPost2010Prop48
 90
       50
102
RTVSPost2010PropOp48
 70
     1
102
RTVSPost2010Prop49
280
     0
102
RTVSPost2010PropOp49
 70
     1
102
RTVSPost2010Prop50
 90
       50
102
RTVSPost2010PropOp50
 70
     1
102
RTVSPost2010Prop51ColorIndex
 90
      256
102
RTVSPost2010Prop51ColorRGB
 90
-16777216
102
RTVSPost2010PropOp51
 70
     0
102
RTVSPost2010Prop52
140
1.0
102
RTVSPost2010PropOp52
 70
     0
102
RTVSPost2010Prop53
 90
        2
102
RTVSPost2010PropOp53
 70
     1
102
RTVSPost2010Prop54
  1
strokes_ogs.tif
102
RTVSPost2010PropOp54
 70
     1
102
RTVSPost2010Prop55
280
     0
102
RTVSPost2010PropOp55
 70
     1
102
RTVSPost2010Prop56
140
1.0
102
RTVSPost2010PropOp56
 70
     1
102
RTVSPost2010Prop57
140
1.0
102
RTVSPost2010PropOp57
 70
     1
  0
XRECORD
  5
525
102
{ACAD_REACTORS
330
524
102
}
330
524
100
AcDbXrecord
280
     1
102
RTVSPropertyOp0
 70
     0
102
RTVSPropertyOp1
 70
     0
102
RTVSPropertyOp2
 70
     0
102
RTVSPropertyOp3
 70
     0
102
RTVSPropertyOp4
 70
     0
102
RTVSPropertyOp5
 70
     0
102
RTVSPropertyOp6
 70
     0
102
RTVSPropertyOp7
 70
     0
102
RTVSPropertyOp8
 70
     0
102
RTVSPropertyOp9
 70
     0
102
RTVSPropertyOp10
 70
     0
102
RTVSPropertyOp11
 70
     0
102
RTVSPropertyOp12
 70
     0
102
RTVSPropertyOp13
 70
     0
102
RTVSPropertyOp14
 70
     2
102
RTVSPropertyOp15
 70
     0
102
RTVSPropertyOp16
 70
     0
102
RTVSPropertyOp17
 70
     0
102
RTVSPropertyOp18
 70
     0
102
RTVSPropertyOp19
 70
     0
102
RTVSPropertyOp20
 70
     0
102
RTVSPropertyOp21
 70
     0
102
RTVSPropertyOp22
 70
     0
102
RTVSPropertyOp23
 70
     0
102
RTVSPropertyOp24
 70
     0
102
RTVSPropertyOp25
 70
     0
102
RTVSPropertyOp26
 70
     0
102
RTVSPropertyOp27
 70
     0
102
RTVSPropertyOp28
 70
     0
102
RTVSPropertyOp29
 70
     0
102
RTVSPropertyOp30
 70
     0
102
RTVSPropertyOp31
 70
     0
102
RTVSPropertyOp32
 70
     0
102
RTVSPropertyOp33
 70
     0
102
RTVSPropertyOp34
 70
     0
102
RTVSPropertyOp35
 70
     0
102
RTVSPropertyOp36
 70
     0
102
RTVSPropertyOp37
 70
     0
102
RTVSPropertyOp38
 70
     0
102
RTVSPropertyOp39
 70
     0
102
RTVSPropertyOp40
 70
     0
102
RTVSPropertyOp41
 70
     0
102
RTVSPropertyOp42
 70
     0
102
RTVSPropertyOp43
 70
     0
102
RTVSPropertyOp44
 70
     0
102
RTVSPropertyOp45
 70
     0
102
RTVSPropertyOp46
 70
     0
102
RTVSPropertyOp47
 70
     0
102
RTVSPropertyOp48
 70
     0
102
RTVSPropertyOp49
 70
     0
102
RTVSPropertyOp50
 70
     0
102
RTVSPropertyOp51
 70
     0
102
RTVSPropertyOp52
 70
     0
102
RTVSPropertyOp53
 70
     0
102
RTVSPropertyOp54
 70
     0
102
RTVSPropertyOp55
 70
     0
102
RTVSPropertyOp56
 70
     0
102
RTVSPropertyOp57
 70
     0
102
RTVSPost2010Prop28
280
     0
102
RTVSPost2010PropOp28
 70
     0
102
RTVSPost2010Prop29
280
     1
102
RTVSPost2010PropOp29
 70
     0
102
RTVSPost2010Prop30
280
     1
102
RTVSPost2010PropOp30
 70
     0
102
RTVSPost2010Prop31
280
     0
102
RTVSPost2010PropOp31
 70
     0
102
RTVSPost2010Prop32
280
     0
102
RTVSPost2010PropOp32
 70
     0
102
RTVSPost2010Prop33
280
     0
102
RTVSPost2010PropOp33
 70
     0
102
RTVSPost2010Prop34
280
     0
102
RTVSPost2010PropOp34
 70
     0
102
RTVSPost2010Prop35
280
     0
102
RTVSPost2010PropOp35
 70
     0
102
RTVSPost2010Prop36
280
     0
102
RTVSPost2010PropOp36
 70
     0
102
RTVSPost2010Prop37
 90
       50
102
RTVSPost2010PropOp37
 70
     0
102
RTVSPost2010Prop38
140
0.0
102
RTVSPost2010PropOp38
 70
     0
102
RTVSPost2010Prop39
140
1.0
102
RTVSPost2010PropOp39
 70
     0
102
RTVSPost2010Prop40
 90
        0
102
RTVSPost2010PropOp40
 70
     0
102
RTVSPost2010Prop41ColorIndex
 90
       18
102
RTVSPost2010Prop41ColorRGB
 90
        0
102
RTVSPost2010PropOp41
 70
     0
102
RTVSPost2010Prop42
 90
       50
102
RTVSPost2010PropOp42
 70
     0
102
RTVSPost2010Prop43
 90
        3
102
RTVSPost2010PropOp43
 70
     0
102
RTVSPost2010Prop44ColorIndex
 90
        5
102
RTVSPost2010Prop44ColorRGB
 90
      255
102
RTVSPost2010PropOp44
 70
     0
102
RTVSPost2010Prop45
280
     0
102
RTVSPost2010PropOp45
 70
     0
102
RTVSPost2010Prop46
 90
       50
102
RTVSPost2010PropOp46
 70
     0
102
RTVSPost2010Prop47
 90
       50
102
RTVSPost2010PropOp47
 70
     0
102
RTVSPost2010Prop48
 90
       50
102
RTVSPost2010PropOp48
 70
     0
102
RTVSPost2010Prop49
280
     0
102
RTVSPost2010PropOp49
 70
     0
102
RTVSPost2010Prop50
 90
       50
102
RTVSPost2010PropOp50
 70
     0
102
RTVSPost2010Prop51ColorIndex
 90
      256
102
RTVSPost2010Prop51ColorRGB
 90
-16777216
102
RTVSPost2010PropOp51
 70
     0
102
RTVSPost2010Prop52
140
1.0
102
RTVSPost2010PropOp52
 70
     0
102
RTVSPost2010Prop53
 90
        2
102
RTVSPost2010PropOp53
 70
     0
102
RTVSPost2010Prop54
  1
strokes_ogs.tif
102
RTVSPost2010PropOp54
 70
     0
102
RTVSPost2010Prop55
280
     0
102
RTVSPost2010PropOp55
 70
     0
102
RTVSPost2010Prop56
140
1.0
102
RTVSPost2010PropOp56
 70
     0
102
RTVSPost2010Prop57
140
1.0
102
RTVSPost2010PropOp57
 70
     0
  0
XRECORD
  5
513
102
{ACAD_REACTORS
330
512
102
}
330
512
100
AcDbXrecord
280
     1
102
RTVSPropertyOp0
 70
     1
102
RTVSPropertyOp1
 70
     1
102
RTVSPropertyOp2
 70
     1
102
RTVSPropertyOp3
 70
     1
102
RTVSPropertyOp4
 70
     1
102
RTVSPropertyOp5
 70
     1
102
RTVSPropertyOp6
 70
     1
102
RTVSPropertyOp7
 70
     1
102
RTVSPropertyOp8
 70
     1
102
RTVSPropertyOp9
 70
     1
102
RTVSPropertyOp10
 70
     1
102
RTVSPropertyOp11
 70
     1
102
RTVSPropertyOp12
 70
     1
102
RTVSPropertyOp13
 70
     1
102
RTVSPropertyOp14
 70
     1
102
RTVSPropertyOp15
 70
     1
102
RTVSPropertyOp16
 70
     1
102
RTVSPropertyOp17
 70
     1
102
RTVSPropertyOp18
 70
     1
102
RTVSPropertyOp19
 70
     1
102
RTVSPropertyOp20
 70
     1
102
RTVSPropertyOp21
 70
     1
102
RTVSPropertyOp22
 70
     1
102
RTVSPropertyOp23
 70
     1
102
RTVSPropertyOp24
 70
     1
102
RTVSPropertyOp25
 70
     1
102
RTVSPropertyOp26
 70
     1
102
RTVSPropertyOp27
 70
     1
102
RTVSPropertyOp28
 70
     1
102
RTVSPropertyOp29
 70
     1
102
RTVSPropertyOp30
 70
     1
102
RTVSPropertyOp31
 70
     1
102
RTVSPropertyOp32
 70
     1
102
RTVSPropertyOp33
 70
     1
102
RTVSPropertyOp34
 70
     1
102
RTVSPropertyOp35
 70
     1
102
RTVSPropertyOp36
 70
     1
102
RTVSPropertyOp37
 70
     1
102
RTVSPropertyOp38
 70
     1
102
RTVSPropertyOp39
 70
     1
102
RTVSPropertyOp40
 70
     1
102
RTVSPropertyOp41
 70
     1
102
RTVSPropertyOp42
 70
     1
102
RTVSPropertyOp43
 70
     1
102
RTVSPropertyOp44
 70
     1
102
RTVSPropertyOp45
 70
     1
102
RTVSPropertyOp46
 70
     1
102
RTVSPropertyOp47
 70
     1
102
RTVSPropertyOp48
 70
     1
102
RTVSPropertyOp49
 70
     1
102
RTVSPropertyOp50
 70
     1
102
RTVSPropertyOp51
 70
     0
102
RTVSPropertyOp52
 70
     0
102
RTVSPropertyOp53
 70
     1
102
RTVSPropertyOp54
 70
     1
102
RTVSPropertyOp55
 70
     1
102
RTVSPropertyOp56
 70
     1
102
RTVSPropertyOp57
 70
     1
102
RTVSPost2010Prop28
280
     0
102
RTVSPost2010PropOp28
 70
     1
102
RTVSPost2010Prop29
280
     1
102
RTVSPost2010PropOp29
 70
     1
102
RTVSPost2010Prop30
280
     1
102
RTVSPost2010PropOp30
 70
     1
102
RTVSPost2010Prop31
280
     0
102
RTVSPost2010PropOp31
 70
     1
102
RTVSPost2010Prop32
280
     0
102
RTVSPost2010PropOp32
 70
     1
102
RTVSPost2010Prop33
280
     0
102
RTVSPost2010PropOp33
 70
     1
102
RTVSPost2010Prop34
280
     0
102
RTVSPost2010PropOp34
 70
     1
102
RTVSPost2010Prop35
280
     0
102
RTVSPost2010PropOp35
 70
     1
102
RTVSPost2010Prop36
280
     0
102
RTVSPost2010PropOp36
 70
     1
102
RTVSPost2010Prop37
 90
       50
102
RTVSPost2010PropOp37
 70
     1
102
RTVSPost2010Prop38
140
0.0
102
RTVSPost2010PropOp38
 70
     1
102
RTVSPost2010Prop39
140
1.0
102
RTVSPost2010PropOp39
 70
     1
102
RTVSPost2010Prop40
 90
        0
102
RTVSPost2010PropOp40
 70
     1
102
RTVSPost2010Prop41ColorIndex
 90
       18
102
RTVSPost2010Prop41ColorRGB
 90
        0
102
RTVSPost2010PropOp41
 70
     1
102
RTVSPost2010Prop42
 90
       50
102
RTVSPost2010PropOp42
 70
     1
102
RTVSPost2010Prop43
 90
        3
102
RTVSPost2010PropOp43
 70
     1
102
RTVSPost2010Prop44ColorIndex
 90
        5
102
RTVSPost2010Prop44ColorRGB
 90
      255
102
RTVSPost2010PropOp44
 70
     1
102
RTVSPost2010Prop45
280
     0
102
RTVSPost2010PropOp45
 70
     1
102
RTVSPost2010Prop46
 90
       50
102
RTVSPost2010PropOp46
 70
     1
102
RTVSPost2010Prop47
 90
       50
102
RTVSPost2010PropOp47
 70
     1
102
RTVSPost2010Prop48
 90
       50
102
RTVSPost2010PropOp48
 70
     1
102
RTVSPost2010Prop49
280
     0
102
RTVSPost2010PropOp49
 70
     1
102
RTVSPost2010Prop50
 90
       50
102
RTVSPost2010PropOp50
 70
     1
102
RTVSPost2010Prop51ColorIndex
 90
      256
102
RTVSPost2010Prop51ColorRGB
 90
-16777216
102
RTVSPost2010PropOp51
 70
     0
102
RTVSPost2010Prop52
140
1.0
102
RTVSPost2010PropOp52
 70
     0
102
RTVSPost2010Prop53
 90
        2
102
RTVSPost2010PropOp53
 70
     1
102
RTVSPost2010Prop54
  1
strokes_ogs.tif
102
RTVSPost2010PropOp54
 70
     1
102
RTVSPost2010Prop55
280
     0
102
RTVSPost2010PropOp55
 70
     1
102
RTVSPost2010Prop56
140
1.0
102
RTVSPost2010PropOp56
 70
     1
102
RTVSPost2010Prop57
140
1.0
102
RTVSPost2010PropOp57
 70
     1
  0
XRECORD
  5
531
102
{ACAD_REACTORS
330
530
102
}
330
530
100
AcDbXrecord
280
     1
102
RTVSPropertyOp0
 70
     1
102
RTVSPropertyOp1
 70
     1
102
RTVSPropertyOp2
 70
     1
102
RTVSPropertyOp3
 70
     1
102
RTVSPropertyOp4
 70
     1
102
RTVSPropertyOp5
 70
     1
102
RTVSPropertyOp6
 70
     1
102
RTVSPropertyOp7
 70
     1
102
RTVSPropertyOp8
 70
     1
102
RTVSPropertyOp9
 70
     1
102
RTVSPropertyOp10
 70
     1
102
RTVSPropertyOp11
 70
     1
102
RTVSPropertyOp12
 70
     1
102
RTVSPropertyOp13
 70
     1
102
RTVSPropertyOp14
 70
     1
102
RTVSPropertyOp15
 70
     1
102
RTVSPropertyOp16
 70
     1
102
RTVSPropertyOp17
 70
     1
102
RTVSPropertyOp18
 70
     1
102
RTVSPropertyOp19
 70
     1
102
RTVSPropertyOp20
 70
     1
102
RTVSPropertyOp21
 70
     1
102
RTVSPropertyOp22
 70
     1
102
RTVSPropertyOp23
 70
     1
102
RTVSPropertyOp24
 70
     1
102
RTVSPropertyOp25
 70
     1
102
RTVSPropertyOp26
 70
     1
102
RTVSPropertyOp27
 70
     1
102
RTVSPropertyOp28
 70
     1
102
RTVSPropertyOp29
 70
     1
102
RTVSPropertyOp30
 70
     1
102
RTVSPropertyOp31
 70
     1
102
RTVSPropertyOp32
 70
     1
102
RTVSPropertyOp33
 70
     1
102
RTVSPropertyOp34
 70
     1
102
RTVSPropertyOp35
 70
     1
102
RTVSPropertyOp36
 70
     1
102
RTVSPropertyOp37
 70
     1
102
RTVSPropertyOp38
 70
     1
102
RTVSPropertyOp39
 70
     1
102
RTVSPropertyOp40
 70
     1
102
RTVSPropertyOp41
 70
     1
102
RTVSPropertyOp42
 70
     1
102
RTVSPropertyOp43
 70
     1
102
RTVSPropertyOp44
 70
     1
102
RTVSPropertyOp45
 70
     1
102
RTVSPropertyOp46
 70
     1
102
RTVSPropertyOp47
 70
     1
102
RTVSPropertyOp48
 70
     1
102
RTVSPropertyOp49
 70
     1
102
RTVSPropertyOp50
 70
     1
102
RTVSPropertyOp51
 70
     0
102
RTVSPropertyOp52
 70
     0
102
RTVSPropertyOp53
 70
     1
102
RTVSPropertyOp54
 70
     1
102
RTVSPropertyOp55
 70
     1
102
RTVSPropertyOp56
 70
     1
102
RTVSPropertyOp57
 70
     1
102
RTVSPost2010Prop28
280
     0
102
RTVSPost2010PropOp28
 70
     1
102
RTVSPost2010Prop29
280
     1
102
RTVSPost2010PropOp29
 70
     1
102
RTVSPost2010Prop30
280
     1
102
RTVSPost2010PropOp30
 70
     1
102
RTVSPost2010Prop31
280
     0
102
RTVSPost2010PropOp31
 70
     1
102
RTVSPost2010Prop32
280
     0
102
RTVSPost2010PropOp32
 70
     1
102
RTVSPost2010Prop33
280
     0
102
RTVSPost2010PropOp33
 70
     1
102
RTVSPost2010Prop34
280
     0
102
RTVSPost2010PropOp34
 70
     1
102
RTVSPost2010Prop35
280
     0
102
RTVSPost2010PropOp35
 70
     1
102
RTVSPost2010Prop36
280
     0
102
RTVSPost2010PropOp36
 70
     1
102
RTVSPost2010Prop37
 90
       50
102
RTVSPost2010PropOp37
 70
     1
102
RTVSPost2010Prop38
140
0.0
102
RTVSPost2010PropOp38
 70
     1
102
RTVSPost2010Prop39
140
1.0
102
RTVSPost2010PropOp39
 70
     1
102
RTVSPost2010Prop40
 90
        0
102
RTVSPost2010PropOp40
 70
     1
102
RTVSPost2010Prop41ColorIndex
 90
       18
102
RTVSPost2010Prop41ColorRGB
 90
        0
102
RTVSPost2010PropOp41
 70
     1
102
RTVSPost2010Prop42
 90
       50
102
RTVSPost2010PropOp42
 70
     1
102
RTVSPost2010Prop43
 90
        3
102
RTVSPost2010PropOp43
 70
     1
102
RTVSPost2010Prop44ColorIndex
 90
        5
102
RTVSPost2010Prop44ColorRGB
 90
      255
102
RTVSPost2010PropOp44
 70
     1
102
RTVSPost2010Prop45
280
     0
102
RTVSPost2010PropOp45
 70
     1
102
RTVSPost2010Prop46
 90
       50
102
RTVSPost2010PropOp46
 70
     1
102
RTVSPost2010Prop47
 90
       50
102
RTVSPost2010PropOp47
 70
     1
102
RTVSPost2010Prop48
 90
       50
102
RTVSPost2010PropOp48
 70
     1
102
RTVSPost2010Prop49
280
     0
102
RTVSPost2010PropOp49
 70
     1
102
RTVSPost2010Prop50
 90
       50
102
RTVSPost2010PropOp50
 70
     1
102
RTVSPost2010Prop51ColorIndex
 90
      256
102
RTVSPost2010Prop51ColorRGB
 90
-16777216
102
RTVSPost2010PropOp51
 70
     0
102
RTVSPost2010Prop52
140
1.0
102
RTVSPost2010PropOp52
 70
     0
102
RTVSPost2010Prop53
 90
        2
102
RTVSPost2010PropOp53
 70
     1
102
RTVSPost2010Prop54
  1
strokes_ogs.tif
102
RTVSPost2010PropOp54
 70
     1
102
RTVSPost2010Prop55
280
     0
102
RTVSPost2010PropOp55
 70
     1
102
RTVSPost2010Prop56
140
1.0
102
RTVSPost2010PropOp56
 70
     1
102
RTVSPost2010Prop57
140
1.0
102
RTVSPost2010PropOp57
 70
     1
  0
XRECORD
  5
52F
102
{ACAD_REACTORS
330
52E
102
}
330
52E
100
AcDbXrecord
280
     1
102
RTVSPropertyOp0
 70
     1
102
RTVSPropertyOp1
 70
     1
102
RTVSPropertyOp2
 70
     1
102
RTVSPropertyOp3
 70
     1
102
RTVSPropertyOp4
 70
     1
102
RTVSPropertyOp5
 70
     1
102
RTVSPropertyOp6
 70
     1
102
RTVSPropertyOp7
 70
     1
102
RTVSPropertyOp8
 70
     1
102
RTVSPropertyOp9
 70
     1
102
RTVSPropertyOp10
 70
     1
102
RTVSPropertyOp11
 70
     1
102
RTVSPropertyOp12
 70
     1
102
RTVSPropertyOp13
 70
     1
102
RTVSPropertyOp14
 70
     1
102
RTVSPropertyOp15
 70
     1
102
RTVSPropertyOp16
 70
     1
102
RTVSPropertyOp17
 70
     1
102
RTVSPropertyOp18
 70
     1
102
RTVSPropertyOp19
 70
     1
102
RTVSPropertyOp20
 70
     1
102
RTVSPropertyOp21
 70
     1
102
RTVSPropertyOp22
 70
     1
102
RTVSPropertyOp23
 70
     1
102
RTVSPropertyOp24
 70
     1
102
RTVSPropertyOp25
 70
     1
102
RTVSPropertyOp26
 70
     1
102
RTVSPropertyOp27
 70
     1
102
RTVSPropertyOp28
 70
     1
102
RTVSPropertyOp29
 70
     1
102
RTVSPropertyOp30
 70
     1
102
RTVSPropertyOp31
 70
     1
102
RTVSPropertyOp32
 70
     1
102
RTVSPropertyOp33
 70
     1
102
RTVSPropertyOp34
 70
     1
102
RTVSPropertyOp35
 70
     1
102
RTVSPropertyOp36
 70
     1
102
RTVSPropertyOp37
 70
     1
102
RTVSPropertyOp38
 70
     1
102
RTVSPropertyOp39
 70
     1
102
RTVSPropertyOp40
 70
     1
102
RTVSPropertyOp41
 70
     1
102
RTVSPropertyOp42
 70
     1
102
RTVSPropertyOp43
 70
     1
102
RTVSPropertyOp44
 70
     1
102
RTVSPropertyOp45
 70
     1
102
RTVSPropertyOp46
 70
     1
102
RTVSPropertyOp47
 70
     1
102
RTVSPropertyOp48
 70
     1
102
RTVSPropertyOp49
 70
     1
102
RTVSPropertyOp50
 70
     1
102
RTVSPropertyOp51
 70
     0
102
RTVSPropertyOp52
 70
     0
102
RTVSPropertyOp53
 70
     1
102
RTVSPropertyOp54
 70
     1
102
RTVSPropertyOp55
 70
     1
102
RTVSPropertyOp56
 70
     1
102
RTVSPropertyOp57
 70
     1
102
RTVSPost2010Prop28
280
     0
102
RTVSPost2010PropOp28
 70
     1
102
RTVSPost2010Prop29
280
     1
102
RTVSPost2010PropOp29
 70
     1
102
RTVSPost2010Prop30
280
     1
102
RTVSPost2010PropOp30
 70
     1
102
RTVSPost2010Prop31
280
     0
102
RTVSPost2010PropOp31
 70
     1
102
RTVSPost2010Prop32
280
     0
102
RTVSPost2010PropOp32
 70
     1
102
RTVSPost2010Prop33
280
     0
102
RTVSPost2010PropOp33
 70
     1
102
RTVSPost2010Prop34
280
     0
102
RTVSPost2010PropOp34
 70
     1
102
RTVSPost2010Prop35
280
     0
102
RTVSPost2010PropOp35
 70
     1
102
RTVSPost2010Prop36
280
     0
102
RTVSPost2010PropOp36
 70
     1
102
RTVSPost2010Prop37
 90
       50
102
RTVSPost2010PropOp37
 70
     1
102
RTVSPost2010Prop38
140
0.0
102
RTVSPost2010PropOp38
 70
     1
102
RTVSPost2010Prop39
140
1.0
102
RTVSPost2010PropOp39
 70
     1
102
RTVSPost2010Prop40
 90
        0
102
RTVSPost2010PropOp40
 70
     1
102
RTVSPost2010Prop41ColorIndex
 90
       18
102
RTVSPost2010Prop41ColorRGB
 90
        0
102
RTVSPost2010PropOp41
 70
     1
102
RTVSPost2010Prop42
 90
       50
102
RTVSPost2010PropOp42
 70
     1
102
RTVSPost2010Prop43
 90
        3
102
RTVSPost2010PropOp43
 70
     1
102
RTVSPost2010Prop44ColorIndex
 90
        5
102
RTVSPost2010Prop44ColorRGB
 90
      255
102
RTVSPost2010PropOp44
 70
     1
102
RTVSPost2010Prop45
280
     0
102
RTVSPost2010PropOp45
 70
     1
102
RTVSPost2010Prop46
 90
       50
102
RTVSPost2010PropOp46
 70
     1
102
RTVSPost2010Prop47
 90
       50
102
RTVSPost2010PropOp47
 70
     1
102
RTVSPost2010Prop48
 90
       50
102
RTVSPost2010PropOp48
 70
     1
102
RTVSPost2010Prop49
280
     0
102
RTVSPost2010PropOp49
 70
     1
102
RTVSPost2010Prop50
 90
       50
102
RTVSPost2010PropOp50
 70
     1
102
RTVSPost2010Prop51ColorIndex
 90
      256
102
RTVSPost2010Prop51ColorRGB
 90
-16777216
102
RTVSPost2010PropOp51
 70
     0
102
RTVSPost2010Prop52
140
1.0
102
RTVSPost2010PropOp52
 70
     0
102
RTVSPost2010Prop53
 90
        2
102
RTVSPost2010PropOp53
 70
     1
102
RTVSPost2010Prop54
  1
strokes_ogs.tif
102
RTVSPost2010PropOp54
 70
     1
102
RTVSPost2010Prop55
280
     0
102
RTVSPost2010PropOp55
 70
     1
102
RTVSPost2010Prop56
140
1.0
102
RTVSPost2010PropOp56
 70
     1
102
RTVSPost2010Prop57
140
1.0
102
RTVSPost2010PropOp57
 70
     1
  0
XRECORD
  5
529
102
{ACAD_REACTORS
330
528
102
}
330
528
100
AcDbXrecord
280
     1
102
RTVSPropertyOp0
 70
     1
102
RTVSPropertyOp1
 70
     1
102
RTVSPropertyOp2
 70
     1
102
RTVSPropertyOp3
 70
     1
102
RTVSPropertyOp4
 70
     1
102
RTVSPropertyOp5
 70
     1
102
RTVSPropertyOp6
 70
     1
102
RTVSPropertyOp7
 70
     1
102
RTVSPropertyOp8
 70
     1
102
RTVSPropertyOp9
 70
     1
102
RTVSPropertyOp10
 70
     1
102
RTVSPropertyOp11
 70
     1
102
RTVSPropertyOp12
 70
     1
102
RTVSPropertyOp13
 70
     1
102
RTVSPropertyOp14
 70
     1
102
RTVSPropertyOp15
 70
     1
102
RTVSPropertyOp16
 70
     1
102
RTVSPropertyOp17
 70
     1
102
RTVSPropertyOp18
 70
     1
102
RTVSPropertyOp19
 70
     1
102
RTVSPropertyOp20
 70
     1
102
RTVSPropertyOp21
 70
     1
102
RTVSPropertyOp22
 70
     1
102
RTVSPropertyOp23
 70
     1
102
RTVSPropertyOp24
 70
     1
102
RTVSPropertyOp25
 70
     1
102
RTVSPropertyOp26
 70
     1
102
RTVSPropertyOp27
 70
     1
102
RTVSPropertyOp28
 70
     1
102
RTVSPropertyOp29
 70
     1
102
RTVSPropertyOp30
 70
     1
102
RTVSPropertyOp31
 70
     1
102
RTVSPropertyOp32
 70
     1
102
RTVSPropertyOp33
 70
     1
102
RTVSPropertyOp34
 70
     1
102
RTVSPropertyOp35
 70
     1
102
RTVSPropertyOp36
 70
     1
102
RTVSPropertyOp37
 70
     1
102
RTVSPropertyOp38
 70
     1
102
RTVSPropertyOp39
 70
     1
102
RTVSPropertyOp40
 70
     1
102
RTVSPropertyOp41
 70
     1
102
RTVSPropertyOp42
 70
     1
102
RTVSPropertyOp43
 70
     1
102
RTVSPropertyOp44
 70
     1
102
RTVSPropertyOp45
 70
     1
102
RTVSPropertyOp46
 70
     1
102
RTVSPropertyOp47
 70
     1
102
RTVSPropertyOp48
 70
     1
102
RTVSPropertyOp49
 70
     1
102
RTVSPropertyOp50
 70
     1
102
RTVSPropertyOp51
 70
     0
102
RTVSPropertyOp52
 70
     0
102
RTVSPropertyOp53
 70
     1
102
RTVSPropertyOp54
 70
     1
102
RTVSPropertyOp55
 70
     1
102
RTVSPropertyOp56
 70
     1
102
RTVSPropertyOp57
 70
     1
102
RTVSPost2010Prop28
280
     0
102
RTVSPost2010PropOp28
 70
     1
102
RTVSPost2010Prop29
280
     1
102
RTVSPost2010PropOp29
 70
     1
102
RTVSPost2010Prop30
280
     1
102
RTVSPost2010PropOp30
 70
     1
102
RTVSPost2010Prop31
280
     0
102
RTVSPost2010PropOp31
 70
     1
102
RTVSPost2010Prop32
280
     0
102
RTVSPost2010PropOp32
 70
     1
102
RTVSPost2010Prop33
280
     0
102
RTVSPost2010PropOp33
 70
     1
102
RTVSPost2010Prop34
280
     0
102
RTVSPost2010PropOp34
 70
     1
102
RTVSPost2010Prop35
280
     0
102
RTVSPost2010PropOp35
 70
     1
102
RTVSPost2010Prop36
280
     0
102
RTVSPost2010PropOp36
 70
     1
102
RTVSPost2010Prop37
 90
       50
102
RTVSPost2010PropOp37
 70
     1
102
RTVSPost2010Prop38
140
0.0
102
RTVSPost2010PropOp38
 70
     1
102
RTVSPost2010Prop39
140
1.0
102
RTVSPost2010PropOp39
 70
     1
102
RTVSPost2010Prop40
 90
        0
102
RTVSPost2010PropOp40
 70
     1
102
RTVSPost2010Prop41ColorIndex
 90
       18
102
RTVSPost2010Prop41ColorRGB
 90
        0
102
RTVSPost2010PropOp41
 70
     1
102
RTVSPost2010Prop42
 90
       50
102
RTVSPost2010PropOp42
 70
     1
102
RTVSPost2010Prop43
 90
        3
102
RTVSPost2010PropOp43
 70
     1
102
RTVSPost2010Prop44ColorIndex
 90
        5
102
RTVSPost2010Prop44ColorRGB
 90
      255
102
RTVSPost2010PropOp44
 70
     1
102
RTVSPost2010Prop45
280
     0
102
RTVSPost2010PropOp45
 70
     1
102
RTVSPost2010Prop46
 90
       50
102
RTVSPost2010PropOp46
 70
     1
102
RTVSPost2010Prop47
 90
       50
102
RTVSPost2010PropOp47
 70
     1
102
RTVSPost2010Prop48
 90
       50
102
RTVSPost2010PropOp48
 70
     1
102
RTVSPost2010Prop49
280
     0
102
RTVSPost2010PropOp49
 70
     1
102
RTVSPost2010Prop50
 90
       50
102
RTVSPost2010PropOp50
 70
     1
102
RTVSPost2010Prop51ColorIndex
 90
      256
102
RTVSPost2010Prop51ColorRGB
 90
-16777216
102
RTVSPost2010PropOp51
 70
     0
102
RTVSPost2010Prop52
140
1.0
102
RTVSPost2010PropOp52
 70
     0
102
RTVSPost2010Prop53
 90
        2
102
RTVSPost2010PropOp53
 70
     1
102
RTVSPost2010Prop54
  1
strokes_ogs.tif
102
RTVSPost2010PropOp54
 70
     1
102
RTVSPost2010Prop55
280
     0
102
RTVSPost2010PropOp55
 70
     1
102
RTVSPost2010Prop56
140
1.0
102
RTVSPost2010PropOp56
 70
     1
102
RTVSPost2010Prop57
140
1.0
102
RTVSPost2010PropOp57
 70
     1
  0
XRECORD
  5
52B
102
{ACAD_REACTORS
330
52A
102
}
330
52A
100
AcDbXrecord
280
     1
102
RTVSPropertyOp0
 70
     1
102
RTVSPropertyOp1
 70
     1
102
RTVSPropertyOp2
 70
     1
102
RTVSPropertyOp3
 70
     1
102
RTVSPropertyOp4
 70
     1
102
RTVSPropertyOp5
 70
     1
102
RTVSPropertyOp6
 70
     1
102
RTVSPropertyOp7
 70
     1
102
RTVSPropertyOp8
 70
     1
102
RTVSPropertyOp9
 70
     1
102
RTVSPropertyOp10
 70
     1
102
RTVSPropertyOp11
 70
     1
102
RTVSPropertyOp12
 70
     1
102
RTVSPropertyOp13
 70
     1
102
RTVSPropertyOp14
 70
     1
102
RTVSPropertyOp15
 70
     1
102
RTVSPropertyOp16
 70
     1
102
RTVSPropertyOp17
 70
     1
102
RTVSPropertyOp18
 70
     1
102
RTVSPropertyOp19
 70
     1
102
RTVSPropertyOp20
 70
     1
102
RTVSPropertyOp21
 70
     1
102
RTVSPropertyOp22
 70
     1
102
RTVSPropertyOp23
 70
     1
102
RTVSPropertyOp24
 70
     1
102
RTVSPropertyOp25
 70
     1
102
RTVSPropertyOp26
 70
     1
102
RTVSPropertyOp27
 70
     1
102
RTVSPropertyOp28
 70
     1
102
RTVSPropertyOp29
 70
     1
102
RTVSPropertyOp30
 70
     1
102
RTVSPropertyOp31
 70
     1
102
RTVSPropertyOp32
 70
     1
102
RTVSPropertyOp33
 70
     1
102
RTVSPropertyOp34
 70
     1
102
RTVSPropertyOp35
 70
     1
102
RTVSPropertyOp36
 70
     1
102
RTVSPropertyOp37
 70
     1
102
RTVSPropertyOp38
 70
     1
102
RTVSPropertyOp39
 70
     1
102
RTVSPropertyOp40
 70
     1
102
RTVSPropertyOp41
 70
     1
102
RTVSPropertyOp42
 70
     1
102
RTVSPropertyOp43
 70
     1
102
RTVSPropertyOp44
 70
     1
102
RTVSPropertyOp45
 70
     1
102
RTVSPropertyOp46
 70
     1
102
RTVSPropertyOp47
 70
     1
102
RTVSPropertyOp48
 70
     1
102
RTVSPropertyOp49
 70
     1
102
RTVSPropertyOp50
 70
     1
102
RTVSPropertyOp51
 70
     0
102
RTVSPropertyOp52
 70
     0
102
RTVSPropertyOp53
 70
     1
102
RTVSPropertyOp54
 70
     1
102
RTVSPropertyOp55
 70
     1
102
RTVSPropertyOp56
 70
     1
102
RTVSPropertyOp57
 70
     1
102
RTVSPost2010Prop28
280
     0
102
RTVSPost2010PropOp28
 70
     1
102
RTVSPost2010Prop29
280
     1
102
RTVSPost2010PropOp29
 70
     1
102
RTVSPost2010Prop30
280
     1
102
RTVSPost2010PropOp30
 70
     1
102
RTVSPost2010Prop31
280
     0
102
RTVSPost2010PropOp31
 70
     1
102
RTVSPost2010Prop32
280
     0
102
RTVSPost2010PropOp32
 70
     1
102
RTVSPost2010Prop33
280
     0
102
RTVSPost2010PropOp33
 70
     1
102
RTVSPost2010Prop34
280
     0
102
RTVSPost2010PropOp34
 70
     1
102
RTVSPost2010Prop35
280
     0
102
RTVSPost2010PropOp35
 70
     1
102
RTVSPost2010Prop36
280
     0
102
RTVSPost2010PropOp36
 70
     1
102
RTVSPost2010Prop37
 90
       50
102
RTVSPost2010PropOp37
 70
     1
102
RTVSPost2010Prop38
140
0.0
102
RTVSPost2010PropOp38
 70
     1
102
RTVSPost2010Prop39
140
1.0
102
RTVSPost2010PropOp39
 70
     1
102
RTVSPost2010Prop40
 90
        0
102
RTVSPost2010PropOp40
 70
     1
102
RTVSPost2010Prop41ColorIndex
 90
       18
102
RTVSPost2010Prop41ColorRGB
 90
        0
102
RTVSPost2010PropOp41
 70
     1
102
RTVSPost2010Prop42
 90
       50
102
RTVSPost2010PropOp42
 70
     1
102
RTVSPost2010Prop43
 90
        3
102
RTVSPost2010PropOp43
 70
     1
102
RTVSPost2010Prop44ColorIndex
 90
        5
102
RTVSPost2010Prop44ColorRGB
 90
      255
102
RTVSPost2010PropOp44
 70
     1
102
RTVSPost2010Prop45
280
     0
102
RTVSPost2010PropOp45
 70
     1
102
RTVSPost2010Prop46
 90
       50
102
RTVSPost2010PropOp46
 70
     1
102
RTVSPost2010Prop47
 90
       50
102
RTVSPost2010PropOp47
 70
     1
102
RTVSPost2010Prop48
 90
       50
102
RTVSPost2010PropOp48
 70
     1
102
RTVSPost2010Prop49
280
     0
102
RTVSPost2010PropOp49
 70
     1
102
RTVSPost2010Prop50
 90
       50
102
RTVSPost2010PropOp50
 70
     1
102
RTVSPost2010Prop51ColorIndex
 90
      256
102
RTVSPost2010Prop51ColorRGB
 90
-16777216
102
RTVSPost2010PropOp51
 70
     0
102
RTVSPost2010Prop52
140
1.0
102
RTVSPost2010PropOp52
 70
     0
102
RTVSPost2010Prop53
 90
        2
102
RTVSPost2010PropOp53
 70
     1
102
RTVSPost2010Prop54
  1
strokes_ogs.tif
102
RTVSPost2010PropOp54
 70
     1
102
RTVSPost2010Prop55
280
     0
102
RTVSPost2010PropOp55
 70
     1
102
RTVSPost2010Prop56
140
1.0
102
RTVSPost2010PropOp56
 70
     1
102
RTVSPost2010Prop57
140
1.0
102
RTVSPost2010PropOp57
 70
     1
  0
XRECORD
  5
51B
102
{ACAD_REACTORS
330
51A
102
}
330
51A
100
AcDbXrecord
280
     1
102
RTVSPropertyOp0
 70
     1
102
RTVSPropertyOp1
 70
     1
102
RTVSPropertyOp2
 70
     1
102
RTVSPropertyOp3
 70
     1
102
RTVSPropertyOp4
 70
     1
102
RTVSPropertyOp5
 70
     1
102
RTVSPropertyOp6
 70
     1
102
RTVSPropertyOp7
 70
     1
102
RTVSPropertyOp8
 70
     1
102
RTVSPropertyOp9
 70
     1
102
RTVSPropertyOp10
 70
     1
102
RTVSPropertyOp11
 70
     1
102
RTVSPropertyOp12
 70
     1
102
RTVSPropertyOp13
 70
     1
102
RTVSPropertyOp14
 70
     1
102
RTVSPropertyOp15
 70
     1
102
RTVSPropertyOp16
 70
     1
102
RTVSPropertyOp17
 70
     1
102
RTVSPropertyOp18
 70
     1
102
RTVSPropertyOp19
 70
     1
102
RTVSPropertyOp20
 70
     1
102
RTVSPropertyOp21
 70
     1
102
RTVSPropertyOp22
 70
     1
102
RTVSPropertyOp23
 70
     1
102
RTVSPropertyOp24
 70
     1
102
RTVSPropertyOp25
 70
     1
102
RTVSPropertyOp26
 70
     1
102
RTVSPropertyOp27
 70
     1
102
RTVSPropertyOp28
 70
     1
102
RTVSPropertyOp29
 70
     1
102
RTVSPropertyOp30
 70
     1
102
RTVSPropertyOp31
 70
     1
102
RTVSPropertyOp32
 70
     1
102
RTVSPropertyOp33
 70
     1
102
RTVSPropertyOp34
 70
     1
102
RTVSPropertyOp35
 70
     1
102
RTVSPropertyOp36
 70
     1
102
RTVSPropertyOp37
 70
     1
102
RTVSPropertyOp38
 70
     1
102
RTVSPropertyOp39
 70
     1
102
RTVSPropertyOp40
 70
     1
102
RTVSPropertyOp41
 70
     1
102
RTVSPropertyOp42
 70
     1
102
RTVSPropertyOp43
 70
     1
102
RTVSPropertyOp44
 70
     1
102
RTVSPropertyOp45
 70
     1
102
RTVSPropertyOp46
 70
     1
102
RTVSPropertyOp47
 70
     1
102
RTVSPropertyOp48
 70
     1
102
RTVSPropertyOp49
 70
     1
102
RTVSPropertyOp50
 70
     1
102
RTVSPropertyOp51
 70
     0
102
RTVSPropertyOp52
 70
     0
102
RTVSPropertyOp53
 70
     1
102
RTVSPropertyOp54
 70
     1
102
RTVSPropertyOp55
 70
     1
102
RTVSPropertyOp56
 70
     1
102
RTVSPropertyOp57
 70
     1
102
RTVSPost2010Prop28
280
     0
102
RTVSPost2010PropOp28
 70
     1
102
RTVSPost2010Prop29
280
     1
102
RTVSPost2010PropOp29
 70
     1
102
RTVSPost2010Prop30
280
     1
102
RTVSPost2010PropOp30
 70
     1
102
RTVSPost2010Prop31
280
     0
102
RTVSPost2010PropOp31
 70
     1
102
RTVSPost2010Prop32
280
     0
102
RTVSPost2010PropOp32
 70
     1
102
RTVSPost2010Prop33
280
     0
102
RTVSPost2010PropOp33
 70
     1
102
RTVSPost2010Prop34
280
     0
102
RTVSPost2010PropOp34
 70
     1
102
RTVSPost2010Prop35
280
     0
102
RTVSPost2010PropOp35
 70
     1
102
RTVSPost2010Prop36
280
     0
102
RTVSPost2010PropOp36
 70
     1
102
RTVSPost2010Prop37
 90
       50
102
RTVSPost2010PropOp37
 70
     1
102
RTVSPost2010Prop38
140
0.0
102
RTVSPost2010PropOp38
 70
     1
102
RTVSPost2010Prop39
140
1.0
102
RTVSPost2010PropOp39
 70
     1
102
RTVSPost2010Prop40
 90
        0
102
RTVSPost2010PropOp40
 70
     1
102
RTVSPost2010Prop41ColorIndex
 90
       18
102
RTVSPost2010Prop41ColorRGB
 90
        0
102
RTVSPost2010PropOp41
 70
     1
102
RTVSPost2010Prop42
 90
       50
102
RTVSPost2010PropOp42
 70
     1
102
RTVSPost2010Prop43
 90
        3
102
RTVSPost2010PropOp43
 70
     1
102
RTVSPost2010Prop44ColorIndex
 90
        5
102
RTVSPost2010Prop44ColorRGB
 90
      255
102
RTVSPost2010PropOp44
 70
     1
102
RTVSPost2010Prop45
280
     0
102
RTVSPost2010PropOp45
 70
     1
102
RTVSPost2010Prop46
 90
       50
102
RTVSPost2010PropOp46
 70
     1
102
RTVSPost2010Prop47
 90
       50
102
RTVSPost2010PropOp47
 70
     1
102
RTVSPost2010Prop48
 90
       50
102
RTVSPost2010PropOp48
 70
     1
102
RTVSPost2010Prop49
280
     0
102
RTVSPost2010PropOp49
 70
     1
102
RTVSPost2010Prop50
 90
       50
102
RTVSPost2010PropOp50
 70
     1
102
RTVSPost2010Prop51ColorIndex
 90
      256
102
RTVSPost2010Prop51ColorRGB
 90
-16777216
102
RTVSPost2010PropOp51
 70
     0
102
RTVSPost2010Prop52
140
1.0
102
RTVSPost2010PropOp52
 70
     0
102
RTVSPost2010Prop53
 90
        2
102
RTVSPost2010PropOp53
 70
     1
102
RTVSPost2010Prop54
  1
strokes_ogs.tif
102
RTVSPost2010PropOp54
 70
     1
102
RTVSPost2010Prop55
280
     0
102
RTVSPost2010PropOp55
 70
     1
102
RTVSPost2010Prop56
140
1.0
102
RTVSPost2010PropOp56
 70
     1
102
RTVSPost2010Prop57
140
1.0
102
RTVSPost2010PropOp57
 70
     1
  0
XRECORD
  5
50D
102
{ACAD_REACTORS
330
50C
102
}
330
50C
100
AcDbXrecord
280
     1
102
RTVSPropertyOp0
 70
     1
102
RTVSPropertyOp1
 70
     1
102
RTVSPropertyOp2
 70
     1
102
RTVSPropertyOp3
 70
     1
102
RTVSPropertyOp4
 70
     1
102
RTVSPropertyOp5
 70
     1
102
RTVSPropertyOp6
 70
     1
102
RTVSPropertyOp7
 70
     1
102
RTVSPropertyOp8
 70
     1
102
RTVSPropertyOp9
 70
     1
102
RTVSPropertyOp10
 70
     1
102
RTVSPropertyOp11
 70
     1
102
RTVSPropertyOp12
 70
     1
102
RTVSPropertyOp13
 70
     1
102
RTVSPropertyOp14
 70
     1
102
RTVSPropertyOp15
 70
     1
102
RTVSPropertyOp16
 70
     1
102
RTVSPropertyOp17
 70
     1
102
RTVSPropertyOp18
 70
     1
102
RTVSPropertyOp19
 70
     1
102
RTVSPropertyOp20
 70
     1
102
RTVSPropertyOp21
 70
     1
102
RTVSPropertyOp22
 70
     1
102
RTVSPropertyOp23
 70
     1
102
RTVSPropertyOp24
 70
     1
102
RTVSPropertyOp25
 70
     1
102
RTVSPropertyOp26
 70
     1
102
RTVSPropertyOp27
 70
     1
102
RTVSPropertyOp28
 70
     1
102
RTVSPropertyOp29
 70
     1
102
RTVSPropertyOp30
 70
     1
102
RTVSPropertyOp31
 70
     1
102
RTVSPropertyOp32
 70
     1
102
RTVSPropertyOp33
 70
     1
102
RTVSPropertyOp34
 70
     1
102
RTVSPropertyOp35
 70
     1
102
RTVSPropertyOp36
 70
     1
102
RTVSPropertyOp37
 70
     1
102
RTVSPropertyOp38
 70
     1
102
RTVSPropertyOp39
 70
     1
102
RTVSPropertyOp40
 70
     1
102
RTVSPropertyOp41
 70
     1
102
RTVSPropertyOp42
 70
     1
102
RTVSPropertyOp43
 70
     1
102
RTVSPropertyOp44
 70
     1
102
RTVSPropertyOp45
 70
     1
102
RTVSPropertyOp46
 70
     1
102
RTVSPropertyOp47
 70
     1
102
RTVSPropertyOp48
 70
     1
102
RTVSPropertyOp49
 70
     1
102
RTVSPropertyOp50
 70
     1
102
RTVSPropertyOp51
 70
     0
102
RTVSPropertyOp52
 70
     0
102
RTVSPropertyOp53
 70
     1
102
RTVSPropertyOp54
 70
     1
102
RTVSPropertyOp55
 70
     1
102
RTVSPropertyOp56
 70
     1
102
RTVSPropertyOp57
 70
     1
102
RTVSPost2010Prop28
280
     0
102
RTVSPost2010PropOp28
 70
     1
102
RTVSPost2010Prop29
280
     1
102
RTVSPost2010PropOp29
 70
     1
102
RTVSPost2010Prop30
280
     1
102
RTVSPost2010PropOp30
 70
     1
102
RTVSPost2010Prop31
280
     0
102
RTVSPost2010PropOp31
 70
     1
102
RTVSPost2010Prop32
280
     0
102
RTVSPost2010PropOp32
 70
     1
102
RTVSPost2010Prop33
280
     0
102
RTVSPost2010PropOp33
 70
     1
102
RTVSPost2010Prop34
280
     0
102
RTVSPost2010PropOp34
 70
     1
102
RTVSPost2010Prop35
280
     0
102
RTVSPost2010PropOp35
 70
     1
102
RTVSPost2010Prop36
280
     0
102
RTVSPost2010PropOp36
 70
     1
102
RTVSPost2010Prop37
 90
       50
102
RTVSPost2010PropOp37
 70
     1
102
RTVSPost2010Prop38
140
0.0
102
RTVSPost2010PropOp38
 70
     1
102
RTVSPost2010Prop39
140
1.0
102
RTVSPost2010PropOp39
 70
     1
102
RTVSPost2010Prop40
 90
        0
102
RTVSPost2010PropOp40
 70
     1
102
RTVSPost2010Prop41ColorIndex
 90
       18
102
RTVSPost2010Prop41ColorRGB
 90
        0
102
RTVSPost2010PropOp41
 70
     1
102
RTVSPost2010Prop42
 90
       50
102
RTVSPost2010PropOp42
 70
     1
102
RTVSPost2010Prop43
 90
        3
102
RTVSPost2010PropOp43
 70
     1
102
RTVSPost2010Prop44ColorIndex
 90
        5
102
RTVSPost2010Prop44ColorRGB
 90
      255
102
RTVSPost2010PropOp44
 70
     1
102
RTVSPost2010Prop45
280
     0
102
RTVSPost2010PropOp45
 70
     1
102
RTVSPost2010Prop46
 90
       50
102
RTVSPost2010PropOp46
 70
     1
102
RTVSPost2010Prop47
 90
       50
102
RTVSPost2010PropOp47
 70
     1
102
RTVSPost2010Prop48
 90
       50
102
RTVSPost2010PropOp48
 70
     1
102
RTVSPost2010Prop49
280
     0
102
RTVSPost2010PropOp49
 70
     1
102
RTVSPost2010Prop50
 90
       50
102
RTVSPost2010PropOp50
 70
     1
102
RTVSPost2010Prop51ColorIndex
 90
      256
102
RTVSPost2010Prop51ColorRGB
 90
-16777216
102
RTVSPost2010PropOp51
 70
     0
102
RTVSPost2010Prop52
140
1.0
102
RTVSPost2010PropOp52
 70
     0
102
RTVSPost2010Prop53
 90
        2
102
RTVSPost2010PropOp53
 70
     1
102
RTVSPost2010Prop54
  1
strokes_ogs.tif
102
RTVSPost2010PropOp54
 70
     1
102
RTVSPost2010Prop55
280
     0
102
RTVSPost2010PropOp55
 70
     1
102
RTVSPost2010Prop56
140
1.0
102
RTVSPost2010PropOp56
 70
     1
102
RTVSPost2010Prop57
140
1.0
102
RTVSPost2010PropOp57
 70
     1
  0
XRECORD
  5
52D
102
{ACAD_REACTORS
330
52C
102
}
330
52C
100
AcDbXrecord
280
     1
102
RTVSPropertyOp0
 70
     1
102
RTVSPropertyOp1
 70
     1
102
RTVSPropertyOp2
 70
     1
102
RTVSPropertyOp3
 70
     1
102
RTVSPropertyOp4
 70
     1
102
RTVSPropertyOp5
 70
     1
102
RTVSPropertyOp6
 70
     1
102
RTVSPropertyOp7
 70
     1
102
RTVSPropertyOp8
 70
     1
102
RTVSPropertyOp9
 70
     1
102
RTVSPropertyOp10
 70
     1
102
RTVSPropertyOp11
 70
     1
102
RTVSPropertyOp12
 70
     1
102
RTVSPropertyOp13
 70
     1
102
RTVSPropertyOp14
 70
     1
102
RTVSPropertyOp15
 70
     1
102
RTVSPropertyOp16
 70
     1
102
RTVSPropertyOp17
 70
     1
102
RTVSPropertyOp18
 70
     1
102
RTVSPropertyOp19
 70
     1
102
RTVSPropertyOp20
 70
     1
102
RTVSPropertyOp21
 70
     1
102
RTVSPropertyOp22
 70
     1
102
RTVSPropertyOp23
 70
     1
102
RTVSPropertyOp24
 70
     1
102
RTVSPropertyOp25
 70
     1
102
RTVSPropertyOp26
 70
     1
102
RTVSPropertyOp27
 70
     1
102
RTVSPropertyOp28
 70
     1
102
RTVSPropertyOp29
 70
     1
102
RTVSPropertyOp30
 70
     1
102
RTVSPropertyOp31
 70
     1
102
RTVSPropertyOp32
 70
     1
102
RTVSPropertyOp33
 70
     1
102
RTVSPropertyOp34
 70
     1
102
RTVSPropertyOp35
 70
     1
102
RTVSPropertyOp36
 70
     1
102
RTVSPropertyOp37
 70
     1
102
RTVSPropertyOp38
 70
     1
102
RTVSPropertyOp39
 70
     1
102
RTVSPropertyOp40
 70
     1
102
RTVSPropertyOp41
 70
     1
102
RTVSPropertyOp42
 70
     1
102
RTVSPropertyOp43
 70
     1
102
RTVSPropertyOp44
 70
     1
102
RTVSPropertyOp45
 70
     1
102
RTVSPropertyOp46
 70
     1
102
RTVSPropertyOp47
 70
     1
102
RTVSPropertyOp48
 70
     1
102
RTVSPropertyOp49
 70
     1
102
RTVSPropertyOp50
 70
     1
102
RTVSPropertyOp51
 70
     0
102
RTVSPropertyOp52
 70
     0
102
RTVSPropertyOp53
 70
     1
102
RTVSPropertyOp54
 70
     1
102
RTVSPropertyOp55
 70
     1
102
RTVSPropertyOp56
 70
     1
102
RTVSPropertyOp57
 70
     1
102
RTVSPost2010Prop28
280
     0
102
RTVSPost2010PropOp28
 70
     1
102
RTVSPost2010Prop29
280
     1
102
RTVSPost2010PropOp29
 70
     1
102
RTVSPost2010Prop30
280
     1
102
RTVSPost2010PropOp30
 70
     1
102
RTVSPost2010Prop31
280
     0
102
RTVSPost2010PropOp31
 70
     1
102
RTVSPost2010Prop32
280
     0
102
RTVSPost2010PropOp32
 70
     1
102
RTVSPost2010Prop33
280
     0
102
RTVSPost2010PropOp33
 70
     1
102
RTVSPost2010Prop34
280
     0
102
RTVSPost2010PropOp34
 70
     1
102
RTVSPost2010Prop35
280
     0
102
RTVSPost2010PropOp35
 70
     1
102
RTVSPost2010Prop36
280
     0
102
RTVSPost2010PropOp36
 70
     1
102
RTVSPost2010Prop37
 90
       50
102
RTVSPost2010PropOp37
 70
     1
102
RTVSPost2010Prop38
140
0.0
102
RTVSPost2010PropOp38
 70
     1
102
RTVSPost2010Prop39
140
1.0
102
RTVSPost2010PropOp39
 70
     1
102
RTVSPost2010Prop40
 90
        0
102
RTVSPost2010PropOp40
 70
     1
102
RTVSPost2010Prop41ColorIndex
 90
       18
102
RTVSPost2010Prop41ColorRGB
 90
        0
102
RTVSPost2010PropOp41
 70
     1
102
RTVSPost2010Prop42
 90
       50
102
RTVSPost2010PropOp42
 70
     1
102
RTVSPost2010Prop43
 90
        3
102
RTVSPost2010PropOp43
 70
     1
102
RTVSPost2010Prop44ColorIndex
 90
        5
102
RTVSPost2010Prop44ColorRGB
 90
      255
102
RTVSPost2010PropOp44
 70
     1
102
RTVSPost2010Prop45
280
     0
102
RTVSPost2010PropOp45
 70
     1
102
RTVSPost2010Prop46
 90
       50
102
RTVSPost2010PropOp46
 70
     1
102
RTVSPost2010Prop47
 90
       50
102
RTVSPost2010PropOp47
 70
     1
102
RTVSPost2010Prop48
 90
       50
102
RTVSPost2010PropOp48
 70
     1
102
RTVSPost2010Prop49
280
     0
102
RTVSPost2010PropOp49
 70
     1
102
RTVSPost2010Prop50
 90
       50
102
RTVSPost2010PropOp50
 70
     1
102
RTVSPost2010Prop51ColorIndex
 90
      256
102
RTVSPost2010Prop51ColorRGB
 90
-16777216
102
RTVSPost2010PropOp51
 70
     0
102
RTVSPost2010Prop52
140
1.0
102
RTVSPost2010PropOp52
 70
     0
102
RTVSPost2010Prop53
 90
        2
102
RTVSPost2010PropOp53
 70
     1
102
RTVSPost2010Prop54
  1
strokes_ogs.tif
102
RTVSPost2010PropOp54
 70
     1
102
RTVSPost2010Prop55
280
     0
102
RTVSPost2010PropOp55
 70
     1
102
RTVSPost2010Prop56
140
1.0
102
RTVSPost2010PropOp56
 70
     1
102
RTVSPost2010Prop57
140
1.0
102
RTVSPost2010PropOp57
 70
     1
  0
ENDSEC
  0
EOF
