  0
SECTION
  2
HEADER
  9
$ACADVER
  1
AC1015
  9
$ACADMAINTVER
 70
     6
  9
$DWGCODEPAGE
  3
ANSI_932
  9
$INSBASE
 10
0.0
 20
0.0
 30
0.0
  9
$EXTMIN
 10
-346.9841424033295
 20
-243.4899585048832
 30
0.0
  9
$EXTMAX
 10
353.0158575966705
 20
186.5100414951168
 30
0.0
  9
$LIMMIN
 10
-346.9841424033295
 20
-243.4899585048832
  9
$LIMMAX
 10
353.0158575966705
 20
186.5100414951168
  9
$ORTHOMODE
 70
     0
  9
$REGENMODE
 70
     1
  9
$FILLMODE
 70
     1
  9
$QTEXTMODE
 70
     0
  9
$MIRRTEXT
 70
     1
  9
$LTSCALE
 40
1.0
  9
$ATTMODE
 70
     1
  9
$TEXTSIZE
 40
2.5
  9
$TRACEWID
 40
1.0
  9
$TEXTSTYLE
  7
Standard
  9
$CLAYER
  8
0
  9
$CELTYPE
  6
ByLayer
  9
$CECOLOR
 62
   256
  9
$CELTSCALE
 40
1.0
  9
$DISPSILH
 70
     0
  9
$DIMSCALE
 40
1.0
  9
$DIMASZ
 40
2.5
  9
$DIMEXO
 40
0.625
  9
$DIMDLI
 40
3.75
  9
$DIMRND
 40
0.0
  9
$DIMDLE
 40
0.0
  9
$DIMEXE
 40
1.25
  9
$DIMTP
 40
0.0
  9
$DIMTM
 40
0.0
  9
$DIMTXT
 40
2.5
  9
$DIMCEN
 40
2.5
  9
$DIMTSZ
 40
0.0
  9
$DIMTOL
 70
     0
  9
$DIMLIM
 70
     0
  9
$DIMTIH
 70
     0
  9
$DIMTOH
 70
     0
  9
$DIMSE1
 70
     0
  9
$DIMSE2
 70
     0
  9
$DIMTAD
 70
     1
  9
$DIMZIN
 70
     8
  9
$DIMBLK
  1
Closed
  9
$DIMASO
 70
     1
  9
$DIMSHO
 70
     1
  9
$DIMPOST
  1

  9
$DIMAPOST
  1

  9
$DIMALT
 70
     0
  9
$DIMALTD
 70
     3
  9
$DIMALTF
 40
0.039370079
  9
$DIMLFAC
 40
1.0
  9
$DIMTOFL
 70
     1
  9
$DIMTVP
 40
0.0
  9
$DIMTIX
 70
     0
  9
$DIMSOXD
 70
     0
  9
$DIMSAH
 70
     0
  9
$DIMBLK1
  1

  9
$DIMBLK2
  1

  9
$DIMSTYLE
  2
DIMSTYLE_FULLSCALE
  9
$DIMCLRD
 70
     0
  9
$DIMCLRE
 70
     0
  9
$DIMCLRT
 70
     0
  9
$DIMTFAC
 40
1.0
  9
$DIMGAP
 40
0.625
  9
$DIMJUST
 70
     0
  9
$DIMSD1
 70
     0
  9
$DIMSD2
 70
     0
  9
$DIMTOLJ
 70
     0
  9
$DIMTZIN
 70
     8
  9
$DIMALTZ
 70
     0
  9
$DIMALTTZ
 70
     0
  9
$DIMUPT
 70
     0
  9
$DIMDEC
 70
     2
  9
$DIMTDEC
 70
     2
  9
$DIMALTU
 70
     2
  9
$DIMALTTD
 70
     3
  9
$DIMTXSTY
  7
Standard
  9
$DIMAUNIT
 70
     0
  9
$DIMADEC
 70
     0
  9
$DIMALTRND
 40
0.0
  9
$DIMAZIN
 70
     0
  9
$DIMDSEP
 70
    44
  9
$DIMATFIT
 70
     3
  9
$DIMFRAC
 70
     0
  9
$DIMLDRBLK
  1
Closed
  9
$DIMLUNIT
 70
     2
  9
$DIMLWD
 70
    -2
  9
$DIMLWE
 70
    -2
  9
$DIMTMOVE
 70
     0
  9
$LUNITS
 70
     2
  9
$LUPREC
 70
     4
  9
$SKETCHINC
 40
1.0
  9
$FILLETRAD
 40
10.0
  9
$AUNITS
 70
     0
  9
$AUPREC
 70
     0
  9
$MENU
  1
.
  9
$ELEVATION
 40
0.0
  9
$PELEVATION
 40
0.0
  9
$THICKNESS
 40
0.0
  9
$LIMCHECK
 70
     0
  9
$CHAMFERA
 40
0.0
  9
$CHAMFERB
 40
0.0
  9
$CHAMFERC
 40
0.0
  9
$CHAMFERD
 40
0.0
  9
$SKPOLY
 70
     0
  9
$TDCREATE
 40
2459069.589182766
  9
$TDUCREATE
 40
2459069.214182766
  9
$TDUPDATE
 40
2459069.589183125
  9
$TDUUPDATE
 40
2459069.214183125
  9
$TDINDWG
 40
0.0000000116
  9
$TDUSRTIMER
 40
0.0000000116
  9
$USRTIMER
 70
     1
  9
$ANGBASE
 50
0.0
  9
$ANGDIR
 70
     0
  9
$PDMODE
 70
     0
  9
$PDSIZE
 40
0.0
  9
$PLINEWID
 40
0.0
  9
$SPLFRAME
 70
     0
  9
$SPLINETYPE
 70
     6
  9
$SPLINESEGS
 70
     8
  9
$HANDSEED
  5
4EF
  9
$SURFTAB1
 70
     6
  9
$SURFTAB2
 70
     6
  9
$SURFTYPE
 70
     6
  9
$SURFU
 70
     6
  9
$SURFV
 70
     6
  9
$UCSBASE
  2

  9
$UCSNAME
  2

  9
$UCSORG
 10
0.0
 20
0.0
 30
0.0
  9
$UCSXDIR
 10
1.0
 20
0.0
 30
0.0
  9
$UCSYDIR
 10
0.0
 20
1.0
 30
0.0
  9
$UCSORTHOREF
  2

  9
$UCSORTHOVIEW
 70
     0
  9
$UCSORGTOP
 10
0.0
 20
0.0
 30
0.0
  9
$UCSORGBOTTOM
 10
0.0
 20
0.0
 30
0.0
  9
$UCSORGLEFT
 10
0.0
 20
0.0
 30
0.0
  9
$UCSORGRIGHT
 10
0.0
 20
0.0
 30
0.0
  9
$UCSORGFRONT
 10
0.0
 20
0.0
 30
0.0
  9
$UCSORGBACK
 10
0.0
 20
0.0
 30
0.0
  9
$PUCSBASE
  2

  9
$PUCSNAME
  2

  9
$PUCSORG
 10
0.0
 20
0.0
 30
0.0
  9
$PUCSXDIR
 10
1.0
 20
0.0
 30
0.0
  9
$PUCSYDIR
 10
0.0
 20
1.0
 30
0.0
  9
$PUCSORTHOREF
  2

  9
$PUCSORTHOVIEW
 70
     0
  9
$PUCSORGTOP
 10
0.0
 20
0.0
 30
0.0
  9
$PUCSORGBOTTOM
 10
0.0
 20
0.0
 30
0.0
  9
$PUCSORGLEFT
 10
0.0
 20
0.0
 30
0.0
  9
$PUCSORGRIGHT
 10
0.0
 20
0.0
 30
0.0
  9
$PUCSORGFRONT
 10
0.0
 20
0.0
 30
0.0
  9
$PUCSORGBACK
 10
0.0
 20
0.0
 30
0.0
  9
$USERI1
 70
     0
  9
$USERI2
 70
     0
  9
$USERI3
 70
     0
  9
$USERI4
 70
     0
  9
$USERI5
 70
     0
  9
$USERR1
 40
0.0
  9
$USERR2
 40
0.0
  9
$USERR3
 40
0.0
  9
$USERR4
 40
0.0
  9
$USERR5
 40
0.0
  9
$WORLDVIEW
 70
     1
  9
$SHADEDGE
 70
     3
  9
$SHADEDIF
 70
    70
  9
$TILEMODE
 70
     1
  9
$MAXACTVP
 70
    64
  9
$PINSBASE
 10
0.0
 20
0.0
 30
0.0
  9
$PLIMCHECK
 70
     0
  9
$PEXTMIN
 10
1.000000000000000E+20
 20
1.000000000000000E+20
 30
1.000000000000000E+20
  9
$PEXTMAX
 10
-1.000000000000000E+20
 20
-1.000000000000000E+20
 30
-1.000000000000000E+20
  9
$PLIMMIN
 10
-346.9841424033295
 20
-243.4899585048832
  9
$PLIMMAX
 10
353.0158575966705
 20
186.5100414951168
  9
$UNITMODE
 70
     0
  9
$VISRETAIN
 70
     1
  9
$PLINEGEN
 70
     0
  9
$PSLTSCALE
 70
     1
  9
$TREEDEPTH
 70
  3020
  9
$CMLSTYLE
  2
Standard
  9
$CMLJUST
 70
     0
  9
$CMLSCALE
 40
20.0
  9
$PROXYGRAPHICS
 70
     1
  9
$MEASUREMENT
 70
     1
  9
$CELWEIGHT
370
    -1
  9
$ENDCAPS
280
     0
  9
$JOINSTYLE
280
     0
  9
$LWDISPLAY
290
     0
  9
$INSUNITS
 70
     4
  9
$HYPERLINKBASE
  1

  9
$STYLESHEET
  1

  9
$XEDIT
290
     1
  9
$CEPSNTYPE
380
     0
  9
$PSTYLEMODE
290
     1
  9
$FINGERPRINTGUID
  2
{54c71107-076b-4203-8361-9c3ad03659cb}
  9
$VERSIONGUID
  2
{FAEB1C32-E019-11D5-929B-00C0DF256EC4}
  9
$EXTNAMES
290
     1
  9
$PSVPSCALE
 40
0.0
  9
$OLESTARTUP
290
     0
  0
ENDSEC
  0
SECTION
  2
CLASSES
  0
CLASS
  1
ACDBDICTIONARYWDFLT
  2
AcDbDictionaryWithDefault
  3
ObjectDBX Classes
 90
        0
280
     0
281
     0
  0
CLASS
  1
VISUALSTYLE
  2
AcDbVisualStyle
  3
ObjectDBX Classes
 90
     4095
280
     0
281
     0
  0
CLASS
  1
MATERIAL
  2
AcDbMaterial
  3
ObjectDBX Classes
 90
     1153
280
     0
281
     0
  0
CLASS
  1
SCALE
  2
AcDbScale
  3
ObjectDBX Classes
 90
     1153
280
     0
281
     0
  0
CLASS
  1
TABLESTYLE
  2
AcDbTableStyle
  3
ObjectDBX Classes
 90
     4095
280
     0
281
     0
  0
CLASS
  1
MLEADERSTYLE
  2
AcDbMLeaderStyle
  3
ACDB_MLEADERSTYLE_CLASS
 90
     4095
280
     0
281
     0
  0
CLASS
  1
SUN
  2
AcDbSun
  3
SCENEOE
 90
     1153
280
     0
281
     0
  0
CLASS
  1
DICTIONARYVAR
  2
AcDbDictionaryVar
  3
ObjectDBX Classes
 90
        0
280
     0
281
     0
  0
CLASS
  1
ACDBPLACEHOLDER
  2
AcDbPlaceHolder
  3
ObjectDBX Classes
 90
        0
280
     0
281
     0
  0
CLASS
  1
LAYOUT
  2
AcDbLayout
  3
ObjectDBX Classes
 90
        0
280
     0
281
     0
  0
ENDSEC
  0
SECTION
  2
TABLES
  0
TABLE
  2
VPORT
  5
8
102
{ACAD_XDICTIONARY
360
4AE
102
}
330
0
100
AcDbSymbolTable
 70
     1
  0
VPORT
  5
29
330
8
100
AcDbSymbolTableRecord
100
AcDbViewportTableRecord
  2
*Active
 70
     0
 10
0.0
 20
0.0
 11
1.0
 21
1.0
 12
344.1869158878504
 22
148.5
 13
0.0
 23
0.0
 14
10.0
 24
10.0
 15
10.0
 25
10.0
 16
0.0
 26
0.0
 36
1.0
 17
0.0
 27
0.0
 37
0.0
 40
297.0
 41
1.972972972850329
 42
50.0
 43
0.0
 44
0.0
 50
0.0
 51
0.0
 71
     0
 72
   100
 73
     1
 74
     3
 75
     0
 76
     0
 77
     0
 78
     0
281
     0
 65
     1
110
0.0
120
0.0
130
0.0
111
1.0
121
0.0
131
0.0
112
0.0
122
1.0
132
0.0
 79
     0
146
0.0
  0
ENDTAB
  0
TABLE
  2
LTYPE
  5
5
330
0
100
AcDbSymbolTable
 70
     5
  0
LTYPE
  5
14
330
5
100
AcDbSymbolTableRecord
100
AcDbLinetypeTableRecord
  2
ByBlock
 70
     0
  3

 72
    65
 73
     0
 40
0.0
  0
LTYPE
  5
15
330
5
100
AcDbSymbolTableRecord
100
AcDbLinetypeTableRecord
  2
ByLayer
 70
     0
  3

 72
    65
 73
     0
 40
0.0
  0
LTYPE
  5
16
330
5
100
AcDbSymbolTableRecord
100
AcDbLinetypeTableRecord
  2
Continuous
 70
     0
  3
Solid line
 72
    65
 73
     0
 40
0.0
  0
LTYPE
  5
6E
330
5
100
AcDbSymbolTableRecord
100
AcDbLinetypeTableRecord
  2
CONTINOUS
 70
     0
  3
______________________________
 72
    65
 73
     0
 40
0.0
  0
LTYPE
  5
6F
330
5
100
AcDbSymbolTableRecord
100
AcDbLinetypeTableRecord
  2
DASHED
 70
     0
  3
__ __ __ __ __ __ __ __ __ __ __ __ __ __ __ __
 72
    65
 73
     2
 40
4.5
 49
3.0
 74
     0
 49
-1.5
 74
     0
  0
LTYPE
  5
70
330
5
100
AcDbSymbolTableRecord
100
AcDbLinetypeTableRecord
  2
PHANTOM
 70
     0
  3
______  __  __  ______  __  __  _____
 72
    65
 73
     6
 40
15.0
 49
7.5
 74
     0
 49
-1.5
 74
     0
 49
1.5
 74
     0
 49
-1.5
 74
     0
 49
1.5
 74
     0
 49
-1.5
 74
     0
  0
LTYPE
  5
71
330
5
100
AcDbSymbolTableRecord
100
AcDbLinetypeTableRecord
  2
CENTER
 70
     0
  3
____ _ ____ _ ____ _ ____ _ ____ _ ____
 72
    65
 73
     4
 40
12.0
 49
7.5
 74
     0
 49
-1.5
 74
     0
 49
1.5
 74
     0
 49
-1.5
 74
     0
  0
ENDTAB
  0
TABLE
  2
LAYER
  5
2
330
0
100
AcDbSymbolTable
 70
     2
  0
LAYER
  5
10
330
2
100
AcDbSymbolTableRecord
100
AcDbLayerTableRecord
  2
0
 70
     0
 62
     7
  6
Continuous
370
    -3
390
F
  0
LAYER
  5
3F6
330
2
100
AcDbSymbolTableRecord
100
AcDbLayerTableRecord
  2
Defpoints
 70
     0
 62
     7
  6
Continuous
290
     0
370
    -3
390
F
  0
ENDTAB
  0
TABLE
  2
STYLE
  5
3
330
0
100
AcDbSymbolTable
 70
     1
  0
STYLE
  5
11
330
3
100
AcDbSymbolTableRecord
100
AcDbTextStyleTableRecord
  2
Standard
 70
     0
 40
0.0
 41
1.0
 50
0.0
 71
     0
 42
2.5
  3
ROMANS
  4
EXTFONT
  0
ENDTAB
  0
TABLE
  2
VIEW
  5
6
330
0
100
AcDbSymbolTable
 70
     0
  0
ENDTAB
  0
TABLE
  2
UCS
  5
7
330
0
100
AcDbSymbolTable
 70
     0
  0
ENDTAB
  0
TABLE
  2
APPID
  5
9
330
0
100
AcDbSymbolTable
 70
     7
  0
APPID
  5
12
330
9
100
AcDbSymbolTableRecord
100
AcDbRegAppTableRecord
  2
ACAD
 70
     0
  0
APPID
  5
3D8
330
9
100
AcDbSymbolTableRecord
100
AcDbRegAppTableRecord
  2
ACAD_DSTYLE_DIMJAG
 70
     0
  0
APPID
  5
4B0
330
9
100
AcDbSymbolTableRecord
100
AcDbRegAppTableRecord
  2
ACAD_DSTYLE_DIMJOGGED_JOGANGLE_SYMBOL
 70
     0
  0
APPID
  5
4B1
330
9
100
AcDbSymbolTableRecord
100
AcDbRegAppTableRecord
  2
ACAD_DSTYLE_DIM_LINETYPE
 70
     0
  0
APPID
  5
4B2
330
9
100
AcDbSymbolTableRecord
100
AcDbRegAppTableRecord
  2
ACAD_DSTYLE_DIM_EXT1_LINETYPE
 70
     0
  0
APPID
  5
4B3
330
9
100
AcDbSymbolTableRecord
100
AcDbRegAppTableRecord
  2
ACAD_DSTYLE_DIM_EXT2_LINETYPE
 70
     0
  0
APPID
  5
4EC
330
9
100
AcDbSymbolTableRecord
100
AcDbRegAppTableRecord
  2
ACAD_MLEADERVER
 70
     0
  0
ENDTAB
  0
TABLE
  2
DIMSTYLE
  5
A
330
0
100
AcDbSymbolTable
 70
     2
100
AcDbDimStyleTable
  0
DIMSTYLE
105
27
330
A
100
AcDbSymbolTableRecord
100
AcDbDimStyleTableRecord
  2
ISO-25
 70
     0
 41
2.5
 42
0.625
 43
3.75
 44
1.25
 73
     0
 74
     0
 77
     1
 78
     8
140
2.5
141
2.5
143
0.03937007874016
147
0.625
171
     3
172
     1
178
     0
271
     2
272
     2
274
     3
278
    44
283
     0
284
     8
340
11
  0
DIMSTYLE
105
3D0
102
{ACAD_REACTORS
330
3EF
330
403
330
419
330
425
330
431
330
43E
330
44B
330
461
330
46E
330
47B
330
488
330
495
102
}
330
A
100
AcDbSymbolTableRecord
100
AcDbDimStyleTableRecord
  2
DIMSTYLE_FULLSCALE
 70
     0
 41
2.5
 42
0.625
 43
3.75
 44
1.25
 73
     0
 74
     0
 77
     1
 78
     8
140
2.5
141
2.5
143
0.039370079
147
0.625
171
     3
172
     1
178
     0
271
     2
272
     2
274
     3
278
    44
283
     0
284
     8
340
11
341
3D1
342
3D1
1001
ACAD_DSTYLE_DIMJAG
1070
   388
1040
1.5
1001
ACAD_DSTYLE_DIMJOGGED_JOGANGLE_SYMBOL
1070
   384
1040
1.570796326794897
1001
ACAD_DSTYLE_DIM_LINETYPE
1070
   380
1005
14
1001
ACAD_DSTYLE_DIM_EXT1_LINETYPE
1070
   381
1005
14
1001
ACAD_DSTYLE_DIM_EXT2_LINETYPE
1070
   382
1005
14
  0
ENDTAB
  0
TABLE
  2
BLOCK_RECORD
  5
1
330
0
100
AcDbSymbolTable
 70
    22
  0
BLOCK_RECORD
  5
1F
330
1
100
AcDbSymbolTableRecord
100
AcDbBlockTableRecord
  2
*Model_Space
340
22
  0
BLOCK_RECORD
  5
1B
330
1
100
AcDbSymbolTableRecord
100
AcDbBlockTableRecord
  2
*Paper_Space
340
1E
  0
BLOCK_RECORD
  5
23
330
1
100
AcDbSymbolTableRecord
100
AcDbBlockTableRecord
  2
*Paper_Space0
340
26
  0
BLOCK_RECORD
  5
72
330
1
100
AcDbSymbolTableRecord
100
AcDbBlockTableRecord
  2
DTL0001
340
0
102
{BLKREFS
331
3EA
102
}
  0
BLOCK_RECORD
  5
75
330
1
100
AcDbSymbolTableRecord
100
AcDbBlockTableRecord
  2
DTL0002
340
0
102
{BLKREFS
331
3EB
102
}
  0
BLOCK_RECORD
  5
78
330
1
100
AcDbSymbolTableRecord
100
AcDbBlockTableRecord
  2
DTL0003
340
0
102
{BLKREFS
331
3EC
102
}
  0
BLOCK_RECORD
  5
7B
330
1
100
AcDbSymbolTableRecord
100
AcDbBlockTableRecord
  2
DTL0004
340
0
102
{BLKREFS
331
3ED
102
}
  0
BLOCK_RECORD
  5
7E
330
1
100
AcDbSymbolTableRecord
100
AcDbBlockTableRecord
  2
DTL0005
340
0
102
{BLKREFS
331
3EE
102
}
  0
BLOCK_RECORD
  5
3D1
330
1
100
AcDbSymbolTableRecord
100
AcDbBlockTableRecord
  2
_Closed
340
0
  0
BLOCK_RECORD
  5
3F0
330
1
100
AcDbSymbolTableRecord
100
AcDbBlockTableRecord
  2
_Open30
340
0
102
{BLKREFS
331
3FE
331
3FD
331
40B
331
40A
331
420
331
41F
331
42C
331
42B
331
439
331
438
331
446
331
445
331
453
331
452
331
469
331
468
331
476
331
475
331
483
331
482
331
490
331
48F
331
49D
331
49C
102
}
  0
BLOCK_RECORD
  5
3F7
330
1
100
AcDbSymbolTableRecord
100
AcDbBlockTableRecord
  2
*D8
340
0
  0
BLOCK_RECORD
  5
404
330
1
100
AcDbSymbolTableRecord
100
AcDbBlockTableRecord
  2
*D9
340
0
  0
BLOCK_RECORD
  5
410
330
1
100
AcDbSymbolTableRecord
100
AcDbBlockTableRecord
  2
SYM0001
340
0
102
{BLKREFS
331
416
102
}
  0
BLOCK_RECORD
  5
41A
330
1
100
AcDbSymbolTableRecord
100
AcDbBlockTableRecord
  2
*D11
340
0
  0
BLOCK_RECORD
  5
426
330
1
100
AcDbSymbolTableRecord
100
AcDbBlockTableRecord
  2
*D12
340
0
  0
BLOCK_RECORD
  5
432
330
1
100
AcDbSymbolTableRecord
100
AcDbBlockTableRecord
  2
*D13
340
0
  0
BLOCK_RECORD
  5
43F
330
1
100
AcDbSymbolTableRecord
100
AcDbBlockTableRecord
  2
*D14
340
0
  0
BLOCK_RECORD
  5
44C
330
1
100
AcDbSymbolTableRecord
100
AcDbBlockTableRecord
  2
*D15
340
0
  0
BLOCK_RECORD
  5
458
330
1
100
AcDbSymbolTableRecord
100
AcDbBlockTableRecord
  2
SYM0002
340
0
102
{BLKREFS
331
45E
102
}
  0
BLOCK_RECORD
  5
462
330
1
100
AcDbSymbolTableRecord
100
AcDbBlockTableRecord
  2
*D17
340
0
  0
BLOCK_RECORD
  5
46F
330
1
100
AcDbSymbolTableRecord
100
AcDbBlockTableRecord
  2
*D18
340
0
  0
BLOCK_RECORD
  5
47C
330
1
100
AcDbSymbolTableRecord
100
AcDbBlockTableRecord
  2
*D19
340
0
  0
BLOCK_RECORD
  5
489
330
1
100
AcDbSymbolTableRecord
100
AcDbBlockTableRecord
  2
*D20
340
0
  0
BLOCK_RECORD
  5
496
330
1
100
AcDbSymbolTableRecord
100
AcDbBlockTableRecord
  2
*D21
340
0
  0
ENDTAB
  0
ENDSEC
  0
SECTION
  2
BLOCKS
  0
BLOCK
  5
20
330
1F
100
AcDbEntity
  8
0
100
AcDbBlockBegin
  2
*Model_Space
 70
     0
 10
0.0
 20
0.0
 30
0.0
  3
*Model_Space
  1

  0
ENDBLK
  5
21
330
1F
100
AcDbEntity
  8
0
100
AcDbBlockEnd
  0
BLOCK
  5
1C
330
1B
100
AcDbEntity
 67
     1
  8
0
100
AcDbBlockBegin
  2
*Paper_Space
 70
     0
 10
0.0
 20
0.0
 30
0.0
  3
*Paper_Space
  1

  0
ENDBLK
  5
1D
330
1B
100
AcDbEntity
 67
     1
  8
0
100
AcDbBlockEnd
  0
BLOCK
  5
24
330
23
100
AcDbEntity
  8
0
100
AcDbBlockBegin
  2
*Paper_Space0
 70
     0
 10
0.0
 20
0.0
 30
0.0
  3
*Paper_Space0
  1

  0
ENDBLK
  5
25
330
23
100
AcDbEntity
  8
0
100
AcDbBlockEnd
  0
BLOCK
  5
73
330
72
100
AcDbEntity
  8
0
100
AcDbBlockBegin
  2
DTL0001
 70
     0
 10
0.0
 20
0.0
 30
0.0
  3
DTL0001
  1

  0
POINT
  5
81
330
72
100
AcDbEntity
  8
0
 62
     0
100
AcDbPoint
 10
0.0
 20
0.0
 30
0.0
  0
LINE
  5
82
330
72
100
AcDbEntity
  8
0
  6
CENTER
 62
     4
100
AcDbLine
 10
0.0
 20
102.6213710846694
 30
0.0
 11
0.0
 21
-24.76506042480469
 31
0.0
  0
LINE
  5
83
330
72
100
AcDbEntity
  8
0
  6
Continuous
 62
     0
100
AcDbLine
 10
-26.0
 20
18.5
 30
0.0
 11
26.0
 21
18.5
 31
0.0
  0
LINE
  5
84
330
72
100
AcDbEntity
  8
0
  6
Continuous
 62
     0
100
AcDbLine
 10
-40.0
 20
-22.0
 30
0.0
 11
40.0
 21
-22.0
 31
0.0
  0
LINE
  5
85
330
72
100
AcDbEntity
  8
0
  6
Continuous
 62
     0
100
AcDbLine
 10
-25.99988555908203
 20
49.5
 30
0.0
 11
26.00005340576172
 21
49.5
 31
0.0
  0
LINE
  5
86
330
72
100
AcDbEntity
  8
0
  6
Continuous
 62
     0
100
AcDbLine
 10
-25.99988555908203
 20
49.5
 30
0.0
 11
-25.99988555908203
 21
11.83214022158423
 31
0.0
  0
LINE
  5
87
330
72
100
AcDbEntity
  8
0
  6
Continuous
 62
     0
100
AcDbLine
 10
26.00005340576172
 20
49.5
 30
0.0
 11
26.00005340576172
 21
11.83216859329661
 31
0.0
  0
LINE
  5
88
330
72
100
AcDbEntity
  8
0
  6
Continuous
 62
     0
100
AcDbLine
 10
-18.69996643066406
 20
42.19999313354492
 30
0.0
 11
18.70008277893066
 21
42.19999313354492
 31
0.0
  0
LINE
  5
89
330
72
100
AcDbEntity
  8
0
  6
Continuous
 62
     0
100
AcDbLine
 10
-18.69996643066406
 20
23.80000114440918
 30
0.0
 11
18.70008277893066
 21
23.80000114440918
 31
0.0
  0
LINE
  5
8A
330
72
100
AcDbEntity
  8
0
  6
Continuous
 62
     0
100
AcDbLine
 10
-18.69996643066406
 20
42.19999313354492
 30
0.0
 11
-18.69996643066406
 21
23.80000114440918
 31
0.0
  0
LINE
  5
8B
330
72
100
AcDbEntity
  8
0
  6
Continuous
 62
     0
100
AcDbLine
 10
18.70008277893066
 20
42.19999313354492
 30
0.0
 11
18.70008277893066
 21
23.80000114440918
 31
0.0
  0
LINE
  5
8C
330
72
100
AcDbEntity
  8
0
  6
CENTER
 62
     4
100
AcDbLine
 10
-103.1492385864258
 20
35.5
 30
0.0
 11
-25.99988555908203
 21
35.5
 31
0.0
  0
LINE
  5
8D
330
72
100
AcDbEntity
  8
0
  6
Continuous
 62
     0
100
AcDbLine
 10
-29.0000057220459
 20
21.99998474121094
 30
0.0
 11
-25.99988555908203
 21
21.99998474121094
 31
0.0
  0
LINE
  5
8E
330
72
100
AcDbEntity
  8
0
  6
Continuous
 62
     0
100
AcDbLine
 10
-29.0000057220459
 20
49.00000762939453
 30
0.0
 11
-25.99988555908203
 21
49.00000762939453
 31
0.0
  0
LINE
  5
8F
330
72
100
AcDbEntity
  8
0
  6
Continuous
 62
     0
100
AcDbLine
 10
-29.0000057220459
 20
49.00000762939453
 30
0.0
 11
-29.0000057220459
 21
21.99998474121094
 31
0.0
  0
LINE
  5
90
330
72
100
AcDbEntity
  8
0
  6
CENTER
 62
     4
100
AcDbLine
 10
-6.073444067462588
 20
30.49999618530273
 30
0.0
 11
6.082188954057883
 21
30.49999618530273
 31
0.0
  0
LINE
  5
91
330
72
100
AcDbEntity
  8
0
  6
CENTER
 62
     4
100
AcDbLine
 10
26.00005340576172
 20
32.50000381469727
 30
0.0
 11
29.17270412183255
 21
32.50000381469727
 31
0.0
  0
LINE
  5
92
330
72
100
AcDbEntity
  8
0
  6
Continuous
 62
     0
100
AcDbLine
 10
27.00005149841309
 20
41.7500114440918
 30
0.0
 11
27.00005149841309
 21
23.24998474121094
 31
0.0
  0
LINE
  5
93
330
72
100
AcDbEntity
  8
0
  6
Continuous
 62
     0
100
AcDbLine
 10
26.0000962555408
 20
42.49999749660378
 30
0.0
 11
27.00009662806983
 21
41.74999719858055
 31
0.0
  0
LINE
  5
94
330
72
100
AcDbEntity
  8
0
  6
Continuous
 62
     0
100
AcDbLine
 10
27.00006915032908
 20
23.24996370077215
 30
0.0
 11
26.00005695223863
 21
22.49995453357764
 31
0.0
  0
LINE
  5
95
330
72
100
AcDbEntity
  8
0
  6
Continuous
 62
     0
100
AcDbLine
 10
7.000123023986816
 20
30.49999618530273
 30
0.0
 11
7.000123023986816
 21
23.80000114440918
 31
0.0
  0
LINE
  5
96
330
72
100
AcDbEntity
  8
0
  6
Continuous
 62
     0
100
AcDbLine
 10
-6.999996185302734
 20
30.49999618530273
 30
0.0
 11
-6.999996185302734
 21
23.80000114440918
 31
0.0
  0
LINE
  5
97
330
72
100
AcDbEntity
  8
0
  6
Continuous
 62
     0
100
AcDbLine
 10
25.00015421122386
 20
100.5000610351562
 30
0.0
 11
-24.99985089557384
 21
100.5000610351562
 31
0.0
  0
LINE
  5
98
330
72
100
AcDbEntity
  8
0
  6
Continuous
 62
     0
100
AcDbLine
 10
25.00015421122387
 20
100.5000610351563
 30
0.0
 11
25.9001490601425
 21
49.50000000000001
 31
0.0
  0
LINE
  5
99
330
72
100
AcDbEntity
  8
0
  6
Continuous
 62
     0
100
AcDbLine
 10
25.77662030127079
 20
56.5000114440918
 30
0.0
 11
17.49934921720196
 21
56.5000114440918
 31
0.0
  0
LINE
  5
9A
330
72
100
AcDbEntity
  8
0
  6
Continuous
 62
     0
100
AcDbLine
 10
-24.99985089557385
 20
100.5000610351563
 30
0.0
 11
-25.89984574449248
 21
49.5
 31
0.0
  0
LINE
  5
9B
330
72
100
AcDbEntity
  8
0
  6
Continuous
 62
     0
100
AcDbLine
 10
-25.79982757568359
 20
56.49994659423828
 30
0.0
 11
-17.49922858738984
 21
56.49994659423828
 31
0.0
  0
LINE
  5
9C
330
72
100
AcDbEntity
  8
0
  6
Continuous
 62
     0
100
AcDbLine
 10
16.50065053513774
 20
100.5000610351563
 30
0.0
 11
17.49934921720197
 21
56.5000114440918
 31
0.0
  0
LINE
  5
9D
330
72
100
AcDbEntity
  8
0
  6
Continuous
 62
     0
100
AcDbLine
 10
-16.50052843338494
 20
100.5000610351563
 30
0.0
 11
-17.49922858738985
 21
56.49994659423829
 31
0.0
  0
LINE
  5
9E
330
72
100
AcDbEntity
  8
0
  6
CENTER
 62
     4
100
AcDbLine
 10
-22.00000953674316
 20
61.16119629758628
 30
0.0
 11
-22.00000953674316
 21
56.49996948242188
 31
0.0
  0
LINE
  5
9F
330
72
100
AcDbEntity
  8
0
  6
CENTER
 62
     4
100
AcDbLine
 10
1.999995231628418
 20
96.00005340576172
 30
0.0
 11
-1.999995231628418
 21
96.00005340576172
 31
0.0
  0
LINE
  5
A0
330
72
100
AcDbEntity
  8
0
  6
Continuous
 62
     0
100
AcDbLine
 10
-25.4998950958252
 20
57.49995422363281
 30
0.0
 11
-18.49991607666016
 21
57.49995422363281
 31
0.0
  0
LINE
  5
A1
330
72
100
AcDbEntity
  8
0
  6
Continuous
 62
     0
100
AcDbLine
 10
-18.49991607666016
 20
58.79994964599609
 30
0.0
 11
-18.49991607666016
 21
56.49994659423828
 31
0.0
  0
LINE
  5
A2
330
72
100
AcDbEntity
  8
0
  6
Continuous
 62
     0
100
AcDbLine
 10
-25.4998950958252
 20
58.79994964599609
 30
0.0
 11
-25.4998950958252
 21
56.49994659423828
 31
0.0
  0
LINE
  5
A3
330
72
100
AcDbEntity
  8
0
  6
Continuous
 62
     0
100
AcDbLine
 10
40.0
 20
18.0
 30
0.0
 11
40.0
 21
-22.0
 31
0.0
  0
LINE
  5
A4
330
72
100
AcDbEntity
  8
0
  6
Continuous
 62
     0
100
AcDbLine
 10
-40.0
 20
18.0
 30
0.0
 11
-40.0
 21
-22.0
 31
0.0
  0
LINE
  5
A5
330
72
100
AcDbEntity
  8
0
  6
CENTER
 62
     4
100
AcDbLine
 10
-40.0
 20
0.0
 30
0.0
 11
40.0
 21
0.0
 31
0.0
  0
LINE
  5
A6
330
72
100
AcDbEntity
  8
0
  6
CENTER
 62
     4
100
AcDbLine
 10
28.0
 20
12.0
 30
0.0
 11
28.0
 21
-12.0
 31
0.0
  0
LINE
  5
A7
330
72
100
AcDbEntity
  8
0
  6
CENTER
 62
     4
100
AcDbLine
 10
-28.0
 20
12.0
 30
0.0
 11
-28.0
 21
-12.0
 31
0.0
  0
LINE
  5
A8
330
72
100
AcDbEntity
  8
0
  6
Continuous
 62
     0
100
AcDbLine
 10
-34.5
 20
-10.08712050091601
 30
0.0
 11
-34.5
 21
-21.0
 31
0.0
  0
LINE
  5
A9
330
72
100
AcDbEntity
  8
0
  6
Continuous
 62
     0
100
AcDbLine
 10
-31.99999809265137
 20
-11.31370917333416
 30
0.0
 11
-31.99999809265137
 21
-20.0
 31
0.0
  0
LINE
  5
AA
330
72
100
AcDbEntity
  8
0
  6
Continuous
 62
     0
100
AcDbLine
 10
-34.5
 20
-20.0
 30
0.0
 11
-31.99999809265137
 21
-20.0
 31
0.0
  0
LINE
  5
AB
330
72
100
AcDbEntity
  8
0
  6
Continuous
 62
     0
100
AcDbLine
 10
-47.00000381469727
 20
-21.0
 30
0.0
 11
-34.5
 21
-21.0
 31
0.0
  0
LINE
  5
AC
330
72
100
AcDbEntity
  8
0
  6
Continuous
 62
     0
100
AcDbLine
 10
34.5
 20
-10.08712050091601
 30
0.0
 11
34.5
 21
-21.0
 31
0.0
  0
LINE
  5
AD
330
72
100
AcDbEntity
  8
0
  6
Continuous
 62
     0
100
AcDbLine
 10
32.0
 20
-11.31370849898476
 30
0.0
 11
32.0
 21
-20.0
 31
0.0
  0
LINE
  5
AE
330
72
100
AcDbEntity
  8
0
  6
Continuous
 62
     0
100
AcDbLine
 10
34.5
 20
-20.0
 30
0.0
 11
32.0
 21
-20.0
 31
0.0
  0
LINE
  5
AF
330
72
100
AcDbEntity
  8
0
  6
Continuous
 62
     0
100
AcDbLine
 10
40.0
 20
-21.0
 30
0.0
 11
34.5
 21
-21.0
 31
0.0
  0
LINE
  5
B0
330
72
100
AcDbEntity
  8
0
  6
CENTER
 62
     4
100
AcDbLine
 10
14.0
 20
10.60356637459485
 30
0.0
 11
14.0
 21
-23.66197204589844
 31
0.0
  0
LINE
  5
B1
330
72
100
AcDbEntity
  8
0
  6
CENTER
 62
     4
100
AcDbLine
 10
-14.0
 20
10.88887596130371
 30
0.0
 11
-14.0
 21
-23.29562377929688
 31
0.0
  0
LINE
  5
B2
330
72
100
AcDbEntity
  8
0
  6
Continuous
 62
     0
100
AcDbLine
 10
-8.0
 20
-8.94427190999916
 30
0.0
 11
-8.0
 21
-22.0
 31
0.0
  0
LINE
  5
B3
330
72
100
AcDbEntity
  8
0
  6
Continuous
 62
     0
100
AcDbLine
 10
-20.0
 20
-8.94427190999916
 30
0.0
 11
-20.0
 21
-22.0
 31
0.0
  0
LINE
  5
B4
330
72
100
AcDbEntity
  8
0
  6
Continuous
 62
     0
100
AcDbLine
 10
8.0
 20
-8.94427490234375
 30
0.0
 11
8.0
 21
-22.0
 31
0.0
  0
LINE
  5
B5
330
72
100
AcDbEntity
  8
0
  6
Continuous
 62
     0
100
AcDbLine
 10
20.0
 20
-8.94427190999916
 30
0.0
 11
20.0
 21
-22.0
 31
0.0
  0
LINE
  5
B6
330
72
100
AcDbEntity
  8
0
  6
Continuous
 62
     0
100
AcDbLine
 10
-20.062744140625
 20
9.0
 30
0.0
 11
-7.937252998352051
 21
9.0
 31
0.0
  0
LINE
  5
B7
330
72
100
AcDbEntity
  8
0
  6
Continuous
 62
     0
100
AcDbLine
 10
7.937253952026367
 20
9.0
 30
0.0
 11
20.062744140625
 21
9.0
 31
0.0
  0
LINE
  5
B8
330
72
100
AcDbEntity
  8
0
  6
Continuous
 62
     0
100
AcDbLine
 10
-40.0
 20
12.0
 30
0.0
 11
-34.80000305175781
 21
12.0
 31
0.0
  0
LINE
  5
B9
330
72
100
AcDbEntity
  8
0
  6
Continuous
 62
     0
100
AcDbLine
 10
34.5
 20
12.0
 30
0.0
 11
40.0
 21
12.0
 31
0.0
  0
LINE
  5
BA
330
72
100
AcDbEntity
  8
0
  6
Continuous
 62
     0
100
AcDbLine
 10
34.5
 20
12.0
 30
0.0
 11
34.5
 21
10.08712005615234
 31
0.0
  0
LINE
  5
BB
330
72
100
AcDbEntity
  8
0
  6
Continuous
 62
     0
100
AcDbLine
 10
-34.5
 20
11.69999980926514
 30
0.0
 11
-34.5
 21
10.08712005615234
 31
0.0
  0
LINE
  5
BC
330
72
100
AcDbEntity
  8
0
  6
Continuous
 62
     0
100
AcDbLine
 10
-45.5
 20
18.0
 30
0.0
 11
-26.0
 21
18.0
 31
0.0
  0
LINE
  5
BD
330
72
100
AcDbEntity
  8
0
  6
Continuous
 62
     0
100
AcDbLine
 10
26.0
 20
18.0
 30
0.0
 11
45.5
 21
18.0
 31
0.0
  0
LINE
  5
BE
330
72
100
AcDbEntity
  8
0
  6
CENTER
 62
     4
100
AcDbLine
 10
-67.36370086669922
 20
-4.0
 30
0.0
 11
-40.0
 21
-4.0
 31
0.0
  0
LINE
  5
BF
330
72
100
AcDbEntity
  8
0
  6
Continuous
 62
     0
100
AcDbLine
 10
-65.0
 20
-16.00000381469727
 30
0.0
 11
-52.00000381469727
 21
-16.00000381469727
 31
0.0
  0
LINE
  5
C0
330
72
100
AcDbEntity
  8
0
  6
Continuous
 62
     0
100
AcDbLine
 10
-65.0
 20
7.618952751159668
 30
0.0
 11
-45.5
 21
7.618952751159668
 31
0.0
  0
LINE
  5
C1
330
72
100
AcDbEntity
  8
0
  6
Continuous
 62
     0
100
AcDbLine
 10
-47.00000381469727
 20
-6.910274505615234
 30
0.0
 11
-47.00000381469727
 21
-21.0
 31
0.0
  0
LINE
  5
C2
330
72
100
AcDbEntity
  8
0
  6
Continuous
 62
     0
100
AcDbLine
 10
-65.0
 20
10.00000435318491
 30
0.0
 11
-65.0
 21
-16.00000381469727
 31
0.0
  0
LINE
  5
C3
330
72
100
AcDbEntity
  8
0
  6
CENTER
 62
     4
100
AcDbLine
 10
-53.12219619750977
 20
-16.00000381469727
 30
0.0
 11
-47.00000381469727
 21
-16.00000381469727
 31
0.0
  0
LINE
  5
C4
330
72
100
AcDbEntity
  8
0
  6
Continuous
 62
     0
100
AcDbLine
 10
-65.0
 20
10.00000435318491
 30
0.0
 11
-45.5
 21
16.33593844000735
 31
0.0
  0
LINE
  5
C5
330
72
100
AcDbEntity
  8
0
  6
Continuous
 62
     0
100
AcDbLine
 10
-45.5
 20
18.0
 30
0.0
 11
-45.5
 21
-11.19687843322754
 31
0.0
  0
LINE
  5
C6
330
72
100
AcDbEntity
  8
0
  6
Continuous
 62
     0
100
AcDbLine
 10
-45.5
 20
-11.19687843322754
 30
0.0
 11
-40.0
 21
-11.19687843322754
 31
0.0
  0
LINE
  5
C7
330
72
100
AcDbEntity
  8
0
  6
Continuous
 62
     0
100
AcDbLine
 10
-47.00000381469727
 20
-6.910274505615234
 30
0.0
 11
-45.5
 21
-6.910274505615234
 31
0.0
  0
LINE
  5
C8
330
72
100
AcDbEntity
  8
0
  6
Continuous
 62
     0
100
AcDbLine
 10
-45.5
 20
12.39359664916992
 30
0.0
 11
-40.0
 21
12.39359664916992
 31
0.0
  0
LINE
  5
C9
330
72
100
AcDbEntity
  8
0
  6
Continuous
 62
     0
100
AcDbLine
 10
47.0
 20
-21.00000381469727
 30
0.0
 11
40.0
 21
-21.00000381469727
 31
0.0
  0
LINE
  5
CA
330
72
100
AcDbEntity
  8
0
  6
Continuous
 62
     0
100
AcDbLine
 10
47.0
 20
-8.930177688598633
 30
0.0
 11
47.0
 21
-21.00000381469727
 31
0.0
  0
LINE
  5
CB
330
72
100
AcDbEntity
  8
0
  6
Continuous
 62
     0
100
AcDbLine
 10
65.0
 20
13.9999968898638
 30
0.0
 11
65.0
 21
-19.0
 31
0.0
  0
LINE
  5
CC
330
72
100
AcDbEntity
  8
0
  6
Continuous
 62
     0
100
AcDbLine
 10
65.0
 20
-19.0
 30
0.0
 11
50.9204103898693
 21
-19.0
 31
0.0
  0
LINE
  5
CD
330
72
100
AcDbEntity
  8
0
  6
Continuous
 62
     0
100
AcDbLine
 10
45.50000000000001
 20
17.08849363118269
 30
0.0
 11
65.00000000000001
 21
13.9999968898638
 31
0.0
  0
LINE
  5
CE
330
72
100
AcDbEntity
  8
0
  6
Continuous
 62
     0
100
AcDbLine
 10
45.5
 20
18.0
 30
0.0
 11
45.5
 21
-11.19687843322754
 31
0.0
  0
LINE
  5
CF
330
72
100
AcDbEntity
  8
0
  6
Continuous
 62
     0
100
AcDbLine
 10
45.5
 20
-8.930177688598633
 30
0.0
 11
47.0
 21
-8.930177688598633
 31
0.0
  0
LINE
  5
D0
330
72
100
AcDbEntity
  8
0
  6
Continuous
 62
     0
100
AcDbLine
 10
40.0
 20
12.39359855651855
 30
0.0
 11
45.5
 21
12.39359855651855
 31
0.0
  0
LINE
  5
D1
330
72
100
AcDbEntity
  8
0
  6
Continuous
 62
     0
100
AcDbLine
 10
45.5
 20
10.69693851470947
 30
0.0
 11
65.0
 21
10.69693851470947
 31
0.0
  0
LINE
  5
D2
330
72
100
AcDbEntity
  8
0
  6
Continuous
 62
     0
100
AcDbLine
 10
48.30000305175781
 20
-11.39597702026367
 30
0.0
 11
65.0
 21
-11.39597702026367
 31
0.0
  0
LINE
  5
D3
330
72
100
AcDbEntity
  8
0
  6
Continuous
 62
     0
100
AcDbLine
 10
51.54263208036295
 20
-15.10808944702148
 30
0.0
 11
65.0
 21
-15.10808944702148
 31
0.0
  0
LINE
  5
D4
330
72
100
AcDbEntity
  8
0
  6
Continuous
 62
     0
100
AcDbLine
 10
40.0
 20
-11.19687843322754
 30
0.0
 11
45.5
 21
-11.19687843322754
 31
0.0
  0
LINE
  5
D5
330
72
100
AcDbEntity
  8
0
  6
Continuous
 62
     0
100
AcDbLine
 10
48.30000305175781
 20
-11.40000152587891
 30
0.0
 11
47.0
 21
-11.40000152587891
 31
0.0
  0
LINE
  5
D6
330
72
100
AcDbEntity
  8
0
  6
Continuous
 62
     0
100
AcDbLine
 10
-48.30000686645508
 20
-20.50000381469727
 30
0.0
 11
-48.30000686645508
 21
-11.50000381469727
 31
0.0
  0
LINE
  5
D7
330
72
100
AcDbEntity
  8
0
  6
Continuous
 62
     0
100
AcDbLine
 10
-49.95000648498534
 20
-20.50000381469727
 30
0.0
 11
-47.00000381469727
 21
-20.50000381469727
 31
0.0
  0
LINE
  5
D8
330
72
100
AcDbEntity
  8
0
  6
Continuous
 62
     0
100
AcDbLine
 10
-49.95000648498534
 20
-11.50000381469727
 30
0.0
 11
-47.00000381469727
 21
-11.50000381469727
 31
0.0
  0
LINE
  5
D9
330
72
100
AcDbEntity
  8
0
  6
Continuous
 62
     0
100
AcDbLine
 10
-100.0
 20
49.5
 30
0.0
 11
-100.0
 21
21.49999809265137
 31
0.0
  0
LINE
  5
DA
330
72
100
AcDbEntity
  8
0
  6
Continuous
 62
     0
100
AcDbLine
 10
-78.0
 20
52.5
 30
0.0
 11
-78.0
 21
21.49999809265137
 31
0.0
  0
LINE
  5
DB
330
72
100
AcDbEntity
  8
0
  6
Continuous
 62
     0
100
AcDbLine
 10
-32.00000381469727
 20
52.5
 30
0.0
 11
-32.00000381469727
 21
21.49999809265137
 31
0.0
  0
LINE
  5
DC
330
72
100
AcDbEntity
  8
0
  6
Continuous
 62
     0
100
AcDbLine
 10
-100.0
 20
21.49999809265137
 30
0.0
 11
-32.00000381469727
 21
21.49999809265137
 31
0.0
  0
LINE
  5
DD
330
72
100
AcDbEntity
  8
0
  6
Continuous
 62
     0
100
AcDbLine
 10
-100.0
 20
49.5
 30
0.0
 11
-32.00000381469727
 21
49.5
 31
0.0
  0
LINE
  5
DE
330
72
100
AcDbEntity
  8
0
  6
Continuous
 62
     0
100
AcDbLine
 10
-78.0
 20
50.5
 30
0.0
 11
-32.00000381469727
 21
50.5
 31
0.0
  0
LINE
  5
DF
330
72
100
AcDbEntity
  8
0
  6
Continuous
 62
     0
100
AcDbLine
 10
-75.99999536665311
 20
58.5
 30
0.0
 11
-33.99999953567033
 21
58.5
 31
0.0
  0
LINE
  5
E0
330
72
100
AcDbEntity
  8
0
  6
Continuous
 62
     0
100
AcDbLine
 10
-78.0
 20
52.5
 30
0.0
 11
-32.00000381469727
 21
52.5
 31
0.0
  0
LINE
  5
E1
330
72
100
AcDbEntity
  8
0
  6
Continuous
 62
     0
100
AcDbLine
 10
-67.99999280628867
 20
52.49999797656922
 30
0.0
 11
-66.99999240862337
 21
58.5
 31
0.0
  0
LINE
  5
E2
330
72
100
AcDbEntity
  8
0
  6
Continuous
 62
     0
100
AcDbLine
 10
-41.99999836263743
 20
52.49999878008266
 30
0.0
 11
-42.99999862638381
 21
58.5
 31
0.0
  0
LINE
  5
E3
330
72
100
AcDbEntity
  8
0
  6
CENTER
 62
     4
100
AcDbLine
 10
-55.00000381469727
 20
60.06224060058594
 30
0.0
 11
-55.00000381469727
 21
19.79882049560547
 31
0.0
  0
LINE
  5
E4
330
72
100
AcDbEntity
  8
0
  6
Continuous
 62
     0
100
AcDbLine
 10
-76.99999574961998
 20
52.49999806475974
 30
0.0
 11
-75.9999953666531
 21
58.5
 31
0.0
  0
LINE
  5
E5
330
72
100
AcDbEntity
  8
0
  6
Continuous
 62
     0
100
AcDbLine
 10
-32.99999918210029
 20
52.49999824114077
 30
0.0
 11
-33.99999953567033
 21
58.5
 31
0.0
  0
LINE
  5
E6
330
72
100
AcDbEntity
  8
0
  6
Continuous
 62
     0
100
AcDbLine
 10
-75.5
 20
53.5
 30
0.0
 11
-68.5
 21
53.5
 31
0.0
  0
LINE
  5
E7
330
72
100
AcDbEntity
  8
0
  6
Continuous
 62
     0
100
AcDbLine
 10
-68.5
 20
54.79999923706055
 30
0.0
 11
-68.5
 21
52.5
 31
0.0
  0
LINE
  5
E8
330
72
100
AcDbEntity
  8
0
  6
Continuous
 62
     0
100
AcDbLine
 10
-75.5
 20
54.79999923706055
 30
0.0
 11
-75.5
 21
52.5
 31
0.0
  0
LINE
  5
E9
330
72
100
AcDbEntity
  8
0
  6
Continuous
 62
     0
100
AcDbLine
 10
-69.0
 20
44.5
 30
0.0
 11
-69.0
 21
21.49999809265137
 31
0.0
  0
LINE
  5
EA
330
72
100
AcDbEntity
  8
0
  6
Continuous
 62
     0
100
AcDbLine
 10
-41.00000381469727
 20
44.5
 30
0.0
 11
-41.00000381469727
 21
21.49999809265137
 31
0.0
  0
LINE
  5
EB
330
72
100
AcDbEntity
  8
0
  6
Continuous
 62
     0
100
AcDbLine
 10
-77.0
 20
44.5
 30
0.0
 11
-77.0
 21
44.5
 31
0.0
  0
LINE
  5
EC
330
72
100
AcDbEntity
  8
0
  6
Continuous
 62
     0
100
AcDbLine
 10
-33.00000381469727
 20
44.5
 30
0.0
 11
-33.00000381469727
 21
44.5
 31
0.0
  0
LINE
  5
ED
330
72
100
AcDbEntity
  8
0
  6
Continuous
 62
     0
100
AcDbLine
 10
-76.0
 20
44.5
 30
0.0
 11
-76.0
 21
33.5
 31
0.0
  0
LINE
  5
EE
330
72
100
AcDbEntity
  8
0
  6
Continuous
 62
     0
100
AcDbLine
 10
-34.00000381469727
 20
44.5
 30
0.0
 11
-34.00000381469727
 21
33.5
 31
0.0
  0
LINE
  5
EF
330
72
100
AcDbEntity
  8
0
  6
Continuous
 62
     0
100
AcDbLine
 10
-76.0
 20
33.5
 30
0.0
 11
-69.0
 21
33.5
 31
0.0
  0
LINE
  5
F0
330
72
100
AcDbEntity
  8
0
  6
Continuous
 62
     0
100
AcDbLine
 10
-41.00000381469727
 20
33.5
 30
0.0
 11
-34.00000381469727
 21
33.5
 31
0.0
  0
LINE
  5
F1
330
72
100
AcDbEntity
  8
0
  6
Continuous
 62
     0
100
AcDbLine
 10
-78.0
 20
44.5
 30
0.0
 11
-32.00000381469727
 21
44.5
 31
0.0
  0
LINE
  5
F2
330
72
100
AcDbEntity
  8
0
  6
CENTER
 62
     4
100
AcDbLine
 10
39.3137092590332
 20
-4.0
 30
0.0
 11
68.65038299560547
 21
-4.0
 31
0.0
  0
LINE
  5
F3
330
72
100
AcDbEntity
  8
0
  6
DASHED
 62
     0
100
AcDbLine
 10
-100.0
 20
24.99999809265137
 30
0.0
 11
-89.0
 21
24.99999809265137
 31
0.0
  0
LINE
  5
F4
330
72
100
AcDbEntity
  8
0
  6
DASHED
 62
     0
100
AcDbLine
 10
-100.0
 20
46.0
 30
0.0
 11
-89.0
 21
46.0
 31
0.0
  0
LINE
  5
F5
330
72
100
AcDbEntity
  8
0
  6
Continuous
 62
     0
100
AcDbLine
 10
-32.00000381469727
 20
46.0
 30
0.0
 11
-29.0000057220459
 21
46.0
 31
0.0
  0
LINE
  5
F6
330
72
100
AcDbEntity
  8
0
  6
Continuous
 62
     0
100
AcDbLine
 10
-32.00000381469727
 20
24.99999809265137
 30
0.0
 11
-29.0000057220459
 21
24.99999809265137
 31
0.0
  0
LINE
  5
F7
330
72
100
AcDbEntity
  8
0
  6
DASHED
 62
     0
100
AcDbLine
 10
-100.0
 20
26.19999694824219
 30
0.0
 11
-89.0
 21
26.19999694824219
 31
0.0
  0
LINE
  5
F8
330
72
100
AcDbEntity
  8
0
  6
DASHED
 62
     0
100
AcDbLine
 10
-100.0
 20
44.79999542236328
 30
0.0
 11
-89.0
 21
44.79999542236328
 31
0.0
  0
LINE
  5
F9
330
72
100
AcDbEntity
  8
0
  6
CENTER
 62
     4
100
AcDbLine
 10
-72.0
 20
57.00206605176608
 30
0.0
 11
-72.0
 21
52.5
 31
0.0
  0
LINE
  5
FA
330
72
100
AcDbEntity
  8
0
  6
DASHED
 62
     0
100
AcDbLine
 10
-16.75
 20
9.0
 30
0.0
 11
-16.75
 21
-22.0
 31
0.0
  0
LINE
  5
FB
330
72
100
AcDbEntity
  8
0
  6
DASHED
 62
     0
100
AcDbLine
 10
-11.25
 20
9.0
 30
0.0
 11
-11.25
 21
-22.0
 31
0.0
  0
LINE
  5
FC
330
72
100
AcDbEntity
  8
0
  6
DASHED
 62
     0
100
AcDbLine
 10
11.25
 20
9.0
 30
0.0
 11
11.25
 21
-22.0
 31
0.0
  0
LINE
  5
FD
330
72
100
AcDbEntity
  8
0
  6
DASHED
 62
     0
100
AcDbLine
 10
16.75
 20
9.0
 30
0.0
 11
16.75
 21
-22.0
 31
0.0
  0
LINE
  5
FE
330
72
100
AcDbEntity
  8
0
  6
Continuous
 62
     0
100
AcDbLine
 10
-31.07847554413704
 20
45.99999924910557
 30
0.0
 11
-29.00000665568122
 21
44.79999465531537
 31
0.0
  0
LINE
  5
FF
330
72
100
AcDbEntity
  8
0
  6
Continuous
 62
     0
100
AcDbLine
 10
-31.07846426648176
 20
24.999997427817
 30
0.0
 11
-29.00000528890012
 21
26.19999629956121
 31
0.0
  0
LINE
  5
100
330
72
100
AcDbEntity
  8
0
  6
CENTER
 62
     4
100
AcDbLine
 10
22.00000953674316
 20
61.16119629758628
 30
0.0
 11
22.00000953674316
 21
56.49996948242188
 31
0.0
  0
LINE
  5
101
330
72
100
AcDbEntity
  8
0
  6
Continuous
 62
     0
100
AcDbLine
 10
25.4998950958252
 20
57.49995422363281
 30
0.0
 11
18.49991607666016
 21
57.49995422363281
 31
0.0
  0
LINE
  5
102
330
72
100
AcDbEntity
  8
0
  6
Continuous
 62
     0
100
AcDbLine
 10
18.49991607666016
 20
58.79994964599609
 30
0.0
 11
18.49991607666016
 21
56.49994659423828
 31
0.0
  0
LINE
  5
103
330
72
100
AcDbEntity
  8
0
  6
Continuous
 62
     0
100
AcDbLine
 10
25.4998950958252
 20
58.79994964599609
 30
0.0
 11
25.4998950958252
 21
56.49994659423828
 31
0.0
  0
LINE
  5
104
330
72
100
AcDbEntity
  8
0
  6
Continuous
 62
     0
100
AcDbLine
 10
-34.50000762939453
 20
53.5
 30
0.0
 11
-41.50000762939453
 21
53.5
 31
0.0
  0
LINE
  5
105
330
72
100
AcDbEntity
  8
0
  6
Continuous
 62
     0
100
AcDbLine
 10
-41.50000762939453
 20
54.79999923706055
 30
0.0
 11
-41.50000762939453
 21
52.5
 31
0.0
  0
LINE
  5
106
330
72
100
AcDbEntity
  8
0
  6
Continuous
 62
     0
100
AcDbLine
 10
-34.50000762939453
 20
54.79999923706055
 30
0.0
 11
-34.50000762939453
 21
52.5
 31
0.0
  0
LINE
  5
107
330
72
100
AcDbEntity
  8
0
  6
CENTER
 62
     4
100
AcDbLine
 10
-38.00000762939453
 20
57.00206605176608
 30
0.0
 11
-38.00000762939453
 21
52.5
 31
0.0
  0
LINE
  5
108
330
72
100
AcDbEntity
  8
0
  6
CENTER
 62
     4
100
AcDbLine
 10
53.12219619750977
 20
-16.00000381469727
 30
0.0
 11
47.00000381469727
 21
-16.00000381469727
 31
0.0
  0
LINE
  5
109
330
72
100
AcDbEntity
  8
0
  6
Continuous
 62
     0
100
AcDbLine
 10
48.30000686645508
 20
-20.50000381469727
 30
0.0
 11
48.30000686645508
 21
-11.50000381469727
 31
0.0
  0
LINE
  5
10A
330
72
100
AcDbEntity
  8
0
  6
Continuous
 62
     0
100
AcDbLine
 10
49.95000648498534
 20
-20.50000381469727
 30
0.0
 11
47.00000381469727
 21
-20.50000381469727
 31
0.0
  0
LINE
  5
10B
330
72
100
AcDbEntity
  8
0
  6
Continuous
 62
     0
100
AcDbLine
 10
49.95000648498534
 20
-11.50000381469727
 30
0.0
 11
47.00000381469727
 21
-11.50000381469727
 31
0.0
  0
ARC
  5
10C
330
72
100
AcDbEntity
  8
0
  6
Continuous
 62
     0
100
AcDbCircle
 10
0.0
 20
30.49999618530273
 30
0.0
 40
7.000005722045898
100
AcDbArc
 50
359.9999813306647
 51
180.0000050089563
  0
CIRCLE
  5
10D
330
72
100
AcDbEntity
  8
0
  6
Continuous
 62
     0
100
AcDbCircle
 10
0.0
 20
96.00005340576172
 30
0.0
 40
1.0
  0
CIRCLE
  5
10E
330
72
100
AcDbEntity
  8
0
  6
Continuous
 62
     0
100
AcDbCircle
 10
0.0
 20
30.49999618530273
 30
0.0
 40
5.0
  0
CIRCLE
  5
10F
330
72
100
AcDbEntity
  8
0
  6
Continuous
 62
     0
100
AcDbCircle
 10
0.0
 20
0.0
 30
0.0
 40
12.0
  0
CIRCLE
  5
110
330
72
100
AcDbEntity
  8
0
  6
Continuous
 62
     0
100
AcDbCircle
 10
-28.0
 20
0.0
 30
0.0
 40
12.0
  0
CIRCLE
  5
111
330
72
100
AcDbEntity
  8
0
  6
Continuous
 62
     0
100
AcDbCircle
 10
28.0
 20
0.0
 30
0.0
 40
12.0
  0
ARC
  5
112
330
72
100
AcDbEntity
  8
0
  6
Continuous
 62
     0
100
AcDbCircle
 10
-34.80000305175781
 20
11.69999980926514
 30
0.0
 40
0.300000011920929
100
AcDbArc
 50
0.0
 51
89.99998201391067
  0
CIRCLE
  5
113
330
72
100
AcDbEntity
  8
0
  6
Continuous
 62
     0
100
AcDbCircle
 10
-28.0
 20
0.0
 30
0.0
 40
6.75
  0
CIRCLE
  5
114
330
72
100
AcDbEntity
  8
0
  6
Continuous
 62
     0
100
AcDbCircle
 10
0.0
 20
0.0
 30
0.0
 40
6.75
  0
CIRCLE
  5
115
330
72
100
AcDbEntity
  8
0
  6
Continuous
 62
     0
100
AcDbCircle
 10
28.0
 20
0.0
 30
0.0
 40
6.75
  0
CIRCLE
  5
116
330
72
100
AcDbEntity
  8
0
  6
Continuous
 62
     0
100
AcDbCircle
 10
28.0
 20
0.0
 30
0.0
 40
5.849999904632568
  0
CIRCLE
  5
117
330
72
100
AcDbEntity
  8
0
  6
Continuous
 62
     0
100
AcDbCircle
 10
0.0
 20
0.0
 30
0.0
 40
5.849999904632568
  0
CIRCLE
  5
118
330
72
100
AcDbEntity
  8
0
  6
Continuous
 62
     0
100
AcDbCircle
 10
-28.0
 20
0.0
 30
0.0
 40
5.849999904632568
  0
ARC
  5
119
330
72
100
AcDbEntity
  8
0
  6
Continuous
 62
     0
100
AcDbCircle
 10
-21.99990558624268
 20
54.73842055267843
 30
0.0
 40
5.361524516688649
100
AcDbArc
 50
49.24714914221529
 51
130.7528508577847
  0
ARC
  5
11A
330
72
100
AcDbEntity
  8
0
  6
Continuous
 62
     0
100
AcDbCircle
 10
21.99990558624268
 20
54.73842055267843
 30
0.0
 40
5.361524516688649
100
AcDbArc
 50
49.24714914221533
 51
130.7528508577848
  0
ARC
  5
11B
330
72
100
AcDbEntity
  8
0
  6
Continuous
 62
     0
100
AcDbCircle
 10
-72.0
 20
50.73845762895952
 30
0.0
 40
5.361540845161571
100
AcDbArc
 50
49.24715152300847
 51
130.7528484769915
  0
ARC
  5
11C
330
72
100
AcDbEntity
  8
0
  6
Continuous
 62
     0
100
AcDbCircle
 10
-38.00000762939453
 20
50.73845762895952
 30
0.0
 40
5.361540845161571
100
AcDbArc
 50
49.24715152300853
 51
130.7528484769916
  0
ARC
  5
11D
330
72
100
AcDbEntity
  8
0
  6
Continuous
 62
     0
100
AcDbCircle
 10
-44.63864123919745
 20
-16.00000381469727
 30
0.0
 40
6.961364864318166
100
AcDbArc
 50
139.7274017063268
 51
220.2725982936732
  0
ARC
  5
11E
330
72
100
AcDbEntity
  8
0
  6
Continuous
 62
     0
100
AcDbCircle
 10
44.63864123919745
 20
-16.00000381469727
 30
0.0
 40
6.961364864318166
100
AcDbArc
 50
319.7274017063269
 51
40.27259829367321
  0
MTEXT
  5
11F
330
72
100
AcDbEntity
  8
0
 62
     0
100
AcDbMText
 10
-16.99285663217306
 20
45.59999847412109
 30
0.0
 40
0.5
 41
0.0
 71
     7
 72
     1
  1
{\W0.833333;BN-7M43-8-G/H***}
 73
     1
 44
1.0
  0
MTEXT
  5
120
330
72
100
AcDbEntity
  8
0
 62
     0
100
AcDbMText
 10
-30.42303041833587
 20
-18.75716268107669
 30
0.0
 40
4.0
 41
0.0
 71
     7
 72
     1
  1
{\W1;E1}
 73
     1
 44
1.0
  0
MTEXT
  5
121
330
72
100
AcDbEntity
  8
0
 62
     0
100
AcDbMText
 10
-1.683078257543072
 20
-18.75716268107669
 30
0.0
 40
4.0
 41
0.0
 71
     7
 72
     1
  1
{\W1;IN}
 73
     1
 44
1.0
  0
MTEXT
  5
122
330
72
100
AcDbEntity
  8
0
 62
     0
100
AcDbMText
 10
25.92665106546574
 20
-18.67643247837783
 30
0.0
 40
4.0
 41
0.0
 71
     7
 72
     1
  1
{\W1;E2}
 73
     1
 44
1.0
  0
ENDBLK
  5
74
330
72
100
AcDbEntity
  8
0
100
AcDbBlockEnd
  0
BLOCK
  5
76
330
75
100
AcDbEntity
  8
0
100
AcDbBlockBegin
  2
DTL0002
 70
     0
 10
0.0
 20
0.0
 30
0.0
  3
DTL0002
  1

  0
POINT
  5
123
330
75
100
AcDbEntity
  8
0
 62
     0
100
AcDbPoint
 10
0.0
 20
0.0
 30
0.0
  0
LINE
  5
124
330
75
100
AcDbEntity
  8
0
  6
CENTER
 62
     4
100
AcDbLine
 10
0.0
 20
34.85031127929688
 30
0.0
 11
0.0
 21
-35.907958984375
 31
0.0
  0
LINE
  5
125
330
75
100
AcDbEntity
  8
0
  6
CENTER
 62
     4
100
AcDbLine
 10
-103.0722503662109
 20
0.0
 30
0.0
 11
68.51152038574219
 21
0.0
 31
0.0
  0
LINE
  5
126
330
75
100
AcDbEntity
  8
0
  6
Continuous
 62
     0
100
AcDbLine
 10
40.0
 20
20.0
 30
0.0
 11
40.0
 21
-32.5
 31
0.0
  0
LINE
  5
127
330
75
100
AcDbEntity
  8
0
  6
Continuous
 62
     0
100
AcDbLine
 10
-40.0
 20
-32.5
 30
0.0
 11
-16.0
 21
-32.5
 31
0.0
  0
LINE
  5
128
330
75
100
AcDbEntity
  8
0
  6
Continuous
 62
     0
100
AcDbLine
 10
-26.0
 20
32.5
 30
0.0
 11
-2.0
 21
32.5
 31
0.0
  0
LINE
  5
129
330
75
100
AcDbEntity
  8
0
  6
Continuous
 62
     0
100
AcDbLine
 10
-24.0
 20
-21.0
 30
0.0
 11
-21.0
 21
-21.0
 31
0.0
  0
LINE
  5
12A
330
75
100
AcDbEntity
  8
0
  6
Continuous
 62
     0
100
AcDbLine
 10
-26.0
 20
32.5
 30
0.0
 11
-26.0
 21
-21.00001525878906
 31
0.0
  0
LINE
  5
12B
330
75
100
AcDbEntity
  8
0
  6
Continuous
 62
     0
100
AcDbLine
 10
26.0
 20
32.5
 30
0.0
 11
26.0
 21
-21.00001525878906
 31
0.0
  0
LINE
  5
12C
330
75
100
AcDbEntity
  8
0
  6
CENTER
 62
     4
100
AcDbLine
 10
14.0
 20
-23.25
 30
0.0
 11
14.0
 21
-31.75
 31
0.0
  0
LINE
  5
12D
330
75
100
AcDbEntity
  8
0
  6
CENTER
 62
     4
100
AcDbLine
 10
-14.0
 20
-23.25
 30
0.0
 11
-14.0
 21
-31.7343635559082
 31
0.0
  0
LINE
  5
12E
330
75
100
AcDbEntity
  8
0
  6
CENTER
 62
     4
100
AcDbLine
 10
-18.25
 20
-27.5
 30
0.0
 11
-9.75
 21
-27.5
 31
0.0
  0
LINE
  5
12F
330
75
100
AcDbEntity
  8
0
  6
Continuous
 62
     0
100
AcDbLine
 10
-19.0
 20
-21.00001525878906
 30
0.0
 11
-19.0
 21
-27.5
 31
0.0
  0
LINE
  5
130
330
75
100
AcDbEntity
  8
0
  6
Continuous
 62
     0
100
AcDbLine
 10
-9.0
 20
-21.00001525878906
 30
0.0
 11
-9.0
 21
-27.5
 31
0.0
  0
LINE
  5
131
330
75
100
AcDbEntity
  8
0
  6
Continuous
 62
     0
100
AcDbLine
 10
9.0
 20
-21.00001525878906
 30
0.0
 11
9.0
 21
-27.5
 31
0.0
  0
LINE
  5
132
330
75
100
AcDbEntity
  8
0
  6
Continuous
 62
     0
100
AcDbLine
 10
19.0
 20
-21.00001525878906
 30
0.0
 11
19.0
 21
-27.5
 31
0.0
  0
LINE
  5
133
330
75
100
AcDbEntity
  8
0
  6
CENTER
 62
     4
100
AcDbLine
 10
9.75
 20
-27.5
 30
0.0
 11
18.25
 21
-27.5
 31
0.0
  0
LINE
  5
134
330
75
100
AcDbEntity
  8
0
  6
CENTER
 62
     4
100
AcDbLine
 10
-28.0
 20
-27.5
 30
0.0
 11
-28.0
 21
-34.03265485285527
 31
0.0
  0
LINE
  5
135
330
75
100
AcDbEntity
  8
0
  6
CENTER
 62
     4
100
AcDbLine
 10
28.0
 20
-27.5
 30
0.0
 11
28.0
 21
-34.1604828340036
 31
0.0
  0
LINE
  5
136
330
75
100
AcDbEntity
  8
0
  6
Continuous
 62
     0
100
AcDbLine
 10
-12.0
 20
-32.5
 30
0.0
 11
12.0
 21
-32.5
 31
0.0
  0
LINE
  5
137
330
75
100
AcDbEntity
  8
0
  6
Continuous
 62
     0
100
AcDbLine
 10
16.0
 20
-32.5
 30
0.0
 11
40.0
 21
-32.5
 31
0.0
  0
LINE
  5
138
330
75
100
AcDbEntity
  8
0
  6
CENTER
 62
     4
100
AcDbLine
 10
-14.0
 20
33.74289950012204
 30
0.0
 11
-14.0
 21
27.5
 31
0.0
  0
LINE
  5
139
330
75
100
AcDbEntity
  8
0
  6
Continuous
 62
     0
100
AcDbLine
 10
34.5
 20
20.0
 30
0.0
 11
34.5
 21
4.0
 31
0.0
  0
LINE
  5
13A
330
75
100
AcDbEntity
  8
0
  6
Continuous
 62
     0
100
AcDbLine
 10
32.0
 20
18.0
 30
0.0
 11
32.0
 21
5.0
 31
0.0
  0
LINE
  5
13B
330
75
100
AcDbEntity
  8
0
  6
Continuous
 62
     0
100
AcDbLine
 10
32.0
 20
18.0
 30
0.0
 11
34.5
 21
18.0
 31
0.0
  0
LINE
  5
13C
330
75
100
AcDbEntity
  8
0
  6
Continuous
 62
     0
100
AcDbLine
 10
27.0
 20
5.0
 30
0.0
 11
34.5
 21
5.0
 31
0.0
  0
LINE
  5
13D
330
75
100
AcDbEntity
  8
0
  6
Continuous
 62
     0
100
AcDbLine
 10
27.00003051757812
 20
-5.0
 30
0.0
 11
34.5
 21
-5.0
 31
0.0
  0
LINE
  5
13E
330
75
100
AcDbEntity
  8
0
  6
Continuous
 62
     0
100
AcDbLine
 10
34.5
 20
-4.0
 30
0.0
 11
45.5
 21
-4.0
 31
0.0
  0
LINE
  5
13F
330
75
100
AcDbEntity
  8
0
  6
Continuous
 62
     0
100
AcDbLine
 10
34.5
 20
4.0
 30
0.0
 11
45.5
 21
4.0
 31
0.0
  0
LINE
  5
140
330
75
100
AcDbEntity
  8
0
  6
Continuous
 62
     0
100
AcDbLine
 10
26.0
 20
15.0
 30
0.0
 11
32.0
 21
15.0
 31
0.0
  0
LINE
  5
141
330
75
100
AcDbEntity
  8
0
  6
Continuous
 62
     0
100
AcDbLine
 10
34.5
 20
-4.0
 30
0.0
 11
34.5
 21
-6.0
 31
0.0
  0
LINE
  5
142
330
75
100
AcDbEntity
  8
0
  6
Continuous
 62
     0
100
AcDbLine
 10
34.49999192330169
 20
-5.999985800473215
 30
0.0
 11
39.99999802831152
 21
-16.99999801049287
 31
0.0
  0
LINE
  5
143
330
75
100
AcDbEntity
  8
0
  6
Continuous
 62
     0
100
AcDbLine
 10
-40.0
 20
-23.0
 30
0.0
 11
-40.0
 21
-32.5
 31
0.0
  0
LINE
  5
144
330
75
100
AcDbEntity
  8
0
  6
Continuous
 62
     0
100
AcDbLine
 10
-25.99996948242188
 20
15.0
 30
0.0
 11
-32.00006103515625
 21
15.0
 31
0.0
  0
LINE
  5
145
330
75
100
AcDbEntity
  8
0
  6
Continuous
 62
     0
100
AcDbLine
 10
65.0
 20
15.0
 30
0.0
 11
65.0
 21
-15.0
 31
0.0
  0
LINE
  5
146
330
75
100
AcDbEntity
  8
0
  6
Continuous
 62
     0
100
AcDbLine
 10
47.0
 20
20.0
 30
0.0
 11
47.0
 21
10.0
 31
0.0
  0
LINE
  5
147
330
75
100
AcDbEntity
  8
0
  6
Continuous
 62
     0
100
AcDbLine
 10
45.5
 20
15.0
 30
0.0
 11
45.5
 21
-17.0
 31
0.0
  0
LINE
  5
148
330
75
100
AcDbEntity
  8
0
  6
Continuous
 62
     0
100
AcDbLine
 10
40.0
 20
-20.0
 30
0.0
 11
47.0
 21
-20.0
 31
0.0
  0
LINE
  5
149
330
75
100
AcDbEntity
  8
0
  6
Continuous
 62
     0
100
AcDbLine
 10
34.5
 20
20.0
 30
0.0
 11
47.0
 21
20.0
 31
0.0
  0
LINE
  5
14A
330
75
100
AcDbEntity
  8
0
  6
Continuous
 62
     0
100
AcDbLine
 10
45.5
 20
10.0
 30
0.0
 11
47.0
 21
10.0
 31
0.0
  0
LINE
  5
14B
330
75
100
AcDbEntity
  8
0
  6
Continuous
 62
     0
100
AcDbLine
 10
51.60000228881835
 20
15.0
 30
0.0
 11
65.0
 21
15.0
 31
0.0
  0
LINE
  5
14C
330
75
100
AcDbEntity
  8
0
  6
Continuous
 62
     0
100
AcDbLine
 10
40.0
 20
-17.0
 30
0.0
 11
45.5
 21
-17.0
 31
0.0
  0
LINE
  5
14D
330
75
100
AcDbEntity
  8
0
  6
Continuous
 62
     0
100
AcDbLine
 10
45.5
 20
-15.0
 30
0.0
 11
65.0
 21
-15.0
 31
0.0
  0
LINE
  5
14E
330
75
100
AcDbEntity
  8
0
  6
Continuous
 62
     0
100
AcDbLine
 10
45.5
 20
-3.0
 30
0.0
 11
65.0
 21
-3.0
 31
0.0
  0
LINE
  5
14F
330
75
100
AcDbEntity
  8
0
  6
Continuous
 62
     0
100
AcDbLine
 10
45.5
 20
3.0
 30
0.0
 11
65.0
 21
3.0
 31
0.0
  0
LINE
  5
150
330
75
100
AcDbEntity
  8
0
  6
Continuous
 62
     0
100
AcDbLine
 10
47.0
 20
-20.0
 30
0.0
 11
47.0
 21
-15.0
 31
0.0
  0
LINE
  5
151
330
75
100
AcDbEntity
  8
0
  6
Continuous
 62
     0
100
AcDbLine
 10
48.30000305175781
 20
19.5
 30
0.0
 11
48.30000305175781
 21
10.5
 31
0.0
  0
LINE
  5
152
330
75
100
AcDbEntity
  8
0
  6
CENTER
 62
     4
100
AcDbLine
 10
52.54588637127846
 20
15.0
 30
0.0
 11
47.0
 21
15.0
 31
0.0
  0
LINE
  5
153
330
75
100
AcDbEntity
  8
0
  6
Continuous
 62
     0
100
AcDbLine
 10
47.0
 20
10.39999389648438
 30
0.0
 11
47.0
 21
19.60000610351562
 31
0.0
  0
LINE
  5
154
330
75
100
AcDbEntity
  8
0
  6
Continuous
 62
     0
100
AcDbLine
 10
45.5
 20
7.776199340820312
 30
0.0
 11
65.0
 21
7.776199340820312
 31
0.0
  0
LINE
  5
155
330
75
100
AcDbEntity
  8
0
  6
Continuous
 62
     0
100
AcDbLine
 10
50.17218138526139
 20
10.77619934082031
 30
0.0
 11
65.0
 21
10.77619934082031
 31
0.0
  0
LINE
  5
156
330
75
100
AcDbEntity
  8
0
  6
Continuous
 62
     0
100
AcDbLine
 10
-28.99993896484375
 20
13.49998474121094
 30
0.0
 11
-28.99993896484375
 21
-13.50003051757812
 31
0.0
  0
LINE
  5
157
330
75
100
AcDbEntity
  8
0
  6
Continuous
 62
     0
100
AcDbLine
 10
-28.99993896484375
 20
-13.50003051757812
 30
0.0
 11
-25.99996948242188
 21
-13.50003051757812
 31
0.0
  0
LINE
  5
158
330
75
100
AcDbEntity
  8
0
  6
Continuous
 62
     0
100
AcDbLine
 10
-28.99993896484375
 20
13.49998474121094
 30
0.0
 11
-25.99996948242188
 21
13.49998474121094
 31
0.0
  0
LINE
  5
159
330
75
100
AcDbEntity
  8
0
  6
Continuous
 62
     0
100
AcDbLine
 10
3.399887084960938
 20
-22.75003051757812
 30
0.0
 11
0.0
 21
-22.75003051757812
 31
0.0
  0
LINE
  5
15A
330
75
100
AcDbEntity
  8
0
  6
Continuous
 62
     0
100
AcDbLine
 10
3.849960327148438
 20
-23.75001525878906
 30
0.0
 11
0.0
 21
-23.75001525878906
 31
0.0
  0
LINE
  5
15B
330
75
100
AcDbEntity
  8
0
  6
Continuous
 62
     0
100
AcDbLine
 10
5.0
 20
-25.75003051757812
 30
0.0
 11
0.0
 21
-25.75003051757812
 31
0.0
  0
LINE
  5
15C
330
75
100
AcDbEntity
  8
0
  6
Continuous
 62
     0
100
AcDbLine
 10
4.70001220703125
 20
-26.75001525878906
 30
0.0
 11
0.0
 21
-26.75001525878906
 31
0.0
  0
LINE
  5
15D
330
75
100
AcDbEntity
  8
0
  6
Continuous
 62
     0
100
AcDbLine
 10
3.849990844726562
 20
-25.75001525878906
 30
0.0
 11
3.849990844726562
 21
-23.75
 31
0.0
  0
LINE
  5
15E
330
75
100
AcDbEntity
  8
0
  6
Continuous
 62
     0
100
AcDbLine
 10
5.000015258789062
 20
-26.45001220703125
 30
0.0
 11
5.000015258789062
 21
-25.75001525878906
 31
0.0
  0
LINE
  5
15F
330
75
100
AcDbEntity
  8
0
  6
Continuous
 62
     0
100
AcDbLine
 10
3.849938316672315
 20
-23.7499912188316
 30
0.0
 11
3.399927211367626
 21
-22.74999344762848
 31
0.0
  0
LINE
  5
160
330
75
100
AcDbEntity
  8
0
  6
Continuous
 62
     0
100
AcDbLine
 10
-3.400009155273438
 20
-22.75001525878906
 30
0.0
 11
-3.400009155273438
 21
-21.0
 31
0.0
  0
LINE
  5
161
330
75
100
AcDbEntity
  8
0
  6
Continuous
 62
     0
100
AcDbLine
 10
-3.400039672851562
 20
-22.75003051757812
 30
0.0
 11
0.0
 21
-22.75003051757812
 31
0.0
  0
LINE
  5
162
330
75
100
AcDbEntity
  8
0
  6
Continuous
 62
     0
100
AcDbLine
 10
-3.85009765625
 20
-23.75001525878906
 30
0.0
 11
0.0
 21
-23.75001525878906
 31
0.0
  0
LINE
  5
163
330
75
100
AcDbEntity
  8
0
  6
Continuous
 62
     0
100
AcDbLine
 10
-5.0
 20
-25.75003051757812
 30
0.0
 11
0.0
 21
-25.75003051757812
 31
0.0
  0
LINE
  5
164
330
75
100
AcDbEntity
  8
0
  6
Continuous
 62
     0
100
AcDbLine
 10
-4.70001220703125
 20
-26.75001525878906
 30
0.0
 11
0.0
 21
-26.75001525878906
 31
0.0
  0
LINE
  5
165
330
75
100
AcDbEntity
  8
0
  6
Continuous
 62
     0
100
AcDbLine
 10
-3.850082397460938
 20
-25.75001525878906
 30
0.0
 11
-3.850082397460938
 21
-23.75
 31
0.0
  0
LINE
  5
166
330
75
100
AcDbEntity
  8
0
  6
Continuous
 62
     0
100
AcDbLine
 10
-4.999984741210938
 20
-26.45001220703125
 30
0.0
 11
-4.999984741210938
 21
-25.75001525878906
 31
0.0
  0
LINE
  5
167
330
75
100
AcDbEntity
  8
0
  6
Continuous
 62
     0
100
AcDbLine
 10
-3.850005053304401
 20
-23.75004366876513
 30
0.0
 11
-3.399993814830805
 21
-22.75004595748964
 31
0.0
  0
LINE
  5
168
330
75
100
AcDbEntity
  8
0
  6
PHANTOM
 62
     0
100
AcDbLine
 10
-3.999984741210938
 20
-25.5
 30
0.0
 11
-3.999984741210938
 21
-21.0
 31
0.0
  0
LINE
  5
169
330
75
100
AcDbEntity
  8
0
  6
PHANTOM
 62
     0
100
AcDbLine
 10
4.000015258789062
 20
-25.75001525878906
 30
0.0
 11
4.000015258789062
 21
-21.0
 31
0.0
  0
LINE
  5
16A
330
75
100
AcDbEntity
  8
0
  6
PHANTOM
 62
     0
100
AcDbLine
 10
-4.499984741210938
 20
-25.5
 30
0.0
 11
-4.499984741210938
 21
-21.0
 31
0.0
  0
LINE
  5
16B
330
75
100
AcDbEntity
  8
0
  6
PHANTOM
 62
     0
100
AcDbLine
 10
4.500015258789062
 20
-25.75001525878906
 30
0.0
 11
4.500015258789062
 21
-21.0
 31
0.0
  0
LINE
  5
16C
330
75
100
AcDbEntity
  8
0
  6
Continuous
 62
     0
100
AcDbLine
 10
4.0
 20
-25.75003051757812
 30
0.0
 11
4.499984741210938
 21
-25.75003051757812
 31
0.0
  0
LINE
  5
16D
330
75
100
AcDbEntity
  8
0
  6
Continuous
 62
     0
100
AcDbLine
 10
3.399917602539062
 20
-22.75001525878906
 30
0.0
 11
3.399917602539062
 21
-21.0
 31
0.0
  0
LINE
  5
16E
330
75
100
AcDbEntity
  8
0
  6
Continuous
 62
     0
100
AcDbLine
 10
-32.00006103515625
 20
17.0
 30
0.0
 11
-32.00006103515625
 21
-17.0
 31
0.0
  0
LINE
  5
16F
330
75
100
AcDbEntity
  8
0
  6
Continuous
 62
     0
100
AcDbLine
 10
-32.00006103515625
 20
12.0
 30
0.0
 11
-28.99993896484375
 21
12.0
 31
0.0
  0
LINE
  5
170
330
75
100
AcDbEntity
  8
0
  6
Continuous
 62
     0
100
AcDbLine
 10
-32.00006103515625
 20
-12.00001525878906
 30
0.0
 11
-28.99993896484375
 21
-12.00001525878906
 31
0.0
  0
LINE
  5
171
330
75
100
AcDbEntity
  8
0
  6
Continuous
 62
     0
100
AcDbLine
 10
-5.000036479488054
 20
-26.45003117108368
 30
0.0
 11
-4.700045651515079
 21
-26.75002804279068
 31
0.0
  0
LINE
  5
172
330
75
100
AcDbEntity
  8
0
  6
Continuous
 62
     0
100
AcDbLine
 10
4.700020500104277
 20
-26.75003515229402
 30
0.0
 11
5.000012857987896
 21
-26.45003981047465
 31
0.0
  0
LINE
  5
173
330
75
100
AcDbEntity
  8
0
  6
Continuous
 62
     0
100
AcDbLine
 10
-26.0
 20
-21.00001525878906
 30
0.0
 11
26.00003051757812
 21
-21.00001525878906
 31
0.0
  0
LINE
  5
174
330
75
100
AcDbEntity
  8
0
  6
Continuous
 62
     0
100
AcDbLine
 10
-26.0
 20
21.0
 30
0.0
 11
26.0
 21
21.0
 31
0.0
  0
LINE
  5
175
330
75
100
AcDbEntity
  8
0
  6
Continuous
 62
     0
100
AcDbLine
 10
27.00003051757812
 20
-9.25
 30
0.0
 11
27.00003051757812
 21
9.25
 31
0.0
  0
LINE
  5
176
330
75
100
AcDbEntity
  8
0
  6
Continuous
 62
     0
100
AcDbLine
 10
26.00001869202852
 20
-9.999978637679408
 30
0.0
 11
26.99999270443965
 21
-9.249994850195712
 31
0.0
  0
LINE
  5
177
330
75
100
AcDbEntity
  8
0
  6
Continuous
 62
     0
100
AcDbLine
 10
26.00000183592862
 20
9.99998366838241
 30
0.0
 11
26.99998773647398
 21
9.249988710980535
 31
0.0
  0
LINE
  5
178
330
75
100
AcDbEntity
  8
0
  6
Continuous
 62
     0
100
AcDbLine
 10
16.50001525878906
 20
-10.80003356933594
 30
0.0
 11
26.00003051757812
 21
-10.80003356933594
 31
0.0
  0
LINE
  5
179
330
75
100
AcDbEntity
  8
0
  6
Continuous
 62
     0
100
AcDbLine
 10
16.50001525878906
 20
-21.00001525878906
 30
0.0
 11
16.50001525878906
 21
-10.80003356933594
 31
0.0
  0
LINE
  5
17A
330
75
100
AcDbEntity
  8
0
  6
Continuous
 62
     0
100
AcDbLine
 10
16.50001525878906
 20
10.80000305175781
 30
0.0
 11
26.00003051757812
 21
10.80000305175781
 31
0.0
  0
LINE
  5
17B
330
75
100
AcDbEntity
  8
0
  6
Continuous
 62
     0
100
AcDbLine
 10
16.50001525878906
 20
21.0
 30
0.0
 11
16.50001525878906
 21
10.80000305175781
 31
0.0
  0
LINE
  5
17C
330
75
100
AcDbEntity
  8
0
  6
Continuous
 62
     0
100
AcDbLine
 10
26.00003051757812
 20
-9.200027465820312
 30
0.0
 11
-25.99996948242188
 21
-9.200027465820312
 31
0.0
  0
LINE
  5
17D
330
75
100
AcDbEntity
  8
0
  6
Continuous
 62
     0
100
AcDbLine
 10
26.00003051757812
 20
-6.800018310546875
 30
0.0
 11
-25.99996948242188
 21
-6.800018310546875
 31
0.0
  0
LINE
  5
17E
330
75
100
AcDbEntity
  8
0
  6
Continuous
 62
     0
100
AcDbLine
 10
26.00003051757812
 20
-5.20001220703125
 30
0.0
 11
-25.99996948242188
 21
-5.20001220703125
 31
0.0
  0
LINE
  5
17F
330
75
100
AcDbEntity
  8
0
  6
Continuous
 62
     0
100
AcDbLine
 10
26.00003051757812
 20
-2.800018310546875
 30
0.0
 11
-25.99996948242188
 21
-2.800018310546875
 31
0.0
  0
LINE
  5
180
330
75
100
AcDbEntity
  8
0
  6
Continuous
 62
     0
100
AcDbLine
 10
26.00003051757812
 20
-1.20001220703125
 30
0.0
 11
-25.99996948242188
 21
-1.20001220703125
 31
0.0
  0
LINE
  5
181
330
75
100
AcDbEntity
  8
0
  6
Continuous
 62
     0
100
AcDbLine
 10
-16.5
 20
-10.80003356933594
 30
0.0
 11
-25.99996948242188
 21
-10.80003356933594
 31
0.0
  0
LINE
  5
182
330
75
100
AcDbEntity
  8
0
  6
Continuous
 62
     0
100
AcDbLine
 10
-16.5
 20
-21.00001525878906
 30
0.0
 11
-16.5
 21
-10.80003356933594
 31
0.0
  0
LINE
  5
183
330
75
100
AcDbEntity
  8
0
  6
Continuous
 62
     0
100
AcDbLine
 10
26.00003051757812
 20
9.199996948242188
 30
0.0
 11
-25.99996948242188
 21
9.199996948242188
 31
0.0
  0
LINE
  5
184
330
75
100
AcDbEntity
  8
0
  6
Continuous
 62
     0
100
AcDbLine
 10
26.00003051757812
 20
6.79998779296875
 30
0.0
 11
-25.99996948242188
 21
6.79998779296875
 31
0.0
  0
LINE
  5
185
330
75
100
AcDbEntity
  8
0
  6
Continuous
 62
     0
100
AcDbLine
 10
26.00003051757812
 20
5.199981689453125
 30
0.0
 11
-25.99996948242188
 21
5.199981689453125
 31
0.0
  0
LINE
  5
186
330
75
100
AcDbEntity
  8
0
  6
Continuous
 62
     0
100
AcDbLine
 10
26.00003051757812
 20
2.79998779296875
 30
0.0
 11
-25.99996948242188
 21
2.79998779296875
 31
0.0
  0
LINE
  5
187
330
75
100
AcDbEntity
  8
0
  6
Continuous
 62
     0
100
AcDbLine
 10
26.00003051757812
 20
1.199996948242188
 30
0.0
 11
-25.99996948242188
 21
1.199996948242188
 31
0.0
  0
LINE
  5
188
330
75
100
AcDbEntity
  8
0
  6
Continuous
 62
     0
100
AcDbLine
 10
-16.5
 20
10.80000305175781
 30
0.0
 11
-25.99996948242188
 21
10.80000305175781
 31
0.0
  0
LINE
  5
189
330
75
100
AcDbEntity
  8
0
  6
Continuous
 62
     0
100
AcDbLine
 10
-16.5
 20
21.0
 30
0.0
 11
-16.5
 21
10.80000305175781
 31
0.0
  0
LINE
  5
18A
330
75
100
AcDbEntity
  8
0
  6
Continuous
 62
     0
100
AcDbLine
 10
-5.0
 20
27.5
 30
0.0
 11
-5.0
 21
20.89997863769531
 31
0.0
  0
LINE
  5
18B
330
75
100
AcDbEntity
  8
0
  6
Continuous
 62
     0
100
AcDbLine
 10
5.0
 20
27.5
 30
0.0
 11
5.0
 21
20.89997863769531
 31
0.0
  0
LINE
  5
18C
330
75
100
AcDbEntity
  8
0
  6
CENTER
 62
     4
100
AcDbLine
 10
-4.25
 20
27.5
 30
0.0
 11
4.25
 21
27.5
 31
0.0
  0
LINE
  5
18D
330
75
100
AcDbEntity
  8
0
  6
CENTER
 62
     4
100
AcDbLine
 10
14.0
 20
33.74289950012204
 30
0.0
 11
14.0
 21
27.5
 31
0.0
  0
LINE
  5
18E
330
75
100
AcDbEntity
  8
0
  6
DASHED
 62
     0
100
AcDbLine
 10
7.414103152040336
 20
27.49999946027929
 30
0.0
 11
7.239499171872534
 21
32.50000349442369
 31
0.0
  0
LINE
  5
18F
330
75
100
AcDbEntity
  8
0
  6
DASHED
 62
     0
100
AcDbLine
 10
8.270627720506287
 20
27.4999997676495
 30
0.0
 11
8.09602320781445
 21
32.50001905128772
 31
0.0
  0
LINE
  5
190
330
75
100
AcDbEntity
  8
0
  6
DASHED
 62
     0
100
AcDbLine
 10
-20.58589914253929
 20
27.49999972133963
 30
0.0
 11
-20.76050305614159
 21
32.50000184929731
 31
0.0
  0
LINE
  5
191
330
75
100
AcDbEntity
  8
0
  6
DASHED
 62
     0
100
AcDbLine
 10
19.72936123076625
 20
27.50000049466837
 30
0.0
 11
19.90396514436855
 21
32.50000262262605
 31
0.0
  0
LINE
  5
192
330
75
100
AcDbEntity
  8
0
  6
DASHED
 62
     0
100
AcDbLine
 10
20.5858857992322
 20
27.50000018729816
 30
0.0
 11
20.76048918031046
 21
32.49998706576201
 31
0.0
  0
LINE
  5
193
330
75
100
AcDbEntity
  8
0
  6
DASHED
 62
     0
100
AcDbLine
 10
0.75
 20
-15.64968986085214
 30
0.0
 11
0.75
 21
-21.00001525878906
 31
0.0
  0
LINE
  5
194
330
75
100
AcDbEntity
  8
0
  6
DASHED
 62
     0
100
AcDbLine
 10
-0.75
 20
-15.11433777520109
 30
0.0
 11
-0.75
 21
-21.00001525878906
 31
0.0
  0
LINE
  5
195
330
75
100
AcDbEntity
  8
0
  6
DASHED
 62
     0
100
AcDbLine
 10
-19.72937457407334
 20
27.50000002870984
 30
0.0
 11
-19.90397902019967
 21
32.50001740616134
 31
0.0
  0
LINE
  5
196
330
75
100
AcDbEntity
  8
0
  6
DASHED
 62
     0
100
AcDbLine
 10
-7.414117448440796
 20
27.49999995952057
 30
0.0
 11
-7.239514133928036
 21
32.4999849317977
 31
0.0
  0
LINE
  5
197
330
75
100
AcDbEntity
  8
0
  6
DASHED
 62
     0
100
AcDbLine
 10
22.2706407481804
 20
-27.50000100624709
 30
0.0
 11
22.0960368345781
 21
-32.50000313420477
 31
0.0
  0
LINE
  5
198
330
75
100
AcDbEntity
  8
0
  6
DASHED
 62
     0
100
AcDbLine
 10
33.72937527809923
 20
-27.50000112897475
 30
0.0
 11
33.90397972422556
 21
-32.50001850642624
 31
0.0
  0
LINE
  5
199
330
75
100
AcDbEntity
  8
0
  6
DASHED
 62
     0
100
AcDbLine
 10
21.41411808590118
 20
-27.50000076544239
 30
0.0
 11
21.23951470482291
 21
-32.49998764390624
 31
0.0
  0
LINE
  5
19A
330
75
100
AcDbEntity
  8
0
  6
DASHED
 62
     0
100
AcDbLine
 10
34.58590365893863
 20
-27.50000068847353
 30
0.0
 11
34.76050757254093
 21
-32.50000281643121
 31
0.0
  0
LINE
  5
19B
330
75
100
AcDbEntity
  8
0
  6
DASHED
 62
     0
100
AcDbLine
 10
-8.270642016906745
 20
27.50000026689078
 30
0.0
 11
-8.096038169869953
 21
32.50000048866173
 31
0.0
  0
LINE
  5
19C
330
75
100
AcDbEntity
  8
0
  6
DASHED
 62
     0
100
AcDbLine
 10
-21.41410283640736
 20
-27.50000023291835
 30
0.0
 11
-21.23949885623956
 21
-32.50000426706276
 31
0.0
  0
LINE
  5
19D
330
75
100
AcDbEntity
  8
0
  6
DASHED
 62
     0
100
AcDbLine
 10
6.585898981625592
 20
-27.50000051062007
 30
0.0
 11
6.760502961793394
 21
-32.50000454476447
 31
0.0
  0
LINE
  5
19E
330
75
100
AcDbEntity
  8
0
  6
DASHED
 62
     0
100
AcDbLine
 10
-6.585884685225135
 20
-27.50000100986135
 30
0.0
 11
-6.760487999737895
 21
-32.49998598213848
 31
0.0
  0
LINE
  5
19F
330
75
100
AcDbEntity
  8
0
  6
DASHED
 62
     0
100
AcDbLine
 10
-5.729359573647
 20
-27.49999942768621
 30
0.0
 11
-5.903963487249297
 21
-32.50000155564388
 31
0.0
  0
LINE
  5
1A0
330
75
100
AcDbEntity
  8
0
  6
DASHED
 62
     0
100
AcDbLine
 10
5.729373936612962
 20
-27.50000083463166
 30
0.0
 11
5.903978449304797
 21
-32.50002011826988
 31
0.0
  0
LINE
  5
1A1
330
75
100
AcDbEntity
  8
0
  6
DASHED
 62
     0
100
AcDbLine
 10
-22.27062549868658
 20
-27.50000047372306
 30
0.0
 11
-22.09602098599474
 21
-32.50001975736129
 31
0.0
  0
LINE
  5
1A2
330
75
100
AcDbEntity
  8
0
  6
DASHED
 62
     0
100
AcDbLine
 10
-33.7293599620399
 20
-27.49999975531205
 30
0.0
 11
-33.9039639422077
 21
-32.50000378945646
 31
0.0
  0
LINE
  5
1A3
330
75
100
AcDbEntity
  8
0
  6
DASHED
 62
     0
100
AcDbLine
 10
-34.58588840944481
 20
-27.50000122099756
 30
0.0
 11
-34.76049179052308
 21
-32.49998809946141
 31
0.0
  0
LINE
  5
1A4
330
75
100
AcDbEntity
  8
0
  6
Continuous
 62
     0
100
AcDbLine
 10
-100.0
 20
14.0
 30
0.0
 11
-100.0
 21
-14.0
 31
0.0
  0
LINE
  5
1A5
330
75
100
AcDbEntity
  8
0
  6
Continuous
 62
     0
100
AcDbLine
 10
-78.0
 20
17.0
 30
0.0
 11
-78.0
 21
-17.0
 31
0.0
  0
LINE
  5
1A6
330
75
100
AcDbEntity
  8
0
  6
Continuous
 62
     0
100
AcDbLine
 10
-100.0
 20
14.0
 30
0.0
 11
-78.0
 21
14.0
 31
0.0
  0
LINE
  5
1A7
330
75
100
AcDbEntity
  8
0
  6
Continuous
 62
     0
100
AcDbLine
 10
-100.0
 20
-14.0
 30
0.0
 11
-78.0
 21
-14.0
 31
0.0
  0
LINE
  5
1A8
330
75
100
AcDbEntity
  8
0
  6
Continuous
 62
     0
100
AcDbLine
 10
-72.0
 20
-23.0
 30
0.0
 11
-38.00006103515625
 21
-23.0
 31
0.0
  0
LINE
  5
1A9
330
75
100
AcDbEntity
  8
0
  6
Continuous
 62
     0
100
AcDbLine
 10
-72.0
 20
23.0
 30
0.0
 11
-38.00006103515625
 21
23.0
 31
0.0
  0
LINE
  5
1AA
330
75
100
AcDbEntity
  8
0
  6
DASHED
 62
     0
100
AcDbLine
 10
-100.0
 20
-10.5
 30
0.0
 11
-89.0
 21
-10.5
 31
0.0
  0
LINE
  5
1AB
330
75
100
AcDbEntity
  8
0
  6
DASHED
 62
     0
100
AcDbLine
 10
-100.0
 20
10.5
 30
0.0
 11
-89.0
 21
10.5
 31
0.0
  0
LINE
  5
1AC
330
75
100
AcDbEntity
  8
0
  6
DASHED
 62
     0
100
AcDbLine
 10
-100.0
 20
9.300000190734863
 30
0.0
 11
-89.0
 21
9.300000190734863
 31
0.0
  0
LINE
  5
1AD
330
75
100
AcDbEntity
  8
0
  6
DASHED
 62
     0
100
AcDbLine
 10
-100.0
 20
-9.300000190734863
 30
0.0
 11
-89.0
 21
-9.300000190734863
 31
0.0
  0
LINE
  5
1AE
330
75
100
AcDbEntity
  8
0
  6
Continuous
 62
     0
100
AcDbLine
 10
-32.00006103515625
 20
10.5
 30
0.0
 11
-28.99993896484375
 21
10.5
 31
0.0
  0
LINE
  5
1AF
330
75
100
AcDbEntity
  8
0
  6
Continuous
 62
     0
100
AcDbLine
 10
-32.00006103515625
 20
-10.5
 30
0.0
 11
-28.99993896484375
 21
-10.5
 31
0.0
  0
LINE
  5
1B0
330
75
100
AcDbEntity
  8
0
  6
CENTER
 62
     4
100
AcDbLine
 10
-55.00003051757812
 20
24.92629814147949
 30
0.0
 11
-55.00003051757812
 21
-24.89516067504883
 31
0.0
  0
LINE
  5
1B1
330
75
100
AcDbEntity
  8
0
  6
Continuous
 62
     0
100
AcDbLine
 10
-73.41425011117963
 20
-15.58578898798243
 30
0.0
 11
-70.58582286722415
 21
-18.41421599351933
 31
0.0
  0
LINE
  5
1B2
330
75
100
AcDbEntity
  8
0
  6
Continuous
 62
     0
100
AcDbLine
 10
-73.414256938969
 20
-18.41420992436992
 30
0.0
 11
-70.58582430021669
 21
-15.58577752403664
 31
0.0
  0
LINE
  5
1B3
330
75
100
AcDbEntity
  8
0
  6
Continuous
 62
     0
100
AcDbLine
 10
-77.00003051757812
 20
13.0
 30
0.0
 11
-77.00003051757812
 21
-13.0
 31
0.0
  0
LINE
  5
1B4
330
75
100
AcDbEntity
  8
0
  6
Continuous
 62
     0
100
AcDbLine
 10
-33.00003051757812
 20
13.0
 30
0.0
 11
-33.00003051757812
 21
-13.0
 31
0.0
  0
LINE
  5
1B5
330
75
100
AcDbEntity
  8
0
  6
Continuous
 62
     0
100
AcDbLine
 10
-68.00003051757812
 20
22.0
 30
0.0
 11
-42.00003051757812
 21
22.0
 31
0.0
  0
LINE
  5
1B6
330
75
100
AcDbEntity
  8
0
  6
Continuous
 62
     0
100
AcDbLine
 10
-68.00003051757812
 20
-22.0
 30
0.0
 11
-42.00003051757812
 21
-22.0
 31
0.0
  0
LINE
  5
1B7
330
75
100
AcDbEntity
  8
0
  6
Continuous
 62
     0
100
AcDbLine
 10
-77.00003051757812
 20
13.0
 30
0.0
 11
-72.00003051757812
 21
13.0
 31
0.0
  0
LINE
  5
1B8
330
75
100
AcDbEntity
  8
0
  6
Continuous
 62
     0
100
AcDbLine
 10
-77.00003051757812
 20
-13.0
 30
0.0
 11
-72.00003051757812
 21
-13.0
 31
0.0
  0
LINE
  5
1B9
330
75
100
AcDbEntity
  8
0
  6
Continuous
 62
     0
100
AcDbLine
 10
-68.00003051757812
 20
22.0
 30
0.0
 11
-68.00003051757812
 21
17.0
 31
0.0
  0
LINE
  5
1BA
330
75
100
AcDbEntity
  8
0
  6
Continuous
 62
     0
100
AcDbLine
 10
-42.00003051757812
 20
22.0
 30
0.0
 11
-42.00003051757812
 21
17.0
 31
0.0
  0
LINE
  5
1BB
330
75
100
AcDbEntity
  8
0
  6
Continuous
 62
     0
100
AcDbLine
 10
-68.00003051757812
 20
-17.0
 30
0.0
 11
-68.00003051757812
 21
-22.0
 31
0.0
  0
LINE
  5
1BC
330
75
100
AcDbEntity
  8
0
  6
Continuous
 62
     0
100
AcDbLine
 10
-42.00003051757812
 20
-17.0
 30
0.0
 11
-42.00003051757812
 21
-22.0
 31
0.0
  0
LINE
  5
1BD
330
75
100
AcDbEntity
  8
0
  6
Continuous
 62
     0
100
AcDbLine
 10
-38.00003051757812
 20
13.0
 30
0.0
 11
-33.00003051757812
 21
13.0
 31
0.0
  0
LINE
  5
1BE
330
75
100
AcDbEntity
  8
0
  6
Continuous
 62
     0
100
AcDbLine
 10
-38.00003051757812
 20
-13.0
 30
0.0
 11
-33.00003051757812
 21
-13.0
 31
0.0
  0
LINE
  5
1BF
330
75
100
AcDbEntity
  8
0
  6
Continuous
 62
     0
100
AcDbLine
 10
-73.4142461493758
 20
18.41420992437037
 30
0.0
 11
-70.58581890542033
 21
15.58578291883347
 31
0.0
  0
LINE
  5
1C0
330
75
100
AcDbEntity
  8
0
  6
Continuous
 62
     0
100
AcDbLine
 10
-73.41425011117963
 20
15.58578898798243
 30
0.0
 11
-70.58582016982574
 21
18.41421869091752
 31
0.0
  0
LINE
  5
1C1
330
75
100
AcDbEntity
  8
0
  6
Continuous
 62
     0
100
AcDbLine
 10
-39.41424723702321
 20
18.41421135736314
 30
0.0
 11
-36.58581999306773
 21
15.58578435182624
 31
0.0
  0
LINE
  5
1C2
330
75
100
AcDbEntity
  8
0
  6
Continuous
 62
     0
100
AcDbLine
 10
-39.41425254752603
 20
15.58579160108717
 30
0.0
 11
-36.58582260617214
 21
18.41422130402226
 31
0.0
  0
LINE
  5
1C3
330
75
100
AcDbEntity
  8
0
  6
Continuous
 62
     0
100
AcDbLine
 10
20.58581617865253
 20
-14.58580282926031
 30
0.0
 11
23.414243422608
 21
-17.41422983479721
 31
0.0
  0
LINE
  5
1C4
330
75
100
AcDbEntity
  8
0
  6
Continuous
 62
     0
100
AcDbLine
 10
20.58580808645659
 20
-17.41422224836661
 30
0.0
 11
23.41424072520891
 21
-14.58578984803333
 31
0.0
  0
LINE
  5
1C5
330
75
100
AcDbEntity
  8
0
  6
Continuous
 62
     0
100
AcDbLine
 10
49.95000267028808
 20
10.5
 30
0.0
 11
47.0
 21
10.5
 31
0.0
  0
LINE
  5
1C6
330
75
100
AcDbEntity
  8
0
  6
Continuous
 62
     0
100
AcDbLine
 10
49.95000267028808
 20
19.5
 30
0.0
 11
47.0
 21
19.5
 31
0.0
  0
LINE
  5
1C7
330
75
100
AcDbEntity
  8
0
  6
Continuous
 62
     0
100
AcDbLine
 10
-39.41424580403044
 20
-15.58578755498944
 30
0.0
 11
-36.58581856007497
 21
-18.41421456052634
 31
0.0
  0
LINE
  5
1C8
330
75
100
AcDbEntity
  8
0
  6
Continuous
 62
     0
100
AcDbLine
 10
-39.41425330616937
 20
-18.41421068301331
 30
0.0
 11
-36.58582066741705
 21
-15.58577828268003
 31
0.0
  0
LINE
  5
1C9
330
75
100
AcDbEntity
  8
0
  6
Continuous
 62
     0
100
AcDbLine
 10
-23.41421644862359
 20
-14.58580333502383
 30
0.0
 11
-20.58578920466812
 21
-17.41423034056072
 31
0.0
  0
LINE
  5
1CA
330
75
100
AcDbEntity
  8
0
  6
Continuous
 62
     0
100
AcDbLine
 10
-23.41422150624656
 20
-17.41422477717631
 30
0.0
 11
-20.58578886749425
 21
-14.58579237684303
 31
0.0
  0
LINE
  5
1CB
330
75
100
AcDbEntity
  8
0
  6
Continuous
 62
     0
100
AcDbLine
 10
-23.41427916313415
 20
17.41419679166647
 30
0.0
 11
-20.58585191917867
 21
14.58576978612957
 31
0.0
  0
LINE
  5
1CC
330
75
100
AcDbEntity
  8
0
  6
Continuous
 62
     0
100
AcDbLine
 10
-23.41428388358224
 20
14.58577905844193
 30
0.0
 11
-20.58585124482993
 21
17.41421145877521
 31
0.0
  0
LINE
  5
1CD
330
75
100
AcDbEntity
  8
0
  6
Continuous
 62
     0
100
AcDbLine
 10
20.58581482995343
 20
17.41419662308299
 30
0.0
 11
23.41424207390891
 21
14.5857696175461
 31
0.0
  0
LINE
  5
1CE
330
75
100
AcDbEntity
  8
0
  6
Continuous
 62
     0
100
AcDbLine
 10
20.58580876080625
 20
14.58578057572461
 30
0.0
 11
23.41424139955856
 21
17.41421297605789
 31
0.0
  0
LINE
  5
1CF
330
75
100
AcDbEntity
  8
0
  6
Continuous
 62
     0
100
AcDbLine
 10
-31.07840029412896
 20
-10.50000036410685
 30
0.0
 11
-28.99993801292259
 21
-9.299999585013982
 31
0.0
  0
LINE
  5
1D0
330
75
100
AcDbEntity
  8
0
  6
Continuous
 62
     0
100
AcDbLine
 10
-31.07840029412896
 20
10.50000036410685
 30
0.0
 11
-28.99993801292259
 21
9.299999585013982
 31
0.0
  0
LINE
  5
1D1
330
75
100
AcDbEntity
  8
0
  6
Continuous
 62
     0
100
AcDbLine
 10
-2.0
 20
32.5
 30
0.0
 11
-2.0
 21
32.08257569495584
 31
0.0
  0
LINE
  5
1D2
330
75
100
AcDbEntity
  8
0
  6
Continuous
 62
     0
100
AcDbLine
 10
2.0
 20
32.5
 30
0.0
 11
2.0
 21
32.08257569495584
 31
0.0
  0
LINE
  5
1D3
330
75
100
AcDbEntity
  8
0
  6
Continuous
 62
     0
100
AcDbLine
 10
2.0
 20
32.5
 30
0.0
 11
26.0
 21
32.5
 31
0.0
  0
LINE
  5
1D4
330
75
100
AcDbEntity
  8
0
  6
Continuous
 62
     0
100
AcDbLine
 10
-16.0
 20
-32.08257569495584
 30
0.0
 11
-16.0
 21
-32.5
 31
0.0
  0
LINE
  5
1D5
330
75
100
AcDbEntity
  8
0
  6
Continuous
 62
     0
100
AcDbLine
 10
-12.0
 20
-32.08257569495584
 30
0.0
 11
-12.0
 21
-32.5
 31
0.0
  0
LINE
  5
1D6
330
75
100
AcDbEntity
  8
0
  6
Continuous
 62
     0
100
AcDbLine
 10
12.0
 20
-32.08257569495584
 30
0.0
 11
12.0
 21
-32.5
 31
0.0
  0
LINE
  5
1D7
330
75
100
AcDbEntity
  8
0
  6
Continuous
 62
     0
100
AcDbLine
 10
16.0
 20
-32.08257569495584
 30
0.0
 11
16.0
 21
-32.5
 31
0.0
  0
LINE
  5
1D8
330
75
100
AcDbEntity
  8
0
  6
Continuous
 62
     0
100
AcDbLine
 10
48.30000305175781
 20
-19.5
 30
0.0
 11
48.30000305175781
 21
-15.0
 31
0.0
  0
LINE
  5
1D9
330
75
100
AcDbEntity
  8
0
  6
Continuous
 62
     0
100
AcDbLine
 10
49.95000267028808
 20
-19.5
 30
0.0
 11
47.0
 21
-19.5
 31
0.0
  0
ARC
  5
1DA
330
75
100
AcDbEntity
  8
0
  6
Continuous
 62
     0
100
AcDbCircle
 10
0.0
 20
27.5
 30
0.0
 40
5.0
100
AcDbArc
 50
0.0
 51
179.9999640278213
  0
ARC
  5
1DB
330
75
100
AcDbEntity
  8
0
  6
Continuous
 62
     0
100
AcDbCircle
 10
-14.0
 20
-27.5
 30
0.0
 40
5.0
100
AcDbArc
 50
179.9999776881997
 51
0.0
  0
ARC
  5
1DC
330
75
100
AcDbEntity
  8
0
  6
Continuous
 62
     0
100
AcDbCircle
 10
14.0
 20
-27.5
 30
0.0
 40
5.0
100
AcDbArc
 50
179.9999776881997
 51
0.0
  0
CIRCLE
  5
1DD
330
75
100
AcDbEntity
  8
0
  6
Continuous
 62
     0
100
AcDbCircle
 10
14.0
 20
-27.5
 30
0.0
 40
2.75
  0
CIRCLE
  5
1DE
330
75
100
AcDbEntity
  8
0
  6
Continuous
 62
     0
100
AcDbCircle
 10
-14.0
 20
-27.5
 30
0.0
 40
2.75
  0
CIRCLE
  5
1DF
330
75
100
AcDbEntity
  8
0
  6
Continuous
 62
     0
100
AcDbCircle
 10
-4.25
 20
-25.5
 30
0.0
 40
0.2500001192092896
  0
ARC
  5
1E0
330
75
100
AcDbEntity
  8
0
  6
Continuous
 62
     0
100
AcDbCircle
 10
4.25
 20
-25.75001525878906
 30
0.0
 40
0.2500001192092896
100
AcDbArc
 50
89.99998201391067
 51
179.9999640278213
  0
ARC
  5
1E1
330
75
100
AcDbEntity
  8
0
  6
Continuous
 62
     0
100
AcDbCircle
 10
4.25
 20
-25.75001525878906
 30
0.0
 40
0.2500001192092896
100
AcDbArc
 50
0.00001366037834
 51
89.9999273723973
  0
CIRCLE
  5
1E2
330
75
100
AcDbEntity
  8
0
  6
Continuous
 62
     0
100
AcDbCircle
 10
0.0
 20
27.5
 30
0.0
 40
2.75
  0
ARC
  5
1E3
330
75
100
AcDbEntity
  8
0
  6
Continuous
 62
     0
100
AcDbCircle
 10
-38.00006103515625
 20
17.0
 30
0.0
 40
6.0
100
AcDbArc
 50
0.0
 51
89.99998201391067
  0
ARC
  5
1E4
330
75
100
AcDbEntity
  8
0
  6
Continuous
 62
     0
100
AcDbCircle
 10
-38.00006103515625
 20
-17.0
 30
0.0
 40
6.0
100
AcDbArc
 50
270.0000179860893
 51
0.0
  0
ARC
  5
1E5
330
75
100
AcDbEntity
  8
0
  6
Continuous
 62
     0
100
AcDbCircle
 10
-72.0
 20
-17.0
 30
0.0
 40
6.0
100
AcDbArc
 50
179.9999813306653
 51
270.0000179860893
  0
ARC
  5
1E6
330
75
100
AcDbEntity
  8
0
  6
Continuous
 62
     0
100
AcDbCircle
 10
-72.0
 20
17.0
 30
0.0
 40
6.0
100
AcDbArc
 50
89.99998201391067
 51
179.9999640278213
  0
CIRCLE
  5
1E7
330
75
100
AcDbEntity
  8
0
  6
Continuous
 62
     0
100
AcDbCircle
 10
-72.00003051757812
 20
-17.0
 30
0.0
 40
3.5
  0
ARC
  5
1E8
330
75
100
AcDbEntity
  8
0
  6
Continuous
 62
     0
100
AcDbCircle
 10
-72.00003051757812
 20
17.0
 30
0.0
 40
4.0
100
AcDbArc
 50
270.0000179860893
 51
0.0
  0
ARC
  5
1E9
330
75
100
AcDbEntity
  8
0
  6
Continuous
 62
     0
100
AcDbCircle
 10
-72.00003051757812
 20
-17.0
 30
0.0
 40
4.0
100
AcDbArc
 50
0.0
 51
89.99998201391067
  0
ARC
  5
1EA
330
75
100
AcDbEntity
  8
0
  6
Continuous
 62
     0
100
AcDbCircle
 10
-38.00003051757812
 20
-17.0
 30
0.0
 40
4.0
100
AcDbArc
 50
89.99998201391067
 51
179.9999640278213
  0
ARC
  5
1EB
330
75
100
AcDbEntity
  8
0
  6
Continuous
 62
     0
100
AcDbCircle
 10
-38.00003051757812
 20
17.0
 30
0.0
 40
4.0
100
AcDbArc
 50
179.9999813306653
 51
270.0000179860893
  0
CIRCLE
  5
1EC
330
75
100
AcDbEntity
  8
0
  6
Continuous
 62
     0
100
AcDbCircle
 10
-72.00003051757812
 20
17.0
 30
0.0
 40
3.5
  0
CIRCLE
  5
1ED
330
75
100
AcDbEntity
  8
0
  6
Continuous
 62
     0
100
AcDbCircle
 10
-38.00003051757812
 20
17.0
 30
0.0
 40
3.5
  0
CIRCLE
  5
1EE
330
75
100
AcDbEntity
  8
0
  6
Continuous
 62
     0
100
AcDbCircle
 10
-38.00003051757812
 20
-17.0
 30
0.0
 40
3.5
  0
CIRCLE
  5
1EF
330
75
100
AcDbEntity
  8
0
  6
Continuous
 62
     0
100
AcDbCircle
 10
22.00003051757812
 20
15.99998474121094
 30
0.0
 40
3.5
  0
CIRCLE
  5
1F0
330
75
100
AcDbEntity
  8
0
  6
Continuous
 62
     0
100
AcDbCircle
 10
-22.00006103515625
 20
15.99998474121094
 30
0.0
 40
3.5
  0
CIRCLE
  5
1F1
330
75
100
AcDbEntity
  8
0
  6
Continuous
 62
     0
100
AcDbCircle
 10
-22.00006103515625
 20
-16.00001525878906
 30
0.0
 40
3.5
  0
CIRCLE
  5
1F2
330
75
100
AcDbEntity
  8
0
  6
Continuous
 62
     0
100
AcDbCircle
 10
22.00003051757812
 20
-16.00001525878906
 30
0.0
 40
3.5
  0
ARC
  5
1F3
330
75
100
AcDbEntity
  8
0
  6
Continuous
 62
     0
100
AcDbCircle
 10
44.63863742450019
 20
15.0
 30
0.0
 40
6.961364864318166
100
AcDbArc
 50
319.7274017063268
 51
40.27259829367321
  0
ARC
  5
1F4
330
75
100
AcDbEntity
  8
0
  6
Continuous
 62
     0
100
AcDbCircle
 10
44.63863742450019
 20
-15.0
 30
0.0
 40
6.961364864318166
100
AcDbArc
 50
319.7274017063268
 51
0.0
  0
MTEXT
  5
1F5
330
75
100
AcDbEntity
  8
0
 62
     0
100
AcDbMText
 10
-14.67904056161642
 20
14.49990367889404
 30
0.0
 40
0.5
 41
0.0
 71
     7
 72
     1
  1
{\W0.833333;BN-7M43-8-G/H***}
 73
     1
 44
1.0
  0
ENDBLK
  5
77
330
75
100
AcDbEntity
  8
0
100
AcDbBlockEnd
  0
BLOCK
  5
79
330
78
100
AcDbEntity
  8
0
100
AcDbBlockBegin
  2
DTL0003
 70
     0
 10
0.0
 20
0.0
 30
0.0
  3
DTL0003
  1

  0
POINT
  5
1F6
330
78
100
AcDbEntity
  8
0
 62
     0
100
AcDbPoint
 10
0.0
 20
0.0
 30
0.0
  0
LINE
  5
1F7
330
78
100
AcDbEntity
  8
0
  6
CENTER
 62
     4
100
AcDbLine
 10
20.18152618408203
 20
0.0
 30
0.0
 11
-20.125
 21
0.0
 31
0.0
  0
LINE
  5
1F8
330
78
100
AcDbEntity
  8
0
  6
Continuous
 62
     0
100
AcDbLine
 10
-17.0
 20
6.928939819335938
 30
0.0
 11
-17.0
 21
0.0
 31
0.0
  0
LINE
  5
1F9
330
78
100
AcDbEntity
  8
0
  6
Continuous
 62
     0
100
AcDbLine
 10
17.0
 20
0.0
 30
0.0
 11
17.0
 21
-6.928924560546875
 31
0.0
  0
LINE
  5
1FA
330
78
100
AcDbEntity
  8
0
  6
CENTER
 62
     4
100
AcDbLine
 10
3.665199010410999
 20
18.0
 30
0.0
 11
-3.699395824234648
 21
18.0
 31
0.0
  0
LINE
  5
1FB
330
78
100
AcDbEntity
  8
0
  6
Continuous
 62
     0
100
AcDbLine
 10
3.0
 20
18.0
 30
0.0
 11
3.0
 21
14.69694519042969
 31
0.0
  0
LINE
  5
1FC
330
78
100
AcDbEntity
  8
0
  6
Continuous
 62
     0
100
AcDbLine
 10
-3.0
 20
18.0
 30
0.0
 11
-3.0
 21
14.69694519042969
 31
0.0
  0
LINE
  5
1FD
330
78
100
AcDbEntity
  8
0
  6
Continuous
 62
     0
100
AcDbLine
 10
4.500133533281657
 20
16.39363497028159
 30
0.0
 11
3.889378564290545
 21
18.93479677251025
 31
0.0
  0
LINE
  5
1FE
330
78
100
AcDbEntity
  8
0
  6
Continuous
 62
     0
100
AcDbLine
 10
-4.354109383478136
 20
16.99997183912042
 30
0.0
 11
-3.88910082955967
 21
18.93472805875322
 31
0.0
  0
LINE
  5
1FF
330
78
100
AcDbEntity
  8
0
  6
Continuous
 62
     0
100
AcDbLine
 10
-4.354248046875
 20
17.0
 30
0.0
 11
-15.0
 21
17.0
 31
0.0
  0
LINE
  5
200
330
78
100
AcDbEntity
  8
0
  6
Continuous
 62
     0
100
AcDbLine
 10
15.0
 20
-17.0
 30
0.0
 11
0.0
 21
-17.0
 31
0.0
  0
LINE
  5
201
330
78
100
AcDbEntity
  8
0
  6
Continuous
 62
     0
100
AcDbLine
 10
18.53548570568308
 20
-8.464518718275034
 30
0.0
 11
14.37055014468746
 21
-4.299583508357214
 31
0.0
  0
LINE
  5
202
330
78
100
AcDbEntity
  8
0
  6
Continuous
 62
     0
100
AcDbLine
 10
11.46441566303013
 20
-15.53559205437304
 30
0.0
 11
8.373864007320956
 21
-12.44504065917787
 31
0.0
  0
LINE
  5
203
330
78
100
AcDbEntity
  8
0
  6
Continuous
 62
     0
100
AcDbLine
 10
-14.37065534321646
 20
4.299467520225678
 30
0.0
 11
-18.53558955551286
 21
8.464401381444402
 31
0.0
  0
LINE
  5
204
330
78
100
AcDbEntity
  8
0
  6
Continuous
 62
     0
100
AcDbLine
 10
-8.373969711612112
 20
12.44492416528414
 30
0.0
 11
-11.46452001862208
 21
15.53547421178021
 31
0.0
  0
LINE
  5
205
330
78
100
AcDbEntity
  8
0
  6
Continuous
 62
     0
100
AcDbLine
 10
32.5
 20
-18.0
 30
0.0
 11
-32.5
 21
-18.0
 31
0.0
  0
LINE
  5
206
330
78
100
AcDbEntity
  8
0
  6
Continuous
 62
     0
100
AcDbLine
 10
-15.0
 20
-8.0
 30
0.0
 11
-32.5
 21
-8.0
 31
0.0
  0
LINE
  5
207
330
78
100
AcDbEntity
  8
0
  6
Continuous
 62
     0
100
AcDbLine
 10
-18.0
 20
16.0
 30
0.0
 11
-32.5
 21
16.0
 31
0.0
  0
LINE
  5
208
330
78
100
AcDbEntity
  8
0
  6
Continuous
 62
     0
100
AcDbLine
 10
5.74456787109375
 20
16.0
 30
0.0
 11
32.5
 21
16.0
 31
0.0
  0
LINE
  5
209
330
78
100
AcDbEntity
  8
0
  6
Continuous
 62
     0
100
AcDbLine
 10
18.0
 20
-8.0
 30
0.0
 11
32.5
 21
-8.0
 31
0.0
  0
LINE
  5
20A
330
78
100
AcDbEntity
  8
0
  6
DASHED
 62
     0
100
AcDbLine
 10
32.5
 20
13.0
 30
0.0
 11
21.0
 21
13.0
 31
0.0
  0
LINE
  5
20B
330
78
100
AcDbEntity
  8
0
  6
DASHED
 62
     0
100
AcDbLine
 10
21.0
 20
16.0
 30
0.0
 11
21.0
 21
13.0
 31
0.0
  0
LINE
  5
20C
330
78
100
AcDbEntity
  8
0
  6
Continuous
 62
     0
100
AcDbLine
 10
16.80322156904418
 20
-13.80314302548041
 30
0.0
 11
13.19691902517802
 21
-10.19683987363705
 31
0.0
  0
LINE
  5
20D
330
78
100
AcDbEntity
  8
0
  6
Continuous
 62
     0
100
AcDbLine
 10
13.19690337973686
 20
-13.80313918115524
 30
0.0
 11
16.80313977096655
 21
-10.1969033978915
 31
0.0
  0
LINE
  5
20E
330
78
100
AcDbEntity
  8
0
  6
Continuous
 62
     0
100
AcDbLine
 10
-13.19677690600355
 20
10.19685521507793
 30
0.0
 11
-16.80307810117067
 21
13.80315701822203
 31
0.0
  0
LINE
  5
20F
330
78
100
AcDbEntity
  8
0
  6
Continuous
 62
     0
100
AcDbLine
 10
-16.80309593824814
 20
10.19685551906789
 30
0.0
 11
-13.19685752396954
 21
13.80309332538019
 31
0.0
  0
LINE
  5
210
330
78
100
AcDbEntity
  8
0
  6
CENTER
 62
     4
100
AcDbLine
 10
0.0
 20
-20.83130723660139
 30
0.0
 11
0.0
 21
107.0575065448998
 31
0.0
  0
LINE
  5
211
330
78
100
AcDbEntity
  8
0
  6
Continuous
 62
     0
100
AcDbLine
 10
23.75001525878906
 20
30.65004539489746
 30
0.0
 11
23.75001525878906
 21
38.35009002685547
 31
0.0
  0
LINE
  5
212
330
78
100
AcDbEntity
  8
0
  6
Continuous
 62
     0
100
AcDbLine
 10
25.75003051757812
 20
29.5000057220459
 30
0.0
 11
25.75003051757812
 21
39.49999237060547
 31
0.0
  0
LINE
  5
213
330
78
100
AcDbEntity
  8
0
  6
Continuous
 62
     0
100
AcDbLine
 10
26.75001525878906
 20
29.49999046325684
 30
0.0
 11
26.75001525878906
 21
39.49999237060547
 31
0.0
  0
LINE
  5
214
330
78
100
AcDbEntity
  8
0
  6
Continuous
 62
     0
100
AcDbLine
 10
25.75001525878906
 20
30.65001487731934
 30
0.0
 11
23.75
 21
30.65001487731934
 31
0.0
  0
LINE
  5
215
330
78
100
AcDbEntity
  8
0
  6
Continuous
 62
     0
100
AcDbLine
 10
26.75001525878906
 20
29.49999046325684
 30
0.0
 11
25.75001525878906
 21
29.49999046325684
 31
0.0
  0
LINE
  5
216
330
78
100
AcDbEntity
  8
0
  6
Continuous
 62
     0
100
AcDbLine
 10
23.74999680504449
 20
30.65008958792537
 30
0.0
 11
23.00000024258706
 21
30.98759719328862
 31
0.0
  0
LINE
  5
217
330
78
100
AcDbEntity
  8
0
  6
Continuous
 62
     0
100
AcDbLine
 10
25.75001525878906
 20
38.35009002685547
 30
0.0
 11
23.75
 21
38.35009002685547
 31
0.0
  0
LINE
  5
218
330
78
100
AcDbEntity
  8
0
  6
Continuous
 62
     0
100
AcDbLine
 10
26.75001525878906
 20
39.49999237060547
 30
0.0
 11
25.75001525878906
 21
39.49999237060547
 31
0.0
  0
LINE
  5
219
330
78
100
AcDbEntity
  8
0
  6
Continuous
 62
     0
100
AcDbLine
 10
23.75000728707121
 20
38.3500708978928
 30
0.0
 11
23.00000201871968
 21
38.01255939928184
 31
0.0
  0
LINE
  5
21A
330
78
100
AcDbEntity
  8
0
  6
PHANTOM
 62
     0
100
AcDbLine
 10
25.5
 20
38.49999237060547
 30
0.0
 11
23.0
 21
38.49999237060547
 31
0.0
  0
LINE
  5
21B
330
78
100
AcDbEntity
  8
0
  6
PHANTOM
 62
     0
100
AcDbLine
 10
25.75001525878906
 20
30.49999046325684
 30
0.0
 11
23.0
 21
30.49999046325684
 31
0.0
  0
LINE
  5
21C
330
78
100
AcDbEntity
  8
0
  6
PHANTOM
 62
     0
100
AcDbLine
 10
25.5
 20
38.99999237060547
 30
0.0
 11
23.0
 21
38.99999237060547
 31
0.0
  0
LINE
  5
21D
330
78
100
AcDbEntity
  8
0
  6
PHANTOM
 62
     0
100
AcDbLine
 10
25.75001525878906
 20
29.99999046325684
 30
0.0
 11
23.0
 21
29.99999046325684
 31
0.0
  0
LINE
  5
21E
330
78
100
AcDbEntity
  8
0
  6
Continuous
 62
     0
100
AcDbLine
 10
25.75003051757812
 20
30.5000057220459
 30
0.0
 11
25.75003051757812
 21
30.00002098083496
 31
0.0
  0
LINE
  5
21F
330
78
100
AcDbEntity
  8
0
  6
CENTER
 62
     4
100
AcDbLine
 10
28.05619812011719
 20
34.50000762939453
 30
0.0
 11
23.0
 21
34.50000762939453
 31
0.0
  0
LINE
  5
220
330
78
100
AcDbEntity
  8
0
  6
DASHED
 62
     0
100
AcDbLine
 10
-28.87500000000001
 20
9.777385512801203
 30
0.0
 11
-32.49999760329537
 21
9.903973482841405
 31
0.0
  0
LINE
  5
221
330
78
100
AcDbEntity
  8
0
  6
DASHED
 62
     0
100
AcDbLine
 10
-28.875
 20
-1.777379583942192
 30
0.0
 11
-32.49999299466865
 21
-1.90396685254997
 31
0.0
  0
LINE
  5
222
330
78
100
AcDbEntity
  8
0
  6
DASHED
 62
     0
100
AcDbLine
 10
-28.87500000000001
 20
10.63391104848353
 30
0.0
 11
-32.47012344054681
 21
10.75945578759427
 31
0.0
  0
LINE
  5
223
330
78
100
AcDbEntity
  8
0
  6
DASHED
 62
     0
100
AcDbLine
 10
-28.875
 20
-2.633906844758533
 30
0.0
 11
-32.47011889899438
 21
-2.759450889233438
 31
0.0
  0
LINE
  5
224
330
78
100
AcDbEntity
  8
0
  6
CENTER
 62
     4
100
AcDbLine
 10
-34.91080093383789
 20
4.0
 30
0.0
 11
-28.875
 21
4.0
 31
0.0
  0
LINE
  5
225
330
78
100
AcDbEntity
  8
0
  6
Continuous
 62
     0
100
AcDbLine
 10
5.200083181152277
 20
104.5000413073376
 30
0.0
 11
5.116095168466996
 21
62.49999558348232
 31
0.0
  0
LINE
  5
226
330
78
100
AcDbEntity
  8
0
  6
Continuous
 62
     0
100
AcDbLine
 10
6.80007289134518
 20
104.5000436745907
 30
0.0
 11
6.884060911658744
 21
62.49999413604574
 31
0.0
  0
LINE
  5
227
330
78
100
AcDbEntity
  8
0
  6
Continuous
 62
     0
100
AcDbLine
 10
32.5
 20
-18.0
 30
0.0
 11
32.5
 21
16.0
 31
0.0
  0
LINE
  5
228
330
78
100
AcDbEntity
  8
0
  6
Continuous
 62
     0
100
AcDbLine
 10
-32.5
 20
-18.0
 30
0.0
 11
-32.5
 21
16.0
 31
0.0
  0
LINE
  5
229
330
78
100
AcDbEntity
  8
0
  6
Continuous
 62
     0
100
AcDbLine
 10
21.0
 20
25.49999237060547
 30
0.0
 11
21.0
 21
16.0
 31
0.0
  0
LINE
  5
22A
330
78
100
AcDbEntity
  8
0
  6
Continuous
 62
     0
100
AcDbLine
 10
-21.0
 20
25.49999237060547
 30
0.0
 11
-21.0
 21
16.0
 31
0.0
  0
LINE
  5
22B
330
78
100
AcDbEntity
  8
0
  6
DASHED
 62
     0
100
AcDbLine
 10
-32.5
 20
13.0
 30
0.0
 11
-21.0
 21
13.0
 31
0.0
  0
LINE
  5
22C
330
78
100
AcDbEntity
  8
0
  6
DASHED
 62
     0
100
AcDbLine
 10
-21.0
 20
16.0
 30
0.0
 11
-21.0
 21
14.0
 31
0.0
  0
LINE
  5
22D
330
78
100
AcDbEntity
  8
0
  6
CENTER
 62
     4
100
AcDbLine
 10
27.5
 20
-20.14756774902344
 30
0.0
 11
27.5
 21
14.35120696195177
 31
0.0
  0
LINE
  5
22E
330
78
100
AcDbEntity
  8
0
  6
CENTER
 62
     4
100
AcDbLine
 10
-27.5
 20
-19.770263671875
 30
0.0
 11
-27.5
 21
14.18680268999591
 31
0.0
  0
LINE
  5
22F
330
78
100
AcDbEntity
  8
0
  6
DASHED
 62
     0
100
AcDbLine
 10
30.25
 20
-18.0
 30
0.0
 11
30.25
 21
13.0
 31
0.0
  0
LINE
  5
230
330
78
100
AcDbEntity
  8
0
  6
DASHED
 62
     0
100
AcDbLine
 10
24.75
 20
-18.0
 30
0.0
 11
24.75
 21
13.0
 31
0.0
  0
LINE
  5
231
330
78
100
AcDbEntity
  8
0
  6
DASHED
 62
     0
100
AcDbLine
 10
-24.75
 20
-18.0
 30
0.0
 11
-24.75
 21
13.0
 31
0.0
  0
LINE
  5
232
330
78
100
AcDbEntity
  8
0
  6
DASHED
 62
     0
100
AcDbLine
 10
-30.25
 20
-18.0
 30
0.0
 11
-30.25
 21
13.0
 31
0.0
  0
LINE
  5
233
330
78
100
AcDbEntity
  8
0
  6
Continuous
 62
     0
100
AcDbLine
 10
9.20000058873398
 20
104.5000458737209
 30
0.0
 11
9.116012568420418
 21
62.49999633517597
 31
0.0
  0
LINE
  5
234
330
78
100
AcDbEntity
  8
0
  6
Continuous
 62
     0
100
AcDbLine
 10
20.1005755559243
 20
104.5000457763672
 30
0.0
 11
20.84145380213436
 21
62.49999618530274
 31
0.0
  0
LINE
  5
235
330
78
100
AcDbEntity
  8
0
  6
Continuous
 62
     0
100
AcDbLine
 10
21.0
 20
56.5
 30
0.0
 11
-21.0
 21
56.5
 31
0.0
  0
LINE
  5
236
330
78
100
AcDbEntity
  8
0
  6
Continuous
 62
     0
100
AcDbLine
 10
20.1005755559243
 20
104.5000457763672
 30
0.0
 11
9.200000762939453
 21
104.5000457763672
 31
0.0
  0
LINE
  5
237
330
78
100
AcDbEntity
  8
0
  6
Continuous
 62
     0
100
AcDbLine
 10
9.195000648498535
 20
102.0000457763672
 30
0.0
 11
6.80507230758667
 21
102.0000457763672
 31
0.0
  0
LINE
  5
238
330
78
100
AcDbEntity
  8
0
  6
Continuous
 62
     0
100
AcDbLine
 10
2.800003373014143
 20
104.5000479367962
 30
0.0
 11
2.883991400955988
 21
62.49999458356164
 31
0.0
  0
LINE
  5
239
330
78
100
AcDbEntity
  8
0
  6
Continuous
 62
     0
100
AcDbLine
 10
1.116076560029102
 20
62.49999503417652
 30
0.0
 11
1.200064580342665
 21
104.5000445727215
 31
0.0
  0
LINE
  5
23A
330
78
100
AcDbEntity
  8
0
  6
Continuous
 62
     0
100
AcDbLine
 10
10.80027047113399
 20
104.5000457763672
 30
0.0
 11
11.46757612261472
 21
62.49999609328492
 31
0.0
  0
LINE
  5
23B
330
78
100
AcDbEntity
  8
0
  6
Continuous
 62
     0
100
AcDbLine
 10
5.195083618164062
 20
102.0000457763672
 30
0.0
 11
2.805002689361572
 21
102.0000457763672
 31
0.0
  0
LINE
  5
23C
330
78
100
AcDbEntity
  8
0
  6
Continuous
 62
     0
100
AcDbLine
 10
1.195065379142761
 20
102.0000457763672
 30
0.0
 11
-1.195065379142761
 21
102.0000457763672
 31
0.0
  0
LINE
  5
23D
330
78
100
AcDbEntity
  8
0
  6
Continuous
 62
     0
100
AcDbLine
 10
6.800073146820068
 20
104.5000457763672
 30
0.0
 11
5.200082778930664
 21
104.5000457763672
 31
0.0
  0
LINE
  5
23E
330
78
100
AcDbEntity
  8
0
  6
Continuous
 62
     0
100
AcDbLine
 10
2.800003290176392
 20
104.5000457763672
 30
0.0
 11
1.200064659118652
 21
104.5000457763672
 31
0.0
  0
LINE
  5
23F
330
78
100
AcDbEntity
  8
0
  6
Continuous
 62
     0
100
AcDbLine
 10
-20.10042294429534
 20
104.5000457763672
 30
0.0
 11
-20.8413011905054
 21
62.49999618530274
 31
0.0
  0
LINE
  5
240
330
78
100
AcDbEntity
  8
0
  6
Continuous
 62
     0
100
AcDbLine
 10
-20.10042294429534
 20
104.5000457763672
 30
0.0
 11
-9.199540138244629
 21
104.5000457763672
 31
0.0
  0
LINE
  5
241
330
78
100
AcDbEntity
  8
0
  6
Continuous
 62
     0
100
AcDbLine
 10
-6.804626941680908
 20
102.0000457763672
 30
0.0
 11
-9.194540023803711
 21
102.0000457763672
 31
0.0
  0
LINE
  5
242
330
78
100
AcDbEntity
  8
0
  6
Continuous
 62
     0
100
AcDbLine
 10
-9.19953996496014
 20
104.500046794836
 30
0.0
 11
-9.115551937018296
 21
62.4999934416014
 31
0.0
  0
LINE
  5
243
330
78
100
AcDbEntity
  8
0
  6
Continuous
 62
     0
100
AcDbLine
 10
-6.799627526329892
 20
104.5000427839888
 30
0.0
 11
-6.883615546643456
 21
62.49999324544379
 31
0.0
  0
LINE
  5
244
330
78
100
AcDbEntity
  8
0
  6
Continuous
 62
     0
100
AcDbLine
 10
-5.199798033101803
 20
104.5000418775517
 30
0.0
 11
-5.115810020416522
 21
62.49999615369642
 31
0.0
  0
LINE
  5
245
330
78
100
AcDbEntity
  8
0
  6
Continuous
 62
     0
100
AcDbLine
 10
-2.799894654359447
 20
104.5000477193902
 30
0.0
 11
-2.883882682301293
 21
62.4999943661556
 31
0.0
  0
LINE
  5
246
330
78
100
AcDbEntity
  8
0
  6
Continuous
 62
     0
100
AcDbLine
 10
-1.116076560029102
 20
62.49999503417652
 30
0.0
 11
-1.200064580342665
 21
104.5000445727215
 31
0.0
  0
LINE
  5
247
330
78
100
AcDbEntity
  8
0
  6
Continuous
 62
     0
100
AcDbLine
 10
-10.80054802538567
 20
104.5000457763672
 30
0.0
 11
-11.46785366742067
 21
62.49999668779665
 31
0.0
  0
LINE
  5
248
330
78
100
AcDbEntity
  8
0
  6
Continuous
 62
     0
100
AcDbLine
 10
-6.799627780914307
 20
104.5000457763672
 30
0.0
 11
-5.199797630310059
 21
104.5000457763672
 31
0.0
  0
LINE
  5
249
330
78
100
AcDbEntity
  8
0
  6
Continuous
 62
     0
100
AcDbLine
 10
-2.799894571304321
 20
104.5000457763672
 30
0.0
 11
-1.200064659118652
 21
104.5000457763672
 31
0.0
  0
LINE
  5
24A
330
78
100
AcDbEntity
  8
0
  6
Continuous
 62
     0
100
AcDbLine
 10
-2.804893970489502
 20
102.0000457763672
 30
0.0
 11
-5.194798469543457
 21
102.0000457763672
 31
0.0
  0
LINE
  5
24B
330
78
100
AcDbEntity
  8
0
  6
Continuous
 62
     0
100
AcDbLine
 10
23.0
 20
56.49999237060547
 30
0.0
 11
23.0
 21
25.49999237060547
 31
0.0
  0
LINE
  5
24C
330
78
100
AcDbEntity
  8
0
  6
Continuous
 62
     0
100
AcDbLine
 10
22.00000357518924
 20
56.49999325945527
 30
0.0
 11
21.00000302712115
 21
62.49999618530273
 31
0.0
  0
LINE
  5
24D
330
78
100
AcDbEntity
  8
0
  6
Continuous
 62
     0
100
AcDbLine
 10
-20.99999142517234
 20
62.49999618530273
 30
0.0
 11
21.00000302712115
 21
62.49999618530273
 31
0.0
  0
LINE
  5
24E
330
78
100
AcDbEntity
  8
0
  6
Continuous
 62
     0
100
AcDbLine
 10
13.00000878457871
 20
56.49999066273536
 30
0.0
 11
12.00000780372394
 21
62.49999618530273
 31
0.0
  0
LINE
  5
24F
330
78
100
AcDbEntity
  8
0
  6
Continuous
 62
     0
100
AcDbLine
 10
-23.0
 20
56.49999618530273
 30
0.0
 11
23.0
 21
56.49999618530273
 31
0.0
  0
LINE
  5
250
330
78
100
AcDbEntity
  8
0
  6
Continuous
 62
     0
100
AcDbLine
 10
-23.0
 20
54.49999237060547
 30
0.0
 11
23.0
 21
54.49999237060547
 31
0.0
  0
LINE
  5
251
330
78
100
AcDbEntity
  8
0
  6
Continuous
 62
     0
100
AcDbLine
 10
-23.0
 20
53.49999237060547
 30
0.0
 11
23.0
 21
53.49999237060547
 31
0.0
  0
LINE
  5
252
330
78
100
AcDbEntity
  8
0
  6
Continuous
 62
     0
100
AcDbLine
 10
-23.0
 20
56.49999237060547
 30
0.0
 11
-23.0
 21
25.49999237060547
 31
0.0
  0
LINE
  5
253
330
78
100
AcDbEntity
  8
0
  6
Continuous
 62
     0
100
AcDbLine
 10
-23.0
 20
25.49999237060547
 30
0.0
 11
23.0
 21
25.49999237060547
 31
0.0
  0
LINE
  5
254
330
78
100
AcDbEntity
  8
0
  6
CENTER
 62
     4
100
AcDbLine
 10
-14.0
 20
39.49999237060547
 30
0.0
 11
14.0
 21
39.49999237060547
 31
0.0
  0
LINE
  5
255
330
78
100
AcDbEntity
  8
0
  6
Continuous
 62
     0
100
AcDbLine
 10
-12.99998808921062
 20
56.49998721350714
 30
0.0
 11
-11.99998653348445
 21
62.49999618530273
 31
0.0
  0
LINE
  5
256
330
78
100
AcDbEntity
  8
0
  6
Continuous
 62
     0
100
AcDbLine
 10
-20.5
 20
57.49999618530273
 30
0.0
 11
-13.5
 21
57.49999618530273
 31
0.0
  0
LINE
  5
257
330
78
100
AcDbEntity
  8
0
  6
Continuous
 62
     0
100
AcDbLine
 10
-13.5
 20
58.79999542236328
 30
0.0
 11
-13.5
 21
56.49999618530273
 31
0.0
  0
LINE
  5
258
330
78
100
AcDbEntity
  8
0
  6
CENTER
 62
     4
100
AcDbLine
 10
-17.0
 20
60.81584099990338
 30
0.0
 11
-17.0
 21
56.49999237060547
 31
0.0
  0
LINE
  5
259
330
78
100
AcDbEntity
  8
0
  6
Continuous
 62
     0
100
AcDbLine
 10
-20.5
 20
58.79999542236328
 30
0.0
 11
-20.5
 21
56.49999618530273
 31
0.0
  0
LINE
  5
25A
330
78
100
AcDbEntity
  8
0
  6
Continuous
 62
     0
100
AcDbLine
 10
-21.99999228680665
 20
56.49999137805806
 30
0.0
 11
-20.99999142517234
 21
62.49999618530274
 31
0.0
  0
LINE
  5
25B
330
78
100
AcDbEntity
  8
0
  6
Continuous
 62
     0
100
AcDbLine
 10
-23.0
 20
48.49999237060547
 30
0.0
 11
-10.72380828857422
 21
48.49999237060547
 31
0.0
  0
LINE
  5
25C
330
78
100
AcDbEntity
  8
0
  6
Continuous
 62
     0
100
AcDbLine
 10
21.0
 20
48.49999237060547
 30
0.0
 11
21.0
 21
37.49999237060547
 31
0.0
  0
LINE
  5
25D
330
78
100
AcDbEntity
  8
0
  6
Continuous
 62
     0
100
AcDbLine
 10
14.0
 20
37.49999237060547
 30
0.0
 11
21.0
 21
37.49999237060547
 31
0.0
  0
LINE
  5
25E
330
78
100
AcDbEntity
  8
0
  6
Continuous
 62
     0
100
AcDbLine
 10
14.0
 20
48.49999237060547
 30
0.0
 11
14.0
 21
25.49999237060547
 31
0.0
  0
LINE
  5
25F
330
78
100
AcDbEntity
  8
0
  6
Continuous
 62
     0
100
AcDbLine
 10
-14.0
 20
48.49999237060547
 30
0.0
 11
-14.0
 21
25.49999237060547
 31
0.0
  0
LINE
  5
260
330
78
100
AcDbEntity
  8
0
  6
Continuous
 62
     0
100
AcDbLine
 10
-21.0
 20
37.49999237060547
 30
0.0
 11
-14.0
 21
37.49999237060547
 31
0.0
  0
LINE
  5
261
330
78
100
AcDbEntity
  8
0
  6
Continuous
 62
     0
100
AcDbLine
 10
-21.0
 20
48.49999237060547
 30
0.0
 11
-21.0
 21
37.49999237060547
 31
0.0
  0
LINE
  5
262
330
78
100
AcDbEntity
  8
0
  6
Continuous
 62
     0
100
AcDbLine
 10
10.72380828857422
 20
48.49999237060547
 30
0.0
 11
23.0
 21
48.49999237060547
 31
0.0
  0
LINE
  5
263
330
78
100
AcDbEntity
  8
0
  6
CENTER
 62
     4
100
AcDbLine
 10
34.91080093383789
 20
4.0
 30
0.0
 11
28.875
 21
4.0
 31
0.0
  0
LINE
  5
264
330
78
100
AcDbEntity
  8
0
  6
DASHED
 62
     0
100
AcDbLine
 10
28.87500000000001
 20
10.63391104848353
 30
0.0
 11
32.47012344054681
 21
10.75945578759427
 31
0.0
  0
LINE
  5
265
330
78
100
AcDbEntity
  8
0
  6
DASHED
 62
     0
100
AcDbLine
 10
28.87500000000001
 20
9.777384558545577
 30
0.0
 11
32.50000144895163
 21
9.903972662879337
 31
0.0
  0
LINE
  5
266
330
78
100
AcDbEntity
  8
0
  6
DASHED
 62
     0
100
AcDbLine
 10
28.875
 20
-1.777379583942192
 30
0.0
 11
32.49999299466865
 21
-1.90396685254997
 31
0.0
  0
LINE
  5
267
330
78
100
AcDbEntity
  8
0
  6
DASHED
 62
     0
100
AcDbLine
 10
28.875
 20
-2.633908753269774
 30
0.0
 11
32.47011883242902
 21
-2.759452795420171
 31
0.0
  0
LINE
  5
268
330
78
100
AcDbEntity
  8
0
  6
Continuous
 62
     0
100
AcDbLine
 10
21.0
 20
22.5
 30
0.0
 11
-21.0
 21
22.5
 31
0.0
  0
LINE
  5
269
330
78
100
AcDbEntity
  8
0
  6
CENTER
 62
     4
100
AcDbLine
 10
-16.0
 20
64.81584481460064
 30
0.0
 11
-16.0
 21
62.49999618530273
 31
0.0
  0
LINE
  5
26A
330
78
100
AcDbEntity
  8
0
  6
Continuous
 62
     0
100
AcDbLine
 10
-12.5
 20
62.79999923706055
 30
0.0
 11
-12.5
 21
62.49999618530273
 31
0.0
  0
LINE
  5
26B
330
78
100
AcDbEntity
  8
0
  6
Continuous
 62
     0
100
AcDbLine
 10
-19.5
 20
62.79999923706055
 30
0.0
 11
-19.5
 21
62.49999618530273
 31
0.0
  0
LINE
  5
26C
330
78
100
AcDbEntity
  8
0
  6
Continuous
 62
     0
100
AcDbLine
 10
12.5
 20
62.79999923706055
 30
0.0
 11
12.5
 21
62.49999618530273
 31
0.0
  0
LINE
  5
26D
330
78
100
AcDbEntity
  8
0
  6
Continuous
 62
     0
100
AcDbLine
 10
20.5
 20
57.49999618530273
 30
0.0
 11
13.5
 21
57.49999618530273
 31
0.0
  0
LINE
  5
26E
330
78
100
AcDbEntity
  8
0
  6
Continuous
 62
     0
100
AcDbLine
 10
13.5
 20
58.79999542236328
 30
0.0
 11
13.5
 21
56.49999618530273
 31
0.0
  0
LINE
  5
26F
330
78
100
AcDbEntity
  8
0
  6
CENTER
 62
     4
100
AcDbLine
 10
17.0
 20
60.81584099990338
 30
0.0
 11
17.0
 21
56.49999237060547
 31
0.0
  0
LINE
  5
270
330
78
100
AcDbEntity
  8
0
  6
Continuous
 62
     0
100
AcDbLine
 10
20.5
 20
58.79999542236328
 30
0.0
 11
20.5
 21
56.49999618530273
 31
0.0
  0
LINE
  5
271
330
78
100
AcDbEntity
  8
0
  6
Continuous
 62
     0
100
AcDbLine
 10
19.5
 20
62.79999923706055
 30
0.0
 11
19.5
 21
62.49999618530273
 31
0.0
  0
LINE
  5
272
330
78
100
AcDbEntity
  8
0
  6
CENTER
 62
     4
100
AcDbLine
 10
16.0
 20
64.81584481460064
 30
0.0
 11
16.0
 21
62.49999618530273
 31
0.0
  0
LINE
  5
273
330
78
100
AcDbEntity
  8
0
  6
DASHED
 62
     0
100
AcDbLine
 10
-21.0
 20
16.0
 30
0.0
 11
-21.0
 21
13.0
 31
0.0
  0
ARC
  5
274
330
78
100
AcDbEntity
  8
0
  6
Continuous
 62
     0
100
AcDbCircle
 10
0.0
 20
0.0
 30
0.0
 40
15.0
100
AcDbArc
 50
331.9453992577864
 51
78.46300703400456
  0
ARC
  5
275
330
78
100
AcDbEntity
  8
0
  6
Continuous
 62
     0
100
AcDbCircle
 10
0.0
 20
0.0
 30
0.0
 40
17.0
100
AcDbArc
 50
0.000035972178075
 51
74.65050472233017
  0
ARC
  5
276
330
78
100
AcDbEntity
  8
0
  6
Continuous
 62
     0
100
AcDbCircle
 10
0.0
 20
18.0
 30
0.0
 40
4.0
100
AcDbArc
 50
13.51441207482045
 51
166.4856014718723
  0
ARC
  5
277
330
78
100
AcDbEntity
  8
0
  6
Continuous
 62
     0
100
AcDbCircle
 10
0.0
 20
18.0
 30
0.0
 40
3.0
100
AcDbArc
 50
0.000035972178075
 51
180.0000050089563
  0
ARC
  5
278
330
78
100
AcDbEntity
  8
0
  6
Continuous
 62
     0
100
AcDbCircle
 10
15.0
 20
-12.0
 30
0.0
 40
5.0
100
AcDbArc
 50
225.0000406395123
 51
45.00000125223908
  0
ARC
  5
279
330
78
100
AcDbEntity
  8
0
  6
Continuous
 62
     0
100
AcDbCircle
 10
-15.0
 20
12.0
 30
0.0
 40
5.0
100
AcDbArc
 50
45.00000125223908
 51
224.9999823555333
  0
ARC
  5
27A
330
78
100
AcDbEntity
  8
0
  6
Continuous
 62
     0
100
AcDbCircle
 10
0.0
 20
0.0
 30
0.0
 40
17.0
100
AcDbArc
 50
179.9999949910437
 51
269.9999838351435
  0
ARC
  5
27B
330
78
100
AcDbEntity
  8
0
  6
Continuous
 62
     0
100
AcDbCircle
 10
0.0
 20
14.0
 30
0.0
 40
3.0
100
AcDbArc
 50
13.77412318782102
 51
166.2258766984934
  0
ARC
  5
27C
330
78
100
AcDbEntity
  8
0
  6
Continuous
 62
     0
100
AcDbCircle
 10
0.0
 20
0.0
 30
0.0
 40
15.0
100
AcDbArc
 50
151.9454128044792
 51
310.7349756856346
  0
ARC
  5
27D
330
78
100
AcDbEntity
  8
0
  6
Continuous
 62
     0
100
AcDbCircle
 10
0.0
 20
0.0
 30
0.0
 40
15.0
100
AcDbArc
 50
101.5369706541951
 51
130.7350116578133
  0
ARC
  5
27E
330
78
100
AcDbEntity
  8
0
  6
Continuous
 62
     0
100
AcDbCircle
 10
25.75001525878906
 20
30.2500057220459
 30
0.0
 40
0.2500001192092896
100
AcDbArc
 50
180.0000223118003
 51
269.9999838351435
  0
CIRCLE
  5
27F
330
78
100
AcDbEntity
  8
0
  6
Continuous
 62
     0
100
AcDbCircle
 10
25.5
 20
38.75000762939453
 30
0.0
 40
0.2500001192092896
  0
ARC
  5
280
330
78
100
AcDbEntity
  8
0
  6
Continuous
 62
     0
100
AcDbCircle
 10
25.75001525878906
 20
30.2500057220459
 30
0.0
 40
0.2500001192092896
100
AcDbArc
 50
90.00001616485652
 51
180.0000050089563
  0
CIRCLE
  5
281
330
78
100
AcDbEntity
  8
0
  6
Continuous
 62
     0
100
AcDbCircle
 10
0.0
 20
39.49999237060547
 30
0.0
 40
14.0
  0
CIRCLE
  5
282
330
78
100
AcDbEntity
  8
0
  6
Continuous
 62
     0
100
AcDbCircle
 10
0.0
 20
39.49999237060547
 30
0.0
 40
10.5
  0
CIRCLE
  5
283
330
78
100
AcDbEntity
  8
0
  6
Continuous
 62
     0
100
AcDbCircle
 10
0.0
 20
39.49999237060547
 30
0.0
 40
9.299999237060547
  0
CIRCLE
  5
284
330
78
100
AcDbEntity
  8
0
  6
Continuous
 62
     0
100
AcDbCircle
 10
-15.0
 20
12.0
 30
0.0
 40
4.5
  0
CIRCLE
  5
285
330
78
100
AcDbEntity
  8
0
  6
Continuous
 62
     0
100
AcDbCircle
 10
15.0
 20
-12.0
 30
0.0
 40
4.5
  0
ARC
  5
286
330
78
100
AcDbEntity
  8
0
  6
Continuous
 62
     0
100
AcDbCircle
 10
15.0
 20
-12.0
 30
0.0
 40
5.25
100
AcDbArc
 50
109.6160394233772
 51
173.0643713785369
  0
ARC
  5
287
330
78
100
AcDbEntity
  8
0
  6
Continuous
 62
     0
100
AcDbCircle
 10
-15.0
 20
12.0
 30
0.0
 40
5.25
100
AcDbArc
 50
289.6160207540425
 51
353.0643548436364
  0
ARC
  5
288
330
78
100
AcDbEntity
  8
0
  6
Continuous
 62
     0
100
AcDbCircle
 10
-17.0
 20
54.73845381426226
 30
0.0
 40
5.361540845161571
100
AcDbArc
 50
49.24715152300847
 51
130.7528484769915
  0
ARC
  5
289
330
78
100
AcDbEntity
  8
0
  6
Continuous
 62
     0
100
AcDbCircle
 10
-16.0
 20
58.73845762895952
 30
0.0
 40
5.361540845161571
100
AcDbArc
 50
49.24715152300847
 51
130.7528484769915
  0
ARC
  5
28A
330
78
100
AcDbEntity
  8
0
  6
Continuous
 62
     0
100
AcDbCircle
 10
16.0
 20
58.73845762895952
 30
0.0
 40
5.361540845161571
100
AcDbArc
 50
49.24715152300843
 51
130.7528484769915
  0
ARC
  5
28B
330
78
100
AcDbEntity
  8
0
  6
Continuous
 62
     0
100
AcDbCircle
 10
17.0
 20
54.73845381426226
 30
0.0
 40
5.361540845161571
100
AcDbArc
 50
49.24715152300843
 51
130.7528484769915
  0
MTEXT
  5
28C
330
78
100
AcDbEntity
  8
0
 62
     0
100
AcDbMText
 10
-20.24569095224142
 20
50.96183776855469
 30
0.0
 40
0.5
 41
0.0
 71
     7
 72
     1
  1
{\W0.833333;BN-7M43-8-G/H***}
 73
     1
 44
1.0
  0
ENDBLK
  5
7A
330
78
100
AcDbEntity
  8
0
100
AcDbBlockEnd
  0
BLOCK
  5
7C
330
7B
100
AcDbEntity
  8
0
100
AcDbBlockBegin
  2
DTL0004
 70
     0
 10
0.0
 20
0.0
 30
0.0
  3
DTL0004
  1

  0
POINT
  5
28D
330
7B
100
AcDbEntity
  8
0
 62
     0
100
AcDbPoint
 10
0.0
 20
0.0
 30
0.0
  0
LINE
  5
28E
330
7B
100
AcDbEntity
  8
0
  6
CENTER
 62
     4
100
AcDbLine
 10
-19.58218765258789
 20
0.0
 30
0.0
 11
19.31530380249023
 21
0.0
 31
0.0
  0
LINE
  5
28F
330
7B
100
AcDbEntity
  8
0
  6
Continuous
 62
     0
100
AcDbLine
 10
17.0
 20
6.928939819335938
 30
0.0
 11
17.0
 21
0.0
 31
0.0
  0
LINE
  5
290
330
7B
100
AcDbEntity
  8
0
  6
Continuous
 62
     0
100
AcDbLine
 10
-17.0
 20
0.0
 30
0.0
 11
-17.0
 21
-6.928924560546875
 31
0.0
  0
LINE
  5
291
330
7B
100
AcDbEntity
  8
0
  6
CENTER
 62
     4
100
AcDbLine
 10
-3.686712569325735
 20
18.0
 30
0.0
 11
3.66099444301727
 21
18.0
 31
0.0
  0
LINE
  5
292
330
7B
100
AcDbEntity
  8
0
  6
Continuous
 62
     0
100
AcDbLine
 10
-3.0
 20
18.0
 30
0.0
 11
-3.0
 21
14.69694519042969
 31
0.0
  0
LINE
  5
293
330
7B
100
AcDbEntity
  8
0
  6
Continuous
 62
     0
100
AcDbLine
 10
3.0
 20
18.0
 30
0.0
 11
3.0
 21
14.69694519042969
 31
0.0
  0
LINE
  5
294
330
7B
100
AcDbEntity
  8
0
  6
Continuous
 62
     0
100
AcDbLine
 10
-4.500057943017666
 20
16.39361484089155
 30
0.0
 11
-3.889302528298415
 21
18.93477849765661
 31
0.0
  0
LINE
  5
295
330
7B
100
AcDbEntity
  8
0
  6
Continuous
 62
     0
100
AcDbLine
 10
4.354185829386482
 20
16.99998432750081
 30
0.0
 11
3.889177275468017
 21
18.93474054713361
 31
0.0
  0
LINE
  5
296
330
7B
100
AcDbEntity
  8
0
  6
Continuous
 62
     0
100
AcDbLine
 10
4.354248046875
 20
17.0
 30
0.0
 11
15.0
 21
17.0
 31
0.0
  0
LINE
  5
297
330
7B
100
AcDbEntity
  8
0
  6
Continuous
 62
     0
100
AcDbLine
 10
-15.0
 20
-17.0
 30
0.0
 11
0.0
 21
-17.0
 31
0.0
  0
LINE
  5
298
330
7B
100
AcDbEntity
  8
0
  6
Continuous
 62
     0
100
AcDbLine
 10
-18.53551234249033
 20
-8.464494778863957
 30
0.0
 11
-14.37057745584432
 21
-4.299560243295684
 31
0.0
  0
LINE
  5
299
330
7B
100
AcDbEntity
  8
0
  6
Continuous
 62
     0
100
AcDbLine
 10
-11.46443960243896
 20
-15.53556541756378
 30
0.0
 11
-8.3738899697786
 21
-12.44501604541725
 31
0.0
  0
LINE
  5
29A
330
7B
100
AcDbEntity
  8
0
  6
Continuous
 62
     0
100
AcDbLine
 10
14.37062904358404
 20
4.299492471161104
 30
0.0
 11
18.53556393023005
 21
8.464427006729377
 31
0.0
  0
LINE
  5
29B
330
7B
100
AcDbEntity
  8
0
  6
Continuous
 62
     0
100
AcDbLine
 10
8.373941894693095
 20
12.44494793610787
 30
0.0
 11
11.46449152735346
 21
15.53549730825439
 31
0.0
  0
LINE
  5
29C
330
7B
100
AcDbEntity
  8
0
  6
Continuous
 62
     0
100
AcDbLine
 10
-32.5
 20
-18.0
 30
0.0
 11
32.5
 21
-18.0
 31
0.0
  0
LINE
  5
29D
330
7B
100
AcDbEntity
  8
0
  6
Continuous
 62
     0
100
AcDbLine
 10
15.0
 20
-8.0
 30
0.0
 11
32.5
 21
-8.0
 31
0.0
  0
LINE
  5
29E
330
7B
100
AcDbEntity
  8
0
  6
Continuous
 62
     0
100
AcDbLine
 10
18.0
 20
16.0
 30
0.0
 11
32.5
 21
16.0
 31
0.0
  0
LINE
  5
29F
330
7B
100
AcDbEntity
  8
0
  6
Continuous
 62
     0
100
AcDbLine
 10
-5.74456787109375
 20
16.0
 30
0.0
 11
-32.5
 21
16.0
 31
0.0
  0
LINE
  5
2A0
330
7B
100
AcDbEntity
  8
0
  6
Continuous
 62
     0
100
AcDbLine
 10
-18.0
 20
-8.0
 30
0.0
 11
-32.5
 21
-8.0
 31
0.0
  0
LINE
  5
2A1
330
7B
100
AcDbEntity
  8
0
  6
DASHED
 62
     0
100
AcDbLine
 10
-32.5
 20
13.0
 30
0.0
 11
-21.0
 21
13.0
 31
0.0
  0
LINE
  5
2A2
330
7B
100
AcDbEntity
  8
0
  6
DASHED
 62
     0
100
AcDbLine
 10
-21.0
 20
16.0
 30
0.0
 11
-21.0
 21
13.0
 31
0.0
  0
LINE
  5
2A3
330
7B
100
AcDbEntity
  8
0
  6
Continuous
 62
     0
100
AcDbLine
 10
-16.80314722200669
 20
-13.80310408178612
 30
0.0
 11
-13.19689862610208
 21
-10.1968548779134
 31
0.0
  0
LINE
  5
2A4
330
7B
100
AcDbEntity
  8
0
  6
Continuous
 62
     0
100
AcDbLine
 10
-13.19690877453642
 20
-13.80310411497774
 30
0.0
 11
-16.80312291222823
 21
-10.19689058524813
 31
0.0
  0
LINE
  5
2A5
330
7B
100
AcDbEntity
  8
0
  6
Continuous
 62
     0
100
AcDbLine
 10
13.19686069393431
 20
10.19690359966708
 30
0.0
 11
16.80309850024661
 21
13.80314201394568
 31
0.0
  0
LINE
  5
2A6
330
7B
100
AcDbEntity
  8
0
  6
Continuous
 62
     0
100
AcDbLine
 10
16.80308447430142
 20
10.19690204918768
 30
0.0
 11
13.19687842880521
 21
13.80310748672306
 31
0.0
  0
LINE
  5
2A7
330
7B
100
AcDbEntity
  8
0
  6
CENTER
 62
     4
100
AcDbLine
 10
0.0
 20
-20.85390472412109
 30
0.0
 11
0.0
 21
106.475802191334
 31
0.0
  0
LINE
  5
2A8
330
7B
100
AcDbEntity
  8
0
  6
CENTER
 62
     4
100
AcDbLine
 10
-13.19391441345215
 20
36.49999237060547
 30
0.0
 11
13.40763282775879
 21
36.49999237060547
 31
0.0
  0
LINE
  5
2A9
330
7B
100
AcDbEntity
  8
0
  6
Continuous
 62
     0
100
AcDbLine
 10
-19.5
 20
61.5
 30
0.0
 11
-12.5
 21
61.5
 31
0.0
  0
LINE
  5
2AA
330
7B
100
AcDbEntity
  8
0
  6
CENTER
 62
     4
100
AcDbLine
 10
-16.0
 20
65.60557556152344
 30
0.0
 11
-16.0
 21
60.50001525878906
 31
0.0
  0
LINE
  5
2AB
330
7B
100
AcDbEntity
  8
0
  6
Continuous
 62
     0
100
AcDbLine
 10
-11.49934962116499
 20
60.5
 30
0.0
 11
-20.87673742496391
 21
60.5
 31
0.0
  0
LINE
  5
2AC
330
7B
100
AcDbEntity
  8
0
  6
Continuous
 62
     0
100
AcDbLine
 10
20.87657145981741
 20
60.5
 30
0.0
 11
11.49963385197942
 21
60.5
 31
0.0
  0
LINE
  5
2AD
330
7B
100
AcDbEntity
  8
0
  6
Continuous
 62
     0
100
AcDbLine
 10
-22.75003051757812
 20
31.10011863708496
 30
0.0
 11
-22.75003051757812
 21
37.90001678466797
 31
0.0
  0
LINE
  5
2AE
330
7B
100
AcDbEntity
  8
0
  6
Continuous
 62
     0
100
AcDbLine
 10
-23.75001525878906
 20
30.65004539489746
 30
0.0
 11
-23.75001525878906
 21
38.35009002685547
 31
0.0
  0
LINE
  5
2AF
330
7B
100
AcDbEntity
  8
0
  6
Continuous
 62
     0
100
AcDbLine
 10
-25.75003051757812
 20
29.5000057220459
 30
0.0
 11
-25.75003051757812
 21
39.49999237060547
 31
0.0
  0
LINE
  5
2B0
330
7B
100
AcDbEntity
  8
0
  6
Continuous
 62
     0
100
AcDbLine
 10
-26.75001525878906
 20
29.49999046325684
 30
0.0
 11
-26.75001525878906
 21
39.49999237060547
 31
0.0
  0
LINE
  5
2B1
330
7B
100
AcDbEntity
  8
0
  6
Continuous
 62
     0
100
AcDbLine
 10
-25.75001525878906
 20
30.65001487731934
 30
0.0
 11
-23.75
 21
30.65001487731934
 31
0.0
  0
LINE
  5
2B2
330
7B
100
AcDbEntity
  8
0
  6
Continuous
 62
     0
100
AcDbLine
 10
-26.75001525878906
 20
29.49999046325684
 30
0.0
 11
-25.75001525878906
 21
29.49999046325684
 31
0.0
  0
LINE
  5
2B3
330
7B
100
AcDbEntity
  8
0
  6
Continuous
 62
     0
100
AcDbLine
 10
-23.74998880389094
 20
30.65007645589719
 30
0.0
 11
-22.74999106815531
 21
31.1000876400164
 31
0.0
  0
LINE
  5
2B4
330
7B
100
AcDbEntity
  8
0
  6
Continuous
 62
     0
100
AcDbLine
 10
-22.75001525878906
 20
37.90001678466797
 30
0.0
 11
-21.0
 21
37.90001678466797
 31
0.0
  0
LINE
  5
2B5
330
7B
100
AcDbEntity
  8
0
  6
Continuous
 62
     0
100
AcDbLine
 10
-25.75001525878906
 20
38.35009002685547
 30
0.0
 11
-23.75
 21
38.35009002685547
 31
0.0
  0
LINE
  5
2B6
330
7B
100
AcDbEntity
  8
0
  6
Continuous
 62
     0
100
AcDbLine
 10
-26.75001525878906
 20
39.49999237060547
 30
0.0
 11
-25.75001525878906
 21
39.49999237060547
 31
0.0
  0
LINE
  5
2B7
330
7B
100
AcDbEntity
  8
0
  6
Continuous
 62
     0
100
AcDbLine
 10
-23.75002755079235
 20
38.35004445994389
 30
0.0
 11
-22.75002980282665
 21
37.90003330300187
 31
0.0
  0
LINE
  5
2B8
330
7B
100
AcDbEntity
  8
0
  6
PHANTOM
 62
     0
100
AcDbLine
 10
-25.5
 20
38.49999237060547
 30
0.0
 11
-21.0
 21
38.49999237060547
 31
0.0
  0
LINE
  5
2B9
330
7B
100
AcDbEntity
  8
0
  6
PHANTOM
 62
     0
100
AcDbLine
 10
-25.75001525878906
 20
30.49999046325684
 30
0.0
 11
-21.0
 21
30.49999046325684
 31
0.0
  0
LINE
  5
2BA
330
7B
100
AcDbEntity
  8
0
  6
PHANTOM
 62
     0
100
AcDbLine
 10
-25.5
 20
38.99999237060547
 30
0.0
 11
-21.0
 21
38.99999237060547
 31
0.0
  0
LINE
  5
2BB
330
7B
100
AcDbEntity
  8
0
  6
PHANTOM
 62
     0
100
AcDbLine
 10
-25.75001525878906
 20
29.99999046325684
 30
0.0
 11
-21.0
 21
29.99999046325684
 31
0.0
  0
LINE
  5
2BC
330
7B
100
AcDbEntity
  8
0
  6
Continuous
 62
     0
100
AcDbLine
 10
-25.75003051757812
 20
30.5000057220459
 30
0.0
 11
-25.75003051757812
 21
30.00002098083496
 31
0.0
  0
LINE
  5
2BD
330
7B
100
AcDbEntity
  8
0
  6
Continuous
 62
     0
100
AcDbLine
 10
-22.75001525878906
 20
31.10008811950684
 30
0.0
 11
-21.0
 21
31.10008811950684
 31
0.0
  0
LINE
  5
2BE
330
7B
100
AcDbEntity
  8
0
  6
CENTER
 62
     4
100
AcDbLine
 10
-28.05619812011719
 20
34.50000762939453
 30
0.0
 11
-21.0
 21
34.50000762939453
 31
0.0
  0
LINE
  5
2BF
330
7B
100
AcDbEntity
  8
0
  6
DASHED
 62
     0
100
AcDbLine
 10
28.87500000000001
 20
9.777386467056829
 30
0.0
 11
32.4999937576391
 21
9.903974302803473
 31
0.0
  0
LINE
  5
2C0
330
7B
100
AcDbEntity
  8
0
  6
DASHED
 62
     0
100
AcDbLine
 10
28.875
 20
-1.777381492453433
 30
0.0
 11
32.49998911572983
 21
-1.903968625605978
 31
0.0
  0
LINE
  5
2C1
330
7B
100
AcDbEntity
  8
0
  6
DASHED
 62
     0
100
AcDbLine
 10
28.875
 20
10.63391200273916
 30
0.0
 11
32.47011959489053
 21
10.75945660755634
 31
0.0
  0
LINE
  5
2C2
330
7B
100
AcDbEntity
  8
0
  6
DASHED
 62
     0
100
AcDbLine
 10
28.875
 20
-2.633906844758533
 30
0.0
 11
32.47011508662091
 21
-2.759450756102714
 31
0.0
  0
LINE
  5
2C3
330
7B
100
AcDbEntity
  8
0
  6
CENTER
 62
     4
100
AcDbLine
 10
34.78912353515625
 20
4.0
 30
0.0
 11
28.875
 21
4.0
 31
0.0
  0
LINE
  5
2C4
330
7B
100
AcDbEntity
  8
0
  6
Continuous
 62
     0
100
AcDbLine
 10
-32.5
 20
-18.0
 30
0.0
 11
-32.5
 21
16.0
 31
0.0
  0
LINE
  5
2C5
330
7B
100
AcDbEntity
  8
0
  6
Continuous
 62
     0
100
AcDbLine
 10
32.5
 20
-18.0
 30
0.0
 11
32.5
 21
16.0
 31
0.0
  0
LINE
  5
2C6
330
7B
100
AcDbEntity
  8
0
  6
Continuous
 62
     0
100
AcDbLine
 10
-21.0
 20
22.5
 30
0.0
 11
-21.0
 21
16.0
 31
0.0
  0
LINE
  5
2C7
330
7B
100
AcDbEntity
  8
0
  6
Continuous
 62
     0
100
AcDbLine
 10
21.0
 20
22.5
 30
0.0
 11
21.0
 21
16.0
 31
0.0
  0
LINE
  5
2C8
330
7B
100
AcDbEntity
  8
0
  6
DASHED
 62
     0
100
AcDbLine
 10
32.5
 20
13.0
 30
0.0
 11
21.0
 21
13.0
 31
0.0
  0
LINE
  5
2C9
330
7B
100
AcDbEntity
  8
0
  6
DASHED
 62
     0
100
AcDbLine
 10
21.0
 20
16.0
 30
0.0
 11
21.0
 21
14.0
 31
0.0
  0
LINE
  5
2CA
330
7B
100
AcDbEntity
  8
0
  6
CENTER
 62
     4
100
AcDbLine
 10
-27.5
 20
-20.14756774902344
 30
0.0
 11
-27.5
 21
14.15525817871094
 31
0.0
  0
LINE
  5
2CB
330
7B
100
AcDbEntity
  8
0
  6
CENTER
 62
     4
100
AcDbLine
 10
27.5
 20
-19.770263671875
 30
0.0
 11
27.5
 21
14.78408813476562
 31
0.0
  0
LINE
  5
2CC
330
7B
100
AcDbEntity
  8
0
  6
DASHED
 62
     0
100
AcDbLine
 10
-30.25
 20
-18.0
 30
0.0
 11
-30.25
 21
13.0
 31
0.0
  0
LINE
  5
2CD
330
7B
100
AcDbEntity
  8
0
  6
DASHED
 62
     0
100
AcDbLine
 10
-24.75
 20
-18.0
 30
0.0
 11
-24.75
 21
13.0
 31
0.0
  0
LINE
  5
2CE
330
7B
100
AcDbEntity
  8
0
  6
DASHED
 62
     0
100
AcDbLine
 10
24.75
 20
-18.0
 30
0.0
 11
24.75
 21
13.0
 31
0.0
  0
LINE
  5
2CF
330
7B
100
AcDbEntity
  8
0
  6
DASHED
 62
     0
100
AcDbLine
 10
30.25
 20
-18.0
 30
0.0
 11
30.25
 21
13.0
 31
0.0
  0
LINE
  5
2D0
330
7B
100
AcDbEntity
  8
0
  6
Continuous
 62
     0
100
AcDbLine
 10
-21.0
 20
22.5
 30
0.0
 11
-21.0
 21
53.5
 31
0.0
  0
LINE
  5
2D1
330
7B
100
AcDbEntity
  8
0
  6
Continuous
 62
     0
100
AcDbLine
 10
21.0
 20
22.5
 30
0.0
 11
21.0
 21
53.5
 31
0.0
  0
LINE
  5
2D2
330
7B
100
AcDbEntity
  8
0
  6
CENTER
 62
     4
100
AcDbLine
 10
0.999992370605469
 20
34.50000381469727
 30
0.0
 11
5.0
 21
34.50000381469727
 31
0.0
  0
LINE
  5
2D3
330
7B
100
AcDbEntity
  8
0
  6
CENTER
 62
     4
100
AcDbLine
 10
3.0
 20
36.50000762939453
 30
0.0
 11
3.0
 21
32.5
 31
0.0
  0
LINE
  5
2D4
330
7B
100
AcDbEntity
  8
0
  6
Continuous
 62
     0
100
AcDbLine
 10
-21.0
 20
53.5
 30
0.0
 11
21.0
 21
53.5
 31
0.0
  0
LINE
  5
2D5
330
7B
100
AcDbEntity
  8
0
  6
Continuous
 62
     0
100
AcDbLine
 10
-20.10057937121503
 20
104.5000457763672
 30
0.0
 11
-21.00021687361437
 21
53.50000642031854
 31
0.0
  0
LINE
  5
2D6
330
7B
100
AcDbEntity
  8
0
  6
Continuous
 62
     0
100
AcDbLine
 10
-20.10057937121502
 20
104.5000457763672
 30
0.0
 11
-9.200000762939453
 21
104.5000457763672
 31
0.0
  0
LINE
  5
2D7
330
7B
100
AcDbEntity
  8
0
  6
Continuous
 62
     0
100
AcDbLine
 10
-9.100173950195312
 20
54.50001525878906
 30
0.0
 11
-6.899948120117188
 21
54.50001525878906
 31
0.0
  0
LINE
  5
2D8
330
7B
100
AcDbEntity
  8
0
  6
Continuous
 62
     0
100
AcDbLine
 10
-9.195000648498535
 20
102.0000457763672
 30
0.0
 11
-6.80507230758667
 21
102.0000457763672
 31
0.0
  0
LINE
  5
2D9
330
7B
100
AcDbEntity
  8
0
  6
Continuous
 62
     0
100
AcDbLine
 10
-9.200007264440847
 20
104.5000458603714
 30
0.0
 11
-9.100021569199253
 21
54.50000850248777
 31
0.0
  0
LINE
  5
2DA
330
7B
100
AcDbEntity
  8
0
  6
Continuous
 62
     0
100
AcDbLine
 10
-6.800080043888253
 20
104.5000436888937
 30
0.0
 11
-6.900065708616721
 21
54.50002158976861
 31
0.0
  0
LINE
  5
2DB
330
7B
100
AcDbEntity
  8
0
  6
Continuous
 62
     0
100
AcDbLine
 10
-5.200090333695348
 20
104.5000412930346
 30
0.0
 11
-5.100104653710317
 21
54.50001156453022
 31
0.0
  0
LINE
  5
2DC
330
7B
100
AcDbEntity
  8
0
  6
Continuous
 62
     0
100
AcDbLine
 10
-2.800011017649985
 20
104.5000403226735
 30
0.0
 11
-2.899996682378451
 21
54.50001822354841
 31
0.0
  0
LINE
  5
2DD
330
7B
100
AcDbEntity
  8
0
  6
Continuous
 62
     0
100
AcDbLine
 10
-1.100021053454673
 20
54.49999970107469
 30
0.0
 11
-1.200006763952833
 21
104.5000446883377
 31
0.0
  0
LINE
  5
2DE
330
7B
100
AcDbEntity
  8
0
  6
Continuous
 62
     0
100
AcDbLine
 10
-10.80026760974995
 20
104.5000457763672
 30
0.0
 11
-11.49934962116499
 21
60.5
 31
0.0
  0
LINE
  5
2DF
330
7B
100
AcDbEntity
  8
0
  6
Continuous
 62
     0
100
AcDbLine
 10
-5.195083618164062
 20
102.0000457763672
 30
0.0
 11
-2.805002689361572
 21
102.0000457763672
 31
0.0
  0
LINE
  5
2E0
330
7B
100
AcDbEntity
  8
0
  6
Continuous
 62
     0
100
AcDbLine
 10
-1.194999575614929
 20
102.0000457763672
 30
0.0
 11
1.195065379142761
 21
102.0000457763672
 31
0.0
  0
LINE
  5
2E1
330
7B
100
AcDbEntity
  8
0
  6
Continuous
 62
     0
100
AcDbLine
 10
-6.800073146820068
 20
104.5000457763672
 30
0.0
 11
-5.200082778930664
 21
104.5000457763672
 31
0.0
  0
LINE
  5
2E2
330
7B
100
AcDbEntity
  8
0
  6
Continuous
 62
     0
100
AcDbLine
 10
-2.800003290176392
 20
104.5000457763672
 30
0.0
 11
-1.19999885559082
 21
104.5000457763672
 31
0.0
  0
LINE
  5
2E3
330
7B
100
AcDbEntity
  8
0
  6
Continuous
 62
     0
100
AcDbLine
 10
-5.100105285644531
 20
54.50001525878906
 30
0.0
 11
-2.899871826171875
 21
54.50001525878906
 31
0.0
  0
LINE
  5
2E4
330
7B
100
AcDbEntity
  8
0
  6
Continuous
 62
     0
100
AcDbLine
 10
-1.10003662109375
 20
54.50001525878906
 30
0.0
 11
-0.000007629394531
 21
54.50001525878906
 31
0.0
  0
LINE
  5
2E5
330
7B
100
AcDbEntity
  8
0
  6
Continuous
 62
     0
100
AcDbLine
 10
20.10041340606853
 20
104.5000457763672
 30
0.0
 11
21.00005096009474
 21
53.50000349361444
 31
0.0
  0
LINE
  5
2E6
330
7B
100
AcDbEntity
  8
0
  6
Continuous
 62
     0
100
AcDbLine
 10
20.10041340606852
 20
104.5000457763672
 30
0.0
 11
9.199540138244629
 21
104.5000457763672
 31
0.0
  0
LINE
  5
2E7
330
7B
100
AcDbEntity
  8
0
  6
Continuous
 62
     0
100
AcDbLine
 10
9.100166320800781
 20
54.50001525878906
 30
0.0
 11
6.899932861328125
 21
54.50001525878906
 31
0.0
  0
LINE
  5
2E8
330
7B
100
AcDbEntity
  8
0
  6
Continuous
 62
     0
100
AcDbLine
 10
9.194540023803711
 20
102.0000457763672
 30
0.0
 11
6.804626941680908
 21
102.0000457763672
 31
0.0
  0
LINE
  5
2E9
330
7B
100
AcDbEntity
  8
0
  6
Continuous
 62
     0
100
AcDbLine
 10
9.199530412979477
 20
104.5000391845274
 30
0.0
 11
9.099544763507575
 21
54.5000247147816
 31
0.0
  0
LINE
  5
2EA
330
7B
100
AcDbEntity
  8
0
  6
Continuous
 62
     0
100
AcDbLine
 10
6.799617989605795
 20
104.500042764918
 30
0.0
 11
6.89960368484739
 21
54.50000540703438
 31
0.0
  0
LINE
  5
2EB
330
7B
100
AcDbEntity
  8
0
  6
Continuous
 62
     0
100
AcDbLine
 10
5.199788973213911
 20
104.5000418956689
 30
0.0
 11
5.099803323742009
 21
54.50002742592307
 31
0.0
  0
LINE
  5
2EC
330
7B
100
AcDbEntity
  8
0
  6
Continuous
 62
     0
100
AcDbLine
 10
2.799886086564325
 20
104.5000400728473
 30
0.0
 11
2.899871781805921
 21
54.50000271496361
 31
0.0
  0
LINE
  5
2ED
330
7B
100
AcDbEntity
  8
0
  6
Continuous
 62
     0
100
AcDbLine
 10
1.10007055572405
 20
54.50001486090396
 30
0.0
 11
1.200056235709081
 21
104.5000445894084
 31
0.0
  0
LINE
  5
2EE
330
7B
100
AcDbEntity
  8
0
  6
Continuous
 62
     0
100
AcDbLine
 10
10.80055184056439
 20
104.5000457763672
 30
0.0
 11
11.49963385197943
 21
60.5
 31
0.0
  0
LINE
  5
2EF
330
7B
100
AcDbEntity
  8
0
  6
Continuous
 62
     0
100
AcDbLine
 10
5.194798469543457
 20
102.0000457763672
 30
0.0
 11
2.804893970489502
 21
102.0000457763672
 31
0.0
  0
LINE
  5
2F0
330
7B
100
AcDbEntity
  8
0
  6
Continuous
 62
     0
100
AcDbLine
 10
6.799627780914307
 20
104.5000457763672
 30
0.0
 11
5.199797630310059
 21
104.5000457763672
 31
0.0
  0
LINE
  5
2F1
330
7B
100
AcDbEntity
  8
0
  6
Continuous
 62
     0
100
AcDbLine
 10
2.799894571304321
 20
104.5000457763672
 30
0.0
 11
1.200064659118652
 21
104.5000457763672
 31
0.0
  0
LINE
  5
2F2
330
7B
100
AcDbEntity
  8
0
  6
Continuous
 62
     0
100
AcDbLine
 10
5.100090026855469
 20
54.50001525878906
 30
0.0
 11
2.899864196777344
 21
54.50001525878906
 31
0.0
  0
LINE
  5
2F3
330
7B
100
AcDbEntity
  8
0
  6
Continuous
 62
     0
100
AcDbLine
 10
1.100021362304688
 20
54.50001525878906
 30
0.0
 11
-0.000007629394531
 21
54.50001525878906
 31
0.0
  0
LINE
  5
2F4
330
7B
100
AcDbEntity
  8
0
  6
Continuous
 62
     0
100
AcDbLine
 10
-21.0
 20
22.5
 30
0.0
 11
21.0
 21
22.5
 31
0.0
  0
LINE
  5
2F5
330
7B
100
AcDbEntity
  8
0
  6
Continuous
 62
     0
100
AcDbLine
 10
23.0
 20
25.5
 30
0.0
 11
23.0
 21
56.5
 31
0.0
  0
LINE
  5
2F6
330
7B
100
AcDbEntity
  8
0
  6
Continuous
 62
     0
100
AcDbLine
 10
-23.0
 20
25.5
 30
0.0
 11
-23.0
 21
29.99999046325684
 31
0.0
  0
LINE
  5
2F7
330
7B
100
AcDbEntity
  8
0
  6
Continuous
 62
     0
100
AcDbLine
 10
-23.0
 20
53.5
 30
0.0
 11
-21.0
 21
53.5
 31
0.0
  0
LINE
  5
2F8
330
7B
100
AcDbEntity
  8
0
  6
Continuous
 62
     0
100
AcDbLine
 10
21.0
 20
53.5
 30
0.0
 11
23.0
 21
53.5
 31
0.0
  0
LINE
  5
2F9
330
7B
100
AcDbEntity
  8
0
  6
Continuous
 62
     0
100
AcDbLine
 10
-23.0
 20
38.99999237060547
 30
0.0
 11
-23.0
 21
56.5
 31
0.0
  0
LINE
  5
2FA
330
7B
100
AcDbEntity
  8
0
  6
Continuous
 62
     0
100
AcDbLine
 10
-23.0
 20
54.5
 30
0.0
 11
-21.0
 21
54.5
 31
0.0
  0
LINE
  5
2FB
330
7B
100
AcDbEntity
  8
0
  6
Continuous
 62
     0
100
AcDbLine
 10
21.0
 20
54.5
 30
0.0
 11
23.0
 21
54.5
 31
0.0
  0
LINE
  5
2FC
330
7B
100
AcDbEntity
  8
0
  6
Continuous
 62
     0
100
AcDbLine
 10
-23.0
 20
56.5
 30
0.0
 11
-21.0
 21
56.5
 31
0.0
  0
LINE
  5
2FD
330
7B
100
AcDbEntity
  8
0
  6
Continuous
 62
     0
100
AcDbLine
 10
21.0
 20
56.5
 30
0.0
 11
23.0
 21
56.5
 31
0.0
  0
LINE
  5
2FE
330
7B
100
AcDbEntity
  8
0
  6
Continuous
 62
     0
100
AcDbLine
 10
-21.99999815765786
 20
56.4999981182137
 30
0.0
 11
-21.24999792243457
 21
62.50000000000001
 31
0.0
  0
LINE
  5
2FF
330
7B
100
AcDbEntity
  8
0
  6
Continuous
 62
     0
100
AcDbLine
 10
22.00000005027772
 20
56.49999835479119
 30
0.0
 11
21.24999984462661
 21
62.50000000000001
 31
0.0
  0
LINE
  5
300
330
7B
100
AcDbEntity
  8
0
  6
Continuous
 62
     0
100
AcDbLine
 10
-19.5
 20
62.79999923706055
 30
0.0
 11
-19.5
 21
60.5
 31
0.0
  0
LINE
  5
301
330
7B
100
AcDbEntity
  8
0
  6
Continuous
 62
     0
100
AcDbLine
 10
-12.5
 20
62.79999923706055
 30
0.0
 11
-12.5
 21
60.5
 31
0.0
  0
LINE
  5
302
330
7B
100
AcDbEntity
  8
0
  6
DASHED
 62
     0
100
AcDbLine
 10
-28.875
 20
-2.633908753269774
 30
0.0
 11
-32.47011502005555
 21
-2.759452662289446
 31
0.0
  0
LINE
  5
303
330
7B
100
AcDbEntity
  8
0
  6
DASHED
 62
     0
100
AcDbLine
 10
-28.875
 20
-1.777381492453433
 30
0.0
 11
-32.49998911572983
 21
-1.903968625605978
 31
0.0
  0
LINE
  5
304
330
7B
100
AcDbEntity
  8
0
  6
DASHED
 62
     0
100
AcDbLine
 10
-28.87500000000001
 20
9.777385512801203
 30
0.0
 11
-32.49999760329537
 21
9.903973482841405
 31
0.0
  0
LINE
  5
305
330
7B
100
AcDbEntity
  8
0
  6
DASHED
 62
     0
100
AcDbLine
 10
-28.875
 20
10.63391200273916
 30
0.0
 11
-32.47011959489053
 21
10.75945660755634
 31
0.0
  0
LINE
  5
306
330
7B
100
AcDbEntity
  8
0
  6
CENTER
 62
     4
100
AcDbLine
 10
-34.78912353515625
 20
4.0
 30
0.0
 11
-28.875
 21
4.0
 31
0.0
  0
LINE
  5
307
330
7B
100
AcDbEntity
  8
0
  6
Continuous
 62
     0
100
AcDbLine
 10
23.0
 20
25.5
 30
0.0
 11
21.0
 21
25.5
 31
0.0
  0
LINE
  5
308
330
7B
100
AcDbEntity
  8
0
  6
Continuous
 62
     0
100
AcDbLine
 10
21.2499998446266
 20
62.5
 30
0.0
 11
20.84129158498756
 21
62.5
 31
0.0
  0
LINE
  5
309
330
7B
100
AcDbEntity
  8
0
  6
Continuous
 62
     0
100
AcDbLine
 10
-20.84145755013406
 20
62.5
 30
0.0
 11
-21.24999792243457
 21
62.5
 31
0.0
  0
LINE
  5
30A
330
7B
100
AcDbEntity
  8
0
  6
Continuous
 62
     0
100
AcDbLine
 10
-21.0
 20
25.5
 30
0.0
 11
-23.0
 21
25.5
 31
0.0
  0
LINE
  5
30B
330
7B
100
AcDbEntity
  8
0
  6
Continuous
 62
     0
100
AcDbLine
 10
19.5
 20
61.5
 30
0.0
 11
12.5
 21
61.5
 31
0.0
  0
LINE
  5
30C
330
7B
100
AcDbEntity
  8
0
  6
CENTER
 62
     4
100
AcDbLine
 10
16.0
 20
65.60557556152344
 30
0.0
 11
16.0
 21
60.50001525878906
 31
0.0
  0
LINE
  5
30D
330
7B
100
AcDbEntity
  8
0
  6
Continuous
 62
     0
100
AcDbLine
 10
19.5
 20
62.79999923706055
 30
0.0
 11
19.5
 21
60.5
 31
0.0
  0
LINE
  5
30E
330
7B
100
AcDbEntity
  8
0
  6
Continuous
 62
     0
100
AcDbLine
 10
12.5
 20
62.79999923706055
 30
0.0
 11
12.5
 21
60.5
 31
0.0
  0
LINE
  5
30F
330
7B
100
AcDbEntity
  8
0
  6
DASHED
 62
     0
100
AcDbLine
 10
21.0
 20
16.0
 30
0.0
 11
21.0
 21
13.0
 31
0.0
  0
ARC
  5
310
330
7B
100
AcDbEntity
  8
0
  6
Continuous
 62
     0
100
AcDbCircle
 10
0.0
 20
0.0
 30
0.0
 40
15.0
100
AcDbArc
 50
101.2008183696332
 51
208.0545698926768
  0
ARC
  5
311
330
7B
100
AcDbEntity
  8
0
  6
Continuous
 62
     0
100
AcDbCircle
 10
0.0
 20
0.0
 30
0.0
 40
17.0
100
AcDbArc
 50
105.349493456437
 51
179.9999640278213
  0
ARC
  5
312
330
7B
100
AcDbEntity
  8
0
  6
Continuous
 62
     0
100
AcDbCircle
 10
0.0
 20
18.0
 30
0.0
 40
4.0
100
AcDbArc
 50
13.51440353708399
 51
166.485587811494
  0
ARC
  5
313
330
7B
100
AcDbEntity
  8
0
  6
Continuous
 62
     0
100
AcDbCircle
 10
0.0
 20
18.0
 30
0.0
 40
3.0
100
AcDbArc
 50
0.0
 51
179.9999640278213
  0
ARC
  5
314
330
7B
100
AcDbEntity
  8
0
  6
Continuous
 62
     0
100
AcDbCircle
 10
-15.0
 20
-12.0
 30
0.0
 40
5.0
100
AcDbArc
 50
135.0000003416227
 51
314.999964369444
  0
ARC
  5
315
330
7B
100
AcDbEntity
  8
0
  6
Continuous
 62
     0
100
AcDbCircle
 10
15.0
 20
12.0
 30
0.0
 40
5.0
100
AcDbArc
 50
315.0000158232339
 51
135.0000003416227
  0
ARC
  5
316
330
7B
100
AcDbEntity
  8
0
  6
Continuous
 62
     0
100
AcDbCircle
 10
0.0
 20
0.0
 30
0.0
 40
17.0
100
AcDbArc
 50
270.0000179860893
 51
0.0
  0
ARC
  5
317
330
7B
100
AcDbEntity
  8
0
  6
Continuous
 62
     0
100
AcDbCircle
 10
0.0
 20
14.0
 30
0.0
 40
3.0
100
AcDbArc
 50
13.77412489536831
 51
166.2258766984934
  0
ARC
  5
318
330
7B
100
AcDbEntity
  8
0
  6
Continuous
 62
     0
100
AcDbCircle
 10
0.0
 20
0.0
 30
0.0
 40
15.0
100
AcDbArc
 50
229.2649883421867
 51
28.05460074221363
  0
ARC
  5
319
330
7B
100
AcDbEntity
  8
0
  6
Continuous
 62
     0
100
AcDbCircle
 10
0.0
 20
0.0
 30
0.0
 40
15.0
100
AcDbArc
 50
49.26501384171058
 51
78.79918163036677
  0
ARC
  5
31A
330
7B
100
AcDbEntity
  8
0
  6
Continuous
 62
     0
100
AcDbCircle
 10
-25.75001525878906
 20
30.2500057220459
 30
0.0
 40
0.2500001192092896
100
AcDbArc
 50
270.0000179860893
 51
359.9999795094325
  0
CIRCLE
  5
31B
330
7B
100
AcDbEntity
  8
0
  6
Continuous
 62
     0
100
AcDbCircle
 10
-25.5
 20
38.75000762939453
 30
0.0
 40
0.2500001192092896
  0
ARC
  5
31C
330
7B
100
AcDbEntity
  8
0
  6
Continuous
 62
     0
100
AcDbCircle
 10
-25.75001525878906
 20
30.2500057220459
 30
0.0
 40
0.2500001192092896
100
AcDbArc
 50
0.0
 51
89.99998201391067
  0
CIRCLE
  5
31D
330
7B
100
AcDbEntity
  8
0
  6
Continuous
 62
     0
100
AcDbCircle
 10
0.0
 20
36.50000381469727
 30
0.0
 40
6.500001907348633
  0
CIRCLE
  5
31E
330
7B
100
AcDbEntity
  8
0
  6
Continuous
 62
     0
100
AcDbCircle
 10
3.0
 20
34.50000381469727
 30
0.0
 40
1.25
  0
CIRCLE
  5
31F
330
7B
100
AcDbEntity
  8
0
  6
Continuous
 62
     0
100
AcDbCircle
 10
0.0
 20
36.50000381469727
 30
0.0
 40
10.00000286102295
  0
CIRCLE
  5
320
330
7B
100
AcDbEntity
  8
0
  6
Continuous
 62
     0
100
AcDbCircle
 10
15.0
 20
12.0
 30
0.0
 40
4.5
  0
CIRCLE
  5
321
330
7B
100
AcDbEntity
  8
0
  6
Continuous
 62
     0
100
AcDbCircle
 10
-15.0
 20
-12.0
 30
0.0
 40
4.5
  0
ARC
  5
322
330
7B
100
AcDbEntity
  8
0
  6
Continuous
 62
     0
100
AcDbCircle
 10
-15.0
 20
-12.0
 30
0.0
 40
5.25
100
AcDbArc
 50
6.935645156363632
 51
70.38397924595752
  0
ARC
  5
323
330
7B
100
AcDbEntity
  8
0
  6
Continuous
 62
     0
100
AcDbCircle
 10
15.0
 20
12.0
 30
0.0
 40
5.25
100
AcDbArc
 50
186.9356286214631
 51
250.3839605766228
  0
ARC
  5
324
330
7B
100
AcDbEntity
  8
0
  6
Continuous
 62
     0
100
AcDbCircle
 10
-16.0
 20
58.73845762895952
 30
0.0
 40
5.361540845161571
100
AcDbArc
 50
49.24715152300847
 51
130.7528484769915
  0
ARC
  5
325
330
7B
100
AcDbEntity
  8
0
  6
Continuous
 62
     0
100
AcDbCircle
 10
16.0
 20
58.73845762895952
 30
0.0
 40
5.361540845161571
100
AcDbArc
 50
49.24715152300843
 51
130.7528484769915
  0
MTEXT
  5
326
330
7B
100
AcDbEntity
  8
0
 62
     0
100
AcDbMText
 10
-18.63690723031759
 20
49.45762252807617
 30
0.0
 40
0.5
 41
0.0
 71
     7
 72
     1
  1
{\W0.833333;BN-7M43-8-G/H***}
 73
     1
 44
1.0
  0
ENDBLK
  5
7D
330
7B
100
AcDbEntity
  8
0
100
AcDbBlockEnd
  0
BLOCK
  5
7F
330
7E
100
AcDbEntity
  8
0
100
AcDbBlockBegin
  2
DTL0005
 70
     0
 10
0.0
 20
0.0
 30
0.0
  3
DTL0005
  1

  0
POINT
  5
327
330
7E
100
AcDbEntity
  8
0
 62
     0
100
AcDbPoint
 10
0.0
 20
0.0
 30
0.0
  0
LINE
  5
328
330
7E
100
AcDbEntity
  8
0
  6
Continuous
 62
     0
100
AcDbLine
 10
-47.0
 20
13.00000381469727
 30
0.0
 11
-47.0
 21
0.930185317993164
 31
0.0
  0
LINE
  5
329
330
7E
100
AcDbEntity
  8
0
  6
CENTER
 62
     4
100
AcDbLine
 10
0.0
 20
102.9735607129434
 30
0.0
 11
0.0
 21
-24.76506042480469
 31
0.0
  0
LINE
  5
32A
330
7E
100
AcDbEntity
  8
0
  6
Continuous
 62
     0
100
AcDbLine
 10
26.0
 20
18.5
 30
0.0
 11
-26.0
 21
18.5
 31
0.0
  0
LINE
  5
32B
330
7E
100
AcDbEntity
  8
0
  6
Continuous
 62
     0
100
AcDbLine
 10
25.99988746643066
 20
49.5
 30
0.0
 11
-26.00005340576172
 21
49.5
 31
0.0
  0
LINE
  5
32C
330
7E
100
AcDbEntity
  8
0
  6
Continuous
 62
     0
100
AcDbLine
 10
25.99988746643066
 20
49.5
 30
0.0
 11
25.99988746643066
 21
9.0
 31
0.0
  0
LINE
  5
32D
330
7E
100
AcDbEntity
  8
0
  6
Continuous
 62
     0
100
AcDbLine
 10
-26.00005340576172
 20
49.5
 30
0.0
 11
-26.00005340576172
 21
9.0
 31
0.0
  0
LINE
  5
32E
330
7E
100
AcDbEntity
  8
0
  6
Continuous
 62
     0
100
AcDbLine
 10
18.69996643066406
 20
42.19999313354492
 30
0.0
 11
-18.70008087158203
 21
42.19999313354492
 31
0.0
  0
LINE
  5
32F
330
7E
100
AcDbEntity
  8
0
  6
Continuous
 62
     0
100
AcDbLine
 10
18.69996643066406
 20
23.80000114440918
 30
0.0
 11
-18.70008087158203
 21
23.80000114440918
 31
0.0
  0
LINE
  5
330
330
7E
100
AcDbEntity
  8
0
  6
Continuous
 62
     0
100
AcDbLine
 10
18.69996643066406
 20
42.19999313354492
 30
0.0
 11
18.69996643066406
 21
23.80000114440918
 31
0.0
  0
LINE
  5
331
330
7E
100
AcDbEntity
  8
0
  6
Continuous
 62
     0
100
AcDbLine
 10
-18.70008087158203
 20
42.19999313354492
 30
0.0
 11
-18.70008087158203
 21
23.80000114440918
 31
0.0
  0
LINE
  5
332
330
7E
100
AcDbEntity
  8
0
  6
Continuous
 62
     0
100
AcDbLine
 10
29.00000762939453
 20
21.99998474121094
 30
0.0
 11
25.99988746643066
 21
21.99998474121094
 31
0.0
  0
LINE
  5
333
330
7E
100
AcDbEntity
  8
0
  6
Continuous
 62
     0
100
AcDbLine
 10
29.00000762939453
 20
49.00000762939453
 30
0.0
 11
25.99988746643066
 21
49.00000762939453
 31
0.0
  0
LINE
  5
334
330
7E
100
AcDbEntity
  8
0
  6
Continuous
 62
     0
100
AcDbLine
 10
29.00000762939453
 20
49.00000762939453
 30
0.0
 11
29.00000762939453
 21
21.99998474121094
 31
0.0
  0
LINE
  5
335
330
7E
100
AcDbEntity
  8
0
  6
CENTER
 62
     4
100
AcDbLine
 10
6.086010162171134
 20
30.49999618530273
 30
0.0
 11
-6.059689160924082
 21
30.49999618530273
 31
0.0
  0
LINE
  5
336
330
7E
100
AcDbEntity
  8
0
  6
CENTER
 62
     4
100
AcDbLine
 10
-26.00005340576172
 20
32.50000381469727
 30
0.0
 11
-30.27499961853027
 21
32.50000381469727
 31
0.0
  0
LINE
  5
337
330
7E
100
AcDbEntity
  8
0
  6
Continuous
 62
     0
100
AcDbLine
 10
-27.00004959106445
 20
41.7500114440918
 30
0.0
 11
-27.00004959106445
 21
23.24998474121094
 31
0.0
  0
LINE
  5
338
330
7E
100
AcDbEntity
  8
0
  6
Continuous
 62
     0
100
AcDbLine
 10
-26.00006840825039
 20
42.49996592998424
 30
0.0
 11
-27.00006878077942
 21
41.74996563196102
 31
0.0
  0
LINE
  5
339
330
7E
100
AcDbEntity
  8
0
  6
Continuous
 62
     0
100
AcDbLine
 10
-27.00004077851779
 20
23.24999517202425
 30
0.0
 11
-26.00003163218513
 21
22.49998829364813
 31
0.0
  0
LINE
  5
33A
330
7E
100
AcDbEntity
  8
0
  6
Continuous
 62
     0
100
AcDbLine
 10
-7.000123023986816
 20
30.49999618530273
 30
0.0
 11
-7.000123023986816
 21
23.80000114440918
 31
0.0
  0
LINE
  5
33B
330
7E
100
AcDbEntity
  8
0
  6
Continuous
 62
     0
100
AcDbLine
 10
6.999996185302734
 20
30.49999618530273
 30
0.0
 11
6.999996185302734
 21
23.80000114440918
 31
0.0
  0
LINE
  5
33C
330
7E
100
AcDbEntity
  8
0
  6
Continuous
 62
     0
100
AcDbLine
 10
-25.000205717655
 20
100.5000610351562
 30
0.0
 11
24.99978794326912
 21
100.5000610351562
 31
0.0
  0
LINE
  5
33D
330
7E
100
AcDbEntity
  8
0
  6
Continuous
 62
     0
100
AcDbLine
 10
-25.000205717655
 20
100.5000610351563
 30
0.0
 11
-25.90020056657363
 21
49.50000000000001
 31
0.0
  0
LINE
  5
33E
330
7E
100
AcDbEntity
  8
0
  6
Continuous
 62
     0
100
AcDbLine
 10
-25.77667180770192
 20
56.5000114440918
 30
0.0
 11
-17.49934730936208
 21
56.5000114440918
 31
0.0
  0
LINE
  5
33F
330
7E
100
AcDbEntity
  8
0
  6
Continuous
 62
     0
100
AcDbLine
 10
24.99978794326913
 20
100.5000610351563
 30
0.0
 11
25.89978279218776
 21
49.50000000000001
 31
0.0
  0
LINE
  5
340
330
7E
100
AcDbEntity
  8
0
  6
Continuous
 62
     0
100
AcDbLine
 10
25.77625403331605
 20
56.5000114440918
 30
0.0
 11
17.49922902328905
 21
56.5000114440918
 31
0.0
  0
LINE
  5
341
330
7E
100
AcDbEntity
  8
0
  6
Continuous
 62
     0
100
AcDbLine
 10
-16.50064862729786
 20
100.5000610351562
 30
0.0
 11
-17.49934730936208
 21
56.50001144409179
 31
0.0
  0
LINE
  5
342
330
7E
100
AcDbEntity
  8
0
  6
Continuous
 62
     0
100
AcDbLine
 10
16.50053034122483
 20
100.5000610351563
 30
0.0
 11
17.49922902328905
 21
56.5000114440918
 31
0.0
  0
LINE
  5
343
330
7E
100
AcDbEntity
  8
0
  6
CENTER
 62
     4
100
AcDbLine
 10
-22.0000114440918
 20
61.22433365107491
 30
0.0
 11
-22.0000114440918
 21
56.5000114440918
 31
0.0
  0
LINE
  5
344
330
7E
100
AcDbEntity
  8
0
  6
CENTER
 62
     4
100
AcDbLine
 10
-14.0
 20
-12.0
 30
0.0
 11
-14.0
 21
12.0
 31
0.0
  0
LINE
  5
345
330
7E
100
AcDbEntity
  8
0
  6
Continuous
 62
     0
100
AcDbLine
 10
40.0
 20
-22.0
 30
0.0
 11
40.0
 21
18.0
 31
0.0
  0
LINE
  5
346
330
7E
100
AcDbEntity
  8
0
  6
Continuous
 62
     0
100
AcDbLine
 10
34.5
 20
-17.69999694824219
 30
0.0
 11
34.5
 21
13.0
 31
0.0
  0
LINE
  5
347
330
7E
100
AcDbEntity
  8
0
  6
Continuous
 62
     0
100
AcDbLine
 10
-26.0
 20
18.0
 30
0.0
 11
-45.5
 21
18.0
 31
0.0
  0
LINE
  5
348
330
7E
100
AcDbEntity
  8
0
  6
Continuous
 62
     0
100
AcDbLine
 10
-6.0
 20
-22.0
 30
0.0
 11
-6.0
 21
-8.94427190999916
 31
0.0
  0
LINE
  5
349
330
7E
100
AcDbEntity
  8
0
  6
Continuous
 62
     0
100
AcDbLine
 10
-6.0
 20
-15.19999694824219
 30
0.0
 11
-34.5
 21
-15.19999694824219
 31
0.0
  0
LINE
  5
34A
330
7E
100
AcDbEntity
  8
0
  6
Continuous
 62
     0
100
AcDbLine
 10
-34.5
 20
4.0
 30
0.0
 11
-32.0
 21
4.0
 31
0.0
  0
LINE
  5
34B
330
7E
100
AcDbEntity
  8
0
  6
Continuous
 62
     0
100
AcDbLine
 10
26.0
 20
9.0
 30
0.0
 11
21.937255859375
 21
9.0
 31
0.0
  0
LINE
  5
34C
330
7E
100
AcDbEntity
  8
0
  6
CENTER
 62
     4
100
AcDbLine
 10
-47.0
 20
8.0
 30
0.0
 11
-52.81140678138518
 21
8.0
 31
0.0
  0
LINE
  5
34D
330
7E
100
AcDbEntity
  8
0
  6
Continuous
 62
     0
100
AcDbLine
 10
34.5
 20
-15.19999694824219
 30
0.0
 11
6.0
 21
-15.19999694824219
 31
0.0
  0
LINE
  5
34E
330
7E
100
AcDbEntity
  8
0
  6
Continuous
 62
     0
100
AcDbLine
 10
-26.0
 20
10.10000610351562
 30
0.0
 11
-32.0
 21
10.10000610351562
 31
0.0
  0
LINE
  5
34F
330
7E
100
AcDbEntity
  8
0
  6
Continuous
 62
     0
100
AcDbLine
 10
32.0
 20
4.0
 30
0.0
 11
32.0
 21
12.0
 31
0.0
  0
LINE
  5
350
330
7E
100
AcDbEntity
  8
0
  6
Continuous
 62
     0
100
AcDbLine
 10
34.5
 20
12.0
 30
0.0
 11
32.0
 21
12.0
 31
0.0
  0
LINE
  5
351
330
7E
100
AcDbEntity
  8
0
  6
Continuous
 62
     0
100
AcDbLine
 10
34.5
 20
4.0
 30
0.0
 11
32.0
 21
4.0
 31
0.0
  0
LINE
  5
352
330
7E
100
AcDbEntity
  8
0
  6
Continuous
 62
     0
100
AcDbLine
 10
47.0
 20
13.0
 30
0.0
 11
34.5
 21
13.0
 31
0.0
  0
LINE
  5
353
330
7E
100
AcDbEntity
  8
0
  6
Continuous
 62
     0
100
AcDbLine
 10
-34.5
 20
12.0
 30
0.0
 11
-32.0
 21
12.0
 31
0.0
  0
LINE
  5
354
330
7E
100
AcDbEntity
  8
0
  6
Continuous
 62
     0
100
AcDbLine
 10
45.5
 20
18.0
 30
0.0
 11
26.0
 21
18.0
 31
0.0
  0
LINE
  5
355
330
7E
100
AcDbEntity
  8
0
  6
Continuous
 62
     0
100
AcDbLine
 10
6.0
 20
-22.0
 30
0.0
 11
6.0
 21
-8.94427190999916
 31
0.0
  0
LINE
  5
356
330
7E
100
AcDbEntity
  8
0
  6
Continuous
 62
     0
100
AcDbLine
 10
-34.5
 20
-17.69999694824219
 30
0.0
 11
-34.5
 21
13.00000381469727
 31
0.0
  0
LINE
  5
357
330
7E
100
AcDbEntity
  8
0
  6
Continuous
 62
     0
100
AcDbLine
 10
-32.0
 20
4.0
 30
0.0
 11
-32.0
 21
12.0
 31
0.0
  0
LINE
  5
358
330
7E
100
AcDbEntity
  8
0
  6
Continuous
 62
     0
100
AcDbLine
 10
-21.937255859375
 20
9.0
 30
0.0
 11
-26.0
 21
9.0
 31
0.0
  0
LINE
  5
359
330
7E
100
AcDbEntity
  8
0
  6
Continuous
 62
     0
100
AcDbLine
 10
40.0
 20
-22.0
 30
0.0
 11
-40.0
 21
-22.0
 31
0.0
  0
LINE
  5
35A
330
7E
100
AcDbEntity
  8
0
  6
Continuous
 62
     0
100
AcDbLine
 10
6.062746047973633
 20
9.0
 30
0.0
 11
-6.062746047973633
 21
9.0
 31
0.0
  0
LINE
  5
35B
330
7E
100
AcDbEntity
  8
0
  6
CENTER
 62
     4
100
AcDbLine
 10
14.0
 20
-12.0
 30
0.0
 11
14.0
 21
12.0
 31
0.0
  0
LINE
  5
35C
330
7E
100
AcDbEntity
  8
0
  6
Continuous
 62
     0
100
AcDbLine
 10
32.0
 20
10.10000610351562
 30
0.0
 11
26.0
 21
10.10000610351562
 31
0.0
  0
LINE
  5
35D
330
7E
100
AcDbEntity
  8
0
  6
Continuous
 62
     0
100
AcDbLine
 10
-40.0
 20
-22.0
 30
0.0
 11
-40.0
 21
18.0
 31
0.0
  0
LINE
  5
35E
330
7E
100
AcDbEntity
  8
0
  6
Continuous
 62
     0
100
AcDbLine
 10
40.0
 20
3.0
 30
0.0
 11
34.5
 21
3.0
 31
0.0
  0
LINE
  5
35F
330
7E
100
AcDbEntity
  8
0
  6
Continuous
 62
     0
100
AcDbLine
 10
40.0
 20
-17.69999694824219
 30
0.0
 11
34.5
 21
-17.69999694824219
 31
0.0
  0
LINE
  5
360
330
7E
100
AcDbEntity
  8
0
  6
Continuous
 62
     0
100
AcDbLine
 10
-40.0
 20
3.0
 30
0.0
 11
-34.5
 21
3.0
 31
0.0
  0
LINE
  5
361
330
7E
100
AcDbEntity
  8
0
  6
Continuous
 62
     0
100
AcDbLine
 10
-34.5
 20
-17.69999694824219
 30
0.0
 11
-40.0
 21
-17.69999694824219
 31
0.0
  0
LINE
  5
362
330
7E
100
AcDbEntity
  8
0
  6
Continuous
 62
     0
100
AcDbLine
 10
45.5
 20
3.196877479553223
 30
0.0
 11
45.5
 21
-21.00000381469727
 31
0.0
  0
LINE
  5
363
330
7E
100
AcDbEntity
  8
0
  6
CENTER
 62
     4
100
AcDbLine
 10
67.64186096191406
 20
-4.0
 30
0.0
 11
40.0
 21
-4.0
 31
0.0
  0
LINE
  5
364
330
7E
100
AcDbEntity
  8
0
  6
Continuous
 62
     0
100
AcDbLine
 10
47.0
 20
13.00000190734863
 30
0.0
 11
47.0
 21
-1.089725494384766
 31
0.0
  0
LINE
  5
365
330
7E
100
AcDbEntity
  8
0
  6
Continuous
 62
     0
100
AcDbLine
 10
47.00000381469727
 20
-16.00000381469727
 30
0.0
 11
47.00000381469727
 21
-21.00000381469727
 31
0.0
  0
LINE
  5
366
330
7E
100
AcDbEntity
  8
0
  6
Continuous
 62
     0
100
AcDbLine
 10
45.5
 20
18.0
 30
0.0
 11
45.5
 21
13.00000190734863
 31
0.0
  0
LINE
  5
367
330
7E
100
AcDbEntity
  8
0
  6
Continuous
 62
     0
100
AcDbLine
 10
40.0
 20
3.196877479553223
 30
0.0
 11
45.5
 21
3.196877479553223
 31
0.0
  0
LINE
  5
368
330
7E
100
AcDbEntity
  8
0
  6
Continuous
 62
     0
100
AcDbLine
 10
47.00000381469727
 20
-21.00000381469727
 30
0.0
 11
40.0
 21
-21.00000381469727
 31
0.0
  0
LINE
  5
369
330
7E
100
AcDbEntity
  8
0
  6
Continuous
 62
     0
100
AcDbLine
 10
45.5
 20
-1.089725494384766
 30
0.0
 11
47.0
 21
-1.089725494384766
 31
0.0
  0
LINE
  5
36A
330
7E
100
AcDbEntity
  8
0
  6
Continuous
 62
     0
100
AcDbLine
 10
65.0
 20
10.00001036970002
 30
0.0
 11
65.0
 21
-16.00000381469727
 31
0.0
  0
LINE
  5
36B
330
7E
100
AcDbEntity
  8
0
  6
Continuous
 62
     0
100
AcDbLine
 10
65.0
 20
10.00001036970002
 30
0.0
 11
45.5
 21
16.33594445652247
 31
0.0
  0
LINE
  5
36C
330
7E
100
AcDbEntity
  8
0
  6
Continuous
 62
     0
100
AcDbLine
 10
65.0
 20
-16.00000381469727
 30
0.0
 11
45.5
 21
-16.00000381469727
 31
0.0
  0
LINE
  5
36D
330
7E
100
AcDbEntity
  8
0
  6
Continuous
 62
     0
100
AcDbLine
 10
51.58956569116463
 20
7.618952751159668
 30
0.0
 11
65.0
 21
7.618952751159668
 31
0.0
  0
LINE
  5
36E
330
7E
100
AcDbEntity
  8
0
  6
Continuous
 62
     0
100
AcDbLine
 10
-47.0
 20
0.930185317993164
 30
0.0
 11
-45.5
 21
0.930185317993164
 31
0.0
  0
LINE
  5
36F
330
7E
100
AcDbEntity
  8
0
  6
Continuous
 62
     0
100
AcDbLine
 10
-47.0
 20
-21.00000381469727
 30
0.0
 11
-40.0
 21
-21.00000381469727
 31
0.0
  0
LINE
  5
370
330
7E
100
AcDbEntity
  8
0
  6
Continuous
 62
     0
100
AcDbLine
 10
-45.5
 20
3.196876525878906
 30
0.0
 11
-40.0
 21
3.196876525878906
 31
0.0
  0
LINE
  5
371
330
7E
100
AcDbEntity
  8
0
  6
Continuous
 62
     0
100
AcDbLine
 10
-45.50000000000001
 20
17.08849170005872
 30
0.0
 11
-65.00000000000001
 21
13.99999495873983
 31
0.0
  0
LINE
  5
372
330
7E
100
AcDbEntity
  8
0
  6
Continuous
 62
     0
100
AcDbLine
 10
-47.0
 20
13.00000381469727
 30
0.0
 11
-34.5
 21
13.00000381469727
 31
0.0
  0
LINE
  5
373
330
7E
100
AcDbEntity
  8
0
  6
Continuous
 62
     0
100
AcDbLine
 10
-65.0
 20
3.395977020263672
 30
0.0
 11
-47.0
 21
3.395977020263672
 31
0.0
  0
LINE
  5
374
330
7E
100
AcDbEntity
  8
0
  6
Continuous
 62
     0
100
AcDbLine
 10
-65.0
 20
-19.0
 30
0.0
 11
-45.5
 21
-19.0
 31
0.0
  0
LINE
  5
375
330
7E
100
AcDbEntity
  8
0
  6
Continuous
 62
     0
100
AcDbLine
 10
-65.0
 20
13.99999495873982
 30
0.0
 11
-65.0
 21
-19.0
 31
0.0
  0
LINE
  5
376
330
7E
100
AcDbEntity
  8
0
  6
CENTER
 62
     4
100
AcDbLine
 10
-26.0
 20
0.0
 30
0.0
 11
26.0
 21
0.0
 31
0.0
  0
LINE
  5
377
330
7E
100
AcDbEntity
  8
0
  6
Continuous
 62
     0
100
AcDbLine
 10
-45.5
 20
18.00000953674316
 30
0.0
 11
-45.5
 21
13.00000381469727
 31
0.0
  0
LINE
  5
378
330
7E
100
AcDbEntity
  8
0
  6
Continuous
 62
     0
100
AcDbLine
 10
-65.0
 20
10.69694137573242
 30
0.0
 11
-51.0563557098432
 21
10.69694137573242
 31
0.0
  0
LINE
  5
379
330
7E
100
AcDbEntity
  8
0
  6
Continuous
 62
     0
100
AcDbLine
 10
-65.0
 20
7.108089447021484
 30
0.0
 11
-51.5426287584786
 21
7.108089447021484
 31
0.0
  0
LINE
  5
37A
330
7E
100
AcDbEntity
  8
0
  6
Continuous
 62
     0
100
AcDbLine
 10
-45.5
 20
3.196876525878906
 30
0.0
 11
-45.5
 21
-21.00000381469727
 31
0.0
  0
LINE
  5
37B
330
7E
100
AcDbEntity
  8
0
  6
Continuous
 62
     0
100
AcDbLine
 10
-48.30000305175781
 20
3.5
 30
0.0
 11
-48.30000305175781
 21
12.5
 31
0.0
  0
LINE
  5
37C
330
7E
100
AcDbEntity
  8
0
  6
Continuous
 62
     0
100
AcDbLine
 10
-25.50000953674316
 20
57.50002288818359
 30
0.0
 11
-18.50001335144043
 21
57.50002288818359
 31
0.0
  0
LINE
  5
37D
330
7E
100
AcDbEntity
  8
0
  6
Continuous
 62
     0
100
AcDbLine
 10
-18.50001335144043
 20
58.80002021789551
 30
0.0
 11
-18.50001335144043
 21
56.5000114440918
 31
0.0
  0
LINE
  5
37E
330
7E
100
AcDbEntity
  8
0
  6
Continuous
 62
     0
100
AcDbLine
 10
-25.50000953674316
 20
58.80002021789551
 30
0.0
 11
-25.50000953674316
 21
56.5000114440918
 31
0.0
  0
LINE
  5
37F
330
7E
100
AcDbEntity
  8
0
  6
Continuous
 62
     0
100
AcDbLine
 10
-0.000000043227372
 20
33.3867488930253
 30
0.0
 11
-2.500000709807058
 21
31.94337280929523
 31
0.0
  0
LINE
  5
380
330
7E
100
AcDbEntity
  8
0
  6
Continuous
 62
     0
100
AcDbLine
 10
-2.5
 20
31.94337463378906
 30
0.0
 11
-2.5
 21
29.05662155151367
 31
0.0
  0
LINE
  5
381
330
7E
100
AcDbEntity
  8
0
  6
Continuous
 62
     0
100
AcDbLine
 10
0.000000676154123
 20
27.61324580980257
 30
0.0
 11
-2.499999990425563
 21
29.05662189353264
 31
0.0
  0
LINE
  5
382
330
7E
100
AcDbEntity
  8
0
  6
Continuous
 62
     0
100
AcDbLine
 10
2.499999990425563
 20
29.05662189353264
 30
0.0
 11
-0.000000676154123
 21
27.61324580980257
 31
0.0
  0
LINE
  5
383
330
7E
100
AcDbEntity
  8
0
  6
Continuous
 62
     0
100
AcDbLine
 10
2.5
 20
31.94337272644043
 30
0.0
 11
2.5
 21
29.05662155151367
 31
0.0
  0
LINE
  5
384
330
7E
100
AcDbEntity
  8
0
  6
Continuous
 62
     0
100
AcDbLine
 10
0.000000043227372
 20
33.3867488930253
 30
0.0
 11
2.500000709807058
 21
31.94337280929523
 31
0.0
  0
LINE
  5
385
330
7E
100
AcDbEntity
  8
0
  6
CENTER
 62
     4
100
AcDbLine
 10
-68.07499694824219
 20
-4.0
 30
0.0
 11
-40.0
 21
-4.0
 31
0.0
  0
LINE
  5
386
330
7E
100
AcDbEntity
  8
0
  6
CENTER
 62
     4
100
AcDbLine
 10
103.1492385864258
 20
35.5
 30
0.0
 11
25.9998836517334
 21
35.5
 31
0.0
  0
LINE
  5
387
330
7E
100
AcDbEntity
  8
0
  6
Continuous
 62
     0
100
AcDbLine
 10
32.0
 20
46.0
 30
0.0
 11
29.00000381469727
 21
46.0
 31
0.0
  0
LINE
  5
388
330
7E
100
AcDbEntity
  8
0
  6
Continuous
 62
     0
100
AcDbLine
 10
32.0
 20
24.99999809265137
 30
0.0
 11
29.00000381469727
 21
24.99999809265137
 31
0.0
  0
LINE
  5
389
330
7E
100
AcDbEntity
  8
0
  6
Continuous
 62
     0
100
AcDbLine
 10
32.0
 20
52.5
 30
0.0
 11
32.0
 21
21.49999809265137
 31
0.0
  0
LINE
  5
38A
330
7E
100
AcDbEntity
  8
0
  6
Continuous
 62
     0
100
AcDbLine
 10
100.0
 20
21.49999809265137
 30
0.0
 11
32.0
 21
21.49999809265137
 31
0.0
  0
LINE
  5
38B
330
7E
100
AcDbEntity
  8
0
  6
Continuous
 62
     0
100
AcDbLine
 10
78.0
 20
44.5
 30
0.0
 11
32.0
 21
44.5
 31
0.0
  0
LINE
  5
38C
330
7E
100
AcDbEntity
  8
0
  6
Continuous
 62
     0
100
AcDbLine
 10
34.0
 20
44.5
 30
0.0
 11
34.0
 21
33.5
 31
0.0
  0
LINE
  5
38D
330
7E
100
AcDbEntity
  8
0
  6
Continuous
 62
     0
100
AcDbLine
 10
41.0
 20
33.5
 30
0.0
 11
34.0
 21
33.5
 31
0.0
  0
LINE
  5
38E
330
7E
100
AcDbEntity
  8
0
  6
Continuous
 62
     0
100
AcDbLine
 10
41.0
 20
44.5
 30
0.0
 11
41.0
 21
21.49999809265137
 31
0.0
  0
LINE
  5
38F
330
7E
100
AcDbEntity
  8
0
  6
Continuous
 62
     0
100
AcDbLine
 10
100.0
 20
49.5
 30
0.0
 11
32.0
 21
49.5
 31
0.0
  0
LINE
  5
390
330
7E
100
AcDbEntity
  8
0
  6
Continuous
 62
     0
100
AcDbLine
 10
78.0
 20
50.5
 30
0.0
 11
32.0
 21
50.5
 31
0.0
  0
LINE
  5
391
330
7E
100
AcDbEntity
  8
0
  6
Continuous
 62
     0
100
AcDbLine
 10
78.0
 20
52.5
 30
0.0
 11
32.0
 21
52.5
 31
0.0
  0
LINE
  5
392
330
7E
100
AcDbEntity
  8
0
  6
Continuous
 62
     0
100
AcDbLine
 10
33.00000294489449
 20
52.49999761400836
 30
0.0
 11
34.0000034029866
 21
58.5
 31
0.0
  0
LINE
  5
393
330
7E
100
AcDbEntity
  8
0
  6
Continuous
 62
     0
100
AcDbLine
 10
75.99999536665311
 20
58.5
 30
0.0
 11
34.0000034029866
 21
58.5
 31
0.0
  0
LINE
  5
394
330
7E
100
AcDbEntity
  8
0
  6
Continuous
 62
     0
100
AcDbLine
 10
41.99999459984323
 20
52.49999940721506
 30
0.0
 11
42.99999475906754
 21
58.5
 31
0.0
  0
LINE
  5
395
330
7E
100
AcDbEntity
  8
0
  6
Continuous
 62
     0
100
AcDbLine
 10
41.5
 20
53.5
 30
0.0
 11
34.5
 21
53.5
 31
0.0
  0
LINE
  5
396
330
7E
100
AcDbEntity
  8
0
  6
Continuous
 62
     0
100
AcDbLine
 10
41.5
 20
54.79999923706055
 30
0.0
 11
41.5
 21
52.5
 31
0.0
  0
LINE
  5
397
330
7E
100
AcDbEntity
  8
0
  6
CENTER
 62
     4
100
AcDbLine
 10
55.0
 20
60.62282562255859
 30
0.0
 11
55.0
 21
19.97082328796387
 31
0.0
  0
LINE
  5
398
330
7E
100
AcDbEntity
  8
0
  6
Continuous
 62
     0
100
AcDbLine
 10
34.5
 20
54.79999923706055
 30
0.0
 11
34.5
 21
52.5
 31
0.0
  0
LINE
  5
399
330
7E
100
AcDbEntity
  8
0
  6
Continuous
 62
     0
100
AcDbLine
 10
67.99999217915627
 20
52.50000173936342
 30
0.0
 11
66.99999240862337
 21
58.5
 31
0.0
  0
LINE
  5
39A
330
7E
100
AcDbEntity
  8
0
  6
Continuous
 62
     0
100
AcDbLine
 10
76.99999512248758
 20
52.50000182755393
 30
0.0
 11
75.9999953666531
 21
58.5
 31
0.0
  0
LINE
  5
39B
330
7E
100
AcDbEntity
  8
0
  6
Continuous
 62
     0
100
AcDbLine
 10
78.0
 20
52.5
 30
0.0
 11
78.0
 21
21.49999809265137
 31
0.0
  0
LINE
  5
39C
330
7E
100
AcDbEntity
  8
0
  6
Continuous
 62
     0
100
AcDbLine
 10
76.0
 20
44.5
 30
0.0
 11
76.0
 21
33.5
 31
0.0
  0
LINE
  5
39D
330
7E
100
AcDbEntity
  8
0
  6
Continuous
 62
     0
100
AcDbLine
 10
69.0
 20
44.5
 30
0.0
 11
69.0
 21
21.49999809265137
 31
0.0
  0
LINE
  5
39E
330
7E
100
AcDbEntity
  8
0
  6
Continuous
 62
     0
100
AcDbLine
 10
76.0
 20
33.5
 30
0.0
 11
69.0
 21
33.5
 31
0.0
  0
LINE
  5
39F
330
7E
100
AcDbEntity
  8
0
  6
Continuous
 62
     0
100
AcDbLine
 10
100.0
 20
49.5
 30
0.0
 11
100.0
 21
21.49999809265137
 31
0.0
  0
LINE
  5
3A0
330
7E
100
AcDbEntity
  8
0
  6
DASHED
 62
     0
100
AcDbLine
 10
100.0
 20
24.99999809265137
 30
0.0
 11
89.0
 21
24.99999809265137
 31
0.0
  0
LINE
  5
3A1
330
7E
100
AcDbEntity
  8
0
  6
DASHED
 62
     0
100
AcDbLine
 10
100.0
 20
26.19999694824219
 30
0.0
 11
89.0
 21
26.19999694824219
 31
0.0
  0
LINE
  5
3A2
330
7E
100
AcDbEntity
  8
0
  6
DASHED
 62
     0
100
AcDbLine
 10
100.0
 20
44.79999542236328
 30
0.0
 11
89.0
 21
44.79999542236328
 31
0.0
  0
LINE
  5
3A3
330
7E
100
AcDbEntity
  8
0
  6
DASHED
 62
     0
100
AcDbLine
 10
100.0
 20
46.0
 30
0.0
 11
89.0
 21
46.0
 31
0.0
  0
LINE
  5
3A4
330
7E
100
AcDbEntity
  8
0
  6
Continuous
 62
     0
100
AcDbLine
 10
-47.0
 20
3.5
 30
0.0
 11
-49.95000267028808
 21
3.5
 31
0.0
  0
LINE
  5
3A5
330
7E
100
AcDbEntity
  8
0
  6
Continuous
 62
     0
100
AcDbLine
 10
-47.0
 20
12.5
 30
0.0
 11
-49.95000267028808
 21
12.5
 31
0.0
  0
LINE
  5
3A6
330
7E
100
AcDbEntity
  8
0
  6
CENTER
 62
     4
100
AcDbLine
 10
38.0
 20
57.00648416719602
 30
0.0
 11
38.0
 21
52.5
 31
0.0
  0
LINE
  5
3A7
330
7E
100
AcDbEntity
  8
0
  6
DASHED
 62
     0
100
AcDbLine
 10
-2.75
 20
9.0
 30
0.0
 11
-2.75
 21
-22.0
 31
0.0
  0
LINE
  5
3A8
330
7E
100
AcDbEntity
  8
0
  6
DASHED
 62
     0
100
AcDbLine
 10
2.75
 20
9.0
 30
0.0
 11
2.75
 21
-22.0
 31
0.0
  0
LINE
  5
3A9
330
7E
100
AcDbEntity
  8
0
  6
Continuous
 62
     0
100
AcDbLine
 10
29.00000665568122
 20
44.79999465531537
 30
0.0
 11
31.07847554413704
 21
45.99999924910557
 31
0.0
  0
LINE
  5
3AA
330
7E
100
AcDbEntity
  8
0
  6
Continuous
 62
     0
100
AcDbLine
 10
29.00000776661867
 20
26.19999486904972
 30
0.0
 11
31.07846426648176
 21
24.999997427817
 31
0.0
  0
LINE
  5
3AB
330
7E
100
AcDbEntity
  8
0
  6
CENTER
 62
     4
100
AcDbLine
 10
22.0000114440918
 20
61.22433365107491
 30
0.0
 11
22.0000114440918
 21
56.5000114440918
 31
0.0
  0
LINE
  5
3AC
330
7E
100
AcDbEntity
  8
0
  6
Continuous
 62
     0
100
AcDbLine
 10
25.50000953674316
 20
57.50002288818359
 30
0.0
 11
18.50001335144043
 21
57.50002288818359
 31
0.0
  0
LINE
  5
3AD
330
7E
100
AcDbEntity
  8
0
  6
Continuous
 62
     0
100
AcDbLine
 10
18.50001335144043
 20
58.80002021789551
 30
0.0
 11
18.50001335144043
 21
56.5000114440918
 31
0.0
  0
LINE
  5
3AE
330
7E
100
AcDbEntity
  8
0
  6
Continuous
 62
     0
100
AcDbLine
 10
25.50000953674316
 20
58.80002021789551
 30
0.0
 11
25.50000953674316
 21
56.5000114440918
 31
0.0
  0
LINE
  5
3AF
330
7E
100
AcDbEntity
  8
0
  6
Continuous
 62
     0
100
AcDbLine
 10
-48.30000305175781
 20
-19.0
 30
0.0
 11
-48.30000305175781
 21
-20.5
 31
0.0
  0
LINE
  5
3B0
330
7E
100
AcDbEntity
  8
0
  6
Continuous
 62
     0
100
AcDbLine
 10
-47.0
 20
-20.5
 30
0.0
 11
-49.95000267028808
 21
-20.5
 31
0.0
  0
LINE
  5
3B1
330
7E
100
AcDbEntity
  8
0
  6
Continuous
 62
     0
100
AcDbLine
 10
-47.0
 20
-19.0
 30
0.0
 11
-47.0
 21
-21.00000381469727
 31
0.0
  0
LINE
  5
3B2
330
7E
100
AcDbEntity
  8
0
  6
CENTER
 62
     4
100
AcDbLine
 10
47.0
 20
8.0
 30
0.0
 11
52.81140678138518
 21
8.0
 31
0.0
  0
LINE
  5
3B3
330
7E
100
AcDbEntity
  8
0
  6
Continuous
 62
     0
100
AcDbLine
 10
48.30000305175781
 20
3.5
 30
0.0
 11
48.30000305175781
 21
12.5
 31
0.0
  0
LINE
  5
3B4
330
7E
100
AcDbEntity
  8
0
  6
Continuous
 62
     0
100
AcDbLine
 10
47.0
 20
3.5
 30
0.0
 11
49.95000267028808
 21
3.5
 31
0.0
  0
LINE
  5
3B5
330
7E
100
AcDbEntity
  8
0
  6
Continuous
 62
     0
100
AcDbLine
 10
47.0
 20
12.5
 30
0.0
 11
49.95000267028808
 21
12.5
 31
0.0
  0
LINE
  5
3B6
330
7E
100
AcDbEntity
  8
0
  6
Continuous
 62
     0
100
AcDbLine
 10
47.0
 20
-20.5
 30
0.0
 11
49.95000267028808
 21
-20.5
 31
0.0
  0
LINE
  5
3B7
330
7E
100
AcDbEntity
  8
0
  6
Continuous
 62
     0
100
AcDbLine
 10
48.30000305175781
 20
-16.00000381469727
 30
0.0
 11
48.30000305175781
 21
-20.5
 31
0.0
  0
LINE
  5
3B8
330
7E
100
AcDbEntity
  8
0
  6
Continuous
 62
     0
100
AcDbLine
 10
68.5
 20
53.5
 30
0.0
 11
75.5
 21
53.5
 31
0.0
  0
LINE
  5
3B9
330
7E
100
AcDbEntity
  8
0
  6
Continuous
 62
     0
100
AcDbLine
 10
68.5
 20
54.79999923706055
 30
0.0
 11
68.5
 21
52.5
 31
0.0
  0
LINE
  5
3BA
330
7E
100
AcDbEntity
  8
0
  6
Continuous
 62
     0
100
AcDbLine
 10
75.5
 20
54.79999923706055
 30
0.0
 11
75.5
 21
52.5
 31
0.0
  0
LINE
  5
3BB
330
7E
100
AcDbEntity
  8
0
  6
CENTER
 62
     4
100
AcDbLine
 10
72.0
 20
57.00648416719602
 30
0.0
 11
72.0
 21
52.5
 31
0.0
  0
ARC
  5
3BC
330
7E
100
AcDbEntity
  8
0
  6
Continuous
 62
     0
100
AcDbCircle
 10
0.0
 20
30.49999618530273
 30
0.0
 40
7.000005722045898
100
AcDbArc
 50
359.9999999999999
 51
180.0000186693347
  0
CIRCLE
  5
3BD
330
7E
100
AcDbEntity
  8
0
  6
Continuous
 62
     0
100
AcDbCircle
 10
0.0
 20
30.49999618530273
 30
0.0
 40
4.863999843597412
  0
CIRCLE
  5
3BE
330
7E
100
AcDbEntity
  8
0
  6
Continuous
 62
     0
100
AcDbCircle
 10
14.0
 20
0.0
 30
0.0
 40
12.0
  0
CIRCLE
  5
3BF
330
7E
100
AcDbEntity
  8
0
  6
Continuous
 62
     0
100
AcDbCircle
 10
-14.0
 20
0.0
 30
0.0
 40
12.0
  0
CIRCLE
  5
3C0
330
7E
100
AcDbEntity
  8
0
  6
Continuous
 62
     0
100
AcDbCircle
 10
-14.0
 20
0.0
 30
0.0
 40
6.75
  0
CIRCLE
  5
3C1
330
7E
100
AcDbEntity
  8
0
  6
Continuous
 62
     0
100
AcDbCircle
 10
14.0
 20
0.0
 30
0.0
 40
6.75
  0
CIRCLE
  5
3C2
330
7E
100
AcDbEntity
  8
0
  6
Continuous
 62
     0
100
AcDbCircle
 10
14.0
 20
0.0
 30
0.0
 40
5.849999904632568
  0
CIRCLE
  5
3C3
330
7E
100
AcDbEntity
  8
0
  6
Continuous
 62
     0
100
AcDbCircle
 10
-14.0
 20
0.0
 30
0.0
 40
5.849999904632568
  0
CIRCLE
  5
3C4
330
7E
100
AcDbEntity
  8
0
  6
Continuous
 62
     0
100
AcDbCircle
 10
0.0
 20
30.49999618530273
 30
0.0
 40
4.300000190734863
  0
ARC
  5
3C5
330
7E
100
AcDbEntity
  8
0
  6
Continuous
 62
     0
100
AcDbCircle
 10
-22.0000114440918
 20
54.73847587855242
 30
0.0
 40
5.361541669054999
100
AcDbArc
 50
49.24718601697323
 51
130.7528139830268
  0
ARC
  5
3C6
330
7E
100
AcDbEntity
  8
0
  6
Continuous
 62
     0
100
AcDbCircle
 10
22.0000114440918
 20
54.73847587855242
 30
0.0
 40
5.361541669054999
100
AcDbArc
 50
49.24718601697328
 51
130.7528139830268
  0
ARC
  5
3C7
330
7E
100
AcDbEntity
  8
0
  6
Continuous
 62
     0
100
AcDbCircle
 10
-44.63863742450019
 20
8.0
 30
0.0
 40
6.961364864318166
100
AcDbArc
 50
139.7274017063268
 51
220.2725982936732
  0
ARC
  5
3C8
330
7E
100
AcDbEntity
  8
0
  6
Continuous
 62
     0
100
AcDbCircle
 10
-44.63863742450019
 20
-16.0
 30
0.0
 40
6.961364864318166
100
AcDbArc
 50
205.527862927697
 51
220.2725982936732
  0
ARC
  5
3C9
330
7E
100
AcDbEntity
  8
0
  6
Continuous
 62
     0
100
AcDbCircle
 10
44.63863742450019
 20
8.0
 30
0.0
 40
6.961364864318166
100
AcDbArc
 50
319.7274017063269
 51
40.27259829367321
  0
ARC
  5
3CA
330
7E
100
AcDbEntity
  8
0
  6
Continuous
 62
     0
100
AcDbCircle
 10
44.63863742450019
 20
-16.0
 30
0.0
 40
6.961364864318166
100
AcDbArc
 50
319.7274017063268
 51
359.9999686029884
  0
ARC
  5
3CB
330
7E
100
AcDbEntity
  8
0
  6
Continuous
 62
     0
100
AcDbCircle
 10
38.0
 20
50.73845762895952
 30
0.0
 40
5.361540845161571
100
AcDbArc
 50
49.24715152300847
 51
130.7528484769915
  0
ARC
  5
3CC
330
7E
100
AcDbEntity
  8
0
  6
Continuous
 62
     0
100
AcDbCircle
 10
72.0
 20
50.73845762895952
 30
0.0
 40
5.361540845161571
100
AcDbArc
 50
49.24715152300853
 51
130.7528484769916
  0
MTEXT
  5
3CD
330
7E
100
AcDbEntity
  8
0
 62
     0
100
AcDbMText
 10
-16.29285586923361
 20
45.95000076293945
 30
0.0
 40
0.5
 41
0.0
 71
     7
 72
     1
  1
{\W0.833333;BN-7M43-8-G/H***}
 73
     1
 44
1.0
  0
MTEXT
  5
3CE
330
7E
100
AcDbEntity
  8
0
 62
     0
100
AcDbMText
 10
-15.89678391218185
 20
-20.51458930969238
 30
0.0
 40
4.0
 41
0.0
 71
     7
 72
     1
  1
{\W1;O2}
 73
     1
 44
1.0
  0
MTEXT
  5
3CF
330
7E
100
AcDbEntity
  8
0
 62
     0
100
AcDbMText
 10
11.65932551622391
 20
-20.77094268798828
 30
0.0
 40
4.0
 41
0.0
 71
     7
 72
     1
  1
{\W1;O1}
 73
     1
 44
1.0
  0
ENDBLK
  5
80
330
7E
100
AcDbEntity
  8
0
100
AcDbBlockEnd
  0
BLOCK
  5
3D2
330
3D1
100
AcDbEntity
  8
0
100
AcDbBlockBegin
  2
_Closed
 70
     0
 10
0.0
 20
0.0
 30
0.0
  3
_Closed
  1

  0
LINE
  5
3D4
330
3D1
100
AcDbEntity
  8
0
  6
ByBlock
 62
     0
370
    -2
100
AcDbLine
 10
-1.0
 20
0.166667
 30
0.0
 11
0.0
 21
0.0
 31
0.0
  0
LINE
  5
3D5
330
3D1
100
AcDbEntity
  8
0
  6
ByBlock
 62
     0
370
    -2
100
AcDbLine
 10
0.0
 20
0.0
 30
0.0
 11
-1.0
 21
-0.166667
 31
0.0
  0
LINE
  5
3D6
330
3D1
100
AcDbEntity
  8
0
  6
ByBlock
 62
     0
370
    -2
100
AcDbLine
 10
-1.0
 20
0.166667
 30
0.0
 11
-1.0
 21
-0.166667
 31
0.0
  0
LINE
  5
3D7
330
3D1
100
AcDbEntity
  8
0
  6
ByBlock
 62
     0
370
    -2
100
AcDbLine
 10
0.0
 20
0.0
 30
0.0
 11
-1.0
 21
0.0
 31
0.0
  0
ENDBLK
  5
3D3
330
3D1
100
AcDbEntity
  8
0
100
AcDbBlockEnd
  0
BLOCK
  5
3F1
330
3F0
100
AcDbEntity
  8
0
100
AcDbBlockBegin
  2
_Open30
 70
     0
 10
0.0
 20
0.0
 30
0.0
  3
_Open30
  1

  0
LINE
  5
3F3
330
3F0
100
AcDbEntity
  8
0
  6
ByBlock
 62
     0
370
    -2
100
AcDbLine
 10
-1.0
 20
0.267949
 30
0.0
 11
0.0
 21
0.0
 31
0.0
  0
LINE
  5
3F4
330
3F0
100
AcDbEntity
  8
0
  6
ByBlock
 62
     0
370
    -2
100
AcDbLine
 10
0.0
 20
0.0
 30
0.0
 11
-1.0
 21
-0.267949
 31
0.0
  0
LINE
  5
3F5
330
3F0
100
AcDbEntity
  8
0
  6
ByBlock
 62
     0
370
    -2
100
AcDbLine
 10
0.0
 20
0.0
 30
0.0
 11
-1.0
 21
0.0
 31
0.0
  0
ENDBLK
  5
3F2
330
3F0
100
AcDbEntity
  8
0
100
AcDbBlockEnd
  0
BLOCK
  5
3F8
330
3F7
100
AcDbEntity
  8
0
100
AcDbBlockBegin
  2
*D8
 70
     1
 10
0.0
 20
0.0
 30
0.0
  3
*D8
  1

  0
LINE
  5
3FA
330
3F7
100
AcDbEntity
  8
0
  6
ByBlock
 62
     0
370
    -2
100
AcDbLine
 10
-201.5694583548056
 20
73.95322139577763
 30
0.0
 11
-201.5694583548056
 21
24.75214925222296
 31
0.0
  0
LINE
  5
3FB
330
3F7
100
AcDbEntity
  8
0
  6
ByBlock
 62
     0
370
    -2
100
AcDbLine
 10
-36.56945835480565
 20
71.95322139577763
 30
0.0
 11
-36.56945835480565
 21
24.75214925222294
 31
0.0
  0
LINE
  5
3FC
330
3F7
100
AcDbEntity
  8
0
  6
ByBlock
 62
     0
370
    -2
100
AcDbLine
 10
-198.5694583548056
 20
27.60915913991827
 30
0.0
 11
-39.56945835480565
 21
27.60915913991825
 31
0.0
  0
INSERT
  5
3FD
330
3F7
100
AcDbEntity
  8
0
 62
     0
370
    -2
100
AcDbBlockReference
  2
_Open30
 10
-201.5694583548056
 20
27.60915913991827
 30
0.0
 41
3.0
 42
3.0
 43
3.0
 50
180.0
  0
INSERT
  5
3FE
330
3F7
100
AcDbEntity
  8
0
 62
     0
370
    -2
100
AcDbBlockReference
  2
_Open30
 10
-36.56945835480565
 20
27.60915913991825
 30
0.0
 41
3.0
 42
3.0
 43
3.0
 50
360.0
  0
MTEXT
  5
3FF
330
3F7
100
AcDbEntity
  8
0
 62
     0
100
AcDbMText
 10
-119.0684583548056
 20
31.35915913991826
 30
0.0
 40
5.0
 41
0.0
 71
     5
 72
     1
  1
165
 73
     1
 44
1.0
  0
POINT
  5
400
330
3F7
100
AcDbEntity
  8
Defpoints
 62
     0
100
AcDbPoint
 10
-201.5694583548056
 20
73.95322139577763
 30
0.0
  0
POINT
  5
401
330
3F7
100
AcDbEntity
  8
Defpoints
 62
     0
100
AcDbPoint
 10
-36.56945835480565
 20
71.95322139577763
 30
0.0
  0
POINT
  5
402
330
3F7
100
AcDbEntity
  8
Defpoints
 62
     0
100
AcDbPoint
 10
-36.56945835480565
 20
27.60815913991826
 30
0.0
  0
ENDBLK
  5
3F9
330
3F7
100
AcDbEntity
  8
0
100
AcDbBlockEnd
  0
BLOCK
  5
405
330
404
100
AcDbEntity
  8
0
100
AcDbBlockBegin
  2
*D9
 70
     1
 10
0.0
 20
0.0
 30
0.0
  3
*D9
  1

  0
LINE
  5
407
330
404
100
AcDbEntity
  8
0
  6
ByBlock
 62
     0
370
    -2
100
AcDbLine
 10
98.16226161589748
 20
-193.4568406856984
 30
0.0
 11
121.3182674752725
 21
-193.4568406856984
 31
0.0
  0
LINE
  5
408
330
404
100
AcDbEntity
  8
0
  6
ByBlock
 62
     0
370
    -2
100
AcDbLine
 10
98.16226161589748
 20
-162.4568406856984
 30
0.0
 11
121.3182674752725
 21
-162.4568406856984
 31
0.0
  0
LINE
  5
409
330
404
100
AcDbEntity
  8
0
  6
ByBlock
 62
     0
370
    -2
100
AcDbLine
 10
118.4612728463662
 20
-190.4568406856984
 30
0.0
 11
118.4612728463662
 21
-165.4568406856984
 31
0.0
  0
INSERT
  5
40A
330
404
100
AcDbEntity
  8
0
 62
     0
370
    -2
100
AcDbBlockReference
  2
_Open30
 10
118.4612728463662
 20
-193.4568406856984
 30
0.0
 41
3.0
 42
3.0
 43
3.0
 50
270.0
  0
INSERT
  5
40B
330
404
100
AcDbEntity
  8
0
 62
     0
370
    -2
100
AcDbBlockReference
  2
_Open30
 10
118.4612728463662
 20
-162.4568406856984
 30
0.0
 41
3.0
 42
3.0
 43
3.0
 50
90.0
  0
MTEXT
  5
40C
330
404
100
AcDbEntity
  8
0
 62
     0
100
AcDbMText
 10
114.7112728463662
 20
-177.9558406856983
 30
0.0
 40
5.0
 41
0.0
 71
     5
 72
     1
  1
31
 11
0.0
 21
1.0
 31
0.0
 73
     1
 44
1.0
  0
POINT
  5
40D
330
404
100
AcDbEntity
  8
Defpoints
 62
     0
100
AcDbPoint
 10
98.16226161589748
 20
-193.4568406856984
 30
0.0
  0
POINT
  5
40E
330
404
100
AcDbEntity
  8
Defpoints
 62
     0
100
AcDbPoint
 10
98.16226161589748
 20
-162.4568406856984
 30
0.0
  0
POINT
  5
40F
330
404
100
AcDbEntity
  8
Defpoints
 62
     0
100
AcDbPoint
 10
118.4612728463662
 20
-162.4568406856984
 30
0.0
  0
ENDBLK
  5
406
330
404
100
AcDbEntity
  8
0
100
AcDbBlockEnd
  0
BLOCK
  5
417
330
410
100
AcDbEntity
  8
0
100
AcDbBlockBegin
  2
SYM0001
 70
     0
 10
0.0
 20
0.0
 30
0.0
  3
SYM0001
  1

  0
LINE
  5
411
330
410
100
AcDbEntity
  8
0
  6
Continuous
 62
     7
100
AcDbLine
 10
0.0
 20
0.0
 30
0.0
 11
13.48733674156545
 21
22.16080993898677
 31
0.0
  0
LINE
  5
412
330
410
100
AcDbEntity
  8
0
  6
Continuous
 62
     7
100
AcDbLine
 10
0.0
 20
0.0
 30
0.0
 11
1.149980178779927
 21
2.945495304429016
 31
0.0
  0
LINE
  5
413
330
410
100
AcDbEntity
  8
0
  6
Continuous
 62
     7
100
AcDbLine
 10
0.0
 20
0.0
 30
0.0
 11
2.087925003265909
 21
2.374650749212833
 31
0.0
  0
LINE
  5
414
330
410
100
AcDbEntity
  8
0
  6
Continuous
 62
     7
100
AcDbLine
 10
13.48733674156544
 20
22.1608099389868
 30
0.0
 11
18.26462974482523
 21
22.1608099389868
 31
0.0
  0
MTEXT
  5
415
330
410
100
AcDbEntity
  8
0
 62
     7
100
AcDbMText
 10
20.83637919360133
 20
19.66081060881828
 30
0.0
 40
5.0
 41
0.0
 71
     7
 72
     1
  1
{\W1;5-Rc1/4}
 73
     1
 44
1.0
  0
ENDBLK
  5
418
330
410
100
AcDbEntity
  8
0
100
AcDbBlockEnd
  0
BLOCK
  5
41B
330
41A
100
AcDbEntity
  8
0
100
AcDbBlockBegin
  2
*D11
 70
     1
 10
0.0
 20
0.0
 30
0.0
  3
*D11
  1

  0
LINE
  5
41D
330
41A
100
AcDbEntity
  8
0
  6
ByBlock
 62
     0
370
    -2
100
AcDbLine
 10
-73.56945835480565
 20
-183.4568406856984
 30
0.0
 11
-73.56945835480565
 21
-214.0518680599658
 31
0.0
  0
LINE
  5
41E
330
41A
100
AcDbEntity
  8
0
  6
ByBlock
 62
     0
370
    -2
100
AcDbLine
 10
-98.56945835480565
 20
-211.1948696163624
 30
0.0
 11
-76.56945835480565
 21
-211.1948696163624
 31
0.0
  0
INSERT
  5
41F
330
41A
100
AcDbEntity
  8
0
 62
     0
370
    -2
100
AcDbBlockReference
  2
_Open30
 10
-101.5694583548056
 20
-211.1948696163624
 30
0.0
 41
3.0
 42
3.0
 43
3.0
 50
180.0
  0
INSERT
  5
420
330
41A
100
AcDbEntity
  8
0
 62
     0
370
    -2
100
AcDbBlockReference
  2
_Open30
 10
-73.56945835480565
 20
-211.1948696163624
 30
0.0
 41
3.0
 42
3.0
 43
3.0
  0
MTEXT
  5
421
330
41A
100
AcDbEntity
  8
0
 62
     0
100
AcDbMText
 10
-87.56845835480564
 20
-207.4448696163624
 30
0.0
 40
5.0
 41
0.0
 71
     5
 72
     1
  1
28
 73
     1
 44
1.0
  0
POINT
  5
422
330
41A
100
AcDbEntity
  8
Defpoints
 62
     0
100
AcDbPoint
 10
-101.5694583548056
 20
-193.4568406856984
 30
0.0
  0
POINT
  5
423
330
41A
100
AcDbEntity
  8
Defpoints
 62
     0
100
AcDbPoint
 10
-73.56945835480565
 20
-183.4568406856984
 30
0.0
  0
POINT
  5
424
330
41A
100
AcDbEntity
  8
Defpoints
 62
     0
100
AcDbPoint
 10
-73.56945835480565
 20
-211.1958696163624
 30
0.0
  0
ENDBLK
  5
41C
330
41A
100
AcDbEntity
  8
0
100
AcDbBlockEnd
  0
BLOCK
  5
427
330
426
100
AcDbEntity
  8
0
100
AcDbBlockBegin
  2
*D12
 70
     1
 10
0.0
 20
0.0
 30
0.0
  3
*D12
  1

  0
LINE
  5
429
330
426
100
AcDbEntity
  8
0
  6
ByBlock
 62
     0
370
    -2
100
AcDbLine
 10
-36.56945835480565
 20
24.75114925222294
 30
0.0
 11
-36.56945835480565
 21
39.52963796071904
 31
0.0
  0
LINE
  5
42A
330
426
100
AcDbEntity
  8
0
  6
ByBlock
 62
     0
370
    -2
100
AcDbLine
 10
-39.56945835480565
 20
36.67263570241825
 30
0.0
 11
-98.56945835480565
 21
36.67263570241825
 31
0.0
  0
INSERT
  5
42B
330
426
100
AcDbEntity
  8
0
 62
     0
370
    -2
100
AcDbBlockReference
  2
_Open30
 10
-36.56945835480565
 20
36.67263570241825
 30
0.0
 41
3.0
 42
3.0
 43
3.0
  0
INSERT
  5
42C
330
426
100
AcDbEntity
  8
0
 62
     0
370
    -2
100
AcDbBlockReference
  2
_Open30
 10
-101.5694583548056
 20
36.67263570241825
 30
0.0
 41
3.0
 42
3.0
 43
3.0
 50
180.0
  0
MTEXT
  5
42D
330
426
100
AcDbEntity
  8
0
 62
     0
100
AcDbMText
 10
-69.06745835480564
 20
40.42263570241825
 30
0.0
 40
5.0
 41
0.0
 71
     5
 72
     1
  1
65
 73
     1
 44
1.0
  0
POINT
  5
42E
330
426
100
AcDbEntity
  8
Defpoints
 62
     0
100
AcDbPoint
 10
-36.56945835480565
 20
24.75114925222294
 30
0.0
  0
POINT
  5
42F
330
426
100
AcDbEntity
  8
Defpoints
 62
     0
100
AcDbPoint
 10
-101.5694583548056
 20
54.45322139577763
 30
0.0
  0
POINT
  5
430
330
426
100
AcDbEntity
  8
Defpoints
 62
     0
100
AcDbPoint
 10
-101.5694583548056
 20
36.67163570241826
 30
0.0
  0
ENDBLK
  5
428
330
426
100
AcDbEntity
  8
0
100
AcDbBlockEnd
  0
BLOCK
  5
433
330
432
100
AcDbEntity
  8
0
100
AcDbBlockBegin
  2
*D13
 70
     1
 10
0.0
 20
0.0
 30
0.0
  3
*D13
  1

  0
LINE
  5
435
330
432
100
AcDbEntity
  8
0
  6
ByBlock
 62
     0
370
    -2
100
AcDbLine
 10
-201.5694583548056
 20
70.01166933637057
 30
0.0
 11
-201.5694583548056
 21
33.81563344411748
 31
0.0
  0
LINE
  5
436
330
432
100
AcDbEntity
  8
0
  6
ByBlock
 62
     0
370
    -2
100
AcDbLine
 10
-101.5694583548056
 20
54.45322139577763
 30
0.0
 11
-101.5694583548056
 21
33.81563344411747
 31
0.0
  0
LINE
  5
437
330
432
100
AcDbEntity
  8
0
  6
ByBlock
 62
     0
370
    -2
100
AcDbLine
 10
-198.5694583548056
 20
36.67263570241826
 30
0.0
 11
-104.5694583548056
 21
36.67263570241825
 31
0.0
  0
INSERT
  5
438
330
432
100
AcDbEntity
  8
0
 62
     0
370
    -2
100
AcDbBlockReference
  2
_Open30
 10
-201.5694583548056
 20
36.67263570241826
 30
0.0
 41
3.0
 42
3.0
 43
3.0
 50
180.0
  0
INSERT
  5
439
330
432
100
AcDbEntity
  8
0
 62
     0
370
    -2
100
AcDbBlockReference
  2
_Open30
 10
-101.5694583548056
 20
36.67263570241825
 30
0.0
 41
3.0
 42
3.0
 43
3.0
 50
360.0
  0
MTEXT
  5
43A
330
432
100
AcDbEntity
  8
0
 62
     0
100
AcDbMText
 10
-151.5684583548056
 20
40.42263570241825
 30
0.0
 40
5.0
 41
0.0
 71
     5
 72
     1
  1
100
 73
     1
 44
1.0
  0
POINT
  5
43B
330
432
100
AcDbEntity
  8
Defpoints
 62
     0
100
AcDbPoint
 10
-201.5694583548056
 20
70.01166933637057
 30
0.0
  0
POINT
  5
43C
330
432
100
AcDbEntity
  8
Defpoints
 62
     0
100
AcDbPoint
 10
-101.5694583548056
 20
54.45322139577763
 30
0.0
  0
POINT
  5
43D
330
432
100
AcDbEntity
  8
Defpoints
 62
     0
100
AcDbPoint
 10
-101.5694583548056
 20
36.67163570241826
 30
0.0
  0
ENDBLK
  5
434
330
432
100
AcDbEntity
  8
0
100
AcDbBlockEnd
  0
BLOCK
  5
440
330
43F
100
AcDbEntity
  8
0
100
AcDbBlockBegin
  2
*D14
 70
     1
 10
0.0
 20
0.0
 30
0.0
  3
*D14
  1

  0
LINE
  5
442
330
43F
100
AcDbEntity
  8
0
  6
ByBlock
 62
     0
370
    -2
100
AcDbLine
 10
-129.5694583548056
 20
-183.4568406856984
 30
0.0
 11
-129.5694583548056
 21
-214.0518680599658
 31
0.0
  0
LINE
  5
443
330
43F
100
AcDbEntity
  8
0
  6
ByBlock
 62
     0
370
    -2
100
AcDbLine
 10
-101.5694583548056
 20
-193.4568406856984
 30
0.0
 11
-101.5694583548056
 21
-214.0518680599658
 31
0.0
  0
LINE
  5
444
330
43F
100
AcDbEntity
  8
0
  6
ByBlock
 62
     0
370
    -2
100
AcDbLine
 10
-126.5694583548056
 20
-211.1948696163624
 30
0.0
 11
-104.5694583548056
 21
-211.1948696163624
 31
0.0
  0
INSERT
  5
445
330
43F
100
AcDbEntity
  8
0
 62
     0
370
    -2
100
AcDbBlockReference
  2
_Open30
 10
-129.5694583548056
 20
-211.1948696163624
 30
0.0
 41
3.0
 42
3.0
 43
3.0
 50
180.0
  0
INSERT
  5
446
330
43F
100
AcDbEntity
  8
0
 62
     0
370
    -2
100
AcDbBlockReference
  2
_Open30
 10
-101.5694583548056
 20
-211.1948696163624
 30
0.0
 41
3.0
 42
3.0
 43
3.0
  0
MTEXT
  5
447
330
43F
100
AcDbEntity
  8
0
 62
     0
100
AcDbMText
 10
-115.5684583548056
 20
-207.4448696163624
 30
0.0
 40
5.0
 41
0.0
 71
     5
 72
     1
  1
28
 73
     1
 44
1.0
  0
POINT
  5
448
330
43F
100
AcDbEntity
  8
Defpoints
 62
     0
100
AcDbPoint
 10
-129.5694583548056
 20
-183.4568406856984
 30
0.0
  0
POINT
  5
449
330
43F
100
AcDbEntity
  8
Defpoints
 62
     0
100
AcDbPoint
 10
-101.5694583548056
 20
-193.4568406856984
 30
0.0
  0
POINT
  5
44A
330
43F
100
AcDbEntity
  8
Defpoints
 62
     0
100
AcDbPoint
 10
-101.5694583548056
 20
-211.1958696163624
 30
0.0
  0
ENDBLK
  5
441
330
43F
100
AcDbEntity
  8
0
100
AcDbBlockEnd
  0
BLOCK
  5
44D
330
44C
100
AcDbEntity
  8
0
100
AcDbBlockBegin
  2
*D15
 70
     1
 10
0.0
 20
0.0
 30
0.0
  3
*D15
  1

  0
LINE
  5
44F
330
44C
100
AcDbEntity
  8
0
  6
ByBlock
 62
     0
370
    -2
100
AcDbLine
 10
-36.56945835480565
 20
-188.4568368710011
 30
0.0
 11
-36.56945835480565
 21
-227.4558292416064
 31
0.0
  0
LINE
  5
450
330
44C
100
AcDbEntity
  8
0
  6
ByBlock
 62
     0
370
    -2
100
AcDbLine
 10
-166.5694583548056
 20
-185.4568406856984
 30
0.0
 11
-166.5694583548056
 21
-227.4558292416064
 31
0.0
  0
LINE
  5
451
330
44C
100
AcDbEntity
  8
0
  6
ByBlock
 62
     0
370
    -2
100
AcDbLine
 10
-39.56945835480565
 20
-224.5988307980029
 30
0.0
 11
-163.5694583548056
 21
-224.5988307980029
 31
0.0
  0
INSERT
  5
452
330
44C
100
AcDbEntity
  8
0
 62
     0
370
    -2
100
AcDbBlockReference
  2
_Open30
 10
-36.56945835480565
 20
-224.5988307980029
 30
0.0
 41
3.0
 42
3.0
 43
3.0
  0
INSERT
  5
453
330
44C
100
AcDbEntity
  8
0
 62
     0
370
    -2
100
AcDbBlockReference
  2
_Open30
 10
-166.5694583548056
 20
-224.5988307980029
 30
0.0
 41
3.0
 42
3.0
 43
3.0
 50
180.0
  0
MTEXT
  5
454
330
44C
100
AcDbEntity
  8
0
 62
     0
100
AcDbMText
 10
-101.5674583548056
 20
-220.8488307980029
 30
0.0
 40
5.0
 41
0.0
 71
     5
 72
     1
  1
130
 73
     1
 44
1.0
  0
POINT
  5
455
330
44C
100
AcDbEntity
  8
Defpoints
 62
     0
100
AcDbPoint
 10
-36.56945835480565
 20
-188.4568368710011
 30
0.0
  0
POINT
  5
456
330
44C
100
AcDbEntity
  8
Defpoints
 62
     0
100
AcDbPoint
 10
-166.5694583548056
 20
-185.4568406856984
 30
0.0
  0
POINT
  5
457
330
44C
100
AcDbEntity
  8
Defpoints
 62
     0
100
AcDbPoint
 10
-166.5694583548056
 20
-224.5998307980029
 30
0.0
  0
ENDBLK
  5
44E
330
44C
100
AcDbEntity
  8
0
100
AcDbBlockEnd
  0
BLOCK
  5
45F
330
458
100
AcDbEntity
  8
0
100
AcDbBlockBegin
  2
SYM0002
 70
     0
 10
0.0
 20
0.0
 30
0.0
  3
SYM0002
  1

  0
LINE
  5
459
330
458
100
AcDbEntity
  8
0
  6
Continuous
 62
     7
100
AcDbLine
 10
0.0
 20
0.0
 30
0.0
 11
-3.432978978797649
 21
16.13771575190943
 31
0.0
  0
LINE
  5
45A
330
458
100
AcDbEntity
  8
0
  6
Continuous
 62
     7
100
AcDbLine
 10
0.0
 20
0.0
 30
0.0
 11
-1.184926982345075
 21
2.931611339606704
 31
0.0
  0
LINE
  5
45B
330
458
100
AcDbEntity
  8
0
  6
Continuous
 62
     7
100
AcDbLine
 10
0.0
 20
0.0
 30
0.0
 11
-0.110958849045574
 21
3.160076760747828
 31
0.0
  0
LINE
  5
45C
330
458
100
AcDbEntity
  8
0
  6
Continuous
 62
     7
100
AcDbLine
 10
-3.432978978797678
 20
16.1377157519094
 30
0.0
 11
-5.849646561147068
 21
16.1377157519094
 31
0.0
  0
MTEXT
  5
45D
330
458
100
AcDbEntity
  8
0
 62
     7
100
AcDbMText
 10
-26.99265193224008
 20
13.63771385294855
 30
0.0
 40
5.0
 41
0.0
 71
     7
 72
     1
  1
{\W0.833333;G1/2}
 73
     1
 44
1.0
  0
ENDBLK
  5
460
330
458
100
AcDbEntity
  8
0
100
AcDbBlockEnd
  0
BLOCK
  5
463
330
462
100
AcDbEntity
  8
0
100
AcDbBlockBegin
  2
*D17
 70
     1
 10
0.0
 20
0.0
 30
0.0
  3
*D17
  1

  0
LINE
  5
465
330
462
100
AcDbEntity
  8
0
  6
ByBlock
 62
     0
370
    -2
100
AcDbLine
 10
-61.56945835480566
 20
-193.4568406856984
 30
0.0
 11
-11.77924342798002
 21
-193.4568406856984
 31
0.0
  0
LINE
  5
466
330
462
100
AcDbEntity
  8
0
  6
ByBlock
 62
     0
370
    -2
100
AcDbLine
 10
-61.56945835480566
 20
-171.4568406856984
 30
0.0
 11
-11.77924342798002
 21
-171.4568406856984
 31
0.0
  0
LINE
  5
467
330
462
100
AcDbEntity
  8
0
  6
ByBlock
 62
     0
370
    -2
100
AcDbLine
 10
-14.06524342798002
 20
-190.4568406856984
 30
0.0
 11
-14.06524342798002
 21
-174.4568406856984
 31
0.0
  0
INSERT
  5
468
330
462
100
AcDbEntity
  8
0
 62
     0
370
    -2
100
AcDbBlockReference
  2
_Open30
 10
-14.06524342798002
 20
-193.4568406856984
 30
0.0
 41
3.0
 42
3.0
 43
3.0
 50
270.0
  0
INSERT
  5
469
330
462
100
AcDbEntity
  8
0
 62
     0
370
    -2
100
AcDbBlockReference
  2
_Open30
 10
-14.06524342798002
 20
-171.4568406856984
 30
0.0
 41
3.0
 42
3.0
 43
3.0
 50
90.0
  0
MTEXT
  5
46A
330
462
100
AcDbEntity
  8
0
 62
     0
100
AcDbMText
 10
-17.81524342798002
 20
-182.4558406856983
 30
0.0
 40
5.0
 41
0.0
 71
     5
 72
     1
  1
22
 11
1.614869854000228E-16
 21
1.0
 31
0.0
 73
     1
 44
1.0
  0
POINT
  5
46B
330
462
100
AcDbEntity
  8
Defpoints
 62
     0
100
AcDbPoint
 10
-61.56945835480566
 20
-193.4568406856984
 30
0.0
  0
POINT
  5
46C
330
462
100
AcDbEntity
  8
Defpoints
 62
     0
100
AcDbPoint
 10
-61.56945835480566
 20
-171.4568406856984
 30
0.0
  0
POINT
  5
46D
330
462
100
AcDbEntity
  8
Defpoints
 62
     0
100
AcDbPoint
 10
-14.06524342798002
 20
-171.4568406856984
 30
0.0
  0
ENDBLK
  5
464
330
462
100
AcDbEntity
  8
0
100
AcDbBlockEnd
  0
BLOCK
  5
470
330
46F
100
AcDbEntity
  8
0
100
AcDbBlockBegin
  2
*D18
 70
     1
 10
0.0
 20
0.0
 30
0.0
  3
*D18
  1

  0
LINE
  5
472
330
46F
100
AcDbEntity
  8
0
  6
ByBlock
 62
     0
370
    -2
100
AcDbLine
 10
-61.56945835480566
 20
-193.4568406856984
 30
0.0
 11
1.928534068357851
 21
-193.4568406856984
 31
0.0
  0
LINE
  5
473
330
46F
100
AcDbEntity
  8
0
  6
ByBlock
 62
     0
370
    -2
100
AcDbLine
 10
-76.56930576691504
 20
-70.9567796505421
 30
0.0
 11
1.928534068357874
 21
-70.9567796505421
 31
0.0
  0
LINE
  5
474
330
46F
100
AcDbEntity
  8
0
  6
ByBlock
 62
     0
370
    -2
100
AcDbLine
 10
-0.357465931641865
 20
-190.4568406856984
 30
0.0
 11
-0.357465931641844
 21
-73.9567796505421
 31
0.0
  0
INSERT
  5
475
330
46F
100
AcDbEntity
  8
0
 62
     0
370
    -2
100
AcDbBlockReference
  2
_Open30
 10
-0.357465931641866
 20
-193.4568406856984
 30
0.0
 41
3.0
 42
3.0
 43
3.0
 50
270.0
  0
INSERT
  5
476
330
46F
100
AcDbEntity
  8
0
 62
     0
370
    -2
100
AcDbBlockReference
  2
_Open30
 10
-0.357465931641843
 20
-70.9567796505421
 30
0.0
 41
3.0
 42
3.0
 43
3.0
 50
89.99999999999999
  0
MTEXT
  5
477
330
46F
100
AcDbEntity
  8
0
 62
     0
100
AcDbMText
 10
-4.107465931641855
 20
-132.2058101681202
 30
0.0
 40
5.0
 41
0.0
 71
     5
 72
     1
  1
122.5
 11
1.835265718129505E-16
 21
1.0
 31
0.0
 73
     1
 44
1.0
  0
POINT
  5
478
330
46F
100
AcDbEntity
  8
Defpoints
 62
     0
100
AcDbPoint
 10
-61.56945835480566
 20
-193.4568406856984
 30
0.0
  0
POINT
  5
479
330
46F
100
AcDbEntity
  8
Defpoints
 62
     0
100
AcDbPoint
 10
-76.56930576691504
 20
-70.9567796505421
 30
0.0
  0
POINT
  5
47A
330
46F
100
AcDbEntity
  8
Defpoints
 62
     0
100
AcDbPoint
 10
-0.357465931641855
 20
-70.9567796505421
 30
0.0
  0
ENDBLK
  5
471
330
46F
100
AcDbEntity
  8
0
100
AcDbBlockEnd
  0
BLOCK
  5
47D
330
47C
100
AcDbEntity
  8
0
100
AcDbBlockBegin
  2
*D19
 70
     1
 10
0.0
 20
0.0
 30
0.0
  3
*D19
  1

  0
LINE
  5
47F
330
47C
100
AcDbEntity
  8
0
  6
ByBlock
 62
     0
370
    -2
100
AcDbLine
 10
33.16226161589748
 20
-193.4568406856984
 30
0.0
 11
33.16226161589748
 21
-214.0518680599658
 31
0.0
  0
LINE
  5
480
330
47C
100
AcDbEntity
  8
0
  6
ByBlock
 62
     0
370
    -2
100
AcDbLine
 10
98.16226161589748
 20
-193.4568406856984
 30
0.0
 11
98.16226161589748
 21
-214.0518680599658
 31
0.0
  0
LINE
  5
481
330
47C
100
AcDbEntity
  8
0
  6
ByBlock
 62
     0
370
    -2
100
AcDbLine
 10
36.16226161589748
 20
-211.1948696163624
 30
0.0
 11
95.16226161589748
 21
-211.1948696163624
 31
0.0
  0
INSERT
  5
482
330
47C
100
AcDbEntity
  8
0
 62
     0
370
    -2
100
AcDbBlockReference
  2
_Open30
 10
33.16226161589748
 20
-211.1948696163624
 30
0.0
 41
3.0
 42
3.0
 43
3.0
 50
180.0
  0
INSERT
  5
483
330
47C
100
AcDbEntity
  8
0
 62
     0
370
    -2
100
AcDbBlockReference
  2
_Open30
 10
98.16226161589748
 20
-211.1948696163624
 30
0.0
 41
3.0
 42
3.0
 43
3.0
  0
MTEXT
  5
484
330
47C
100
AcDbEntity
  8
0
 62
     0
100
AcDbMText
 10
65.66326161589748
 20
-207.4448696163624
 30
0.0
 40
5.0
 41
0.0
 71
     5
 72
     1
  1
65
 73
     1
 44
1.0
  0
POINT
  5
485
330
47C
100
AcDbEntity
  8
Defpoints
 62
     0
100
AcDbPoint
 10
33.16226161589748
 20
-193.4568406856984
 30
0.0
  0
POINT
  5
486
330
47C
100
AcDbEntity
  8
Defpoints
 62
     0
100
AcDbPoint
 10
98.16226161589748
 20
-193.4568406856984
 30
0.0
  0
POINT
  5
487
330
47C
100
AcDbEntity
  8
Defpoints
 62
     0
100
AcDbPoint
 10
98.16226161589748
 20
-211.1958696163624
 30
0.0
  0
ENDBLK
  5
47E
330
47C
100
AcDbEntity
  8
0
100
AcDbBlockEnd
  0
BLOCK
  5
48A
330
489
100
AcDbEntity
  8
0
100
AcDbBlockBegin
  2
*D20
 70
     1
 10
0.0
 20
0.0
 30
0.0
  3
*D20
  1

  0
LINE
  5
48C
330
489
100
AcDbEntity
  8
0
  6
ByBlock
 62
     0
370
    -2
100
AcDbLine
 10
218.8939815866006
 20
-183.4568406856984
 30
0.0
 11
218.8939815866006
 21
-214.0518680599658
 31
0.0
  0
LINE
  5
48D
330
489
100
AcDbEntity
  8
0
  6
ByBlock
 62
     0
370
    -2
100
AcDbLine
 10
246.8939968453897
 20
-183.4568406856984
 30
0.0
 11
246.8939968453897
 21
-214.0518680599658
 31
0.0
  0
LINE
  5
48E
330
489
100
AcDbEntity
  8
0
  6
ByBlock
 62
     0
370
    -2
100
AcDbLine
 10
221.8939815866006
 20
-211.1948696163624
 30
0.0
 11
243.8939968453897
 21
-211.1948696163624
 31
0.0
  0
INSERT
  5
48F
330
489
100
AcDbEntity
  8
0
 62
     0
370
    -2
100
AcDbBlockReference
  2
_Open30
 10
218.8939815866006
 20
-211.1948696163624
 30
0.0
 41
3.0
 42
3.0
 43
3.0
 50
180.0
  0
INSERT
  5
490
330
489
100
AcDbEntity
  8
0
 62
     0
370
    -2
100
AcDbBlockReference
  2
_Open30
 10
246.8939968453897
 20
-211.1948696163624
 30
0.0
 41
3.0
 42
3.0
 43
3.0
  0
MTEXT
  5
491
330
489
100
AcDbEntity
  8
0
 62
     0
100
AcDbMText
 10
232.8949968453897
 20
-207.4448696163624
 30
0.0
 40
5.0
 41
0.0
 71
     5
 72
     1
  1
28
 73
     1
 44
1.0
  0
POINT
  5
492
330
489
100
AcDbEntity
  8
Defpoints
 62
     0
100
AcDbPoint
 10
218.8939815866006
 20
-183.4568406856984
 30
0.0
  0
POINT
  5
493
330
489
100
AcDbEntity
  8
Defpoints
 62
     0
100
AcDbPoint
 10
246.8939968453897
 20
-183.4568406856984
 30
0.0
  0
POINT
  5
494
330
489
100
AcDbEntity
  8
Defpoints
 62
     0
100
AcDbPoint
 10
246.8939968453897
 20
-211.1958696163624
 30
0.0
  0
ENDBLK
  5
48B
330
489
100
AcDbEntity
  8
0
100
AcDbBlockEnd
  0
BLOCK
  5
497
330
496
100
AcDbEntity
  8
0
100
AcDbBlockBegin
  2
*D21
 70
     1
 10
0.0
 20
0.0
 30
0.0
  3
*D21
  1

  0
LINE
  5
499
330
496
100
AcDbEntity
  8
0
  6
ByBlock
 62
     0
370
    -2
100
AcDbLine
 10
192.8939815866006
 20
-193.4568406856984
 30
0.0
 11
152.4661638375772
 21
-193.4568406856984
 31
0.0
  0
LINE
  5
49A
330
496
100
AcDbEntity
  8
0
  6
ByBlock
 62
     0
370
    -2
100
AcDbLine
 10
206.8939815866006
 20
-171.4568406856984
 30
0.0
 11
152.4661638375772
 21
-171.4568406856984
 31
0.0
  0
LINE
  5
49B
330
496
100
AcDbEntity
  8
0
  6
ByBlock
 62
     0
370
    -2
100
AcDbLine
 10
155.3231584664834
 20
-190.4568406856984
 30
0.0
 11
155.3231584664834
 21
-174.4568406856984
 31
0.0
  0
INSERT
  5
49C
330
496
100
AcDbEntity
  8
0
 62
     0
370
    -2
100
AcDbBlockReference
  2
_Open30
 10
155.3231584664834
 20
-193.4568406856984
 30
0.0
 41
3.0
 42
3.0
 43
3.0
 50
270.0
  0
INSERT
  5
49D
330
496
100
AcDbEntity
  8
0
 62
     0
370
    -2
100
AcDbBlockReference
  2
_Open30
 10
155.3231584664834
 20
-171.4568406856984
 30
0.0
 41
3.0
 42
3.0
 43
3.0
 50
90.0
  0
MTEXT
  5
49E
330
496
100
AcDbEntity
  8
0
 62
     0
100
AcDbMText
 10
151.5731584664834
 20
-182.4558406856983
 30
0.0
 40
5.0
 41
0.0
 71
     5
 72
     1
  1
22
 11
0.0
 21
1.0
 31
0.0
 73
     1
 44
1.0
  0
POINT
  5
49F
330
496
100
AcDbEntity
  8
Defpoints
 62
     0
100
AcDbPoint
 10
192.8939815866006
 20
-193.4568406856984
 30
0.0
  0
POINT
  5
4A0
330
496
100
AcDbEntity
  8
Defpoints
 62
     0
100
AcDbPoint
 10
206.8939815866006
 20
-171.4568406856984
 30
0.0
  0
POINT
  5
4A1
330
496
100
AcDbEntity
  8
Defpoints
 62
     0
100
AcDbPoint
 10
155.3221584664834
 20
-171.4568406856984
 30
0.0
  0
ENDBLK
  5
498
330
496
100
AcDbEntity
  8
0
100
AcDbBlockEnd
  0
ENDSEC
  0
SECTION
  2
ENTITIES
  0
LINE
  5
3D9
330
1F
100
AcDbEntity
  8
0
  6
Continuous
 62
     7
100
AcDbLine
 10
-346.9841424033295
 20
156.5100414951168
 30
0.0
 11
353.0158575966705
 21
156.5100414951168
 31
0.0
  0
LINE
  5
3DA
330
1F
100
AcDbEntity
  8
0
  6
Continuous
 62
     7
100
AcDbLine
 10
-346.9841424033295
 20
186.5100414951168
 30
0.0
 11
-346.9841424033295
 21
-243.4899585048832
 31
0.0
  0
LINE
  5
3DB
330
1F
100
AcDbEntity
  8
0
  6
Continuous
 62
     7
100
AcDbLine
 10
353.0158575966705
 20
186.5100414951168
 30
0.0
 11
353.0158575966705
 21
-243.4899585048832
 31
0.0
  0
LINE
  5
3DC
330
1F
100
AcDbEntity
  8
0
  6
Continuous
 62
     7
100
AcDbLine
 10
-346.9841424033295
 20
-243.4899585048832
 30
0.0
 11
353.0158575966705
 21
-243.4899585048832
 31
0.0
  0
LINE
  5
3DD
330
1F
100
AcDbEntity
  8
0
  6
Continuous
 62
     7
100
AcDbLine
 10
-346.9841424033295
 20
186.5100414951168
 30
0.0
 11
353.0158575966705
 21
186.5100414951168
 31
0.0
  0
MTEXT
  5
3DE
330
1F
100
AcDbEntity
  8
0
 62
     7
100
AcDbMText
 10
-109.2029241693961
 20
47.55298335866826
 30
0.0
 40
4.0
 41
0.0
 71
     7
 72
     1
  1
{\W1;IN}
 73
     1
 44
1.0
  0
MTEXT
  5
3DF
330
1F
100
AcDbEntity
  8
0
 62
     7
100
AcDbMText
 10
-132.0575231684196
 20
46.68675716237919
 30
0.0
 40
4.0
 41
0.0
 71
     7
 72
     1
  1
{\W1;E1}
 73
     1
 44
1.0
  0
MTEXT
  5
3E0
330
1F
100
AcDbEntity
  8
0
 62
     7
100
AcDbMText
 10
-75.47720090279454
 20
46.68675716237919
 30
0.0
 40
4.0
 41
0.0
 71
     7
 72
     1
  1
{\W1;E2}
 73
     1
 44
1.0
  0
MTEXT
  5
3E1
330
1F
100
AcDbEntity
  8
0
 62
     7
100
AcDbMText
 10
-117.4311109097642
 20
122.3945372618757
 30
0.0
 40
4.0
 41
0.0
 71
     7
 72
     1
  1
{\W1;01}
 73
     1
 44
1.0
  0
MTEXT
  5
3E2
330
1F
100
AcDbEntity
  8
0
 62
     7
100
AcDbMText
 10
-89.45844785103672
 20
122.4912462981214
 30
0.0
 40
4.0
 41
0.0
 71
     7
 72
     1
  1
{\W1;02}
 73
     1
 44
1.0
  0
MTEXT
  5
3E3
330
1F
100
AcDbEntity
  8
0
 62
     7
100
AcDbMText
 10
180.5241434498859
 20
-87.28362145904248
 30
0.0
 40
8.0
 41
0.0
 71
     7
 72
     1
  1
{\W0.833333;＊5}
 73
     1
 44
1.0
  0
MTEXT
  5
3E4
330
1F
100
AcDbEntity
  8
0
 62
     7
100
AcDbMText
 10
29.76448943202884
 20
-81.4871370840425
 30
0.0
 40
8.0
 41
0.0
 71
     7
 72
     1
  1
{\W0.833333;＊4}
 73
     1
 44
1.0
  0
MTEXT
  5
3E5
330
1F
100
AcDbEntity
  8
0
 62
     7
100
AcDbMText
 10
-247.3000131023871
 20
-89.87918870815929
 30
0.0
 40
8.0
 41
0.0
 71
     7
 72
     1
  1
{\W0.833333;＊3}
 73
     1
 44
1.0
  0
MTEXT
  5
3E6
330
1F
100
AcDbEntity
  8
0
 62
     7
100
AcDbMText
 10
-27.29717774133023
 20
55.92928920753161
 30
0.0
 40
8.0
 41
0.0
 71
     7
 72
     1
  1
{\W0.833333;＊2}
 73
     1
 44
1.0
  0
MTEXT
  5
3E7
330
1F
100
AcDbEntity
  8
0
 62
     7
100
AcDbMText
 10
-28.82026412981195
 20
-90.83259562954606
 30
0.0
 40
8.0
 41
0.0
 71
     7
 72
     1
  1
{\W0.833333;*1}
 73
     1
 44
1.0
  0
MTEXT
  5
3E8
330
1F
100
AcDbEntity
  8
0
 62
     7
100
AcDbMText
 10
346.5447400041907
 20
-242.7520515812892
 30
0.0
 40
0.5
 41
0.0
 71
     7
 72
     1
  1
{\W0.833333;JJCC-002A-A}
 73
     1
 44
1.0
  0
MTEXT
  5
3E9
330
1F
100
AcDbEntity
  8
0
 62
     7
100
AcDbMText
 10
-297.4126924082886
 20
165.5100414951168
 30
0.0
 40
12.0
 41
0.0
 71
     7
 72
     1
  1
{\W0.833333;NIHON　SEIKI　BN-7M43-8-G***/H**}
 73
     1
 44
1.0
  0
INSERT
  5
3EA
330
1F
100
AcDbEntity
  8
0
 62
     7
100
AcDbBlockReference
  2
DTL0001
 10
-101.5694583548056
 20
-171.4568406856984
 30
0.0
  0
INSERT
  5
3EB
330
1F
100
AcDbEntity
  8
0
 62
     7
100
AcDbBlockReference
  2
DTL0002
 10
-101.5694583548056
 20
86.95322139577763
 30
0.0
  0
INSERT
  5
3EC
330
1F
100
AcDbEntity
  8
0
 62
     7
100
AcDbBlockReference
  2
DTL0003
 10
-278.8011783255088
 20
-175.4568406856984
 30
0.0
  0
INSERT
  5
3ED
330
1F
100
AcDbEntity
  8
0
 62
     7
100
AcDbBlockReference
  2
DTL0004
 10
65.66226161589748
 20
-175.4568406856984
 30
0.0
  0
INSERT
  5
3EE
330
1F
100
AcDbEntity
  8
0
 62
     7
100
AcDbBlockReference
  2
DTL0005
 10
232.8939815866006
 20
-171.4568406856984
 30
0.0
  0
DIMENSION
  5
3EF
330
1F
100
AcDbEntity
  8
0
 62
     7
100
AcDbDimension
  2
*D8
 10
-36.56945835480565
 20
27.60915913991825
 30
0.0
 11
-119.0684583548056
 21
27.60915913991826
 31
0.0
 70
   160
 71
     5
 42
165.0
  3
DIMSTYLE_FULLSCALE
100
AcDbAlignedDimension
 13
-201.5694583548056
 23
73.95322139577763
 33
0.0
 14
-36.56945835480565
 24
71.95322139577763
 34
0.0
 50
180.0
100
AcDbRotatedDimension
1001
ACAD
1000
DSTYLE
1002
{
1070
    40
1040
1.0
1070
   278
1070
    46
1070
   147
1040
1.25
1070
    77
1070
     1
1070
    74
1070
     0
1070
    73
1070
     0
1070
    42
1040
0.0
1070
    44
1040
2.857009887695312
1070
    76
1070
     0
1070
    75
1070
     0
1070
   279
1070
     0
1070
   271
1070
     0
1070
   144
1040
1.0
1070
   173
1070
     1
1070
    41
1040
3.0
1070
   140
1040
5.0
1070
   344
1005
3F0
1070
   343
1005
3F0
1002
}
  0
DIMENSION
  5
403
330
1F
100
AcDbEntity
  8
0
 62
     7
100
AcDbDimension
  2
*D9
 10
118.4612728463662
 20
-162.4568406856984
 30
0.0
 11
118.4612728463662
 21
-177.9558406856983
 31
0.0
 70
   160
 71
     5
 42
31.0
  3
DIMSTYLE_FULLSCALE
100
AcDbAlignedDimension
 13
98.16226161589748
 23
-193.4568406856984
 33
0.0
 14
98.16226161589748
 24
-162.4568406856984
 34
0.0
 50
270.0
100
AcDbRotatedDimension
1001
ACAD
1000
DSTYLE
1002
{
1070
    40
1040
1.0
1070
   278
1070
    46
1070
   147
1040
1.25
1070
    77
1070
     1
1070
    74
1070
     0
1070
    73
1070
     0
1070
    42
1040
0.0
1070
    44
1040
2.85699462890625
1070
    76
1070
     0
1070
    75
1070
     0
1070
   279
1070
     0
1070
   271
1070
     0
1070
   144
1040
1.0
1070
   173
1070
     1
1070
    41
1040
3.0
1070
   140
1040
5.0
1070
   344
1005
3F0
1070
   343
1005
3F0
1002
}
  0
INSERT
  5
416
330
1F
100
AcDbEntity
  8
0
 62
     7
100
AcDbBlockReference
  2
SYM0001
 10
-71.39222694697696
 20
-164.8347571599962
 30
0.0
  0
DIMENSION
  5
419
330
1F
100
AcDbEntity
  8
0
 62
     7
100
AcDbDimension
  2
*D11
 10
-73.56945835480565
 20
-211.1948696163624
 30
0.0
 11
-87.56845835480564
 21
-211.1948696163624
 31
0.0
 70
   160
 71
     5
 42
28.0
  3
DIMSTYLE_FULLSCALE
100
AcDbAlignedDimension
 13
-101.5694583548056
 23
-193.4568406856984
 33
0.0
 14
-73.56945835480565
 24
-183.4568406856984
 34
0.0
 50
180.0
100
AcDbRotatedDimension
1001
ACAD
1000
DSTYLE
1002
{
1070
    40
1040
1.0
1070
   278
1070
    46
1070
   147
1040
1.25
1070
    77
1070
     1
1070
    74
1070
     0
1070
    73
1070
     0
1070
    42
1040
0.0
1070
    44
1040
2.856998443603402
1070
    76
1070
     0
1070
    75
1070
     1
1070
   279
1070
     0
1070
   271
1070
     0
1070
   144
1040
1.0
1070
   173
1070
     1
1070
    41
1040
3.0
1070
   140
1040
5.0
1070
   344
1005
3F0
1070
   343
1005
3F0
1002
}
  0
DIMENSION
  5
425
330
1F
100
AcDbEntity
  8
0
 62
     7
100
AcDbDimension
  2
*D12
 10
-101.5694583548056
 20
36.67263570241825
 30
0.0
 11
-69.06745835480564
 21
36.67263570241825
 31
0.0
 70
   160
 71
     5
 42
65.0
  3
DIMSTYLE_FULLSCALE
100
AcDbAlignedDimension
 13
-36.56945835480565
 23
24.75114925222294
 33
0.0
 14
-101.5694583548056
 24
54.45322139577763
 34
0.0
100
AcDbRotatedDimension
1001
ACAD
1000
DSTYLE
1002
{
1070
    40
1040
1.0
1070
   278
1070
    46
1070
   147
1040
1.25
1070
    77
1070
     1
1070
    74
1070
     0
1070
    73
1070
     0
1070
    42
1040
0.0
1070
    44
1040
2.857002258300781
1070
    76
1070
     1
1070
    75
1070
     0
1070
   279
1070
     0
1070
   271
1070
     0
1070
   144
1040
1.0
1070
   173
1070
     1
1070
    41
1040
3.0
1070
   140
1040
5.0
1070
   344
1005
3F0
1070
   343
1005
3F0
1002
}
  0
DIMENSION
  5
431
330
1F
100
AcDbEntity
  8
0
 62
     7
100
AcDbDimension
  2
*D13
 10
-101.5694583548056
 20
36.67263570241825
 30
0.0
 11
-151.5684583548056
 21
36.67263570241825
 31
0.0
 70
   160
 71
     5
 42
100.0
  3
DIMSTYLE_FULLSCALE
100
AcDbAlignedDimension
 13
-201.5694583548056
 23
70.01166933637057
 33
0.0
 14
-101.5694583548056
 24
54.45322139577763
 34
0.0
 50
180.0
100
AcDbRotatedDimension
1001
ACAD
1000
DSTYLE
1002
{
1070
    40
1040
1.0
1070
   278
1070
    46
1070
   147
1040
1.25
1070
    77
1070
     1
1070
    74
1070
     0
1070
    73
1070
     0
1070
    42
1040
0.0
1070
    44
1040
2.857002258300781
1070
    76
1070
     0
1070
    75
1070
     0
1070
   279
1070
     0
1070
   271
1070
     0
1070
   144
1040
1.0
1070
   173
1070
     1
1070
    41
1040
3.0
1070
   140
1040
5.0
1070
   344
1005
3F0
1070
   343
1005
3F0
1002
}
  0
DIMENSION
  5
43E
330
1F
100
AcDbEntity
  8
0
 62
     7
100
AcDbDimension
  2
*D14
 10
-101.5694583548056
 20
-211.1948696163624
 30
0.0
 11
-115.5684583548056
 21
-211.1948696163624
 31
0.0
 70
   160
 71
     5
 42
28.0
  3
DIMSTYLE_FULLSCALE
100
AcDbAlignedDimension
 13
-129.5694583548056
 23
-183.4568406856984
 33
0.0
 14
-101.5694583548056
 24
-193.4568406856984
 34
0.0
 50
180.0
100
AcDbRotatedDimension
1001
ACAD
1000
DSTYLE
1002
{
1070
    40
1040
1.0
1070
   278
1070
    46
1070
   147
1040
1.25
1070
    77
1070
     1
1070
    74
1070
     0
1070
    73
1070
     0
1070
    42
1040
0.0
1070
    44
1040
2.856998443603402
1070
    76
1070
     0
1070
    75
1070
     0
1070
   279
1070
     0
1070
   271
1070
     0
1070
   144
1040
1.0
1070
   173
1070
     1
1070
    41
1040
3.0
1070
   140
1040
5.0
1070
   344
1005
3F0
1070
   343
1005
3F0
1002
}
  0
DIMENSION
  5
44B
330
1F
100
AcDbEntity
  8
0
 62
     7
100
AcDbDimension
  2
*D15
 10
-166.5694583548056
 20
-224.5988307980029
 30
0.0
 11
-101.5674583548056
 21
-224.5988307980029
 31
0.0
 70
   160
 71
     5
 42
130.0
  3
DIMSTYLE_FULLSCALE
100
AcDbAlignedDimension
 13
-36.56945835480565
 23
-188.4568368710011
 33
0.0
 14
-166.5694583548056
 24
-185.4568406856984
 34
0.0
100
AcDbRotatedDimension
1001
ACAD
1000
DSTYLE
1002
{
1070
    40
1040
1.0
1070
   278
1070
    46
1070
   147
1040
1.25
1070
    77
1070
     1
1070
    74
1070
     0
1070
    73
1070
     0
1070
    42
1040
0.0
1070
    44
1040
2.856998443603516
1070
    76
1070
     0
1070
    75
1070
     0
1070
   279
1070
     0
1070
   271
1070
     0
1070
   144
1040
1.0
1070
   173
1070
     1
1070
    41
1040
3.0
1070
   140
1040
5.0
1070
   344
1005
3F0
1070
   343
1005
3F0
1002
}
  0
INSERT
  5
45E
330
1F
100
AcDbEntity
  8
0
 62
     7
100
AcDbBlockReference
  2
SYM0002
 10
-197.1571505056087
 20
-125.3328348939546
 30
0.0
  0
DIMENSION
  5
461
330
1F
100
AcDbEntity
  8
0
 62
     7
100
AcDbDimension
  2
*D17
 10
-14.06524342798002
 20
-171.4568406856984
 30
0.0
 11
-14.06524342798002
 21
-182.4558406856983
 31
0.0
 70
   160
 71
     5
 42
22.0
  3
DIMSTYLE_FULLSCALE
100
AcDbAlignedDimension
 13
-61.56945835480566
 23
-193.4568406856984
 33
0.0
 14
-61.56945835480566
 24
-171.4568406856984
 34
0.0
 50
270.0
100
AcDbRotatedDimension
1001
ACAD
1000
DSTYLE
1002
{
1070
    40
1040
1.0
1070
   278
1070
    46
1070
   147
1040
1.25
1070
    77
1070
     1
1070
    74
1070
     0
1070
    73
1070
     0
1070
    42
1040
0.0
1070
    44
1040
2.286000000000001
1070
    76
1070
     0
1070
    75
1070
     0
1070
   279
1070
     0
1070
   271
1070
     0
1070
   144
1040
1.0
1070
   173
1070
     1
1070
    41
1040
3.0
1070
   140
1040
5.0
1070
   344
1005
3F0
1070
   343
1005
3F0
1002
}
  0
DIMENSION
  5
46E
330
1F
100
AcDbEntity
  8
0
 62
     7
100
AcDbDimension
  2
*D18
 10
-0.357465931641843
 20
-70.9567796505421
 30
0.0
 11
-0.357465931641855
 21
-132.2058101681202
 31
0.0
 70
   160
 71
     5
 42
122.5000610351562
  3
DIMSTYLE_FULLSCALE
100
AcDbAlignedDimension
 13
-61.56945835480566
 23
-193.4568406856984
 33
0.0
 14
-76.56930576691504
 24
-70.9567796505421
 34
0.0
 50
270.0
100
AcDbRotatedDimension
1001
ACAD
1000
DSTYLE
1002
{
1070
    40
1040
1.0
1070
   278
1070
    46
1070
   147
1040
1.25
1070
    77
1070
     1
1070
    74
1070
     0
1070
    73
1070
     0
1070
    42
1040
0.0
1070
    44
1040
2.285999999999717
1070
    76
1070
     0
1070
    75
1070
     0
1070
   279
1070
     0
1070
    78
1070
     0
1070
   271
1070
     1
1070
   144
1040
1.0
1070
   173
1070
     1
1070
    41
1040
3.0
1070
   140
1040
5.0
1070
   344
1005
3F0
1070
   343
1005
3F0
1002
}
  0
DIMENSION
  5
47B
330
1F
100
AcDbEntity
  8
0
 62
     7
100
AcDbDimension
  2
*D19
 10
98.16226161589748
 20
-211.1948696163624
 30
0.0
 11
65.66326161589748
 21
-211.1948696163624
 31
0.0
 70
   160
 71
     5
 42
65.0
  3
DIMSTYLE_FULLSCALE
100
AcDbAlignedDimension
 13
33.16226161589748
 23
-193.4568406856984
 33
0.0
 14
98.16226161589748
 24
-193.4568406856984
 34
0.0
 50
180.0
100
AcDbRotatedDimension
1001
ACAD
1000
DSTYLE
1002
{
1070
    40
1040
1.0
1070
   278
1070
    46
1070
   147
1040
1.25
1070
    77
1070
     1
1070
    74
1070
     0
1070
    73
1070
     0
1070
    42
1040
0.0
1070
    44
1040
2.856998443603402
1070
    76
1070
     0
1070
    75
1070
     0
1070
   279
1070
     0
1070
   271
1070
     0
1070
   144
1040
1.0
1070
   173
1070
     1
1070
    41
1040
3.0
1070
   140
1040
5.0
1070
   344
1005
3F0
1070
   343
1005
3F0
1002
}
  0
DIMENSION
  5
488
330
1F
100
AcDbEntity
  8
0
 62
     7
100
AcDbDimension
  2
*D20
 10
246.8939968453897
 20
-211.1948696163624
 30
0.0
 11
232.8949968453897
 21
-211.1948696163624
 31
0.0
 70
   160
 71
     5
 42
28.00001525878906
  3
DIMSTYLE_FULLSCALE
100
AcDbAlignedDimension
 13
218.8939815866006
 23
-183.4568406856984
 33
0.0
 14
246.8939968453897
 24
-183.4568406856984
 34
0.0
 50
180.0
100
AcDbRotatedDimension
1001
ACAD
1000
DSTYLE
1002
{
1070
    40
1040
1.0
1070
   278
1070
    46
1070
   147
1040
1.25
1070
    77
1070
     1
1070
    74
1070
     0
1070
    73
1070
     0
1070
    42
1040
0.0
1070
    44
1040
2.856998443603402
1070
    76
1070
     0
1070
    75
1070
     0
1070
   279
1070
     0
1070
   271
1070
     0
1070
   144
1040
1.0
1070
   173
1070
     1
1070
    41
1040
3.0
1070
   140
1040
5.0
1070
   344
1005
3F0
1070
   343
1005
3F0
1002
}
  0
DIMENSION
  5
495
330
1F
100
AcDbEntity
  8
0
 62
     7
100
AcDbDimension
  2
*D21
 10
155.3231584664834
 20
-171.4568406856984
 30
0.0
 11
155.3231584664834
 21
-182.4558406856983
 31
0.0
 70
   160
 71
     5
 42
22.0
  3
DIMSTYLE_FULLSCALE
100
AcDbAlignedDimension
 13
192.8939815866006
 23
-193.4568406856984
 33
0.0
 14
206.8939815866006
 24
-171.4568406856984
 34
0.0
 50
270.0
100
AcDbRotatedDimension
1001
ACAD
1000
DSTYLE
1002
{
1070
    40
1040
1.0
1070
   278
1070
    46
1070
   147
1040
1.25
1070
    77
1070
     1
1070
    74
1070
     0
1070
    73
1070
     0
1070
    42
1040
0.0
1070
    44
1040
2.85699462890625
1070
    76
1070
     0
1070
    75
1070
     0
1070
   279
1070
     0
1070
   271
1070
     0
1070
   144
1040
1.0
1070
   173
1070
     1
1070
    41
1040
3.0
1070
   140
1040
5.0
1070
   344
1005
3F0
1070
   343
1005
3F0
1002
}
  0
ENDSEC
  0
SECTION
  2
OBJECTS
  0
DICTIONARY
  5
C
330
0
100
AcDbDictionary
281
     1
  3
ACAD_GROUP
350
D
  3
ACAD_LAYOUT
350
1A
  3
ACAD_MATERIAL
350
43
  3
ACAD_MLEADERSTYLE
350
6B
  3
ACAD_MLINESTYLE
350
17
  3
ACAD_PLOTSETTINGS
350
19
  3
ACAD_PLOTSTYLENAME
350
E
  3
ACAD_SCALELIST
350
47
  3
ACAD_TABLESTYLE
350
69
  3
ACAD_VISUALSTYLE
350
2A
  3
AcDbVariableDictionary
350
4A2
  3
DWGPROPS
350
4AD
  0
DICTIONARY
  5
4AE
330
8
100
AcDbDictionary
280
     1
281
     1
  3
ACAD_XREC_ROUNDTRIP
360
4AF
  0
DICTIONARY
  5
D
102
{ACAD_REACTORS
330
C
102
}
330
C
100
AcDbDictionary
281
     1
  0
DICTIONARY
  5
1A
102
{ACAD_REACTORS
330
C
102
}
330
C
100
AcDbDictionary
281
     1
  3
Layout1
350
1E
  3
Layout2
350
26
  3
Model
350
22
  0
DICTIONARY
  5
43
102
{ACAD_REACTORS
330
C
102
}
330
C
100
AcDbDictionary
281
     1
  3
ByBlock
350
45
  3
ByLayer
350
44
  3
Global
350
46
  0
DICTIONARY
  5
6B
102
{ACAD_REACTORS
330
C
102
}
330
C
100
AcDbDictionary
281
     1
  3
Standard
350
6C
  0
DICTIONARY
  5
17
102
{ACAD_REACTORS
330
C
102
}
330
C
100
AcDbDictionary
281
     1
  3
Standard
350
18
  0
DICTIONARY
  5
19
102
{ACAD_REACTORS
330
C
102
}
330
C
100
AcDbDictionary
281
     1
  0
ACDBDICTIONARYWDFLT
  5
E
102
{ACAD_REACTORS
330
C
102
}
330
C
100
AcDbDictionary
281
     1
  3
Normal
350
F
100
AcDbDictionaryWithDefault
340
F
  0
DICTIONARY
  5
47
102
{ACAD_REACTORS
330
C
102
}
330
C
100
AcDbDictionary
281
     1
  3
A0
350
48
  3
A1
350
49
  3
A2
350
4A
  3
A3
350
4B
  3
A4
350
4C
  3
A5
350
4D
  3
A6
350
4E
  3
A7
350
4F
  3
A8
350
50
  3
A9
350
51
  3
B0
350
52
  3
B1
350
53
  3
B2
350
54
  3
B3
350
55
  3
B4
350
56
  3
B5
350
57
  3
B6
350
58
  3
B7
350
59
  3
B8
350
5A
  3
B9
350
5B
  3
C0
350
5C
  3
C1
350
5D
  3
C2
350
5E
  3
C3
350
5F
  3
C4
350
60
  3
C5
350
61
  3
C6
350
62
  3
C7
350
63
  3
C8
350
64
  3
C9
350
65
  3
D0
350
66
  3
D1
350
67
  3
D2
350
68
  0
DICTIONARY
  5
69
102
{ACAD_REACTORS
330
C
102
}
330
C
100
AcDbDictionary
281
     1
  3
Standard
350
6A
  0
DICTIONARY
  5
2A
102
{ACAD_REACTORS
330
C
102
}
330
C
100
AcDbDictionary
281
     1
  3
2dWireframe
350
2F
  3
Basic
350
32
  3
Brighten
350
36
  3
ColorChange
350
3A
  3
Conceptual
350
34
  3
Dim
350
35
  3
EdgeColorOff
350
3D
  3
Facepattern
350
39
  3
Flat
350
2B
  3
FlatWithEdges
350
2C
  3
Gouraud
350
2D
  3
GouraudWithEdges
350
2E
  3
Hidden
350
31
  3
JitterOff
350
3B
  3
Linepattern
350
38
  3
OverhangOff
350
3C
  3
Realistic
350
33
  3
Shaded
350
42
  3
Shaded with edges
350
41
  3
Shades of Gray
350
3E
  3
Sketchy
350
3F
  3
Thicken
350
37
  3
Wireframe
350
30
  3
X-Ray
350
40
  0
DICTIONARY
  5
4A2
102
{ACAD_REACTORS
330
C
102
}
330
C
100
AcDbDictionary
281
     1
  3
CANNOSCALE
350
4B4
  3
CENTEREXE
350
4A9
  3
CENTERLTYPEFILE
350
4AA
  3
CMLEADERSTYLE
350
4A4
  3
CTABLESTYLE
350
4A3
  3
DIMASSOC
350
4AB
  3
HIDETEXT
350
4AC
  3
MSLTSCALE
350
4B5
  3
PSOLHEIGHT
350
4A6
  3
PSOLWIDTH
350
4A5
  0
XRECORD
  5
4AD
102
{ACAD_REACTORS
330
C
102
}
330
C
100
AcDbXrecord
280
     1
  1
DWGPROPS COOKIE
  2

  3

  4

  6

  7

  8
CADAM
  9

300
=
301
=
302
=
303
=
304
=
305
=
306
=
307
=
308
=
309
=
 40
0.0
 41
2459069.214182766
 42
2459069.214183125
  1

 90
        0
  0
XRECORD
  5
4AF
102
{ACAD_REACTORS
330
4AE
102
}
330
4AE
100
AcDbXrecord
280
     1
102
VTR_0.000_0.000_1.000_1.000_VISUALSTYLE
340
2F
102
VTR_0.000_0.000_1.000_1.000_GRIDDISPLAY
 70
     3
102
VTR_0.000_0.000_1.000_1.000_GRIDMAJOR
 70
     5
102
VTR_0.000_0.000_1.000_1.000_DEFAULTLIGHTING
280
     1
102
VTR_0.000_0.000_1.000_1.000_DEFAULTLIGHTINGTYPE
 70
     1
102
VTR_0.000_0.000_1.000_1.000_BRIGHTNESS
141
0.0
102
VTR_0.000_0.000_1.000_1.000_CONTRAST
142
0.0
  0
LAYOUT
  5
1E
102
{ACAD_REACTORS
330
1A
102
}
330
1A
100
AcDbPlotSettings
  1

  2
none_device
  4

  6

 40
0.0
 41
0.0
 42
0.0
 43
0.0
 44
0.0
 45
0.0
 46
0.0
 47
0.0
 48
0.0
 49
0.0
140
0.0
141
0.0
142
1.0
143
1.0
 70
   688
 72
     1
 73
     0
 74
     5
  7

 75
    16
147
1.0
148
0.0
149
0.0
100
AcDbLayout
  1
Layout1
 70
     1
 71
     1
 10
-346.9841424033295
 20
-243.4899585048832
 11
353.0158575966705
 21
186.5100414951168
 12
0.0
 22
0.0
 32
0.0
 14
1.000000000000000E+20
 24
1.000000000000000E+20
 34
1.000000000000000E+20
 15
-1.000000000000000E+20
 25
-1.000000000000000E+20
 35
-1.000000000000000E+20
146
0.0
 13
0.0
 23
0.0
 33
0.0
 16
1.0
 26
0.0
 36
0.0
 17
0.0
 27
1.0
 37
0.0
 76
     0
330
1B
  0
LAYOUT
  5
26
102
{ACAD_REACTORS
330
1A
102
}
330
1A
100
AcDbPlotSettings
  1

  2
none_device
  4

  6

 40
0.0
 41
0.0
 42
0.0
 43
0.0
 44
0.0
 45
0.0
 46
0.0
 47
0.0
 48
0.0
 49
0.0
140
0.0
141
0.0
142
1.0
143
1.0
 70
   688
 72
     1
 73
     0
 74
     5
  7

 75
    16
147
1.0
148
0.0
149
0.0
100
AcDbLayout
  1
Layout2
 70
     1
 71
     2
 10
0.0
 20
0.0
 11
0.0
 21
0.0
 12
0.0
 22
0.0
 32
0.0
 14
0.0
 24
0.0
 34
0.0
 15
0.0
 25
0.0
 35
0.0
146
0.0
 13
0.0
 23
0.0
 33
0.0
 16
1.0
 26
0.0
 36
0.0
 17
0.0
 27
1.0
 37
0.0
 76
     0
330
23
  0
LAYOUT
  5
22
102
{ACAD_REACTORS
330
1A
102
}
330
1A
100
AcDbPlotSettings
  1

  2
none_device
  4
Letter_(8.50_x_11.00_Inches)
  6

 40
6.35
 41
6.35
 42
6.35000508
 43
6.35000508
 44
215.9
 45
279.4
 46
0.0
 47
0.0
 48
0.0
 49
0.0
140
0.0
141
0.0
142
1.0
143
1.0
 70
  1712
 72
     1
 73
     0
 74
     0
  7

 75
     0
147
1.0
148
0.0
149
0.0
100
AcDbLayout
  1
Model
 70
     1
 71
     0
 10
-346.9841424033295
 20
-243.4899585048832
 11
353.0158575966705
 21
186.5100414951168
 12
0.0
 22
0.0
 32
0.0
 14
-346.9841424033295
 24
-243.4899585048832
 34
0.0
 15
353.0158575966705
 25
186.5100414951168
 35
0.0
146
0.0
 13
0.0
 23
0.0
 33
0.0
 16
1.0
 26
0.0
 36
0.0
 17
0.0
 27
1.0
 37
0.0
 76
     0
330
1F
331
29
  0
MATERIAL
  5
45
102
{ACAD_REACTORS
330
43
102
}
102
{ACAD_XDICTIONARY
360
4E8
102
}
330
43
100
AcDbMaterial
  1
ByBlock
  0
MATERIAL
  5
44
102
{ACAD_REACTORS
330
43
102
}
102
{ACAD_XDICTIONARY
360
4E6
102
}
330
43
100
AcDbMaterial
  1
ByLayer
  0
MATERIAL
  5
46
102
{ACAD_REACTORS
330
43
102
}
102
{ACAD_XDICTIONARY
360
4EA
102
}
330
43
100
AcDbMaterial
  1
Global
  0
MLEADERSTYLE
  5
6C
102
{ACAD_REACTORS
330
6B
102
}
102
{ACAD_XDICTIONARY
360
4ED
102
}
330
6B
100
AcDbMLeaderStyle
170
     2
171
     1
172
     0
 90
        2
 40
0.0
 41
0.0
173
     1
 91
-1056964608
340
14
 92
       -2
290
     1
 42
2.0
291
     1
 43
8.0
  3
Standard
341
0
 44
4.0
300

342
11
174
     1
178
     6
175
     1
176
     0
 93
-1056964608
 45
4.0
292
     0
297
     0
 46
4.0
343
0
 94
-1056964608
 47
1.0
 49
1.0
140
1.0
293
     1
141
0.0
294
     1
177
     0
142
1.0
295
     0
296
     0
143
3.75
1001
ACAD_MLEADERVER
1070
     2
  0
MLINESTYLE
  5
18
102
{ACAD_REACTORS
330
17
102
}
330
17
100
AcDbMlineStyle
  2
Standard
 70
     0
  3

 62
   256
 51
90.0
 52
90.0
 71
     2
 49
0.5
 62
   256
  6
BYLAYER
 49
-0.5
 62
   256
  6
BYLAYER
  0
ACDBPLACEHOLDER
  5
F
102
{ACAD_REACTORS
330
E
102
}
330
E
  0
SCALE
  5
48
102
{ACAD_REACTORS
330
47
102
}
330
47
100
AcDbScale
 70
     0
300
1:1
140
1.0
141
1.0
290
     1
  0
SCALE
  5
49
102
{ACAD_REACTORS
330
47
102
}
330
47
100
AcDbScale
 70
     0
300
1:2
140
1.0
141
2.0
290
     0
  0
SCALE
  5
4A
102
{ACAD_REACTORS
330
47
102
}
330
47
100
AcDbScale
 70
     0
300
1:4
140
1.0
141
4.0
290
     0
  0
SCALE
  5
4B
102
{ACAD_REACTORS
330
47
102
}
330
47
100
AcDbScale
 70
     0
300
1:5
140
1.0
141
5.0
290
     0
  0
SCALE
  5
4C
102
{ACAD_REACTORS
330
47
102
}
330
47
100
AcDbScale
 70
     0
300
1:8
140
1.0
141
8.0
290
     0
  0
SCALE
  5
4D
102
{ACAD_REACTORS
330
47
102
}
330
47
100
AcDbScale
 70
     0
300
1:10
140
1.0
141
10.0
290
     0
  0
SCALE
  5
4E
102
{ACAD_REACTORS
330
47
102
}
330
47
100
AcDbScale
 70
     0
300
1:16
140
1.0
141
16.0
290
     0
  0
SCALE
  5
4F
102
{ACAD_REACTORS
330
47
102
}
330
47
100
AcDbScale
 70
     0
300
1:20
140
1.0
141
20.0
290
     0
  0
SCALE
  5
50
102
{ACAD_REACTORS
330
47
102
}
330
47
100
AcDbScale
 70
     0
300
1:30
140
1.0
141
30.0
290
     0
  0
SCALE
  5
51
102
{ACAD_REACTORS
330
47
102
}
330
47
100
AcDbScale
 70
     0
300
1:40
140
1.0
141
40.0
290
     0
  0
SCALE
  5
52
102
{ACAD_REACTORS
330
47
102
}
330
47
100
AcDbScale
 70
     0
300
1:50
140
1.0
141
50.0
290
     0
  0
SCALE
  5
53
102
{ACAD_REACTORS
330
47
102
}
330
47
100
AcDbScale
 70
     0
300
1:100
140
1.0
141
100.0
290
     0
  0
SCALE
  5
54
102
{ACAD_REACTORS
330
47
102
}
330
47
100
AcDbScale
 70
     0
300
2:1
140
2.0
141
1.0
290
     0
  0
SCALE
  5
55
102
{ACAD_REACTORS
330
47
102
}
330
47
100
AcDbScale
 70
     0
300
4:1
140
4.0
141
1.0
290
     0
  0
SCALE
  5
56
102
{ACAD_REACTORS
330
47
102
}
330
47
100
AcDbScale
 70
     0
300
8:1
140
8.0
141
1.0
290
     0
  0
SCALE
  5
57
102
{ACAD_REACTORS
330
47
102
}
330
47
100
AcDbScale
 70
     0
300
10:1
140
10.0
141
1.0
290
     0
  0
SCALE
  5
58
102
{ACAD_REACTORS
330
47
102
}
330
47
100
AcDbScale
 70
     0
300
100:1
140
100.0
141
1.0
290
     0
  0
SCALE
  5
59
102
{ACAD_REACTORS
330
47
102
}
330
47
100
AcDbScale
 70
     0
300
1/128" = 1'-0"
140
0.0078125
141
12.0
290
     0
  0
SCALE
  5
5A
102
{ACAD_REACTORS
330
47
102
}
330
47
100
AcDbScale
 70
     0
300
1/64" = 1'-0"
140
0.015625
141
12.0
290
     0
  0
SCALE
  5
5B
102
{ACAD_REACTORS
330
47
102
}
330
47
100
AcDbScale
 70
     0
300
1/32" = 1'-0"
140
0.03125
141
12.0
290
     0
  0
SCALE
  5
5C
102
{ACAD_REACTORS
330
47
102
}
330
47
100
AcDbScale
 70
     0
300
1/16" = 1'-0"
140
0.0625
141
12.0
290
     0
  0
SCALE
  5
5D
102
{ACAD_REACTORS
330
47
102
}
330
47
100
AcDbScale
 70
     0
300
3/32" = 1'-0"
140
0.09375
141
12.0
290
     0
  0
SCALE
  5
5E
102
{ACAD_REACTORS
330
47
102
}
330
47
100
AcDbScale
 70
     0
300
1/8" = 1'-0"
140
0.125
141
12.0
290
     0
  0
SCALE
  5
5F
102
{ACAD_REACTORS
330
47
102
}
330
47
100
AcDbScale
 70
     0
300
3/16" = 1'-0"
140
0.1875
141
12.0
290
     0
  0
SCALE
  5
60
102
{ACAD_REACTORS
330
47
102
}
330
47
100
AcDbScale
 70
     0
300
1/4" = 1'-0"
140
0.25
141
12.0
290
     0
  0
SCALE
  5
61
102
{ACAD_REACTORS
330
47
102
}
330
47
100
AcDbScale
 70
     0
300
3/8" = 1'-0"
140
0.375
141
12.0
290
     0
  0
SCALE
  5
62
102
{ACAD_REACTORS
330
47
102
}
330
47
100
AcDbScale
 70
     0
300
1/2" = 1'-0"
140
0.5
141
12.0
290
     0
  0
SCALE
  5
63
102
{ACAD_REACTORS
330
47
102
}
330
47
100
AcDbScale
 70
     0
300
3/4" = 1'-0"
140
0.75
141
12.0
290
     0
  0
SCALE
  5
64
102
{ACAD_REACTORS
330
47
102
}
330
47
100
AcDbScale
 70
     0
300
1" = 1'-0"
140
1.0
141
12.0
290
     0
  0
SCALE
  5
65
102
{ACAD_REACTORS
330
47
102
}
330
47
100
AcDbScale
 70
     0
300
1-1/2" = 1'-0"
140
1.5
141
12.0
290
     0
  0
SCALE
  5
66
102
{ACAD_REACTORS
330
47
102
}
330
47
100
AcDbScale
 70
     0
300
3" = 1'-0"
140
3.0
141
12.0
290
     0
  0
SCALE
  5
67
102
{ACAD_REACTORS
330
47
102
}
330
47
100
AcDbScale
 70
     0
300
6" = 1'-0"
140
6.0
141
12.0
290
     0
  0
SCALE
  5
68
102
{ACAD_REACTORS
330
47
102
}
330
47
100
AcDbScale
 70
     0
300
1'-0" = 1'-0"
140
12.0
141
12.0
290
     0
  0
TABLESTYLE
  5
6A
102
{ACAD_REACTORS
330
69
102
}
330
69
100
AcDbTableStyle
  3
Standard
 70
     0
 71
     0
 40
1.5
 41
1.5
280
     0
281
     0
  7
Standard
140
4.5
170
     2
 62
     0
 63
   257
283
     0
274
    -2
284
     1
 64
     0
275
    -2
285
     1
 65
     0
276
    -2
286
     1
 66
     0
277
    -2
287
     1
 67
     0
278
    -2
288
     1
 68
     0
279
    -2
289
     1
 69
     0
  7
Standard
140
6.0
170
     5
 62
     0
 63
   257
283
     0
274
    -2
284
     1
 64
     0
275
    -2
285
     1
 65
     0
276
    -2
286
     1
 66
     0
277
    -2
287
     1
 67
     0
278
    -2
288
     1
 68
     0
279
    -2
289
     1
 69
     0
  7
Standard
140
4.5
170
     5
 62
     0
 63
   257
283
     0
274
    -2
284
     1
 64
     0
275
    -2
285
     1
 65
     0
276
    -2
286
     1
 66
     0
277
    -2
287
     1
 67
     0
278
    -2
288
     1
 68
     0
279
    -2
289
     1
 69
     0
  0
VISUALSTYLE
  5
2F
102
{ACAD_REACTORS
330
2A
102
}
102
{ACAD_XDICTIONARY
360
4BE
102
}
330
2A
100
AcDbVisualStyle
  2
2dWireframe
 70
     4
 71
     0
 72
     2
 73
     0
 90
        0
 40
0.6
 41
30.0
 62
     5
 63
     7
 74
     1
 91
        4
 64
     7
 65
   257
 75
     1
175
     1
 42
1.0
 92
        0
 66
   257
 43
1.0
 76
     1
 77
     6
 78
     2
 67
     7
 79
     5
170
     0
171
     0
290
     0
174
     0
 93
        1
 44
0.0
173
     0
291
     0
 45
0.0
1001
ACAD
1000
AcDbSavedByObjectVersion
1070
     0
  0
VISUALSTYLE
  5
32
102
{ACAD_REACTORS
330
2A
102
}
102
{ACAD_XDICTIONARY
360
4C4
102
}
330
2A
100
AcDbVisualStyle
  2
Basic
 70
     7
 71
     1
 72
     0
 73
     1
 90
        0
 40
0.6
 41
30.0
 62
     5
 63
     7
 74
     0
 91
        4
 64
     7
 65
   257
 75
     1
175
     1
 42
1.0
 92
        8
 66
     7
 43
1.0
 76
     1
 77
     6
 78
     2
 67
     7
 79
     5
170
     0
171
     0
290
     0
174
     0
 93
        1
 44
0.0
173
     0
291
     1
 45
0.0
1001
ACAD
1000
AcDbSavedByObjectVersion
1070
     0
  0
VISUALSTYLE
  5
36
102
{ACAD_REACTORS
330
2A
102
}
102
{ACAD_XDICTIONARY
360
4CC
102
}
330
2A
100
AcDbVisualStyle
  2
Brighten
 70
    12
 71
     2
 72
     2
 73
     0
 90
        0
 40
0.6
 41
30.0
 62
     5
 63
     7
 74
     1
 91
        4
 64
     7
 65
   257
 75
     1
175
     1
 42
1.0
 92
        8
 66
     7
 43
1.0
 76
     1
 77
     6
 78
     2
 67
     7
 79
     5
170
     0
171
     0
290
     0
174
     0
 93
        1
 44
50.0
173
     0
291
     1
 45
0.0
1001
ACAD
1000
AcDbSavedByObjectVersion
1070
     0
  0
VISUALSTYLE
  5
3A
102
{ACAD_REACTORS
330
2A
102
}
102
{ACAD_XDICTIONARY
360
4D4
102
}
330
2A
100
AcDbVisualStyle
  2
ColorChange
 70
    16
 71
     2
 72
     2
 73
     3
 90
        0
 40
0.6
 41
30.0
 62
     5
 63
     8
 74
     1
 91
        4
 64
     7
 65
   257
 75
     1
175
     1
 42
1.0
 92
        8
 66
     8
 43
1.0
 76
     1
 77
     6
 78
     2
 67
     7
 79
     5
170
     0
171
     0
290
     0
174
     0
 93
        1
 44
0.0
173
     0
291
     1
 45
0.0
1001
ACAD
1000
AcDbSavedByObjectVersion
1070
     0
  0
VISUALSTYLE
  5
34
102
{ACAD_REACTORS
330
2A
102
}
102
{ACAD_XDICTIONARY
360
4C8
102
}
330
2A
100
AcDbVisualStyle
  2
Conceptual
 70
     9
 71
     3
 72
     2
 73
     0
 90
        0
 40
0.6
 41
30.0
 62
     5
 63
     7
 74
     2
 91
        2
 64
     7
 65
   257
 75
     1
175
     1
 42
179.0
 92
        8
 66
     7
 43
1.0
 76
     1
 77
     6
 78
     2
 67
     7
 79
     3
170
     0
171
     0
290
     0
174
     0
 93
        1
 44
0.0
173
     0
291
     0
 45
0.0
1001
ACAD
1000
AcDbSavedByObjectVersion
1070
     0
  0
VISUALSTYLE
  5
35
102
{ACAD_REACTORS
330
2A
102
}
102
{ACAD_XDICTIONARY
360
4CA
102
}
330
2A
100
AcDbVisualStyle
  2
Dim
 70
    11
 71
     2
 72
     2
 73
     0
 90
        0
 40
0.6
 41
30.0
 62
     5
 63
     7
 74
     1
 91
        4
 64
     7
 65
   257
 75
     1
175
     1
 42
1.0
 92
        8
 66
     7
 43
1.0
 76
     1
 77
     6
 78
     2
 67
     7
 79
     5
170
     0
171
     0
290
     0
174
     0
 93
        1
 44
-50.0
173
     0
291
     1
 45
0.0
1001
ACAD
1000
AcDbSavedByObjectVersion
1070
     0
  0
VISUALSTYLE
  5
3D
102
{ACAD_REACTORS
330
2A
102
}
102
{ACAD_XDICTIONARY
360
4DA
102
}
330
2A
100
AcDbVisualStyle
  2
EdgeColorOff
 70
    22
 71
     2
 72
     2
 73
     0
 90
        0
 40
0.6
 41
30.0
 62
     5
 63
     7
 74
     1
 91
        4
 64
     7
 65
   257
 75
     1
175
     1
 42
1.0
 92
        8
 66
     7
 43
1.0
 76
     1
 77
     6
 78
     2
 67
     7
 79
     5
170
     0
171
     0
290
     0
174
     0
 93
        1
 44
0.0
173
     0
291
     1
 45
0.0
1001
ACAD
1000
AcDbSavedByObjectVersion
1070
     0
  0
VISUALSTYLE
  5
39
102
{ACAD_REACTORS
330
2A
102
}
102
{ACAD_XDICTIONARY
360
4D2
102
}
330
2A
100
AcDbVisualStyle
  2
Facepattern
 70
    15
 71
     2
 72
     2
 73
     0
 90
        0
 40
0.6
 41
30.0
 62
     5
 63
     7
 74
     1
 91
        4
 64
     7
 65
   257
 75
     1
175
     1
 42
1.0
 92
        8
 66
     7
 43
1.0
 76
     1
 77
     6
 78
     2
 67
     7
 79
     5
170
     0
171
     0
290
     0
174
     0
 93
        1
 44
0.0
173
     0
291
     1
 45
0.0
1001
ACAD
1000
AcDbSavedByObjectVersion
1070
     0
  0
VISUALSTYLE
  5
2B
102
{ACAD_REACTORS
330
2A
102
}
102
{ACAD_XDICTIONARY
360
4B6
102
}
330
2A
100
AcDbVisualStyle
  2
Flat
 70
     0
 71
     2
 72
     1
 73
     1
 90
        2
 40
0.6
 41
30.0
 62
     5
 63
     7
 74
     0
 91
        0
 64
     7
 65
   257
 75
     1
175
     1
 42
1.0
 92
        8
 66
     7
 43
1.0
 76
     1
 77
     6
 78
     2
 67
     7
 79
     5
170
     0
171
     0
290
     0
174
     0
 93
       13
 44
0.0
173
     0
291
     1
 45
0.0
1001
ACAD
1000
AcDbSavedByObjectVersion
1070
     0
  0
VISUALSTYLE
  5
2C
102
{ACAD_REACTORS
330
2A
102
}
102
{ACAD_XDICTIONARY
360
4B8
102
}
330
2A
100
AcDbVisualStyle
  2
FlatWithEdges
 70
     1
 71
     2
 72
     1
 73
     1
 90
        2
 40
0.6
 41
30.0
 62
     5
 63
     7
 74
     1
 91
        0
 64
     7
 65
   257
 75
     1
175
     1
 42
1.0
 92
        0
 66
   257
 43
1.0
 76
     1
 77
     6
 78
     2
 67
     7
 79
     5
170
     0
171
     0
290
     0
174
     0
 93
       13
 44
0.0
173
     0
291
     1
 45
0.0
1001
ACAD
1000
AcDbSavedByObjectVersion
1070
     0
  0
VISUALSTYLE
  5
2D
102
{ACAD_REACTORS
330
2A
102
}
102
{ACAD_XDICTIONARY
360
4BA
102
}
330
2A
100
AcDbVisualStyle
  2
Gouraud
 70
     2
 71
     2
 72
     2
 73
     1
 90
        2
 40
0.6
 41
30.0
 62
     5
 63
     7
 74
     0
 91
        0
 64
     7
 65
   257
 75
     1
175
     1
 42
1.0
 92
        0
 66
     7
 43
1.0
 76
     1
 77
     6
 78
     2
 67
     7
 79
     5
170
     0
171
     0
290
     0
174
     0
 93
       13
 44
0.0
173
     0
291
     1
 45
0.0
1001
ACAD
1000
AcDbSavedByObjectVersion
1070
     0
  0
VISUALSTYLE
  5
2E
102
{ACAD_REACTORS
330
2A
102
}
102
{ACAD_XDICTIONARY
360
4BC
102
}
330
2A
100
AcDbVisualStyle
  2
GouraudWithEdges
 70
     3
 71
     2
 72
     2
 73
     1
 90
        2
 40
0.6
 41
30.0
 62
     5
 63
     7
 74
     1
 91
        0
 64
     7
 65
   257
 75
     1
175
     1
 42
1.0
 92
        0
 66
   257
 43
1.0
 76
     1
 77
     6
 78
     2
 67
     7
 79
     5
170
     0
171
     0
290
     0
174
     0
 93
       13
 44
0.0
173
     0
291
     1
 45
0.0
1001
ACAD
1000
AcDbSavedByObjectVersion
1070
     0
  0
VISUALSTYLE
  5
31
102
{ACAD_REACTORS
330
2A
102
}
102
{ACAD_XDICTIONARY
360
4C2
102
}
330
2A
100
AcDbVisualStyle
  2
Hidden
 70
     6
 71
     1
 72
     2
 73
     2
 90
        0
 40
0.6
 41
30.0
 62
     5
 63
     7
 74
     2
 91
        2
 64
     7
 65
   257
 75
     2
175
     1
 42
40.0
 92
        0
 66
   257
 43
1.0
 76
     1
 77
     6
 78
     2
 67
     7
 79
     3
170
     0
171
     0
290
     0
174
     0
 93
        1
 44
0.0
173
     0
291
     0
 45
0.0
1001
ACAD
1000
AcDbSavedByObjectVersion
1070
     0
  0
VISUALSTYLE
  5
3B
102
{ACAD_REACTORS
330
2A
102
}
102
{ACAD_XDICTIONARY
360
4D6
102
}
330
2A
100
AcDbVisualStyle
  2
JitterOff
 70
    20
 71
     2
 72
     2
 73
     0
 90
        0
 40
0.6
 41
30.0
 62
     5
 63
     7
 74
     1
 91
        4
 64
     7
 65
   257
 75
     1
175
     1
 42
1.0
 92
       10
 66
     7
 43
1.0
 76
     1
 77
     6
 78
     2
 67
     7
 79
     5
170
     0
171
     0
290
     0
174
     0
 93
        1
 44
0.0
173
     0
291
     1
 45
0.0
1001
ACAD
1000
AcDbSavedByObjectVersion
1070
     0
  0
VISUALSTYLE
  5
38
102
{ACAD_REACTORS
330
2A
102
}
102
{ACAD_XDICTIONARY
360
4D0
102
}
330
2A
100
AcDbVisualStyle
  2
Linepattern
 70
    14
 71
     2
 72
     2
 73
     0
 90
        0
 40
0.6
 41
30.0
 62
     5
 63
     7
 74
     1
 91
        4
 64
     7
 65
   257
 75
     7
175
     7
 42
1.0
 92
        8
 66
     7
 43
1.0
 76
     1
 77
     6
 78
     2
 67
     7
 79
     5
170
     0
171
     0
290
     0
174
     0
 93
        1
 44
0.0
173
     0
291
     1
 45
0.0
1001
ACAD
1000
AcDbSavedByObjectVersion
1070
     0
  0
VISUALSTYLE
  5
3C
102
{ACAD_REACTORS
330
2A
102
}
102
{ACAD_XDICTIONARY
360
4D8
102
}
330
2A
100
AcDbVisualStyle
  2
OverhangOff
 70
    21
 71
     2
 72
     2
 73
     0
 90
        0
 40
0.6
 41
30.0
 62
     5
 63
     7
 74
     1
 91
        4
 64
     7
 65
   257
 75
     1
175
     1
 42
1.0
 92
        9
 66
     7
 43
1.0
 76
     1
 77
     6
 78
     2
 67
     7
 79
     5
170
     0
171
     0
290
     0
174
     0
 93
        1
 44
0.0
173
     0
291
     1
 45
0.0
1001
ACAD
1000
AcDbSavedByObjectVersion
1070
     0
  0
VISUALSTYLE
  5
33
102
{ACAD_REACTORS
330
2A
102
}
102
{ACAD_XDICTIONARY
360
4C6
102
}
330
2A
100
AcDbVisualStyle
  2
Realistic
 70
     8
 71
     2
 72
     3
 73
     0
 90
        2
 40
0.6
 41
30.0
 62
     5
 63
     7
 74
     0
 91
        0
 64
     7
 65
   257
 75
     1
175
     1
 42
1.0
 92
        8
 66
   257
 43
1.0
 76
     1
 77
     6
 78
     2
 67
     7
 79
     3
170
     0
171
     0
290
     0
174
     0
 93
       13
 44
0.0
173
     0
291
     0
 45
0.0
1001
ACAD
1000
AcDbSavedByObjectVersion
1070
     0
  0
VISUALSTYLE
  5
42
102
{ACAD_REACTORS
330
2A
102
}
102
{ACAD_XDICTIONARY
360
4E4
102
}
330
2A
100
AcDbVisualStyle
  2
Shaded
 70
    27
 71
     2
 72
     2
 73
     1
 90
        2
 40
0.6
 41
30.0
 62
     5
 63
     7
 74
     0
 91
        4
 64
     7
 65
   257
 75
     1
175
     1
 42
1.0
 92
        8
 66
   257
 43
1.0
 76
     1
 77
     6
 78
     2
 67
     8
 79
     3
170
     0
171
     0
290
     0
174
     0
 93
        5
 44
0.0
173
     0
291
     0
 45
0.0
1001
ACAD
1000
AcDbSavedByObjectVersion
1070
     0
  0
VISUALSTYLE
  5
41
102
{ACAD_REACTORS
330
2A
102
}
102
{ACAD_XDICTIONARY
360
4E2
102
}
330
2A
100
AcDbVisualStyle
  2
Shaded with edges
 70
    26
 71
     2
 72
     2
 73
     1
 90
        2
 40
0.6
 41
30.0
 62
     5
 63
     7
 74
     1
 91
       10
 64
     7
 65
   257
 75
     2
175
     1
 42
1.0
 92
        8
 66
   257
 43
1.0
 76
     1
 77
     6
 78
     2
 67
     7
 79
     3
170
     0
171
     0
290
     0
174
     0
 93
        5
 44
0.0
173
     0
291
     0
 45
0.0
1001
ACAD
1000
AcDbSavedByObjectVersion
1070
     0
  0
VISUALSTYLE
  5
3E
102
{ACAD_REACTORS
330
2A
102
}
102
{ACAD_XDICTIONARY
360
4DC
102
}
330
2A
100
AcDbVisualStyle
  2
Shades of Gray
 70
    23
 71
     2
 72
     2
 73
     3
 90
        0
 40
0.6
 41
30.0
 62
     5
 63
     7
 74
     2
 91
        2
 64
     7
 65
     7
 75
     1
175
     1
 42
40.0
 92
        8
 66
     7
 43
1.0
 76
     1
 77
     6
 78
     2
 67
     7
 79
     3
170
     0
171
     0
290
     0
174
     0
 93
        1
 44
0.0
173
     0
291
     0
 45
0.0
1001
ACAD
1000
AcDbSavedByObjectVersion
1070
     0
  0
VISUALSTYLE
  5
3F
102
{ACAD_REACTORS
330
2A
102
}
102
{ACAD_XDICTIONARY
360
4DE
102
}
330
2A
100
AcDbVisualStyle
  2
Sketchy
 70
    24
 71
     1
 72
     2
 73
     2
 90
        0
 40
0.6
 41
30.0
 62
     5
 63
     7
 74
     2
 91
        2
 64
     7
 65
     7
 75
     1
175
     1
 42
40.0
 92
       11
 66
     7
 43
1.0
 76
     1
 77
     6
 78
     2
 67
     7
 79
     6
170
     0
171
     0
290
     0
174
     0
 93
        1
 44
0.0
173
     0
291
     0
 45
0.0
1001
ACAD
1000
AcDbSavedByObjectVersion
1070
     0
  0
VISUALSTYLE
  5
37
102
{ACAD_REACTORS
330
2A
102
}
102
{ACAD_XDICTIONARY
360
4CE
102
}
330
2A
100
AcDbVisualStyle
  2
Thicken
 70
    13
 71
     2
 72
     2
 73
     0
 90
        0
 40
0.6
 41
30.0
 62
     5
 63
     7
 74
     1
 91
        4
 64
     7
 65
   257
 75
     1
175
     1
 42
1.0
 92
       12
 66
     7
 43
1.0
 76
     1
 77
     6
 78
     2
 67
     7
 79
     5
170
     0
171
     0
290
     0
174
     0
 93
        1
 44
0.0
173
     0
291
     1
 45
0.0
1001
ACAD
1000
AcDbSavedByObjectVersion
1070
     0
  0
VISUALSTYLE
  5
30
102
{ACAD_REACTORS
330
2A
102
}
102
{ACAD_XDICTIONARY
360
4C0
102
}
330
2A
100
AcDbVisualStyle
  2
Wireframe
 70
     5
 71
     0
 72
     2
 73
     0
 90
        0
 40
0.6
 41
30.0
 62
     5
 63
     7
 74
     1
 91
        4
 64
     7
 65
   257
 75
     1
175
     1
 42
1.0
 92
        0
 66
   257
 43
1.0
 76
     1
 77
     6
 78
     2
 67
     7
 79
     3
170
     0
171
     0
290
     0
174
     0
 93
        1
 44
0.0
173
     0
291
     0
 45
0.0
1001
ACAD
1000
AcDbSavedByObjectVersion
1070
     0
  0
VISUALSTYLE
  5
40
102
{ACAD_REACTORS
330
2A
102
}
102
{ACAD_XDICTIONARY
360
4E0
102
}
330
2A
100
AcDbVisualStyle
  2
X-Ray
 70
    25
 71
     2
 72
     2
 73
     1
 90
        1
 40
0.5
 41
30.0
 62
     5
 63
     7
 74
     1
 91
        0
 64
     7
 65
   257
 75
     1
175
     1
 42
1.0
 92
        8
 66
     7
 43
1.0
 76
     1
 77
     6
 78
     2
 67
     7
 79
     3
170
     0
171
     0
290
     0
174
     0
 93
       13
 44
0.0
173
     0
291
     0
 45
0.0
1001
ACAD
1000
AcDbSavedByObjectVersion
1070
     0
  0
DICTIONARYVAR
  5
4B4
102
{ACAD_REACTORS
330
4A2
102
}
330
4A2
100
DictionaryVariables
280
     0
  1
1:1
  0
DICTIONARYVAR
  5
4A9
102
{ACAD_REACTORS
330
4A2
102
}
330
4A2
100
DictionaryVariables
280
     0
  1
3.500000
  0
DICTIONARYVAR
  5
4AA
102
{ACAD_REACTORS
330
4A2
102
}
330
4A2
100
DictionaryVariables
280
     0
  1
acadiso.lin
  0
DICTIONARYVAR
  5
4A4
102
{ACAD_REACTORS
330
4A2
102
}
330
4A2
100
DictionaryVariables
280
     0
  1
Standard
  0
DICTIONARYVAR
  5
4A3
102
{ACAD_REACTORS
330
4A2
102
}
330
4A2
100
DictionaryVariables
280
     0
  1
Standard
  0
DICTIONARYVAR
  5
4AB
102
{ACAD_REACTORS
330
4A2
102
}
330
4A2
100
DictionaryVariables
280
     0
  1
2
  0
DICTIONARYVAR
  5
4AC
102
{ACAD_REACTORS
330
4A2
102
}
330
4A2
100
DictionaryVariables
280
     0
  1
1
  0
DICTIONARYVAR
  5
4B5
102
{ACAD_REACTORS
330
4A2
102
}
330
4A2
100
DictionaryVariables
280
     0
  1
1
  0
DICTIONARYVAR
  5
4A6
102
{ACAD_REACTORS
330
4A2
102
}
330
4A2
100
DictionaryVariables
280
     0
  1
80.000000
  0
DICTIONARYVAR
  5
4A5
102
{ACAD_REACTORS
330
4A2
102
}
330
4A2
100
DictionaryVariables
280
     0
  1
5.000000
  0
DICTIONARY
  5
4E8
330
45
100
AcDbDictionary
280
     1
281
     1
  3
ACAD_XREC_ROUNDTRIP
360
4E9
  0
DICTIONARY
  5
4E6
330
44
100
AcDbDictionary
280
     1
281
     1
  3
ACAD_XREC_ROUNDTRIP
360
4E7
  0
DICTIONARY
  5
4EA
330
46
100
AcDbDictionary
280
     1
281
     1
  3
ACAD_XREC_ROUNDTRIP
360
4EB
  0
DICTIONARY
  5
4ED
330
6C
100
AcDbDictionary
280
     1
281
     1
  3
ACAD_XREC_ROUNDTRIP
360
4EE
  0
DICTIONARY
  5
4BE
330
2F
100
AcDbDictionary
280
     1
281
     1
  3
ACAD_XREC_ROUNDTRIP
360
4BF
  0
DICTIONARY
  5
4C4
330
32
100
AcDbDictionary
280
     1
281
     1
  3
ACAD_XREC_ROUNDTRIP
360
4C5
  0
DICTIONARY
  5
4CC
330
36
100
AcDbDictionary
280
     1
281
     1
  3
ACAD_XREC_ROUNDTRIP
360
4CD
  0
DICTIONARY
  5
4D4
330
3A
100
AcDbDictionary
280
     1
281
     1
  3
ACAD_XREC_ROUNDTRIP
360
4D5
  0
DICTIONARY
  5
4C8
330
34
100
AcDbDictionary
280
     1
281
     1
  3
ACAD_XREC_ROUNDTRIP
360
4C9
  0
DICTIONARY
  5
4CA
330
35
100
AcDbDictionary
280
     1
281
     1
  3
ACAD_XREC_ROUNDTRIP
360
4CB
  0
DICTIONARY
  5
4DA
330
3D
100
AcDbDictionary
280
     1
281
     1
  3
ACAD_XREC_ROUNDTRIP
360
4DB
  0
DICTIONARY
  5
4D2
330
39
100
AcDbDictionary
280
     1
281
     1
  3
ACAD_XREC_ROUNDTRIP
360
4D3
  0
DICTIONARY
  5
4B6
330
2B
100
AcDbDictionary
280
     1
281
     1
  3
ACAD_XREC_ROUNDTRIP
360
4B7
  0
DICTIONARY
  5
4B8
330
2C
100
AcDbDictionary
280
     1
281
     1
  3
ACAD_XREC_ROUNDTRIP
360
4B9
  0
DICTIONARY
  5
4BA
330
2D
100
AcDbDictionary
280
     1
281
     1
  3
ACAD_XREC_ROUNDTRIP
360
4BB
  0
DICTIONARY
  5
4BC
330
2E
100
AcDbDictionary
280
     1
281
     1
  3
ACAD_XREC_ROUNDTRIP
360
4BD
  0
DICTIONARY
  5
4C2
330
31
100
AcDbDictionary
280
     1
281
     1
  3
ACAD_XREC_ROUNDTRIP
360
4C3
  0
DICTIONARY
  5
4D6
330
3B
100
AcDbDictionary
280
     1
281
     1
  3
ACAD_XREC_ROUNDTRIP
360
4D7
  0
DICTIONARY
  5
4D0
330
38
100
AcDbDictionary
280
     1
281
     1
  3
ACAD_XREC_ROUNDTRIP
360
4D1
  0
DICTIONARY
  5
4D8
330
3C
100
AcDbDictionary
280
     1
281
     1
  3
ACAD_XREC_ROUNDTRIP
360
4D9
  0
DICTIONARY
  5
4C6
330
33
100
AcDbDictionary
280
     1
281
     1
  3
ACAD_XREC_ROUNDTRIP
360
4C7
  0
DICTIONARY
  5
4E4
330
42
100
AcDbDictionary
280
     1
281
     1
  3
ACAD_XREC_ROUNDTRIP
360
4E5
  0
DICTIONARY
  5
4E2
330
41
100
AcDbDictionary
280
     1
281
     1
  3
ACAD_XREC_ROUNDTRIP
360
4E3
  0
DICTIONARY
  5
4DC
330
3E
100
AcDbDictionary
280
     1
281
     1
  3
ACAD_XREC_ROUNDTRIP
360
4DD
  0
DICTIONARY
  5
4DE
330
3F
100
AcDbDictionary
280
     1
281
     1
  3
ACAD_XREC_ROUNDTRIP
360
4DF
  0
DICTIONARY
  5
4CE
330
37
100
AcDbDictionary
280
     1
281
     1
  3
ACAD_XREC_ROUNDTRIP
360
4CF
  0
DICTIONARY
  5
4C0
330
30
100
AcDbDictionary
280
     1
281
     1
  3
ACAD_XREC_ROUNDTRIP
360
4C1
  0
DICTIONARY
  5
4E0
330
40
100
AcDbDictionary
280
     1
281
     1
  3
ACAD_XREC_ROUNDTRIP
360
4E1
  0
XRECORD
  5
4E9
102
{ACAD_REACTORS
330
4E8
102
}
330
4E8
100
AcDbXrecord
280
     1
102
MATERIAL
148
0.0
149
0.0
149
0.0
 93
        0
 94
      127
282
     0
 72
     1
 77
     1
171
     1
175
     1
179
     1
273
     0
  0
XRECORD
  5
4E7
102
{ACAD_REACTORS
330
4E6
102
}
330
4E6
100
AcDbXrecord
280
     1
102
MATERIAL
148
0.0
149
0.0
149
0.0
 93
        0
 94
      127
282
     0
 72
     1
 77
     1
171
     1
175
     1
179
     1
273
     0
  0
XRECORD
  5
4EB
102
{ACAD_REACTORS
330
4EA
102
}
330
4EA
100
AcDbXrecord
280
     1
102
MATERIAL
148
0.0
149
0.0
149
0.0
 93
        0
 94
      127
282
     0
 72
     1
 77
     1
171
     1
175
     1
179
     1
273
     0
  0
XRECORD
  5
4EE
102
{ACAD_REACTORS
330
4ED
102
}
330
4ED
100
AcDbXrecord
280
     1
102
ACAD_ROUNDTRIP_2010_MLEADER_STYLE
  0
XRECORD
  5
4BF
102
{ACAD_REACTORS
330
4BE
102
}
330
4BE
100
AcDbXrecord
280
     1
102
RTVSPropertyOp0
 70
     1
102
RTVSPropertyOp1
 70
     1
102
RTVSPropertyOp2
 70
     1
102
RTVSPropertyOp3
 70
     1
102
RTVSPropertyOp4
 70
     1
102
RTVSPropertyOp5
 70
     1
102
RTVSPropertyOp6
 70
     1
102
RTVSPropertyOp7
 70
     1
102
RTVSPropertyOp8
 70
     1
102
RTVSPropertyOp9
 70
     1
102
RTVSPropertyOp10
 70
     1
102
RTVSPropertyOp11
 70
     1
102
RTVSPropertyOp12
 70
     1
102
RTVSPropertyOp13
 70
     1
102
RTVSPropertyOp14
 70
     1
102
RTVSPropertyOp15
 70
     1
102
RTVSPropertyOp16
 70
     1
102
RTVSPropertyOp17
 70
     1
102
RTVSPropertyOp18
 70
     1
102
RTVSPropertyOp19
 70
     1
102
RTVSPropertyOp20
 70
     1
102
RTVSPropertyOp21
 70
     1
102
RTVSPropertyOp22
 70
     1
102
RTVSPropertyOp23
 70
     1
102
RTVSPropertyOp24
 70
     1
102
RTVSPropertyOp25
 70
     1
102
RTVSPropertyOp26
 70
     1
102
RTVSPropertyOp27
 70
     1
102
RTVSPropertyOp28
 70
     1
102
RTVSPropertyOp29
 70
     1
102
RTVSPropertyOp30
 70
     1
102
RTVSPropertyOp31
 70
     1
102
RTVSPropertyOp32
 70
     1
102
RTVSPropertyOp33
 70
     1
102
RTVSPropertyOp34
 70
     1
102
RTVSPropertyOp35
 70
     1
102
RTVSPropertyOp36
 70
     1
102
RTVSPropertyOp37
 70
     1
102
RTVSPropertyOp38
 70
     1
102
RTVSPropertyOp39
 70
     1
102
RTVSPropertyOp40
 70
     1
102
RTVSPropertyOp41
 70
     1
102
RTVSPropertyOp42
 70
     1
102
RTVSPropertyOp43
 70
     1
102
RTVSPropertyOp44
 70
     1
102
RTVSPropertyOp45
 70
     1
102
RTVSPropertyOp46
 70
     1
102
RTVSPropertyOp47
 70
     1
102
RTVSPropertyOp48
 70
     1
102
RTVSPropertyOp49
 70
     1
102
RTVSPropertyOp50
 70
     1
102
RTVSPropertyOp51
 70
     0
102
RTVSPropertyOp52
 70
     0
102
RTVSPropertyOp53
 70
     1
102
RTVSPropertyOp54
 70
     1
102
RTVSPropertyOp55
 70
     1
102
RTVSPropertyOp56
 70
     1
102
RTVSPropertyOp57
 70
     1
102
RTVSPost2010Prop28
280
     1
102
RTVSPost2010PropOp28
 70
     1
102
RTVSPost2010Prop29
280
     1
102
RTVSPost2010PropOp29
 70
     1
102
RTVSPost2010Prop30
280
     0
102
RTVSPost2010PropOp30
 70
     1
102
RTVSPost2010Prop31
280
     0
102
RTVSPost2010PropOp31
 70
     1
102
RTVSPost2010Prop32
280
     0
102
RTVSPost2010PropOp32
 70
     1
102
RTVSPost2010Prop33
280
     0
102
RTVSPost2010PropOp33
 70
     1
102
RTVSPost2010Prop34
280
     0
102
RTVSPost2010PropOp34
 70
     1
102
RTVSPost2010Prop35
280
     0
102
RTVSPost2010PropOp35
 70
     1
102
RTVSPost2010Prop36
280
     0
102
RTVSPost2010PropOp36
 70
     1
102
RTVSPost2010Prop37
 90
       50
102
RTVSPost2010PropOp37
 70
     1
102
RTVSPost2010Prop38
140
0.0
102
RTVSPost2010PropOp38
 70
     1
102
RTVSPost2010Prop39
140
1.0
102
RTVSPost2010PropOp39
 70
     1
102
RTVSPost2010Prop40
 90
        0
102
RTVSPost2010PropOp40
 70
     1
102
RTVSPost2010Prop41ColorIndex
 90
       18
102
RTVSPost2010Prop41ColorRGB
 90
        0
102
RTVSPost2010PropOp41
 70
     1
102
RTVSPost2010Prop42
 90
       50
102
RTVSPost2010PropOp42
 70
     1
102
RTVSPost2010Prop43
 90
        3
102
RTVSPost2010PropOp43
 70
     1
102
RTVSPost2010Prop44ColorIndex
 90
        5
102
RTVSPost2010Prop44ColorRGB
 90
      255
102
RTVSPost2010PropOp44
 70
     1
102
RTVSPost2010Prop45
280
     0
102
RTVSPost2010PropOp45
 70
     1
102
RTVSPost2010Prop46
 90
       50
102
RTVSPost2010PropOp46
 70
     1
102
RTVSPost2010Prop47
 90
       50
102
RTVSPost2010PropOp47
 70
     1
102
RTVSPost2010Prop48
 90
       50
102
RTVSPost2010PropOp48
 70
     1
102
RTVSPost2010Prop49
280
     0
102
RTVSPost2010PropOp49
 70
     1
102
RTVSPost2010Prop50
 90
       50
102
RTVSPost2010PropOp50
 70
     1
102
RTVSPost2010Prop51ColorIndex
 90
      256
102
RTVSPost2010Prop51ColorRGB
 90
-16777216
102
RTVSPost2010PropOp51
 70
     0
102
RTVSPost2010Prop52
140
1.0
102
RTVSPost2010PropOp52
 70
     0
102
RTVSPost2010Prop53
 90
        2
102
RTVSPost2010PropOp53
 70
     1
102
RTVSPost2010Prop54
  1
strokes_ogs.tif
102
RTVSPost2010PropOp54
 70
     1
102
RTVSPost2010Prop55
280
     0
102
RTVSPost2010PropOp55
 70
     1
102
RTVSPost2010Prop56
140
1.0
102
RTVSPost2010PropOp56
 70
     1
102
RTVSPost2010Prop57
140
1.0
102
RTVSPost2010PropOp57
 70
     1
  0
XRECORD
  5
4C5
102
{ACAD_REACTORS
330
4C4
102
}
330
4C4
100
AcDbXrecord
280
     1
102
RTVSPropertyOp0
 70
     1
102
RTVSPropertyOp1
 70
     1
102
RTVSPropertyOp2
 70
     1
102
RTVSPropertyOp3
 70
     1
102
RTVSPropertyOp4
 70
     1
102
RTVSPropertyOp5
 70
     1
102
RTVSPropertyOp6
 70
     1
102
RTVSPropertyOp7
 70
     1
102
RTVSPropertyOp8
 70
     1
102
RTVSPropertyOp9
 70
     1
102
RTVSPropertyOp10
 70
     1
102
RTVSPropertyOp11
 70
     1
102
RTVSPropertyOp12
 70
     1
102
RTVSPropertyOp13
 70
     1
102
RTVSPropertyOp14
 70
     1
102
RTVSPropertyOp15
 70
     1
102
RTVSPropertyOp16
 70
     1
102
RTVSPropertyOp17
 70
     1
102
RTVSPropertyOp18
 70
     1
102
RTVSPropertyOp19
 70
     1
102
RTVSPropertyOp20
 70
     1
102
RTVSPropertyOp21
 70
     1
102
RTVSPropertyOp22
 70
     1
102
RTVSPropertyOp23
 70
     1
102
RTVSPropertyOp24
 70
     1
102
RTVSPropertyOp25
 70
     1
102
RTVSPropertyOp26
 70
     1
102
RTVSPropertyOp27
 70
     1
102
RTVSPropertyOp28
 70
     1
102
RTVSPropertyOp29
 70
     1
102
RTVSPropertyOp30
 70
     1
102
RTVSPropertyOp31
 70
     1
102
RTVSPropertyOp32
 70
     1
102
RTVSPropertyOp33
 70
     1
102
RTVSPropertyOp34
 70
     1
102
RTVSPropertyOp35
 70
     1
102
RTVSPropertyOp36
 70
     1
102
RTVSPropertyOp37
 70
     1
102
RTVSPropertyOp38
 70
     1
102
RTVSPropertyOp39
 70
     1
102
RTVSPropertyOp40
 70
     1
102
RTVSPropertyOp41
 70
     1
102
RTVSPropertyOp42
 70
     1
102
RTVSPropertyOp43
 70
     1
102
RTVSPropertyOp44
 70
     1
102
RTVSPropertyOp45
 70
     1
102
RTVSPropertyOp46
 70
     1
102
RTVSPropertyOp47
 70
     1
102
RTVSPropertyOp48
 70
     1
102
RTVSPropertyOp49
 70
     1
102
RTVSPropertyOp50
 70
     1
102
RTVSPropertyOp51
 70
     0
102
RTVSPropertyOp52
 70
     0
102
RTVSPropertyOp53
 70
     1
102
RTVSPropertyOp54
 70
     1
102
RTVSPropertyOp55
 70
     1
102
RTVSPropertyOp56
 70
     1
102
RTVSPropertyOp57
 70
     1
102
RTVSPost2010Prop28
280
     0
102
RTVSPost2010PropOp28
 70
     1
102
RTVSPost2010Prop29
280
     1
102
RTVSPost2010PropOp29
 70
     1
102
RTVSPost2010Prop30
280
     1
102
RTVSPost2010PropOp30
 70
     1
102
RTVSPost2010Prop31
280
     0
102
RTVSPost2010PropOp31
 70
     1
102
RTVSPost2010Prop32
280
     0
102
RTVSPost2010PropOp32
 70
     1
102
RTVSPost2010Prop33
280
     0
102
RTVSPost2010PropOp33
 70
     1
102
RTVSPost2010Prop34
280
     0
102
RTVSPost2010PropOp34
 70
     1
102
RTVSPost2010Prop35
280
     0
102
RTVSPost2010PropOp35
 70
     1
102
RTVSPost2010Prop36
280
     0
102
RTVSPost2010PropOp36
 70
     1
102
RTVSPost2010Prop37
 90
       50
102
RTVSPost2010PropOp37
 70
     1
102
RTVSPost2010Prop38
140
0.0
102
RTVSPost2010PropOp38
 70
     1
102
RTVSPost2010Prop39
140
1.0
102
RTVSPost2010PropOp39
 70
     1
102
RTVSPost2010Prop40
 90
        0
102
RTVSPost2010PropOp40
 70
     1
102
RTVSPost2010Prop41ColorIndex
 90
       18
102
RTVSPost2010Prop41ColorRGB
 90
        0
102
RTVSPost2010PropOp41
 70
     1
102
RTVSPost2010Prop42
 90
       50
102
RTVSPost2010PropOp42
 70
     1
102
RTVSPost2010Prop43
 90
        3
102
RTVSPost2010PropOp43
 70
     1
102
RTVSPost2010Prop44ColorIndex
 90
        5
102
RTVSPost2010Prop44ColorRGB
 90
      255
102
RTVSPost2010PropOp44
 70
     1
102
RTVSPost2010Prop45
280
     0
102
RTVSPost2010PropOp45
 70
     1
102
RTVSPost2010Prop46
 90
       50
102
RTVSPost2010PropOp46
 70
     1
102
RTVSPost2010Prop47
 90
       50
102
RTVSPost2010PropOp47
 70
     1
102
RTVSPost2010Prop48
 90
       50
102
RTVSPost2010PropOp48
 70
     1
102
RTVSPost2010Prop49
280
     0
102
RTVSPost2010PropOp49
 70
     1
102
RTVSPost2010Prop50
 90
       50
102
RTVSPost2010PropOp50
 70
     1
102
RTVSPost2010Prop51ColorIndex
 90
      256
102
RTVSPost2010Prop51ColorRGB
 90
-16777216
102
RTVSPost2010PropOp51
 70
     0
102
RTVSPost2010Prop52
140
1.0
102
RTVSPost2010PropOp52
 70
     0
102
RTVSPost2010Prop53
 90
        2
102
RTVSPost2010PropOp53
 70
     1
102
RTVSPost2010Prop54
  1
strokes_ogs.tif
102
RTVSPost2010PropOp54
 70
     1
102
RTVSPost2010Prop55
280
     0
102
RTVSPost2010PropOp55
 70
     1
102
RTVSPost2010Prop56
140
1.0
102
RTVSPost2010PropOp56
 70
     1
102
RTVSPost2010Prop57
140
1.0
102
RTVSPost2010PropOp57
 70
     1
  0
XRECORD
  5
4CD
102
{ACAD_REACTORS
330
4CC
102
}
330
4CC
100
AcDbXrecord
280
     1
102
RTVSPropertyOp0
 70
     1
102
RTVSPropertyOp1
 70
     1
102
RTVSPropertyOp2
 70
     1
102
RTVSPropertyOp3
 70
     1
102
RTVSPropertyOp4
 70
     1
102
RTVSPropertyOp5
 70
     1
102
RTVSPropertyOp6
 70
     1
102
RTVSPropertyOp7
 70
     1
102
RTVSPropertyOp8
 70
     1
102
RTVSPropertyOp9
 70
     1
102
RTVSPropertyOp10
 70
     1
102
RTVSPropertyOp11
 70
     1
102
RTVSPropertyOp12
 70
     1
102
RTVSPropertyOp13
 70
     1
102
RTVSPropertyOp14
 70
     1
102
RTVSPropertyOp15
 70
     1
102
RTVSPropertyOp16
 70
     1
102
RTVSPropertyOp17
 70
     1
102
RTVSPropertyOp18
 70
     1
102
RTVSPropertyOp19
 70
     1
102
RTVSPropertyOp20
 70
     1
102
RTVSPropertyOp21
 70
     1
102
RTVSPropertyOp22
 70
     1
102
RTVSPropertyOp23
 70
     1
102
RTVSPropertyOp24
 70
     1
102
RTVSPropertyOp25
 70
     1
102
RTVSPropertyOp26
 70
     1
102
RTVSPropertyOp27
 70
     1
102
RTVSPropertyOp28
 70
     1
102
RTVSPropertyOp29
 70
     1
102
RTVSPropertyOp30
 70
     1
102
RTVSPropertyOp31
 70
     1
102
RTVSPropertyOp32
 70
     1
102
RTVSPropertyOp33
 70
     1
102
RTVSPropertyOp34
 70
     1
102
RTVSPropertyOp35
 70
     1
102
RTVSPropertyOp36
 70
     1
102
RTVSPropertyOp37
 70
     1
102
RTVSPropertyOp38
 70
     1
102
RTVSPropertyOp39
 70
     1
102
RTVSPropertyOp40
 70
     1
102
RTVSPropertyOp41
 70
     1
102
RTVSPropertyOp42
 70
     1
102
RTVSPropertyOp43
 70
     1
102
RTVSPropertyOp44
 70
     1
102
RTVSPropertyOp45
 70
     1
102
RTVSPropertyOp46
 70
     1
102
RTVSPropertyOp47
 70
     1
102
RTVSPropertyOp48
 70
     1
102
RTVSPropertyOp49
 70
     1
102
RTVSPropertyOp50
 70
     1
102
RTVSPropertyOp51
 70
     0
102
RTVSPropertyOp52
 70
     0
102
RTVSPropertyOp53
 70
     1
102
RTVSPropertyOp54
 70
     1
102
RTVSPropertyOp55
 70
     1
102
RTVSPropertyOp56
 70
     1
102
RTVSPropertyOp57
 70
     1
102
RTVSPost2010Prop28
280
     0
102
RTVSPost2010PropOp28
 70
     1
102
RTVSPost2010Prop29
280
     1
102
RTVSPost2010PropOp29
 70
     1
102
RTVSPost2010Prop30
280
     1
102
RTVSPost2010PropOp30
 70
     1
102
RTVSPost2010Prop31
280
     0
102
RTVSPost2010PropOp31
 70
     1
102
RTVSPost2010Prop32
280
     0
102
RTVSPost2010PropOp32
 70
     1
102
RTVSPost2010Prop33
280
     0
102
RTVSPost2010PropOp33
 70
     1
102
RTVSPost2010Prop34
280
     0
102
RTVSPost2010PropOp34
 70
     1
102
RTVSPost2010Prop35
280
     0
102
RTVSPost2010PropOp35
 70
     1
102
RTVSPost2010Prop36
280
     0
102
RTVSPost2010PropOp36
 70
     1
102
RTVSPost2010Prop37
 90
       50
102
RTVSPost2010PropOp37
 70
     1
102
RTVSPost2010Prop38
140
0.0
102
RTVSPost2010PropOp38
 70
     1
102
RTVSPost2010Prop39
140
1.0
102
RTVSPost2010PropOp39
 70
     1
102
RTVSPost2010Prop40
 90
        0
102
RTVSPost2010PropOp40
 70
     1
102
RTVSPost2010Prop41ColorIndex
 90
       18
102
RTVSPost2010Prop41ColorRGB
 90
        0
102
RTVSPost2010PropOp41
 70
     1
102
RTVSPost2010Prop42
 90
       50
102
RTVSPost2010PropOp42
 70
     1
102
RTVSPost2010Prop43
 90
        3
102
RTVSPost2010PropOp43
 70
     1
102
RTVSPost2010Prop44ColorIndex
 90
        5
102
RTVSPost2010Prop44ColorRGB
 90
      255
102
RTVSPost2010PropOp44
 70
     1
102
RTVSPost2010Prop45
280
     0
102
RTVSPost2010PropOp45
 70
     1
102
RTVSPost2010Prop46
 90
       50
102
RTVSPost2010PropOp46
 70
     1
102
RTVSPost2010Prop47
 90
       50
102
RTVSPost2010PropOp47
 70
     1
102
RTVSPost2010Prop48
 90
       50
102
RTVSPost2010PropOp48
 70
     1
102
RTVSPost2010Prop49
280
     0
102
RTVSPost2010PropOp49
 70
     1
102
RTVSPost2010Prop50
 90
       50
102
RTVSPost2010PropOp50
 70
     1
102
RTVSPost2010Prop51ColorIndex
 90
      256
102
RTVSPost2010Prop51ColorRGB
 90
-16777216
102
RTVSPost2010PropOp51
 70
     0
102
RTVSPost2010Prop52
140
1.0
102
RTVSPost2010PropOp52
 70
     0
102
RTVSPost2010Prop53
 90
        2
102
RTVSPost2010PropOp53
 70
     1
102
RTVSPost2010Prop54
  1
strokes_ogs.tif
102
RTVSPost2010PropOp54
 70
     1
102
RTVSPost2010Prop55
280
     0
102
RTVSPost2010PropOp55
 70
     1
102
RTVSPost2010Prop56
140
1.0
102
RTVSPost2010PropOp56
 70
     1
102
RTVSPost2010Prop57
140
1.0
102
RTVSPost2010PropOp57
 70
     1
  0
XRECORD
  5
4D5
102
{ACAD_REACTORS
330
4D4
102
}
330
4D4
100
AcDbXrecord
280
     1
102
RTVSPropertyOp0
 70
     1
102
RTVSPropertyOp1
 70
     1
102
RTVSPropertyOp2
 70
     1
102
RTVSPropertyOp3
 70
     1
102
RTVSPropertyOp4
 70
     1
102
RTVSPropertyOp5
 70
     1
102
RTVSPropertyOp6
 70
     1
102
RTVSPropertyOp7
 70
     1
102
RTVSPropertyOp8
 70
     1
102
RTVSPropertyOp9
 70
     1
102
RTVSPropertyOp10
 70
     1
102
RTVSPropertyOp11
 70
     1
102
RTVSPropertyOp12
 70
     1
102
RTVSPropertyOp13
 70
     1
102
RTVSPropertyOp14
 70
     1
102
RTVSPropertyOp15
 70
     1
102
RTVSPropertyOp16
 70
     1
102
RTVSPropertyOp17
 70
     1
102
RTVSPropertyOp18
 70
     1
102
RTVSPropertyOp19
 70
     1
102
RTVSPropertyOp20
 70
     1
102
RTVSPropertyOp21
 70
     1
102
RTVSPropertyOp22
 70
     1
102
RTVSPropertyOp23
 70
     1
102
RTVSPropertyOp24
 70
     1
102
RTVSPropertyOp25
 70
     1
102
RTVSPropertyOp26
 70
     1
102
RTVSPropertyOp27
 70
     1
102
RTVSPropertyOp28
 70
     1
102
RTVSPropertyOp29
 70
     1
102
RTVSPropertyOp30
 70
     1
102
RTVSPropertyOp31
 70
     1
102
RTVSPropertyOp32
 70
     1
102
RTVSPropertyOp33
 70
     1
102
RTVSPropertyOp34
 70
     1
102
RTVSPropertyOp35
 70
     1
102
RTVSPropertyOp36
 70
     1
102
RTVSPropertyOp37
 70
     1
102
RTVSPropertyOp38
 70
     1
102
RTVSPropertyOp39
 70
     1
102
RTVSPropertyOp40
 70
     1
102
RTVSPropertyOp41
 70
     1
102
RTVSPropertyOp42
 70
     1
102
RTVSPropertyOp43
 70
     1
102
RTVSPropertyOp44
 70
     1
102
RTVSPropertyOp45
 70
     1
102
RTVSPropertyOp46
 70
     1
102
RTVSPropertyOp47
 70
     1
102
RTVSPropertyOp48
 70
     1
102
RTVSPropertyOp49
 70
     1
102
RTVSPropertyOp50
 70
     1
102
RTVSPropertyOp51
 70
     0
102
RTVSPropertyOp52
 70
     0
102
RTVSPropertyOp53
 70
     1
102
RTVSPropertyOp54
 70
     1
102
RTVSPropertyOp55
 70
     1
102
RTVSPropertyOp56
 70
     1
102
RTVSPropertyOp57
 70
     1
102
RTVSPost2010Prop28
280
     0
102
RTVSPost2010PropOp28
 70
     1
102
RTVSPost2010Prop29
280
     1
102
RTVSPost2010PropOp29
 70
     1
102
RTVSPost2010Prop30
280
     1
102
RTVSPost2010PropOp30
 70
     1
102
RTVSPost2010Prop31
280
     0
102
RTVSPost2010PropOp31
 70
     1
102
RTVSPost2010Prop32
280
     0
102
RTVSPost2010PropOp32
 70
     1
102
RTVSPost2010Prop33
280
     0
102
RTVSPost2010PropOp33
 70
     1
102
RTVSPost2010Prop34
280
     0
102
RTVSPost2010PropOp34
 70
     1
102
RTVSPost2010Prop35
280
     0
102
RTVSPost2010PropOp35
 70
     1
102
RTVSPost2010Prop36
280
     0
102
RTVSPost2010PropOp36
 70
     1
102
RTVSPost2010Prop37
 90
       50
102
RTVSPost2010PropOp37
 70
     1
102
RTVSPost2010Prop38
140
0.0
102
RTVSPost2010PropOp38
 70
     1
102
RTVSPost2010Prop39
140
1.0
102
RTVSPost2010PropOp39
 70
     1
102
RTVSPost2010Prop40
 90
        0
102
RTVSPost2010PropOp40
 70
     1
102
RTVSPost2010Prop41ColorIndex
 90
       18
102
RTVSPost2010Prop41ColorRGB
 90
        0
102
RTVSPost2010PropOp41
 70
     1
102
RTVSPost2010Prop42
 90
       50
102
RTVSPost2010PropOp42
 70
     1
102
RTVSPost2010Prop43
 90
        3
102
RTVSPost2010PropOp43
 70
     1
102
RTVSPost2010Prop44ColorIndex
 90
        5
102
RTVSPost2010Prop44ColorRGB
 90
      255
102
RTVSPost2010PropOp44
 70
     1
102
RTVSPost2010Prop45
280
     0
102
RTVSPost2010PropOp45
 70
     1
102
RTVSPost2010Prop46
 90
       50
102
RTVSPost2010PropOp46
 70
     1
102
RTVSPost2010Prop47
 90
       50
102
RTVSPost2010PropOp47
 70
     1
102
RTVSPost2010Prop48
 90
       50
102
RTVSPost2010PropOp48
 70
     1
102
RTVSPost2010Prop49
280
     0
102
RTVSPost2010PropOp49
 70
     1
102
RTVSPost2010Prop50
 90
       50
102
RTVSPost2010PropOp50
 70
     1
102
RTVSPost2010Prop51ColorIndex
 90
      256
102
RTVSPost2010Prop51ColorRGB
 90
-16777216
102
RTVSPost2010PropOp51
 70
     0
102
RTVSPost2010Prop52
140
1.0
102
RTVSPost2010PropOp52
 70
     0
102
RTVSPost2010Prop53
 90
        2
102
RTVSPost2010PropOp53
 70
     1
102
RTVSPost2010Prop54
  1
strokes_ogs.tif
102
RTVSPost2010PropOp54
 70
     1
102
RTVSPost2010Prop55
280
     0
102
RTVSPost2010PropOp55
 70
     1
102
RTVSPost2010Prop56
140
1.0
102
RTVSPost2010PropOp56
 70
     1
102
RTVSPost2010Prop57
140
1.0
102
RTVSPost2010PropOp57
 70
     1
  0
XRECORD
  5
4C9
102
{ACAD_REACTORS
330
4C8
102
}
330
4C8
100
AcDbXrecord
280
     1
102
RTVSPropertyOp0
 70
     1
102
RTVSPropertyOp1
 70
     1
102
RTVSPropertyOp2
 70
     1
102
RTVSPropertyOp3
 70
     1
102
RTVSPropertyOp4
 70
     1
102
RTVSPropertyOp5
 70
     1
102
RTVSPropertyOp6
 70
     1
102
RTVSPropertyOp7
 70
     1
102
RTVSPropertyOp8
 70
     1
102
RTVSPropertyOp9
 70
     1
102
RTVSPropertyOp10
 70
     1
102
RTVSPropertyOp11
 70
     1
102
RTVSPropertyOp12
 70
     1
102
RTVSPropertyOp13
 70
     1
102
RTVSPropertyOp14
 70
     1
102
RTVSPropertyOp15
 70
     1
102
RTVSPropertyOp16
 70
     1
102
RTVSPropertyOp17
 70
     1
102
RTVSPropertyOp18
 70
     1
102
RTVSPropertyOp19
 70
     1
102
RTVSPropertyOp20
 70
     1
102
RTVSPropertyOp21
 70
     1
102
RTVSPropertyOp22
 70
     1
102
RTVSPropertyOp23
 70
     1
102
RTVSPropertyOp24
 70
     1
102
RTVSPropertyOp25
 70
     1
102
RTVSPropertyOp26
 70
     1
102
RTVSPropertyOp27
 70
     1
102
RTVSPropertyOp28
 70
     1
102
RTVSPropertyOp29
 70
     1
102
RTVSPropertyOp30
 70
     1
102
RTVSPropertyOp31
 70
     1
102
RTVSPropertyOp32
 70
     1
102
RTVSPropertyOp33
 70
     1
102
RTVSPropertyOp34
 70
     1
102
RTVSPropertyOp35
 70
     1
102
RTVSPropertyOp36
 70
     1
102
RTVSPropertyOp37
 70
     1
102
RTVSPropertyOp38
 70
     1
102
RTVSPropertyOp39
 70
     1
102
RTVSPropertyOp40
 70
     1
102
RTVSPropertyOp41
 70
     1
102
RTVSPropertyOp42
 70
     1
102
RTVSPropertyOp43
 70
     1
102
RTVSPropertyOp44
 70
     1
102
RTVSPropertyOp45
 70
     1
102
RTVSPropertyOp46
 70
     1
102
RTVSPropertyOp47
 70
     1
102
RTVSPropertyOp48
 70
     1
102
RTVSPropertyOp49
 70
     1
102
RTVSPropertyOp50
 70
     1
102
RTVSPropertyOp51
 70
     0
102
RTVSPropertyOp52
 70
     0
102
RTVSPropertyOp53
 70
     1
102
RTVSPropertyOp54
 70
     1
102
RTVSPropertyOp55
 70
     1
102
RTVSPropertyOp56
 70
     1
102
RTVSPropertyOp57
 70
     1
102
RTVSPost2010Prop28
280
     0
102
RTVSPost2010PropOp28
 70
     1
102
RTVSPost2010Prop29
280
     1
102
RTVSPost2010PropOp29
 70
     1
102
RTVSPost2010Prop30
280
     1
102
RTVSPost2010PropOp30
 70
     1
102
RTVSPost2010Prop31
280
     0
102
RTVSPost2010PropOp31
 70
     1
102
RTVSPost2010Prop32
280
     0
102
RTVSPost2010PropOp32
 70
     1
102
RTVSPost2010Prop33
280
     0
102
RTVSPost2010PropOp33
 70
     1
102
RTVSPost2010Prop34
280
     0
102
RTVSPost2010PropOp34
 70
     1
102
RTVSPost2010Prop35
280
     0
102
RTVSPost2010PropOp35
 70
     1
102
RTVSPost2010Prop36
280
     0
102
RTVSPost2010PropOp36
 70
     1
102
RTVSPost2010Prop37
 90
       50
102
RTVSPost2010PropOp37
 70
     1
102
RTVSPost2010Prop38
140
0.0
102
RTVSPost2010PropOp38
 70
     1
102
RTVSPost2010Prop39
140
1.0
102
RTVSPost2010PropOp39
 70
     1
102
RTVSPost2010Prop40
 90
        0
102
RTVSPost2010PropOp40
 70
     1
102
RTVSPost2010Prop41ColorIndex
 90
       18
102
RTVSPost2010Prop41ColorRGB
 90
        0
102
RTVSPost2010PropOp41
 70
     1
102
RTVSPost2010Prop42
 90
       50
102
RTVSPost2010PropOp42
 70
     1
102
RTVSPost2010Prop43
 90
        3
102
RTVSPost2010PropOp43
 70
     1
102
RTVSPost2010Prop44ColorIndex
 90
        5
102
RTVSPost2010Prop44ColorRGB
 90
      255
102
RTVSPost2010PropOp44
 70
     1
102
RTVSPost2010Prop45
280
     0
102
RTVSPost2010PropOp45
 70
     1
102
RTVSPost2010Prop46
 90
       50
102
RTVSPost2010PropOp46
 70
     1
102
RTVSPost2010Prop47
 90
       50
102
RTVSPost2010PropOp47
 70
     1
102
RTVSPost2010Prop48
 90
       50
102
RTVSPost2010PropOp48
 70
     1
102
RTVSPost2010Prop49
280
     0
102
RTVSPost2010PropOp49
 70
     1
102
RTVSPost2010Prop50
 90
       50
102
RTVSPost2010PropOp50
 70
     1
102
RTVSPost2010Prop51ColorIndex
 90
      256
102
RTVSPost2010Prop51ColorRGB
 90
-16777216
102
RTVSPost2010PropOp51
 70
     0
102
RTVSPost2010Prop52
140
1.0
102
RTVSPost2010PropOp52
 70
     0
102
RTVSPost2010Prop53
 90
        2
102
RTVSPost2010PropOp53
 70
     1
102
RTVSPost2010Prop54
  1
strokes_ogs.tif
102
RTVSPost2010PropOp54
 70
     1
102
RTVSPost2010Prop55
280
     0
102
RTVSPost2010PropOp55
 70
     1
102
RTVSPost2010Prop56
140
1.0
102
RTVSPost2010PropOp56
 70
     1
102
RTVSPost2010Prop57
140
1.0
102
RTVSPost2010PropOp57
 70
     1
  0
XRECORD
  5
4CB
102
{ACAD_REACTORS
330
4CA
102
}
330
4CA
100
AcDbXrecord
280
     1
102
RTVSPropertyOp0
 70
     1
102
RTVSPropertyOp1
 70
     1
102
RTVSPropertyOp2
 70
     1
102
RTVSPropertyOp3
 70
     1
102
RTVSPropertyOp4
 70
     1
102
RTVSPropertyOp5
 70
     1
102
RTVSPropertyOp6
 70
     1
102
RTVSPropertyOp7
 70
     1
102
RTVSPropertyOp8
 70
     1
102
RTVSPropertyOp9
 70
     1
102
RTVSPropertyOp10
 70
     1
102
RTVSPropertyOp11
 70
     1
102
RTVSPropertyOp12
 70
     1
102
RTVSPropertyOp13
 70
     1
102
RTVSPropertyOp14
 70
     1
102
RTVSPropertyOp15
 70
     1
102
RTVSPropertyOp16
 70
     1
102
RTVSPropertyOp17
 70
     1
102
RTVSPropertyOp18
 70
     1
102
RTVSPropertyOp19
 70
     1
102
RTVSPropertyOp20
 70
     1
102
RTVSPropertyOp21
 70
     1
102
RTVSPropertyOp22
 70
     1
102
RTVSPropertyOp23
 70
     1
102
RTVSPropertyOp24
 70
     1
102
RTVSPropertyOp25
 70
     1
102
RTVSPropertyOp26
 70
     1
102
RTVSPropertyOp27
 70
     1
102
RTVSPropertyOp28
 70
     1
102
RTVSPropertyOp29
 70
     1
102
RTVSPropertyOp30
 70
     1
102
RTVSPropertyOp31
 70
     1
102
RTVSPropertyOp32
 70
     1
102
RTVSPropertyOp33
 70
     1
102
RTVSPropertyOp34
 70
     1
102
RTVSPropertyOp35
 70
     1
102
RTVSPropertyOp36
 70
     1
102
RTVSPropertyOp37
 70
     1
102
RTVSPropertyOp38
 70
     1
102
RTVSPropertyOp39
 70
     1
102
RTVSPropertyOp40
 70
     1
102
RTVSPropertyOp41
 70
     1
102
RTVSPropertyOp42
 70
     1
102
RTVSPropertyOp43
 70
     1
102
RTVSPropertyOp44
 70
     1
102
RTVSPropertyOp45
 70
     1
102
RTVSPropertyOp46
 70
     1
102
RTVSPropertyOp47
 70
     1
102
RTVSPropertyOp48
 70
     1
102
RTVSPropertyOp49
 70
     1
102
RTVSPropertyOp50
 70
     1
102
RTVSPropertyOp51
 70
     0
102
RTVSPropertyOp52
 70
     0
102
RTVSPropertyOp53
 70
     1
102
RTVSPropertyOp54
 70
     1
102
RTVSPropertyOp55
 70
     1
102
RTVSPropertyOp56
 70
     1
102
RTVSPropertyOp57
 70
     1
102
RTVSPost2010Prop28
280
     0
102
RTVSPost2010PropOp28
 70
     1
102
RTVSPost2010Prop29
280
     1
102
RTVSPost2010PropOp29
 70
     1
102
RTVSPost2010Prop30
280
     1
102
RTVSPost2010PropOp30
 70
     1
102
RTVSPost2010Prop31
280
     0
102
RTVSPost2010PropOp31
 70
     1
102
RTVSPost2010Prop32
280
     0
102
RTVSPost2010PropOp32
 70
     1
102
RTVSPost2010Prop33
280
     0
102
RTVSPost2010PropOp33
 70
     1
102
RTVSPost2010Prop34
280
     0
102
RTVSPost2010PropOp34
 70
     1
102
RTVSPost2010Prop35
280
     0
102
RTVSPost2010PropOp35
 70
     1
102
RTVSPost2010Prop36
280
     0
102
RTVSPost2010PropOp36
 70
     1
102
RTVSPost2010Prop37
 90
       50
102
RTVSPost2010PropOp37
 70
     1
102
RTVSPost2010Prop38
140
0.0
102
RTVSPost2010PropOp38
 70
     1
102
RTVSPost2010Prop39
140
1.0
102
RTVSPost2010PropOp39
 70
     1
102
RTVSPost2010Prop40
 90
        0
102
RTVSPost2010PropOp40
 70
     1
102
RTVSPost2010Prop41ColorIndex
 90
       18
102
RTVSPost2010Prop41ColorRGB
 90
        0
102
RTVSPost2010PropOp41
 70
     1
102
RTVSPost2010Prop42
 90
       50
102
RTVSPost2010PropOp42
 70
     1
102
RTVSPost2010Prop43
 90
        3
102
RTVSPost2010PropOp43
 70
     1
102
RTVSPost2010Prop44ColorIndex
 90
        5
102
RTVSPost2010Prop44ColorRGB
 90
      255
102
RTVSPost2010PropOp44
 70
     1
102
RTVSPost2010Prop45
280
     0
102
RTVSPost2010PropOp45
 70
     1
102
RTVSPost2010Prop46
 90
       50
102
RTVSPost2010PropOp46
 70
     1
102
RTVSPost2010Prop47
 90
       50
102
RTVSPost2010PropOp47
 70
     1
102
RTVSPost2010Prop48
 90
       50
102
RTVSPost2010PropOp48
 70
     1
102
RTVSPost2010Prop49
280
     0
102
RTVSPost2010PropOp49
 70
     1
102
RTVSPost2010Prop50
 90
       50
102
RTVSPost2010PropOp50
 70
     1
102
RTVSPost2010Prop51ColorIndex
 90
      256
102
RTVSPost2010Prop51ColorRGB
 90
-16777216
102
RTVSPost2010PropOp51
 70
     0
102
RTVSPost2010Prop52
140
1.0
102
RTVSPost2010PropOp52
 70
     0
102
RTVSPost2010Prop53
 90
        2
102
RTVSPost2010PropOp53
 70
     1
102
RTVSPost2010Prop54
  1
strokes_ogs.tif
102
RTVSPost2010PropOp54
 70
     1
102
RTVSPost2010Prop55
280
     0
102
RTVSPost2010PropOp55
 70
     1
102
RTVSPost2010Prop56
140
1.0
102
RTVSPost2010PropOp56
 70
     1
102
RTVSPost2010Prop57
140
1.0
102
RTVSPost2010PropOp57
 70
     1
  0
XRECORD
  5
4DB
102
{ACAD_REACTORS
330
4DA
102
}
330
4DA
100
AcDbXrecord
280
     1
102
RTVSPropertyOp0
 70
     0
102
RTVSPropertyOp1
 70
     0
102
RTVSPropertyOp2
 70
     0
102
RTVSPropertyOp3
 70
     0
102
RTVSPropertyOp4
 70
     0
102
RTVSPropertyOp5
 70
     0
102
RTVSPropertyOp6
 70
     0
102
RTVSPropertyOp7
 70
     0
102
RTVSPropertyOp8
 70
     0
102
RTVSPropertyOp9
 70
     0
102
RTVSPropertyOp10
 70
     0
102
RTVSPropertyOp11
 70
     0
102
RTVSPropertyOp12
 70
     0
102
RTVSPropertyOp13
 70
     0
102
RTVSPropertyOp14
 70
     2
102
RTVSPropertyOp15
 70
     0
102
RTVSPropertyOp16
 70
     0
102
RTVSPropertyOp17
 70
     0
102
RTVSPropertyOp18
 70
     0
102
RTVSPropertyOp19
 70
     0
102
RTVSPropertyOp20
 70
     0
102
RTVSPropertyOp21
 70
     0
102
RTVSPropertyOp22
 70
     0
102
RTVSPropertyOp23
 70
     0
102
RTVSPropertyOp24
 70
     0
102
RTVSPropertyOp25
 70
     0
102
RTVSPropertyOp26
 70
     0
102
RTVSPropertyOp27
 70
     0
102
RTVSPropertyOp28
 70
     0
102
RTVSPropertyOp29
 70
     0
102
RTVSPropertyOp30
 70
     0
102
RTVSPropertyOp31
 70
     0
102
RTVSPropertyOp32
 70
     0
102
RTVSPropertyOp33
 70
     0
102
RTVSPropertyOp34
 70
     0
102
RTVSPropertyOp35
 70
     0
102
RTVSPropertyOp36
 70
     0
102
RTVSPropertyOp37
 70
     0
102
RTVSPropertyOp38
 70
     0
102
RTVSPropertyOp39
 70
     0
102
RTVSPropertyOp40
 70
     0
102
RTVSPropertyOp41
 70
     0
102
RTVSPropertyOp42
 70
     0
102
RTVSPropertyOp43
 70
     0
102
RTVSPropertyOp44
 70
     0
102
RTVSPropertyOp45
 70
     0
102
RTVSPropertyOp46
 70
     0
102
RTVSPropertyOp47
 70
     0
102
RTVSPropertyOp48
 70
     0
102
RTVSPropertyOp49
 70
     0
102
RTVSPropertyOp50
 70
     0
102
RTVSPropertyOp51
 70
     0
102
RTVSPropertyOp52
 70
     0
102
RTVSPropertyOp53
 70
     0
102
RTVSPropertyOp54
 70
     0
102
RTVSPropertyOp55
 70
     0
102
RTVSPropertyOp56
 70
     0
102
RTVSPropertyOp57
 70
     0
102
RTVSPost2010Prop28
280
     0
102
RTVSPost2010PropOp28
 70
     0
102
RTVSPost2010Prop29
280
     1
102
RTVSPost2010PropOp29
 70
     0
102
RTVSPost2010Prop30
280
     1
102
RTVSPost2010PropOp30
 70
     0
102
RTVSPost2010Prop31
280
     0
102
RTVSPost2010PropOp31
 70
     0
102
RTVSPost2010Prop32
280
     0
102
RTVSPost2010PropOp32
 70
     0
102
RTVSPost2010Prop33
280
     0
102
RTVSPost2010PropOp33
 70
     0
102
RTVSPost2010Prop34
280
     0
102
RTVSPost2010PropOp34
 70
     0
102
RTVSPost2010Prop35
280
     0
102
RTVSPost2010PropOp35
 70
     0
102
RTVSPost2010Prop36
280
     0
102
RTVSPost2010PropOp36
 70
     0
102
RTVSPost2010Prop37
 90
       50
102
RTVSPost2010PropOp37
 70
     0
102
RTVSPost2010Prop38
140
0.0
102
RTVSPost2010PropOp38
 70
     0
102
RTVSPost2010Prop39
140
1.0
102
RTVSPost2010PropOp39
 70
     0
102
RTVSPost2010Prop40
 90
        0
102
RTVSPost2010PropOp40
 70
     0
102
RTVSPost2010Prop41ColorIndex
 90
       18
102
RTVSPost2010Prop41ColorRGB
 90
        0
102
RTVSPost2010PropOp41
 70
     0
102
RTVSPost2010Prop42
 90
       50
102
RTVSPost2010PropOp42
 70
     0
102
RTVSPost2010Prop43
 90
        3
102
RTVSPost2010PropOp43
 70
     0
102
RTVSPost2010Prop44ColorIndex
 90
        5
102
RTVSPost2010Prop44ColorRGB
 90
      255
102
RTVSPost2010PropOp44
 70
     0
102
RTVSPost2010Prop45
280
     0
102
RTVSPost2010PropOp45
 70
     0
102
RTVSPost2010Prop46
 90
       50
102
RTVSPost2010PropOp46
 70
     0
102
RTVSPost2010Prop47
 90
       50
102
RTVSPost2010PropOp47
 70
     0
102
RTVSPost2010Prop48
 90
       50
102
RTVSPost2010PropOp48
 70
     0
102
RTVSPost2010Prop49
280
     0
102
RTVSPost2010PropOp49
 70
     0
102
RTVSPost2010Prop50
 90
       50
102
RTVSPost2010PropOp50
 70
     0
102
RTVSPost2010Prop51ColorIndex
 90
      256
102
RTVSPost2010Prop51ColorRGB
 90
-16777216
102
RTVSPost2010PropOp51
 70
     0
102
RTVSPost2010Prop52
140
1.0
102
RTVSPost2010PropOp52
 70
     0
102
RTVSPost2010Prop53
 90
        2
102
RTVSPost2010PropOp53
 70
     0
102
RTVSPost2010Prop54
  1
strokes_ogs.tif
102
RTVSPost2010PropOp54
 70
     0
102
RTVSPost2010Prop55
280
     0
102
RTVSPost2010PropOp55
 70
     0
102
RTVSPost2010Prop56
140
1.0
102
RTVSPost2010PropOp56
 70
     0
102
RTVSPost2010Prop57
140
1.0
102
RTVSPost2010PropOp57
 70
     0
  0
XRECORD
  5
4D3
102
{ACAD_REACTORS
330
4D2
102
}
330
4D2
100
AcDbXrecord
280
     1
102
RTVSPropertyOp0
 70
     1
102
RTVSPropertyOp1
 70
     1
102
RTVSPropertyOp2
 70
     1
102
RTVSPropertyOp3
 70
     1
102
RTVSPropertyOp4
 70
     1
102
RTVSPropertyOp5
 70
     1
102
RTVSPropertyOp6
 70
     1
102
RTVSPropertyOp7
 70
     1
102
RTVSPropertyOp8
 70
     1
102
RTVSPropertyOp9
 70
     1
102
RTVSPropertyOp10
 70
     1
102
RTVSPropertyOp11
 70
     1
102
RTVSPropertyOp12
 70
     1
102
RTVSPropertyOp13
 70
     1
102
RTVSPropertyOp14
 70
     1
102
RTVSPropertyOp15
 70
     1
102
RTVSPropertyOp16
 70
     1
102
RTVSPropertyOp17
 70
     1
102
RTVSPropertyOp18
 70
     1
102
RTVSPropertyOp19
 70
     1
102
RTVSPropertyOp20
 70
     1
102
RTVSPropertyOp21
 70
     1
102
RTVSPropertyOp22
 70
     1
102
RTVSPropertyOp23
 70
     1
102
RTVSPropertyOp24
 70
     1
102
RTVSPropertyOp25
 70
     1
102
RTVSPropertyOp26
 70
     1
102
RTVSPropertyOp27
 70
     1
102
RTVSPropertyOp28
 70
     1
102
RTVSPropertyOp29
 70
     1
102
RTVSPropertyOp30
 70
     1
102
RTVSPropertyOp31
 70
     1
102
RTVSPropertyOp32
 70
     1
102
RTVSPropertyOp33
 70
     1
102
RTVSPropertyOp34
 70
     1
102
RTVSPropertyOp35
 70
     1
102
RTVSPropertyOp36
 70
     1
102
RTVSPropertyOp37
 70
     1
102
RTVSPropertyOp38
 70
     1
102
RTVSPropertyOp39
 70
     1
102
RTVSPropertyOp40
 70
     1
102
RTVSPropertyOp41
 70
     1
102
RTVSPropertyOp42
 70
     1
102
RTVSPropertyOp43
 70
     1
102
RTVSPropertyOp44
 70
     1
102
RTVSPropertyOp45
 70
     1
102
RTVSPropertyOp46
 70
     1
102
RTVSPropertyOp47
 70
     1
102
RTVSPropertyOp48
 70
     1
102
RTVSPropertyOp49
 70
     1
102
RTVSPropertyOp50
 70
     1
102
RTVSPropertyOp51
 70
     0
102
RTVSPropertyOp52
 70
     0
102
RTVSPropertyOp53
 70
     1
102
RTVSPropertyOp54
 70
     1
102
RTVSPropertyOp55
 70
     1
102
RTVSPropertyOp56
 70
     1
102
RTVSPropertyOp57
 70
     1
102
RTVSPost2010Prop28
280
     0
102
RTVSPost2010PropOp28
 70
     1
102
RTVSPost2010Prop29
280
     1
102
RTVSPost2010PropOp29
 70
     1
102
RTVSPost2010Prop30
280
     1
102
RTVSPost2010PropOp30
 70
     1
102
RTVSPost2010Prop31
280
     0
102
RTVSPost2010PropOp31
 70
     1
102
RTVSPost2010Prop32
280
     0
102
RTVSPost2010PropOp32
 70
     1
102
RTVSPost2010Prop33
280
     0
102
RTVSPost2010PropOp33
 70
     1
102
RTVSPost2010Prop34
280
     0
102
RTVSPost2010PropOp34
 70
     1
102
RTVSPost2010Prop35
280
     0
102
RTVSPost2010PropOp35
 70
     1
102
RTVSPost2010Prop36
280
     0
102
RTVSPost2010PropOp36
 70
     1
102
RTVSPost2010Prop37
 90
       50
102
RTVSPost2010PropOp37
 70
     1
102
RTVSPost2010Prop38
140
0.0
102
RTVSPost2010PropOp38
 70
     1
102
RTVSPost2010Prop39
140
1.0
102
RTVSPost2010PropOp39
 70
     1
102
RTVSPost2010Prop40
 90
        0
102
RTVSPost2010PropOp40
 70
     1
102
RTVSPost2010Prop41ColorIndex
 90
       18
102
RTVSPost2010Prop41ColorRGB
 90
        0
102
RTVSPost2010PropOp41
 70
     1
102
RTVSPost2010Prop42
 90
       50
102
RTVSPost2010PropOp42
 70
     1
102
RTVSPost2010Prop43
 90
        3
102
RTVSPost2010PropOp43
 70
     1
102
RTVSPost2010Prop44ColorIndex
 90
        5
102
RTVSPost2010Prop44ColorRGB
 90
      255
102
RTVSPost2010PropOp44
 70
     1
102
RTVSPost2010Prop45
280
     0
102
RTVSPost2010PropOp45
 70
     1
102
RTVSPost2010Prop46
 90
       50
102
RTVSPost2010PropOp46
 70
     1
102
RTVSPost2010Prop47
 90
       50
102
RTVSPost2010PropOp47
 70
     1
102
RTVSPost2010Prop48
 90
       50
102
RTVSPost2010PropOp48
 70
     1
102
RTVSPost2010Prop49
280
     0
102
RTVSPost2010PropOp49
 70
     1
102
RTVSPost2010Prop50
 90
       50
102
RTVSPost2010PropOp50
 70
     1
102
RTVSPost2010Prop51ColorIndex
 90
      256
102
RTVSPost2010Prop51ColorRGB
 90
-16777216
102
RTVSPost2010PropOp51
 70
     0
102
RTVSPost2010Prop52
140
1.0
102
RTVSPost2010PropOp52
 70
     0
102
RTVSPost2010Prop53
 90
        2
102
RTVSPost2010PropOp53
 70
     1
102
RTVSPost2010Prop54
  1
strokes_ogs.tif
102
RTVSPost2010PropOp54
 70
     1
102
RTVSPost2010Prop55
280
     0
102
RTVSPost2010PropOp55
 70
     1
102
RTVSPost2010Prop56
140
1.0
102
RTVSPost2010PropOp56
 70
     1
102
RTVSPost2010Prop57
140
1.0
102
RTVSPost2010PropOp57
 70
     1
  0
XRECORD
  5
4B7
102
{ACAD_REACTORS
330
4B6
102
}
330
4B6
100
AcDbXrecord
280
     1
102
RTVSPropertyOp0
 70
     1
102
RTVSPropertyOp1
 70
     1
102
RTVSPropertyOp2
 70
     1
102
RTVSPropertyOp3
 70
     1
102
RTVSPropertyOp4
 70
     1
102
RTVSPropertyOp5
 70
     1
102
RTVSPropertyOp6
 70
     1
102
RTVSPropertyOp7
 70
     1
102
RTVSPropertyOp8
 70
     1
102
RTVSPropertyOp9
 70
     1
102
RTVSPropertyOp10
 70
     1
102
RTVSPropertyOp11
 70
     1
102
RTVSPropertyOp12
 70
     1
102
RTVSPropertyOp13
 70
     1
102
RTVSPropertyOp14
 70
     1
102
RTVSPropertyOp15
 70
     1
102
RTVSPropertyOp16
 70
     1
102
RTVSPropertyOp17
 70
     1
102
RTVSPropertyOp18
 70
     1
102
RTVSPropertyOp19
 70
     1
102
RTVSPropertyOp20
 70
     1
102
RTVSPropertyOp21
 70
     1
102
RTVSPropertyOp22
 70
     1
102
RTVSPropertyOp23
 70
     1
102
RTVSPropertyOp24
 70
     1
102
RTVSPropertyOp25
 70
     1
102
RTVSPropertyOp26
 70
     1
102
RTVSPropertyOp27
 70
     1
102
RTVSPropertyOp28
 70
     1
102
RTVSPropertyOp29
 70
     1
102
RTVSPropertyOp30
 70
     1
102
RTVSPropertyOp31
 70
     1
102
RTVSPropertyOp32
 70
     1
102
RTVSPropertyOp33
 70
     1
102
RTVSPropertyOp34
 70
     1
102
RTVSPropertyOp35
 70
     1
102
RTVSPropertyOp36
 70
     1
102
RTVSPropertyOp37
 70
     1
102
RTVSPropertyOp38
 70
     1
102
RTVSPropertyOp39
 70
     1
102
RTVSPropertyOp40
 70
     1
102
RTVSPropertyOp41
 70
     1
102
RTVSPropertyOp42
 70
     1
102
RTVSPropertyOp43
 70
     1
102
RTVSPropertyOp44
 70
     1
102
RTVSPropertyOp45
 70
     1
102
RTVSPropertyOp46
 70
     1
102
RTVSPropertyOp47
 70
     1
102
RTVSPropertyOp48
 70
     1
102
RTVSPropertyOp49
 70
     1
102
RTVSPropertyOp50
 70
     1
102
RTVSPropertyOp51
 70
     0
102
RTVSPropertyOp52
 70
     0
102
RTVSPropertyOp53
 70
     1
102
RTVSPropertyOp54
 70
     1
102
RTVSPropertyOp55
 70
     1
102
RTVSPropertyOp56
 70
     1
102
RTVSPropertyOp57
 70
     1
102
RTVSPost2010Prop28
280
     0
102
RTVSPost2010PropOp28
 70
     1
102
RTVSPost2010Prop29
280
     1
102
RTVSPost2010PropOp29
 70
     1
102
RTVSPost2010Prop30
280
     1
102
RTVSPost2010PropOp30
 70
     1
102
RTVSPost2010Prop31
280
     0
102
RTVSPost2010PropOp31
 70
     1
102
RTVSPost2010Prop32
280
     0
102
RTVSPost2010PropOp32
 70
     1
102
RTVSPost2010Prop33
280
     0
102
RTVSPost2010PropOp33
 70
     1
102
RTVSPost2010Prop34
280
     0
102
RTVSPost2010PropOp34
 70
     1
102
RTVSPost2010Prop35
280
     0
102
RTVSPost2010PropOp35
 70
     1
102
RTVSPost2010Prop36
280
     0
102
RTVSPost2010PropOp36
 70
     1
102
RTVSPost2010Prop37
 90
       50
102
RTVSPost2010PropOp37
 70
     1
102
RTVSPost2010Prop38
140
0.0
102
RTVSPost2010PropOp38
 70
     1
102
RTVSPost2010Prop39
140
1.0
102
RTVSPost2010PropOp39
 70
     1
102
RTVSPost2010Prop40
 90
        0
102
RTVSPost2010PropOp40
 70
     1
102
RTVSPost2010Prop41ColorIndex
 90
       18
102
RTVSPost2010Prop41ColorRGB
 90
        0
102
RTVSPost2010PropOp41
 70
     1
102
RTVSPost2010Prop42
 90
       50
102
RTVSPost2010PropOp42
 70
     1
102
RTVSPost2010Prop43
 90
        3
102
RTVSPost2010PropOp43
 70
     1
102
RTVSPost2010Prop44ColorIndex
 90
        5
102
RTVSPost2010Prop44ColorRGB
 90
      255
102
RTVSPost2010PropOp44
 70
     1
102
RTVSPost2010Prop45
280
     0
102
RTVSPost2010PropOp45
 70
     1
102
RTVSPost2010Prop46
 90
       50
102
RTVSPost2010PropOp46
 70
     1
102
RTVSPost2010Prop47
 90
       50
102
RTVSPost2010PropOp47
 70
     1
102
RTVSPost2010Prop48
 90
       50
102
RTVSPost2010PropOp48
 70
     1
102
RTVSPost2010Prop49
280
     0
102
RTVSPost2010PropOp49
 70
     1
102
RTVSPost2010Prop50
 90
       50
102
RTVSPost2010PropOp50
 70
     1
102
RTVSPost2010Prop51ColorIndex
 90
      256
102
RTVSPost2010Prop51ColorRGB
 90
-16777216
102
RTVSPost2010PropOp51
 70
     0
102
RTVSPost2010Prop52
140
1.0
102
RTVSPost2010PropOp52
 70
     0
102
RTVSPost2010Prop53
 90
        2
102
RTVSPost2010PropOp53
 70
     1
102
RTVSPost2010Prop54
  1
strokes_ogs.tif
102
RTVSPost2010PropOp54
 70
     1
102
RTVSPost2010Prop55
280
     0
102
RTVSPost2010PropOp55
 70
     1
102
RTVSPost2010Prop56
140
1.0
102
RTVSPost2010PropOp56
 70
     1
102
RTVSPost2010Prop57
140
1.0
102
RTVSPost2010PropOp57
 70
     1
  0
XRECORD
  5
4B9
102
{ACAD_REACTORS
330
4B8
102
}
330
4B8
100
AcDbXrecord
280
     1
102
RTVSPropertyOp0
 70
     1
102
RTVSPropertyOp1
 70
     1
102
RTVSPropertyOp2
 70
     1
102
RTVSPropertyOp3
 70
     1
102
RTVSPropertyOp4
 70
     1
102
RTVSPropertyOp5
 70
     1
102
RTVSPropertyOp6
 70
     1
102
RTVSPropertyOp7
 70
     1
102
RTVSPropertyOp8
 70
     1
102
RTVSPropertyOp9
 70
     1
102
RTVSPropertyOp10
 70
     1
102
RTVSPropertyOp11
 70
     1
102
RTVSPropertyOp12
 70
     1
102
RTVSPropertyOp13
 70
     1
102
RTVSPropertyOp14
 70
     1
102
RTVSPropertyOp15
 70
     1
102
RTVSPropertyOp16
 70
     1
102
RTVSPropertyOp17
 70
     1
102
RTVSPropertyOp18
 70
     1
102
RTVSPropertyOp19
 70
     1
102
RTVSPropertyOp20
 70
     1
102
RTVSPropertyOp21
 70
     1
102
RTVSPropertyOp22
 70
     1
102
RTVSPropertyOp23
 70
     1
102
RTVSPropertyOp24
 70
     1
102
RTVSPropertyOp25
 70
     1
102
RTVSPropertyOp26
 70
     1
102
RTVSPropertyOp27
 70
     1
102
RTVSPropertyOp28
 70
     1
102
RTVSPropertyOp29
 70
     1
102
RTVSPropertyOp30
 70
     1
102
RTVSPropertyOp31
 70
     1
102
RTVSPropertyOp32
 70
     1
102
RTVSPropertyOp33
 70
     1
102
RTVSPropertyOp34
 70
     1
102
RTVSPropertyOp35
 70
     1
102
RTVSPropertyOp36
 70
     1
102
RTVSPropertyOp37
 70
     1
102
RTVSPropertyOp38
 70
     1
102
RTVSPropertyOp39
 70
     1
102
RTVSPropertyOp40
 70
     1
102
RTVSPropertyOp41
 70
     1
102
RTVSPropertyOp42
 70
     1
102
RTVSPropertyOp43
 70
     1
102
RTVSPropertyOp44
 70
     1
102
RTVSPropertyOp45
 70
     1
102
RTVSPropertyOp46
 70
     1
102
RTVSPropertyOp47
 70
     1
102
RTVSPropertyOp48
 70
     1
102
RTVSPropertyOp49
 70
     1
102
RTVSPropertyOp50
 70
     1
102
RTVSPropertyOp51
 70
     0
102
RTVSPropertyOp52
 70
     0
102
RTVSPropertyOp53
 70
     1
102
RTVSPropertyOp54
 70
     1
102
RTVSPropertyOp55
 70
     1
102
RTVSPropertyOp56
 70
     1
102
RTVSPropertyOp57
 70
     1
102
RTVSPost2010Prop28
280
     0
102
RTVSPost2010PropOp28
 70
     1
102
RTVSPost2010Prop29
280
     1
102
RTVSPost2010PropOp29
 70
     1
102
RTVSPost2010Prop30
280
     1
102
RTVSPost2010PropOp30
 70
     1
102
RTVSPost2010Prop31
280
     0
102
RTVSPost2010PropOp31
 70
     1
102
RTVSPost2010Prop32
280
     0
102
RTVSPost2010PropOp32
 70
     1
102
RTVSPost2010Prop33
280
     0
102
RTVSPost2010PropOp33
 70
     1
102
RTVSPost2010Prop34
280
     0
102
RTVSPost2010PropOp34
 70
     1
102
RTVSPost2010Prop35
280
     0
102
RTVSPost2010PropOp35
 70
     1
102
RTVSPost2010Prop36
280
     0
102
RTVSPost2010PropOp36
 70
     1
102
RTVSPost2010Prop37
 90
       50
102
RTVSPost2010PropOp37
 70
     1
102
RTVSPost2010Prop38
140
0.0
102
RTVSPost2010PropOp38
 70
     1
102
RTVSPost2010Prop39
140
1.0
102
RTVSPost2010PropOp39
 70
     1
102
RTVSPost2010Prop40
 90
        0
102
RTVSPost2010PropOp40
 70
     1
102
RTVSPost2010Prop41ColorIndex
 90
       18
102
RTVSPost2010Prop41ColorRGB
 90
        0
102
RTVSPost2010PropOp41
 70
     1
102
RTVSPost2010Prop42
 90
       50
102
RTVSPost2010PropOp42
 70
     1
102
RTVSPost2010Prop43
 90
        3
102
RTVSPost2010PropOp43
 70
     1
102
RTVSPost2010Prop44ColorIndex
 90
        5
102
RTVSPost2010Prop44ColorRGB
 90
      255
102
RTVSPost2010PropOp44
 70
     1
102
RTVSPost2010Prop45
280
     0
102
RTVSPost2010PropOp45
 70
     1
102
RTVSPost2010Prop46
 90
       50
102
RTVSPost2010PropOp46
 70
     1
102
RTVSPost2010Prop47
 90
       50
102
RTVSPost2010PropOp47
 70
     1
102
RTVSPost2010Prop48
 90
       50
102
RTVSPost2010PropOp48
 70
     1
102
RTVSPost2010Prop49
280
     0
102
RTVSPost2010PropOp49
 70
     1
102
RTVSPost2010Prop50
 90
       50
102
RTVSPost2010PropOp50
 70
     1
102
RTVSPost2010Prop51ColorIndex
 90
      256
102
RTVSPost2010Prop51ColorRGB
 90
-16777216
102
RTVSPost2010PropOp51
 70
     0
102
RTVSPost2010Prop52
140
1.0
102
RTVSPost2010PropOp52
 70
     0
102
RTVSPost2010Prop53
 90
        2
102
RTVSPost2010PropOp53
 70
     1
102
RTVSPost2010Prop54
  1
strokes_ogs.tif
102
RTVSPost2010PropOp54
 70
     1
102
RTVSPost2010Prop55
280
     0
102
RTVSPost2010PropOp55
 70
     1
102
RTVSPost2010Prop56
140
1.0
102
RTVSPost2010PropOp56
 70
     1
102
RTVSPost2010Prop57
140
1.0
102
RTVSPost2010PropOp57
 70
     1
  0
XRECORD
  5
4BB
102
{ACAD_REACTORS
330
4BA
102
}
330
4BA
100
AcDbXrecord
280
     1
102
RTVSPropertyOp0
 70
     1
102
RTVSPropertyOp1
 70
     1
102
RTVSPropertyOp2
 70
     1
102
RTVSPropertyOp3
 70
     1
102
RTVSPropertyOp4
 70
     1
102
RTVSPropertyOp5
 70
     1
102
RTVSPropertyOp6
 70
     1
102
RTVSPropertyOp7
 70
     1
102
RTVSPropertyOp8
 70
     1
102
RTVSPropertyOp9
 70
     1
102
RTVSPropertyOp10
 70
     1
102
RTVSPropertyOp11
 70
     1
102
RTVSPropertyOp12
 70
     1
102
RTVSPropertyOp13
 70
     1
102
RTVSPropertyOp14
 70
     1
102
RTVSPropertyOp15
 70
     1
102
RTVSPropertyOp16
 70
     1
102
RTVSPropertyOp17
 70
     1
102
RTVSPropertyOp18
 70
     1
102
RTVSPropertyOp19
 70
     1
102
RTVSPropertyOp20
 70
     1
102
RTVSPropertyOp21
 70
     1
102
RTVSPropertyOp22
 70
     1
102
RTVSPropertyOp23
 70
     1
102
RTVSPropertyOp24
 70
     1
102
RTVSPropertyOp25
 70
     1
102
RTVSPropertyOp26
 70
     1
102
RTVSPropertyOp27
 70
     1
102
RTVSPropertyOp28
 70
     1
102
RTVSPropertyOp29
 70
     1
102
RTVSPropertyOp30
 70
     1
102
RTVSPropertyOp31
 70
     1
102
RTVSPropertyOp32
 70
     1
102
RTVSPropertyOp33
 70
     1
102
RTVSPropertyOp34
 70
     1
102
RTVSPropertyOp35
 70
     1
102
RTVSPropertyOp36
 70
     1
102
RTVSPropertyOp37
 70
     1
102
RTVSPropertyOp38
 70
     1
102
RTVSPropertyOp39
 70
     1
102
RTVSPropertyOp40
 70
     1
102
RTVSPropertyOp41
 70
     1
102
RTVSPropertyOp42
 70
     1
102
RTVSPropertyOp43
 70
     1
102
RTVSPropertyOp44
 70
     1
102
RTVSPropertyOp45
 70
     1
102
RTVSPropertyOp46
 70
     1
102
RTVSPropertyOp47
 70
     1
102
RTVSPropertyOp48
 70
     1
102
RTVSPropertyOp49
 70
     1
102
RTVSPropertyOp50
 70
     1
102
RTVSPropertyOp51
 70
     0
102
RTVSPropertyOp52
 70
     0
102
RTVSPropertyOp53
 70
     1
102
RTVSPropertyOp54
 70
     1
102
RTVSPropertyOp55
 70
     1
102
RTVSPropertyOp56
 70
     1
102
RTVSPropertyOp57
 70
     1
102
RTVSPost2010Prop28
280
     0
102
RTVSPost2010PropOp28
 70
     1
102
RTVSPost2010Prop29
280
     1
102
RTVSPost2010PropOp29
 70
     1
102
RTVSPost2010Prop30
280
     1
102
RTVSPost2010PropOp30
 70
     1
102
RTVSPost2010Prop31
280
     0
102
RTVSPost2010PropOp31
 70
     1
102
RTVSPost2010Prop32
280
     0
102
RTVSPost2010PropOp32
 70
     1
102
RTVSPost2010Prop33
280
     0
102
RTVSPost2010PropOp33
 70
     1
102
RTVSPost2010Prop34
280
     0
102
RTVSPost2010PropOp34
 70
     1
102
RTVSPost2010Prop35
280
     0
102
RTVSPost2010PropOp35
 70
     1
102
RTVSPost2010Prop36
280
     0
102
RTVSPost2010PropOp36
 70
     1
102
RTVSPost2010Prop37
 90
       50
102
RTVSPost2010PropOp37
 70
     1
102
RTVSPost2010Prop38
140
0.0
102
RTVSPost2010PropOp38
 70
     1
102
RTVSPost2010Prop39
140
1.0
102
RTVSPost2010PropOp39
 70
     1
102
RTVSPost2010Prop40
 90
        0
102
RTVSPost2010PropOp40
 70
     1
102
RTVSPost2010Prop41ColorIndex
 90
       18
102
RTVSPost2010Prop41ColorRGB
 90
        0
102
RTVSPost2010PropOp41
 70
     1
102
RTVSPost2010Prop42
 90
       50
102
RTVSPost2010PropOp42
 70
     1
102
RTVSPost2010Prop43
 90
        3
102
RTVSPost2010PropOp43
 70
     1
102
RTVSPost2010Prop44ColorIndex
 90
        5
102
RTVSPost2010Prop44ColorRGB
 90
      255
102
RTVSPost2010PropOp44
 70
     1
102
RTVSPost2010Prop45
280
     0
102
RTVSPost2010PropOp45
 70
     1
102
RTVSPost2010Prop46
 90
       50
102
RTVSPost2010PropOp46
 70
     1
102
RTVSPost2010Prop47
 90
       50
102
RTVSPost2010PropOp47
 70
     1
102
RTVSPost2010Prop48
 90
       50
102
RTVSPost2010PropOp48
 70
     1
102
RTVSPost2010Prop49
280
     0
102
RTVSPost2010PropOp49
 70
     1
102
RTVSPost2010Prop50
 90
       50
102
RTVSPost2010PropOp50
 70
     1
102
RTVSPost2010Prop51ColorIndex
 90
      256
102
RTVSPost2010Prop51ColorRGB
 90
-16777216
102
RTVSPost2010PropOp51
 70
     0
102
RTVSPost2010Prop52
140
1.0
102
RTVSPost2010PropOp52
 70
     0
102
RTVSPost2010Prop53
 90
        2
102
RTVSPost2010PropOp53
 70
     1
102
RTVSPost2010Prop54
  1
strokes_ogs.tif
102
RTVSPost2010PropOp54
 70
     1
102
RTVSPost2010Prop55
280
     0
102
RTVSPost2010PropOp55
 70
     1
102
RTVSPost2010Prop56
140
1.0
102
RTVSPost2010PropOp56
 70
     1
102
RTVSPost2010Prop57
140
1.0
102
RTVSPost2010PropOp57
 70
     1
  0
XRECORD
  5
4BD
102
{ACAD_REACTORS
330
4BC
102
}
330
4BC
100
AcDbXrecord
280
     1
102
RTVSPropertyOp0
 70
     1
102
RTVSPropertyOp1
 70
     1
102
RTVSPropertyOp2
 70
     1
102
RTVSPropertyOp3
 70
     1
102
RTVSPropertyOp4
 70
     1
102
RTVSPropertyOp5
 70
     1
102
RTVSPropertyOp6
 70
     1
102
RTVSPropertyOp7
 70
     1
102
RTVSPropertyOp8
 70
     1
102
RTVSPropertyOp9
 70
     1
102
RTVSPropertyOp10
 70
     1
102
RTVSPropertyOp11
 70
     1
102
RTVSPropertyOp12
 70
     1
102
RTVSPropertyOp13
 70
     1
102
RTVSPropertyOp14
 70
     1
102
RTVSPropertyOp15
 70
     1
102
RTVSPropertyOp16
 70
     1
102
RTVSPropertyOp17
 70
     1
102
RTVSPropertyOp18
 70
     1
102
RTVSPropertyOp19
 70
     1
102
RTVSPropertyOp20
 70
     1
102
RTVSPropertyOp21
 70
     1
102
RTVSPropertyOp22
 70
     1
102
RTVSPropertyOp23
 70
     1
102
RTVSPropertyOp24
 70
     1
102
RTVSPropertyOp25
 70
     1
102
RTVSPropertyOp26
 70
     1
102
RTVSPropertyOp27
 70
     1
102
RTVSPropertyOp28
 70
     1
102
RTVSPropertyOp29
 70
     1
102
RTVSPropertyOp30
 70
     1
102
RTVSPropertyOp31
 70
     1
102
RTVSPropertyOp32
 70
     1
102
RTVSPropertyOp33
 70
     1
102
RTVSPropertyOp34
 70
     1
102
RTVSPropertyOp35
 70
     1
102
RTVSPropertyOp36
 70
     1
102
RTVSPropertyOp37
 70
     1
102
RTVSPropertyOp38
 70
     1
102
RTVSPropertyOp39
 70
     1
102
RTVSPropertyOp40
 70
     1
102
RTVSPropertyOp41
 70
     1
102
RTVSPropertyOp42
 70
     1
102
RTVSPropertyOp43
 70
     1
102
RTVSPropertyOp44
 70
     1
102
RTVSPropertyOp45
 70
     1
102
RTVSPropertyOp46
 70
     1
102
RTVSPropertyOp47
 70
     1
102
RTVSPropertyOp48
 70
     1
102
RTVSPropertyOp49
 70
     1
102
RTVSPropertyOp50
 70
     1
102
RTVSPropertyOp51
 70
     0
102
RTVSPropertyOp52
 70
     0
102
RTVSPropertyOp53
 70
     1
102
RTVSPropertyOp54
 70
     1
102
RTVSPropertyOp55
 70
     1
102
RTVSPropertyOp56
 70
     1
102
RTVSPropertyOp57
 70
     1
102
RTVSPost2010Prop28
280
     0
102
RTVSPost2010PropOp28
 70
     1
102
RTVSPost2010Prop29
280
     1
102
RTVSPost2010PropOp29
 70
     1
102
RTVSPost2010Prop30
280
     1
102
RTVSPost2010PropOp30
 70
     1
102
RTVSPost2010Prop31
280
     0
102
RTVSPost2010PropOp31
 70
     1
102
RTVSPost2010Prop32
280
     0
102
RTVSPost2010PropOp32
 70
     1
102
RTVSPost2010Prop33
280
     0
102
RTVSPost2010PropOp33
 70
     1
102
RTVSPost2010Prop34
280
     0
102
RTVSPost2010PropOp34
 70
     1
102
RTVSPost2010Prop35
280
     0
102
RTVSPost2010PropOp35
 70
     1
102
RTVSPost2010Prop36
280
     0
102
RTVSPost2010PropOp36
 70
     1
102
RTVSPost2010Prop37
 90
       50
102
RTVSPost2010PropOp37
 70
     1
102
RTVSPost2010Prop38
140
0.0
102
RTVSPost2010PropOp38
 70
     1
102
RTVSPost2010Prop39
140
1.0
102
RTVSPost2010PropOp39
 70
     1
102
RTVSPost2010Prop40
 90
        0
102
RTVSPost2010PropOp40
 70
     1
102
RTVSPost2010Prop41ColorIndex
 90
       18
102
RTVSPost2010Prop41ColorRGB
 90
        0
102
RTVSPost2010PropOp41
 70
     1
102
RTVSPost2010Prop42
 90
       50
102
RTVSPost2010PropOp42
 70
     1
102
RTVSPost2010Prop43
 90
        3
102
RTVSPost2010PropOp43
 70
     1
102
RTVSPost2010Prop44ColorIndex
 90
        5
102
RTVSPost2010Prop44ColorRGB
 90
      255
102
RTVSPost2010PropOp44
 70
     1
102
RTVSPost2010Prop45
280
     0
102
RTVSPost2010PropOp45
 70
     1
102
RTVSPost2010Prop46
 90
       50
102
RTVSPost2010PropOp46
 70
     1
102
RTVSPost2010Prop47
 90
       50
102
RTVSPost2010PropOp47
 70
     1
102
RTVSPost2010Prop48
 90
       50
102
RTVSPost2010PropOp48
 70
     1
102
RTVSPost2010Prop49
280
     0
102
RTVSPost2010PropOp49
 70
     1
102
RTVSPost2010Prop50
 90
       50
102
RTVSPost2010PropOp50
 70
     1
102
RTVSPost2010Prop51ColorIndex
 90
      256
102
RTVSPost2010Prop51ColorRGB
 90
-16777216
102
RTVSPost2010PropOp51
 70
     0
102
RTVSPost2010Prop52
140
1.0
102
RTVSPost2010PropOp52
 70
     0
102
RTVSPost2010Prop53
 90
        2
102
RTVSPost2010PropOp53
 70
     1
102
RTVSPost2010Prop54
  1
strokes_ogs.tif
102
RTVSPost2010PropOp54
 70
     1
102
RTVSPost2010Prop55
280
     0
102
RTVSPost2010PropOp55
 70
     1
102
RTVSPost2010Prop56
140
1.0
102
RTVSPost2010PropOp56
 70
     1
102
RTVSPost2010Prop57
140
1.0
102
RTVSPost2010PropOp57
 70
     1
  0
XRECORD
  5
4C3
102
{ACAD_REACTORS
330
4C2
102
}
330
4C2
100
AcDbXrecord
280
     1
102
RTVSPropertyOp0
 70
     1
102
RTVSPropertyOp1
 70
     1
102
RTVSPropertyOp2
 70
     1
102
RTVSPropertyOp3
 70
     1
102
RTVSPropertyOp4
 70
     1
102
RTVSPropertyOp5
 70
     1
102
RTVSPropertyOp6
 70
     1
102
RTVSPropertyOp7
 70
     1
102
RTVSPropertyOp8
 70
     1
102
RTVSPropertyOp9
 70
     1
102
RTVSPropertyOp10
 70
     1
102
RTVSPropertyOp11
 70
     1
102
RTVSPropertyOp12
 70
     1
102
RTVSPropertyOp13
 70
     1
102
RTVSPropertyOp14
 70
     1
102
RTVSPropertyOp15
 70
     1
102
RTVSPropertyOp16
 70
     1
102
RTVSPropertyOp17
 70
     1
102
RTVSPropertyOp18
 70
     1
102
RTVSPropertyOp19
 70
     1
102
RTVSPropertyOp20
 70
     1
102
RTVSPropertyOp21
 70
     1
102
RTVSPropertyOp22
 70
     1
102
RTVSPropertyOp23
 70
     1
102
RTVSPropertyOp24
 70
     1
102
RTVSPropertyOp25
 70
     1
102
RTVSPropertyOp26
 70
     1
102
RTVSPropertyOp27
 70
     1
102
RTVSPropertyOp28
 70
     1
102
RTVSPropertyOp29
 70
     1
102
RTVSPropertyOp30
 70
     1
102
RTVSPropertyOp31
 70
     1
102
RTVSPropertyOp32
 70
     1
102
RTVSPropertyOp33
 70
     1
102
RTVSPropertyOp34
 70
     1
102
RTVSPropertyOp35
 70
     1
102
RTVSPropertyOp36
 70
     1
102
RTVSPropertyOp37
 70
     1
102
RTVSPropertyOp38
 70
     1
102
RTVSPropertyOp39
 70
     1
102
RTVSPropertyOp40
 70
     1
102
RTVSPropertyOp41
 70
     1
102
RTVSPropertyOp42
 70
     1
102
RTVSPropertyOp43
 70
     1
102
RTVSPropertyOp44
 70
     1
102
RTVSPropertyOp45
 70
     1
102
RTVSPropertyOp46
 70
     1
102
RTVSPropertyOp47
 70
     1
102
RTVSPropertyOp48
 70
     1
102
RTVSPropertyOp49
 70
     1
102
RTVSPropertyOp50
 70
     1
102
RTVSPropertyOp51
 70
     0
102
RTVSPropertyOp52
 70
     0
102
RTVSPropertyOp53
 70
     1
102
RTVSPropertyOp54
 70
     1
102
RTVSPropertyOp55
 70
     1
102
RTVSPropertyOp56
 70
     1
102
RTVSPropertyOp57
 70
     1
102
RTVSPost2010Prop28
280
     0
102
RTVSPost2010PropOp28
 70
     1
102
RTVSPost2010Prop29
280
     1
102
RTVSPost2010PropOp29
 70
     1
102
RTVSPost2010Prop30
280
     1
102
RTVSPost2010PropOp30
 70
     1
102
RTVSPost2010Prop31
280
     0
102
RTVSPost2010PropOp31
 70
     1
102
RTVSPost2010Prop32
280
     0
102
RTVSPost2010PropOp32
 70
     1
102
RTVSPost2010Prop33
280
     0
102
RTVSPost2010PropOp33
 70
     1
102
RTVSPost2010Prop34
280
     0
102
RTVSPost2010PropOp34
 70
     1
102
RTVSPost2010Prop35
280
     0
102
RTVSPost2010PropOp35
 70
     1
102
RTVSPost2010Prop36
280
     0
102
RTVSPost2010PropOp36
 70
     1
102
RTVSPost2010Prop37
 90
       50
102
RTVSPost2010PropOp37
 70
     1
102
RTVSPost2010Prop38
140
0.0
102
RTVSPost2010PropOp38
 70
     1
102
RTVSPost2010Prop39
140
1.0
102
RTVSPost2010PropOp39
 70
     1
102
RTVSPost2010Prop40
 90
        0
102
RTVSPost2010PropOp40
 70
     1
102
RTVSPost2010Prop41ColorIndex
 90
       18
102
RTVSPost2010Prop41ColorRGB
 90
        0
102
RTVSPost2010PropOp41
 70
     1
102
RTVSPost2010Prop42
 90
       50
102
RTVSPost2010PropOp42
 70
     1
102
RTVSPost2010Prop43
 90
        3
102
RTVSPost2010PropOp43
 70
     1
102
RTVSPost2010Prop44ColorIndex
 90
        5
102
RTVSPost2010Prop44ColorRGB
 90
      255
102
RTVSPost2010PropOp44
 70
     1
102
RTVSPost2010Prop45
280
     0
102
RTVSPost2010PropOp45
 70
     1
102
RTVSPost2010Prop46
 90
       50
102
RTVSPost2010PropOp46
 70
     1
102
RTVSPost2010Prop47
 90
       50
102
RTVSPost2010PropOp47
 70
     1
102
RTVSPost2010Prop48
 90
       50
102
RTVSPost2010PropOp48
 70
     1
102
RTVSPost2010Prop49
280
     0
102
RTVSPost2010PropOp49
 70
     1
102
RTVSPost2010Prop50
 90
       50
102
RTVSPost2010PropOp50
 70
     1
102
RTVSPost2010Prop51ColorIndex
 90
      256
102
RTVSPost2010Prop51ColorRGB
 90
-16777216
102
RTVSPost2010PropOp51
 70
     0
102
RTVSPost2010Prop52
140
1.0
102
RTVSPost2010PropOp52
 70
     0
102
RTVSPost2010Prop53
 90
        2
102
RTVSPost2010PropOp53
 70
     1
102
RTVSPost2010Prop54
  1
strokes_ogs.tif
102
RTVSPost2010PropOp54
 70
     1
102
RTVSPost2010Prop55
280
     0
102
RTVSPost2010PropOp55
 70
     1
102
RTVSPost2010Prop56
140
1.0
102
RTVSPost2010PropOp56
 70
     1
102
RTVSPost2010Prop57
140
1.0
102
RTVSPost2010PropOp57
 70
     1
  0
XRECORD
  5
4D7
102
{ACAD_REACTORS
330
4D6
102
}
330
4D6
100
AcDbXrecord
280
     1
102
RTVSPropertyOp0
 70
     0
102
RTVSPropertyOp1
 70
     0
102
RTVSPropertyOp2
 70
     0
102
RTVSPropertyOp3
 70
     0
102
RTVSPropertyOp4
 70
     0
102
RTVSPropertyOp5
 70
     0
102
RTVSPropertyOp6
 70
     0
102
RTVSPropertyOp7
 70
     0
102
RTVSPropertyOp8
 70
     0
102
RTVSPropertyOp9
 70
     0
102
RTVSPropertyOp10
 70
     0
102
RTVSPropertyOp11
 70
     0
102
RTVSPropertyOp12
 70
     0
102
RTVSPropertyOp13
 70
     0
102
RTVSPropertyOp14
 70
     2
102
RTVSPropertyOp15
 70
     0
102
RTVSPropertyOp16
 70
     0
102
RTVSPropertyOp17
 70
     0
102
RTVSPropertyOp18
 70
     0
102
RTVSPropertyOp19
 70
     0
102
RTVSPropertyOp20
 70
     0
102
RTVSPropertyOp21
 70
     0
102
RTVSPropertyOp22
 70
     0
102
RTVSPropertyOp23
 70
     0
102
RTVSPropertyOp24
 70
     0
102
RTVSPropertyOp25
 70
     0
102
RTVSPropertyOp26
 70
     0
102
RTVSPropertyOp27
 70
     0
102
RTVSPropertyOp28
 70
     0
102
RTVSPropertyOp29
 70
     0
102
RTVSPropertyOp30
 70
     0
102
RTVSPropertyOp31
 70
     0
102
RTVSPropertyOp32
 70
     0
102
RTVSPropertyOp33
 70
     0
102
RTVSPropertyOp34
 70
     0
102
RTVSPropertyOp35
 70
     0
102
RTVSPropertyOp36
 70
     0
102
RTVSPropertyOp37
 70
     0
102
RTVSPropertyOp38
 70
     0
102
RTVSPropertyOp39
 70
     0
102
RTVSPropertyOp40
 70
     0
102
RTVSPropertyOp41
 70
     0
102
RTVSPropertyOp42
 70
     0
102
RTVSPropertyOp43
 70
     0
102
RTVSPropertyOp44
 70
     0
102
RTVSPropertyOp45
 70
     0
102
RTVSPropertyOp46
 70
     0
102
RTVSPropertyOp47
 70
     0
102
RTVSPropertyOp48
 70
     0
102
RTVSPropertyOp49
 70
     0
102
RTVSPropertyOp50
 70
     0
102
RTVSPropertyOp51
 70
     0
102
RTVSPropertyOp52
 70
     0
102
RTVSPropertyOp53
 70
     0
102
RTVSPropertyOp54
 70
     0
102
RTVSPropertyOp55
 70
     0
102
RTVSPropertyOp56
 70
     0
102
RTVSPropertyOp57
 70
     0
102
RTVSPost2010Prop28
280
     0
102
RTVSPost2010PropOp28
 70
     0
102
RTVSPost2010Prop29
280
     1
102
RTVSPost2010PropOp29
 70
     0
102
RTVSPost2010Prop30
280
     1
102
RTVSPost2010PropOp30
 70
     0
102
RTVSPost2010Prop31
280
     0
102
RTVSPost2010PropOp31
 70
     0
102
RTVSPost2010Prop32
280
     0
102
RTVSPost2010PropOp32
 70
     0
102
RTVSPost2010Prop33
280
     0
102
RTVSPost2010PropOp33
 70
     0
102
RTVSPost2010Prop34
280
     0
102
RTVSPost2010PropOp34
 70
     0
102
RTVSPost2010Prop35
280
     0
102
RTVSPost2010PropOp35
 70
     0
102
RTVSPost2010Prop36
280
     0
102
RTVSPost2010PropOp36
 70
     0
102
RTVSPost2010Prop37
 90
       50
102
RTVSPost2010PropOp37
 70
     0
102
RTVSPost2010Prop38
140
0.0
102
RTVSPost2010PropOp38
 70
     0
102
RTVSPost2010Prop39
140
1.0
102
RTVSPost2010PropOp39
 70
     0
102
RTVSPost2010Prop40
 90
        0
102
RTVSPost2010PropOp40
 70
     0
102
RTVSPost2010Prop41ColorIndex
 90
       18
102
RTVSPost2010Prop41ColorRGB
 90
        0
102
RTVSPost2010PropOp41
 70
     0
102
RTVSPost2010Prop42
 90
       50
102
RTVSPost2010PropOp42
 70
     0
102
RTVSPost2010Prop43
 90
        3
102
RTVSPost2010PropOp43
 70
     0
102
RTVSPost2010Prop44ColorIndex
 90
        5
102
RTVSPost2010Prop44ColorRGB
 90
      255
102
RTVSPost2010PropOp44
 70
     0
102
RTVSPost2010Prop45
280
     0
102
RTVSPost2010PropOp45
 70
     0
102
RTVSPost2010Prop46
 90
       50
102
RTVSPost2010PropOp46
 70
     0
102
RTVSPost2010Prop47
 90
       50
102
RTVSPost2010PropOp47
 70
     0
102
RTVSPost2010Prop48
 90
       50
102
RTVSPost2010PropOp48
 70
     0
102
RTVSPost2010Prop49
280
     0
102
RTVSPost2010PropOp49
 70
     0
102
RTVSPost2010Prop50
 90
       50
102
RTVSPost2010PropOp50
 70
     0
102
RTVSPost2010Prop51ColorIndex
 90
      256
102
RTVSPost2010Prop51ColorRGB
 90
-16777216
102
RTVSPost2010PropOp51
 70
     0
102
RTVSPost2010Prop52
140
1.0
102
RTVSPost2010PropOp52
 70
     0
102
RTVSPost2010Prop53
 90
        2
102
RTVSPost2010PropOp53
 70
     0
102
RTVSPost2010Prop54
  1
strokes_ogs.tif
102
RTVSPost2010PropOp54
 70
     0
102
RTVSPost2010Prop55
280
     0
102
RTVSPost2010PropOp55
 70
     0
102
RTVSPost2010Prop56
140
1.0
102
RTVSPost2010PropOp56
 70
     0
102
RTVSPost2010Prop57
140
1.0
102
RTVSPost2010PropOp57
 70
     0
  0
XRECORD
  5
4D1
102
{ACAD_REACTORS
330
4D0
102
}
330
4D0
100
AcDbXrecord
280
     1
102
RTVSPropertyOp0
 70
     1
102
RTVSPropertyOp1
 70
     1
102
RTVSPropertyOp2
 70
     1
102
RTVSPropertyOp3
 70
     1
102
RTVSPropertyOp4
 70
     1
102
RTVSPropertyOp5
 70
     1
102
RTVSPropertyOp6
 70
     1
102
RTVSPropertyOp7
 70
     1
102
RTVSPropertyOp8
 70
     1
102
RTVSPropertyOp9
 70
     1
102
RTVSPropertyOp10
 70
     1
102
RTVSPropertyOp11
 70
     1
102
RTVSPropertyOp12
 70
     1
102
RTVSPropertyOp13
 70
     1
102
RTVSPropertyOp14
 70
     1
102
RTVSPropertyOp15
 70
     1
102
RTVSPropertyOp16
 70
     1
102
RTVSPropertyOp17
 70
     1
102
RTVSPropertyOp18
 70
     1
102
RTVSPropertyOp19
 70
     1
102
RTVSPropertyOp20
 70
     1
102
RTVSPropertyOp21
 70
     1
102
RTVSPropertyOp22
 70
     1
102
RTVSPropertyOp23
 70
     1
102
RTVSPropertyOp24
 70
     1
102
RTVSPropertyOp25
 70
     1
102
RTVSPropertyOp26
 70
     1
102
RTVSPropertyOp27
 70
     1
102
RTVSPropertyOp28
 70
     1
102
RTVSPropertyOp29
 70
     1
102
RTVSPropertyOp30
 70
     1
102
RTVSPropertyOp31
 70
     1
102
RTVSPropertyOp32
 70
     1
102
RTVSPropertyOp33
 70
     1
102
RTVSPropertyOp34
 70
     1
102
RTVSPropertyOp35
 70
     1
102
RTVSPropertyOp36
 70
     1
102
RTVSPropertyOp37
 70
     1
102
RTVSPropertyOp38
 70
     1
102
RTVSPropertyOp39
 70
     1
102
RTVSPropertyOp40
 70
     1
102
RTVSPropertyOp41
 70
     1
102
RTVSPropertyOp42
 70
     1
102
RTVSPropertyOp43
 70
     1
102
RTVSPropertyOp44
 70
     1
102
RTVSPropertyOp45
 70
     1
102
RTVSPropertyOp46
 70
     1
102
RTVSPropertyOp47
 70
     1
102
RTVSPropertyOp48
 70
     1
102
RTVSPropertyOp49
 70
     1
102
RTVSPropertyOp50
 70
     1
102
RTVSPropertyOp51
 70
     0
102
RTVSPropertyOp52
 70
     0
102
RTVSPropertyOp53
 70
     1
102
RTVSPropertyOp54
 70
     1
102
RTVSPropertyOp55
 70
     1
102
RTVSPropertyOp56
 70
     1
102
RTVSPropertyOp57
 70
     1
102
RTVSPost2010Prop28
280
     0
102
RTVSPost2010PropOp28
 70
     1
102
RTVSPost2010Prop29
280
     1
102
RTVSPost2010PropOp29
 70
     1
102
RTVSPost2010Prop30
280
     1
102
RTVSPost2010PropOp30
 70
     1
102
RTVSPost2010Prop31
280
     0
102
RTVSPost2010PropOp31
 70
     1
102
RTVSPost2010Prop32
280
     0
102
RTVSPost2010PropOp32
 70
     1
102
RTVSPost2010Prop33
280
     0
102
RTVSPost2010PropOp33
 70
     1
102
RTVSPost2010Prop34
280
     0
102
RTVSPost2010PropOp34
 70
     1
102
RTVSPost2010Prop35
280
     0
102
RTVSPost2010PropOp35
 70
     1
102
RTVSPost2010Prop36
280
     0
102
RTVSPost2010PropOp36
 70
     1
102
RTVSPost2010Prop37
 90
       50
102
RTVSPost2010PropOp37
 70
     1
102
RTVSPost2010Prop38
140
0.0
102
RTVSPost2010PropOp38
 70
     1
102
RTVSPost2010Prop39
140
1.0
102
RTVSPost2010PropOp39
 70
     1
102
RTVSPost2010Prop40
 90
        0
102
RTVSPost2010PropOp40
 70
     1
102
RTVSPost2010Prop41ColorIndex
 90
       18
102
RTVSPost2010Prop41ColorRGB
 90
        0
102
RTVSPost2010PropOp41
 70
     1
102
RTVSPost2010Prop42
 90
       50
102
RTVSPost2010PropOp42
 70
     1
102
RTVSPost2010Prop43
 90
        3
102
RTVSPost2010PropOp43
 70
     1
102
RTVSPost2010Prop44ColorIndex
 90
        5
102
RTVSPost2010Prop44ColorRGB
 90
      255
102
RTVSPost2010PropOp44
 70
     1
102
RTVSPost2010Prop45
280
     0
102
RTVSPost2010PropOp45
 70
     1
102
RTVSPost2010Prop46
 90
       50
102
RTVSPost2010PropOp46
 70
     1
102
RTVSPost2010Prop47
 90
       50
102
RTVSPost2010PropOp47
 70
     1
102
RTVSPost2010Prop48
 90
       50
102
RTVSPost2010PropOp48
 70
     1
102
RTVSPost2010Prop49
280
     0
102
RTVSPost2010PropOp49
 70
     1
102
RTVSPost2010Prop50
 90
       50
102
RTVSPost2010PropOp50
 70
     1
102
RTVSPost2010Prop51ColorIndex
 90
      256
102
RTVSPost2010Prop51ColorRGB
 90
-16777216
102
RTVSPost2010PropOp51
 70
     0
102
RTVSPost2010Prop52
140
1.0
102
RTVSPost2010PropOp52
 70
     0
102
RTVSPost2010Prop53
 90
        2
102
RTVSPost2010PropOp53
 70
     1
102
RTVSPost2010Prop54
  1
strokes_ogs.tif
102
RTVSPost2010PropOp54
 70
     1
102
RTVSPost2010Prop55
280
     0
102
RTVSPost2010PropOp55
 70
     1
102
RTVSPost2010Prop56
140
1.0
102
RTVSPost2010PropOp56
 70
     1
102
RTVSPost2010Prop57
140
1.0
102
RTVSPost2010PropOp57
 70
     1
  0
XRECORD
  5
4D9
102
{ACAD_REACTORS
330
4D8
102
}
330
4D8
100
AcDbXrecord
280
     1
102
RTVSPropertyOp0
 70
     0
102
RTVSPropertyOp1
 70
     0
102
RTVSPropertyOp2
 70
     0
102
RTVSPropertyOp3
 70
     0
102
RTVSPropertyOp4
 70
     0
102
RTVSPropertyOp5
 70
     0
102
RTVSPropertyOp6
 70
     0
102
RTVSPropertyOp7
 70
     0
102
RTVSPropertyOp8
 70
     0
102
RTVSPropertyOp9
 70
     0
102
RTVSPropertyOp10
 70
     0
102
RTVSPropertyOp11
 70
     0
102
RTVSPropertyOp12
 70
     0
102
RTVSPropertyOp13
 70
     0
102
RTVSPropertyOp14
 70
     2
102
RTVSPropertyOp15
 70
     0
102
RTVSPropertyOp16
 70
     0
102
RTVSPropertyOp17
 70
     0
102
RTVSPropertyOp18
 70
     0
102
RTVSPropertyOp19
 70
     0
102
RTVSPropertyOp20
 70
     0
102
RTVSPropertyOp21
 70
     0
102
RTVSPropertyOp22
 70
     0
102
RTVSPropertyOp23
 70
     0
102
RTVSPropertyOp24
 70
     0
102
RTVSPropertyOp25
 70
     0
102
RTVSPropertyOp26
 70
     0
102
RTVSPropertyOp27
 70
     0
102
RTVSPropertyOp28
 70
     0
102
RTVSPropertyOp29
 70
     0
102
RTVSPropertyOp30
 70
     0
102
RTVSPropertyOp31
 70
     0
102
RTVSPropertyOp32
 70
     0
102
RTVSPropertyOp33
 70
     0
102
RTVSPropertyOp34
 70
     0
102
RTVSPropertyOp35
 70
     0
102
RTVSPropertyOp36
 70
     0
102
RTVSPropertyOp37
 70
     0
102
RTVSPropertyOp38
 70
     0
102
RTVSPropertyOp39
 70
     0
102
RTVSPropertyOp40
 70
     0
102
RTVSPropertyOp41
 70
     0
102
RTVSPropertyOp42
 70
     0
102
RTVSPropertyOp43
 70
     0
102
RTVSPropertyOp44
 70
     0
102
RTVSPropertyOp45
 70
     0
102
RTVSPropertyOp46
 70
     0
102
RTVSPropertyOp47
 70
     0
102
RTVSPropertyOp48
 70
     0
102
RTVSPropertyOp49
 70
     0
102
RTVSPropertyOp50
 70
     0
102
RTVSPropertyOp51
 70
     0
102
RTVSPropertyOp52
 70
     0
102
RTVSPropertyOp53
 70
     0
102
RTVSPropertyOp54
 70
     0
102
RTVSPropertyOp55
 70
     0
102
RTVSPropertyOp56
 70
     0
102
RTVSPropertyOp57
 70
     0
102
RTVSPost2010Prop28
280
     0
102
RTVSPost2010PropOp28
 70
     0
102
RTVSPost2010Prop29
280
     1
102
RTVSPost2010PropOp29
 70
     0
102
RTVSPost2010Prop30
280
     1
102
RTVSPost2010PropOp30
 70
     0
102
RTVSPost2010Prop31
280
     0
102
RTVSPost2010PropOp31
 70
     0
102
RTVSPost2010Prop32
280
     0
102
RTVSPost2010PropOp32
 70
     0
102
RTVSPost2010Prop33
280
     0
102
RTVSPost2010PropOp33
 70
     0
102
RTVSPost2010Prop34
280
     0
102
RTVSPost2010PropOp34
 70
     0
102
RTVSPost2010Prop35
280
     0
102
RTVSPost2010PropOp35
 70
     0
102
RTVSPost2010Prop36
280
     0
102
RTVSPost2010PropOp36
 70
     0
102
RTVSPost2010Prop37
 90
       50
102
RTVSPost2010PropOp37
 70
     0
102
RTVSPost2010Prop38
140
0.0
102
RTVSPost2010PropOp38
 70
     0
102
RTVSPost2010Prop39
140
1.0
102
RTVSPost2010PropOp39
 70
     0
102
RTVSPost2010Prop40
 90
        0
102
RTVSPost2010PropOp40
 70
     0
102
RTVSPost2010Prop41ColorIndex
 90
       18
102
RTVSPost2010Prop41ColorRGB
 90
        0
102
RTVSPost2010PropOp41
 70
     0
102
RTVSPost2010Prop42
 90
       50
102
RTVSPost2010PropOp42
 70
     0
102
RTVSPost2010Prop43
 90
        3
102
RTVSPost2010PropOp43
 70
     0
102
RTVSPost2010Prop44ColorIndex
 90
        5
102
RTVSPost2010Prop44ColorRGB
 90
      255
102
RTVSPost2010PropOp44
 70
     0
102
RTVSPost2010Prop45
280
     0
102
RTVSPost2010PropOp45
 70
     0
102
RTVSPost2010Prop46
 90
       50
102
RTVSPost2010PropOp46
 70
     0
102
RTVSPost2010Prop47
 90
       50
102
RTVSPost2010PropOp47
 70
     0
102
RTVSPost2010Prop48
 90
       50
102
RTVSPost2010PropOp48
 70
     0
102
RTVSPost2010Prop49
280
     0
102
RTVSPost2010PropOp49
 70
     0
102
RTVSPost2010Prop50
 90
       50
102
RTVSPost2010PropOp50
 70
     0
102
RTVSPost2010Prop51ColorIndex
 90
      256
102
RTVSPost2010Prop51ColorRGB
 90
-16777216
102
RTVSPost2010PropOp51
 70
     0
102
RTVSPost2010Prop52
140
1.0
102
RTVSPost2010PropOp52
 70
     0
102
RTVSPost2010Prop53
 90
        2
102
RTVSPost2010PropOp53
 70
     0
102
RTVSPost2010Prop54
  1
strokes_ogs.tif
102
RTVSPost2010PropOp54
 70
     0
102
RTVSPost2010Prop55
280
     0
102
RTVSPost2010PropOp55
 70
     0
102
RTVSPost2010Prop56
140
1.0
102
RTVSPost2010PropOp56
 70
     0
102
RTVSPost2010Prop57
140
1.0
102
RTVSPost2010PropOp57
 70
     0
  0
XRECORD
  5
4C7
102
{ACAD_REACTORS
330
4C6
102
}
330
4C6
100
AcDbXrecord
280
     1
102
RTVSPropertyOp0
 70
     1
102
RTVSPropertyOp1
 70
     1
102
RTVSPropertyOp2
 70
     1
102
RTVSPropertyOp3
 70
     1
102
RTVSPropertyOp4
 70
     1
102
RTVSPropertyOp5
 70
     1
102
RTVSPropertyOp6
 70
     1
102
RTVSPropertyOp7
 70
     1
102
RTVSPropertyOp8
 70
     1
102
RTVSPropertyOp9
 70
     1
102
RTVSPropertyOp10
 70
     1
102
RTVSPropertyOp11
 70
     1
102
RTVSPropertyOp12
 70
     1
102
RTVSPropertyOp13
 70
     1
102
RTVSPropertyOp14
 70
     1
102
RTVSPropertyOp15
 70
     1
102
RTVSPropertyOp16
 70
     1
102
RTVSPropertyOp17
 70
     1
102
RTVSPropertyOp18
 70
     1
102
RTVSPropertyOp19
 70
     1
102
RTVSPropertyOp20
 70
     1
102
RTVSPropertyOp21
 70
     1
102
RTVSPropertyOp22
 70
     1
102
RTVSPropertyOp23
 70
     1
102
RTVSPropertyOp24
 70
     1
102
RTVSPropertyOp25
 70
     1
102
RTVSPropertyOp26
 70
     1
102
RTVSPropertyOp27
 70
     1
102
RTVSPropertyOp28
 70
     1
102
RTVSPropertyOp29
 70
     1
102
RTVSPropertyOp30
 70
     1
102
RTVSPropertyOp31
 70
     1
102
RTVSPropertyOp32
 70
     1
102
RTVSPropertyOp33
 70
     1
102
RTVSPropertyOp34
 70
     1
102
RTVSPropertyOp35
 70
     1
102
RTVSPropertyOp36
 70
     1
102
RTVSPropertyOp37
 70
     1
102
RTVSPropertyOp38
 70
     1
102
RTVSPropertyOp39
 70
     1
102
RTVSPropertyOp40
 70
     1
102
RTVSPropertyOp41
 70
     1
102
RTVSPropertyOp42
 70
     1
102
RTVSPropertyOp43
 70
     1
102
RTVSPropertyOp44
 70
     1
102
RTVSPropertyOp45
 70
     1
102
RTVSPropertyOp46
 70
     1
102
RTVSPropertyOp47
 70
     1
102
RTVSPropertyOp48
 70
     1
102
RTVSPropertyOp49
 70
     1
102
RTVSPropertyOp50
 70
     1
102
RTVSPropertyOp51
 70
     0
102
RTVSPropertyOp52
 70
     0
102
RTVSPropertyOp53
 70
     1
102
RTVSPropertyOp54
 70
     1
102
RTVSPropertyOp55
 70
     1
102
RTVSPropertyOp56
 70
     1
102
RTVSPropertyOp57
 70
     1
102
RTVSPost2010Prop28
280
     0
102
RTVSPost2010PropOp28
 70
     1
102
RTVSPost2010Prop29
280
     1
102
RTVSPost2010PropOp29
 70
     1
102
RTVSPost2010Prop30
280
     1
102
RTVSPost2010PropOp30
 70
     1
102
RTVSPost2010Prop31
280
     0
102
RTVSPost2010PropOp31
 70
     1
102
RTVSPost2010Prop32
280
     0
102
RTVSPost2010PropOp32
 70
     1
102
RTVSPost2010Prop33
280
     0
102
RTVSPost2010PropOp33
 70
     1
102
RTVSPost2010Prop34
280
     0
102
RTVSPost2010PropOp34
 70
     1
102
RTVSPost2010Prop35
280
     0
102
RTVSPost2010PropOp35
 70
     1
102
RTVSPost2010Prop36
280
     0
102
RTVSPost2010PropOp36
 70
     1
102
RTVSPost2010Prop37
 90
       50
102
RTVSPost2010PropOp37
 70
     1
102
RTVSPost2010Prop38
140
0.0
102
RTVSPost2010PropOp38
 70
     1
102
RTVSPost2010Prop39
140
1.0
102
RTVSPost2010PropOp39
 70
     1
102
RTVSPost2010Prop40
 90
        0
102
RTVSPost2010PropOp40
 70
     1
102
RTVSPost2010Prop41ColorIndex
 90
       18
102
RTVSPost2010Prop41ColorRGB
 90
        0
102
RTVSPost2010PropOp41
 70
     1
102
RTVSPost2010Prop42
 90
       50
102
RTVSPost2010PropOp42
 70
     1
102
RTVSPost2010Prop43
 90
        3
102
RTVSPost2010PropOp43
 70
     1
102
RTVSPost2010Prop44ColorIndex
 90
        5
102
RTVSPost2010Prop44ColorRGB
 90
      255
102
RTVSPost2010PropOp44
 70
     1
102
RTVSPost2010Prop45
280
     0
102
RTVSPost2010PropOp45
 70
     1
102
RTVSPost2010Prop46
 90
       50
102
RTVSPost2010PropOp46
 70
     1
102
RTVSPost2010Prop47
 90
       50
102
RTVSPost2010PropOp47
 70
     1
102
RTVSPost2010Prop48
 90
       50
102
RTVSPost2010PropOp48
 70
     1
102
RTVSPost2010Prop49
280
     0
102
RTVSPost2010PropOp49
 70
     1
102
RTVSPost2010Prop50
 90
       50
102
RTVSPost2010PropOp50
 70
     1
102
RTVSPost2010Prop51ColorIndex
 90
      256
102
RTVSPost2010Prop51ColorRGB
 90
-16777216
102
RTVSPost2010PropOp51
 70
     0
102
RTVSPost2010Prop52
140
1.0
102
RTVSPost2010PropOp52
 70
     0
102
RTVSPost2010Prop53
 90
        2
102
RTVSPost2010PropOp53
 70
     1
102
RTVSPost2010Prop54
  1
strokes_ogs.tif
102
RTVSPost2010PropOp54
 70
     1
102
RTVSPost2010Prop55
280
     0
102
RTVSPost2010PropOp55
 70
     1
102
RTVSPost2010Prop56
140
1.0
102
RTVSPost2010PropOp56
 70
     1
102
RTVSPost2010Prop57
140
1.0
102
RTVSPost2010PropOp57
 70
     1
  0
XRECORD
  5
4E5
102
{ACAD_REACTORS
330
4E4
102
}
330
4E4
100
AcDbXrecord
280
     1
102
RTVSPropertyOp0
 70
     1
102
RTVSPropertyOp1
 70
     1
102
RTVSPropertyOp2
 70
     1
102
RTVSPropertyOp3
 70
     1
102
RTVSPropertyOp4
 70
     1
102
RTVSPropertyOp5
 70
     1
102
RTVSPropertyOp6
 70
     1
102
RTVSPropertyOp7
 70
     1
102
RTVSPropertyOp8
 70
     1
102
RTVSPropertyOp9
 70
     1
102
RTVSPropertyOp10
 70
     1
102
RTVSPropertyOp11
 70
     1
102
RTVSPropertyOp12
 70
     1
102
RTVSPropertyOp13
 70
     1
102
RTVSPropertyOp14
 70
     1
102
RTVSPropertyOp15
 70
     1
102
RTVSPropertyOp16
 70
     1
102
RTVSPropertyOp17
 70
     1
102
RTVSPropertyOp18
 70
     1
102
RTVSPropertyOp19
 70
     1
102
RTVSPropertyOp20
 70
     1
102
RTVSPropertyOp21
 70
     1
102
RTVSPropertyOp22
 70
     1
102
RTVSPropertyOp23
 70
     1
102
RTVSPropertyOp24
 70
     1
102
RTVSPropertyOp25
 70
     1
102
RTVSPropertyOp26
 70
     1
102
RTVSPropertyOp27
 70
     1
102
RTVSPropertyOp28
 70
     1
102
RTVSPropertyOp29
 70
     1
102
RTVSPropertyOp30
 70
     1
102
RTVSPropertyOp31
 70
     1
102
RTVSPropertyOp32
 70
     1
102
RTVSPropertyOp33
 70
     1
102
RTVSPropertyOp34
 70
     1
102
RTVSPropertyOp35
 70
     1
102
RTVSPropertyOp36
 70
     1
102
RTVSPropertyOp37
 70
     1
102
RTVSPropertyOp38
 70
     1
102
RTVSPropertyOp39
 70
     1
102
RTVSPropertyOp40
 70
     1
102
RTVSPropertyOp41
 70
     1
102
RTVSPropertyOp42
 70
     1
102
RTVSPropertyOp43
 70
     1
102
RTVSPropertyOp44
 70
     1
102
RTVSPropertyOp45
 70
     1
102
RTVSPropertyOp46
 70
     1
102
RTVSPropertyOp47
 70
     1
102
RTVSPropertyOp48
 70
     1
102
RTVSPropertyOp49
 70
     1
102
RTVSPropertyOp50
 70
     1
102
RTVSPropertyOp51
 70
     0
102
RTVSPropertyOp52
 70
     0
102
RTVSPropertyOp53
 70
     1
102
RTVSPropertyOp54
 70
     1
102
RTVSPropertyOp55
 70
     1
102
RTVSPropertyOp56
 70
     1
102
RTVSPropertyOp57
 70
     1
102
RTVSPost2010Prop28
280
     0
102
RTVSPost2010PropOp28
 70
     1
102
RTVSPost2010Prop29
280
     1
102
RTVSPost2010PropOp29
 70
     1
102
RTVSPost2010Prop30
280
     1
102
RTVSPost2010PropOp30
 70
     1
102
RTVSPost2010Prop31
280
     0
102
RTVSPost2010PropOp31
 70
     1
102
RTVSPost2010Prop32
280
     0
102
RTVSPost2010PropOp32
 70
     1
102
RTVSPost2010Prop33
280
     0
102
RTVSPost2010PropOp33
 70
     1
102
RTVSPost2010Prop34
280
     0
102
RTVSPost2010PropOp34
 70
     1
102
RTVSPost2010Prop35
280
     0
102
RTVSPost2010PropOp35
 70
     1
102
RTVSPost2010Prop36
280
     0
102
RTVSPost2010PropOp36
 70
     1
102
RTVSPost2010Prop37
 90
       50
102
RTVSPost2010PropOp37
 70
     1
102
RTVSPost2010Prop38
140
0.0
102
RTVSPost2010PropOp38
 70
     1
102
RTVSPost2010Prop39
140
1.0
102
RTVSPost2010PropOp39
 70
     1
102
RTVSPost2010Prop40
 90
        0
102
RTVSPost2010PropOp40
 70
     1
102
RTVSPost2010Prop41ColorIndex
 90
       18
102
RTVSPost2010Prop41ColorRGB
 90
        0
102
RTVSPost2010PropOp41
 70
     1
102
RTVSPost2010Prop42
 90
       50
102
RTVSPost2010PropOp42
 70
     1
102
RTVSPost2010Prop43
 90
        3
102
RTVSPost2010PropOp43
 70
     1
102
RTVSPost2010Prop44ColorIndex
 90
        5
102
RTVSPost2010Prop44ColorRGB
 90
      255
102
RTVSPost2010PropOp44
 70
     1
102
RTVSPost2010Prop45
280
     0
102
RTVSPost2010PropOp45
 70
     1
102
RTVSPost2010Prop46
 90
       50
102
RTVSPost2010PropOp46
 70
     1
102
RTVSPost2010Prop47
 90
       50
102
RTVSPost2010PropOp47
 70
     1
102
RTVSPost2010Prop48
 90
       50
102
RTVSPost2010PropOp48
 70
     1
102
RTVSPost2010Prop49
280
     0
102
RTVSPost2010PropOp49
 70
     1
102
RTVSPost2010Prop50
 90
       50
102
RTVSPost2010PropOp50
 70
     1
102
RTVSPost2010Prop51ColorIndex
 90
      256
102
RTVSPost2010Prop51ColorRGB
 90
-16777216
102
RTVSPost2010PropOp51
 70
     0
102
RTVSPost2010Prop52
140
1.0
102
RTVSPost2010PropOp52
 70
     0
102
RTVSPost2010Prop53
 90
        2
102
RTVSPost2010PropOp53
 70
     1
102
RTVSPost2010Prop54
  1
strokes_ogs.tif
102
RTVSPost2010PropOp54
 70
     1
102
RTVSPost2010Prop55
280
     0
102
RTVSPost2010PropOp55
 70
     1
102
RTVSPost2010Prop56
140
1.0
102
RTVSPost2010PropOp56
 70
     1
102
RTVSPost2010Prop57
140
1.0
102
RTVSPost2010PropOp57
 70
     1
  0
XRECORD
  5
4E3
102
{ACAD_REACTORS
330
4E2
102
}
330
4E2
100
AcDbXrecord
280
     1
102
RTVSPropertyOp0
 70
     1
102
RTVSPropertyOp1
 70
     1
102
RTVSPropertyOp2
 70
     1
102
RTVSPropertyOp3
 70
     1
102
RTVSPropertyOp4
 70
     1
102
RTVSPropertyOp5
 70
     1
102
RTVSPropertyOp6
 70
     1
102
RTVSPropertyOp7
 70
     1
102
RTVSPropertyOp8
 70
     1
102
RTVSPropertyOp9
 70
     1
102
RTVSPropertyOp10
 70
     1
102
RTVSPropertyOp11
 70
     1
102
RTVSPropertyOp12
 70
     1
102
RTVSPropertyOp13
 70
     1
102
RTVSPropertyOp14
 70
     1
102
RTVSPropertyOp15
 70
     1
102
RTVSPropertyOp16
 70
     1
102
RTVSPropertyOp17
 70
     1
102
RTVSPropertyOp18
 70
     1
102
RTVSPropertyOp19
 70
     1
102
RTVSPropertyOp20
 70
     1
102
RTVSPropertyOp21
 70
     1
102
RTVSPropertyOp22
 70
     1
102
RTVSPropertyOp23
 70
     1
102
RTVSPropertyOp24
 70
     1
102
RTVSPropertyOp25
 70
     1
102
RTVSPropertyOp26
 70
     1
102
RTVSPropertyOp27
 70
     1
102
RTVSPropertyOp28
 70
     1
102
RTVSPropertyOp29
 70
     1
102
RTVSPropertyOp30
 70
     1
102
RTVSPropertyOp31
 70
     1
102
RTVSPropertyOp32
 70
     1
102
RTVSPropertyOp33
 70
     1
102
RTVSPropertyOp34
 70
     1
102
RTVSPropertyOp35
 70
     1
102
RTVSPropertyOp36
 70
     1
102
RTVSPropertyOp37
 70
     1
102
RTVSPropertyOp38
 70
     1
102
RTVSPropertyOp39
 70
     1
102
RTVSPropertyOp40
 70
     1
102
RTVSPropertyOp41
 70
     1
102
RTVSPropertyOp42
 70
     1
102
RTVSPropertyOp43
 70
     1
102
RTVSPropertyOp44
 70
     1
102
RTVSPropertyOp45
 70
     1
102
RTVSPropertyOp46
 70
     1
102
RTVSPropertyOp47
 70
     1
102
RTVSPropertyOp48
 70
     1
102
RTVSPropertyOp49
 70
     1
102
RTVSPropertyOp50
 70
     1
102
RTVSPropertyOp51
 70
     0
102
RTVSPropertyOp52
 70
     0
102
RTVSPropertyOp53
 70
     1
102
RTVSPropertyOp54
 70
     1
102
RTVSPropertyOp55
 70
     1
102
RTVSPropertyOp56
 70
     1
102
RTVSPropertyOp57
 70
     1
102
RTVSPost2010Prop28
280
     0
102
RTVSPost2010PropOp28
 70
     1
102
RTVSPost2010Prop29
280
     1
102
RTVSPost2010PropOp29
 70
     1
102
RTVSPost2010Prop30
280
     1
102
RTVSPost2010PropOp30
 70
     1
102
RTVSPost2010Prop31
280
     0
102
RTVSPost2010PropOp31
 70
     1
102
RTVSPost2010Prop32
280
     0
102
RTVSPost2010PropOp32
 70
     1
102
RTVSPost2010Prop33
280
     0
102
RTVSPost2010PropOp33
 70
     1
102
RTVSPost2010Prop34
280
     0
102
RTVSPost2010PropOp34
 70
     1
102
RTVSPost2010Prop35
280
     0
102
RTVSPost2010PropOp35
 70
     1
102
RTVSPost2010Prop36
280
     0
102
RTVSPost2010PropOp36
 70
     1
102
RTVSPost2010Prop37
 90
       50
102
RTVSPost2010PropOp37
 70
     1
102
RTVSPost2010Prop38
140
0.0
102
RTVSPost2010PropOp38
 70
     1
102
RTVSPost2010Prop39
140
1.0
102
RTVSPost2010PropOp39
 70
     1
102
RTVSPost2010Prop40
 90
        0
102
RTVSPost2010PropOp40
 70
     1
102
RTVSPost2010Prop41ColorIndex
 90
       18
102
RTVSPost2010Prop41ColorRGB
 90
        0
102
RTVSPost2010PropOp41
 70
     1
102
RTVSPost2010Prop42
 90
       50
102
RTVSPost2010PropOp42
 70
     1
102
RTVSPost2010Prop43
 90
        3
102
RTVSPost2010PropOp43
 70
     1
102
RTVSPost2010Prop44ColorIndex
 90
        5
102
RTVSPost2010Prop44ColorRGB
 90
      255
102
RTVSPost2010PropOp44
 70
     1
102
RTVSPost2010Prop45
280
     0
102
RTVSPost2010PropOp45
 70
     1
102
RTVSPost2010Prop46
 90
       50
102
RTVSPost2010PropOp46
 70
     1
102
RTVSPost2010Prop47
 90
       50
102
RTVSPost2010PropOp47
 70
     1
102
RTVSPost2010Prop48
 90
       50
102
RTVSPost2010PropOp48
 70
     1
102
RTVSPost2010Prop49
280
     0
102
RTVSPost2010PropOp49
 70
     1
102
RTVSPost2010Prop50
 90
       50
102
RTVSPost2010PropOp50
 70
     1
102
RTVSPost2010Prop51ColorIndex
 90
      256
102
RTVSPost2010Prop51ColorRGB
 90
-16777216
102
RTVSPost2010PropOp51
 70
     0
102
RTVSPost2010Prop52
140
1.0
102
RTVSPost2010PropOp52
 70
     0
102
RTVSPost2010Prop53
 90
        2
102
RTVSPost2010PropOp53
 70
     1
102
RTVSPost2010Prop54
  1
strokes_ogs.tif
102
RTVSPost2010PropOp54
 70
     1
102
RTVSPost2010Prop55
280
     0
102
RTVSPost2010PropOp55
 70
     1
102
RTVSPost2010Prop56
140
1.0
102
RTVSPost2010PropOp56
 70
     1
102
RTVSPost2010Prop57
140
1.0
102
RTVSPost2010PropOp57
 70
     1
  0
XRECORD
  5
4DD
102
{ACAD_REACTORS
330
4DC
102
}
330
4DC
100
AcDbXrecord
280
     1
102
RTVSPropertyOp0
 70
     1
102
RTVSPropertyOp1
 70
     1
102
RTVSPropertyOp2
 70
     1
102
RTVSPropertyOp3
 70
     1
102
RTVSPropertyOp4
 70
     1
102
RTVSPropertyOp5
 70
     1
102
RTVSPropertyOp6
 70
     1
102
RTVSPropertyOp7
 70
     1
102
RTVSPropertyOp8
 70
     1
102
RTVSPropertyOp9
 70
     1
102
RTVSPropertyOp10
 70
     1
102
RTVSPropertyOp11
 70
     1
102
RTVSPropertyOp12
 70
     1
102
RTVSPropertyOp13
 70
     1
102
RTVSPropertyOp14
 70
     1
102
RTVSPropertyOp15
 70
     1
102
RTVSPropertyOp16
 70
     1
102
RTVSPropertyOp17
 70
     1
102
RTVSPropertyOp18
 70
     1
102
RTVSPropertyOp19
 70
     1
102
RTVSPropertyOp20
 70
     1
102
RTVSPropertyOp21
 70
     1
102
RTVSPropertyOp22
 70
     1
102
RTVSPropertyOp23
 70
     1
102
RTVSPropertyOp24
 70
     1
102
RTVSPropertyOp25
 70
     1
102
RTVSPropertyOp26
 70
     1
102
RTVSPropertyOp27
 70
     1
102
RTVSPropertyOp28
 70
     1
102
RTVSPropertyOp29
 70
     1
102
RTVSPropertyOp30
 70
     1
102
RTVSPropertyOp31
 70
     1
102
RTVSPropertyOp32
 70
     1
102
RTVSPropertyOp33
 70
     1
102
RTVSPropertyOp34
 70
     1
102
RTVSPropertyOp35
 70
     1
102
RTVSPropertyOp36
 70
     1
102
RTVSPropertyOp37
 70
     1
102
RTVSPropertyOp38
 70
     1
102
RTVSPropertyOp39
 70
     1
102
RTVSPropertyOp40
 70
     1
102
RTVSPropertyOp41
 70
     1
102
RTVSPropertyOp42
 70
     1
102
RTVSPropertyOp43
 70
     1
102
RTVSPropertyOp44
 70
     1
102
RTVSPropertyOp45
 70
     1
102
RTVSPropertyOp46
 70
     1
102
RTVSPropertyOp47
 70
     1
102
RTVSPropertyOp48
 70
     1
102
RTVSPropertyOp49
 70
     1
102
RTVSPropertyOp50
 70
     1
102
RTVSPropertyOp51
 70
     0
102
RTVSPropertyOp52
 70
     0
102
RTVSPropertyOp53
 70
     1
102
RTVSPropertyOp54
 70
     1
102
RTVSPropertyOp55
 70
     1
102
RTVSPropertyOp56
 70
     1
102
RTVSPropertyOp57
 70
     1
102
RTVSPost2010Prop28
280
     0
102
RTVSPost2010PropOp28
 70
     1
102
RTVSPost2010Prop29
280
     1
102
RTVSPost2010PropOp29
 70
     1
102
RTVSPost2010Prop30
280
     1
102
RTVSPost2010PropOp30
 70
     1
102
RTVSPost2010Prop31
280
     0
102
RTVSPost2010PropOp31
 70
     1
102
RTVSPost2010Prop32
280
     0
102
RTVSPost2010PropOp32
 70
     1
102
RTVSPost2010Prop33
280
     0
102
RTVSPost2010PropOp33
 70
     1
102
RTVSPost2010Prop34
280
     0
102
RTVSPost2010PropOp34
 70
     1
102
RTVSPost2010Prop35
280
     0
102
RTVSPost2010PropOp35
 70
     1
102
RTVSPost2010Prop36
280
     0
102
RTVSPost2010PropOp36
 70
     1
102
RTVSPost2010Prop37
 90
       50
102
RTVSPost2010PropOp37
 70
     1
102
RTVSPost2010Prop38
140
0.0
102
RTVSPost2010PropOp38
 70
     1
102
RTVSPost2010Prop39
140
1.0
102
RTVSPost2010PropOp39
 70
     1
102
RTVSPost2010Prop40
 90
        0
102
RTVSPost2010PropOp40
 70
     1
102
RTVSPost2010Prop41ColorIndex
 90
       18
102
RTVSPost2010Prop41ColorRGB
 90
        0
102
RTVSPost2010PropOp41
 70
     1
102
RTVSPost2010Prop42
 90
       50
102
RTVSPost2010PropOp42
 70
     1
102
RTVSPost2010Prop43
 90
        3
102
RTVSPost2010PropOp43
 70
     1
102
RTVSPost2010Prop44ColorIndex
 90
        5
102
RTVSPost2010Prop44ColorRGB
 90
      255
102
RTVSPost2010PropOp44
 70
     1
102
RTVSPost2010Prop45
280
     0
102
RTVSPost2010PropOp45
 70
     1
102
RTVSPost2010Prop46
 90
       50
102
RTVSPost2010PropOp46
 70
     1
102
RTVSPost2010Prop47
 90
       50
102
RTVSPost2010PropOp47
 70
     1
102
RTVSPost2010Prop48
 90
       50
102
RTVSPost2010PropOp48
 70
     1
102
RTVSPost2010Prop49
280
     0
102
RTVSPost2010PropOp49
 70
     1
102
RTVSPost2010Prop50
 90
       50
102
RTVSPost2010PropOp50
 70
     1
102
RTVSPost2010Prop51ColorIndex
 90
      256
102
RTVSPost2010Prop51ColorRGB
 90
-16777216
102
RTVSPost2010PropOp51
 70
     0
102
RTVSPost2010Prop52
140
1.0
102
RTVSPost2010PropOp52
 70
     0
102
RTVSPost2010Prop53
 90
        2
102
RTVSPost2010PropOp53
 70
     1
102
RTVSPost2010Prop54
  1
strokes_ogs.tif
102
RTVSPost2010PropOp54
 70
     1
102
RTVSPost2010Prop55
280
     0
102
RTVSPost2010PropOp55
 70
     1
102
RTVSPost2010Prop56
140
1.0
102
RTVSPost2010PropOp56
 70
     1
102
RTVSPost2010Prop57
140
1.0
102
RTVSPost2010PropOp57
 70
     1
  0
XRECORD
  5
4DF
102
{ACAD_REACTORS
330
4DE
102
}
330
4DE
100
AcDbXrecord
280
     1
102
RTVSPropertyOp0
 70
     1
102
RTVSPropertyOp1
 70
     1
102
RTVSPropertyOp2
 70
     1
102
RTVSPropertyOp3
 70
     1
102
RTVSPropertyOp4
 70
     1
102
RTVSPropertyOp5
 70
     1
102
RTVSPropertyOp6
 70
     1
102
RTVSPropertyOp7
 70
     1
102
RTVSPropertyOp8
 70
     1
102
RTVSPropertyOp9
 70
     1
102
RTVSPropertyOp10
 70
     1
102
RTVSPropertyOp11
 70
     1
102
RTVSPropertyOp12
 70
     1
102
RTVSPropertyOp13
 70
     1
102
RTVSPropertyOp14
 70
     1
102
RTVSPropertyOp15
 70
     1
102
RTVSPropertyOp16
 70
     1
102
RTVSPropertyOp17
 70
     1
102
RTVSPropertyOp18
 70
     1
102
RTVSPropertyOp19
 70
     1
102
RTVSPropertyOp20
 70
     1
102
RTVSPropertyOp21
 70
     1
102
RTVSPropertyOp22
 70
     1
102
RTVSPropertyOp23
 70
     1
102
RTVSPropertyOp24
 70
     1
102
RTVSPropertyOp25
 70
     1
102
RTVSPropertyOp26
 70
     1
102
RTVSPropertyOp27
 70
     1
102
RTVSPropertyOp28
 70
     1
102
RTVSPropertyOp29
 70
     1
102
RTVSPropertyOp30
 70
     1
102
RTVSPropertyOp31
 70
     1
102
RTVSPropertyOp32
 70
     1
102
RTVSPropertyOp33
 70
     1
102
RTVSPropertyOp34
 70
     1
102
RTVSPropertyOp35
 70
     1
102
RTVSPropertyOp36
 70
     1
102
RTVSPropertyOp37
 70
     1
102
RTVSPropertyOp38
 70
     1
102
RTVSPropertyOp39
 70
     1
102
RTVSPropertyOp40
 70
     1
102
RTVSPropertyOp41
 70
     1
102
RTVSPropertyOp42
 70
     1
102
RTVSPropertyOp43
 70
     1
102
RTVSPropertyOp44
 70
     1
102
RTVSPropertyOp45
 70
     1
102
RTVSPropertyOp46
 70
     1
102
RTVSPropertyOp47
 70
     1
102
RTVSPropertyOp48
 70
     1
102
RTVSPropertyOp49
 70
     1
102
RTVSPropertyOp50
 70
     1
102
RTVSPropertyOp51
 70
     0
102
RTVSPropertyOp52
 70
     0
102
RTVSPropertyOp53
 70
     1
102
RTVSPropertyOp54
 70
     1
102
RTVSPropertyOp55
 70
     1
102
RTVSPropertyOp56
 70
     1
102
RTVSPropertyOp57
 70
     1
102
RTVSPost2010Prop28
280
     0
102
RTVSPost2010PropOp28
 70
     1
102
RTVSPost2010Prop29
280
     1
102
RTVSPost2010PropOp29
 70
     1
102
RTVSPost2010Prop30
280
     1
102
RTVSPost2010PropOp30
 70
     1
102
RTVSPost2010Prop31
280
     0
102
RTVSPost2010PropOp31
 70
     1
102
RTVSPost2010Prop32
280
     0
102
RTVSPost2010PropOp32
 70
     1
102
RTVSPost2010Prop33
280
     0
102
RTVSPost2010PropOp33
 70
     1
102
RTVSPost2010Prop34
280
     0
102
RTVSPost2010PropOp34
 70
     1
102
RTVSPost2010Prop35
280
     0
102
RTVSPost2010PropOp35
 70
     1
102
RTVSPost2010Prop36
280
     0
102
RTVSPost2010PropOp36
 70
     1
102
RTVSPost2010Prop37
 90
       50
102
RTVSPost2010PropOp37
 70
     1
102
RTVSPost2010Prop38
140
0.0
102
RTVSPost2010PropOp38
 70
     1
102
RTVSPost2010Prop39
140
1.0
102
RTVSPost2010PropOp39
 70
     1
102
RTVSPost2010Prop40
 90
        0
102
RTVSPost2010PropOp40
 70
     1
102
RTVSPost2010Prop41ColorIndex
 90
       18
102
RTVSPost2010Prop41ColorRGB
 90
        0
102
RTVSPost2010PropOp41
 70
     1
102
RTVSPost2010Prop42
 90
       50
102
RTVSPost2010PropOp42
 70
     1
102
RTVSPost2010Prop43
 90
        3
102
RTVSPost2010PropOp43
 70
     1
102
RTVSPost2010Prop44ColorIndex
 90
        5
102
RTVSPost2010Prop44ColorRGB
 90
      255
102
RTVSPost2010PropOp44
 70
     1
102
RTVSPost2010Prop45
280
     0
102
RTVSPost2010PropOp45
 70
     1
102
RTVSPost2010Prop46
 90
       50
102
RTVSPost2010PropOp46
 70
     1
102
RTVSPost2010Prop47
 90
       50
102
RTVSPost2010PropOp47
 70
     1
102
RTVSPost2010Prop48
 90
       50
102
RTVSPost2010PropOp48
 70
     1
102
RTVSPost2010Prop49
280
     0
102
RTVSPost2010PropOp49
 70
     1
102
RTVSPost2010Prop50
 90
       50
102
RTVSPost2010PropOp50
 70
     1
102
RTVSPost2010Prop51ColorIndex
 90
      256
102
RTVSPost2010Prop51ColorRGB
 90
-16777216
102
RTVSPost2010PropOp51
 70
     0
102
RTVSPost2010Prop52
140
1.0
102
RTVSPost2010PropOp52
 70
     0
102
RTVSPost2010Prop53
 90
        2
102
RTVSPost2010PropOp53
 70
     1
102
RTVSPost2010Prop54
  1
strokes_ogs.tif
102
RTVSPost2010PropOp54
 70
     1
102
RTVSPost2010Prop55
280
     0
102
RTVSPost2010PropOp55
 70
     1
102
RTVSPost2010Prop56
140
1.0
102
RTVSPost2010PropOp56
 70
     1
102
RTVSPost2010Prop57
140
1.0
102
RTVSPost2010PropOp57
 70
     1
  0
XRECORD
  5
4CF
102
{ACAD_REACTORS
330
4CE
102
}
330
4CE
100
AcDbXrecord
280
     1
102
RTVSPropertyOp0
 70
     1
102
RTVSPropertyOp1
 70
     1
102
RTVSPropertyOp2
 70
     1
102
RTVSPropertyOp3
 70
     1
102
RTVSPropertyOp4
 70
     1
102
RTVSPropertyOp5
 70
     1
102
RTVSPropertyOp6
 70
     1
102
RTVSPropertyOp7
 70
     1
102
RTVSPropertyOp8
 70
     1
102
RTVSPropertyOp9
 70
     1
102
RTVSPropertyOp10
 70
     1
102
RTVSPropertyOp11
 70
     1
102
RTVSPropertyOp12
 70
     1
102
RTVSPropertyOp13
 70
     1
102
RTVSPropertyOp14
 70
     1
102
RTVSPropertyOp15
 70
     1
102
RTVSPropertyOp16
 70
     1
102
RTVSPropertyOp17
 70
     1
102
RTVSPropertyOp18
 70
     1
102
RTVSPropertyOp19
 70
     1
102
RTVSPropertyOp20
 70
     1
102
RTVSPropertyOp21
 70
     1
102
RTVSPropertyOp22
 70
     1
102
RTVSPropertyOp23
 70
     1
102
RTVSPropertyOp24
 70
     1
102
RTVSPropertyOp25
 70
     1
102
RTVSPropertyOp26
 70
     1
102
RTVSPropertyOp27
 70
     1
102
RTVSPropertyOp28
 70
     1
102
RTVSPropertyOp29
 70
     1
102
RTVSPropertyOp30
 70
     1
102
RTVSPropertyOp31
 70
     1
102
RTVSPropertyOp32
 70
     1
102
RTVSPropertyOp33
 70
     1
102
RTVSPropertyOp34
 70
     1
102
RTVSPropertyOp35
 70
     1
102
RTVSPropertyOp36
 70
     1
102
RTVSPropertyOp37
 70
     1
102
RTVSPropertyOp38
 70
     1
102
RTVSPropertyOp39
 70
     1
102
RTVSPropertyOp40
 70
     1
102
RTVSPropertyOp41
 70
     1
102
RTVSPropertyOp42
 70
     1
102
RTVSPropertyOp43
 70
     1
102
RTVSPropertyOp44
 70
     1
102
RTVSPropertyOp45
 70
     1
102
RTVSPropertyOp46
 70
     1
102
RTVSPropertyOp47
 70
     1
102
RTVSPropertyOp48
 70
     1
102
RTVSPropertyOp49
 70
     1
102
RTVSPropertyOp50
 70
     1
102
RTVSPropertyOp51
 70
     0
102
RTVSPropertyOp52
 70
     0
102
RTVSPropertyOp53
 70
     1
102
RTVSPropertyOp54
 70
     1
102
RTVSPropertyOp55
 70
     1
102
RTVSPropertyOp56
 70
     1
102
RTVSPropertyOp57
 70
     1
102
RTVSPost2010Prop28
280
     0
102
RTVSPost2010PropOp28
 70
     1
102
RTVSPost2010Prop29
280
     1
102
RTVSPost2010PropOp29
 70
     1
102
RTVSPost2010Prop30
280
     1
102
RTVSPost2010PropOp30
 70
     1
102
RTVSPost2010Prop31
280
     0
102
RTVSPost2010PropOp31
 70
     1
102
RTVSPost2010Prop32
280
     0
102
RTVSPost2010PropOp32
 70
     1
102
RTVSPost2010Prop33
280
     0
102
RTVSPost2010PropOp33
 70
     1
102
RTVSPost2010Prop34
280
     0
102
RTVSPost2010PropOp34
 70
     1
102
RTVSPost2010Prop35
280
     0
102
RTVSPost2010PropOp35
 70
     1
102
RTVSPost2010Prop36
280
     0
102
RTVSPost2010PropOp36
 70
     1
102
RTVSPost2010Prop37
 90
       50
102
RTVSPost2010PropOp37
 70
     1
102
RTVSPost2010Prop38
140
0.0
102
RTVSPost2010PropOp38
 70
     1
102
RTVSPost2010Prop39
140
1.0
102
RTVSPost2010PropOp39
 70
     1
102
RTVSPost2010Prop40
 90
        0
102
RTVSPost2010PropOp40
 70
     1
102
RTVSPost2010Prop41ColorIndex
 90
       18
102
RTVSPost2010Prop41ColorRGB
 90
        0
102
RTVSPost2010PropOp41
 70
     1
102
RTVSPost2010Prop42
 90
       50
102
RTVSPost2010PropOp42
 70
     1
102
RTVSPost2010Prop43
 90
        3
102
RTVSPost2010PropOp43
 70
     1
102
RTVSPost2010Prop44ColorIndex
 90
        5
102
RTVSPost2010Prop44ColorRGB
 90
      255
102
RTVSPost2010PropOp44
 70
     1
102
RTVSPost2010Prop45
280
     0
102
RTVSPost2010PropOp45
 70
     1
102
RTVSPost2010Prop46
 90
       50
102
RTVSPost2010PropOp46
 70
     1
102
RTVSPost2010Prop47
 90
       50
102
RTVSPost2010PropOp47
 70
     1
102
RTVSPost2010Prop48
 90
       50
102
RTVSPost2010PropOp48
 70
     1
102
RTVSPost2010Prop49
280
     0
102
RTVSPost2010PropOp49
 70
     1
102
RTVSPost2010Prop50
 90
       50
102
RTVSPost2010PropOp50
 70
     1
102
RTVSPost2010Prop51ColorIndex
 90
      256
102
RTVSPost2010Prop51ColorRGB
 90
-16777216
102
RTVSPost2010PropOp51
 70
     0
102
RTVSPost2010Prop52
140
1.0
102
RTVSPost2010PropOp52
 70
     0
102
RTVSPost2010Prop53
 90
        2
102
RTVSPost2010PropOp53
 70
     1
102
RTVSPost2010Prop54
  1
strokes_ogs.tif
102
RTVSPost2010PropOp54
 70
     1
102
RTVSPost2010Prop55
280
     0
102
RTVSPost2010PropOp55
 70
     1
102
RTVSPost2010Prop56
140
1.0
102
RTVSPost2010PropOp56
 70
     1
102
RTVSPost2010Prop57
140
1.0
102
RTVSPost2010PropOp57
 70
     1
  0
XRECORD
  5
4C1
102
{ACAD_REACTORS
330
4C0
102
}
330
4C0
100
AcDbXrecord
280
     1
102
RTVSPropertyOp0
 70
     1
102
RTVSPropertyOp1
 70
     1
102
RTVSPropertyOp2
 70
     1
102
RTVSPropertyOp3
 70
     1
102
RTVSPropertyOp4
 70
     1
102
RTVSPropertyOp5
 70
     1
102
RTVSPropertyOp6
 70
     1
102
RTVSPropertyOp7
 70
     1
102
RTVSPropertyOp8
 70
     1
102
RTVSPropertyOp9
 70
     1
102
RTVSPropertyOp10
 70
     1
102
RTVSPropertyOp11
 70
     1
102
RTVSPropertyOp12
 70
     1
102
RTVSPropertyOp13
 70
     1
102
RTVSPropertyOp14
 70
     1
102
RTVSPropertyOp15
 70
     1
102
RTVSPropertyOp16
 70
     1
102
RTVSPropertyOp17
 70
     1
102
RTVSPropertyOp18
 70
     1
102
RTVSPropertyOp19
 70
     1
102
RTVSPropertyOp20
 70
     1
102
RTVSPropertyOp21
 70
     1
102
RTVSPropertyOp22
 70
     1
102
RTVSPropertyOp23
 70
     1
102
RTVSPropertyOp24
 70
     1
102
RTVSPropertyOp25
 70
     1
102
RTVSPropertyOp26
 70
     1
102
RTVSPropertyOp27
 70
     1
102
RTVSPropertyOp28
 70
     1
102
RTVSPropertyOp29
 70
     1
102
RTVSPropertyOp30
 70
     1
102
RTVSPropertyOp31
 70
     1
102
RTVSPropertyOp32
 70
     1
102
RTVSPropertyOp33
 70
     1
102
RTVSPropertyOp34
 70
     1
102
RTVSPropertyOp35
 70
     1
102
RTVSPropertyOp36
 70
     1
102
RTVSPropertyOp37
 70
     1
102
RTVSPropertyOp38
 70
     1
102
RTVSPropertyOp39
 70
     1
102
RTVSPropertyOp40
 70
     1
102
RTVSPropertyOp41
 70
     1
102
RTVSPropertyOp42
 70
     1
102
RTVSPropertyOp43
 70
     1
102
RTVSPropertyOp44
 70
     1
102
RTVSPropertyOp45
 70
     1
102
RTVSPropertyOp46
 70
     1
102
RTVSPropertyOp47
 70
     1
102
RTVSPropertyOp48
 70
     1
102
RTVSPropertyOp49
 70
     1
102
RTVSPropertyOp50
 70
     1
102
RTVSPropertyOp51
 70
     0
102
RTVSPropertyOp52
 70
     0
102
RTVSPropertyOp53
 70
     1
102
RTVSPropertyOp54
 70
     1
102
RTVSPropertyOp55
 70
     1
102
RTVSPropertyOp56
 70
     1
102
RTVSPropertyOp57
 70
     1
102
RTVSPost2010Prop28
280
     0
102
RTVSPost2010PropOp28
 70
     1
102
RTVSPost2010Prop29
280
     1
102
RTVSPost2010PropOp29
 70
     1
102
RTVSPost2010Prop30
280
     1
102
RTVSPost2010PropOp30
 70
     1
102
RTVSPost2010Prop31
280
     0
102
RTVSPost2010PropOp31
 70
     1
102
RTVSPost2010Prop32
280
     0
102
RTVSPost2010PropOp32
 70
     1
102
RTVSPost2010Prop33
280
     0
102
RTVSPost2010PropOp33
 70
     1
102
RTVSPost2010Prop34
280
     0
102
RTVSPost2010PropOp34
 70
     1
102
RTVSPost2010Prop35
280
     0
102
RTVSPost2010PropOp35
 70
     1
102
RTVSPost2010Prop36
280
     0
102
RTVSPost2010PropOp36
 70
     1
102
RTVSPost2010Prop37
 90
       50
102
RTVSPost2010PropOp37
 70
     1
102
RTVSPost2010Prop38
140
0.0
102
RTVSPost2010PropOp38
 70
     1
102
RTVSPost2010Prop39
140
1.0
102
RTVSPost2010PropOp39
 70
     1
102
RTVSPost2010Prop40
 90
        0
102
RTVSPost2010PropOp40
 70
     1
102
RTVSPost2010Prop41ColorIndex
 90
       18
102
RTVSPost2010Prop41ColorRGB
 90
        0
102
RTVSPost2010PropOp41
 70
     1
102
RTVSPost2010Prop42
 90
       50
102
RTVSPost2010PropOp42
 70
     1
102
RTVSPost2010Prop43
 90
        3
102
RTVSPost2010PropOp43
 70
     1
102
RTVSPost2010Prop44ColorIndex
 90
        5
102
RTVSPost2010Prop44ColorRGB
 90
      255
102
RTVSPost2010PropOp44
 70
     1
102
RTVSPost2010Prop45
280
     0
102
RTVSPost2010PropOp45
 70
     1
102
RTVSPost2010Prop46
 90
       50
102
RTVSPost2010PropOp46
 70
     1
102
RTVSPost2010Prop47
 90
       50
102
RTVSPost2010PropOp47
 70
     1
102
RTVSPost2010Prop48
 90
       50
102
RTVSPost2010PropOp48
 70
     1
102
RTVSPost2010Prop49
280
     0
102
RTVSPost2010PropOp49
 70
     1
102
RTVSPost2010Prop50
 90
       50
102
RTVSPost2010PropOp50
 70
     1
102
RTVSPost2010Prop51ColorIndex
 90
      256
102
RTVSPost2010Prop51ColorRGB
 90
-16777216
102
RTVSPost2010PropOp51
 70
     0
102
RTVSPost2010Prop52
140
1.0
102
RTVSPost2010PropOp52
 70
     0
102
RTVSPost2010Prop53
 90
        2
102
RTVSPost2010PropOp53
 70
     1
102
RTVSPost2010Prop54
  1
strokes_ogs.tif
102
RTVSPost2010PropOp54
 70
     1
102
RTVSPost2010Prop55
280
     0
102
RTVSPost2010PropOp55
 70
     1
102
RTVSPost2010Prop56
140
1.0
102
RTVSPost2010PropOp56
 70
     1
102
RTVSPost2010Prop57
140
1.0
102
RTVSPost2010PropOp57
 70
     1
  0
XRECORD
  5
4E1
102
{ACAD_REACTORS
330
4E0
102
}
330
4E0
100
AcDbXrecord
280
     1
102
RTVSPropertyOp0
 70
     1
102
RTVSPropertyOp1
 70
     1
102
RTVSPropertyOp2
 70
     1
102
RTVSPropertyOp3
 70
     1
102
RTVSPropertyOp4
 70
     1
102
RTVSPropertyOp5
 70
     1
102
RTVSPropertyOp6
 70
     1
102
RTVSPropertyOp7
 70
     1
102
RTVSPropertyOp8
 70
     1
102
RTVSPropertyOp9
 70
     1
102
RTVSPropertyOp10
 70
     1
102
RTVSPropertyOp11
 70
     1
102
RTVSPropertyOp12
 70
     1
102
RTVSPropertyOp13
 70
     1
102
RTVSPropertyOp14
 70
     1
102
RTVSPropertyOp15
 70
     1
102
RTVSPropertyOp16
 70
     1
102
RTVSPropertyOp17
 70
     1
102
RTVSPropertyOp18
 70
     1
102
RTVSPropertyOp19
 70
     1
102
RTVSPropertyOp20
 70
     1
102
RTVSPropertyOp21
 70
     1
102
RTVSPropertyOp22
 70
     1
102
RTVSPropertyOp23
 70
     1
102
RTVSPropertyOp24
 70
     1
102
RTVSPropertyOp25
 70
     1
102
RTVSPropertyOp26
 70
     1
102
RTVSPropertyOp27
 70
     1
102
RTVSPropertyOp28
 70
     1
102
RTVSPropertyOp29
 70
     1
102
RTVSPropertyOp30
 70
     1
102
RTVSPropertyOp31
 70
     1
102
RTVSPropertyOp32
 70
     1
102
RTVSPropertyOp33
 70
     1
102
RTVSPropertyOp34
 70
     1
102
RTVSPropertyOp35
 70
     1
102
RTVSPropertyOp36
 70
     1
102
RTVSPropertyOp37
 70
     1
102
RTVSPropertyOp38
 70
     1
102
RTVSPropertyOp39
 70
     1
102
RTVSPropertyOp40
 70
     1
102
RTVSPropertyOp41
 70
     1
102
RTVSPropertyOp42
 70
     1
102
RTVSPropertyOp43
 70
     1
102
RTVSPropertyOp44
 70
     1
102
RTVSPropertyOp45
 70
     1
102
RTVSPropertyOp46
 70
     1
102
RTVSPropertyOp47
 70
     1
102
RTVSPropertyOp48
 70
     1
102
RTVSPropertyOp49
 70
     1
102
RTVSPropertyOp50
 70
     1
102
RTVSPropertyOp51
 70
     0
102
RTVSPropertyOp52
 70
     0
102
RTVSPropertyOp53
 70
     1
102
RTVSPropertyOp54
 70
     1
102
RTVSPropertyOp55
 70
     1
102
RTVSPropertyOp56
 70
     1
102
RTVSPropertyOp57
 70
     1
102
RTVSPost2010Prop28
280
     0
102
RTVSPost2010PropOp28
 70
     1
102
RTVSPost2010Prop29
280
     1
102
RTVSPost2010PropOp29
 70
     1
102
RTVSPost2010Prop30
280
     1
102
RTVSPost2010PropOp30
 70
     1
102
RTVSPost2010Prop31
280
     0
102
RTVSPost2010PropOp31
 70
     1
102
RTVSPost2010Prop32
280
     0
102
RTVSPost2010PropOp32
 70
     1
102
RTVSPost2010Prop33
280
     0
102
RTVSPost2010PropOp33
 70
     1
102
RTVSPost2010Prop34
280
     0
102
RTVSPost2010PropOp34
 70
     1
102
RTVSPost2010Prop35
280
     0
102
RTVSPost2010PropOp35
 70
     1
102
RTVSPost2010Prop36
280
     0
102
RTVSPost2010PropOp36
 70
     1
102
RTVSPost2010Prop37
 90
       50
102
RTVSPost2010PropOp37
 70
     1
102
RTVSPost2010Prop38
140
0.0
102
RTVSPost2010PropOp38
 70
     1
102
RTVSPost2010Prop39
140
1.0
102
RTVSPost2010PropOp39
 70
     1
102
RTVSPost2010Prop40
 90
        0
102
RTVSPost2010PropOp40
 70
     1
102
RTVSPost2010Prop41ColorIndex
 90
       18
102
RTVSPost2010Prop41ColorRGB
 90
        0
102
RTVSPost2010PropOp41
 70
     1
102
RTVSPost2010Prop42
 90
       50
102
RTVSPost2010PropOp42
 70
     1
102
RTVSPost2010Prop43
 90
        3
102
RTVSPost2010PropOp43
 70
     1
102
RTVSPost2010Prop44ColorIndex
 90
        5
102
RTVSPost2010Prop44ColorRGB
 90
      255
102
RTVSPost2010PropOp44
 70
     1
102
RTVSPost2010Prop45
280
     0
102
RTVSPost2010PropOp45
 70
     1
102
RTVSPost2010Prop46
 90
       50
102
RTVSPost2010PropOp46
 70
     1
102
RTVSPost2010Prop47
 90
       50
102
RTVSPost2010PropOp47
 70
     1
102
RTVSPost2010Prop48
 90
       50
102
RTVSPost2010PropOp48
 70
     1
102
RTVSPost2010Prop49
280
     0
102
RTVSPost2010PropOp49
 70
     1
102
RTVSPost2010Prop50
 90
       50
102
RTVSPost2010PropOp50
 70
     1
102
RTVSPost2010Prop51ColorIndex
 90
      256
102
RTVSPost2010Prop51ColorRGB
 90
-16777216
102
RTVSPost2010PropOp51
 70
     0
102
RTVSPost2010Prop52
140
1.0
102
RTVSPost2010PropOp52
 70
     0
102
RTVSPost2010Prop53
 90
        2
102
RTVSPost2010PropOp53
 70
     1
102
RTVSPost2010Prop54
  1
strokes_ogs.tif
102
RTVSPost2010PropOp54
 70
     1
102
RTVSPost2010Prop55
280
     0
102
RTVSPost2010PropOp55
 70
     1
102
RTVSPost2010Prop56
140
1.0
102
RTVSPost2010PropOp56
 70
     1
102
RTVSPost2010Prop57
140
1.0
102
RTVSPost2010PropOp57
 70
     1
  0
ENDSEC
  0
EOF
