  0
SECTION
  2
HEADER
  9
$ACADVER
  1
AC1015
  9
$ACADMAINTVER
 70
     6
  9
$DWGCODEPAGE
  3
ANSI_932
  9
$INSBASE
 10
0.0
 20
0.0
 30
0.0
  9
$EXTMIN
 10
-358.2389254295483
 20
-204.0553871586419
 30
0.0
  9
$EXTMAX
 10
441.7610745704517
 20
225.9446128413581
 30
0.0
  9
$LIMMIN
 10
-358.2389254295483
 20
-204.0553871586419
  9
$LIMMAX
 10
441.7610745704517
 20
225.9446128413581
  9
$ORTHOMODE
 70
     0
  9
$REGENMODE
 70
     1
  9
$FILLMODE
 70
     1
  9
$QTEXTMODE
 70
     0
  9
$MIRRTEXT
 70
     1
  9
$LTSCALE
 40
1.0
  9
$ATTMODE
 70
     1
  9
$TEXTSIZE
 40
2.5
  9
$TRACEWID
 40
1.0
  9
$TEXTSTYLE
  7
Standard
  9
$CLAYER
  8
0
  9
$CELTYPE
  6
ByLayer
  9
$CECOLOR
 62
   256
  9
$CELTSCALE
 40
1.0
  9
$DISPSILH
 70
     0
  9
$DIMSCALE
 40
1.0
  9
$DIMASZ
 40
2.5
  9
$DIMEXO
 40
0.625
  9
$DIMDLI
 40
3.75
  9
$DIMRND
 40
0.0
  9
$DIMDLE
 40
0.0
  9
$DIMEXE
 40
1.25
  9
$DIMTP
 40
0.0
  9
$DIMTM
 40
0.0
  9
$DIMTXT
 40
2.5
  9
$DIMCEN
 40
2.5
  9
$DIMTSZ
 40
0.0
  9
$DIMTOL
 70
     0
  9
$DIMLIM
 70
     0
  9
$DIMTIH
 70
     0
  9
$DIMTOH
 70
     0
  9
$DIMSE1
 70
     0
  9
$DIMSE2
 70
     0
  9
$DIMTAD
 70
     1
  9
$DIMZIN
 70
     8
  9
$DIMBLK
  1
Closed
  9
$DIMASO
 70
     1
  9
$DIMSHO
 70
     1
  9
$DIMPOST
  1

  9
$DIMAPOST
  1

  9
$DIMALT
 70
     0
  9
$DIMALTD
 70
     3
  9
$DIMALTF
 40
0.039370079
  9
$DIMLFAC
 40
1.0
  9
$DIMTOFL
 70
     1
  9
$DIMTVP
 40
0.0
  9
$DIMTIX
 70
     0
  9
$DIMSOXD
 70
     0
  9
$DIMSAH
 70
     0
  9
$DIMBLK1
  1

  9
$DIMBLK2
  1

  9
$DIMSTYLE
  2
DIMSTYLE_FULLSCALE
  9
$DIMCLRD
 70
     0
  9
$DIMCLRE
 70
     0
  9
$DIMCLRT
 70
     0
  9
$DIMTFAC
 40
1.0
  9
$DIMGAP
 40
0.625
  9
$DIMJUST
 70
     0
  9
$DIMSD1
 70
     0
  9
$DIMSD2
 70
     0
  9
$DIMTOLJ
 70
     0
  9
$DIMTZIN
 70
     8
  9
$DIMALTZ
 70
     0
  9
$DIMALTTZ
 70
     0
  9
$DIMUPT
 70
     0
  9
$DIMDEC
 70
     2
  9
$DIMTDEC
 70
     2
  9
$DIMALTU
 70
     2
  9
$DIMALTTD
 70
     3
  9
$DIMTXSTY
  7
Standard
  9
$DIMAUNIT
 70
     0
  9
$DIMADEC
 70
     0
  9
$DIMALTRND
 40
0.0
  9
$DIMAZIN
 70
     0
  9
$DIMDSEP
 70
    44
  9
$DIMATFIT
 70
     3
  9
$DIMFRAC
 70
     0
  9
$DIMLDRBLK
  1
Closed
  9
$DIMLUNIT
 70
     2
  9
$DIMLWD
 70
    -2
  9
$DIMLWE
 70
    -2
  9
$DIMTMOVE
 70
     0
  9
$LUNITS
 70
     2
  9
$LUPREC
 70
     4
  9
$SKETCHINC
 40
1.0
  9
$FILLETRAD
 40
10.0
  9
$AUNITS
 70
     0
  9
$AUPREC
 70
     0
  9
$MENU
  1
.
  9
$ELEVATION
 40
0.0
  9
$PELEVATION
 40
0.0
  9
$THICKNESS
 40
0.0
  9
$LIMCHECK
 70
     0
  9
$CHAMFERA
 40
0.0
  9
$CHAMFERB
 40
0.0
  9
$CHAMFERC
 40
0.0
  9
$CHAMFERD
 40
0.0
  9
$SKPOLY
 70
     0
  9
$TDCREATE
 40
2459079.57975066
  9
$TDUCREATE
 40
2459079.20475066
  9
$TDUPDATE
 40
2459079.579751018
  9
$TDUUPDATE
 40
2459079.204751018
  9
$TDINDWG
 40
0.0000000116
  9
$TDUSRTIMER
 40
0.0000000116
  9
$USRTIMER
 70
     1
  9
$ANGBASE
 50
0.0
  9
$ANGDIR
 70
     0
  9
$PDMODE
 70
     0
  9
$PDSIZE
 40
0.0
  9
$PLINEWID
 40
0.0
  9
$SPLFRAME
 70
     0
  9
$SPLINETYPE
 70
     6
  9
$SPLINESEGS
 70
     8
  9
$HANDSEED
  5
53F
  9
$SURFTAB1
 70
     6
  9
$SURFTAB2
 70
     6
  9
$SURFTYPE
 70
     6
  9
$SURFU
 70
     6
  9
$SURFV
 70
     6
  9
$UCSBASE
  2

  9
$UCSNAME
  2

  9
$UCSORG
 10
0.0
 20
0.0
 30
0.0
  9
$UCSXDIR
 10
1.0
 20
0.0
 30
0.0
  9
$UCSYDIR
 10
0.0
 20
1.0
 30
0.0
  9
$UCSORTHOREF
  2

  9
$UCSORTHOVIEW
 70
     0
  9
$UCSORGTOP
 10
0.0
 20
0.0
 30
0.0
  9
$UCSORGBOTTOM
 10
0.0
 20
0.0
 30
0.0
  9
$UCSORGLEFT
 10
0.0
 20
0.0
 30
0.0
  9
$UCSORGRIGHT
 10
0.0
 20
0.0
 30
0.0
  9
$UCSORGFRONT
 10
0.0
 20
0.0
 30
0.0
  9
$UCSORGBACK
 10
0.0
 20
0.0
 30
0.0
  9
$PUCSBASE
  2

  9
$PUCSNAME
  2

  9
$PUCSORG
 10
0.0
 20
0.0
 30
0.0
  9
$PUCSXDIR
 10
1.0
 20
0.0
 30
0.0
  9
$PUCSYDIR
 10
0.0
 20
1.0
 30
0.0
  9
$PUCSORTHOREF
  2

  9
$PUCSORTHOVIEW
 70
     0
  9
$PUCSORGTOP
 10
0.0
 20
0.0
 30
0.0
  9
$PUCSORGBOTTOM
 10
0.0
 20
0.0
 30
0.0
  9
$PUCSORGLEFT
 10
0.0
 20
0.0
 30
0.0
  9
$PUCSORGRIGHT
 10
0.0
 20
0.0
 30
0.0
  9
$PUCSORGFRONT
 10
0.0
 20
0.0
 30
0.0
  9
$PUCSORGBACK
 10
0.0
 20
0.0
 30
0.0
  9
$USERI1
 70
     0
  9
$USERI2
 70
     0
  9
$USERI3
 70
     0
  9
$USERI4
 70
     0
  9
$USERI5
 70
     0
  9
$USERR1
 40
0.0
  9
$USERR2
 40
0.0
  9
$USERR3
 40
0.0
  9
$USERR4
 40
0.0
  9
$USERR5
 40
0.0
  9
$WORLDVIEW
 70
     1
  9
$SHADEDGE
 70
     3
  9
$SHADEDIF
 70
    70
  9
$TILEMODE
 70
     1
  9
$MAXACTVP
 70
    64
  9
$PINSBASE
 10
0.0
 20
0.0
 30
0.0
  9
$PLIMCHECK
 70
     0
  9
$PEXTMIN
 10
1.000000000000000E+20
 20
1.000000000000000E+20
 30
1.000000000000000E+20
  9
$PEXTMAX
 10
-1.000000000000000E+20
 20
-1.000000000000000E+20
 30
-1.000000000000000E+20
  9
$PLIMMIN
 10
-358.2389254295483
 20
-204.0553871586419
  9
$PLIMMAX
 10
441.7610745704517
 20
225.9446128413581
  9
$UNITMODE
 70
     0
  9
$VISRETAIN
 70
     1
  9
$PLINEGEN
 70
     0
  9
$PSLTSCALE
 70
     1
  9
$TREEDEPTH
 70
  3020
  9
$CMLSTYLE
  2
Standard
  9
$CMLJUST
 70
     0
  9
$CMLSCALE
 40
20.0
  9
$PROXYGRAPHICS
 70
     1
  9
$MEASUREMENT
 70
     1
  9
$CELWEIGHT
370
    -1
  9
$ENDCAPS
280
     0
  9
$JOINSTYLE
280
     0
  9
$LWDISPLAY
290
     0
  9
$INSUNITS
 70
     4
  9
$HYPERLINKBASE
  1

  9
$STYLESHEET
  1

  9
$XEDIT
290
     1
  9
$CEPSNTYPE
380
     0
  9
$PSTYLEMODE
290
     1
  9
$FINGERPRINTGUID
  2
{22080687-5787-4428-accf-19c2da463627}
  9
$VERSIONGUID
  2
{FAEB1C32-E019-11D5-929B-00C0DF256EC4}
  9
$EXTNAMES
290
     1
  9
$PSVPSCALE
 40
0.0
  9
$OLESTARTUP
290
     0
  0
ENDSEC
  0
SECTION
  2
CLASSES
  0
CLASS
  1
ACDBDICTIONARYWDFLT
  2
AcDbDictionaryWithDefault
  3
ObjectDBX Classes
 90
        0
280
     0
281
     0
  0
CLASS
  1
VISUALSTYLE
  2
AcDbVisualStyle
  3
ObjectDBX Classes
 90
     4095
280
     0
281
     0
  0
CLASS
  1
MATERIAL
  2
AcDbMaterial
  3
ObjectDBX Classes
 90
     1153
280
     0
281
     0
  0
CLASS
  1
SCALE
  2
AcDbScale
  3
ObjectDBX Classes
 90
     1153
280
     0
281
     0
  0
CLASS
  1
TABLESTYLE
  2
AcDbTableStyle
  3
ObjectDBX Classes
 90
     4095
280
     0
281
     0
  0
CLASS
  1
MLEADERSTYLE
  2
AcDbMLeaderStyle
  3
ACDB_MLEADERSTYLE_CLASS
 90
     4095
280
     0
281
     0
  0
CLASS
  1
SUN
  2
AcDbSun
  3
SCENEOE
 90
     1153
280
     0
281
     0
  0
CLASS
  1
DICTIONARYVAR
  2
AcDbDictionaryVar
  3
ObjectDBX Classes
 90
        0
280
     0
281
     0
  0
CLASS
  1
ACDBPLACEHOLDER
  2
AcDbPlaceHolder
  3
ObjectDBX Classes
 90
        0
280
     0
281
     0
  0
CLASS
  1
LAYOUT
  2
AcDbLayout
  3
ObjectDBX Classes
 90
        0
280
     0
281
     0
  0
ENDSEC
  0
SECTION
  2
TABLES
  0
TABLE
  2
VPORT
  5
8
102
{ACAD_XDICTIONARY
360
4FE
102
}
330
0
100
AcDbSymbolTable
 70
     1
  0
VPORT
  5
29
330
8
100
AcDbSymbolTableRecord
100
AcDbViewportTableRecord
  2
*Active
 70
     0
 10
0.0
 20
0.0
 11
1.0
 21
1.0
 12
344.1869158878504
 22
148.5
 13
0.0
 23
0.0
 14
10.0
 24
10.0
 15
10.0
 25
10.0
 16
0.0
 26
0.0
 36
1.0
 17
0.0
 27
0.0
 37
0.0
 40
297.0
 41
1.972972972850329
 42
50.0
 43
0.0
 44
0.0
 50
0.0
 51
0.0
 71
     0
 72
   100
 73
     1
 74
     3
 75
     0
 76
     0
 77
     0
 78
     0
281
     0
 65
     1
110
0.0
120
0.0
130
0.0
111
1.0
121
0.0
131
0.0
112
0.0
122
1.0
132
0.0
 79
     0
146
0.0
  0
ENDTAB
  0
TABLE
  2
LTYPE
  5
5
330
0
100
AcDbSymbolTable
 70
     5
  0
LTYPE
  5
14
330
5
100
AcDbSymbolTableRecord
100
AcDbLinetypeTableRecord
  2
ByBlock
 70
     0
  3

 72
    65
 73
     0
 40
0.0
  0
LTYPE
  5
15
330
5
100
AcDbSymbolTableRecord
100
AcDbLinetypeTableRecord
  2
ByLayer
 70
     0
  3

 72
    65
 73
     0
 40
0.0
  0
LTYPE
  5
16
330
5
100
AcDbSymbolTableRecord
100
AcDbLinetypeTableRecord
  2
Continuous
 70
     0
  3
Solid line
 72
    65
 73
     0
 40
0.0
  0
LTYPE
  5
6E
330
5
100
AcDbSymbolTableRecord
100
AcDbLinetypeTableRecord
  2
CONTINOUS
 70
     0
  3
______________________________
 72
    65
 73
     0
 40
0.0
  0
LTYPE
  5
6F
330
5
100
AcDbSymbolTableRecord
100
AcDbLinetypeTableRecord
  2
DASHED
 70
     0
  3
__ __ __ __ __ __ __ __ __ __ __ __ __ __ __ __
 72
    65
 73
     2
 40
4.5
 49
3.0
 74
     0
 49
-1.5
 74
     0
  0
LTYPE
  5
70
330
5
100
AcDbSymbolTableRecord
100
AcDbLinetypeTableRecord
  2
PHANTOM
 70
     0
  3
______  __  __  ______  __  __  _____
 72
    65
 73
     6
 40
15.0
 49
7.5
 74
     0
 49
-1.5
 74
     0
 49
1.5
 74
     0
 49
-1.5
 74
     0
 49
1.5
 74
     0
 49
-1.5
 74
     0
  0
LTYPE
  5
71
330
5
100
AcDbSymbolTableRecord
100
AcDbLinetypeTableRecord
  2
CENTER
 70
     0
  3
____ _ ____ _ ____ _ ____ _ ____ _ ____
 72
    65
 73
     4
 40
12.0
 49
7.5
 74
     0
 49
-1.5
 74
     0
 49
1.5
 74
     0
 49
-1.5
 74
     0
  0
ENDTAB
  0
TABLE
  2
LAYER
  5
2
330
0
100
AcDbSymbolTable
 70
     2
  0
LAYER
  5
10
330
2
100
AcDbSymbolTableRecord
100
AcDbLayerTableRecord
  2
0
 70
     0
 62
     7
  6
Continuous
370
    -3
390
F
  0
LAYER
  5
478
330
2
100
AcDbSymbolTableRecord
100
AcDbLayerTableRecord
  2
Defpoints
 70
     0
 62
     7
  6
Continuous
290
     0
370
    -3
390
F
  0
ENDTAB
  0
TABLE
  2
STYLE
  5
3
330
0
100
AcDbSymbolTable
 70
     1
  0
STYLE
  5
11
330
3
100
AcDbSymbolTableRecord
100
AcDbTextStyleTableRecord
  2
Standard
 70
     0
 40
0.0
 41
1.0
 50
0.0
 71
     0
 42
2.5
  3
ROMANS
  4
EXTFONT
  0
ENDTAB
  0
TABLE
  2
VIEW
  5
6
330
0
100
AcDbSymbolTable
 70
     0
  0
ENDTAB
  0
TABLE
  2
UCS
  5
7
330
0
100
AcDbSymbolTable
 70
     0
  0
ENDTAB
  0
TABLE
  2
APPID
  5
9
330
0
100
AcDbSymbolTable
 70
     7
  0
APPID
  5
12
330
9
100
AcDbSymbolTableRecord
100
AcDbRegAppTableRecord
  2
ACAD
 70
     0
  0
APPID
  5
458
330
9
100
AcDbSymbolTableRecord
100
AcDbRegAppTableRecord
  2
ACAD_DSTYLE_DIMJAG
 70
     0
  0
APPID
  5
500
330
9
100
AcDbSymbolTableRecord
100
AcDbRegAppTableRecord
  2
ACAD_DSTYLE_DIMJOGGED_JOGANGLE_SYMBOL
 70
     0
  0
APPID
  5
501
330
9
100
AcDbSymbolTableRecord
100
AcDbRegAppTableRecord
  2
ACAD_DSTYLE_DIM_LINETYPE
 70
     0
  0
APPID
  5
502
330
9
100
AcDbSymbolTableRecord
100
AcDbRegAppTableRecord
  2
ACAD_DSTYLE_DIM_EXT1_LINETYPE
 70
     0
  0
APPID
  5
503
330
9
100
AcDbSymbolTableRecord
100
AcDbRegAppTableRecord
  2
ACAD_DSTYLE_DIM_EXT2_LINETYPE
 70
     0
  0
APPID
  5
53C
330
9
100
AcDbSymbolTableRecord
100
AcDbRegAppTableRecord
  2
ACAD_MLEADERVER
 70
     0
  0
ENDTAB
  0
TABLE
  2
DIMSTYLE
  5
A
330
0
100
AcDbSymbolTable
 70
     2
100
AcDbDimStyleTable
  0
DIMSTYLE
105
27
330
A
100
AcDbSymbolTableRecord
100
AcDbDimStyleTableRecord
  2
ISO-25
 70
     0
 41
2.5
 42
0.625
 43
3.75
 44
1.25
 73
     0
 74
     0
 77
     1
 78
     8
140
2.5
141
2.5
143
0.03937007874016
147
0.625
171
     3
172
     1
178
     0
271
     2
272
     2
274
     3
278
    44
283
     0
284
     8
340
11
  0
DIMSTYLE
105
450
102
{ACAD_REACTORS
330
471
330
485
330
492
330
49F
330
4B2
330
4BF
330
4CC
330
4D9
330
4E6
102
}
330
A
100
AcDbSymbolTableRecord
100
AcDbDimStyleTableRecord
  2
DIMSTYLE_FULLSCALE
 70
     0
 41
2.5
 42
0.625
 43
3.75
 44
1.25
 73
     0
 74
     0
 77
     1
 78
     8
140
2.5
141
2.5
143
0.039370079
147
0.625
171
     3
172
     1
178
     0
271
     2
272
     2
274
     3
278
    44
283
     0
284
     8
340
11
341
451
342
451
1001
ACAD_DSTYLE_DIMJAG
1070
   388
1040
1.5
1001
ACAD_DSTYLE_DIMJOGGED_JOGANGLE_SYMBOL
1070
   384
1040
1.570796326794897
1001
ACAD_DSTYLE_DIM_LINETYPE
1070
   380
1005
14
1001
ACAD_DSTYLE_DIM_EXT1_LINETYPE
1070
   381
1005
14
1001
ACAD_DSTYLE_DIM_EXT2_LINETYPE
1070
   382
1005
14
  0
ENDTAB
  0
TABLE
  2
BLOCK_RECORD
  5
1
330
0
100
AcDbSymbolTable
 70
    18
  0
BLOCK_RECORD
  5
1F
330
1
100
AcDbSymbolTableRecord
100
AcDbBlockTableRecord
  2
*Model_Space
340
22
  0
BLOCK_RECORD
  5
1B
330
1
100
AcDbSymbolTableRecord
100
AcDbBlockTableRecord
  2
*Paper_Space
340
1E
  0
BLOCK_RECORD
  5
23
330
1
100
AcDbSymbolTableRecord
100
AcDbBlockTableRecord
  2
*Paper_Space0
340
26
  0
BLOCK_RECORD
  5
72
330
1
100
AcDbSymbolTableRecord
100
AcDbBlockTableRecord
  2
DTL0001
340
0
102
{BLKREFS
331
464
102
}
  0
BLOCK_RECORD
  5
75
330
1
100
AcDbSymbolTableRecord
100
AcDbBlockTableRecord
  2
DTL0002
340
0
102
{BLKREFS
331
465
102
}
  0
BLOCK_RECORD
  5
78
330
1
100
AcDbSymbolTableRecord
100
AcDbBlockTableRecord
  2
DTL0003
340
0
102
{BLKREFS
331
466
102
}
  0
BLOCK_RECORD
  5
7B
330
1
100
AcDbSymbolTableRecord
100
AcDbBlockTableRecord
  2
DTL0004
340
0
102
{BLKREFS
331
467
102
}
  0
BLOCK_RECORD
  5
451
330
1
100
AcDbSymbolTableRecord
100
AcDbBlockTableRecord
  2
_Closed
340
0
  0
BLOCK_RECORD
  5
468
330
1
100
AcDbSymbolTableRecord
100
AcDbBlockTableRecord
  2
SYM0001
340
0
102
{BLKREFS
331
46E
102
}
  0
BLOCK_RECORD
  5
472
330
1
100
AcDbSymbolTableRecord
100
AcDbBlockTableRecord
  2
_Open30
340
0
102
{BLKREFS
331
480
331
47F
331
48D
331
48C
331
49A
331
499
331
4BA
331
4B9
102
}
  0
BLOCK_RECORD
  5
479
330
1
100
AcDbSymbolTableRecord
100
AcDbBlockTableRecord
  2
*D8
340
0
  0
BLOCK_RECORD
  5
486
330
1
100
AcDbSymbolTableRecord
100
AcDbBlockTableRecord
  2
*D9
340
0
  0
BLOCK_RECORD
  5
493
330
1
100
AcDbSymbolTableRecord
100
AcDbBlockTableRecord
  2
*D10
340
0
  0
BLOCK_RECORD
  5
4A0
330
1
100
AcDbSymbolTableRecord
100
AcDbBlockTableRecord
  2
_Open
340
0
102
{BLKREFS
331
4AD
331
4AC
331
4C7
331
4C6
331
4D4
331
4D3
331
4E1
331
4E0
331
4ED
331
4EC
102
}
  0
BLOCK_RECORD
  5
4A6
330
1
100
AcDbSymbolTableRecord
100
AcDbBlockTableRecord
  2
*D12
340
0
  0
BLOCK_RECORD
  5
4B3
330
1
100
AcDbSymbolTableRecord
100
AcDbBlockTableRecord
  2
*D13
340
0
  0
BLOCK_RECORD
  5
4C0
330
1
100
AcDbSymbolTableRecord
100
AcDbBlockTableRecord
  2
*D14
340
0
  0
BLOCK_RECORD
  5
4CD
330
1
100
AcDbSymbolTableRecord
100
AcDbBlockTableRecord
  2
*D15
340
0
  0
BLOCK_RECORD
  5
4DA
330
1
100
AcDbSymbolTableRecord
100
AcDbBlockTableRecord
  2
*D16
340
0
  0
BLOCK_RECORD
  5
4E7
330
1
100
AcDbSymbolTableRecord
100
AcDbBlockTableRecord
  2
*D17
340
0
  0
ENDTAB
  0
ENDSEC
  0
SECTION
  2
BLOCKS
  0
BLOCK
  5
20
330
1F
100
AcDbEntity
  8
0
100
AcDbBlockBegin
  2
*Model_Space
 70
     0
 10
0.0
 20
0.0
 30
0.0
  3
*Model_Space
  1

  0
ENDBLK
  5
21
330
1F
100
AcDbEntity
  8
0
100
AcDbBlockEnd
  0
BLOCK
  5
1C
330
1B
100
AcDbEntity
 67
     1
  8
0
100
AcDbBlockBegin
  2
*Paper_Space
 70
     0
 10
0.0
 20
0.0
 30
0.0
  3
*Paper_Space
  1

  0
ENDBLK
  5
1D
330
1B
100
AcDbEntity
 67
     1
  8
0
100
AcDbBlockEnd
  0
BLOCK
  5
24
330
23
100
AcDbEntity
  8
0
100
AcDbBlockBegin
  2
*Paper_Space0
 70
     0
 10
0.0
 20
0.0
 30
0.0
  3
*Paper_Space0
  1

  0
ENDBLK
  5
25
330
23
100
AcDbEntity
  8
0
100
AcDbBlockEnd
  0
BLOCK
  5
73
330
72
100
AcDbEntity
  8
0
100
AcDbBlockBegin
  2
DTL0001
 70
     0
 10
0.0
 20
0.0
 30
0.0
  3
DTL0001
  1

  0
POINT
  5
7E
330
72
100
AcDbEntity
  8
0
 62
     0
100
AcDbPoint
 10
0.0
 20
0.0
 30
0.0
  0
LINE
  5
7F
330
72
100
AcDbEntity
  8
0
  6
Continuous
 62
     0
100
AcDbLine
 10
-92.0
 20
29.00000381469727
 30
0.0
 11
-99.5
 21
29.00000381469727
 31
0.0
  0
LINE
  5
80
330
72
100
AcDbEntity
  8
0
  6
Continuous
 62
     0
100
AcDbLine
 10
-92.0
 20
19.00000381469727
 30
0.0
 11
-99.5
 21
19.00000381469727
 31
0.0
  0
LINE
  5
81
330
72
100
AcDbEntity
  8
0
  6
Continuous
 62
     0
100
AcDbLine
 10
-99.5
 20
29.00000381469727
 30
0.0
 11
-99.5
 21
19.00000381469727
 31
0.0
  0
LINE
  5
82
330
72
100
AcDbEntity
  8
0
  6
Continuous
 62
     0
100
AcDbLine
 10
-92.0
 20
-19.0
 30
0.0
 11
-99.5
 21
-19.0
 31
0.0
  0
LINE
  5
83
330
72
100
AcDbEntity
  8
0
  6
Continuous
 62
     0
100
AcDbLine
 10
-93.5
 20
-19.0
 30
0.0
 11
-93.5
 21
-29.0
 31
0.0
  0
LINE
  5
84
330
72
100
AcDbEntity
  8
0
  6
Continuous
 62
     0
100
AcDbLine
 10
-92.0
 20
-29.0
 30
0.0
 11
-99.5
 21
-29.0
 31
0.0
  0
LINE
  5
85
330
72
100
AcDbEntity
  8
0
  6
Continuous
 62
     0
100
AcDbLine
 10
-20.0
 20
-23.0
 30
0.0
 11
-20.0
 21
-34.99999237060547
 31
0.0
  0
LINE
  5
86
330
72
100
AcDbEntity
  8
0
  6
Continuous
 62
     0
100
AcDbLine
 10
20.0
 20
-23.0
 30
0.0
 11
20.0
 21
-34.99999237060547
 31
0.0
  0
LINE
  5
87
330
72
100
AcDbEntity
  8
0
  6
CENTER
 62
     4
100
AcDbLine
 10
-92.0
 20
24.00000381469727
 30
0.0
 11
-101.6597595214844
 21
24.00000381469727
 31
0.0
  0
LINE
  5
88
330
72
100
AcDbEntity
  8
0
  6
Continuous
 62
     0
100
AcDbLine
 10
-92.0
 20
-13.75488662719727
 30
0.0
 11
-92.0
 21
-30.00000762939453
 31
0.0
  0
LINE
  5
89
330
72
100
AcDbEntity
  8
0
  6
Continuous
 62
     0
100
AcDbLine
 10
-90.0
 20
13.75488662719727
 30
0.0
 11
-92.0
 21
13.75488662719727
 31
0.0
  0
LINE
  5
8A
330
72
100
AcDbEntity
  8
0
  6
Continuous
 62
     0
100
AcDbLine
 10
-90.0
 20
-13.75488662719727
 30
0.0
 11
-92.0
 21
-13.75488662719727
 31
0.0
  0
LINE
  5
8B
330
72
100
AcDbEntity
  8
0
  6
Continuous
 62
     0
100
AcDbLine
 10
-92.0
 20
30.00000381469727
 30
0.0
 11
-92.0
 21
13.75488662719727
 31
0.0
  0
LINE
  5
8C
330
72
100
AcDbEntity
  8
0
  6
Continuous
 62
     0
100
AcDbLine
 10
-84.00000762939453
 20
-30.00000762939453
 30
0.0
 11
-92.0
 21
-30.00000762939453
 31
0.0
  0
LINE
  5
8D
330
72
100
AcDbEntity
  8
0
  6
Continuous
 62
     0
100
AcDbLine
 10
-84.00000762939453
 20
30.0
 30
0.0
 11
-126.0
 21
30.0
 31
0.0
  0
LINE
  5
8E
330
72
100
AcDbEntity
  8
0
  6
Continuous
 62
     0
100
AcDbLine
 10
-99.5
 20
21.0
 30
0.0
 11
-126.0
 21
21.0
 31
0.0
  0
LINE
  5
8F
330
72
100
AcDbEntity
  8
0
  6
CENTER
 62
     4
100
AcDbLine
 10
-120.6112670898438
 20
25.50000762939453
 30
0.0
 11
-128.1275482177734
 21
25.50000762939453
 31
0.0
  0
LINE
  5
90
330
72
100
AcDbEntity
  8
0
  6
Continuous
 62
     0
100
AcDbLine
 10
-90.0
 20
-30.00000762939453
 30
0.0
 11
-90.0
 21
-30.74998474121094
 31
0.0
  0
LINE
  5
91
330
72
100
AcDbEntity
  8
0
  6
Continuous
 62
     0
100
AcDbLine
 10
-90.0
 20
21.51468658447266
 30
0.0
 11
-90.0
 21
-21.51468658447266
 31
0.0
  0
LINE
  5
92
330
72
100
AcDbEntity
  8
0
  6
Continuous
 62
     0
100
AcDbLine
 10
-99.5
 20
-26.14998626708984
 30
0.0
 11
-122.9999847412109
 21
-26.14998626708984
 31
0.0
  0
LINE
  5
93
330
72
100
AcDbEntity
  8
0
  6
Continuous
 62
     0
100
AcDbLine
 10
-90.0
 20
38.50000381469727
 30
0.0
 11
-90.0
 21
30.00000381469727
 31
0.0
  0
LINE
  5
94
330
72
100
AcDbEntity
  8
0
  6
Continuous
 62
     0
100
AcDbLine
 10
-122.9999847412109
 20
-26.14998626708984
 30
0.0
 11
-122.9999847412109
 21
21.0
 31
0.0
  0
LINE
  5
95
330
72
100
AcDbEntity
  8
0
  6
Continuous
 62
     0
100
AcDbLine
 10
-93.5
 20
29.00000381469727
 30
0.0
 11
-93.5
 21
19.00000381469727
 31
0.0
  0
LINE
  5
96
330
72
100
AcDbEntity
  8
0
  6
Continuous
 62
     0
100
AcDbLine
 10
-126.0
 20
30.0
 30
0.0
 11
-126.0
 21
21.0
 31
0.0
  0
LINE
  5
97
330
72
100
AcDbEntity
  8
0
  6
Continuous
 62
     0
100
AcDbLine
 10
-84.00000762939453
 20
38.49999618530273
 30
0.0
 11
-84.00000762939453
 21
-30.74999237060547
 31
0.0
  0
LINE
  5
98
330
72
100
AcDbEntity
  8
0
  6
Continuous
 62
     0
100
AcDbLine
 10
71.99999237060547
 20
-18.43908625033314
 30
0.0
 11
71.99999237060547
 21
-30.74998474121094
 31
0.0
  0
LINE
  5
99
330
72
100
AcDbEntity
  8
0
  6
Continuous
 62
     0
100
AcDbLine
 10
90.0
 20
-30.74998474121094
 30
0.0
 11
71.99999237060547
 21
-30.74998474121094
 31
0.0
  0
LINE
  5
9A
330
72
100
AcDbEntity
  8
0
  6
Continuous
 62
     0
100
AcDbLine
 10
84.00000762939453
 20
30.75
 30
0.0
 11
71.99999237060547
 21
30.75
 31
0.0
  0
LINE
  5
9B
330
72
100
AcDbEntity
  8
0
  6
Continuous
 62
     0
100
AcDbLine
 10
71.99999237060547
 20
30.75
 30
0.0
 11
71.99999237060547
 21
18.4391015091222
 31
0.0
  0
LINE
  5
9C
330
72
100
AcDbEntity
  8
0
  6
Continuous
 62
     0
100
AcDbLine
 10
-71.99999237060547
 20
-18.43908625033314
 30
0.0
 11
-71.99999237060547
 21
-30.74998474121094
 31
0.0
  0
LINE
  5
9D
330
72
100
AcDbEntity
  8
0
  6
Continuous
 62
     0
100
AcDbLine
 10
-90.0
 20
-30.74998474121094
 30
0.0
 11
-71.99999237060547
 21
-30.74998474121094
 31
0.0
  0
LINE
  5
9E
330
72
100
AcDbEntity
  8
0
  6
Continuous
 62
     0
100
AcDbLine
 10
-84.00000762939453
 20
30.75
 30
0.0
 11
-71.99999237060547
 21
30.75
 31
0.0
  0
LINE
  5
9F
330
72
100
AcDbEntity
  8
0
  6
Continuous
 62
     0
100
AcDbLine
 10
-71.99999237060547
 20
30.75
 30
0.0
 11
-71.99999237060547
 21
18.4391015091222
 31
0.0
  0
LINE
  5
A0
330
72
100
AcDbEntity
  8
0
  6
Continuous
 62
     0
100
AcDbLine
 10
75.99999237060547
 20
-30.74998474121094
 30
0.0
 11
75.99999237060547
 21
-34.99999237060547
 31
0.0
  0
LINE
  5
A1
330
72
100
AcDbEntity
  8
0
  6
Continuous
 62
     0
100
AcDbLine
 10
-75.99999237060547
 20
-30.74998474121094
 30
0.0
 11
-75.99999237060547
 21
-34.99999237060547
 31
0.0
  0
LINE
  5
A2
330
72
100
AcDbEntity
  8
0
  6
Continuous
 62
     0
100
AcDbLine
 10
10.0
 20
-24.99999237060547
 30
0.0
 11
20.0
 21
-24.99999237060547
 31
0.0
  0
LINE
  5
A3
330
72
100
AcDbEntity
  8
0
  6
Continuous
 62
     0
100
AcDbLine
 10
-20.0
 20
-24.99999237060547
 30
0.0
 11
-10.0
 21
-24.99999237060547
 31
0.0
  0
LINE
  5
A4
330
72
100
AcDbEntity
  8
0
  6
Continuous
 62
     0
100
AcDbLine
 10
40.0
 20
-23.0
 30
0.0
 11
40.0
 21
-34.99999237060547
 31
0.0
  0
LINE
  5
A5
330
72
100
AcDbEntity
  8
0
  6
Continuous
 62
     0
100
AcDbLine
 10
-40.0
 20
-23.0
 30
0.0
 11
-40.0
 21
-34.99999237060547
 31
0.0
  0
LINE
  5
A6
330
72
100
AcDbEntity
  8
0
  6
CENTER
 62
     4
100
AcDbLine
 10
-30.0
 20
-21.03604888916016
 30
0.0
 11
-30.0
 21
-36.0908203125
 31
0.0
  0
LINE
  5
A7
330
72
100
AcDbEntity
  8
0
  6
CENTER
 62
     4
100
AcDbLine
 10
30.0
 20
-20.80245208740234
 30
0.0
 11
30.0
 21
-36.0908203125
 31
0.0
  0
LINE
  5
A8
330
72
100
AcDbEntity
  8
0
  6
Continuous
 62
     0
100
AcDbLine
 10
40.0
 20
-26.99998474121094
 30
0.0
 11
71.99999237060547
 21
-26.99998474121094
 31
0.0
  0
LINE
  5
A9
330
72
100
AcDbEntity
  8
0
  6
Continuous
 62
     0
100
AcDbLine
 10
-10.0
 20
-26.99998474121094
 30
0.0
 11
10.0
 21
-26.99998474121094
 31
0.0
  0
LINE
  5
AA
330
72
100
AcDbEntity
  8
0
  6
Continuous
 62
     0
100
AcDbLine
 10
-71.99999237060547
 20
-26.99998474121094
 30
0.0
 11
-40.0
 21
-26.99998474121094
 31
0.0
  0
LINE
  5
AB
330
72
100
AcDbEntity
  8
0
  6
Continuous
 62
     0
100
AcDbLine
 10
20.0
 20
-23.0
 30
0.0
 11
40.0
 21
-23.0
 31
0.0
  0
LINE
  5
AC
330
72
100
AcDbEntity
  8
0
  6
Continuous
 62
     0
100
AcDbLine
 10
-10.0
 20
-24.99999237060547
 30
0.0
 11
-10.0
 21
-34.99999237060547
 31
0.0
  0
LINE
  5
AD
330
72
100
AcDbEntity
  8
0
  6
Continuous
 62
     0
100
AcDbLine
 10
10.0
 20
-24.99999237060547
 30
0.0
 11
10.0
 21
-34.99999237060547
 31
0.0
  0
LINE
  5
AE
330
72
100
AcDbEntity
  8
0
  6
Continuous
 62
     0
100
AcDbLine
 10
-40.0
 20
-23.0
 30
0.0
 11
-20.0
 21
-23.0
 31
0.0
  0
LINE
  5
AF
330
72
100
AcDbEntity
  8
0
  6
Continuous
 62
     0
100
AcDbLine
 10
25.99999618530273
 20
38.50000381469727
 30
0.0
 11
90.0
 21
38.50000381469727
 31
0.0
  0
LINE
  5
B0
330
72
100
AcDbEntity
  8
0
  6
Continuous
 62
     0
100
AcDbLine
 10
-90.0
 20
38.50000381469727
 30
0.0
 11
-26.0
 21
38.50000381469727
 31
0.0
  0
LINE
  5
B1
330
72
100
AcDbEntity
  8
0
  6
Continuous
 62
     0
100
AcDbLine
 10
-0.000001960488937
 20
30.50001022628343
 30
0.0
 11
26.00001009796465
 21
31.5000106975262
 31
0.0
  0
LINE
  5
B2
330
72
100
AcDbEntity
  8
0
  6
Continuous
 62
     0
100
AcDbLine
 10
-26.00001009796465
 20
31.5000106975262
 30
0.0
 11
0.00000076927679
 21
30.50001027209928
 31
0.0
  0
LINE
  5
B3
330
72
100
AcDbEntity
  8
0
  6
Continuous
 62
     0
100
AcDbLine
 10
-4.0
 20
30.65385645668009
 30
0.0
 11
-4.0
 21
21.63331528217847
 31
0.0
  0
LINE
  5
B4
330
72
100
AcDbEntity
  8
0
  6
Continuous
 62
     0
100
AcDbLine
 10
4.0
 20
30.65385645668009
 30
0.0
 11
4.0
 21
21.63331528217847
 31
0.0
  0
LINE
  5
B5
330
72
100
AcDbEntity
  8
0
  6
Continuous
 62
     0
100
AcDbLine
 10
-26.0
 20
43.50000762939453
 30
0.0
 11
-26.0
 21
31.50001335144043
 31
0.0
  0
LINE
  5
B6
330
72
100
AcDbEntity
  8
0
  6
Continuous
 62
     0
100
AcDbLine
 10
25.99999618530273
 20
43.50000762939453
 30
0.0
 11
25.99999618530273
 21
31.50001335144043
 31
0.0
  0
LINE
  5
B7
330
72
100
AcDbEntity
  8
0
  6
Continuous
 62
     0
100
AcDbLine
 10
11.4262809753418
 20
-18.79999542236328
 30
0.0
 11
48.5737190246582
 21
-18.79999542236328
 31
0.0
  0
LINE
  5
B8
330
72
100
AcDbEntity
  8
0
  6
Continuous
 62
     0
100
AcDbLine
 10
11.4262809753418
 20
18.80001068115234
 30
0.0
 11
48.5737190246582
 21
18.80001068115234
 31
0.0
  0
LINE
  5
B9
330
72
100
AcDbEntity
  8
0
  6
Continuous
 62
     0
100
AcDbLine
 10
-48.57371520996094
 20
-18.79999542236328
 30
0.0
 11
-11.4262809753418
 21
-18.79999542236328
 31
0.0
  0
LINE
  5
BA
330
72
100
AcDbEntity
  8
0
  6
Continuous
 62
     0
100
AcDbLine
 10
-48.57371520996094
 20
18.80001068115234
 30
0.0
 11
-11.4262809753418
 21
18.80001068115234
 31
0.0
  0
LINE
  5
BB
330
72
100
AcDbEntity
  8
0
  6
CENTER
 62
     4
100
AcDbLine
 10
-60.0
 20
22.00000762939453
 30
0.0
 11
-60.0
 21
-21.99999237060547
 31
0.0
  0
LINE
  5
BC
330
72
100
AcDbEntity
  8
0
  6
CENTER
 62
     4
100
AcDbLine
 10
60.0
 20
22.00000762939453
 30
0.0
 11
60.0
 21
-21.99999237060547
 31
0.0
  0
LINE
  5
BD
330
72
100
AcDbEntity
  8
0
  6
Continuous
 62
     0
100
AcDbLine
 10
-75.99999237060547
 20
-34.99999237060547
 30
0.0
 11
75.99999237060547
 21
-34.99999237060547
 31
0.0
  0
LINE
  5
BE
330
72
100
AcDbEntity
  8
0
  6
Continuous
 62
     0
100
AcDbLine
 10
84.00000762939453
 20
38.50000381469727
 30
0.0
 11
84.00000762939453
 21
-30.74998474121094
 31
0.0
  0
LINE
  5
BF
330
72
100
AcDbEntity
  8
0
  6
CENTER
 62
     4
100
AcDbLine
 10
0.0
 20
106.5185089111328
 30
0.0
 11
0.0
 21
-40.69802856445312
 31
0.0
  0
LINE
  5
C0
330
72
100
AcDbEntity
  8
0
  6
CENTER
 62
     4
100
AcDbLine
 10
-129.1099548339844
 20
0.0
 30
0.0
 11
131.1318054199219
 21
0.0
 31
0.0
  0
LINE
  5
C1
330
72
100
AcDbEntity
  8
0
  6
Continuous
 62
     0
100
AcDbLine
 10
-26.0
 20
39.50000762939453
 30
0.0
 11
25.99999618530273
 21
39.50000762939453
 31
0.0
  0
LINE
  5
C2
330
72
100
AcDbEntity
  8
0
  6
Continuous
 62
     0
100
AcDbLine
 10
-120.6428392670375
 20
30.00000126085074
 30
0.0
 11
-90.0
 21
36.50000142951374
 31
0.0
  0
LINE
  5
C3
330
72
100
AcDbEntity
  8
0
  6
Continuous
 62
     0
100
AcDbLine
 10
-99.5
 20
-19.0
 30
0.0
 11
-99.5
 21
-29.0
 31
0.0
  0
LINE
  5
C4
330
72
100
AcDbEntity
  8
0
  6
CENTER
 62
     4
100
AcDbLine
 10
-92.0
 20
-24.0
 30
0.0
 11
-101.6597595214844
 21
-24.0
 31
0.0
  0
LINE
  5
C5
330
72
100
AcDbEntity
  8
0
  6
Continuous
 62
     0
100
AcDbLine
 10
126.0000076293945
 20
30.0
 30
0.0
 11
126.0000076293945
 21
21.0
 31
0.0
  0
LINE
  5
C6
330
72
100
AcDbEntity
  8
0
  6
Continuous
 62
     0
100
AcDbLine
 10
90.0
 20
38.50000381469727
 30
0.0
 11
90.0
 21
30.0
 31
0.0
  0
LINE
  5
C7
330
72
100
AcDbEntity
  8
0
  6
Continuous
 62
     0
100
AcDbLine
 10
90.0
 20
-30.0
 30
0.0
 11
90.0
 21
-30.75
 31
0.0
  0
LINE
  5
C8
330
72
100
AcDbEntity
  8
0
  6
CENTER
 62
     4
100
AcDbLine
 10
122.9999923706055
 20
25.49998474121094
 30
0.0
 11
127.5803146362305
 21
25.49998474121094
 31
0.0
  0
LINE
  5
C9
330
72
100
AcDbEntity
  8
0
  6
Continuous
 62
     0
100
AcDbLine
 10
122.9999923706055
 20
21.0
 30
0.0
 11
126.0000076293945
 21
21.0
 31
0.0
  0
LINE
  5
CA
330
72
100
AcDbEntity
  8
0
  6
Continuous
 62
     0
100
AcDbLine
 10
120.7856979370117
 20
30.0
 30
0.0
 11
126.0000076293945
 21
30.0
 31
0.0
  0
LINE
  5
CB
330
72
100
AcDbEntity
  8
0
  6
Continuous
 62
     0
100
AcDbLine
 10
122.9999923706055
 20
29.49999488313596
 30
0.0
 11
122.9999923706055
 21
-26.14999389648438
 31
0.0
  0
LINE
  5
CC
330
72
100
AcDbEntity
  8
0
  6
Continuous
 62
     0
100
AcDbLine
 10
99.5
 20
-26.14999389648438
 30
0.0
 11
122.9999923706055
 21
-26.14999389648438
 31
0.0
  0
LINE
  5
CD
330
72
100
AcDbEntity
  8
0
  6
Continuous
 62
     0
100
AcDbLine
 10
99.5
 20
26.14999389648438
 30
0.0
 11
122.9999923706055
 21
26.14999389648438
 31
0.0
  0
LINE
  5
CE
330
72
100
AcDbEntity
  8
0
  6
Continuous
 62
     0
100
AcDbLine
 10
90.00000762939453
 20
21.51468658447266
 30
0.0
 11
90.00000762939453
 21
-21.51468658447266
 31
0.0
  0
LINE
  5
CF
330
72
100
AcDbEntity
  8
0
  6
Continuous
 62
     0
100
AcDbLine
 10
84.00000762939453
 20
-30.0
 30
0.0
 11
92.00000762939453
 21
-30.0
 31
0.0
  0
LINE
  5
D0
330
72
100
AcDbEntity
  8
0
  6
Continuous
 62
     0
100
AcDbLine
 10
90.00000762939453
 20
-13.75489807128906
 30
0.0
 11
92.00000762939453
 21
-13.75489807128906
 31
0.0
  0
LINE
  5
D1
330
72
100
AcDbEntity
  8
0
  6
Continuous
 62
     0
100
AcDbLine
 10
92.00000762939453
 20
-13.75489807128906
 30
0.0
 11
92.00000762939453
 21
-30.0
 31
0.0
  0
LINE
  5
D2
330
72
100
AcDbEntity
  8
0
  6
Continuous
 62
     0
100
AcDbLine
 10
84.00000762939453
 20
30.0
 30
0.0
 11
92.00000762939453
 21
30.0
 31
0.0
  0
LINE
  5
D3
330
72
100
AcDbEntity
  8
0
  6
Continuous
 62
     0
100
AcDbLine
 10
90.00000762939453
 20
13.75486755371094
 30
0.0
 11
92.00000762939453
 21
13.75486755371094
 31
0.0
  0
LINE
  5
D4
330
72
100
AcDbEntity
  8
0
  6
Continuous
 62
     0
100
AcDbLine
 10
92.00000762939453
 20
13.75486755371094
 30
0.0
 11
92.00000762939453
 21
30.0
 31
0.0
  0
LINE
  5
D5
330
72
100
AcDbEntity
  8
0
  6
Continuous
 62
     0
100
AcDbLine
 10
122.9999923706055
 20
29.49999488313598
 30
0.0
 11
90.0
 21
36.49999752993871
 31
0.0
  0
LINE
  5
D6
330
72
100
AcDbEntity
  8
0
  6
Continuous
 62
     0
100
AcDbLine
 10
92.00000762939453
 20
29.00000381469727
 30
0.0
 11
99.5
 21
29.00000381469727
 31
0.0
  0
LINE
  5
D7
330
72
100
AcDbEntity
  8
0
  6
CENTER
 62
     4
100
AcDbLine
 10
92.00000762939453
 20
-24.0
 30
0.0
 11
101.6597595214844
 21
-24.0
 31
0.0
  0
LINE
  5
D8
330
72
100
AcDbEntity
  8
0
  6
Continuous
 62
     0
100
AcDbLine
 10
99.5
 20
29.00000381469727
 30
0.0
 11
99.5
 21
19.00000381469727
 31
0.0
  0
LINE
  5
D9
330
72
100
AcDbEntity
  8
0
  6
Continuous
 62
     0
100
AcDbLine
 10
92.00000762939453
 20
19.00000381469727
 30
0.0
 11
99.5
 21
19.00000381469727
 31
0.0
  0
LINE
  5
DA
330
72
100
AcDbEntity
  8
0
  6
Continuous
 62
     0
100
AcDbLine
 10
93.5
 20
-19.0
 30
0.0
 11
93.5
 21
-29.0
 31
0.0
  0
LINE
  5
DB
330
72
100
AcDbEntity
  8
0
  6
Continuous
 62
     0
100
AcDbLine
 10
99.5
 20
-19.0
 30
0.0
 11
99.5
 21
-29.0
 31
0.0
  0
LINE
  5
DC
330
72
100
AcDbEntity
  8
0
  6
Continuous
 62
     0
100
AcDbLine
 10
92.00000762939453
 20
-29.0
 30
0.0
 11
99.5
 21
-29.0
 31
0.0
  0
LINE
  5
DD
330
72
100
AcDbEntity
  8
0
  6
Continuous
 62
     0
100
AcDbLine
 10
92.00000762939453
 20
-19.0
 30
0.0
 11
99.5
 21
-19.0
 31
0.0
  0
LINE
  5
DE
330
72
100
AcDbEntity
  8
0
  6
CENTER
 62
     4
100
AcDbLine
 10
92.00000762939453
 20
24.00000381469727
 30
0.0
 11
101.6597595214844
 21
24.00000381469727
 31
0.0
  0
LINE
  5
DF
330
72
100
AcDbEntity
  8
0
  6
Continuous
 62
     0
100
AcDbLine
 10
93.5
 20
29.00000381469727
 30
0.0
 11
93.5
 21
19.00000381469727
 31
0.0
  0
LINE
  5
E0
330
72
100
AcDbEntity
  8
0
  6
Continuous
 62
     0
100
AcDbLine
 10
-26.0
 20
43.50000762939453
 30
0.0
 11
-16.99999618530273
 21
43.50000762939453
 31
0.0
  0
LINE
  5
E1
330
72
100
AcDbEntity
  8
0
  6
CENTER
 62
     4
100
AcDbLine
 10
-21.99999618530273
 20
48.50000762939453
 30
0.0
 11
-21.99999618530273
 21
43.50000762939453
 31
0.0
  0
LINE
  5
E2
330
72
100
AcDbEntity
  8
0
  6
Continuous
 62
     0
100
AcDbLine
 10
-25.5
 20
44.50000762939453
 30
0.0
 11
-18.49999618530273
 21
44.50000762939453
 31
0.0
  0
LINE
  5
E3
330
72
100
AcDbEntity
  8
0
  6
Continuous
 62
     0
100
AcDbLine
 10
-25.5
 20
48.50000762939453
 30
0.0
 11
-25.5
 21
43.50000762939453
 31
0.0
  0
LINE
  5
E4
330
72
100
AcDbEntity
  8
0
  6
Continuous
 62
     0
100
AcDbLine
 10
-27.25
 20
47.49994659423828
 30
0.0
 11
-25.5
 21
47.49994659423828
 31
0.0
  0
LINE
  5
E5
330
72
100
AcDbEntity
  8
0
  6
Continuous
 62
     0
100
AcDbLine
 10
-27.99997211695595
 20
48.49988012313649
 30
0.0
 11
-27.24997218848151
 21
47.49988006949231
 31
0.0
  0
LINE
  5
E6
330
72
100
AcDbEntity
  8
0
  6
Continuous
 62
     0
100
AcDbLine
 10
-41.99998474121094
 20
48.50000762939453
 30
0.0
 11
-3.999996185302734
 21
48.50000762939453
 31
0.0
  0
LINE
  5
E7
330
72
100
AcDbEntity
  8
0
  6
Continuous
 62
     0
100
AcDbLine
 10
-18.49999618530273
 20
47.49994659423828
 30
0.0
 11
-8.74997329711914
 21
47.49994659423828
 31
0.0
  0
LINE
  5
E8
330
72
100
AcDbEntity
  8
0
  6
Continuous
 62
     0
100
AcDbLine
 10
-18.49999618530273
 20
48.50000762939453
 30
0.0
 11
-18.49999618530273
 21
43.50000762939453
 31
0.0
  0
LINE
  5
E9
330
72
100
AcDbEntity
  8
0
  6
Continuous
 62
     0
100
AcDbLine
 10
-18.49999206132777
 20
44.86364719353873
 30
0.0
 11
-3.999996185302735
 21
47.50000952108378
 31
0.0
  0
LINE
  5
EA
330
72
100
AcDbEntity
  8
0
  6
Continuous
 62
     0
100
AcDbLine
 10
-16.99999618530273
 20
45.13637365862442
 30
0.0
 11
-16.99999618530273
 21
43.50000762939453
 31
0.0
  0
LINE
  5
EB
330
72
100
AcDbEntity
  8
0
  6
Continuous
 62
     0
100
AcDbLine
 10
-8.7499802112645
 20
47.49993216991257
 30
0.0
 11
-7.999975538259772
 21
48.49993820190218
 31
0.0
  0
LINE
  5
EC
330
72
100
AcDbEntity
  8
0
  6
Continuous
 62
     0
100
AcDbLine
 10
-3.999996185302734
 20
100.5000076293945
 30
0.0
 11
-3.999996185302734
 21
47.50000952108378
 31
0.0
  0
LINE
  5
ED
330
72
100
AcDbEntity
  8
0
  6
CENTER
 62
     4
100
AcDbLine
 10
21.99999618530273
 20
48.50000762939453
 30
0.0
 11
21.99999618530273
 21
43.50000762939453
 31
0.0
  0
LINE
  5
EE
330
72
100
AcDbEntity
  8
0
  6
Continuous
 62
     0
100
AcDbLine
 10
25.49999618530273
 20
44.50000762939453
 30
0.0
 11
18.49999618530273
 21
44.50000762939453
 31
0.0
  0
LINE
  5
EF
330
72
100
AcDbEntity
  8
0
  6
Continuous
 62
     0
100
AcDbLine
 10
17.0
 20
43.50000762939453
 30
0.0
 11
25.99999618530273
 21
43.50000762939453
 31
0.0
  0
LINE
  5
F0
330
72
100
AcDbEntity
  8
0
  6
Continuous
 62
     0
100
AcDbLine
 10
17.0
 20
45.13637296504324
 30
0.0
 11
17.0
 21
43.50000762939453
 31
0.0
  0
LINE
  5
F1
330
72
100
AcDbEntity
  8
0
  6
Continuous
 62
     0
100
AcDbLine
 10
4.000003814697267
 20
47.50000813392143
 30
0.0
 11
18.49999769107659
 21
44.86364616994825
 31
0.0
  0
LINE
  5
F2
330
72
100
AcDbEntity
  8
0
  6
Continuous
 62
     0
100
AcDbLine
 10
18.49999618530273
 20
48.50000762939453
 30
0.0
 11
18.49999618530273
 21
43.50000762939453
 31
0.0
  0
LINE
  5
F3
330
72
100
AcDbEntity
  8
0
  6
Continuous
 62
     0
100
AcDbLine
 10
28.00002552271916
 20
48.49985914230535
 30
0.0
 11
27.25002559424473
 21
47.49985908866117
 31
0.0
  0
LINE
  5
F4
330
72
100
AcDbEntity
  8
0
  6
Continuous
 62
     0
100
AcDbLine
 10
41.9999885559082
 20
48.50000762939453
 30
0.0
 11
4.000003814697266
 21
48.50000762939453
 31
0.0
  0
LINE
  5
F5
330
72
100
AcDbEntity
  8
0
  6
Continuous
 62
     0
100
AcDbLine
 10
25.49999618530273
 20
48.50000762939453
 30
0.0
 11
25.49999618530273
 21
43.50000762939453
 31
0.0
  0
LINE
  5
F6
330
72
100
AcDbEntity
  8
0
  6
Continuous
 62
     0
100
AcDbLine
 10
27.2499885559082
 20
47.49994659423828
 30
0.0
 11
25.49999618530273
 21
47.49994659423828
 31
0.0
  0
LINE
  5
F7
330
72
100
AcDbEntity
  8
0
  6
Continuous
 62
     0
100
AcDbLine
 10
18.49999618530273
 20
47.49994659423828
 30
0.0
 11
8.749958038330078
 21
47.49994659423828
 31
0.0
  0
LINE
  5
F8
330
72
100
AcDbEntity
  8
0
  6
Continuous
 62
     0
100
AcDbLine
 10
8.749939012532447
 20
47.49994895457662
 30
0.0
 11
7.999938917165021
 21
48.49994888305105
 31
0.0
  0
LINE
  5
F9
330
72
100
AcDbEntity
  8
0
  6
Continuous
 62
     0
100
AcDbLine
 10
4.000003814697266
 20
100.5000076293945
 30
0.0
 11
4.000003814697266
 21
47.50000813392143
 31
0.0
  0
LINE
  5
FA
330
72
100
AcDbEntity
  8
0
  6
Continuous
 62
     0
100
AcDbLine
 10
-41.99998474121094
 20
100.4999923706055
 30
0.0
 11
41.9999885559082
 21
100.4999923706055
 31
0.0
  0
LINE
  5
FB
330
72
100
AcDbEntity
  8
0
  6
Continuous
 62
     0
100
AcDbLine
 10
-34.99996948242188
 20
100.4999923706055
 30
0.0
 11
-34.99996948242188
 21
48.50000762939453
 31
0.0
  0
LINE
  5
FC
330
72
100
AcDbEntity
  8
0
  6
Continuous
 62
     0
100
AcDbLine
 10
-41.99997502378385
 20
100.4999791536539
 30
0.0
 11
-86.00001525878905
 21
99.4999980629019
 31
0.0
  0
LINE
  5
FD
330
72
100
AcDbEntity
  8
0
  6
CENTER
 62
     4
100
AcDbLine
 10
-46.57617973487936
 20
96.5
 30
0.0
 11
-41.99998474121094
 21
96.5
 31
0.0
  0
LINE
  5
FE
330
72
100
AcDbEntity
  8
0
  6
Continuous
 62
     0
100
AcDbLine
 10
-20.99997329711914
 20
126.6551818847656
 30
0.0
 11
-20.99997329711914
 21
121.1590423583984
 31
0.0
  0
LINE
  5
FF
330
72
100
AcDbEntity
  8
0
  6
Continuous
 62
     0
100
AcDbLine
 10
-21.62497065428697
 20
121.1590357569606
 30
0.0
 11
-23.44482279046929
 21
126.1590391001881
 31
0.0
  0
LINE
  5
100
330
72
100
AcDbEntity
  8
0
  6
Continuous
 62
     0
100
AcDbLine
 10
-20.37493272326778
 20
121.1590292855616
 30
0.0
 11
-18.55508277641675
 21
126.1590253066085
 31
0.0
  0
LINE
  5
101
330
72
100
AcDbEntity
  8
0
  6
Continuous
 62
     0
100
AcDbLine
 10
-19.74997329711914
 20
121.1590423583984
 30
0.0
 11
-19.74997329711914
 21
106.5000381469727
 31
0.0
  0
LINE
  5
102
330
72
100
AcDbEntity
  8
0
  6
Continuous
 62
     0
100
AcDbLine
 10
-22.2499885559082
 20
121.1590423583984
 30
0.0
 11
-19.7499885559082
 21
121.1590423583984
 31
0.0
  0
LINE
  5
103
330
72
100
AcDbEntity
  8
0
  6
Continuous
 62
     0
100
AcDbLine
 10
-22.24997329711914
 20
121.1590423583984
 30
0.0
 11
-22.24997329711914
 21
106.5000381469727
 31
0.0
  0
LINE
  5
104
330
72
100
AcDbEntity
  8
0
  6
Continuous
 62
     0
100
AcDbLine
 10
-86.00001525878906
 20
49.50004679881654
 30
0.0
 11
-86.00001525878906
 21
99.49999806290191
 31
0.0
  0
LINE
  5
105
330
72
100
AcDbEntity
  8
0
  6
Continuous
 62
     0
100
AcDbLine
 10
-86.00001525878909
 20
91.00052212116393
 30
0.0
 11
-41.99998474121094
 21
91.9992170092248
 31
0.0
  0
LINE
  5
106
330
72
100
AcDbEntity
  8
0
  6
Continuous
 62
     0
100
AcDbLine
 10
-86.00001525878906
 20
57.99934032339493
 30
0.0
 11
-41.99998474121094
 21
57.00063871317481
 31
0.0
  0
LINE
  5
107
330
72
100
AcDbEntity
  8
0
  6
Continuous
 62
     0
100
AcDbLine
 10
-41.99999954195092
 20
48.50004044234745
 30
0.0
 11
-86.00001525878906
 21
49.50004679881654
 31
0.0
  0
LINE
  5
108
330
72
100
AcDbEntity
  8
0
  6
DASHED
 62
     4
100
AcDbLine
 10
-31.49998474121094
 20
103.5000381469727
 30
0.0
 11
-31.49998474121094
 21
96.5
 31
0.0
  0
LINE
  5
109
330
72
100
AcDbEntity
  8
0
  6
DASHED
 62
     4
100
AcDbLine
 10
-30.30000305175781
 20
103.5000381469727
 30
0.0
 11
-30.30000305175781
 21
96.5
 31
0.0
  0
LINE
  5
10A
330
72
100
AcDbEntity
  8
0
  6
DASHED
 62
     4
100
AcDbLine
 10
-11.69997024536133
 20
103.5000381469727
 30
0.0
 11
-11.69997024536133
 21
96.5
 31
0.0
  0
LINE
  5
10B
330
72
100
AcDbEntity
  8
0
  6
DASHED
 62
     4
100
AcDbLine
 10
-10.49997329711914
 20
103.5000381469727
 30
0.0
 11
-10.49997329711914
 21
96.5
 31
0.0
  0
LINE
  5
10C
330
72
100
AcDbEntity
  8
0
  6
Continuous
 62
     0
100
AcDbLine
 10
-7.499973297119141
 20
103.5000076293945
 30
0.0
 11
-7.499973297119141
 21
100.4999084472656
 31
0.0
  0
LINE
  5
10D
330
72
100
AcDbEntity
  8
0
  6
Continuous
 62
     0
100
AcDbLine
 10
-34.49998474121094
 20
103.5000076293945
 30
0.0
 11
-7.499973297119141
 21
103.5000076293945
 31
0.0
  0
LINE
  5
10E
330
72
100
AcDbEntity
  8
0
  6
Continuous
 62
     0
100
AcDbLine
 10
-8.999988555908203
 20
103.5000381469727
 30
0.0
 11
-8.999988555908203
 21
106.5000381469727
 31
0.0
  0
LINE
  5
10F
330
72
100
AcDbEntity
  8
0
  6
Continuous
 62
     0
100
AcDbLine
 10
-32.99998474121094
 20
106.5000381469727
 30
0.0
 11
-8.999988555908203
 21
106.5000381469727
 31
0.0
  0
LINE
  5
110
330
72
100
AcDbEntity
  8
0
  6
Continuous
 62
     0
100
AcDbLine
 10
-32.99998474121094
 20
103.5000381469727
 30
0.0
 11
-32.99998474121094
 21
106.5000381469727
 31
0.0
  0
LINE
  5
111
330
72
100
AcDbEntity
  8
0
  6
Continuous
 62
     0
100
AcDbLine
 10
-34.49998474121094
 20
103.5000076293945
 30
0.0
 11
-34.49998474121094
 21
100.4999084472656
 31
0.0
  0
LINE
  5
112
330
72
100
AcDbEntity
  8
0
  6
Continuous
 62
     0
100
AcDbLine
 10
-41.99998474121094
 20
100.5
 30
0.0
 11
-41.99998474121094
 21
91.99921700922474
 31
0.0
  0
LINE
  5
113
330
72
100
AcDbEntity
  8
0
  6
Continuous
 62
     0
100
AcDbLine
 10
-42.99996948242188
 20
93.0
 30
0.0
 11
-42.99996948242188
 21
100.0000381469727
 31
0.0
  0
LINE
  5
114
330
72
100
AcDbEntity
  8
0
  6
Continuous
 62
     0
100
AcDbLine
 10
-44.29998016357422
 20
93.0
 30
0.0
 11
-41.99998474121094
 21
93.0
 31
0.0
  0
LINE
  5
115
330
72
100
AcDbEntity
  8
0
  6
Continuous
 62
     0
100
AcDbLine
 10
-44.29998016357422
 20
100.0000381469727
 30
0.0
 11
-41.99998474121094
 21
100.0000381469727
 31
0.0
  0
LINE
  5
116
330
72
100
AcDbEntity
  8
0
  6
Continuous
 62
     0
100
AcDbLine
 10
-41.99998474121094
 20
48.5000114440918
 30
0.0
 11
-41.99998474121094
 21
57.00063871317475
 31
0.0
  0
LINE
  5
117
330
72
100
AcDbEntity
  8
0
  6
Continuous
 62
     0
100
AcDbLine
 10
-14.55834415401131
 20
71.99992912996727
 30
0.0
 11
-13.1149691681915
 21
74.49992712680097
 31
0.0
  0
LINE
  5
118
330
72
100
AcDbEntity
  8
0
  6
Continuous
 62
     0
100
AcDbLine
 10
-13.1149395091128
 20
74.49990120738308
 30
0.0
 11
-14.55836354983601
 21
76.99998540801276
 31
0.0
  0
LINE
  5
119
330
72
100
AcDbEntity
  8
0
  6
Continuous
 62
     0
100
AcDbLine
 10
-9.299976348876953
 20
93.19998168945312
 30
0.0
 11
-9.299976348876953
 21
55.7999267578125
 31
0.0
  0
LINE
  5
11A
330
72
100
AcDbEntity
  8
0
  6
Continuous
 62
     0
100
AcDbLine
 10
-27.69998168945312
 20
93.19998168945312
 30
0.0
 11
-9.299976348876953
 21
93.19998168945312
 31
0.0
  0
LINE
  5
11B
330
72
100
AcDbEntity
  8
0
  6
Continuous
 62
     0
100
AcDbLine
 10
-27.69998168945312
 20
93.19998168945312
 30
0.0
 11
-27.69998168945312
 21
55.7999267578125
 31
0.0
  0
LINE
  5
11C
330
72
100
AcDbEntity
  8
0
  6
Continuous
 62
     0
100
AcDbLine
 10
-15.9999885559082
 20
81.5
 30
0.0
 11
-9.299976348876953
 21
81.5
 31
0.0
  0
LINE
  5
11D
330
72
100
AcDbEntity
  8
0
  6
CENTER
 62
     4
100
AcDbLine
 10
-15.99997329711914
 20
80.4999771118164
 30
0.0
 11
-15.99997329711914
 21
68.50000762939453
 31
0.0
  0
LINE
  5
11E
330
72
100
AcDbEntity
  8
0
  6
Continuous
 62
     0
100
AcDbLine
 10
-15.9999885559082
 20
67.49989318847656
 30
0.0
 11
-9.299976348876953
 21
67.49989318847656
 31
0.0
  0
LINE
  5
11F
330
72
100
AcDbEntity
  8
0
  6
Continuous
 62
     0
100
AcDbLine
 10
-17.44162368774414
 20
72.00001525878906
 30
0.0
 11
-14.55835342407227
 21
72.00001525878906
 31
0.0
  0
LINE
  5
120
330
72
100
AcDbEntity
  8
0
  6
Continuous
 62
     0
100
AcDbLine
 10
-17.44160058601601
 20
71.9999557587196
 30
0.0
 11
-18.88495977689398
 21
74.49992763610337
 31
0.0
  0
LINE
  5
121
330
72
100
AcDbEntity
  8
0
  6
Continuous
 62
     0
100
AcDbLine
 10
-18.88499869883212
 20
74.49994692694412
 30
0.0
 11
-17.44162371301231
 21
76.9999449237778
 31
0.0
  0
LINE
  5
122
330
72
100
AcDbEntity
  8
0
  6
Continuous
 62
     0
100
AcDbLine
 10
-17.44162368774414
 20
77.00001525878906
 30
0.0
 11
-14.55835342407227
 21
77.00001525878906
 31
0.0
  0
LINE
  5
123
330
72
100
AcDbEntity
  8
0
  6
Continuous
 62
     0
100
AcDbLine
 10
-27.69998168945312
 20
55.7999267578125
 30
0.0
 11
-9.299976348876953
 21
55.7999267578125
 31
0.0
  0
LINE
  5
124
330
72
100
AcDbEntity
  8
0
  6
Continuous
 62
     0
100
AcDbLine
 10
9.299976348876953
 20
93.19998931884766
 30
0.0
 11
9.299976348876953
 21
55.79993438720703
 31
0.0
  0
LINE
  5
125
330
72
100
AcDbEntity
  8
0
  6
Continuous
 62
     0
100
AcDbLine
 10
27.69997024536133
 20
93.19998931884766
 30
0.0
 11
9.299976348876953
 21
93.19998931884766
 31
0.0
  0
LINE
  5
126
330
72
100
AcDbEntity
  8
0
  6
Continuous
 62
     0
100
AcDbLine
 10
27.69997024536133
 20
93.19998931884766
 30
0.0
 11
27.69997024536133
 21
55.79993438720703
 31
0.0
  0
LINE
  5
127
330
72
100
AcDbEntity
  8
0
  6
Continuous
 62
     0
100
AcDbLine
 10
15.9999885559082
 20
80.4999771118164
 30
0.0
 11
9.299976348876953
 21
80.4999771118164
 31
0.0
  0
LINE
  5
128
330
72
100
AcDbEntity
  8
0
  6
CENTER
 62
     4
100
AcDbLine
 10
15.99995803833008
 20
80.4999771118164
 30
0.0
 11
15.99995803833008
 21
68.50000762939453
 31
0.0
  0
LINE
  5
129
330
72
100
AcDbEntity
  8
0
  6
Continuous
 62
     0
100
AcDbLine
 10
15.9999885559082
 20
68.50000762939453
 30
0.0
 11
9.299976348876953
 21
68.50000762939453
 31
0.0
  0
LINE
  5
12A
330
72
100
AcDbEntity
  8
0
  6
Continuous
 62
     0
100
AcDbLine
 10
27.69997024536133
 20
55.79993438720703
 30
0.0
 11
9.299976348876953
 21
55.79993438720703
 31
0.0
  0
LINE
  5
12B
330
72
100
AcDbEntity
  8
0
  6
Continuous
 62
     0
100
AcDbLine
 10
20.37500051518047
 20
121.1590214836742
 30
0.0
 11
18.55514795892254
 21
126.1590246740067
 31
0.0
  0
LINE
  5
12C
330
72
100
AcDbEntity
  8
0
  6
Continuous
 62
     0
100
AcDbLine
 10
20.99995803833008
 20
126.2625198364258
 30
0.0
 11
20.99995803833008
 21
121.1590347290039
 31
0.0
  0
LINE
  5
12D
330
72
100
AcDbEntity
  8
0
  6
Continuous
 62
     0
100
AcDbLine
 10
21.62496153452784
 20
121.1590553143449
 30
0.0
 11
23.44481367071016
 21
126.1590586575724
 31
0.0
  0
LINE
  5
12E
330
72
100
AcDbEntity
  8
0
  6
Continuous
 62
     0
100
AcDbLine
 10
22.2499885559082
 20
121.1590347290039
 30
0.0
 11
19.7499885559082
 21
121.1590347290039
 31
0.0
  0
LINE
  5
12F
330
72
100
AcDbEntity
  8
0
  6
Continuous
 62
     0
100
AcDbLine
 10
22.24995803833008
 20
121.1590347290039
 30
0.0
 11
22.24995803833008
 21
106.5000381469727
 31
0.0
  0
LINE
  5
130
330
72
100
AcDbEntity
  8
0
  6
Continuous
 62
     0
100
AcDbLine
 10
19.74995803833008
 20
121.1590347290039
 30
0.0
 11
19.74995803833008
 21
106.5000381469727
 31
0.0
  0
LINE
  5
131
330
72
100
AcDbEntity
  8
0
  6
Continuous
 62
     0
100
AcDbLine
 10
32.9999885559082
 20
103.5000381469727
 30
0.0
 11
32.9999885559082
 21
106.5000381469727
 31
0.0
  0
LINE
  5
132
330
72
100
AcDbEntity
  8
0
  6
Continuous
 62
     0
100
AcDbLine
 10
32.9999885559082
 20
106.5000381469727
 30
0.0
 11
8.999988555908203
 21
106.5000381469727
 31
0.0
  0
LINE
  5
133
330
72
100
AcDbEntity
  8
0
  6
Continuous
 62
     0
100
AcDbLine
 10
8.999988555908203
 20
103.5000381469727
 30
0.0
 11
8.999988555908203
 21
106.5000381469727
 31
0.0
  0
LINE
  5
134
330
72
100
AcDbEntity
  8
0
  6
Continuous
 62
     0
100
AcDbLine
 10
34.4999885559082
 20
103.5000076293945
 30
0.0
 11
7.499958038330078
 21
103.5000076293945
 31
0.0
  0
LINE
  5
135
330
72
100
AcDbEntity
  8
0
  6
DASHED
 62
     4
100
AcDbLine
 10
11.69997024536133
 20
103.5000381469727
 30
0.0
 11
11.69997024536133
 21
96.5
 31
0.0
  0
LINE
  5
136
330
72
100
AcDbEntity
  8
0
  6
DASHED
 62
     4
100
AcDbLine
 10
10.49995803833008
 20
103.5000381469727
 30
0.0
 11
10.49995803833008
 21
96.5
 31
0.0
  0
LINE
  5
137
330
72
100
AcDbEntity
  8
0
  6
Continuous
 62
     0
100
AcDbLine
 10
7.499958038330078
 20
103.5000076293945
 30
0.0
 11
7.499958038330078
 21
100.499885559082
 31
0.0
  0
LINE
  5
138
330
72
100
AcDbEntity
  8
0
  6
DASHED
 62
     4
100
AcDbLine
 10
30.30000686645508
 20
103.5000381469727
 30
0.0
 11
30.30000686645508
 21
96.5
 31
0.0
  0
LINE
  5
139
330
72
100
AcDbEntity
  8
0
  6
DASHED
 62
     4
100
AcDbLine
 10
31.4999885559082
 20
103.5000381469727
 30
0.0
 11
31.4999885559082
 21
96.5
 31
0.0
  0
LINE
  5
13A
330
72
100
AcDbEntity
  8
0
  6
Continuous
 62
     0
100
AcDbLine
 10
34.4999885559082
 20
103.5000076293945
 30
0.0
 11
34.4999885559082
 21
100.499885559082
 31
0.0
  0
LINE
  5
13B
330
72
100
AcDbEntity
  8
0
  6
Continuous
 62
     0
100
AcDbLine
 10
34.99995803833008
 20
100.4999771118164
 30
0.0
 11
34.99995803833008
 21
48.50000762939453
 31
0.0
  0
LINE
  5
13C
330
72
100
AcDbEntity
  8
0
  6
Continuous
 62
     0
100
AcDbLine
 10
41.99997207680702
 20
100.5000173774523
 30
0.0
 11
85.99998474121094
 21
99.50003691329246
 31
0.0
  0
LINE
  5
13D
330
72
100
AcDbEntity
  8
0
  6
Continuous
 62
     0
100
AcDbLine
 10
41.99997977998233
 20
48.50007051866792
 30
0.0
 11
85.99998474121092
 21
49.50007663068987
 31
0.0
  0
LINE
  5
13E
330
72
100
AcDbEntity
  8
0
  6
Continuous
 62
     0
100
AcDbLine
 10
85.99998474121094
 20
49.50007663068987
 30
0.0
 11
85.99998474121094
 21
99.50003691329248
 31
0.0
  0
LINE
  5
13F
330
72
100
AcDbEntity
  8
0
  6
Continuous
 62
     0
100
AcDbLine
 10
85.99998474121097
 20
91.0005304451991
 30
0.0
 11
41.99998855590821
 21
91.99922455399987
 31
0.0
  0
LINE
  5
140
330
72
100
AcDbEntity
  8
0
  6
CENTER
 62
     4
100
AcDbLine
 10
81.50001525878906
 20
72.4674868546575
 30
0.0
 11
81.50001525878906
 21
76.50001525878906
 31
0.0
  0
LINE
  5
141
330
72
100
AcDbEntity
  8
0
  6
Continuous
 62
     0
100
AcDbLine
 10
85.99998474121095
 20
57.99931292095614
 30
0.0
 11
41.99998855590822
 21
57.00061209000135
 31
0.0
  0
LINE
  5
142
330
72
100
AcDbEntity
  8
0
  6
Continuous
 62
     0
100
AcDbLine
 10
41.9999885559082
 20
48.50000762939453
 30
0.0
 11
41.9999885559082
 21
57.00061209000132
 31
0.0
  0
LINE
  5
143
330
72
100
AcDbEntity
  8
0
  6
Continuous
 62
     0
100
AcDbLine
 10
41.9999885559082
 20
100.4999771118164
 30
0.0
 11
41.9999885559082
 21
91.99922455399981
 31
0.0
  0
LINE
  5
144
330
72
100
AcDbEntity
  8
0
  6
CENTER
 62
     4
100
AcDbLine
 10
89.50412019480748
 20
74.50001525878906
 30
0.0
 11
-89.85407082320603
 21
74.50001525878906
 31
0.0
  0
LINE
  5
145
330
72
100
AcDbEntity
  8
0
  6
CENTER
 62
     4
100
AcDbLine
 10
21.0
 20
106.5185089111328
 30
0.0
 11
21.0
 21
96.5
 31
0.0
  0
LINE
  5
146
330
72
100
AcDbEntity
  8
0
  6
CENTER
 62
     4
100
AcDbLine
 10
-21.0
 20
106.5185089111328
 30
0.0
 11
-21.0
 21
96.5
 31
0.0
  0
LINE
  5
147
330
72
100
AcDbEntity
  8
0
  6
CENTER
 62
     4
100
AcDbLine
 10
-46.57617973487936
 20
52.50003051757812
 30
0.0
 11
-41.99998474121094
 21
52.50003051757812
 31
0.0
  0
LINE
  5
148
330
72
100
AcDbEntity
  8
0
  6
Continuous
 62
     0
100
AcDbLine
 10
-42.99996948242188
 20
56.00003051757812
 30
0.0
 11
-42.99996948242188
 21
48.99999237060547
 31
0.0
  0
LINE
  5
149
330
72
100
AcDbEntity
  8
0
  6
Continuous
 62
     0
100
AcDbLine
 10
-44.29998016357422
 20
56.00003051757812
 30
0.0
 11
-41.99998474121094
 21
56.00003051757812
 31
0.0
  0
LINE
  5
14A
330
72
100
AcDbEntity
  8
0
  6
Continuous
 62
     0
100
AcDbLine
 10
-44.29998016357422
 20
48.99999237060547
 30
0.0
 11
-41.99998474121094
 21
48.99999237060547
 31
0.0
  0
LINE
  5
14B
330
72
100
AcDbEntity
  8
0
  6
CENTER
 62
     4
100
AcDbLine
 10
46.57617973487936
 20
96.5
 30
0.0
 11
41.99998474121094
 21
96.5
 31
0.0
  0
LINE
  5
14C
330
72
100
AcDbEntity
  8
0
  6
Continuous
 62
     0
100
AcDbLine
 10
42.99996948242188
 20
93.0
 30
0.0
 11
42.99996948242188
 21
100.0000381469727
 31
0.0
  0
LINE
  5
14D
330
72
100
AcDbEntity
  8
0
  6
Continuous
 62
     0
100
AcDbLine
 10
44.29998016357422
 20
93.0
 30
0.0
 11
41.99998474121094
 21
93.0
 31
0.0
  0
LINE
  5
14E
330
72
100
AcDbEntity
  8
0
  6
Continuous
 62
     0
100
AcDbLine
 10
44.29998016357422
 20
100.0000381469727
 30
0.0
 11
41.99998474121094
 21
100.0000381469727
 31
0.0
  0
LINE
  5
14F
330
72
100
AcDbEntity
  8
0
  6
Continuous
 62
     0
100
AcDbLine
 10
44.29998016357422
 20
56.00003051757812
 30
0.0
 11
41.99998474121094
 21
56.00003051757812
 31
0.0
  0
LINE
  5
150
330
72
100
AcDbEntity
  8
0
  6
CENTER
 62
     4
100
AcDbLine
 10
46.57617973487936
 20
52.50003051757812
 30
0.0
 11
41.99998474121094
 21
52.50003051757812
 31
0.0
  0
LINE
  5
151
330
72
100
AcDbEntity
  8
0
  6
Continuous
 62
     0
100
AcDbLine
 10
44.29998016357422
 20
48.99999237060547
 30
0.0
 11
41.99998474121094
 21
48.99999237060547
 31
0.0
  0
LINE
  5
152
330
72
100
AcDbEntity
  8
0
  6
Continuous
 62
     0
100
AcDbLine
 10
42.99996948242188
 20
56.00003051757812
 30
0.0
 11
42.99996948242188
 21
48.99999237060547
 31
0.0
  0
LINE
  5
153
330
72
100
AcDbEntity
  8
0
  6
DASHED
 62
     0
100
AcDbLine
 10
-34.5
 20
-23.0
 30
0.0
 11
-34.5
 21
-34.99999237060547
 31
0.0
  0
LINE
  5
154
330
72
100
AcDbEntity
  8
0
  6
DASHED
 62
     0
100
AcDbLine
 10
-25.5
 20
-23.0
 30
0.0
 11
-25.5
 21
-34.99999237060547
 31
0.0
  0
LINE
  5
155
330
72
100
AcDbEntity
  8
0
  6
DASHED
 62
     0
100
AcDbLine
 10
34.5
 20
-23.0
 30
0.0
 11
34.5
 21
-34.99999237060547
 31
0.0
  0
LINE
  5
156
330
72
100
AcDbEntity
  8
0
  6
DASHED
 62
     0
100
AcDbLine
 10
25.5
 20
-23.0
 30
0.0
 11
25.5
 21
-34.99999237060547
 31
0.0
  0
CIRCLE
  5
157
330
72
100
AcDbEntity
  8
0
  6
Continuous
 62
     0
100
AcDbCircle
 10
0.0
 20
0.0
 30
0.0
 40
12.5
  0
CIRCLE
  5
158
330
72
100
AcDbEntity
  8
0
  6
Continuous
 62
     4
100
AcDbCircle
 10
0.0
 20
0.0
 30
0.0
 40
13.5
  0
CIRCLE
  5
159
330
72
100
AcDbEntity
  8
0
  6
Continuous
 62
     0
100
AcDbCircle
 10
-60.0
 20
0.0
 30
0.0
 40
12.5
  0
CIRCLE
  5
15A
330
72
100
AcDbEntity
  8
0
  6
Continuous
 62
     4
100
AcDbCircle
 10
-60.0
 20
0.0
 30
0.0
 40
13.5
  0
CIRCLE
  5
15B
330
72
100
AcDbEntity
  8
0
  6
Continuous
 62
     0
100
AcDbCircle
 10
60.0
 20
0.000007629394531
 30
0.0
 40
22.0
  0
CIRCLE
  5
15C
330
72
100
AcDbEntity
  8
0
  6
Continuous
 62
     0
100
AcDbCircle
 10
-60.0
 20
0.000007629394531
 30
0.0
 40
22.0
  0
CIRCLE
  5
15D
330
72
100
AcDbEntity
  8
0
  6
Continuous
 62
     0
100
AcDbCircle
 10
0.0
 20
0.000007629394531
 30
0.0
 40
22.0
  0
CIRCLE
  5
15E
330
72
100
AcDbEntity
  8
0
  6
Continuous
 62
     0
100
AcDbCircle
 10
60.0
 20
0.0
 30
0.0
 40
12.5
  0
CIRCLE
  5
15F
330
72
100
AcDbEntity
  8
0
  6
Continuous
 62
     4
100
AcDbCircle
 10
60.0
 20
0.0
 30
0.0
 40
13.5
  0
ARC
  5
160
330
72
100
AcDbEntity
  8
0
  6
Continuous
 62
     0
100
AcDbCircle
 10
-15.99997329711914
 20
74.50001525878906
 30
0.0
 40
7.000005722045898
100
AcDbArc
 50
89.999995674289
 51
270.0000006832453
  0
CIRCLE
  5
161
330
72
100
AcDbEntity
  8
0
  6
Continuous
 62
     0
100
AcDbCircle
 10
-15.99997329711914
 20
74.50001525878906
 30
0.0
 40
5.000003814697266
  0
CIRCLE
  5
162
330
72
100
AcDbEntity
  8
0
  6
Continuous
 62
     4
100
AcDbCircle
 10
-15.99997329711914
 20
74.50001525878906
 30
0.0
 40
4.250003337860107
  0
ARC
  5
163
330
72
100
AcDbEntity
  8
0
  6
Continuous
 62
     0
100
AcDbCircle
 10
15.99995803833008
 20
74.50000762939453
 30
0.0
 40
6.0
100
AcDbArc
 50
270.000004325711
 51
89.99996835353231
  0
CIRCLE
  5
164
330
72
100
AcDbEntity
  8
0
  6
Continuous
 62
     0
100
AcDbCircle
 10
15.99995803833008
 20
74.50000762939453
 30
0.0
 40
5.0
  0
CIRCLE
  5
165
330
72
100
AcDbEntity
  8
0
  6
Continuous
 62
     0
100
AcDbCircle
 10
81.50001525878906
 20
74.50001525878906
 30
0.0
 40
1.0
  0
ARC
  5
166
330
72
100
AcDbEntity
  8
0
  6
Continuous
 62
     0
100
AcDbCircle
 10
-40.23843440229881
 20
96.50001907348633
 30
0.0
 40
5.361556442461678
100
AcDbArc
 50
139.2470260901741
 51
220.7529739098258
  0
ARC
  5
167
330
72
100
AcDbEntity
  8
0
  6
Continuous
 62
     0
100
AcDbCircle
 10
-40.23843440229881
 20
52.5000114440918
 30
0.0
 40
5.361556442461678
100
AcDbArc
 50
139.2470260901741
 51
220.7529739098258
  0
ARC
  5
168
330
72
100
AcDbEntity
  8
0
  6
Continuous
 62
     0
100
AcDbCircle
 10
40.23843440229881
 20
52.5000114440918
 30
0.0
 40
5.361556442461678
100
AcDbArc
 50
319.2470260901742
 51
40.7529739098259
  0
ARC
  5
169
330
72
100
AcDbEntity
  8
0
  6
Continuous
 62
     0
100
AcDbCircle
 10
40.23843440229881
 20
96.50001907348633
 30
0.0
 40
5.361556442461678
100
AcDbArc
 50
319.2470260901742
 51
40.7529739098259
  0
MTEXT
  5
16A
330
72
100
AcDbEntity
  8
0
 62
     0
100
AcDbMText
 10
-1.797471129894256
 20
-32.34398651123047
 30
0.0
 40
4.0
 41
0.0
 71
     7
 72
     1
  1
{\W1;IN}
 73
     1
 44
1.0
  0
MTEXT
  5
16B
330
72
100
AcDbEntity
  8
0
 62
     0
100
AcDbMText
 10
-61.90988644361496
 20
-32.34398651123047
 30
0.0
 40
4.0
 41
0.0
 71
     7
 72
     1
  1
{\W1;E1}
 73
     1
 44
1.0
  0
MTEXT
  5
16C
330
72
100
AcDbEntity
  8
0
 62
     0
100
AcDbMText
 10
58.31494418382645
 20
-32.51573944091797
 30
0.0
 40
4.0
 41
0.0
 71
     7
 72
     1
  1
{\W1;E2}
 73
     1
 44
1.0
  0
MTEXT
  5
16D
330
72
100
AcDbEntity
  8
0
 62
     0
100
AcDbMText
 10
-75.08590282052755
 20
81.84610748291016
 30
0.0
 40
0.5
 41
0.0
 71
     7
 72
     1
  1
{\W0.833333;ＢＮ－７Ｍ４７－２０－Ｅ/F＊＊＊}
 73
     1
 44
1.0
  0
ENDBLK
  5
74
330
72
100
AcDbEntity
  8
0
100
AcDbBlockEnd
  0
BLOCK
  5
76
330
75
100
AcDbEntity
  8
0
100
AcDbBlockBegin
  2
DTL0002
 70
     0
 10
0.0
 20
0.0
 30
0.0
  3
DTL0002
  1

  0
POINT
  5
16E
330
75
100
AcDbEntity
  8
0
 62
     0
100
AcDbPoint
 10
0.0
 20
0.0
 30
0.0
  0
LINE
  5
16F
330
75
100
AcDbEntity
  8
0
  6
Continuous
 62
     0
100
AcDbLine
 10
-92.0
 20
-13.75498962402344
 30
0.0
 11
-92.0
 21
-29.99998474121094
 31
0.0
  0
LINE
  5
170
330
75
100
AcDbEntity
  8
0
  6
Continuous
 62
     0
100
AcDbLine
 10
-90.0
 20
-21.49998474121094
 30
0.0
 11
-90.0
 21
21.50001525878906
 31
0.0
  0
LINE
  5
171
330
75
100
AcDbEntity
  8
0
  6
Continuous
 62
     0
100
AcDbLine
 10
-126.0
 20
-5.999984741210938
 30
0.0
 11
-126.0
 21
-14.99998474121094
 31
0.0
  0
LINE
  5
172
330
75
100
AcDbEntity
  8
0
  6
Continuous
 62
     0
100
AcDbLine
 10
-93.5
 20
19.00001525878906
 30
0.0
 11
-93.5
 21
29.00001525878906
 31
0.0
  0
LINE
  5
173
330
75
100
AcDbEntity
  8
0
  6
Continuous
 62
     0
100
AcDbLine
 10
-92.0
 20
19.00001525878906
 30
0.0
 11
-99.5
 21
19.00001525878906
 31
0.0
  0
LINE
  5
174
330
75
100
AcDbEntity
  8
0
  6
CENTER
 62
     4
100
AcDbLine
 10
-92.0
 20
24.00001525878906
 30
0.0
 11
-101.0450895986911
 21
24.00001525878906
 31
0.0
  0
LINE
  5
175
330
75
100
AcDbEntity
  8
0
  6
Continuous
 62
     0
100
AcDbLine
 10
-99.5
 20
19.00001525878906
 30
0.0
 11
-99.5
 21
29.00001525878906
 31
0.0
  0
LINE
  5
176
330
75
100
AcDbEntity
  8
0
  6
Continuous
 62
     0
100
AcDbLine
 10
-92.0
 20
29.00001525878906
 30
0.0
 11
-99.5
 21
29.00001525878906
 31
0.0
  0
LINE
  5
177
330
75
100
AcDbEntity
  8
0
  6
Continuous
 62
     0
100
AcDbLine
 10
-99.5
 20
-29.00001525878906
 30
0.0
 11
-99.5
 21
-19.00001525878906
 31
0.0
  0
LINE
  5
178
330
75
100
AcDbEntity
  8
0
  6
Continuous
 62
     0
100
AcDbLine
 10
-92.0
 20
-19.00001525878906
 30
0.0
 11
-99.5
 21
-19.00001525878906
 31
0.0
  0
LINE
  5
179
330
75
100
AcDbEntity
  8
0
  6
Continuous
 62
     0
100
AcDbLine
 10
-93.5
 20
-29.00001525878906
 30
0.0
 11
-93.5
 21
-19.00001525878906
 31
0.0
  0
LINE
  5
17A
330
75
100
AcDbEntity
  8
0
  6
Continuous
 62
     0
100
AcDbLine
 10
-92.0
 20
-29.00001525878906
 30
0.0
 11
-99.5
 21
-29.00001525878906
 31
0.0
  0
LINE
  5
17B
330
75
100
AcDbEntity
  8
0
  6
CENTER
 62
     4
100
AcDbLine
 10
-92.0
 20
-24.00001525878906
 30
0.0
 11
-101.6597595214844
 21
-24.00001525878906
 31
0.0
  0
LINE
  5
17C
330
75
100
AcDbEntity
  8
0
  6
Continuous
 62
     0
100
AcDbLine
 10
-73.99998516778676
 20
30.00001525878906
 30
0.0
 11
-73.3524828032527
 21
20.28748153136954
 31
0.0
  0
LINE
  5
17D
330
75
100
AcDbEntity
  8
0
  6
Continuous
 62
     0
100
AcDbLine
 10
-52.0
 20
20.77275085449219
 30
0.0
 11
-52.0
 21
40.00001525878906
 31
0.0
  0
LINE
  5
17E
330
75
100
AcDbEntity
  8
0
  6
Continuous
 62
     0
100
AcDbLine
 10
-70.0
 20
20.36367797851562
 30
0.0
 11
-70.0
 21
40.00001525878906
 31
0.0
  0
LINE
  5
17F
330
75
100
AcDbEntity
  8
0
  6
Continuous
 62
     0
100
AcDbLine
 10
-84.00000762939453
 20
-29.99998474121094
 30
0.0
 11
-84.00000762939453
 21
-20.04542541503906
 31
0.0
  0
LINE
  5
180
330
75
100
AcDbEntity
  8
0
  6
Continuous
 62
     0
100
AcDbLine
 10
-90.0
 20
13.75502014160156
 30
0.0
 11
-92.0
 21
13.75502014160156
 31
0.0
  0
LINE
  5
181
330
75
100
AcDbEntity
  8
0
  6
Continuous
 62
     0
100
AcDbLine
 10
-123.0
 20
26.15008905306419
 30
0.0
 11
-99.49999767751903
 21
26.57736066201178
 31
0.0
  0
LINE
  5
182
330
75
100
AcDbEntity
  8
0
  6
Continuous
 62
     0
100
AcDbLine
 10
-123.0
 20
-26.14995742425719
 30
0.0
 11
-123.0
 21
-14.99998474121094
 31
0.0
  0
LINE
  5
183
330
75
100
AcDbEntity
  8
0
  6
Continuous
 62
     0
100
AcDbLine
 10
-92.0
 20
13.75502014160156
 30
0.0
 11
-92.0
 21
30.00001525878906
 31
0.0
  0
LINE
  5
184
330
75
100
AcDbEntity
  8
0
  6
CENTER
 62
     4
100
AcDbLine
 10
-90.0
 20
-10.50001525878906
 30
0.0
 11
-127.2954711914062
 21
-10.50001525878906
 31
0.0
  0
LINE
  5
185
330
75
100
AcDbEntity
  8
0
  6
Continuous
 62
     0
100
AcDbLine
 10
-81.99999237060547
 20
-39.99998474121094
 30
0.0
 11
-81.99999237060547
 21
-29.99998474121094
 31
0.0
  0
LINE
  5
186
330
75
100
AcDbEntity
  8
0
  6
Continuous
 62
     0
100
AcDbLine
 10
-90.0
 20
-13.75498962402344
 30
0.0
 11
-92.0
 21
-13.75498962402344
 31
0.0
  0
LINE
  5
187
330
75
100
AcDbEntity
  8
0
  6
CENTER
 62
     4
100
AcDbLine
 10
-129.8084106445312
 20
0.000015258789062
 30
0.0
 11
129.2422027587891
 21
0.000015258789062
 31
0.0
  0
LINE
  5
188
330
75
100
AcDbEntity
  8
0
  6
Continuous
 62
     0
100
AcDbLine
 10
-123.0
 20
-26.14995742425721
 30
0.0
 11
-99.50001816946678
 21
-26.57722866062494
 31
0.0
  0
LINE
  5
189
330
75
100
AcDbEntity
  8
0
  6
Continuous
 62
     0
100
AcDbLine
 10
-92.0
 20
30.00001525878906
 30
0.0
 11
-73.99998516778676
 21
30.00001525878906
 31
0.0
  0
LINE
  5
18A
330
75
100
AcDbEntity
  8
0
  6
Continuous
 62
     0
100
AcDbLine
 10
-92.0
 20
-29.99998474121094
 30
0.0
 11
-74.00000762939453
 21
-29.99998474121094
 31
0.0
  0
LINE
  5
18B
330
75
100
AcDbEntity
  8
0
  6
Continuous
 62
     0
100
AcDbLine
 10
-8.0
 20
21.0
 30
0.0
 11
-8.0
 21
40.00001525878906
 31
0.0
  0
LINE
  5
18C
330
75
100
AcDbEntity
  8
0
  6
Continuous
 62
     0
100
AcDbLine
 10
8.0
 20
21.0
 30
0.0
 11
8.0
 21
40.00001525878906
 31
0.0
  0
LINE
  5
18D
330
75
100
AcDbEntity
  8
0
  6
Continuous
 62
     0
100
AcDbLine
 10
8.0
 20
40.00001525878906
 30
0.0
 11
70.0
 21
40.00001525878906
 31
0.0
  0
LINE
  5
18E
330
75
100
AcDbEntity
  8
0
  6
Continuous
 62
     0
100
AcDbLine
 10
70.0
 20
20.36367797851562
 30
0.0
 11
70.0
 21
40.00001525878906
 31
0.0
  0
LINE
  5
18F
330
75
100
AcDbEntity
  8
0
  6
CENTER
 62
     4
100
AcDbLine
 10
60.0
 20
-42.57503575869205
 30
0.0
 11
60.0
 21
-32.49998474121094
 31
0.0
  0
LINE
  5
190
330
75
100
AcDbEntity
  8
0
  6
CENTER
 62
     4
100
AcDbLine
 10
53.50000047683716
 20
32.50001525878906
 30
0.0
 11
66.49999952316284
 21
32.50001525878906
 31
0.0
  0
LINE
  5
191
330
75
100
AcDbEntity
  8
0
  6
Continuous
 62
     0
100
AcDbLine
 10
73.99998488060443
 20
30.00001095105473
 30
0.0
 11
73.35248305700263
 21
20.28748533761785
 31
0.0
  0
LINE
  5
192
330
75
100
AcDbEntity
  8
0
  6
Continuous
 62
     0
100
AcDbLine
 10
52.0
 20
20.77276611328125
 30
0.0
 11
52.0
 21
40.00001525878906
 31
0.0
  0
LINE
  5
193
330
75
100
AcDbEntity
  8
0
  6
Continuous
 62
     0
100
AcDbLine
 10
91.99999237060547
 20
30.00001525878906
 30
0.0
 11
74.00000762939453
 21
30.00001525878906
 31
0.0
  0
LINE
  5
194
330
75
100
AcDbEntity
  8
0
  6
Continuous
 62
     0
100
AcDbLine
 10
84.00000762939453
 20
-29.99998474121094
 30
0.0
 11
84.00000762939453
 21
-20.04542541503906
 31
0.0
  0
LINE
  5
195
330
75
100
AcDbEntity
  8
0
  6
Continuous
 62
     0
100
AcDbLine
 10
91.99999237060547
 20
-12.47026062011719
 30
0.0
 11
91.99999237060547
 21
-29.99998474121094
 31
0.0
  0
LINE
  5
196
330
75
100
AcDbEntity
  8
0
  6
Continuous
 62
     0
100
AcDbLine
 10
91.99999237060547
 20
30.00001525878906
 30
0.0
 11
91.99999237060547
 21
12.47026062011719
 31
0.0
  0
LINE
  5
197
330
75
100
AcDbEntity
  8
0
  6
Continuous
 62
     0
100
AcDbLine
 10
122.9999847412109
 20
-26.15006399967622
 30
0.0
 11
122.9999847412109
 21
6.000015258789062
 31
0.0
  0
LINE
  5
198
330
75
100
AcDbEntity
  8
0
  6
Continuous
 62
     0
100
AcDbLine
 10
125.9999923706055
 20
6.000015258789062
 30
0.0
 11
90.0
 21
6.000015258789062
 31
0.0
  0
LINE
  5
199
330
75
100
AcDbEntity
  8
0
  6
Continuous
 62
     0
100
AcDbLine
 10
125.9999923706055
 20
15.00001525878906
 30
0.0
 11
91.99999237060547
 21
15.00001525878906
 31
0.0
  0
LINE
  5
19A
330
75
100
AcDbEntity
  8
0
  6
CENTER
 62
     4
100
AcDbLine
 10
127.5204925537109
 20
10.49998474121094
 30
0.0
 11
90.0
 21
10.49998474121094
 31
0.0
  0
LINE
  5
19B
330
75
100
AcDbEntity
  8
0
  6
Continuous
 62
     0
100
AcDbLine
 10
125.9999923706055
 20
6.000015258789062
 30
0.0
 11
125.9999923706055
 21
15.00001525878906
 31
0.0
  0
LINE
  5
19C
330
75
100
AcDbEntity
  8
0
  6
Continuous
 62
     0
100
AcDbLine
 10
99.49999671851944
 20
-26.60490712276985
 30
0.0
 11
122.999984741211
 21
-26.15006399967624
 31
0.0
  0
LINE
  5
19D
330
75
100
AcDbEntity
  8
0
  6
Continuous
 62
     0
100
AcDbLine
 10
99.49999380263819
 20
26.60475647044371
 30
0.0
 11
122.999984741211
 21
26.14991329091311
 31
0.0
  0
LINE
  5
19E
330
75
100
AcDbEntity
  8
0
  6
Continuous
 62
     0
100
AcDbLine
 10
91.99999237060547
 20
-12.47026062011719
 30
0.0
 11
90.0
 21
-12.47026062011719
 31
0.0
  0
LINE
  5
19F
330
75
100
AcDbEntity
  8
0
  6
Continuous
 62
     0
100
AcDbLine
 10
91.99999237060547
 20
12.47026062011719
 30
0.0
 11
90.0
 21
12.47026062011719
 31
0.0
  0
LINE
  5
1A0
330
75
100
AcDbEntity
  8
0
  6
Continuous
 62
     0
100
AcDbLine
 10
90.0
 20
-21.49998474121094
 30
0.0
 11
90.0
 21
21.50001525878906
 31
0.0
  0
LINE
  5
1A1
330
75
100
AcDbEntity
  8
0
  6
CENTER
 62
     4
100
AcDbLine
 10
91.99999237060547
 20
-24.00001525878906
 30
0.0
 11
101.12205833213
 21
-24.00001525878906
 31
0.0
  0
LINE
  5
1A2
330
75
100
AcDbEntity
  8
0
  6
Continuous
 62
     0
100
AcDbLine
 10
93.5
 20
19.00001525878906
 30
0.0
 11
93.5
 21
29.00001525878906
 31
0.0
  0
LINE
  5
1A3
330
75
100
AcDbEntity
  8
0
  6
Continuous
 62
     0
100
AcDbLine
 10
91.99999237060547
 20
19.00001525878906
 30
0.0
 11
99.5
 21
19.00001525878906
 31
0.0
  0
LINE
  5
1A4
330
75
100
AcDbEntity
  8
0
  6
CENTER
 62
     4
100
AcDbLine
 10
91.99999237060547
 20
24.00001525878906
 30
0.0
 11
101.2387795739396
 21
24.00001525878906
 31
0.0
  0
LINE
  5
1A5
330
75
100
AcDbEntity
  8
0
  6
Continuous
 62
     0
100
AcDbLine
 10
99.5
 20
19.00001525878906
 30
0.0
 11
99.5
 21
29.00001525878906
 31
0.0
  0
LINE
  5
1A6
330
75
100
AcDbEntity
  8
0
  6
Continuous
 62
     0
100
AcDbLine
 10
91.99999237060547
 20
29.00001525878906
 30
0.0
 11
99.5
 21
29.00001525878906
 31
0.0
  0
LINE
  5
1A7
330
75
100
AcDbEntity
  8
0
  6
Continuous
 62
     0
100
AcDbLine
 10
99.5
 20
-29.00001525878906
 30
0.0
 11
99.5
 21
-19.00001525878906
 31
0.0
  0
LINE
  5
1A8
330
75
100
AcDbEntity
  8
0
  6
Continuous
 62
     0
100
AcDbLine
 10
91.99999237060547
 20
-19.00001525878906
 30
0.0
 11
99.5
 21
-19.00001525878906
 31
0.0
  0
LINE
  5
1A9
330
75
100
AcDbEntity
  8
0
  6
Continuous
 62
     0
100
AcDbLine
 10
93.5
 20
-29.00001525878906
 30
0.0
 11
93.5
 21
-19.00001525878906
 31
0.0
  0
LINE
  5
1AA
330
75
100
AcDbEntity
  8
0
  6
Continuous
 62
     0
100
AcDbLine
 10
91.99999237060547
 20
-29.00001525878906
 30
0.0
 11
99.5
 21
-29.00001525878906
 31
0.0
  0
LINE
  5
1AB
330
75
100
AcDbEntity
  8
0
  6
Continuous
 62
     0
100
AcDbLine
 10
91.99999237060547
 20
-29.99998474121094
 30
0.0
 11
74.00000762939453
 21
-29.99998474121094
 31
0.0
  0
LINE
  5
1AC
330
75
100
AcDbEntity
  8
0
  6
Continuous
 62
     0
100
AcDbLine
 10
81.99999237060547
 20
-39.99998474121094
 30
0.0
 11
81.99999237060547
 21
-29.99998474121094
 31
0.0
  0
LINE
  5
1AD
330
75
100
AcDbEntity
  8
0
  6
Continuous
 62
     0
100
AcDbLine
 10
-81.99999237060547
 20
-39.99998474121094
 30
0.0
 11
81.99999237060547
 21
-39.99998474121094
 31
0.0
  0
LINE
  5
1AE
330
75
100
AcDbEntity
  8
0
  6
Continuous
 62
     0
100
AcDbLine
 10
40.0
 20
-39.99998474121094
 30
0.0
 11
40.0
 21
-21.0
 31
0.0
  0
LINE
  5
1AF
330
75
100
AcDbEntity
  8
0
  6
CENTER
 62
     4
100
AcDbLine
 10
-60.0
 20
-42.40970226426843
 30
0.0
 11
-60.0
 21
-32.49998474121094
 31
0.0
  0
LINE
  5
1B0
330
75
100
AcDbEntity
  8
0
  6
CENTER
 62
     4
100
AcDbLine
 10
-66.49999952316284
 20
32.50001525878906
 30
0.0
 11
-53.50000047683716
 21
32.50001525878906
 31
0.0
  0
LINE
  5
1B1
330
75
100
AcDbEntity
  8
0
  6
Continuous
 62
     0
100
AcDbLine
 10
-70.0
 20
40.00001525878906
 30
0.0
 11
-8.0
 21
40.00001525878906
 31
0.0
  0
LINE
  5
1B2
330
75
100
AcDbEntity
  8
0
  6
CENTER
 62
     4
100
AcDbLine
 10
-30.0
 20
-38.99998426437378
 30
0.0
 11
-30.0
 21
-25.9999852180481
 31
0.0
  0
LINE
  5
1B3
330
75
100
AcDbEntity
  8
0
  6
CENTER
 62
     4
100
AcDbLine
 10
30.0
 20
-38.99998426437378
 30
0.0
 11
30.0
 21
-25.9999852180481
 31
0.0
  0
LINE
  5
1B4
330
75
100
AcDbEntity
  8
0
  6
CENTER
 62
     4
100
AcDbLine
 10
-36.49999952316284
 20
-32.49998474121094
 30
0.0
 11
-23.50000047683716
 21
-32.49998474121094
 31
0.0
  0
LINE
  5
1B5
330
75
100
AcDbEntity
  8
0
  6
CENTER
 62
     4
100
AcDbLine
 10
0.0
 20
-43.41749572753906
 30
0.0
 11
0.0
 21
44.38325500488281
 31
0.0
  0
LINE
  5
1B6
330
75
100
AcDbEntity
  8
0
  6
Continuous
 62
     0
100
AcDbLine
 10
-40.0
 20
-39.99998474121094
 30
0.0
 11
-40.0
 21
-21.0
 31
0.0
  0
LINE
  5
1B7
330
75
100
AcDbEntity
  8
0
  6
Continuous
 62
     0
100
AcDbLine
 10
22.0
 20
-39.99998474121094
 30
0.0
 11
22.0
 21
-21.0
 31
0.0
  0
LINE
  5
1B8
330
75
100
AcDbEntity
  8
0
  6
Continuous
 62
     0
100
AcDbLine
 10
-22.0
 20
-39.99998474121094
 30
0.0
 11
-22.0
 21
-21.0
 31
0.0
  0
LINE
  5
1B9
330
75
100
AcDbEntity
  8
0
  6
Continuous
 62
     0
100
AcDbLine
 10
-92.0
 20
-14.99998474121094
 30
0.0
 11
-126.0
 21
-14.99998474121094
 31
0.0
  0
LINE
  5
1BA
330
75
100
AcDbEntity
  8
0
  6
Continuous
 62
     0
100
AcDbLine
 10
-90.0
 20
-5.999984741210938
 30
0.0
 11
-126.0
 21
-5.999984741210938
 31
0.0
  0
LINE
  5
1BB
330
75
100
AcDbEntity
  8
0
  6
Continuous
 62
     0
100
AcDbLine
 10
-73.99998741810239
 20
-29.99993431858866
 30
0.0
 11
-73.35248559450059
 21
-20.28740870515178
 31
0.0
  0
LINE
  5
1BC
330
75
100
AcDbEntity
  8
0
  6
Continuous
 62
     0
100
AcDbLine
 10
73.99999071685151
 20
-29.99998379981669
 30
0.0
 11
73.35248483325078
 21
-20.28739728640684
 31
0.0
  0
LINE
  5
1BD
330
75
100
AcDbEntity
  8
0
  6
CENTER
 62
     4
100
AcDbLine
 10
-60.0
 20
26.00001573562622
 30
0.0
 11
-60.0
 21
39.0000147819519
 31
0.0
  0
LINE
  5
1BE
330
75
100
AcDbEntity
  8
0
  6
CENTER
 62
     4
100
AcDbLine
 10
-30.0
 20
32.50001525878906
 30
0.0
 11
-30.0
 21
42.7339805950015
 31
0.0
  0
LINE
  5
1BF
330
75
100
AcDbEntity
  8
0
  6
CENTER
 62
     4
100
AcDbLine
 10
30.0
 20
32.50001525878906
 30
0.0
 11
30.0
 21
42.92995118802756
 31
0.0
  0
LINE
  5
1C0
330
75
100
AcDbEntity
  8
0
  6
CENTER
 62
     4
100
AcDbLine
 10
60.0
 20
26.00001573562622
 30
0.0
 11
60.0
 21
39.0000147819519
 31
0.0
  0
LINE
  5
1C1
330
75
100
AcDbEntity
  8
0
  6
CENTER
 62
     4
100
AcDbLine
 10
23.50000047683716
 20
-32.49998474121094
 30
0.0
 11
36.49999952316284
 21
-32.49998474121094
 31
0.0
  0
LINE
  5
1C2
330
75
100
AcDbEntity
  8
0
  6
Continuous
 62
     0
100
AcDbLine
 10
84.00000762939453
 20
20.04550170898438
 30
0.0
 11
84.00000762939453
 21
30.00001525878906
 31
0.0
  0
LINE
  5
1C3
330
75
100
AcDbEntity
  8
0
  6
Continuous
 62
     0
100
AcDbLine
 10
-84.00000762939453
 20
20.04550170898438
 30
0.0
 11
-84.00000762939453
 21
30.00001525878906
 31
0.0
  0
LINE
  5
1C4
330
75
100
AcDbEntity
  8
0
  6
DASHED
 62
     4
100
AcDbLine
 10
43.50000021457619
 20
40.00001294854858
 30
0.0
 11
43.30360575461949
 21
32.50001525878907
 31
0.0
  0
LINE
  5
1C5
330
75
100
AcDbEntity
  8
0
  6
DASHED
 62
     4
100
AcDbLine
 10
46.69639018707405
 20
-32.49998474121094
 30
0.0
 11
46.499995526874
 21
-39.99999007795153
 31
0.0
  0
LINE
  5
1C6
330
75
100
AcDbEntity
  8
0
  6
DASHED
 62
     4
100
AcDbLine
 10
73.49999916747488
 20
-39.99998621828463
 30
0.0
 11
73.30360460834382
 21
-32.49998474121094
 31
0.0
  0
LINE
  5
1C7
330
75
100
AcDbEntity
  8
0
  6
DASHED
 62
     4
100
AcDbLine
 10
16.69639355109192
 20
32.50001525878906
 30
0.0
 11
16.49999898936471
 21
40.00001683500565
 31
0.0
  0
LINE
  5
1C8
330
75
100
AcDbEntity
  8
0
  6
DASHED
 62
     0
100
AcDbLine
 10
72.5003418428784
 20
-40.02616318106875
 30
0.0
 11
72.30326181547362
 21
-32.49998474121094
 31
0.0
  0
LINE
  5
1C9
330
75
100
AcDbEntity
  8
0
  6
DASHED
 62
     0
100
AcDbLine
 10
47.69674061195409
 20
-32.49998474121094
 30
0.0
 11
47.49966047825061
 21
-40.02616724045004
 31
0.0
  0
LINE
  5
1CA
330
75
100
AcDbEntity
  8
0
  6
DASHED
 62
     0
100
AcDbLine
 10
17.69673443595965
 20
32.50001525878907
 30
0.0
 11
17.49965440726615
 21
40.02619374786119
 31
0.0
  0
LINE
  5
1CB
330
75
100
AcDbEntity
  8
0
  6
DASHED
 62
     0
100
AcDbLine
 10
42.50034288997971
 20
40.02618991133271
 30
0.0
 11
42.3032629617493
 21
32.50001525878907
 31
0.0
  0
LINE
  5
1CC
330
75
100
AcDbEntity
  8
0
  6
DASHED
 62
     4
100
AcDbLine
 10
-43.30360193861458
 20
32.50001525878907
 30
0.0
 11
-43.49999650104331
 21
40.00001686179582
 31
0.0
  0
LINE
  5
1CD
330
75
100
AcDbEntity
  8
0
  6
DASHED
 62
     0
100
AcDbLine
 10
-42.30325914574438
 20
32.50001525878906
 30
0.0
 11
-42.50033917644683
 21
40.02619382457995
 31
0.0
  0
LINE
  5
1CE
330
75
100
AcDbEntity
  8
0
  6
DASHED
 62
     0
100
AcDbLine
 10
-17.49965641381838
 20
40.02618998439972
 30
0.0
 11
-17.69673634396212
 21
32.50001525878907
 31
0.0
  0
LINE
  5
1CF
330
75
100
AcDbEntity
  8
0
  6
DASHED
 62
     4
100
AcDbLine
 10
-16.49999908922189
 20
40.00001302161559
 30
0.0
 11
-16.69639355109192
 21
32.50001525878906
 31
0.0
  0
LINE
  5
1D0
330
75
100
AcDbEntity
  8
0
  6
DASHED
 62
     4
100
AcDbLine
 10
-13.30360530263243
 20
-32.49998474121094
 30
0.0
 11
-13.49999996353401
 21
-39.99999010474171
 31
0.0
  0
LINE
  5
1D1
330
75
100
AcDbEntity
  8
0
  6
DASHED
 62
     0
100
AcDbLine
 10
-12.30326250976223
 20
-32.49998474121094
 30
0.0
 11
-12.50034263893753
 21
-40.02616706752583
 31
0.0
  0
LINE
  5
1D2
330
75
100
AcDbEntity
  8
0
  6
DASHED
 62
     0
100
AcDbLine
 10
12.50034349242786
 20
-40.02616322917147
 30
0.0
 11
12.30326346376347
 21
-32.49998474121094
 31
0.0
  0
LINE
  5
1D3
330
75
100
AcDbEntity
  8
0
  6
DASHED
 62
     4
100
AcDbLine
 10
13.50000081702435
 20
-39.99998626638735
 30
0.0
 11
13.30360625663367
 21
-32.49998474121094
 31
0.0
  0
LINE
  5
1D4
330
75
100
AcDbEntity
  8
0
  6
DASHED
 62
     4
100
AcDbLine
 10
-73.3036122403537
 20
-32.49998474121093
 30
0.0
 11
-73.50000689411223
 21
-39.99998983196031
 31
0.0
  0
LINE
  5
1D5
330
75
100
AcDbEntity
  8
0
  6
DASHED
 62
     0
100
AcDbLine
 10
-72.30326181547362
 20
-32.49998474121094
 30
0.0
 11
-72.50034194273557
 21
-40.02616699445882
 31
0.0
  0
LINE
  5
1D6
330
75
100
AcDbEntity
  8
0
  6
DASHED
 62
     0
100
AcDbLine
 10
-47.49965676471774
 20
-40.02616332720278
 30
0.0
 11
-47.69673679594918
 21
-32.49998474121094
 31
0.0
  0
LINE
  5
1D7
330
75
100
AcDbEntity
  8
0
  6
DASHED
 62
     4
100
AcDbLine
 10
-46.49999944012126
 20
-39.99998636441865
 30
0.0
 11
-46.69639400307897
 21
-32.49998474121094
 31
0.0
  0
LINE
  5
1D8
330
75
100
AcDbEntity
  8
0
  6
Continuous
 62
     0
100
AcDbLine
 10
-123.0
 20
4.500015258789062
 30
0.0
 11
-90.0
 21
4.500015258789062
 31
0.0
  0
LINE
  5
1D9
330
75
100
AcDbEntity
  8
0
  6
Continuous
 62
     0
100
AcDbLine
 10
-123.0
 20
-4.499984741210938
 30
0.0
 11
-90.0
 21
-4.499984741210938
 31
0.0
  0
LINE
  5
1DA
330
75
100
AcDbEntity
  8
0
  6
Continuous
 62
     0
100
AcDbLine
 10
-90.0
 20
6.500015258789062
 30
0.0
 11
-86.0
 21
6.500015258789062
 31
0.0
  0
LINE
  5
1DB
330
75
100
AcDbEntity
  8
0
  6
Continuous
 62
     0
100
AcDbLine
 10
-90.0
 20
-6.499984741210938
 30
0.0
 11
-86.0
 21
-6.499984741210938
 31
0.0
  0
LINE
  5
1DC
330
75
100
AcDbEntity
  8
0
  6
Continuous
 62
     0
100
AcDbLine
 10
86.0
 20
6.500015258789062
 30
0.0
 11
90.0
 21
6.500015258789062
 31
0.0
  0
LINE
  5
1DD
330
75
100
AcDbEntity
  8
0
  6
Continuous
 62
     0
100
AcDbLine
 10
90.0
 20
4.500015258789062
 30
0.0
 11
122.9999847412109
 21
4.500015258789062
 31
0.0
  0
LINE
  5
1DE
330
75
100
AcDbEntity
  8
0
  6
Continuous
 62
     0
100
AcDbLine
 10
90.0
 20
-4.499984741210938
 30
0.0
 11
122.9999847412109
 21
-4.499984741210938
 31
0.0
  0
LINE
  5
1DF
330
75
100
AcDbEntity
  8
0
  6
Continuous
 62
     0
100
AcDbLine
 10
86.0
 20
-6.499984741210938
 30
0.0
 11
90.0
 21
-6.499984741210938
 31
0.0
  0
LINE
  5
1E0
330
75
100
AcDbEntity
  8
0
  6
CENTER
 62
     4
100
AcDbLine
 10
-81.49996948242188
 20
21.26409291380581
 30
0.0
 11
-81.49996948242188
 21
15.99998474121094
 31
0.0
  0
LINE
  5
1E1
330
75
100
AcDbEntity
  8
0
  6
DASHED
 62
     0
100
AcDbLine
 10
-82.49993896484375
 20
20.07959163552942
 30
0.0
 11
-82.49993896484375
 21
15.99998474121094
 31
0.0
  0
LINE
  5
1E2
330
75
100
AcDbEntity
  8
0
  6
DASHED
 62
     0
100
AcDbLine
 10
-80.49996948242188
 20
20.12504466831716
 30
0.0
 11
-80.49996948242188
 21
15.99998474121094
 31
0.0
  0
LINE
  5
1E3
330
75
100
AcDbEntity
  8
0
  6
Continuous
 62
     0
100
AcDbLine
 10
-86.0
 20
20.0000462272678
 30
0.0
 11
-42.00001944078169
 21
21.00002776528407
 31
0.0
  0
LINE
  5
1E4
330
75
100
AcDbEntity
  8
0
  6
Continuous
 62
     0
100
AcDbLine
 10
-86.0
 20
20.0000462272678
 30
0.0
 11
-86.0
 21
9.213415962267064
 31
0.0
  0
LINE
  5
1E5
330
75
100
AcDbEntity
  8
0
  6
Continuous
 62
     0
100
AcDbLine
 10
-86.00000000000001
 20
10.80052005946835
 30
0.0
 11
-42.00003814697266
 21
11.49959737685866
 31
0.0
  0
LINE
  5
1E6
330
75
100
AcDbEntity
  8
0
  6
Continuous
 62
     0
100
AcDbLine
 10
-86.0
 20
9.21341596226706
 30
0.0
 11
-83.50003685287635
 21
8.799817381172282
 31
0.0
  0
LINE
  5
1E7
330
75
100
AcDbEntity
  8
0
  6
Continuous
 62
     0
100
AcDbLine
 10
-83.5
 20
8.800033569335938
 30
0.0
 11
-83.5
 21
7.199935913085938
 31
0.0
  0
LINE
  5
1E8
330
75
100
AcDbEntity
  8
0
  6
Continuous
 62
     0
100
AcDbLine
 10
-83.50003051757812
 20
8.799774169921875
 30
0.0
 11
-35.99999237060547
 21
8.799774169921875
 31
0.0
  0
LINE
  5
1E9
330
75
100
AcDbEntity
  8
0
  6
Continuous
 62
     0
100
AcDbLine
 10
-83.49998580154846
 20
7.199903928537413
 30
0.0
 11
-86.0
 21
6.786296347794378
 31
0.0
  0
LINE
  5
1EA
330
75
100
AcDbEntity
  8
0
  6
Continuous
 62
     0
100
AcDbLine
 10
-83.50003051757812
 20
7.19989013671875
 30
0.0
 11
-35.99999237060547
 21
7.19989013671875
 31
0.0
  0
LINE
  5
1EB
330
75
100
AcDbEntity
  8
0
  6
Continuous
 62
     0
100
AcDbLine
 10
-86.0
 20
6.786296347794367
 30
0.0
 11
-86.0
 21
5.213525678593408
 31
0.0
  0
LINE
  5
1EC
330
75
100
AcDbEntity
  8
0
  6
Continuous
 62
     0
100
AcDbLine
 10
-86.00000000000001
 20
5.213525678593403
 30
0.0
 11
-83.50006725484646
 21
4.799931196071725
 31
0.0
  0
LINE
  5
1ED
330
75
100
AcDbEntity
  8
0
  6
Continuous
 62
     0
100
AcDbLine
 10
-83.50003051757812
 20
4.799911499023438
 30
0.0
 11
-35.99999237060547
 21
4.799911499023438
 31
0.0
  0
LINE
  5
1EE
330
75
100
AcDbEntity
  8
0
  6
Continuous
 62
     0
100
AcDbLine
 10
-83.5
 20
4.800033569335938
 30
0.0
 11
-83.5
 21
3.199951171875
 31
0.0
  0
LINE
  5
1EF
330
75
100
AcDbEntity
  8
0
  6
Continuous
 62
     0
100
AcDbLine
 10
-86.00000000000001
 20
2.786303828386979
 30
0.0
 11
-83.49998280718209
 21
3.199910193128227
 31
0.0
  0
LINE
  5
1F0
330
75
100
AcDbEntity
  8
0
  6
Continuous
 62
     0
100
AcDbLine
 10
-83.50003051757812
 20
3.199874877929688
 30
0.0
 11
-35.99999237060547
 21
3.199874877929688
 31
0.0
  0
LINE
  5
1F1
330
75
100
AcDbEntity
  8
0
  6
Continuous
 62
     0
100
AcDbLine
 10
-86.0
 20
2.786303828386968
 30
0.0
 11
-86.0
 21
1.213428082580462
 31
0.0
  0
LINE
  5
1F2
330
75
100
AcDbEntity
  8
0
  6
Continuous
 62
     0
100
AcDbLine
 10
-86.00000000000001
 20
1.213428082580462
 30
0.0
 11
-83.50001870698722
 21
0.799828034743534
 31
0.0
  0
LINE
  5
1F3
330
75
100
AcDbEntity
  8
0
  6
Continuous
 62
     0
100
AcDbLine
 10
-83.50003051757812
 20
0.799896240234375
 30
0.0
 11
-35.99999237060547
 21
0.799896240234375
 31
0.0
  0
LINE
  5
1F4
330
75
100
AcDbEntity
  8
0
  6
Continuous
 62
     0
100
AcDbLine
 10
-83.5
 20
0.800048828125
 30
0.0
 11
-83.5
 21
-0.79998779296875
 31
0.0
  0
LINE
  5
1F5
330
75
100
AcDbEntity
  8
0
  6
Continuous
 62
     0
100
AcDbLine
 10
-83.50003051757812
 20
-0.79998779296875
 30
0.0
 11
-35.99999237060547
 21
-0.79998779296875
 31
0.0
  0
LINE
  5
1F6
330
75
100
AcDbEntity
  8
0
  6
Continuous
 62
     0
100
AcDbLine
 10
-86.0
 20
-1.213601452958835
 30
0.0
 11
-83.50003111627878
 21
-0.800002929507318
 31
0.0
  0
LINE
  5
1F7
330
75
100
AcDbEntity
  8
0
  6
Continuous
 62
     0
100
AcDbLine
 10
-86.0
 20
-2.786264500400233
 30
0.0
 11
-86.0
 21
-1.213601452958834
 31
0.0
  0
LINE
  5
1F8
330
75
100
AcDbEntity
  8
0
  6
Continuous
 62
     0
100
AcDbLine
 10
-86.00000000000001
 20
-2.786264500400241
 30
0.0
 11
-83.49999065453105
 21
-3.199870573598011
 31
0.0
  0
LINE
  5
1F9
330
75
100
AcDbEntity
  8
0
  6
Continuous
 62
     0
100
AcDbLine
 10
-83.50003051757812
 20
-3.199920654296875
 30
0.0
 11
-35.99999237060547
 21
-3.199920654296875
 31
0.0
  0
LINE
  5
1FA
330
75
100
AcDbEntity
  8
0
  6
Continuous
 62
     0
100
AcDbLine
 10
-83.5
 20
-4.800033569335938
 30
0.0
 11
-83.5
 21
-3.199966430664062
 31
0.0
  0
LINE
  5
1FB
330
75
100
AcDbEntity
  8
0
  6
Continuous
 62
     0
100
AcDbLine
 10
-83.50003051757812
 20
-4.800186157226562
 30
0.0
 11
-35.99999237060547
 21
-4.800186157226562
 31
0.0
  0
LINE
  5
1FC
330
75
100
AcDbEntity
  8
0
  6
Continuous
 62
     0
100
AcDbLine
 10
-86.00000000000001
 20
-5.213835205114796
 30
0.0
 11
-83.49999014737614
 21
-4.800229274569006
 31
0.0
  0
LINE
  5
1FD
330
75
100
AcDbEntity
  8
0
  6
Continuous
 62
     0
100
AcDbLine
 10
-86.0
 20
-6.786551627151488
 30
0.0
 11
-86.0
 21
-5.213835205114799
 31
0.0
  0
LINE
  5
1FE
330
75
100
AcDbEntity
  8
0
  6
Continuous
 62
     0
100
AcDbLine
 10
-83.50002118503534
 20
-7.200152649327356
 30
0.0
 11
-86.00000000000001
 21
-6.7865516271515
 31
0.0
  0
LINE
  5
1FF
330
75
100
AcDbEntity
  8
0
  6
Continuous
 62
     0
100
AcDbLine
 10
-83.50003051757812
 20
-7.200164794921875
 30
0.0
 11
-35.99999237060547
 21
-7.200164794921875
 31
0.0
  0
LINE
  5
200
330
75
100
AcDbEntity
  8
0
  6
Continuous
 62
     0
100
AcDbLine
 10
-83.5
 20
-8.800064086914062
 30
0.0
 11
-83.5
 21
-7.199935913085938
 31
0.0
  0
LINE
  5
201
330
75
100
AcDbEntity
  8
0
  6
Continuous
 62
     0
100
AcDbLine
 10
-83.50003051757812
 20
-8.800018310546875
 30
0.0
 11
-35.99999237060547
 21
-8.800018310546875
 31
0.0
  0
LINE
  5
202
330
75
100
AcDbEntity
  8
0
  6
Continuous
 62
     0
100
AcDbLine
 10
-86.00000000000001
 20
-9.213580473056641
 30
0.0
 11
-83.49998700142746
 21
-8.799974022039692
 31
0.0
  0
LINE
  5
203
330
75
100
AcDbEntity
  8
0
  6
Continuous
 62
     0
100
AcDbLine
 10
-86.0
 20
-19.99997783729878
 30
0.0
 11
-86.0
 21
-9.21358047305664
 31
0.0
  0
LINE
  5
204
330
75
100
AcDbEntity
  8
0
  6
Continuous
 62
     0
100
AcDbLine
 10
-86.00000000000001
 20
-10.80030665507607
 30
0.0
 11
-42.00003814697266
 21
-11.49939069373236
 31
0.0
  0
LINE
  5
205
330
75
100
AcDbEntity
  8
0
  6
Continuous
 62
     0
100
AcDbLine
 10
-86.00000000000001
 20
-19.99997783729879
 30
0.0
 11
-42.0000252043674
 21
-20.999965966482
 31
0.0
  0
LINE
  5
206
330
75
100
AcDbEntity
  8
0
  6
Continuous
 62
     0
100
AcDbLine
 10
-41.99842834472656
 20
-21.0
 30
0.0
 11
41.99842834472656
 21
-21.0
 31
0.0
  0
LINE
  5
207
330
75
100
AcDbEntity
  8
0
  6
Continuous
 62
     0
100
AcDbLine
 10
-42.00003814697266
 20
-20.99998474121094
 30
0.0
 11
-42.00003814697266
 21
-11.49939069373236
 31
0.0
  0
LINE
  5
208
330
75
100
AcDbEntity
  8
0
  6
Continuous
 62
     0
100
AcDbLine
 10
-34.99997711181641
 20
-20.99998474121094
 30
0.0
 11
-34.99997711181641
 21
20.99998474121094
 31
0.0
  0
LINE
  5
209
330
75
100
AcDbEntity
  8
0
  6
Continuous
 62
     0
100
AcDbLine
 10
-35.99997711181641
 20
8.799774169921875
 30
0.0
 11
-35.99997711181641
 21
-8.800018310546875
 31
0.0
  0
LINE
  5
20A
330
75
100
AcDbEntity
  8
0
  6
Continuous
 62
     0
100
AcDbLine
 10
-42.00003814697266
 20
20.99998474121094
 30
0.0
 11
-42.00003814697266
 21
11.49959737685865
 31
0.0
  0
LINE
  5
20B
330
75
100
AcDbEntity
  8
0
  6
Continuous
 62
     0
100
AcDbLine
 10
-42.00098419189453
 20
21.0
 30
0.0
 11
42.00082397460938
 21
21.0
 31
0.0
  0
LINE
  5
20C
330
75
100
AcDbEntity
  8
0
  6
CENTER
 62
     4
100
AcDbLine
 10
-46.53068244589113
 20
15.99998474121094
 30
0.0
 11
-42.00003814697266
 21
15.99998474121094
 31
0.0
  0
LINE
  5
20D
330
75
100
AcDbEntity
  8
0
  6
Continuous
 62
     0
100
AcDbLine
 10
-43.00002288818359
 20
19.5
 30
0.0
 11
-43.00002288818359
 21
12.49996948242188
 31
0.0
  0
LINE
  5
20E
330
75
100
AcDbEntity
  8
0
  6
Continuous
 62
     0
100
AcDbLine
 10
-44.30003356933594
 20
19.5
 30
0.0
 11
-42.00003814697266
 21
19.5
 31
0.0
  0
LINE
  5
20F
330
75
100
AcDbEntity
  8
0
  6
Continuous
 62
     0
100
AcDbLine
 10
-44.30003356933594
 20
12.49996948242188
 30
0.0
 11
-42.00003814697266
 21
12.49996948242188
 31
0.0
  0
LINE
  5
210
330
75
100
AcDbEntity
  8
0
  6
CENTER
 62
     4
100
AcDbLine
 10
-20.99996185302734
 20
-13.49999618530273
 30
0.0
 11
-20.99996185302734
 21
13.49999618530273
 31
0.0
  0
LINE
  5
211
330
75
100
AcDbEntity
  8
0
  6
CENTER
 62
     4
100
AcDbLine
 10
-23.81446075439453
 20
-3.499984741210938
 30
0.0
 11
-18.29244232177734
 21
-3.499984741210938
 31
0.0
  0
LINE
  5
212
330
75
100
AcDbEntity
  8
0
  6
CENTER
 62
     4
100
AcDbLine
 10
-23.53157043457031
 20
3.499984741210938
 30
0.0
 11
-18.29244232177734
 21
3.499984741210938
 31
0.0
  0
LINE
  5
213
330
75
100
AcDbEntity
  8
0
  6
Continuous
 62
     0
100
AcDbLine
 10
-4.0
 20
21.0
 30
0.0
 11
-4.0
 21
-21.0
 31
0.0
  0
LINE
  5
214
330
75
100
AcDbEntity
  8
0
  6
Continuous
 62
     0
100
AcDbLine
 10
4.0
 20
21.0
 30
0.0
 11
4.0
 21
-21.0
 31
0.0
  0
LINE
  5
215
330
75
100
AcDbEntity
  8
0
  6
Continuous
 62
     0
100
AcDbLine
 10
-20.99996185302734
 20
26.75003051757812
 30
0.0
 11
-10.99996185302734
 21
26.75003051757812
 31
0.0
  0
LINE
  5
216
330
75
100
AcDbEntity
  8
0
  6
Continuous
 62
     0
100
AcDbLine
 10
-20.99996185302734
 20
26.75003051757812
 30
0.0
 11
-20.99996185302734
 21
25.75001525878906
 31
0.0
  0
LINE
  5
217
330
75
100
AcDbEntity
  8
0
  6
Continuous
 62
     0
100
AcDbLine
 10
-21.0
 20
25.75004577636719
 30
0.0
 11
-10.99996948242188
 21
25.75004577636719
 31
0.0
  0
LINE
  5
218
330
75
100
AcDbEntity
  8
0
  6
CENTER
 62
     4
100
AcDbLine
 10
-20.24996185302734
 20
25.75004577636719
 30
0.0
 11
-20.24996185302734
 21
20.99998474121094
 31
0.0
  0
LINE
  5
219
330
75
100
AcDbEntity
  8
0
  6
PHANTOM
 62
     4
100
AcDbLine
 10
-20.49993133544922
 20
25.5
 30
0.0
 11
-20.49993133544922
 21
20.99998474121094
 31
0.0
  0
LINE
  5
21A
330
75
100
AcDbEntity
  8
0
  6
PHANTOM
 62
     4
100
AcDbLine
 10
-19.99997711181641
 20
25.5
 30
0.0
 11
-19.99997711181641
 21
20.99998474121094
 31
0.0
  0
LINE
  5
21B
330
75
100
AcDbEntity
  8
0
  6
Continuous
 62
     0
100
AcDbLine
 10
-19.40000152587891
 20
22.75001525878906
 30
0.0
 11
-19.40000152587891
 21
20.99998474121094
 31
0.0
  0
LINE
  5
21C
330
75
100
AcDbEntity
  8
0
  6
Continuous
 62
     0
100
AcDbLine
 10
-19.40003204345703
 20
22.75001525878906
 30
0.0
 11
-12.60007476806641
 21
22.75001525878906
 31
0.0
  0
LINE
  5
21D
330
75
100
AcDbEntity
  8
0
  6
CENTER
 62
     4
100
AcDbLine
 10
-15.99996185302734
 20
27.66026728536682
 30
0.0
 11
-15.99996185302734
 21
20.99998474121094
 31
0.0
  0
LINE
  5
21E
330
75
100
AcDbEntity
  8
0
  6
Continuous
 62
     0
100
AcDbLine
 10
-19.85000940297824
 20
23.74998820921362
 30
0.0
 11
-19.40000439913785
 21
22.75000442492203
 31
0.0
  0
LINE
  5
21F
330
75
100
AcDbEntity
  8
0
  6
Continuous
 62
     0
100
AcDbLine
 10
-19.85009002685547
 20
23.75
 30
0.0
 11
-12.14998626708984
 21
23.75
 31
0.0
  0
LINE
  5
220
330
75
100
AcDbEntity
  8
0
  6
Continuous
 62
     0
100
AcDbLine
 10
-19.85005950927734
 20
25.75001525878906
 30
0.0
 11
-19.85005950927734
 21
23.75001525878906
 31
0.0
  0
LINE
  5
221
330
75
100
AcDbEntity
  8
0
  6
Continuous
 62
     0
100
AcDbLine
 10
-10.99996185302734
 20
26.75003051757812
 30
0.0
 11
-10.99996185302734
 21
25.75001525878906
 31
0.0
  0
LINE
  5
222
330
75
100
AcDbEntity
  8
0
  6
CENTER
 62
     4
100
AcDbLine
 10
-11.74997711181641
 20
25.75004577636719
 30
0.0
 11
-11.74997711181641
 21
20.99998474121094
 31
0.0
  0
LINE
  5
223
330
75
100
AcDbEntity
  8
0
  6
PHANTOM
 62
     4
100
AcDbLine
 10
-11.49996185302734
 20
25.75001525878906
 30
0.0
 11
-11.49996185302734
 21
20.99998474121094
 31
0.0
  0
LINE
  5
224
330
75
100
AcDbEntity
  8
0
  6
PHANTOM
 62
     4
100
AcDbLine
 10
-11.99994659423828
 20
25.75001525878906
 30
0.0
 11
-11.99994659423828
 21
20.99998474121094
 31
0.0
  0
LINE
  5
225
330
75
100
AcDbEntity
  8
0
  6
Continuous
 62
     0
100
AcDbLine
 10
-12.14998626708984
 20
25.75001525878906
 30
0.0
 11
-12.14998626708984
 21
23.75001525878906
 31
0.0
  0
LINE
  5
226
330
75
100
AcDbEntity
  8
0
  6
Continuous
 62
     0
100
AcDbLine
 10
-12.14991032422079
 20
23.75005161631122
 30
0.0
 11
-12.59992142952548
 21
22.7500538451081
 31
0.0
  0
LINE
  5
227
330
75
100
AcDbEntity
  8
0
  6
Continuous
 62
     0
100
AcDbLine
 10
-12.60007476806641
 20
22.75001525878906
 30
0.0
 11
-12.60007476806641
 21
20.99998474121094
 31
0.0
  0
LINE
  5
228
330
75
100
AcDbEntity
  8
0
  6
CENTER
 62
     4
100
AcDbLine
 10
15.99996185302734
 20
-27.57290729223381
 30
0.0
 11
15.99996185302734
 21
-20.99998474121094
 31
0.0
  0
LINE
  5
229
330
75
100
AcDbEntity
  8
0
  6
Continuous
 62
     0
100
AcDbLine
 10
12.60007476806641
 20
-22.75001525878906
 30
0.0
 11
12.60007476806641
 21
-20.99998474121094
 31
0.0
  0
LINE
  5
22A
330
75
100
AcDbEntity
  8
0
  6
Continuous
 62
     0
100
AcDbLine
 10
19.40003204345703
 20
-22.75001525878906
 30
0.0
 11
12.60007476806641
 21
-22.75001525878906
 31
0.0
  0
LINE
  5
22B
330
75
100
AcDbEntity
  8
0
  6
PHANTOM
 62
     4
100
AcDbLine
 10
11.99994659423828
 20
-25.75001525878906
 30
0.0
 11
11.99994659423828
 21
-20.99998474121094
 31
0.0
  0
LINE
  5
22C
330
75
100
AcDbEntity
  8
0
  6
CENTER
 62
     4
100
AcDbLine
 10
11.74997711181641
 20
-25.75004577636719
 30
0.0
 11
11.74997711181641
 21
-20.99998474121094
 31
0.0
  0
LINE
  5
22D
330
75
100
AcDbEntity
  8
0
  6
PHANTOM
 62
     4
100
AcDbLine
 10
11.49996185302734
 20
-25.75001525878906
 30
0.0
 11
11.49996185302734
 21
-20.99998474121094
 31
0.0
  0
LINE
  5
22E
330
75
100
AcDbEntity
  8
0
  6
Continuous
 62
     0
100
AcDbLine
 10
12.14998626708984
 20
-25.75001525878906
 30
0.0
 11
12.14998626708984
 21
-23.75001525878906
 31
0.0
  0
LINE
  5
22F
330
75
100
AcDbEntity
  8
0
  6
Continuous
 62
     0
100
AcDbLine
 10
19.85009002685547
 20
-23.75
 30
0.0
 11
12.14998626708984
 21
-23.75
 31
0.0
  0
LINE
  5
230
330
75
100
AcDbEntity
  8
0
  6
Continuous
 62
     0
100
AcDbLine
 10
12.1499080631995
 20
-23.75003804934101
 30
0.0
 11
12.59991916850419
 21
-22.7500402781379
 31
0.0
  0
LINE
  5
231
330
75
100
AcDbEntity
  8
0
  6
Continuous
 62
     0
100
AcDbLine
 10
10.99996185302734
 20
-26.75003051757812
 30
0.0
 11
10.99996185302734
 21
-25.75001525878906
 31
0.0
  0
LINE
  5
232
330
75
100
AcDbEntity
  8
0
  6
Continuous
 62
     0
100
AcDbLine
 10
20.99996185302734
 20
-26.75003051757812
 30
0.0
 11
10.99996185302734
 21
-26.75003051757812
 31
0.0
  0
LINE
  5
233
330
75
100
AcDbEntity
  8
0
  6
Continuous
 62
     0
100
AcDbLine
 10
21.0
 20
-25.75004577636719
 30
0.0
 11
10.99996948242188
 21
-25.75004577636719
 31
0.0
  0
LINE
  5
234
330
75
100
AcDbEntity
  8
0
  6
Continuous
 62
     0
100
AcDbLine
 10
20.99996185302734
 20
-26.75003051757812
 30
0.0
 11
20.99996185302734
 21
-25.75001525878906
 31
0.0
  0
LINE
  5
235
330
75
100
AcDbEntity
  8
0
  6
PHANTOM
 62
     4
100
AcDbLine
 10
20.49993133544922
 20
-25.5
 30
0.0
 11
20.49993133544922
 21
-20.99998474121094
 31
0.0
  0
LINE
  5
236
330
75
100
AcDbEntity
  8
0
  6
CENTER
 62
     4
100
AcDbLine
 10
20.24996185302734
 20
-25.75004577636719
 30
0.0
 11
20.24996185302734
 21
-20.99998474121094
 31
0.0
  0
LINE
  5
237
330
75
100
AcDbEntity
  8
0
  6
PHANTOM
 62
     4
100
AcDbLine
 10
19.99997711181641
 20
-25.5
 30
0.0
 11
19.99997711181641
 21
-20.99998474121094
 31
0.0
  0
LINE
  5
238
330
75
100
AcDbEntity
  8
0
  6
Continuous
 62
     0
100
AcDbLine
 10
19.85005950927734
 20
-25.75001525878906
 30
0.0
 11
19.85005950927734
 21
-23.75001525878906
 31
0.0
  0
LINE
  5
239
330
75
100
AcDbEntity
  8
0
  6
Continuous
 62
     0
100
AcDbLine
 10
19.84999983679894
 20
-23.7500134299189
 30
0.0
 11
19.40000109476894
 21
-22.75004356038115
 31
0.0
  0
LINE
  5
23A
330
75
100
AcDbEntity
  8
0
  6
Continuous
 62
     0
100
AcDbLine
 10
19.40000152587891
 20
-22.75001525878906
 30
0.0
 11
19.40000152587891
 21
-20.99998474121094
 31
0.0
  0
LINE
  5
23B
330
75
100
AcDbEntity
  8
0
  6
CENTER
 62
     4
100
AcDbLine
 10
20.99996185302734
 20
-13.49999618530273
 30
0.0
 11
20.99996185302734
 21
13.49999618530273
 31
0.0
  0
LINE
  5
23C
330
75
100
AcDbEntity
  8
0
  6
CENTER
 62
     4
100
AcDbLine
 10
23.71120452880859
 20
-3.499984741210938
 30
0.0
 11
18.29244232177734
 21
-3.499984741210938
 31
0.0
  0
LINE
  5
23D
330
75
100
AcDbEntity
  8
0
  6
CENTER
 62
     4
100
AcDbLine
 10
23.71120452880859
 20
3.499984741210938
 30
0.0
 11
18.29244232177734
 21
3.499984741210938
 31
0.0
  0
LINE
  5
23E
330
75
100
AcDbEntity
  8
0
  6
Continuous
 62
     0
100
AcDbLine
 10
34.99997711181641
 20
-20.99998474121094
 30
0.0
 11
34.99997711181641
 21
20.99998474121094
 31
0.0
  0
LINE
  5
23F
330
75
100
AcDbEntity
  8
0
  6
Continuous
 62
     0
100
AcDbLine
 10
85.99999999999999
 20
20.00005385863241
 30
0.0
 11
42.00001198670417
 21
21.00003556605648
 31
0.0
  0
LINE
  5
240
330
75
100
AcDbEntity
  8
0
  6
Continuous
 62
     0
100
AcDbLine
 10
42.00003814697266
 20
20.99998474121094
 30
0.0
 11
42.00003814697266
 21
11.49958306993848
 31
0.0
  0
LINE
  5
241
330
75
100
AcDbEntity
  8
0
  6
Continuous
 62
     0
100
AcDbLine
 10
35.99997711181641
 20
8.799774169921875
 30
0.0
 11
35.99997711181641
 21
-8.800018310546875
 31
0.0
  0
LINE
  5
242
330
75
100
AcDbEntity
  8
0
  6
Continuous
 62
     0
100
AcDbLine
 10
86.00000000000001
 20
-19.99996639025184
 30
0.0
 11
42.00003257176942
 21
-20.99995435199598
 31
0.0
  0
LINE
  5
243
330
75
100
AcDbEntity
  8
0
  6
CENTER
 62
     4
100
AcDbLine
 10
81.49996948242188
 20
-21.52387928859451
 30
0.0
 11
81.49996948242188
 21
-15.99998474121094
 31
0.0
  0
LINE
  5
244
330
75
100
AcDbEntity
  8
0
  6
DASHED
 62
     0
100
AcDbLine
 10
80.49996948242188
 20
-20.12496567157572
 30
0.0
 11
80.49996948242188
 21
-15.99998474121094
 31
0.0
  0
LINE
  5
245
330
75
100
AcDbEntity
  8
0
  6
DASHED
 62
     0
100
AcDbLine
 10
82.49993896484375
 20
-20.07951233323997
 30
0.0
 11
82.49993896484375
 21
-15.99998474121094
 31
0.0
  0
LINE
  5
246
330
75
100
AcDbEntity
  8
0
  6
Continuous
 62
     0
100
AcDbLine
 10
86.0
 20
-19.99996639025183
 30
0.0
 11
86.0
 21
-9.213601255767239
 31
0.0
  0
LINE
  5
247
330
75
100
AcDbEntity
  8
0
  6
Continuous
 62
     0
100
AcDbLine
 10
86.0
 20
-10.8003047474867
 30
0.0
 11
42.00003814697266
 21
-11.49938878614299
 31
0.0
  0
LINE
  5
248
330
75
100
AcDbEntity
  8
0
  6
Continuous
 62
     0
100
AcDbLine
 10
42.00003814697266
 20
-20.99998474121094
 30
0.0
 11
42.00003814697266
 21
-11.499388786143
 31
0.0
  0
LINE
  5
249
330
75
100
AcDbEntity
  8
0
  6
Continuous
 62
     0
100
AcDbLine
 10
86.00000000000001
 20
-9.213601255767237
 30
0.0
 11
83.49998365470313
 21
-8.799994251062458
 31
0.0
  0
LINE
  5
24A
330
75
100
AcDbEntity
  8
0
  6
Continuous
 62
     0
100
AcDbLine
 10
83.5
 20
-8.800064086914062
 30
0.0
 11
83.5
 21
-7.199935913085938
 31
0.0
  0
LINE
  5
24B
330
75
100
AcDbEntity
  8
0
  6
Continuous
 62
     0
100
AcDbLine
 10
83.5000214963587
 20
-7.200154531096887
 30
0.0
 11
86.00000000000001
 21
-6.786553560426931
 31
0.0
  0
LINE
  5
24C
330
75
100
AcDbEntity
  8
0
  6
Continuous
 62
     0
100
AcDbLine
 10
86.0
 20
-6.78655356042692
 30
0.0
 11
86.0
 21
-5.213855504506546
 31
0.0
  0
LINE
  5
24D
330
75
100
AcDbEntity
  8
0
  6
Continuous
 62
     0
100
AcDbLine
 10
86.00000000000001
 20
-5.213855504506547
 30
0.0
 11
83.49998687848262
 21
-4.80024903314939
 31
0.0
  0
LINE
  5
24E
330
75
100
AcDbEntity
  8
0
  6
Continuous
 62
     0
100
AcDbLine
 10
83.5
 20
-4.800033569335938
 30
0.0
 11
83.5
 21
-3.199966430664062
 31
0.0
  0
LINE
  5
24F
330
75
100
AcDbEntity
  8
0
  6
Continuous
 62
     0
100
AcDbLine
 10
86.00000000000003
 20
-2.786281899879137
 30
0.0
 11
83.49997840228504
 21
-3.199890000110676
 31
0.0
  0
LINE
  5
250
330
75
100
AcDbEntity
  8
0
  6
Continuous
 62
     0
100
AcDbLine
 10
86.0
 20
-2.786281899879127
 30
0.0
 11
86.0
 21
-1.213610152697802
 31
0.0
  0
LINE
  5
251
330
75
100
AcDbEntity
  8
0
  6
Continuous
 62
     0
100
AcDbLine
 10
86.0
 20
-1.213610152697802
 30
0.0
 11
83.50000713409085
 21
-0.800007661597897
 31
0.0
  0
LINE
  5
252
330
75
100
AcDbEntity
  8
0
  6
Continuous
 62
     0
100
AcDbLine
 10
83.5
 20
0.800048828125
 30
0.0
 11
83.5
 21
-0.79998779296875
 31
0.0
  0
LINE
  5
253
330
75
100
AcDbEntity
  8
0
  6
Continuous
 62
     0
100
AcDbLine
 10
86.00000000000001
 20
1.213438715594389
 30
0.0
 11
83.50000194055673
 21
0.799835893898122
 31
0.0
  0
LINE
  5
254
330
75
100
AcDbEntity
  8
0
  6
Continuous
 62
     0
100
AcDbLine
 10
86.0
 20
2.786290295459816
 30
0.0
 11
86.0
 21
1.213438715594394
 31
0.0
  0
LINE
  5
255
330
75
100
AcDbEntity
  8
0
  6
Continuous
 62
     0
100
AcDbLine
 10
86.00000000000003
 20
2.786290295459828
 30
0.0
 11
83.49999568208098
 21
3.199894530159677
 31
0.0
  0
LINE
  5
256
330
75
100
AcDbEntity
  8
0
  6
Continuous
 62
     0
100
AcDbLine
 10
86.0
 20
20.00005385863241
 30
0.0
 11
86.0
 21
9.213378263395759
 31
0.0
  0
LINE
  5
257
330
75
100
AcDbEntity
  8
0
  6
Continuous
 62
     0
100
AcDbLine
 10
86.00000000000001
 20
10.80050575254817
 30
0.0
 11
42.00003814697266
 21
11.49958306993848
 31
0.0
  0
LINE
  5
258
330
75
100
AcDbEntity
  8
0
  6
Continuous
 62
     0
100
AcDbLine
 10
86.0
 20
9.213378263395757
 30
0.0
 11
83.50003539660594
 21
8.799779441372877
 31
0.0
  0
LINE
  5
259
330
75
100
AcDbEntity
  8
0
  6
Continuous
 62
     0
100
AcDbLine
 10
83.50003051757812
 20
8.799774169921875
 30
0.0
 11
35.99999237060547
 21
8.799774169921875
 31
0.0
  0
LINE
  5
25A
330
75
100
AcDbEntity
  8
0
  6
Continuous
 62
     0
100
AcDbLine
 10
83.5
 20
8.800033569335938
 30
0.0
 11
83.5
 21
7.199935913085938
 31
0.0
  0
LINE
  5
25B
330
75
100
AcDbEntity
  8
0
  6
Continuous
 62
     0
100
AcDbLine
 10
83.50003051757812
 20
7.19989013671875
 30
0.0
 11
35.99999237060547
 21
7.19989013671875
 31
0.0
  0
LINE
  5
25C
330
75
100
AcDbEntity
  8
0
  6
Continuous
 62
     0
100
AcDbLine
 10
83.49997702917517
 20
7.199897646755126
 30
0.0
 11
86.0
 21
6.786288614692298
 31
0.0
  0
LINE
  5
25D
330
75
100
AcDbEntity
  8
0
  6
Continuous
 62
     0
100
AcDbLine
 10
86.0
 20
6.786288614692285
 30
0.0
 11
86.0
 21
5.213520845404489
 31
0.0
  0
LINE
  5
25E
330
75
100
AcDbEntity
  8
0
  6
Continuous
 62
     0
100
AcDbLine
 10
86.00000000000001
 20
5.213520845404483
 30
0.0
 11
83.50004545192402
 21
4.799922755758397
 31
0.0
  0
LINE
  5
25F
330
75
100
AcDbEntity
  8
0
  6
Continuous
 62
     0
100
AcDbLine
 10
83.5
 20
4.800033569335938
 30
0.0
 11
83.5
 21
3.199951171875
 31
0.0
  0
LINE
  5
260
330
75
100
AcDbEntity
  8
0
  6
Continuous
 62
     0
100
AcDbLine
 10
83.50003051757812
 20
4.799911499023438
 30
0.0
 11
35.99999237060547
 21
4.799911499023438
 31
0.0
  0
LINE
  5
261
330
75
100
AcDbEntity
  8
0
  6
Continuous
 62
     0
100
AcDbLine
 10
83.50003051757812
 20
3.199874877929688
 30
0.0
 11
35.99999237060547
 21
3.199874877929688
 31
0.0
  0
LINE
  5
262
330
75
100
AcDbEntity
  8
0
  6
Continuous
 62
     0
100
AcDbLine
 10
83.50003051757812
 20
0.799896240234375
 30
0.0
 11
35.99999237060547
 21
0.799896240234375
 31
0.0
  0
LINE
  5
263
330
75
100
AcDbEntity
  8
0
  6
Continuous
 62
     0
100
AcDbLine
 10
83.50003051757812
 20
-0.79998779296875
 30
0.0
 11
35.99999237060547
 21
-0.79998779296875
 31
0.0
  0
LINE
  5
264
330
75
100
AcDbEntity
  8
0
  6
Continuous
 62
     0
100
AcDbLine
 10
83.50003051757812
 20
-3.199920654296875
 30
0.0
 11
35.99999237060547
 21
-3.199920654296875
 31
0.0
  0
LINE
  5
265
330
75
100
AcDbEntity
  8
0
  6
Continuous
 62
     0
100
AcDbLine
 10
83.50003051757812
 20
-4.800186157226562
 30
0.0
 11
35.99999237060547
 21
-4.800186157226562
 31
0.0
  0
LINE
  5
266
330
75
100
AcDbEntity
  8
0
  6
Continuous
 62
     0
100
AcDbLine
 10
83.50003051757812
 20
-7.200164794921875
 30
0.0
 11
35.99999237060547
 21
-7.200164794921875
 31
0.0
  0
LINE
  5
267
330
75
100
AcDbEntity
  8
0
  6
Continuous
 62
     0
100
AcDbLine
 10
83.50003051757812
 20
-8.800018310546875
 30
0.0
 11
35.99999237060547
 21
-8.800018310546875
 31
0.0
  0
LINE
  5
268
330
75
100
AcDbEntity
  8
0
  6
Continuous
 62
     0
100
AcDbLine
 10
-123.0
 20
-5.999984741210938
 30
0.0
 11
-123.0
 21
26.15008905306417
 31
0.0
  0
LINE
  5
269
330
75
100
AcDbEntity
  8
0
  6
Continuous
 62
     0
100
AcDbLine
 10
122.9999847412109
 20
15.00001525878906
 30
0.0
 11
122.9999847412109
 21
26.14991329091309
 31
0.0
  0
LINE
  5
26A
330
75
100
AcDbEntity
  8
0
  6
Continuous
 62
     0
100
AcDbLine
 10
-44.30003356933594
 20
-12.49993896484375
 30
0.0
 11
-42.00003814697266
 21
-12.49993896484375
 31
0.0
  0
LINE
  5
26B
330
75
100
AcDbEntity
  8
0
  6
Continuous
 62
     0
100
AcDbLine
 10
-44.30003356933594
 20
-19.49996948242188
 30
0.0
 11
-42.00003814697266
 21
-19.49996948242188
 31
0.0
  0
LINE
  5
26C
330
75
100
AcDbEntity
  8
0
  6
Continuous
 62
     0
100
AcDbLine
 10
-43.00002288818359
 20
-19.49996948242188
 30
0.0
 11
-43.00002288818359
 21
-12.49993896484375
 31
0.0
  0
LINE
  5
26D
330
75
100
AcDbEntity
  8
0
  6
CENTER
 62
     4
100
AcDbLine
 10
-46.53068244589113
 20
-15.99995422363281
 30
0.0
 11
-42.00003814697266
 21
-15.99995422363281
 31
0.0
  0
LINE
  5
26E
330
75
100
AcDbEntity
  8
0
  6
Continuous
 62
     0
100
AcDbLine
 10
44.30003356933594
 20
12.49996948242188
 30
0.0
 11
42.00003814697266
 21
12.49996948242188
 31
0.0
  0
LINE
  5
26F
330
75
100
AcDbEntity
  8
0
  6
Continuous
 62
     0
100
AcDbLine
 10
44.30003356933594
 20
19.5
 30
0.0
 11
42.00003814697266
 21
19.5
 31
0.0
  0
LINE
  5
270
330
75
100
AcDbEntity
  8
0
  6
Continuous
 62
     0
100
AcDbLine
 10
43.00002288818359
 20
19.5
 30
0.0
 11
43.00002288818359
 21
12.49996948242188
 31
0.0
  0
LINE
  5
271
330
75
100
AcDbEntity
  8
0
  6
CENTER
 62
     4
100
AcDbLine
 10
46.53068244589113
 20
15.99998474121094
 30
0.0
 11
42.00003814697266
 21
15.99998474121094
 31
0.0
  0
LINE
  5
272
330
75
100
AcDbEntity
  8
0
  6
Continuous
 62
     0
100
AcDbLine
 10
44.30003356933594
 20
-19.49996948242188
 30
0.0
 11
42.00003814697266
 21
-19.49996948242188
 31
0.0
  0
LINE
  5
273
330
75
100
AcDbEntity
  8
0
  6
CENTER
 62
     4
100
AcDbLine
 10
46.53068244589113
 20
-15.99995422363281
 30
0.0
 11
42.00003814697266
 21
-15.99995422363281
 31
0.0
  0
LINE
  5
274
330
75
100
AcDbEntity
  8
0
  6
Continuous
 62
     0
100
AcDbLine
 10
43.00002288818359
 20
-19.49996948242188
 30
0.0
 11
43.00002288818359
 21
-12.49993896484375
 31
0.0
  0
LINE
  5
275
330
75
100
AcDbEntity
  8
0
  6
Continuous
 62
     0
100
AcDbLine
 10
44.30003356933594
 20
-12.49993896484375
 30
0.0
 11
42.00003814697266
 21
-12.49993896484375
 31
0.0
  0
CIRCLE
  5
276
330
75
100
AcDbEntity
  8
0
  6
Continuous
 62
     0
100
AcDbCircle
 10
-60.0
 20
32.50001525878906
 30
0.0
 40
4.499999523162842
  0
CIRCLE
  5
277
330
75
100
AcDbEntity
  8
0
  6
Continuous
 62
     0
100
AcDbCircle
 10
60.0
 20
32.50001525878906
 30
0.0
 40
4.499999523162842
  0
CIRCLE
  5
278
330
75
100
AcDbEntity
  8
0
  6
Continuous
 62
     0
100
AcDbCircle
 10
30.0
 20
-32.49998474121094
 30
0.0
 40
4.499999523162842
  0
CIRCLE
  5
279
330
75
100
AcDbEntity
  8
0
  6
Continuous
 62
     0
100
AcDbCircle
 10
-30.0
 20
-32.49998474121094
 30
0.0
 40
4.499999523162842
  0
CIRCLE
  5
27A
330
75
100
AcDbEntity
  8
0
  6
Continuous
 62
     0
100
AcDbCircle
 10
-20.99996185302734
 20
0.0
 30
0.0
 40
13.49999618530273
  0
CIRCLE
  5
27B
330
75
100
AcDbEntity
  8
0
  6
Continuous
 62
     0
100
AcDbCircle
 10
-20.99996185302734
 20
0.0
 30
0.0
 40
12.00000381469727
  0
CIRCLE
  5
27C
330
75
100
AcDbEntity
  8
0
  6
Continuous
 62
     0
100
AcDbCircle
 10
-20.99996185302734
 20
3.499984741210938
 30
0.0
 40
1.25
  0
CIRCLE
  5
27D
330
75
100
AcDbEntity
  8
0
  6
Continuous
 62
     0
100
AcDbCircle
 10
-20.99996185302734
 20
-3.499984741210938
 30
0.0
 40
1.25
  0
CIRCLE
  5
27E
330
75
100
AcDbEntity
  8
0
  6
Continuous
 62
     0
100
AcDbCircle
 10
-20.24999237060547
 20
25.5
 30
0.0
 40
0.2500001192092896
  0
ARC
  5
27F
330
75
100
AcDbEntity
  8
0
  6
Continuous
 62
     0
100
AcDbCircle
 10
-11.74997711181641
 20
25.75001525878906
 30
0.0
 40
0.2500001192092896
100
AcDbArc
 50
180.0000223118003
 51
0.008701661002596
  0
ARC
  5
280
330
75
100
AcDbEntity
  8
0
  6
Continuous
 62
     0
100
AcDbCircle
 10
11.74997711181641
 20
-25.75001525878906
 30
0.0
 40
0.2500001192092896
100
AcDbArc
 50
0.00004098113502
 51
180.0087203303373
  0
CIRCLE
  5
281
330
75
100
AcDbEntity
  8
0
  6
Continuous
 62
     0
100
AcDbCircle
 10
20.24999237060547
 20
-25.5
 30
0.0
 40
0.2500001192092896
  0
CIRCLE
  5
282
330
75
100
AcDbEntity
  8
0
  6
Continuous
 62
     0
100
AcDbCircle
 10
20.99996185302734
 20
0.0
 30
0.0
 40
12.00000381469727
  0
CIRCLE
  5
283
330
75
100
AcDbEntity
  8
0
  6
Continuous
 62
     0
100
AcDbCircle
 10
20.99996185302734
 20
0.0
 30
0.0
 40
13.49999618530273
  0
CIRCLE
  5
284
330
75
100
AcDbEntity
  8
0
  6
Continuous
 62
     0
100
AcDbCircle
 10
20.99996185302734
 20
-3.499984741210938
 30
0.0
 40
1.25
  0
CIRCLE
  5
285
330
75
100
AcDbEntity
  8
0
  6
Continuous
 62
     0
100
AcDbCircle
 10
20.99996185302734
 20
3.499984741210938
 30
0.0
 40
1.25
  0
ARC
  5
286
330
75
100
AcDbEntity
  8
0
  6
Continuous
 62
     0
100
AcDbCircle
 10
-40.23849807822539
 20
15.99998474121094
 30
0.0
 40
5.361546172262893
100
AcDbArc
 50
139.2469853256999
 51
220.7530146743001
  0
ARC
  5
287
330
75
100
AcDbEntity
  8
0
  6
Continuous
 62
     0
100
AcDbCircle
 10
-40.23849807822539
 20
-15.99995422363281
 30
0.0
 40
5.361546172262893
100
AcDbArc
 50
139.2469853256999
 51
220.7530146743002
  0
ARC
  5
288
330
75
100
AcDbEntity
  8
0
  6
Continuous
 62
     0
100
AcDbCircle
 10
40.23849807822539
 20
15.99998474121094
 30
0.0
 40
5.361546172262893
100
AcDbArc
 50
319.2469853256998
 51
40.75301467430005
  0
ARC
  5
289
330
75
100
AcDbEntity
  8
0
  6
Continuous
 62
     0
100
AcDbCircle
 10
40.23849807822539
 20
-15.99995422363281
 30
0.0
 40
5.361546172262893
100
AcDbArc
 50
319.2469853256998
 51
40.75301467430005
  0
MTEXT
  5
28A
330
75
100
AcDbEntity
  8
0
 62
     0
100
AcDbMText
 10
-71.38553203195333
 20
15.72718143463135
 30
0.0
 40
0.5
 41
0.0
 71
     7
 72
     1
  1
{\W0.833333;ＢＮ－７Ｍ４７－２０－Ｅ/F＊＊＊}
 73
     1
 44
1.0
  0
ENDBLK
  5
77
330
75
100
AcDbEntity
  8
0
100
AcDbBlockEnd
  0
BLOCK
  5
79
330
78
100
AcDbEntity
  8
0
100
AcDbBlockBegin
  2
DTL0003
 70
     0
 10
0.0
 20
0.0
 30
0.0
  3
DTL0003
  1

  0
POINT
  5
28B
330
78
100
AcDbEntity
  8
0
 62
     0
100
AcDbPoint
 10
0.0
 20
0.0
 30
0.0
  0
LINE
  5
28C
330
78
100
AcDbEntity
  8
0
  6
Continuous
 62
     0
100
AcDbLine
 10
30.0
 20
-23.00000762939453
 30
0.0
 11
40.0
 21
-23.00000762939453
 31
0.0
  0
LINE
  5
28D
330
78
100
AcDbEntity
  8
0
  6
Continuous
 62
     0
100
AcDbLine
 10
15.0
 20
31.08618545532227
 30
0.0
 11
15.0
 21
30.37499618530273
 31
0.0
  0
LINE
  5
28E
330
78
100
AcDbEntity
  8
0
  6
Continuous
 62
     0
100
AcDbLine
 10
40.0
 20
22.0
 30
0.0
 11
40.0
 21
-22.0
 31
0.0
  0
LINE
  5
28F
330
78
100
AcDbEntity
  8
0
  6
Continuous
 62
     0
100
AcDbLine
 10
-40.0
 20
22.0
 30
0.0
 11
-30.0
 21
22.0
 31
0.0
  0
LINE
  5
290
330
78
100
AcDbEntity
  8
0
  6
Continuous
 62
     0
100
AcDbLine
 10
30.0
 20
-22.0
 30
0.0
 11
40.0
 21
-22.0
 31
0.0
  0
LINE
  5
291
330
78
100
AcDbEntity
  8
0
  6
Continuous
 62
     0
100
AcDbLine
 10
30.0
 20
22.0
 30
0.0
 11
40.0
 21
22.0
 31
0.0
  0
LINE
  5
292
330
78
100
AcDbEntity
  8
0
  6
Continuous
 62
     0
100
AcDbLine
 10
16.0
 20
-30.35001373291016
 30
0.0
 11
16.0
 21
-35.0
 31
0.0
  0
LINE
  5
293
330
78
100
AcDbEntity
  8
0
  6
Continuous
 62
     0
100
AcDbLine
 10
-40.0
 20
-23.00000762939453
 30
0.0
 11
-40.0
 21
-35.0
 31
0.0
  0
LINE
  5
294
330
78
100
AcDbEntity
  8
0
  6
Continuous
 62
     0
100
AcDbLine
 10
7.438382423751639
 20
30.56474235815601
 30
0.0
 11
21.00002718373243
 21
31.50002859483052
 31
0.0
  0
LINE
  5
295
330
78
100
AcDbEntity
  8
0
  6
Continuous
 62
     0
100
AcDbLine
 10
-16.0
 20
-30.34999084472656
 30
0.0
 11
-16.0
 21
-35.0
 31
0.0
  0
LINE
  5
296
330
78
100
AcDbEntity
  8
0
  6
Continuous
 62
     0
100
AcDbLine
 10
-15.0
 20
31.08620834350586
 30
0.0
 11
-15.0
 21
30.37499618530273
 31
0.0
  0
LINE
  5
297
330
78
100
AcDbEntity
  8
0
  6
Continuous
 62
     0
100
AcDbLine
 10
-40.0
 20
22.0
 30
0.0
 11
-40.0
 21
-22.0
 31
0.0
  0
LINE
  5
298
330
78
100
AcDbEntity
  8
0
  6
Continuous
 62
     0
100
AcDbLine
 10
-40.0
 20
-22.0
 30
0.0
 11
-30.0
 21
-22.0
 31
0.0
  0
LINE
  5
299
330
78
100
AcDbEntity
  8
0
  6
Continuous
 62
     0
100
AcDbLine
 10
-20.99995756644316
 20
31.50001232236117
 30
0.0
 11
-7.437750520540383
 21
30.564687307331
 31
0.0
  0
LINE
  5
29A
330
78
100
AcDbEntity
  8
0
  6
Continuous
 62
     0
100
AcDbLine
 10
-40.0
 20
-23.00000762939453
 30
0.0
 11
-30.0
 21
-23.00000762939453
 31
0.0
  0
LINE
  5
29B
330
78
100
AcDbEntity
  8
0
  6
Continuous
 62
     0
100
AcDbLine
 10
40.0
 20
-23.00000762939453
 30
0.0
 11
40.0
 21
-35.0
 31
0.0
  0
LINE
  5
29C
330
78
100
AcDbEntity
  8
0
  6
Continuous
 62
     0
100
AcDbLine
 10
-40.0
 20
-35.0
 30
0.0
 11
40.0
 21
-35.0
 31
0.0
  0
LINE
  5
29D
330
78
100
AcDbEntity
  8
0
  6
CENTER
 62
     4
100
AcDbLine
 10
24.0
 20
-19.0
 30
0.0
 11
24.0
 21
-29.0
 31
0.0
  0
LINE
  5
29E
330
78
100
AcDbEntity
  8
0
  6
CENTER
 62
     4
100
AcDbLine
 10
19.0
 20
-24.0
 30
0.0
 11
29.0
 21
-24.0
 31
0.0
  0
LINE
  5
29F
330
78
100
AcDbEntity
  8
0
  6
CENTER
 62
     4
100
AcDbLine
 10
-24.0
 20
-19.0
 30
0.0
 11
-24.0
 21
-29.0
 31
0.0
  0
LINE
  5
2A0
330
78
100
AcDbEntity
  8
0
  6
CENTER
 62
     4
100
AcDbLine
 10
19.0
 20
24.0
 30
0.0
 11
29.0
 21
24.0
 31
0.0
  0
LINE
  5
2A1
330
78
100
AcDbEntity
  8
0
  6
CENTER
 62
     4
100
AcDbLine
 10
-29.0
 20
24.0
 30
0.0
 11
-19.0
 21
24.0
 31
0.0
  0
LINE
  5
2A2
330
78
100
AcDbEntity
  8
0
  6
CENTER
 62
     4
100
AcDbLine
 10
-29.0
 20
-24.0
 30
0.0
 11
-19.0
 21
-24.0
 31
0.0
  0
LINE
  5
2A3
330
78
100
AcDbEntity
  8
0
  6
CENTER
 62
     4
100
AcDbLine
 10
24.0
 20
29.0
 30
0.0
 11
24.0
 21
19.0
 31
0.0
  0
LINE
  5
2A4
330
78
100
AcDbEntity
  8
0
  6
CENTER
 62
     4
100
AcDbLine
 10
-24.0
 20
29.0
 30
0.0
 11
-24.0
 21
19.0
 31
0.0
  0
LINE
  5
2A5
330
78
100
AcDbEntity
  8
0
  6
Continuous
 62
     0
100
AcDbLine
 10
-25.42999267578125
 20
-26.47683715820312
 30
0.0
 11
-22.57000732421875
 21
-26.47683715820312
 31
0.0
  0
LINE
  5
2A6
330
78
100
AcDbEntity
  8
0
  6
Continuous
 62
     0
100
AcDbLine
 10
-21.14000163613186
 20
-23.99999060063228
 30
0.0
 11
-22.570006814428
 21
-26.47682317295075
 31
0.0
  0
LINE
  5
2A7
330
78
100
AcDbEntity
  8
0
  6
Continuous
 62
     0
100
AcDbLine
 10
-21.14000574984876
 20
-23.99996226536205
 30
0.0
 11
-22.57000997446796
 21
-21.52313134485444
 31
0.0
  0
LINE
  5
2A8
330
78
100
AcDbEntity
  8
0
  6
Continuous
 62
     0
100
AcDbLine
 10
-26.86000229241739
 20
-23.9999686160051
 30
0.0
 11
-25.42999806779819
 21
-26.4767995365127
 31
0.0
  0
LINE
  5
2A9
330
78
100
AcDbEntity
  8
0
  6
Continuous
 62
     0
100
AcDbLine
 10
-25.43000551675732
 20
-21.52314665374312
 30
0.0
 11
-26.86001069505345
 21
-23.99997922606159
 31
0.0
  0
LINE
  5
2AA
330
78
100
AcDbEntity
  8
0
  6
Continuous
 62
     0
100
AcDbLine
 10
-22.57000732421875
 20
-21.52316284179688
 30
0.0
 11
-25.42999267578125
 21
-21.52316284179688
 31
0.0
  0
LINE
  5
2AB
330
78
100
AcDbEntity
  8
0
  6
Continuous
 62
     0
100
AcDbLine
 10
22.57000732421875
 20
-26.47683715820312
 30
0.0
 11
25.42999267578125
 21
-26.47683715820312
 31
0.0
  0
LINE
  5
2AC
330
78
100
AcDbEntity
  8
0
  6
Continuous
 62
     0
100
AcDbLine
 10
26.85999909022476
 20
-23.99999705046601
 30
0.0
 11
25.43000273344024
 21
-26.47681434353401
 31
0.0
  0
LINE
  5
2AD
330
78
100
AcDbEntity
  8
0
  6
Continuous
 62
     0
100
AcDbLine
 10
26.86001386168504
 20
-23.99994656394023
 30
0.0
 11
25.43001726648128
 21
-21.52312885791952
 31
0.0
  0
LINE
  5
2AE
330
78
100
AcDbEntity
  8
0
  6
Continuous
 62
     0
100
AcDbLine
 10
21.14000677861238
 20
-23.9999766195164
 30
0.0
 11
22.57000337381614
 21
-26.47679432553712
 31
0.0
  0
LINE
  5
2AF
330
78
100
AcDbEntity
  8
0
  6
Continuous
 62
     0
100
AcDbLine
 10
22.57000677227533
 20
-21.52315977931536
 30
0.0
 11
21.14001041549081
 21
-23.99997707238337
 31
0.0
  0
LINE
  5
2B0
330
78
100
AcDbEntity
  8
0
  6
Continuous
 62
     0
100
AcDbLine
 10
25.42999267578125
 20
-21.52316284179688
 30
0.0
 11
22.57000732421875
 21
-21.52316284179688
 31
0.0
  0
LINE
  5
2B1
330
78
100
AcDbEntity
  8
0
  6
Continuous
 62
     0
100
AcDbLine
 10
22.57000732421875
 20
21.52316284179688
 30
0.0
 11
25.42999267578125
 21
21.52316284179688
 31
0.0
  0
LINE
  5
2B2
330
78
100
AcDbEntity
  8
0
  6
Continuous
 62
     0
100
AcDbLine
 10
26.86000562106801
 20
24.00000858456122
 30
0.0
 11
25.43000235012573
 21
21.52317931586448
 31
0.0
  0
LINE
  5
2B3
330
78
100
AcDbEntity
  8
0
  6
Continuous
 62
     0
100
AcDbLine
 10
26.85999445751674
 20
24.00002796264322
 30
0.0
 11
25.42999023289754
 21
26.47685888315083
 31
0.0
  0
LINE
  5
2B4
330
78
100
AcDbEntity
  8
0
  6
Continuous
 62
     0
100
AcDbLine
 10
21.1400276475436
 20
24.00003877818492
 30
0.0
 11
22.57003187216281
 21
21.52320785767731
 31
0.0
  0
LINE
  5
2B5
330
78
100
AcDbEntity
  8
0
  6
Continuous
 62
     0
100
AcDbLine
 10
22.57001495492944
 20
26.47684490203494
 30
0.0
 11
21.14001168398717
 21
24.00001563333819
 31
0.0
  0
LINE
  5
2B6
330
78
100
AcDbEntity
  8
0
  6
Continuous
 62
     0
100
AcDbLine
 10
25.42999267578125
 20
26.47683715820312
 30
0.0
 11
22.57000732421875
 21
26.47683715820312
 31
0.0
  0
LINE
  5
2B7
330
78
100
AcDbEntity
  8
0
  6
Continuous
 62
     0
100
AcDbLine
 10
-19.75735283299203
 20
-28.24263420723059
 30
0.0
 11
-13.75488943212444
 21
-22.24017080636301
 31
0.0
  0
LINE
  5
2B8
330
78
100
AcDbEntity
  8
0
  6
Continuous
 62
     0
100
AcDbLine
 10
-13.7549520348689
 20
22.24013208829089
 30
0.0
 11
-19.7574282017823
 21
28.24260774923341
 31
0.0
  0
LINE
  5
2B9
330
78
100
AcDbEntity
  8
0
  6
Continuous
 62
     0
100
AcDbLine
 10
-22.240217770361
 20
13.75481349612161
 30
0.0
 11
-28.2427092183921
 21
19.75730443818055
 31
0.0
  0
LINE
  5
2BA
330
78
100
AcDbEntity
  8
0
  6
Continuous
 62
     0
100
AcDbLine
 10
-25.42999267578125
 20
21.52316284179688
 30
0.0
 11
-22.57000732421875
 21
21.52316284179688
 31
0.0
  0
LINE
  5
2BB
330
78
100
AcDbEntity
  8
0
  6
Continuous
 62
     0
100
AcDbLine
 10
-21.14000213799923
 20
24.00002955623504
 30
0.0
 11
-22.57000660103766
 21
21.52319822277472
 31
0.0
  0
LINE
  5
2BC
330
78
100
AcDbEntity
  8
0
  6
Continuous
 62
     0
100
AcDbLine
 10
-2.999984741210938
 20
-25.97734069824219
 30
0.0
 11
-2.999984741210938
 21
-30.65658569335938
 31
0.0
  0
LINE
  5
2BD
330
78
100
AcDbEntity
  8
0
  6
Continuous
 62
     0
100
AcDbLine
 10
-4.500012546919281
 20
30.60990896217805
 30
0.0
 11
-24.1866893511709
 21
29.99708449373863
 31
0.0
  0
LINE
  5
2BE
330
78
100
AcDbEntity
  8
0
  6
Continuous
 62
     0
100
AcDbLine
 10
-28.24260183845094
 20
-19.75736362258524
 30
0.0
 11
-22.24015431412395
 21
-13.75491609825825
 31
0.0
  0
LINE
  5
2BF
330
78
100
AcDbEntity
  8
0
  6
Continuous
 62
     0
100
AcDbLine
 10
-4.499984741210938
 20
32.0
 30
0.0
 11
-4.499984741210938
 21
30.60989379882812
 31
0.0
  0
LINE
  5
2C0
330
78
100
AcDbEntity
  8
0
  6
Continuous
 62
     0
100
AcDbLine
 10
-6.5
 20
32.0
 30
0.0
 11
-6.5
 21
30.54763793945312
 31
0.0
  0
LINE
  5
2C1
330
78
100
AcDbEntity
  8
0
  6
Continuous
 62
     0
100
AcDbLine
 10
-0.000017612821957
 20
-30.74995829351877
 30
0.0
 11
-24.18669602735313
 21
-29.99705375355602
 31
0.0
  0
LINE
  5
2C2
330
78
100
AcDbEntity
  8
0
  6
Continuous
 62
     0
100
AcDbLine
 10
-21.13997909036089
 20
24.00002784409036
 30
0.0
 11
-22.56998331498009
 21
26.47685876459796
 31
0.0
  0
LINE
  5
2C3
330
78
100
AcDbEntity
  8
0
  6
Continuous
 62
     0
100
AcDbLine
 10
2.999984741210938
 20
-25.97734069824219
 30
0.0
 11
2.999984741210938
 21
-30.65658569335938
 31
0.0
  0
LINE
  5
2C4
330
78
100
AcDbEntity
  8
0
  6
CENTER
 62
     4
100
AcDbLine
 10
6.0
 20
25.49998474121094
 30
0.0
 11
15.0
 21
25.49998474121094
 31
0.0
  0
LINE
  5
2C5
330
78
100
AcDbEntity
  8
0
  6
CENTER
 62
     4
100
AcDbLine
 10
10.5
 20
29.99998474121094
 30
0.0
 11
10.5
 21
20.99998474121094
 31
0.0
  0
LINE
  5
2C6
330
78
100
AcDbEntity
  8
0
  6
Continuous
 62
     0
100
AcDbLine
 10
-30.0
 20
24.0
 30
0.0
 11
-30.0
 21
-24.0
 31
0.0
  0
LINE
  5
2C7
330
78
100
AcDbEntity
  8
0
  6
Continuous
 62
     0
100
AcDbLine
 10
-26.8599986397287
 20
24.00003463943914
 30
0.0
 11
-25.4299944151095
 21
21.52320371893153
 31
0.0
  0
LINE
  5
2C8
330
78
100
AcDbEntity
  8
0
  6
Continuous
 62
     0
100
AcDbLine
 10
-25.42998556725549
 20
26.47684407612951
 30
0.0
 11
-26.85999003029393
 21
24.00001274266918
 31
0.0
  0
LINE
  5
2C9
330
78
100
AcDbEntity
  8
0
  6
Continuous
 62
     0
100
AcDbLine
 10
22.24017293223412
 20
13.75488599481982
 30
0.0
 11
28.24264245778619
 21
19.75735501440158
 31
0.0
  0
LINE
  5
2CA
330
78
100
AcDbEntity
  8
0
  6
Continuous
 62
     0
100
AcDbLine
 10
13.75486620327078
 20
22.24018517270684
 30
0.0
 11
19.7573614411773
 21
28.24267990464088
 31
0.0
  0
LINE
  5
2CB
330
78
100
AcDbEntity
  8
0
  6
Continuous
 62
     0
100
AcDbLine
 10
28.24265578641704
 20
-19.75733125380559
 30
0.0
 11
22.24018729857476
 21
-13.75486276596331
 31
0.0
  0
LINE
  5
2CC
330
78
100
AcDbEntity
  8
0
  6
Continuous
 62
     0
100
AcDbLine
 10
19.75741487315303
 20
-28.24261532544246
 30
0.0
 11
13.75493943110293
 21
-22.24013988339237
 31
0.0
  0
LINE
  5
2CD
330
78
100
AcDbEntity
  8
0
  6
Continuous
 62
     0
100
AcDbLine
 10
4.499984741210938
 20
32.0
 30
0.0
 11
4.499984741210938
 21
30.60989379882812
 31
0.0
  0
LINE
  5
2CE
330
78
100
AcDbEntity
  8
0
  6
CENTER
 62
     4
100
AcDbLine
 10
0.0
 20
117.9253692626953
 30
0.0
 11
0.0
 21
-38.83599853515625
 31
0.0
  0
LINE
  5
2CF
330
78
100
AcDbEntity
  8
0
  6
Continuous
 62
     0
100
AcDbLine
 10
6.5
 20
32.0
 30
0.0
 11
6.5
 21
30.54763793945312
 31
0.0
  0
LINE
  5
2D0
330
78
100
AcDbEntity
  8
0
  6
Continuous
 62
     0
100
AcDbLine
 10
4.500000452803629
 20
30.60991124692703
 30
0.0
 11
24.18667797196469
 21
29.99708675623327
 31
0.0
  0
LINE
  5
2D1
330
78
100
AcDbEntity
  8
0
  6
CENTER
 62
     4
100
AcDbLine
 10
-43.2778999828152
 20
0.0
 30
0.0
 11
43.44517792721024
 21
0.0
 31
0.0
  0
LINE
  5
2D2
330
78
100
AcDbEntity
  8
0
  6
Continuous
 62
     0
100
AcDbLine
 10
0.000036437385386
 20
-30.7499691571661
 30
0.0
 11
24.18671544767443
 21
-29.99706459865807
 31
0.0
  0
LINE
  5
2D3
330
78
100
AcDbEntity
  8
0
  6
Continuous
 62
     0
100
AcDbLine
 10
30.0
 20
24.0
 30
0.0
 11
30.0
 21
-24.0
 31
0.0
  0
LINE
  5
2D4
330
78
100
AcDbEntity
  8
0
  6
Continuous
 62
     0
100
AcDbLine
 10
-22.57000732421875
 20
26.47683715820312
 30
0.0
 11
-25.42999267578125
 21
26.47683715820312
 31
0.0
  0
LINE
  5
2D5
330
78
100
AcDbEntity
  8
0
  6
Continuous
 62
     0
100
AcDbLine
 10
-21.0
 20
39.50000762939453
 30
0.0
 11
21.0
 21
39.50000762939453
 31
0.0
  0
LINE
  5
2D6
330
78
100
AcDbEntity
  8
0
  6
Continuous
 62
     0
100
AcDbLine
 10
21.00003051757812
 20
100.4999771118164
 30
0.0
 11
21.00003051757812
 21
31.50002882475101
 31
0.0
  0
LINE
  5
2D7
330
78
100
AcDbEntity
  8
0
  6
Continuous
 62
     0
100
AcDbLine
 10
11.0
 20
43.49999618530273
 30
0.0
 11
21.0
 21
43.49999618530273
 31
0.0
  0
LINE
  5
2D8
330
78
100
AcDbEntity
  8
0
  6
Continuous
 62
     0
100
AcDbLine
 10
19.5
 20
45.13636016845703
 30
0.0
 11
21.0
 21
45.13636016845703
 31
0.0
  0
LINE
  5
2D9
330
78
100
AcDbEntity
  8
0
  6
Continuous
 62
     0
100
AcDbLine
 10
19.5
 20
48.50000762939453
 30
0.0
 11
19.5
 21
43.49999618530273
 31
0.0
  0
LINE
  5
2DA
330
78
100
AcDbEntity
  8
0
  6
Continuous
 62
     0
100
AcDbLine
 10
12.5
 20
48.50000762939453
 30
0.0
 11
12.5
 21
43.49999618530273
 31
0.0
  0
LINE
  5
2DB
330
78
100
AcDbEntity
  8
0
  6
Continuous
 62
     0
100
AcDbLine
 10
12.5
 20
44.50000762939453
 30
0.0
 11
19.5
 21
44.50000762939453
 31
0.0
  0
LINE
  5
2DC
330
78
100
AcDbEntity
  8
0
  6
Continuous
 62
     0
100
AcDbLine
 10
11.0
 20
43.49999618530273
 30
0.0
 11
11.0
 21
45.13636016845703
 31
0.0
  0
LINE
  5
2DD
330
78
100
AcDbEntity
  8
0
  6
Continuous
 62
     0
100
AcDbLine
 10
-12.5
 20
45.13636016845703
 30
0.0
 11
12.5
 21
45.13636016845703
 31
0.0
  0
LINE
  5
2DE
330
78
100
AcDbEntity
  8
0
  6
Continuous
 62
     0
100
AcDbLine
 10
-11.0
 20
43.49999618530273
 30
0.0
 11
-11.0
 21
45.13636016845703
 31
0.0
  0
LINE
  5
2DF
330
78
100
AcDbEntity
  8
0
  6
Continuous
 62
     0
100
AcDbLine
 10
-21.0
 20
43.49999618530273
 30
0.0
 11
-11.0
 21
43.49999618530273
 31
0.0
  0
LINE
  5
2E0
330
78
100
AcDbEntity
  8
0
  6
Continuous
 62
     0
100
AcDbLine
 10
-10.00001959201501
 20
48.49997513301514
 30
0.0
 11
-9.25003572108696
 21
47.50000118318756
 31
0.0
  0
LINE
  5
2E1
330
78
100
AcDbEntity
  8
0
  6
Continuous
 62
     0
100
AcDbLine
 10
-9.25
 20
47.5
 30
0.0
 11
9.250030517578125
 21
47.5
 31
0.0
  0
LINE
  5
2E2
330
78
100
AcDbEntity
  8
0
  6
Continuous
 62
     0
100
AcDbLine
 10
9.999989903041335
 20
48.50000243219424
 30
0.0
 11
9.249986445976422
 21
47.50000502500226
 31
0.0
  0
LINE
  5
2E3
330
78
100
AcDbEntity
  8
0
  6
Continuous
 62
     0
100
AcDbLine
 10
21.00003051757812
 20
48.50000762939453
 30
0.0
 11
-20.99996948242188
 21
48.50000762939453
 31
0.0
  0
LINE
  5
2E4
330
78
100
AcDbEntity
  8
0
  6
CENTER
 62
     4
100
AcDbLine
 10
-15.99996948242188
 20
48.49999618530273
 30
0.0
 11
-15.99996948242188
 21
43.49999618530273
 31
0.0
  0
LINE
  5
2E5
330
78
100
AcDbEntity
  8
0
  6
Continuous
 62
     0
100
AcDbLine
 10
-20.99996948242188
 20
100.4999771118164
 30
0.0
 11
-20.99996948242188
 21
31.50001314415315
 31
0.0
  0
LINE
  5
2E6
330
78
100
AcDbEntity
  8
0
  6
Continuous
 62
     0
100
AcDbLine
 10
-21.0
 20
45.13636016845703
 30
0.0
 11
-19.5
 21
45.13636016845703
 31
0.0
  0
LINE
  5
2E7
330
78
100
AcDbEntity
  8
0
  6
Continuous
 62
     0
100
AcDbLine
 10
-19.5
 20
44.49999618530273
 30
0.0
 11
-12.5
 21
44.49999618530273
 31
0.0
  0
LINE
  5
2E8
330
78
100
AcDbEntity
  8
0
  6
Continuous
 62
     0
100
AcDbLine
 10
-12.5
 20
48.50000762939453
 30
0.0
 11
-12.5
 21
43.49999618530273
 31
0.0
  0
LINE
  5
2E9
330
78
100
AcDbEntity
  8
0
  6
Continuous
 62
     0
100
AcDbLine
 10
-19.5
 20
48.50000762939453
 30
0.0
 11
-19.5
 21
43.49999618530273
 31
0.0
  0
LINE
  5
2EA
330
78
100
AcDbEntity
  8
0
  6
CENTER
 62
     4
100
AcDbLine
 10
16.00003051757812
 20
48.50000762939453
 30
0.0
 11
16.00003051757812
 21
43.49999618530273
 31
0.0
  0
LINE
  5
2EB
330
78
100
AcDbEntity
  8
0
  6
Continuous
 62
     4
100
AcDbLine
 10
-17.44955055503544
 20
53.94962229650345
 30
0.0
 11
-14.55040843633331
 21
51.05048017780132
 31
0.0
  0
LINE
  5
2EC
330
78
100
AcDbEntity
  8
0
  6
Continuous
 62
     4
100
AcDbLine
 10
-17.44955055503545
 20
51.05044780902166
 30
0.0
 11
-14.55044080511298
 21
53.94955755894414
 31
0.0
  0
LINE
  5
2ED
330
78
100
AcDbEntity
  8
0
  6
Continuous
 62
     0
100
AcDbLine
 10
-11.5
 20
57.00000762939453
 30
0.0
 11
-11.5
 21
48.50000762939453
 31
0.0
  0
LINE
  5
2EE
330
78
100
AcDbEntity
  8
0
  6
Continuous
 62
     0
100
AcDbLine
 10
-20.99996948242188
 20
57.00000762939453
 30
0.0
 11
-11.5
 21
57.00000762939453
 31
0.0
  0
LINE
  5
2EF
330
78
100
AcDbEntity
  8
0
  6
Continuous
 62
     0
100
AcDbLine
 10
21.00003051757812
 20
57.00000762939453
 30
0.0
 11
11.50003051757812
 21
57.00000762939453
 31
0.0
  0
LINE
  5
2F0
330
78
100
AcDbEntity
  8
0
  6
Continuous
 62
     4
100
AcDbLine
 10
14.5505217270621
 20
51.05044241422506
 30
0.0
 11
17.44963147698457
 21
53.94955216414753
 31
0.0
  0
LINE
  5
2F1
330
78
100
AcDbEntity
  8
0
  6
Continuous
 62
     4
100
AcDbLine
 10
14.55047317389265
 20
53.94962229650347
 30
0.0
 11
17.44960450300156
 21
51.05049096739455
 31
0.0
  0
LINE
  5
2F2
330
78
100
AcDbEntity
  8
0
  6
Continuous
 62
     0
100
AcDbLine
 10
11.50003051757812
 20
57.00000762939453
 30
0.0
 11
11.50003051757812
 21
48.5
 31
0.0
  0
LINE
  5
2F3
330
78
100
AcDbEntity
  8
0
  6
Continuous
 62
     0
100
AcDbLine
 10
9.20001220703125
 20
48.50000762939453
 30
0.0
 11
9.20001220703125
 21
100.4999771118164
 31
0.0
  0
LINE
  5
2F4
330
78
100
AcDbEntity
  8
0
  6
Continuous
 62
     0
100
AcDbLine
 10
6.800018310546875
 20
48.50000762939453
 30
0.0
 11
6.800018310546875
 21
100.4999771118164
 31
0.0
  0
LINE
  5
2F5
330
78
100
AcDbEntity
  8
0
  6
Continuous
 62
     0
100
AcDbLine
 10
5.20001220703125
 20
48.50000762939453
 30
0.0
 11
5.20001220703125
 21
100.4999771118164
 31
0.0
  0
LINE
  5
2F6
330
78
100
AcDbEntity
  8
0
  6
Continuous
 62
     0
100
AcDbLine
 10
-9.20001220703125
 20
48.50000762939453
 30
0.0
 11
-9.20001220703125
 21
100.4999771118164
 31
0.0
  0
LINE
  5
2F7
330
78
100
AcDbEntity
  8
0
  6
Continuous
 62
     0
100
AcDbLine
 10
-6.79998779296875
 20
48.50000762939453
 30
0.0
 11
-6.79998779296875
 21
100.4999771118164
 31
0.0
  0
LINE
  5
2F8
330
78
100
AcDbEntity
  8
0
  6
Continuous
 62
     0
100
AcDbLine
 10
-5.20001220703125
 20
48.50000762939453
 30
0.0
 11
-5.20001220703125
 21
100.4999771118164
 31
0.0
  0
LINE
  5
2F9
330
78
100
AcDbEntity
  8
0
  6
Continuous
 62
     0
100
AcDbLine
 10
-2.79998779296875
 20
48.50000762939453
 30
0.0
 11
-2.79998779296875
 21
100.4999771118164
 31
0.0
  0
LINE
  5
2FA
330
78
100
AcDbEntity
  8
0
  6
Continuous
 62
     0
100
AcDbLine
 10
1.200042724609375
 20
48.50000762939453
 30
0.0
 11
1.200042724609375
 21
100.4999771118164
 31
0.0
  0
LINE
  5
2FB
330
78
100
AcDbEntity
  8
0
  6
Continuous
 62
     0
100
AcDbLine
 10
2.800018310546875
 20
48.50000762939453
 30
0.0
 11
2.800018310546875
 21
100.4999771118164
 31
0.0
  0
LINE
  5
2FC
330
78
100
AcDbEntity
  8
0
  6
Continuous
 62
     0
100
AcDbLine
 10
-1.199981689453125
 20
48.50000762939453
 30
0.0
 11
-1.199981689453125
 21
100.4999771118164
 31
0.0
  0
LINE
  5
2FD
330
78
100
AcDbEntity
  8
0
  6
Continuous
 62
     0
100
AcDbLine
 10
22.75
 20
71.10010528564453
 30
0.0
 11
20.99996948242188
 21
71.10010528564453
 31
0.0
  0
LINE
  5
2FE
330
78
100
AcDbEntity
  8
0
  6
PHANTOM
 62
     4
100
AcDbLine
 10
25.75
 20
70.49999237060547
 30
0.0
 11
20.99996948242188
 21
70.49999237060547
 31
0.0
  0
LINE
  5
2FF
330
78
100
AcDbEntity
  8
0
  6
CENTER
 62
     4
100
AcDbLine
 10
25.75
 20
70.24999237060547
 30
0.0
 11
20.99996948242188
 21
70.24999237060547
 31
0.0
  0
LINE
  5
300
330
78
100
AcDbEntity
  8
0
  6
PHANTOM
 62
     4
100
AcDbLine
 10
25.75
 20
70.00003814697266
 30
0.0
 11
20.99996948242188
 21
70.00003814697266
 31
0.0
  0
LINE
  5
301
330
78
100
AcDbEntity
  8
0
  6
Continuous
 62
     0
100
AcDbLine
 10
23.7500256353872
 20
70.65014615992828
 30
0.0
 11
22.75002789965157
 21
71.10015734404749
 31
0.0
  0
LINE
  5
302
330
78
100
AcDbEntity
  8
0
  6
Continuous
 62
     0
100
AcDbLine
 10
25.75
 20
70.65006256103516
 30
0.0
 11
23.74996948242188
 21
70.65006256103516
 31
0.0
  0
LINE
  5
303
330
78
100
AcDbEntity
  8
0
  6
Continuous
 62
     0
100
AcDbLine
 10
23.75
 20
70.6500473022461
 30
0.0
 11
23.75
 21
78.35000610351562
 31
0.0
  0
LINE
  5
304
330
78
100
AcDbEntity
  8
0
  6
Continuous
 62
     0
100
AcDbLine
 10
25.75
 20
69.50000762939453
 30
0.0
 11
25.75
 21
79.50000762939453
 31
0.0
  0
LINE
  5
305
330
78
100
AcDbEntity
  8
0
  6
Continuous
 62
     0
100
AcDbLine
 10
26.75
 20
69.50000762939453
 30
0.0
 11
25.75
 21
69.50000762939453
 31
0.0
  0
LINE
  5
306
330
78
100
AcDbEntity
  8
0
  6
Continuous
 62
     0
100
AcDbLine
 10
26.75
 20
69.50000762939453
 30
0.0
 11
26.75
 21
79.50000762939453
 31
0.0
  0
LINE
  5
307
330
78
100
AcDbEntity
  8
0
  6
Continuous
 62
     0
100
AcDbLine
 10
22.75
 20
71.1001205444336
 30
0.0
 11
22.75
 21
77.90003204345703
 31
0.0
  0
LINE
  5
308
330
78
100
AcDbEntity
  8
0
  6
Continuous
 62
     0
100
AcDbLine
 10
26.75
 20
79.50000762939453
 30
0.0
 11
25.75
 21
79.50000762939453
 31
0.0
  0
LINE
  5
309
330
78
100
AcDbEntity
  8
0
  6
PHANTOM
 62
     4
100
AcDbLine
 10
25.5
 20
78.99999237060547
 30
0.0
 11
20.99996948242188
 21
78.99999237060547
 31
0.0
  0
LINE
  5
30A
330
78
100
AcDbEntity
  8
0
  6
CENTER
 62
     4
100
AcDbLine
 10
25.75
 20
78.75003814697266
 30
0.0
 11
20.99996948242188
 21
78.75003814697266
 31
0.0
  0
LINE
  5
30B
330
78
100
AcDbEntity
  8
0
  6
PHANTOM
 62
     4
100
AcDbLine
 10
25.5
 20
78.50000762939453
 30
0.0
 11
20.99996948242188
 21
78.50000762939453
 31
0.0
  0
LINE
  5
30C
330
78
100
AcDbEntity
  8
0
  6
Continuous
 62
     0
100
AcDbLine
 10
25.75
 20
78.35010528564453
 30
0.0
 11
23.74996948242188
 21
78.35010528564453
 31
0.0
  0
LINE
  5
30D
330
78
100
AcDbEntity
  8
0
  6
Continuous
 62
     0
100
AcDbLine
 10
23.7500043755889
 20
78.3500147533473
 30
0.0
 11
22.74999272509892
 21
77.89999730741883
 31
0.0
  0
LINE
  5
30E
330
78
100
AcDbEntity
  8
0
  6
Continuous
 62
     0
100
AcDbLine
 10
22.75
 20
77.90003204345703
 30
0.0
 11
20.99996948242188
 21
77.90003204345703
 31
0.0
  0
LINE
  5
30F
330
78
100
AcDbEntity
  8
0
  6
CENTER
 62
     4
100
AcDbLine
 10
-27.90306437480967
 20
74.50000762939453
 30
0.0
 11
28.08091769455769
 21
74.50000762939453
 31
0.0
  0
LINE
  5
310
330
78
100
AcDbEntity
  8
0
  6
PHANTOM
 62
     4
100
AcDbLine
 10
-25.75
 20
70.00003814697266
 30
0.0
 11
-20.99996948242188
 21
70.00003814697266
 31
0.0
  0
LINE
  5
311
330
78
100
AcDbEntity
  8
0
  6
CENTER
 62
     4
100
AcDbLine
 10
-25.75
 20
70.24999237060547
 30
0.0
 11
-20.99996948242188
 21
70.24999237060547
 31
0.0
  0
LINE
  5
312
330
78
100
AcDbEntity
  8
0
  6
PHANTOM
 62
     4
100
AcDbLine
 10
-25.75
 20
70.49999237060547
 30
0.0
 11
-20.99996948242188
 21
70.49999237060547
 31
0.0
  0
LINE
  5
313
330
78
100
AcDbEntity
  8
0
  6
Continuous
 62
     0
100
AcDbLine
 10
-22.75
 20
71.10010528564453
 30
0.0
 11
-20.99996948242188
 21
71.10010528564453
 31
0.0
  0
LINE
  5
314
330
78
100
AcDbEntity
  8
0
  6
Continuous
 62
     0
100
AcDbLine
 10
-22.75
 20
71.1001205444336
 30
0.0
 11
-22.75
 21
77.90003204345703
 31
0.0
  0
LINE
  5
315
330
78
100
AcDbEntity
  8
0
  6
Continuous
 62
     0
100
AcDbLine
 10
-23.74999745809456
 20
70.65016720637628
 30
0.0
 11
-22.74999972235893
 21
71.10017839049549
 31
0.0
  0
LINE
  5
316
330
78
100
AcDbEntity
  8
0
  6
Continuous
 62
     0
100
AcDbLine
 10
-23.75
 20
70.6500473022461
 30
0.0
 11
-23.75
 21
78.35000610351562
 31
0.0
  0
LINE
  5
317
330
78
100
AcDbEntity
  8
0
  6
Continuous
 62
     0
100
AcDbLine
 10
-25.75
 20
70.65006256103516
 30
0.0
 11
-23.74996948242188
 21
70.65006256103516
 31
0.0
  0
LINE
  5
318
330
78
100
AcDbEntity
  8
0
  6
Continuous
 62
     0
100
AcDbLine
 10
-26.75
 20
69.50000762939453
 30
0.0
 11
-25.75
 21
69.50000762939453
 31
0.0
  0
LINE
  5
319
330
78
100
AcDbEntity
  8
0
  6
Continuous
 62
     0
100
AcDbLine
 10
-25.75
 20
69.50000762939453
 30
0.0
 11
-25.75
 21
79.50000762939453
 31
0.0
  0
LINE
  5
31A
330
78
100
AcDbEntity
  8
0
  6
Continuous
 62
     0
100
AcDbLine
 10
-26.75
 20
69.50000762939453
 30
0.0
 11
-26.75
 21
79.50000762939453
 31
0.0
  0
LINE
  5
31B
330
78
100
AcDbEntity
  8
0
  6
Continuous
 62
     0
100
AcDbLine
 10
-26.75
 20
79.50000762939453
 30
0.0
 11
-25.75
 21
79.50000762939453
 31
0.0
  0
LINE
  5
31C
330
78
100
AcDbEntity
  8
0
  6
PHANTOM
 62
     4
100
AcDbLine
 10
-25.5
 20
78.99999237060547
 30
0.0
 11
-20.99996948242188
 21
78.99999237060547
 31
0.0
  0
LINE
  5
31D
330
78
100
AcDbEntity
  8
0
  6
CENTER
 62
     4
100
AcDbLine
 10
-25.75
 20
78.75003814697266
 30
0.0
 11
-20.99996948242188
 21
78.75003814697266
 31
0.0
  0
LINE
  5
31E
330
78
100
AcDbEntity
  8
0
  6
PHANTOM
 62
     4
100
AcDbLine
 10
-25.5
 20
78.50000762939453
 30
0.0
 11
-20.99996948242188
 21
78.50000762939453
 31
0.0
  0
LINE
  5
31F
330
78
100
AcDbEntity
  8
0
  6
Continuous
 62
     0
100
AcDbLine
 10
-25.75
 20
78.35010528564453
 30
0.0
 11
-23.74996948242188
 21
78.35010528564453
 31
0.0
  0
LINE
  5
320
330
78
100
AcDbEntity
  8
0
  6
Continuous
 62
     0
100
AcDbLine
 10
-23.7500195080116
 20
78.35000901363848
 30
0.0
 11
-22.75002177227597
 21
77.89999782951926
 31
0.0
  0
LINE
  5
321
330
78
100
AcDbEntity
  8
0
  6
Continuous
 62
     0
100
AcDbLine
 10
-22.75
 20
77.90003204345703
 30
0.0
 11
-20.99996948242188
 21
77.90003204345703
 31
0.0
  0
LINE
  5
322
330
78
100
AcDbEntity
  8
0
  6
Continuous
 62
     0
100
AcDbLine
 10
-20.99996948242188
 20
100.4999771118164
 30
0.0
 11
21.00003051757812
 21
100.4999771118164
 31
0.0
  0
LINE
  5
323
330
78
100
AcDbEntity
  8
0
  6
Continuous
 62
     4
100
AcDbLine
 10
14.55047856868926
 20
97.94967515426686
 30
0.0
 11
17.44960989779818
 21
95.05054382515794
 31
0.0
  0
LINE
  5
324
330
78
100
AcDbEntity
  8
0
  6
Continuous
 62
     4
100
AcDbLine
 10
14.55051093746887
 20
95.05052224597151
 30
0.0
 11
17.44962068739135
 21
97.94963199589398
 31
0.0
  0
LINE
  5
325
330
78
100
AcDbEntity
  8
0
  6
Continuous
 62
     0
100
AcDbLine
 10
20.9000244140625
 20
92.00000762939453
 30
0.0
 11
11.50003051757812
 21
92.00000762939453
 31
0.0
  0
LINE
  5
326
330
78
100
AcDbEntity
  8
0
  6
Continuous
 62
     0
100
AcDbLine
 10
11.50003051757812
 20
92.00000762939453
 30
0.0
 11
11.50003051757812
 21
100.4999771118164
 31
0.0
  0
LINE
  5
327
330
78
100
AcDbEntity
  8
0
  6
Continuous
 62
     0
100
AcDbLine
 10
13.50003051757812
 20
103.4999465942383
 30
0.0
 11
13.50003051757812
 21
100.4999771118164
 31
0.0
  0
LINE
  5
328
330
78
100
AcDbEntity
  8
0
  6
Continuous
 62
     0
100
AcDbLine
 10
12.0
 20
106.5000534057617
 30
0.0
 11
12.0
 21
103.4999465942383
 31
0.0
  0
LINE
  5
329
330
78
100
AcDbEntity
  8
0
  6
Continuous
 62
     0
100
AcDbLine
 10
13.50003051757812
 20
103.4999465942383
 30
0.0
 11
-13.49996948242188
 21
103.4999465942383
 31
0.0
  0
LINE
  5
32A
330
78
100
AcDbEntity
  8
0
  6
Continuous
 62
     0
100
AcDbLine
 10
-20.99996948242188
 20
92.00000762939453
 30
0.0
 11
-11.5
 21
92.00000762939453
 31
0.0
  0
LINE
  5
32B
330
78
100
AcDbEntity
  8
0
  6
Continuous
 62
     4
100
AcDbLine
 10
-17.44951279145916
 20
97.94961041670754
 30
0.0
 11
-14.55037067275703
 21
95.0504682980054
 31
0.0
  0
LINE
  5
32C
330
78
100
AcDbEntity
  8
0
  6
Continuous
 62
     4
100
AcDbLine
 10
-17.4495073966626
 20
95.0504629032088
 30
0.0
 11
-14.55039764674012
 21
97.94957265313128
 31
0.0
  0
LINE
  5
32D
330
78
100
AcDbEntity
  8
0
  6
Continuous
 62
     0
100
AcDbLine
 10
-11.5
 20
92.00000762939453
 30
0.0
 11
-11.5
 21
100.4999771118164
 31
0.0
  0
LINE
  5
32E
330
78
100
AcDbEntity
  8
0
  6
Continuous
 62
     0
100
AcDbLine
 10
-13.49996948242188
 20
103.4999465942383
 30
0.0
 11
-13.49996948242188
 21
100.4999771118164
 31
0.0
  0
LINE
  5
32F
330
78
100
AcDbEntity
  8
0
  6
Continuous
 62
     0
100
AcDbLine
 10
-12.0
 20
106.5000534057617
 30
0.0
 11
-12.0
 21
103.4999465942383
 31
0.0
  0
LINE
  5
330
330
78
100
AcDbEntity
  8
0
  6
Continuous
 62
     0
100
AcDbLine
 10
12.0
 20
106.5000534057617
 30
0.0
 11
-12.0
 21
106.5000534057617
 31
0.0
  0
LINE
  5
331
330
78
100
AcDbEntity
  8
0
  6
Continuous
 62
     0
100
AcDbLine
 10
4.750030517578125
 20
121.1590347290039
 30
0.0
 11
4.750030517578125
 21
106.5000381469727
 31
0.0
  0
LINE
  5
332
330
78
100
AcDbEntity
  8
0
  6
Continuous
 62
     0
100
AcDbLine
 10
2.250030517578125
 20
121.1590347290039
 30
0.0
 11
2.250030517578125
 21
106.5000381469727
 31
0.0
  0
LINE
  5
333
330
78
100
AcDbEntity
  8
0
  6
Continuous
 62
     0
100
AcDbLine
 10
-2.249969482421875
 20
121.1590347290039
 30
0.0
 11
-2.249969482421875
 21
106.5000381469727
 31
0.0
  0
LINE
  5
334
330
78
100
AcDbEntity
  8
0
  6
Continuous
 62
     0
100
AcDbLine
 10
-4.749969482421875
 20
121.1590347290039
 30
0.0
 11
-4.749969482421875
 21
106.5000381469727
 31
0.0
  0
LINE
  5
335
330
78
100
AcDbEntity
  8
0
  6
Continuous
 62
     0
100
AcDbLine
 10
2.250030517578125
 20
121.1590347290039
 30
0.0
 11
4.750030517578125
 21
121.1590347290039
 31
0.0
  0
LINE
  5
336
330
78
100
AcDbEntity
  8
0
  6
Continuous
 62
     0
100
AcDbLine
 10
4.12498266120911
 20
121.159043091807
 30
0.0
 11
5.944835217467038
 21
126.1590462821395
 31
0.0
  0
LINE
  5
337
330
78
100
AcDbEntity
  8
0
  6
Continuous
 62
     0
100
AcDbLine
 10
3.500030517578125
 20
126.2872085571289
 30
0.0
 11
3.500030517578125
 21
121.1590347290039
 31
0.0
  0
LINE
  5
338
330
78
100
AcDbEntity
  8
0
  6
Continuous
 62
     0
100
AcDbLine
 10
2.874962969706935
 20
121.1590590071218
 30
0.0
 11
1.055121271149787
 21
126.1590336732059
 31
0.0
  0
LINE
  5
339
330
78
100
AcDbEntity
  8
0
  6
Continuous
 62
     0
100
AcDbLine
 10
-4.749969482421875
 20
121.1590347290039
 30
0.0
 11
-2.249969482421875
 21
121.1590347290039
 31
0.0
  0
LINE
  5
33A
330
78
100
AcDbEntity
  8
0
  6
Continuous
 62
     0
100
AcDbLine
 10
-2.87500265921895
 20
121.1590449232569
 30
0.0
 11
-1.055150102961015
 21
126.1590481135894
 31
0.0
  0
LINE
  5
33B
330
78
100
AcDbEntity
  8
0
  6
Continuous
 62
     0
100
AcDbLine
 10
-3.499969482421875
 20
126.3526992797852
 30
0.0
 11
-3.499969482421875
 21
121.1590347290039
 31
0.0
  0
LINE
  5
33C
330
78
100
AcDbEntity
  8
0
  6
Continuous
 62
     0
100
AcDbLine
 10
-4.124979335006117
 20
121.1590734202138
 30
0.0
 11
-5.944831471188429
 21
126.1590767634414
 31
0.0
  0
LINE
  5
33D
330
78
100
AcDbEntity
  8
0
  6
DASHED
 62
     0
100
AcDbLine
 10
-40.00000000000001
 20
13.50000000000001
 30
0.0
 11
-32.5
 21
13.3036055882311
 31
0.0
  0
LINE
  5
33E
330
78
100
AcDbEntity
  8
0
  6
DASHED
 62
     0
100
AcDbLine
 10
-40.00000000000001
 20
-13.50000000000001
 30
0.0
 11
-32.5
 21
-13.3036055882311
 31
0.0
  0
LINE
  5
33F
330
78
100
AcDbEntity
  8
0
  6
DASHED
 62
     0
100
AcDbLine
 10
-40.00000000000001
 20
-12.49965720750914
 30
0.0
 11
-32.5
 21
-12.30326279574024
 31
0.0
  0
LINE
  5
340
330
78
100
AcDbEntity
  8
0
  6
DASHED
 62
     0
100
AcDbLine
 10
-40.00000000000001
 20
12.49965720750914
 30
0.0
 11
-32.5
 21
12.30326279574024
 31
0.0
  0
LINE
  5
341
330
78
100
AcDbEntity
  8
0
  6
CENTER
 62
     4
100
AcDbLine
 10
-32.5
 20
-22.0
 30
0.0
 11
-32.5
 21
-36.8027499953847
 31
0.0
  0
LINE
  5
342
330
78
100
AcDbEntity
  8
0
  6
CENTER
 62
     4
100
AcDbLine
 10
32.5
 20
-22.0
 30
0.0
 11
32.5
 21
-36.92307262712646
 31
0.0
  0
LINE
  5
343
330
78
100
AcDbEntity
  8
0
  6
DASHED
 62
     0
100
AcDbLine
 10
-37.0
 20
-23.00000762939453
 30
0.0
 11
-37.0
 21
-35.0
 31
0.0
  0
LINE
  5
344
330
78
100
AcDbEntity
  8
0
  6
DASHED
 62
     0
100
AcDbLine
 10
-28.0
 20
-28.47213467551114
 30
0.0
 11
-28.0
 21
-35.0
 31
0.0
  0
LINE
  5
345
330
78
100
AcDbEntity
  8
0
  6
DASHED
 62
     0
100
AcDbLine
 10
37.0
 20
-23.00000762939453
 30
0.0
 11
37.0
 21
-35.0
 31
0.0
  0
LINE
  5
346
330
78
100
AcDbEntity
  8
0
  6
DASHED
 62
     0
100
AcDbLine
 10
28.0
 20
-28.47213467551114
 30
0.0
 11
28.0
 21
-35.0
 31
0.0
  0
LINE
  5
347
330
78
100
AcDbEntity
  8
0
  6
DASHED
 62
     0
100
AcDbLine
 10
40.00000000000001
 20
13.50000000000001
 30
0.0
 11
32.5
 21
13.3036055882311
 31
0.0
  0
LINE
  5
348
330
78
100
AcDbEntity
  8
0
  6
DASHED
 62
     0
100
AcDbLine
 10
40.00000000000001
 20
-13.50000000000001
 30
0.0
 11
32.5
 21
-13.3036055882311
 31
0.0
  0
LINE
  5
349
330
78
100
AcDbEntity
  8
0
  6
DASHED
 62
     0
100
AcDbLine
 10
40.00000000000001
 20
12.49965720750914
 30
0.0
 11
32.5
 21
12.30326279574024
 31
0.0
  0
LINE
  5
34A
330
78
100
AcDbEntity
  8
0
  6
DASHED
 62
     0
100
AcDbLine
 10
40.00000000000001
 20
-12.49965720750914
 30
0.0
 11
32.5
 21
-12.30326279574024
 31
0.0
  0
CIRCLE
  5
34B
330
78
100
AcDbEntity
  8
0
  6
Continuous
 62
     0
100
AcDbCircle
 10
10.5
 20
25.49998474121094
 30
0.0
 40
1.600000023841858
  0
CIRCLE
  5
34C
330
78
100
AcDbEntity
  8
0
  6
Continuous
 62
     0
100
AcDbCircle
 10
-24.0
 20
24.0
 30
0.0
 40
5.0
  0
ARC
  5
34D
330
78
100
AcDbEntity
  8
0
  6
Continuous
 62
     0
100
AcDbCircle
 10
24.0
 20
24.0
 30
0.0
 40
5.999999046325684
100
AcDbArc
 50
314.9999975851635
 51
134.9999975851636
  0
ARC
  5
34E
330
78
100
AcDbEntity
  8
0
  6
Continuous
 62
     0
100
AcDbCircle
 10
24.0
 20
-24.0
 30
0.0
 40
5.999999046325684
100
AcDbArc
 50
224.7518647706975
 51
45.0
  0
ARC
  5
34F
330
78
100
AcDbEntity
  8
0
  6
Continuous
 62
     0
100
AcDbCircle
 10
0.0
 20
32.0
 30
0.0
 40
6.499999046325684
100
AcDbArc
 50
0.0
 51
180.0000050089563
  0
ARC
  5
350
330
78
100
AcDbEntity
  8
0
  6
Continuous
 62
     0
100
AcDbCircle
 10
0.0
 20
32.0
 30
0.0
 40
4.5
100
AcDbArc
 50
0.0
 51
180.1492036611861
  0
CIRCLE
  5
351
330
78
100
AcDbEntity
  8
0
  6
Continuous
 62
     0
100
AcDbCircle
 10
10.5
 20
25.49998474121094
 30
0.0
 40
4.5
  0
ARC
  5
352
330
78
100
AcDbEntity
  8
0
  6
Continuous
 62
     0
100
AcDbCircle
 10
-24.0
 20
-24.0
 30
0.0
 40
5.999999046325684
100
AcDbArc
 50
134.8201364718445
 51
315.0
  0
ARC
  5
353
330
78
100
AcDbEntity
  8
0
  6
Continuous
 62
     0
100
AcDbCircle
 10
-24.0
 20
24.0
 30
0.0
 40
5.999999046325684
100
AcDbArc
 50
44.72117167714039
 51
225.0000024148365
  0
CIRCLE
  5
354
330
78
100
AcDbEntity
  8
0
  6
Continuous
 62
     0
100
AcDbCircle
 10
24.0
 20
24.0
 30
0.0
 40
5.0
  0
CIRCLE
  5
355
330
78
100
AcDbEntity
  8
0
  6
Continuous
 62
     0
100
AcDbCircle
 10
24.0
 20
-24.0
 30
0.0
 40
5.0
  0
CIRCLE
  5
356
330
78
100
AcDbEntity
  8
0
  6
Continuous
 62
     0
100
AcDbCircle
 10
-24.0
 20
-24.0
 30
0.0
 40
5.0
  0
ARC
  5
357
330
78
100
AcDbEntity
  8
0
  6
Continuous
 62
     0
100
AcDbCircle
 10
0.0
 20
0.0
 30
0.0
 40
26.14999389648438
100
AcDbArc
 50
76.73498283436969
 51
58.50470569333057
  0
CIRCLE
  5
358
330
78
100
AcDbEntity
  8
0
  6
Continuous
 62
     0
100
AcDbCircle
 10
-15.99996948242188
 20
52.49996185302734
 30
0.0
 40
3.500001192092896
  0
CIRCLE
  5
359
330
78
100
AcDbEntity
  8
0
  6
Continuous
 62
     0
100
AcDbCircle
 10
16.00003051757812
 20
52.50003814697266
 30
0.0
 40
3.500001192092896
  0
ARC
  5
35A
330
78
100
AcDbEntity
  8
0
  6
Continuous
 62
    32
100
AcDbCircle
 10
25.75
 20
70.25
 30
0.0
 40
0.2500001490116119
100
AcDbArc
 50
90.00003665542401
 51
270.0000553247587
  0
CIRCLE
  5
35B
330
78
100
AcDbEntity
  8
0
  6
Continuous
 62
    32
100
AcDbCircle
 10
25.5
 20
78.75
 30
0.0
 40
0.2500001490116119
  0
ARC
  5
35C
330
78
100
AcDbEntity
  8
0
  6
Continuous
 62
    32
100
AcDbCircle
 10
-25.75
 20
70.25
 30
0.0
 40
0.2500001490116119
100
AcDbArc
 50
269.9999770049544
 51
89.99998201391067
  0
CIRCLE
  5
35D
330
78
100
AcDbEntity
  8
0
  6
Continuous
 62
    32
100
AcDbCircle
 10
-25.5
 20
78.75
 30
0.0
 40
0.2500001490116119
  0
CIRCLE
  5
35E
330
78
100
AcDbEntity
  8
0
  6
Continuous
 62
     0
100
AcDbCircle
 10
16.00003051757812
 20
96.50005340576172
 30
0.0
 40
3.500001192092896
  0
CIRCLE
  5
35F
330
78
100
AcDbEntity
  8
0
  6
Continuous
 62
     0
100
AcDbCircle
 10
-15.99996948242188
 20
96.49999237060547
 30
0.0
 40
3.500001192092896
  0
MTEXT
  5
360
330
78
100
AcDbEntity
  8
0
 62
     0
100
AcDbMText
 10
-19.93184021701071
 20
87.78086560005998
 30
0.0
 40
0.5
 41
0.0
 71
     7
 72
     1
  1
{\W0.833333;ＢＮ－７Ｍ４７－２０－Ｅ/F＊＊＊}
 73
     1
 44
1.0
  0
ENDBLK
  5
7A
330
78
100
AcDbEntity
  8
0
100
AcDbBlockEnd
  0
BLOCK
  5
7C
330
7B
100
AcDbEntity
  8
0
100
AcDbBlockBegin
  2
DTL0004
 70
     0
 10
0.0
 20
0.0
 30
0.0
  3
DTL0004
  1

  0
POINT
  5
361
330
7B
100
AcDbEntity
  8
0
 62
     0
100
AcDbPoint
 10
0.0
 20
0.0
 30
0.0
  0
LINE
  5
362
330
7B
100
AcDbEntity
  8
0
  6
Continuous
 62
     0
100
AcDbLine
 10
93.5
 20
29.0
 30
0.0
 11
93.5
 21
19.0
 31
0.0
  0
LINE
  5
363
330
7B
100
AcDbEntity
  8
0
  6
Continuous
 62
     0
100
AcDbLine
 10
92.0
 20
19.0
 30
0.0
 11
99.5
 21
19.0
 31
0.0
  0
LINE
  5
364
330
7B
100
AcDbEntity
  8
0
  6
Continuous
 62
     0
100
AcDbLine
 10
92.0
 20
13.75486755371094
 30
0.0
 11
92.0
 21
30.0
 31
0.0
  0
LINE
  5
365
330
7B
100
AcDbEntity
  8
0
  6
Continuous
 62
     0
100
AcDbLine
 10
93.5
 20
-19.0
 30
0.0
 11
93.5
 21
-29.0
 31
0.0
  0
LINE
  5
366
330
7B
100
AcDbEntity
  8
0
  6
CENTER
 62
     4
100
AcDbLine
 10
92.0
 20
-24.0
 30
0.0
 11
101.6597595214844
 21
-24.0
 31
0.0
  0
LINE
  5
367
330
7B
100
AcDbEntity
  8
0
  6
Continuous
 62
     0
100
AcDbLine
 10
92.0
 20
29.0
 30
0.0
 11
99.5
 21
29.0
 31
0.0
  0
LINE
  5
368
330
7B
100
AcDbEntity
  8
0
  6
Continuous
 62
     0
100
AcDbLine
 10
90.0
 20
13.75486755371094
 30
0.0
 11
92.0
 21
13.75486755371094
 31
0.0
  0
LINE
  5
369
330
7B
100
AcDbEntity
  8
0
  6
Continuous
 62
     0
100
AcDbLine
 10
84.0
 20
30.0
 30
0.0
 11
92.0
 21
30.0
 31
0.0
  0
LINE
  5
36A
330
7B
100
AcDbEntity
  8
0
  6
Continuous
 62
     0
100
AcDbLine
 10
92.0
 20
-13.75489807128906
 30
0.0
 11
92.0
 21
-30.0
 31
0.0
  0
LINE
  5
36B
330
7B
100
AcDbEntity
  8
0
  6
Continuous
 62
     0
100
AcDbLine
 10
90.0
 20
-13.75489807128906
 30
0.0
 11
92.0
 21
-13.75489807128906
 31
0.0
  0
LINE
  5
36C
330
7B
100
AcDbEntity
  8
0
  6
Continuous
 62
     0
100
AcDbLine
 10
84.0
 20
-30.0
 30
0.0
 11
92.0
 21
-30.0
 31
0.0
  0
LINE
  5
36D
330
7B
100
AcDbEntity
  8
0
  6
Continuous
 62
     0
100
AcDbLine
 10
90.0
 20
21.51468658447266
 30
0.0
 11
90.0
 21
-21.51469421386719
 31
0.0
  0
LINE
  5
36E
330
7B
100
AcDbEntity
  8
0
  6
Continuous
 62
     0
100
AcDbLine
 10
99.5
 20
26.14999389648438
 30
0.0
 11
123.0
 21
26.14999389648438
 31
0.0
  0
LINE
  5
36F
330
7B
100
AcDbEntity
  8
0
  6
Continuous
 62
     0
100
AcDbLine
 10
99.5
 20
-26.14999389648438
 30
0.0
 11
123.0
 21
-26.14999389648438
 31
0.0
  0
LINE
  5
370
330
7B
100
AcDbEntity
  8
0
  6
Continuous
 62
     0
100
AcDbLine
 10
99.5
 20
29.0
 30
0.0
 11
99.5
 21
19.0
 31
0.0
  0
LINE
  5
371
330
7B
100
AcDbEntity
  8
0
  6
Continuous
 62
     0
100
AcDbLine
 10
99.5
 20
-19.0
 30
0.0
 11
99.5
 21
-29.0
 31
0.0
  0
LINE
  5
372
330
7B
100
AcDbEntity
  8
0
  6
Continuous
 62
     0
100
AcDbLine
 10
123.0
 20
29.49999326477856
 30
0.0
 11
123.0
 21
-26.14999389648438
 31
0.0
  0
LINE
  5
373
330
7B
100
AcDbEntity
  8
0
  6
Continuous
 62
     0
100
AcDbLine
 10
120.7857055664062
 20
30.0
 30
0.0
 11
126.0
 21
30.0
 31
0.0
  0
LINE
  5
374
330
7B
100
AcDbEntity
  8
0
  6
Continuous
 62
     0
100
AcDbLine
 10
123.0
 20
21.0
 30
0.0
 11
126.0
 21
21.0
 31
0.0
  0
LINE
  5
375
330
7B
100
AcDbEntity
  8
0
  6
CENTER
 62
     4
100
AcDbLine
 10
123.0
 20
25.49998474121094
 30
0.0
 11
127.580322265625
 21
25.49998474121094
 31
0.0
  0
LINE
  5
376
330
7B
100
AcDbEntity
  8
0
  6
Continuous
 62
     0
100
AcDbLine
 10
90.0
 20
-30.0
 30
0.0
 11
90.0
 21
-30.75
 31
0.0
  0
LINE
  5
377
330
7B
100
AcDbEntity
  8
0
  6
Continuous
 62
     0
100
AcDbLine
 10
90.0
 20
38.49999618530273
 30
0.0
 11
90.0
 21
30.0
 31
0.0
  0
LINE
  5
378
330
7B
100
AcDbEntity
  8
0
  6
Continuous
 62
     0
100
AcDbLine
 10
126.0
 20
30.0
 30
0.0
 11
126.0
 21
21.0
 31
0.0
  0
LINE
  5
379
330
7B
100
AcDbEntity
  8
0
  6
Continuous
 62
     0
100
AcDbLine
 10
92.0
 20
-29.0
 30
0.0
 11
99.5
 21
-29.0
 31
0.0
  0
LINE
  5
37A
330
7B
100
AcDbEntity
  8
0
  6
Continuous
 62
     0
100
AcDbLine
 10
123.0
 20
29.49999326477858
 30
0.0
 11
90.0
 21
36.49999752993871
 31
0.0
  0
LINE
  5
37B
330
7B
100
AcDbEntity
  8
0
  6
Continuous
 62
     0
100
AcDbLine
 10
92.0
 20
-19.0
 30
0.0
 11
99.5
 21
-19.0
 31
0.0
  0
LINE
  5
37C
330
7B
100
AcDbEntity
  8
0
  6
CENTER
 62
     4
100
AcDbLine
 10
92.0
 20
24.0
 30
0.0
 11
101.6597595214844
 21
24.0
 31
0.0
  0
LINE
  5
37D
330
7B
100
AcDbEntity
  8
0
  6
Continuous
 62
     0
100
AcDbLine
 10
-26.0
 20
39.50001525878906
 30
0.0
 11
26.0
 21
39.50001525878906
 31
0.0
  0
LINE
  5
37E
330
7B
100
AcDbEntity
  8
0
  6
Continuous
 62
     0
100
AcDbLine
 10
84.0
 20
38.49999618530273
 30
0.0
 11
84.0
 21
-30.74999237060547
 31
0.0
  0
LINE
  5
37F
330
7B
100
AcDbEntity
  8
0
  6
Continuous
 62
     0
100
AcDbLine
 10
-76.0
 20
-35.0
 30
0.0
 11
76.0
 21
-35.0
 31
0.0
  0
LINE
  5
380
330
7B
100
AcDbEntity
  8
0
  6
CENTER
 62
     4
100
AcDbLine
 10
-126.0
 20
0.0
 30
0.0
 11
126.0
 21
0.0
 31
0.0
  0
LINE
  5
381
330
7B
100
AcDbEntity
  8
0
  6
Continuous
 62
     0
100
AcDbLine
 10
-84.0
 20
38.49999618530273
 30
0.0
 11
-84.0
 21
-30.74999237060547
 31
0.0
  0
LINE
  5
382
330
7B
100
AcDbEntity
  8
0
  6
CENTER
 62
     4
100
AcDbLine
 10
0.0
 20
107.2845001220703
 30
0.0
 11
0.0
 21
-42.57193756103516
 31
0.0
  0
LINE
  5
383
330
7B
100
AcDbEntity
  8
0
  6
Continuous
 62
     0
100
AcDbLine
 10
-72.0
 20
18.80000495910645
 30
0.0
 11
-41.42626953125
 21
18.80000495910645
 31
0.0
  0
LINE
  5
384
330
7B
100
AcDbEntity
  8
0
  6
Continuous
 62
     0
100
AcDbLine
 10
41.42626953125
 20
18.80000495910645
 30
0.0
 11
72.0
 21
18.80000495910645
 31
0.0
  0
LINE
  5
385
330
7B
100
AcDbEntity
  8
0
  6
Continuous
 62
     0
100
AcDbLine
 10
26.0
 20
43.50001525878906
 30
0.0
 11
26.0
 21
31.50000381469727
 31
0.0
  0
LINE
  5
386
330
7B
100
AcDbEntity
  8
0
  6
Continuous
 62
     0
100
AcDbLine
 10
-26.0
 20
43.50001525878906
 30
0.0
 11
-26.0
 21
31.50000381469727
 31
0.0
  0
LINE
  5
387
330
7B
100
AcDbEntity
  8
0
  6
Continuous
 62
     0
100
AcDbLine
 10
4.0
 20
30.65383164281474
 30
0.0
 11
4.0
 21
11.33316040039062
 31
0.0
  0
LINE
  5
388
330
7B
100
AcDbEntity
  8
0
  6
Continuous
 62
     0
100
AcDbLine
 10
-4.0
 20
30.65384118660911
 30
0.0
 11
-4.0
 21
11.33316040039062
 31
0.0
  0
LINE
  5
389
330
7B
100
AcDbEntity
  8
0
  6
Continuous
 62
     0
100
AcDbLine
 10
-25.99999924877095
 20
31.49999501017855
 30
0.0
 11
0.000002684379392
 21
30.49999492837053
 31
0.0
  0
LINE
  5
38A
330
7B
100
AcDbEntity
  8
0
  6
Continuous
 62
     0
100
AcDbLine
 10
0.000024246178304
 20
30.49998642036685
 30
0.0
 11
26.00002629844986
 21
31.49998650675646
 31
0.0
  0
LINE
  5
38B
330
7B
100
AcDbEntity
  8
0
  6
Continuous
 62
     0
100
AcDbLine
 10
-90.0
 20
38.49999618530273
 30
0.0
 11
-26.0
 21
38.49999618530273
 31
0.0
  0
LINE
  5
38C
330
7B
100
AcDbEntity
  8
0
  6
Continuous
 62
     0
100
AcDbLine
 10
26.0
 20
38.49999618530273
 30
0.0
 11
90.0
 21
38.49999618530273
 31
0.0
  0
LINE
  5
38D
330
7B
100
AcDbEntity
  8
0
  6
Continuous
 62
     0
100
AcDbLine
 10
-70.0
 20
-22.99998474121094
 30
0.0
 11
-50.0
 21
-22.99998474121094
 31
0.0
  0
LINE
  5
38E
330
7B
100
AcDbEntity
  8
0
  6
Continuous
 62
     0
100
AcDbLine
 10
40.0
 20
-25.0
 30
0.0
 11
40.0
 21
-35.0
 31
0.0
  0
LINE
  5
38F
330
7B
100
AcDbEntity
  8
0
  6
Continuous
 62
     0
100
AcDbLine
 10
-40.0
 20
-25.0
 30
0.0
 11
-40.0
 21
-35.0
 31
0.0
  0
LINE
  5
390
330
7B
100
AcDbEntity
  8
0
  6
Continuous
 62
     0
100
AcDbLine
 10
50.0
 20
-22.99998474121094
 30
0.0
 11
70.0
 21
-22.99998474121094
 31
0.0
  0
LINE
  5
391
330
7B
100
AcDbEntity
  8
0
  6
Continuous
 62
     0
100
AcDbLine
 10
-72.0
 20
-26.99999237060547
 30
0.0
 11
-70.0
 21
-26.99999237060547
 31
0.0
  0
LINE
  5
392
330
7B
100
AcDbEntity
  8
0
  6
Continuous
 62
     0
100
AcDbLine
 10
-40.0
 20
-26.99999237060547
 30
0.0
 11
40.0
 21
-26.99999237060547
 31
0.0
  0
LINE
  5
393
330
7B
100
AcDbEntity
  8
0
  6
Continuous
 62
     0
100
AcDbLine
 10
70.0
 20
-26.99999237060547
 30
0.0
 11
72.0
 21
-26.99999237060547
 31
0.0
  0
LINE
  5
394
330
7B
100
AcDbEntity
  8
0
  6
Continuous
 62
     0
100
AcDbLine
 10
-70.0
 20
-22.99998474121094
 30
0.0
 11
-70.0
 21
-35.0
 31
0.0
  0
LINE
  5
395
330
7B
100
AcDbEntity
  8
0
  6
Continuous
 62
     0
100
AcDbLine
 10
70.0
 20
-22.99998474121094
 30
0.0
 11
70.0
 21
-35.0
 31
0.0
  0
LINE
  5
396
330
7B
100
AcDbEntity
  8
0
  6
Continuous
 62
     0
100
AcDbLine
 10
-50.0
 20
-25.0
 30
0.0
 11
-40.0
 21
-25.0
 31
0.0
  0
LINE
  5
397
330
7B
100
AcDbEntity
  8
0
  6
Continuous
 62
     0
100
AcDbLine
 10
40.0
 20
-25.0
 30
0.0
 11
50.0
 21
-25.0
 31
0.0
  0
LINE
  5
398
330
7B
100
AcDbEntity
  8
0
  6
Continuous
 62
     0
100
AcDbLine
 10
-76.0
 20
-30.74999237060547
 30
0.0
 11
-76.0
 21
-35.0
 31
0.0
  0
LINE
  5
399
330
7B
100
AcDbEntity
  8
0
  6
Continuous
 62
     0
100
AcDbLine
 10
76.0
 20
-30.74999237060547
 30
0.0
 11
76.0
 21
-35.0
 31
0.0
  0
LINE
  5
39A
330
7B
100
AcDbEntity
  8
0
  6
Continuous
 62
     0
100
AcDbLine
 10
-72.0
 20
30.75001335144043
 30
0.0
 11
-72.0
 21
8.062484741210938
 31
0.0
  0
LINE
  5
39B
330
7B
100
AcDbEntity
  8
0
  6
Continuous
 62
     0
100
AcDbLine
 10
-84.0
 20
30.75001335144043
 30
0.0
 11
-72.0
 21
30.75001335144043
 31
0.0
  0
LINE
  5
39C
330
7B
100
AcDbEntity
  8
0
  6
Continuous
 62
     0
100
AcDbLine
 10
-90.0
 20
-30.74999237060547
 30
0.0
 11
-72.0
 21
-30.74999237060547
 31
0.0
  0
LINE
  5
39D
330
7B
100
AcDbEntity
  8
0
  6
Continuous
 62
     0
100
AcDbLine
 10
-72.0
 20
-13.76197052001953
 30
0.0
 11
-72.0
 21
-30.74999237060547
 31
0.0
  0
LINE
  5
39E
330
7B
100
AcDbEntity
  8
0
  6
Continuous
 62
     0
100
AcDbLine
 10
72.0
 20
30.75001335144043
 30
0.0
 11
72.0
 21
8.062484741210938
 31
0.0
  0
LINE
  5
39F
330
7B
100
AcDbEntity
  8
0
  6
Continuous
 62
     0
100
AcDbLine
 10
84.0
 20
30.75001335144043
 30
0.0
 11
72.0
 21
30.75001335144043
 31
0.0
  0
LINE
  5
3A0
330
7B
100
AcDbEntity
  8
0
  6
Continuous
 62
     0
100
AcDbLine
 10
90.0
 20
-30.74999237060547
 30
0.0
 11
72.0
 21
-30.74999237060547
 31
0.0
  0
LINE
  5
3A1
330
7B
100
AcDbEntity
  8
0
  6
Continuous
 62
     0
100
AcDbLine
 10
72.0
 20
-13.10008239746094
 30
0.0
 11
72.0
 21
-30.74999237060547
 31
0.0
  0
LINE
  5
3A2
330
7B
100
AcDbEntity
  8
0
  6
CENTER
 62
     4
100
AcDbLine
 10
30.0
 20
22.0
 30
0.0
 11
30.0
 21
-22.0
 31
0.0
  0
LINE
  5
3A3
330
7B
100
AcDbEntity
  8
0
  6
CENTER
 62
     4
100
AcDbLine
 10
-30.0
 20
22.0
 30
0.0
 11
-30.0
 21
-22.0
 31
0.0
  0
LINE
  5
3A4
330
7B
100
AcDbEntity
  8
0
  6
Continuous
 62
     0
100
AcDbLine
 10
-18.57369995117188
 20
18.80000495910645
 30
0.0
 11
-4.0
 21
18.80000495910645
 31
0.0
  0
LINE
  5
3A5
330
7B
100
AcDbEntity
  8
0
  6
Continuous
 62
     0
100
AcDbLine
 10
4.0
 20
18.80000495910645
 30
0.0
 11
18.57369995117188
 21
18.80000495910645
 31
0.0
  0
LINE
  5
3A6
330
7B
100
AcDbEntity
  8
0
  6
Continuous
 62
     0
100
AcDbLine
 10
-4.0
 20
11.33316040039062
 30
0.0
 11
4.0
 21
11.33316040039062
 31
0.0
  0
LINE
  5
3A7
330
7B
100
AcDbEntity
  8
0
  6
Continuous
 62
     0
100
AcDbLine
 10
-75.0
 20
18.80000495910645
 30
0.0
 11
-75.0
 21
-30.74999237060547
 31
0.0
  0
LINE
  5
3A8
330
7B
100
AcDbEntity
  8
0
  6
Continuous
 62
     0
100
AcDbLine
 10
75.0
 20
18.80000495910645
 30
0.0
 11
75.0
 21
-30.74999237060547
 31
0.0
  0
LINE
  5
3A9
330
7B
100
AcDbEntity
  8
0
  6
CENTER
 62
     4
100
AcDbLine
 10
-60.0
 20
-20.7513617929456
 30
0.0
 11
-60.0
 21
-37.25563909312169
 31
0.0
  0
LINE
  5
3AA
330
7B
100
AcDbEntity
  8
0
  6
CENTER
 62
     4
100
AcDbLine
 10
60.0
 20
-20.7513617929456
 30
0.0
 11
60.0
 21
-37.25563909312169
 31
0.0
  0
LINE
  5
3AB
330
7B
100
AcDbEntity
  8
0
  6
Continuous
 62
     0
100
AcDbLine
 10
-126.0
 20
30.0
 30
0.0
 11
-126.0
 21
21.0
 31
0.0
  0
LINE
  5
3AC
330
7B
100
AcDbEntity
  8
0
  6
CENTER
 62
     4
100
AcDbLine
 10
-92.0
 20
24.00000381469727
 30
0.0
 11
-99.37684531429298
 21
24.00000381469727
 31
0.0
  0
LINE
  5
3AD
330
7B
100
AcDbEntity
  8
0
  6
Continuous
 62
     0
100
AcDbLine
 10
-92.0
 20
30.00000381469727
 30
0.0
 11
-92.0
 21
13.75488662719727
 31
0.0
  0
LINE
  5
3AE
330
7B
100
AcDbEntity
  8
0
  6
Continuous
 62
     0
100
AcDbLine
 10
-122.9999847412109
 20
-26.14998626708984
 30
0.0
 11
-122.9999847412109
 21
21.0
 31
0.0
  0
LINE
  5
3AF
330
7B
100
AcDbEntity
  8
0
  6
Continuous
 62
     0
100
AcDbLine
 10
-90.0
 20
-13.7548828125
 30
0.0
 11
-92.0
 21
-13.7548828125
 31
0.0
  0
LINE
  5
3B0
330
7B
100
AcDbEntity
  8
0
  6
Continuous
 62
     0
100
AcDbLine
 10
-98.0
 20
-26.14998626708984
 30
0.0
 11
-122.9999847412109
 21
-26.14998626708984
 31
0.0
  0
LINE
  5
3B1
330
7B
100
AcDbEntity
  8
0
  6
Continuous
 62
     0
100
AcDbLine
 10
-90.0
 20
35.31879995720493
 30
0.0
 11
-120.1644126279165
 21
30.0
 31
0.0
  0
LINE
  5
3B2
330
7B
100
AcDbEntity
  8
0
  6
CENTER
 62
     4
100
AcDbLine
 10
-98.0
 20
25.50000762939453
 30
0.0
 11
-128.1275482177734
 21
25.50000762939453
 31
0.0
  0
LINE
  5
3B3
330
7B
100
AcDbEntity
  8
0
  6
Continuous
 62
     0
100
AcDbLine
 10
-98.0
 20
21.0
 30
0.0
 11
-126.0
 21
21.0
 31
0.0
  0
LINE
  5
3B4
330
7B
100
AcDbEntity
  8
0
  6
Continuous
 62
     0
100
AcDbLine
 10
-84.0
 20
30.0
 30
0.0
 11
-126.0
 21
30.0
 31
0.0
  0
LINE
  5
3B5
330
7B
100
AcDbEntity
  8
0
  6
Continuous
 62
     0
100
AcDbLine
 10
-90.0
 20
38.49999618530273
 30
0.0
 11
-90.0
 21
30.00000381469727
 31
0.0
  0
LINE
  5
3B6
330
7B
100
AcDbEntity
  8
0
  6
CENTER
 62
     4
100
AcDbLine
 10
-92.0
 20
-24.00000762939453
 30
0.0
 11
-99.53731220479345
 21
-24.00000762939453
 31
0.0
  0
LINE
  5
3B7
330
7B
100
AcDbEntity
  8
0
  6
Continuous
 62
     0
100
AcDbLine
 10
-90.0
 20
21.51468658447266
 30
0.0
 11
-90.0
 21
-21.51468658447266
 31
0.0
  0
LINE
  5
3B8
330
7B
100
AcDbEntity
  8
0
  6
Continuous
 62
     0
100
AcDbLine
 10
-90.0
 20
13.75488662719727
 30
0.0
 11
-92.0
 21
13.75488662719727
 31
0.0
  0
LINE
  5
3B9
330
7B
100
AcDbEntity
  8
0
  6
Continuous
 62
     0
100
AcDbLine
 10
-90.0
 20
-30.0
 30
0.0
 11
-90.0
 21
-30.74999237060547
 31
0.0
  0
LINE
  5
3BA
330
7B
100
AcDbEntity
  8
0
  6
Continuous
 62
     0
100
AcDbLine
 10
-92.0
 20
-13.7548828125
 30
0.0
 11
-92.0
 21
-30.0
 31
0.0
  0
LINE
  5
3BB
330
7B
100
AcDbEntity
  8
0
  6
Continuous
 62
     0
100
AcDbLine
 10
-84.0
 20
-30.0
 30
0.0
 11
-92.0
 21
-30.0
 31
0.0
  0
LINE
  5
3BC
330
7B
100
AcDbEntity
  8
0
  6
Continuous
 62
     0
100
AcDbLine
 10
-98.0
 20
-29.0
 30
0.0
 11
-92.0
 21
-29.0
 31
0.0
  0
LINE
  5
3BD
330
7B
100
AcDbEntity
  8
0
  6
Continuous
 62
     0
100
AcDbLine
 10
-98.0
 20
-19.00000762939453
 30
0.0
 11
-98.0
 21
-29.0
 31
0.0
  0
LINE
  5
3BE
330
7B
100
AcDbEntity
  8
0
  6
Continuous
 62
     0
100
AcDbLine
 10
-98.0
 20
-19.00000762939453
 30
0.0
 11
-92.0
 21
-19.00000762939453
 31
0.0
  0
LINE
  5
3BF
330
7B
100
AcDbEntity
  8
0
  6
Continuous
 62
     0
100
AcDbLine
 10
-93.30001831054688
 20
-19.00000762939453
 30
0.0
 11
-93.30001831054688
 21
-29.0
 31
0.0
  0
LINE
  5
3C0
330
7B
100
AcDbEntity
  8
0
  6
Continuous
 62
     0
100
AcDbLine
 10
-98.0
 20
19.00000381469727
 30
0.0
 11
-92.0
 21
19.00000381469727
 31
0.0
  0
LINE
  5
3C1
330
7B
100
AcDbEntity
  8
0
  6
Continuous
 62
     0
100
AcDbLine
 10
-98.0
 20
29.00000381469727
 30
0.0
 11
-98.0
 21
19.00000381469727
 31
0.0
  0
LINE
  5
3C2
330
7B
100
AcDbEntity
  8
0
  6
Continuous
 62
     0
100
AcDbLine
 10
-98.0
 20
29.00000381469727
 30
0.0
 11
-92.0
 21
29.00000381469727
 31
0.0
  0
LINE
  5
3C3
330
7B
100
AcDbEntity
  8
0
  6
Continuous
 62
     0
100
AcDbLine
 10
-93.30001831054688
 20
29.00000381469727
 30
0.0
 11
-93.30001831054688
 21
19.00000381469727
 31
0.0
  0
LINE
  5
3C4
330
7B
100
AcDbEntity
  8
0
  6
Continuous
 62
     0
100
AcDbLine
 10
50.0
 20
-22.99998474121094
 30
0.0
 11
50.0
 21
-35.0
 31
0.0
  0
LINE
  5
3C5
330
7B
100
AcDbEntity
  8
0
  6
Continuous
 62
     0
100
AcDbLine
 10
-50.0
 20
-22.99998474121094
 30
0.0
 11
-50.0
 21
-35.0
 31
0.0
  0
LINE
  5
3C6
330
7B
100
AcDbEntity
  8
0
  6
Continuous
 62
     0
100
AcDbLine
 10
-26.0
 20
43.50001525878906
 30
0.0
 11
-17.0
 21
43.50001525878906
 31
0.0
  0
LINE
  5
3C7
330
7B
100
AcDbEntity
  8
0
  6
CENTER
 62
     4
100
AcDbLine
 10
-22.0
 20
48.50001525878906
 30
0.0
 11
-22.0
 21
43.50001525878906
 31
0.0
  0
LINE
  5
3C8
330
7B
100
AcDbEntity
  8
0
  6
Continuous
 62
     0
100
AcDbLine
 10
-25.5
 20
44.50001525878906
 30
0.0
 11
-18.5
 21
44.50001525878906
 31
0.0
  0
LINE
  5
3C9
330
7B
100
AcDbEntity
  8
0
  6
Continuous
 62
     0
100
AcDbLine
 10
-25.5
 20
48.50001525878906
 30
0.0
 11
-25.5
 21
43.50001525878906
 31
0.0
  0
LINE
  5
3CA
330
7B
100
AcDbEntity
  8
0
  6
Continuous
 62
     0
100
AcDbLine
 10
-27.25
 20
47.49995422363281
 30
0.0
 11
-25.5
 21
47.49995422363281
 31
0.0
  0
LINE
  5
3CB
330
7B
100
AcDbEntity
  8
0
  6
Continuous
 62
     0
100
AcDbLine
 10
-27.9999610543343
 20
48.4998741149875
 30
0.0
 11
-27.24996112585988
 21
47.49987406134333
 31
0.0
  0
LINE
  5
3CC
330
7B
100
AcDbEntity
  8
0
  6
Continuous
 62
     0
100
AcDbLine
 10
-42.0
 20
48.50001525878906
 30
0.0
 11
-4.0
 21
48.50001525878906
 31
0.0
  0
LINE
  5
3CD
330
7B
100
AcDbEntity
  8
0
  6
Continuous
 62
     0
100
AcDbLine
 10
-18.5
 20
47.49995422363281
 30
0.0
 11
-8.749969482421875
 21
47.49995422363281
 31
0.0
  0
LINE
  5
3CE
330
7B
100
AcDbEntity
  8
0
  6
Continuous
 62
     0
100
AcDbLine
 10
-18.5
 20
48.50001525878906
 30
0.0
 11
-18.5
 21
43.50001525878906
 31
0.0
  0
LINE
  5
3CF
330
7B
100
AcDbEntity
  8
0
  6
Continuous
 62
     0
100
AcDbLine
 10
-18.50001338613377
 20
44.86364719353955
 30
0.0
 11
-4.000000000000002
 21
47.50001270474006
 31
0.0
  0
LINE
  5
3D0
330
7B
100
AcDbEntity
  8
0
  6
Continuous
 62
     0
100
AcDbLine
 10
-17.0
 20
45.13637684228067
 30
0.0
 11
-17.0
 21
43.50001525878906
 31
0.0
  0
LINE
  5
3D1
330
7B
100
AcDbEntity
  8
0
  6
Continuous
 62
     0
100
AcDbLine
 10
-8.749966478354423
 20
47.49993140697181
 30
0.0
 11
-7.999957227712397
 21
48.49994354247661
 31
0.0
  0
LINE
  5
3D2
330
7B
100
AcDbEntity
  8
0
  6
Continuous
 62
     0
100
AcDbLine
 10
-4.0
 20
100.5000152587891
 30
0.0
 11
-4.0
 21
47.50001270474004
 31
0.0
  0
LINE
  5
3D3
330
7B
100
AcDbEntity
  8
0
  6
CENTER
 62
     4
100
AcDbLine
 10
22.0
 20
48.50001525878906
 30
0.0
 11
22.0
 21
43.50001525878906
 31
0.0
  0
LINE
  5
3D4
330
7B
100
AcDbEntity
  8
0
  6
Continuous
 62
     0
100
AcDbLine
 10
25.5
 20
44.50001525878906
 30
0.0
 11
18.5
 21
44.50001525878906
 31
0.0
  0
LINE
  5
3D5
330
7B
100
AcDbEntity
  8
0
  6
Continuous
 62
     0
100
AcDbLine
 10
17.0
 20
43.50001525878906
 30
0.0
 11
26.0
 21
43.50001525878906
 31
0.0
  0
LINE
  5
3D6
330
7B
100
AcDbEntity
  8
0
  6
Continuous
 62
     0
100
AcDbLine
 10
17.0
 20
45.13637684228067
 30
0.0
 11
17.0
 21
43.50001525878906
 31
0.0
  0
LINE
  5
3D7
330
7B
100
AcDbEntity
  8
0
  6
Continuous
 62
     0
100
AcDbLine
 10
4.000000000000002
 20
47.50001270474006
 30
0.0
 11
18.50000775638495
 21
44.86364821713003
 31
0.0
  0
LINE
  5
3D8
330
7B
100
AcDbEntity
  8
0
  6
Continuous
 62
     0
100
AcDbLine
 10
18.5
 20
48.50001525878906
 30
0.0
 11
18.5
 21
43.50001525878906
 31
0.0
  0
LINE
  5
3D9
330
7B
100
AcDbEntity
  8
0
  6
Continuous
 62
     0
100
AcDbLine
 10
28.00003582240165
 20
48.49986095428729
 30
0.0
 11
27.25003589392722
 21
47.49986090064311
 31
0.0
  0
LINE
  5
3DA
330
7B
100
AcDbEntity
  8
0
  6
Continuous
 62
     0
100
AcDbLine
 10
42.0
 20
48.50001525878906
 30
0.0
 11
4.0
 21
48.50001525878906
 31
0.0
  0
LINE
  5
3DB
330
7B
100
AcDbEntity
  8
0
  6
Continuous
 62
     0
100
AcDbLine
 10
25.5
 20
48.50001525878906
 30
0.0
 11
25.5
 21
43.50001525878906
 31
0.0
  0
LINE
  5
3DC
330
7B
100
AcDbEntity
  8
0
  6
Continuous
 62
     0
100
AcDbLine
 10
27.25
 20
47.49995422363281
 30
0.0
 11
25.5
 21
47.49995422363281
 31
0.0
  0
LINE
  5
3DD
330
7B
100
AcDbEntity
  8
0
  6
Continuous
 62
     0
100
AcDbLine
 10
18.5
 20
47.49995422363281
 30
0.0
 11
8.749969482421875
 21
47.49995422363281
 31
0.0
  0
LINE
  5
3DE
330
7B
100
AcDbEntity
  8
0
  6
Continuous
 62
     0
100
AcDbLine
 10
8.749962663654255
 20
47.49996192454958
 30
0.0
 11
7.999962568286829
 21
48.499961853024
 31
0.0
  0
LINE
  5
3DF
330
7B
100
AcDbEntity
  8
0
  6
Continuous
 62
     0
100
AcDbLine
 10
4.0
 20
100.5000152587891
 30
0.0
 11
4.0
 21
47.50001270474004
 31
0.0
  0
LINE
  5
3E0
330
7B
100
AcDbEntity
  8
0
  6
Continuous
 62
     0
100
AcDbLine
 10
-42.0
 20
100.5
 30
0.0
 11
42.0
 21
100.5
 31
0.0
  0
LINE
  5
3E1
330
7B
100
AcDbEntity
  8
0
  6
Continuous
 62
     0
100
AcDbLine
 10
-34.99996948242188
 20
100.5
 30
0.0
 11
-34.99996948242188
 21
48.50001525878906
 31
0.0
  0
LINE
  5
3E2
330
7B
100
AcDbEntity
  8
0
  6
Continuous
 62
     0
100
AcDbLine
 10
-41.99995231485607
 20
100.4999873011202
 30
0.0
 11
-86.00003051757812
 21
99.50000534748267
 31
0.0
  0
LINE
  5
3E3
330
7B
100
AcDbEntity
  8
0
  6
CENTER
 62
     4
100
AcDbLine
 10
-47.22299194335938
 20
96.50000762939453
 30
0.0
 11
-42.0
 21
96.50000762939453
 31
0.0
  0
LINE
  5
3E4
330
7B
100
AcDbEntity
  8
0
  6
Continuous
 62
     0
100
AcDbLine
 10
-20.99996948242188
 20
126.6551895141602
 30
0.0
 11
-20.99996948242188
 21
121.159049987793
 31
0.0
  0
LINE
  5
3E5
330
7B
100
AcDbEntity
  8
0
  6
Continuous
 62
     0
100
AcDbLine
 10
-21.62495370630897
 20
121.1590338064873
 30
0.0
 11
-23.44480584249129
 21
126.1590371497149
 31
0.0
  0
LINE
  5
3E6
330
7B
100
AcDbEntity
  8
0
  6
Continuous
 62
     0
100
AcDbLine
 10
-20.37494967124596
 20
121.1590273350897
 30
0.0
 11
-18.55509711498803
 21
126.1590305254222
 31
0.0
  0
LINE
  5
3E7
330
7B
100
AcDbEntity
  8
0
  6
Continuous
 62
     0
100
AcDbLine
 10
-19.74996948242188
 20
121.159049987793
 30
0.0
 11
-19.74996948242188
 21
106.5000457763672
 31
0.0
  0
LINE
  5
3E8
330
7B
100
AcDbEntity
  8
0
  6
Continuous
 62
     0
100
AcDbLine
 10
-22.25
 20
121.159049987793
 30
0.0
 11
-19.75
 21
121.159049987793
 31
0.0
  0
LINE
  5
3E9
330
7B
100
AcDbEntity
  8
0
  6
Continuous
 62
     0
100
AcDbLine
 10
-22.24996948242188
 20
121.159049987793
 30
0.0
 11
-22.24996948242188
 21
106.5000457763672
 31
0.0
  0
LINE
  5
3EA
330
7B
100
AcDbEntity
  8
0
  6
Continuous
 62
     0
100
AcDbLine
 10
-86.00003051757812
 20
49.50005096129163
 30
0.0
 11
-86.00003051757812
 21
99.50000534748273
 31
0.0
  0
LINE
  5
3EB
330
7B
100
AcDbEntity
  8
0
  6
Continuous
 62
     0
100
AcDbLine
 10
-86.00003051757814
 20
91.00052940618563
 30
0.0
 11
-42.0
 21
91.9992242942465
 31
0.0
  0
LINE
  5
3EC
330
7B
100
AcDbEntity
  8
0
  6
Continuous
 62
     0
100
AcDbLine
 10
-86.00003051757815
 20
57.99934830109462
 30
0.0
 11
-42.00000000000001
 21
57.0006466908745
 31
0.0
  0
LINE
  5
3ED
330
7B
100
AcDbEntity
  8
0
  6
Continuous
 62
     0
100
AcDbLine
 10
-41.99996513186321
 20
48.50004347597769
 30
0.0
 11
-86.00003051757812
 21
49.50005096129166
 31
0.0
  0
LINE
  5
3EE
330
7B
100
AcDbEntity
  8
0
  6
DASHED
 62
     4
100
AcDbLine
 10
-31.5
 20
103.5000457763672
 30
0.0
 11
-31.5
 21
96.50000762939453
 31
0.0
  0
LINE
  5
3EF
330
7B
100
AcDbEntity
  8
0
  6
DASHED
 62
     4
100
AcDbLine
 10
-30.30001831054688
 20
103.5000457763672
 30
0.0
 11
-30.30001831054688
 21
96.50000762939453
 31
0.0
  0
LINE
  5
3F0
330
7B
100
AcDbEntity
  8
0
  6
DASHED
 62
     4
100
AcDbLine
 10
-11.69998168945312
 20
103.5000457763672
 30
0.0
 11
-11.69998168945312
 21
96.50000762939453
 31
0.0
  0
LINE
  5
3F1
330
7B
100
AcDbEntity
  8
0
  6
DASHED
 62
     4
100
AcDbLine
 10
-10.49996948242188
 20
103.5000457763672
 30
0.0
 11
-10.49996948242188
 21
96.50000762939453
 31
0.0
  0
LINE
  5
3F2
330
7B
100
AcDbEntity
  8
0
  6
Continuous
 62
     0
100
AcDbLine
 10
-7.499969482421875
 20
103.5000152587891
 30
0.0
 11
-7.499969482421875
 21
100.4999160766602
 31
0.0
  0
LINE
  5
3F3
330
7B
100
AcDbEntity
  8
0
  6
Continuous
 62
     0
100
AcDbLine
 10
-34.5
 20
103.5000152587891
 30
0.0
 11
-7.499969482421875
 21
103.5000152587891
 31
0.0
  0
LINE
  5
3F4
330
7B
100
AcDbEntity
  8
0
  6
Continuous
 62
     0
100
AcDbLine
 10
-9.0
 20
103.5000457763672
 30
0.0
 11
-9.0
 21
106.5000457763672
 31
0.0
  0
LINE
  5
3F5
330
7B
100
AcDbEntity
  8
0
  6
Continuous
 62
     0
100
AcDbLine
 10
-33.0
 20
106.5000457763672
 30
0.0
 11
-9.0
 21
106.5000457763672
 31
0.0
  0
LINE
  5
3F6
330
7B
100
AcDbEntity
  8
0
  6
Continuous
 62
     0
100
AcDbLine
 10
-33.0
 20
103.5000457763672
 30
0.0
 11
-33.0
 21
106.5000457763672
 31
0.0
  0
LINE
  5
3F7
330
7B
100
AcDbEntity
  8
0
  6
Continuous
 62
     0
100
AcDbLine
 10
-34.5
 20
103.5000152587891
 30
0.0
 11
-34.5
 21
100.4999160766602
 31
0.0
  0
LINE
  5
3F8
330
7B
100
AcDbEntity
  8
0
  6
Continuous
 62
     0
100
AcDbLine
 10
-42.0
 20
100.5
 30
0.0
 11
-42.0
 21
91.99922429424646
 31
0.0
  0
LINE
  5
3F9
330
7B
100
AcDbEntity
  8
0
  6
Continuous
 62
     0
100
AcDbLine
 10
-42.99996948242188
 20
93.0
 30
0.0
 11
-42.99996948242188
 21
100.0000457763672
 31
0.0
  0
LINE
  5
3FA
330
7B
100
AcDbEntity
  8
0
  6
Continuous
 62
     0
100
AcDbLine
 10
-44.29998779296875
 20
93.0
 30
0.0
 11
-42.0
 21
93.0
 31
0.0
  0
LINE
  5
3FB
330
7B
100
AcDbEntity
  8
0
  6
Continuous
 62
     0
100
AcDbLine
 10
-44.29998779296875
 20
100.0000457763672
 30
0.0
 11
-42.0
 21
100.0000457763672
 31
0.0
  0
LINE
  5
3FC
330
7B
100
AcDbEntity
  8
0
  6
Continuous
 62
     0
100
AcDbLine
 10
-42.0
 20
48.50001525878906
 30
0.0
 11
-42.0
 21
57.00064669087447
 31
0.0
  0
LINE
  5
3FD
330
7B
100
AcDbEntity
  8
0
  6
Continuous
 62
     0
100
AcDbLine
 10
-14.55834364293759
 20
71.9999376445653
 30
0.0
 11
-13.11496865711777
 21
74.499935641399
 31
0.0
  0
LINE
  5
3FE
330
7B
100
AcDbEntity
  8
0
  6
Continuous
 62
     0
100
AcDbLine
 10
-13.11494993105934
 20
74.49990399993605
 30
0.0
 11
-14.55837015708576
 21
76.99998159331598
 31
0.0
  0
LINE
  5
3FF
330
7B
100
AcDbEntity
  8
0
  6
Continuous
 62
     0
100
AcDbLine
 10
-9.29998779296875
 20
93.19998931884766
 30
0.0
 11
-9.29998779296875
 21
55.79993438720703
 31
0.0
  0
LINE
  5
400
330
7B
100
AcDbEntity
  8
0
  6
Continuous
 62
     0
100
AcDbLine
 10
-27.69998168945312
 20
93.19998931884766
 30
0.0
 11
-9.29998779296875
 21
93.19998931884766
 31
0.0
  0
LINE
  5
401
330
7B
100
AcDbEntity
  8
0
  6
Continuous
 62
     0
100
AcDbLine
 10
-27.69998168945312
 20
93.19998931884766
 30
0.0
 11
-27.69998168945312
 21
55.79993438720703
 31
0.0
  0
LINE
  5
402
330
7B
100
AcDbEntity
  8
0
  6
Continuous
 62
     0
100
AcDbLine
 10
-16.0
 20
81.50000762939453
 30
0.0
 11
-9.29998779296875
 21
81.50000762939453
 31
0.0
  0
LINE
  5
403
330
7B
100
AcDbEntity
  8
0
  6
CENTER
 62
     4
100
AcDbLine
 10
-15.99996948242188
 20
80.49998474121094
 30
0.0
 11
-15.99996948242188
 21
68.50001525878906
 31
0.0
  0
LINE
  5
404
330
7B
100
AcDbEntity
  8
0
  6
Continuous
 62
     0
100
AcDbLine
 10
-16.0
 20
67.49989318847656
 30
0.0
 11
-9.29998779296875
 21
67.49989318847656
 31
0.0
  0
LINE
  5
405
330
7B
100
AcDbEntity
  8
0
  6
Continuous
 62
     0
100
AcDbLine
 10
-17.44161987304688
 20
72.00001525878906
 30
0.0
 11
-14.558349609375
 21
72.00001525878906
 31
0.0
  0
LINE
  5
406
330
7B
100
AcDbEntity
  8
0
  6
Continuous
 62
     0
100
AcDbLine
 10
-17.44157974212293
 20
71.99995017361363
 30
0.0
 11
-18.8849389330009
 21
74.49992205099738
 31
0.0
  0
LINE
  5
407
330
7B
100
AcDbEntity
  8
0
  6
Continuous
 62
     0
100
AcDbLine
 10
-18.88496882926605
 20
74.49996051556991
 30
0.0
 11
-17.44159384344624
 21
76.99995851240361
 31
0.0
  0
LINE
  5
408
330
7B
100
AcDbEntity
  8
0
  6
Continuous
 62
     0
100
AcDbLine
 10
-17.44161987304688
 20
77.00001525878906
 30
0.0
 11
-14.558349609375
 21
77.00001525878906
 31
0.0
  0
LINE
  5
409
330
7B
100
AcDbEntity
  8
0
  6
Continuous
 62
     0
100
AcDbLine
 10
-27.69998168945312
 20
55.79993438720703
 30
0.0
 11
-9.29998779296875
 21
55.79993438720703
 31
0.0
  0
LINE
  5
40A
330
7B
100
AcDbEntity
  8
0
  6
Continuous
 62
     0
100
AcDbLine
 10
9.29998779296875
 20
93.19999694824219
 30
0.0
 11
9.29998779296875
 21
55.79994201660156
 31
0.0
  0
LINE
  5
40B
330
7B
100
AcDbEntity
  8
0
  6
Continuous
 62
     0
100
AcDbLine
 10
27.69998168945312
 20
93.19999694824219
 30
0.0
 11
9.29998779296875
 21
93.19999694824219
 31
0.0
  0
LINE
  5
40C
330
7B
100
AcDbEntity
  8
0
  6
Continuous
 62
     0
100
AcDbLine
 10
27.69998168945312
 20
93.19999694824219
 30
0.0
 11
27.69998168945312
 21
55.79994201660156
 31
0.0
  0
LINE
  5
40D
330
7B
100
AcDbEntity
  8
0
  6
Continuous
 62
     0
100
AcDbLine
 10
16.0
 20
80.49998474121094
 30
0.0
 11
9.29998779296875
 21
80.49998474121094
 31
0.0
  0
LINE
  5
40E
330
7B
100
AcDbEntity
  8
0
  6
CENTER
 62
     4
100
AcDbLine
 10
15.99996948242188
 20
80.49998474121094
 30
0.0
 11
15.99996948242188
 21
68.50001525878906
 31
0.0
  0
LINE
  5
40F
330
7B
100
AcDbEntity
  8
0
  6
Continuous
 62
     0
100
AcDbLine
 10
16.0
 20
68.50001525878906
 30
0.0
 11
9.29998779296875
 21
68.50001525878906
 31
0.0
  0
LINE
  5
410
330
7B
100
AcDbEntity
  8
0
  6
Continuous
 62
     0
100
AcDbLine
 10
27.69998168945312
 20
55.79994201660156
 30
0.0
 11
9.29998779296875
 21
55.79994201660156
 31
0.0
  0
LINE
  5
411
330
7B
100
AcDbEntity
  8
0
  6
Continuous
 62
     0
100
AcDbLine
 10
20.37500670923021
 20
121.159015619092
 30
0.0
 11
18.55515415297227
 21
126.1590188094245
 31
0.0
  0
LINE
  5
412
330
7B
100
AcDbEntity
  8
0
  6
Continuous
 62
     0
100
AcDbLine
 10
20.99996948242188
 20
126.2625274658203
 30
0.0
 11
20.99996948242188
 21
121.1590423583984
 31
0.0
  0
LINE
  5
413
330
7B
100
AcDbEntity
  8
0
  6
Continuous
 62
     0
100
AcDbLine
 10
21.62498744411318
 20
121.1590540030603
 30
0.0
 11
23.4448395802955
 21
126.1590573462879
 31
0.0
  0
LINE
  5
414
330
7B
100
AcDbEntity
  8
0
  6
Continuous
 62
     0
100
AcDbLine
 10
22.25
 20
121.1590423583984
 30
0.0
 11
19.75
 21
121.1590423583984
 31
0.0
  0
LINE
  5
415
330
7B
100
AcDbEntity
  8
0
  6
Continuous
 62
     0
100
AcDbLine
 10
22.24996948242188
 20
121.1590423583984
 30
0.0
 11
22.24996948242188
 21
106.5000457763672
 31
0.0
  0
LINE
  5
416
330
7B
100
AcDbEntity
  8
0
  6
Continuous
 62
     0
100
AcDbLine
 10
19.74996948242188
 20
121.1590423583984
 30
0.0
 11
19.74996948242188
 21
106.5000457763672
 31
0.0
  0
LINE
  5
417
330
7B
100
AcDbEntity
  8
0
  6
Continuous
 62
     0
100
AcDbLine
 10
33.0
 20
103.5000457763672
 30
0.0
 11
33.0
 21
106.5000457763672
 31
0.0
  0
LINE
  5
418
330
7B
100
AcDbEntity
  8
0
  6
Continuous
 62
     0
100
AcDbLine
 10
33.0
 20
106.5000457763672
 30
0.0
 11
9.0
 21
106.5000457763672
 31
0.0
  0
LINE
  5
419
330
7B
100
AcDbEntity
  8
0
  6
Continuous
 62
     0
100
AcDbLine
 10
9.0
 20
103.5000457763672
 30
0.0
 11
9.0
 21
106.5000457763672
 31
0.0
  0
LINE
  5
41A
330
7B
100
AcDbEntity
  8
0
  6
Continuous
 62
     0
100
AcDbLine
 10
34.5
 20
103.5000152587891
 30
0.0
 11
7.499969482421875
 21
103.5000152587891
 31
0.0
  0
LINE
  5
41B
330
7B
100
AcDbEntity
  8
0
  6
DASHED
 62
     4
100
AcDbLine
 10
11.69998168945312
 20
103.5000457763672
 30
0.0
 11
11.69998168945312
 21
96.50000762939453
 31
0.0
  0
LINE
  5
41C
330
7B
100
AcDbEntity
  8
0
  6
DASHED
 62
     4
100
AcDbLine
 10
10.49996948242188
 20
103.5000457763672
 30
0.0
 11
10.49996948242188
 21
96.50000762939453
 31
0.0
  0
LINE
  5
41D
330
7B
100
AcDbEntity
  8
0
  6
Continuous
 62
     0
100
AcDbLine
 10
7.499969482421875
 20
103.5000152587891
 30
0.0
 11
7.499969482421875
 21
100.4998931884766
 31
0.0
  0
LINE
  5
41E
330
7B
100
AcDbEntity
  8
0
  6
DASHED
 62
     4
100
AcDbLine
 10
30.30001831054688
 20
103.5000457763672
 30
0.0
 11
30.30001831054688
 21
96.50000762939453
 31
0.0
  0
LINE
  5
41F
330
7B
100
AcDbEntity
  8
0
  6
DASHED
 62
     4
100
AcDbLine
 10
31.5
 20
103.5000457763672
 30
0.0
 11
31.5
 21
96.50000762939453
 31
0.0
  0
LINE
  5
420
330
7B
100
AcDbEntity
  8
0
  6
Continuous
 62
     0
100
AcDbLine
 10
34.5
 20
103.5000152587891
 30
0.0
 11
34.5
 21
100.4998931884766
 31
0.0
  0
LINE
  5
421
330
7B
100
AcDbEntity
  8
0
  6
Continuous
 62
     0
100
AcDbLine
 10
34.99996948242188
 20
100.4999847412109
 30
0.0
 11
34.99996948242188
 21
48.50001525878906
 31
0.0
  0
LINE
  5
422
330
7B
100
AcDbEntity
  8
0
  6
Continuous
 62
     0
100
AcDbLine
 10
41.99999149206371
 20
100.5000321989344
 30
0.0
 11
85.99996948242186
 21
99.5000525228054
 31
0.0
  0
LINE
  5
423
330
7B
100
AcDbEntity
  8
0
  6
Continuous
 62
     0
100
AcDbLine
 10
41.99997960663072
 20
48.50007814609279
 30
0.0
 11
85.99996948242188
 21
49.50008391526183
 31
0.0
  0
LINE
  5
424
330
7B
100
AcDbEntity
  8
0
  6
Continuous
 62
     0
100
AcDbLine
 10
85.99996948242188
 20
49.50008391526183
 30
0.0
 11
85.99996948242188
 21
99.50005252280546
 31
0.0
  0
LINE
  5
425
330
7B
100
AcDbEntity
  8
0
  6
Continuous
 62
     0
100
AcDbLine
 10
85.99996948242189
 20
91.00053842289645
 30
0.0
 11
42.00000000000001
 21
91.99923192560604
 31
0.0
  0
LINE
  5
426
330
7B
100
AcDbEntity
  8
0
  6
CENTER
 62
     4
100
AcDbLine
 10
81.50003051757812
 20
72.58723709786415
 30
0.0
 11
81.50003051757812
 21
76.40258284896547
 31
0.0
  0
LINE
  5
427
330
7B
100
AcDbEntity
  8
0
  6
Continuous
 62
     0
100
AcDbLine
 10
85.9999694824219
 20
57.99932020597555
 30
0.0
 11
42.00000000000001
 21
57.00061998111602
 31
0.0
  0
LINE
  5
428
330
7B
100
AcDbEntity
  8
0
  6
Continuous
 62
     0
100
AcDbLine
 10
42.0
 20
48.50001525878906
 30
0.0
 11
42.0
 21
57.000619981116
 31
0.0
  0
LINE
  5
429
330
7B
100
AcDbEntity
  8
0
  6
Continuous
 62
     0
100
AcDbLine
 10
42.0
 20
100.4999847412109
 30
0.0
 11
42.0
 21
91.99923192560598
 31
0.0
  0
LINE
  5
42A
330
7B
100
AcDbEntity
  8
0
  6
CENTER
 62
     4
100
AcDbLine
 10
92.161865234375
 20
74.50001525878906
 30
0.0
 11
-90.79537963867188
 21
74.50001525878906
 31
0.0
  0
LINE
  5
42B
330
7B
100
AcDbEntity
  8
0
  6
CENTER
 62
     4
100
AcDbLine
 10
-21.0
 20
106.5000457763672
 30
0.0
 11
-21.0
 21
96.50000762939453
 31
0.0
  0
LINE
  5
42C
330
7B
100
AcDbEntity
  8
0
  6
CENTER
 62
     4
100
AcDbLine
 10
21.0
 20
106.5000457763672
 30
0.0
 11
21.0
 21
96.50000762939453
 31
0.0
  0
LINE
  5
42D
330
7B
100
AcDbEntity
  8
0
  6
Continuous
 62
     0
100
AcDbLine
 10
-44.29998779296875
 20
48.99998474121094
 30
0.0
 11
-42.0
 21
48.99998474121094
 31
0.0
  0
LINE
  5
42E
330
7B
100
AcDbEntity
  8
0
  6
Continuous
 62
     0
100
AcDbLine
 10
-44.29998779296875
 20
56.00003051757812
 30
0.0
 11
-42.0
 21
56.00003051757812
 31
0.0
  0
LINE
  5
42F
330
7B
100
AcDbEntity
  8
0
  6
Continuous
 62
     0
100
AcDbLine
 10
-42.99996948242188
 20
56.00003051757812
 30
0.0
 11
-42.99996948242188
 21
48.99998474121094
 31
0.0
  0
LINE
  5
430
330
7B
100
AcDbEntity
  8
0
  6
CENTER
 62
     4
100
AcDbLine
 10
-47.22299194335938
 20
52.50002288818359
 30
0.0
 11
-42.0
 21
52.50002288818359
 31
0.0
  0
LINE
  5
431
330
7B
100
AcDbEntity
  8
0
  6
CENTER
 62
     4
100
AcDbLine
 10
47.22299194335938
 20
52.50002288818359
 30
0.0
 11
42.0
 21
52.50002288818359
 31
0.0
  0
LINE
  5
432
330
7B
100
AcDbEntity
  8
0
  6
Continuous
 62
     0
100
AcDbLine
 10
42.99996948242188
 20
56.00003051757812
 30
0.0
 11
42.99996948242188
 21
48.99998474121094
 31
0.0
  0
LINE
  5
433
330
7B
100
AcDbEntity
  8
0
  6
Continuous
 62
     0
100
AcDbLine
 10
44.29998779296875
 20
56.00003051757812
 30
0.0
 11
42.0
 21
56.00003051757812
 31
0.0
  0
LINE
  5
434
330
7B
100
AcDbEntity
  8
0
  6
Continuous
 62
     0
100
AcDbLine
 10
44.29998779296875
 20
100.0000457763672
 30
0.0
 11
42.0
 21
100.0000457763672
 31
0.0
  0
LINE
  5
435
330
7B
100
AcDbEntity
  8
0
  6
Continuous
 62
     0
100
AcDbLine
 10
44.29998779296875
 20
93.0
 30
0.0
 11
42.0
 21
93.0
 31
0.0
  0
LINE
  5
436
330
7B
100
AcDbEntity
  8
0
  6
Continuous
 62
     0
100
AcDbLine
 10
42.99996948242188
 20
93.0
 30
0.0
 11
42.99996948242188
 21
100.0000457763672
 31
0.0
  0
LINE
  5
437
330
7B
100
AcDbEntity
  8
0
  6
Continuous
 62
     0
100
AcDbLine
 10
44.29998779296875
 20
48.99998474121094
 30
0.0
 11
42.0
 21
48.99998474121094
 31
0.0
  0
LINE
  5
438
330
7B
100
AcDbEntity
  8
0
  6
CENTER
 62
     4
100
AcDbLine
 10
47.22299194335938
 20
96.50000762939453
 30
0.0
 11
42.0
 21
96.50000762939453
 31
0.0
  0
LINE
  5
439
330
7B
100
AcDbEntity
  8
0
  6
DASHED
 62
     0
100
AcDbLine
 10
-55.5
 20
-22.99998474121094
 30
0.0
 11
-55.5
 21
-35.0
 31
0.0
  0
LINE
  5
43A
330
7B
100
AcDbEntity
  8
0
  6
DASHED
 62
     0
100
AcDbLine
 10
-64.5
 20
-22.99998474121094
 30
0.0
 11
-64.5
 21
-35.0
 31
0.0
  0
LINE
  5
43B
330
7B
100
AcDbEntity
  8
0
  6
DASHED
 62
     0
100
AcDbLine
 10
64.5
 20
-22.99998474121094
 30
0.0
 11
64.5
 21
-35.0
 31
0.0
  0
LINE
  5
43C
330
7B
100
AcDbEntity
  8
0
  6
DASHED
 62
     0
100
AcDbLine
 10
55.5
 20
-22.99998474121094
 30
0.0
 11
55.5
 21
-35.0
 31
0.0
  0
CIRCLE
  5
43D
330
7B
100
AcDbEntity
  8
0
  6
Continuous
 62
     4
100
AcDbCircle
 10
30.0
 20
0.0
 30
0.0
 40
13.5
  0
CIRCLE
  5
43E
330
7B
100
AcDbEntity
  8
0
  6
Continuous
 62
     0
100
AcDbCircle
 10
30.0
 20
0.0
 30
0.0
 40
12.5
  0
CIRCLE
  5
43F
330
7B
100
AcDbEntity
  8
0
  6
Continuous
 62
     0
100
AcDbCircle
 10
-30.0
 20
0.0
 30
0.0
 40
22.0
  0
CIRCLE
  5
440
330
7B
100
AcDbEntity
  8
0
  6
Continuous
 62
     0
100
AcDbCircle
 10
30.0
 20
0.0
 30
0.0
 40
22.0
  0
CIRCLE
  5
441
330
7B
100
AcDbEntity
  8
0
  6
Continuous
 62
     0
100
AcDbCircle
 10
-30.0
 20
0.0
 30
0.0
 40
12.5
  0
CIRCLE
  5
442
330
7B
100
AcDbEntity
  8
0
  6
Continuous
 62
     4
100
AcDbCircle
 10
-30.0
 20
0.0
 30
0.0
 40
13.5
  0
ARC
  5
443
330
7B
100
AcDbEntity
  8
0
  6
Continuous
 62
     0
100
AcDbCircle
 10
-15.99996948242188
 20
74.50001525878906
 30
0.0
 40
7.000005722045898
100
AcDbArc
 50
89.999995674289
 51
270.0000006832453
  0
CIRCLE
  5
444
330
7B
100
AcDbEntity
  8
0
  6
Continuous
 62
     0
100
AcDbCircle
 10
-15.99996948242188
 20
74.50001525878906
 30
0.0
 40
5.000003814697266
  0
CIRCLE
  5
445
330
7B
100
AcDbEntity
  8
0
  6
Continuous
 62
     4
100
AcDbCircle
 10
-15.99996948242188
 20
74.50001525878906
 30
0.0
 40
4.250003337860107
  0
ARC
  5
446
330
7B
100
AcDbEntity
  8
0
  6
Continuous
 62
     0
100
AcDbCircle
 10
15.99996948242188
 20
74.50001525878906
 30
0.0
 40
6.0
100
AcDbArc
 50
270.000004325711
 51
89.99996835353231
  0
CIRCLE
  5
447
330
7B
100
AcDbEntity
  8
0
  6
Continuous
 62
     0
100
AcDbCircle
 10
15.99996948242188
 20
74.50001525878906
 30
0.0
 40
5.0
  0
CIRCLE
  5
448
330
7B
100
AcDbEntity
  8
0
  6
Continuous
 62
     0
100
AcDbCircle
 10
81.50003051757812
 20
74.5000228881836
 30
0.0
 40
1.0
  0
ARC
  5
449
330
7B
100
AcDbEntity
  8
0
  6
Continuous
 62
     0
100
AcDbCircle
 10
-40.23846322668139
 20
96.5000228881836
 30
0.0
 40
5.361542876855948
100
AcDbArc
 50
139.2468473507817
 51
220.7531526492183
  0
ARC
  5
44A
330
7B
100
AcDbEntity
  8
0
  6
Continuous
 62
     0
100
AcDbCircle
 10
-40.23846322668139
 20
52.50000762939453
 30
0.0
 40
5.361542876855948
100
AcDbArc
 50
139.2468473507817
 51
220.7531526492183
  0
ARC
  5
44B
330
7B
100
AcDbEntity
  8
0
  6
Continuous
 62
     0
100
AcDbCircle
 10
40.23846322668139
 20
52.50000762939453
 30
0.0
 40
5.361542876855948
100
AcDbArc
 50
319.2468473507818
 51
40.75315264921829
  0
ARC
  5
44C
330
7B
100
AcDbEntity
  8
0
  6
Continuous
 62
     0
100
AcDbCircle
 10
40.23846322668139
 20
96.5000228881836
 30
0.0
 40
5.361542876855948
100
AcDbArc
 50
319.2468473507818
 51
40.75315264921829
  0
MTEXT
  5
44D
330
7B
100
AcDbEntity
  8
0
 62
     0
100
AcDbMText
 10
-32.45193203687668
 20
-32.15731811523438
 30
0.0
 40
4.0
 41
0.0
 71
     7
 72
     1
  1
{\W1;O2}
 73
     1
 44
1.0
  0
MTEXT
  5
44E
330
7B
100
AcDbEntity
  8
0
 62
     0
100
AcDbMText
 10
28.03647128343582
 20
-32.25914764404297
 30
0.0
 40
4.0
 41
0.0
 71
     7
 72
     1
  1
{\W1;O1}
 73
     1
 44
1.0
  0
MTEXT
  5
44F
330
7B
100
AcDbEntity
  8
0
 62
     0
100
AcDbMText
 10
-79.2048374518752
 20
83.47578430175781
 30
0.0
 40
0.5
 41
0.0
 71
     7
 72
     1
  1
{\W0.833333;ＢＮ－７Ｍ４７－２０－Ｅ/F＊＊＊}
 73
     1
 44
1.0
  0
ENDBLK
  5
7D
330
7B
100
AcDbEntity
  8
0
100
AcDbBlockEnd
  0
BLOCK
  5
452
330
451
100
AcDbEntity
  8
0
100
AcDbBlockBegin
  2
_Closed
 70
     0
 10
0.0
 20
0.0
 30
0.0
  3
_Closed
  1

  0
LINE
  5
454
330
451
100
AcDbEntity
  8
0
  6
ByBlock
 62
     0
370
    -2
100
AcDbLine
 10
-1.0
 20
0.166667
 30
0.0
 11
0.0
 21
0.0
 31
0.0
  0
LINE
  5
455
330
451
100
AcDbEntity
  8
0
  6
ByBlock
 62
     0
370
    -2
100
AcDbLine
 10
0.0
 20
0.0
 30
0.0
 11
-1.0
 21
-0.166667
 31
0.0
  0
LINE
  5
456
330
451
100
AcDbEntity
  8
0
  6
ByBlock
 62
     0
370
    -2
100
AcDbLine
 10
-1.0
 20
0.166667
 30
0.0
 11
-1.0
 21
-0.166667
 31
0.0
  0
LINE
  5
457
330
451
100
AcDbEntity
  8
0
  6
ByBlock
 62
     0
370
    -2
100
AcDbLine
 10
0.0
 20
0.0
 30
0.0
 11
-1.0
 21
0.0
 31
0.0
  0
ENDBLK
  5
453
330
451
100
AcDbEntity
  8
0
100
AcDbBlockEnd
  0
BLOCK
  5
46F
330
468
100
AcDbEntity
  8
0
100
AcDbBlockBegin
  2
SYM0001
 70
     0
 10
0.0
 20
0.0
 30
0.0
  3
SYM0001
  1

  0
LINE
  5
469
330
468
100
AcDbEntity
  8
0
  6
Continuous
 62
     7
100
AcDbLine
 10
0.0
 20
0.0
 30
0.0
 11
34.65211182190163
 21
44.56569843306028
 31
0.0
  0
LINE
  5
46A
330
468
100
AcDbEntity
  8
0
  6
Continuous
 62
     7
100
AcDbLine
 10
0.0
 20
0.0
 30
0.0
 11
1.228834568363084
 21
2.91375455459729
 31
0.0
  0
LINE
  5
46B
330
468
100
AcDbEntity
  8
0
  6
Continuous
 62
     7
100
AcDbLine
 10
0.0
 20
0.0
 30
0.0
 11
2.521079230439312
 21
1.908968180637942
 31
0.0
  0
LINE
  5
46C
330
468
100
AcDbEntity
  8
0
  6
Continuous
 62
     7
100
AcDbLine
 10
34.65211182190163
 20
44.56569843306029
 30
0.0
 11
48.2549246801739
 21
44.56569843306029
 31
0.0
  0
MTEXT
  5
46D
330
468
100
AcDbEntity
  8
0
 62
     7
100
AcDbMText
 10
51.11242427963069
 20
41.56570483527433
 30
0.0
 40
6.0
 41
0.0
 71
     7
 72
     1
  1
{\W0.833333;5-Rc3/4}
 73
     1
 44
1.0
  0
ENDBLK
  5
470
330
468
100
AcDbEntity
  8
0
100
AcDbBlockEnd
  0
BLOCK
  5
473
330
472
100
AcDbEntity
  8
0
100
AcDbBlockBegin
  2
_Open30
 70
     0
 10
0.0
 20
0.0
 30
0.0
  3
_Open30
  1

  0
LINE
  5
475
330
472
100
AcDbEntity
  8
0
  6
ByBlock
 62
     0
370
    -2
100
AcDbLine
 10
-1.0
 20
0.267949
 30
0.0
 11
0.0
 21
0.0
 31
0.0
  0
LINE
  5
476
330
472
100
AcDbEntity
  8
0
  6
ByBlock
 62
     0
370
    -2
100
AcDbLine
 10
0.0
 20
0.0
 30
0.0
 11
-1.0
 21
-0.267949
 31
0.0
  0
LINE
  5
477
330
472
100
AcDbEntity
  8
0
  6
ByBlock
 62
     0
370
    -2
100
AcDbLine
 10
0.0
 20
0.0
 30
0.0
 11
-1.0
 21
0.0
 31
0.0
  0
ENDBLK
  5
474
330
472
100
AcDbEntity
  8
0
100
AcDbBlockEnd
  0
BLOCK
  5
47A
330
479
100
AcDbEntity
  8
0
100
AcDbBlockBegin
  2
*D8
 70
     1
 10
0.0
 20
0.0
 30
0.0
  3
*D8
  1

  0
LINE
  5
47C
330
479
100
AcDbEntity
  8
0
  6
ByBlock
 62
     0
370
    -2
100
AcDbLine
 10
81.35271551520054
 20
-186.5973492779156
 30
0.0
 11
103.8398973708647
 21
-186.5973492779156
 31
0.0
  0
LINE
  5
47D
330
479
100
AcDbEntity
  8
0
  6
ByBlock
 62
     0
370
    -2
100
AcDbLine
 10
80.35271551520054
 20
-174.5973492779156
 30
0.0
 11
103.8398973708647
 21
-174.5973492779156
 31
0.0
  0
LINE
  5
47E
330
479
100
AcDbEntity
  8
0
  6
ByBlock
 62
     0
370
    -2
100
AcDbLine
 10
101.5538973708647
 20
-183.5973492779156
 30
0.0
 11
101.5538973708647
 21
-177.5973492779156
 31
0.0
  0
INSERT
  5
47F
330
479
100
AcDbEntity
  8
0
 62
     0
370
    -2
100
AcDbBlockReference
  2
_Open30
 10
101.5538973708647
 20
-186.5973492779156
 30
0.0
 41
3.0
 42
3.0
 43
3.0
 50
270.0
  0
INSERT
  5
480
330
479
100
AcDbEntity
  8
0
 62
     0
370
    -2
100
AcDbBlockReference
  2
_Open30
 10
101.5538973708647
 20
-174.5973492779156
 30
0.0
 41
3.0
 42
3.0
 43
3.0
 50
90.0
  0
MTEXT
  5
481
330
479
100
AcDbEntity
  8
0
 62
     0
100
AcDbMText
 10
97.05389737086466
 20
-180.5963492779156
 30
0.0
 40
6.0
 41
0.0
 71
     5
 72
     1
  1
12
 11
0.0
 21
1.0
 31
0.0
 73
     1
 44
1.0
  0
POINT
  5
482
330
479
100
AcDbEntity
  8
Defpoints
 62
     0
100
AcDbPoint
 10
81.35271551520054
 20
-186.5973492779156
 30
0.0
  0
POINT
  5
483
330
479
100
AcDbEntity
  8
Defpoints
 62
     0
100
AcDbPoint
 10
80.35271551520054
 20
-174.5973492779156
 30
0.0
  0
POINT
  5
484
330
479
100
AcDbEntity
  8
Defpoints
 62
     0
100
AcDbPoint
 10
101.5538973708647
 20
-174.5973492779156
 30
0.0
  0
ENDBLK
  5
47B
330
479
100
AcDbEntity
  8
0
100
AcDbBlockEnd
  0
BLOCK
  5
487
330
486
100
AcDbEntity
  8
0
100
AcDbBlockBegin
  2
*D9
 70
     1
 10
0.0
 20
0.0
 30
0.0
  3
*D9
  1

  0
LINE
  5
489
330
486
100
AcDbEntity
  8
0
  6
ByBlock
 62
     0
370
    -2
100
AcDbLine
 10
81.3527307739896
 20
-186.5973492779156
 30
0.0
 11
114.9394764684225
 21
-186.5973492779156
 31
0.0
  0
LINE
  5
48A
330
486
100
AcDbEntity
  8
0
  6
ByBlock
 62
     0
370
    -2
100
AcDbLine
 10
52.35271551520054
 20
-45.09728824275939
 30
0.0
 11
114.9394764684225
 21
-45.09728824275939
 31
0.0
  0
LINE
  5
48B
330
486
100
AcDbEntity
  8
0
  6
ByBlock
 62
     0
370
    -2
100
AcDbLine
 10
112.6534764684225
 20
-183.5973492779156
 30
0.0
 11
112.6534764684225
 21
-48.09728824275939
 31
0.0
  0
INSERT
  5
48C
330
486
100
AcDbEntity
  8
0
 62
     0
370
    -2
100
AcDbBlockReference
  2
_Open30
 10
112.6534764684225
 20
-186.5973492779156
 30
0.0
 41
3.0
 42
3.0
 43
3.0
 50
270.0
  0
INSERT
  5
48D
330
486
100
AcDbEntity
  8
0
 62
     0
370
    -2
100
AcDbBlockReference
  2
_Open30
 10
112.6534764684225
 20
-45.09728824275939
 30
0.0
 41
3.0
 42
3.0
 43
3.0
 50
89.99999999999999
  0
MTEXT
  5
48E
330
486
100
AcDbEntity
  8
0
 62
     0
100
AcDbMText
 10
108.1534764684225
 20
-115.8463187603375
 30
0.0
 40
6.0
 41
0.0
 71
     5
 72
     1
  1
142
 11
2.008600506775931E-16
 21
1.0
 31
0.0
 73
     1
 44
1.0
  0
POINT
  5
48F
330
486
100
AcDbEntity
  8
Defpoints
 62
     0
100
AcDbPoint
 10
81.3527307739896
 20
-186.5973492779156
 30
0.0
  0
POINT
  5
490
330
486
100
AcDbEntity
  8
Defpoints
 62
     0
100
AcDbPoint
 10
52.35271551520054
 20
-45.09728824275939
 30
0.0
  0
POINT
  5
491
330
486
100
AcDbEntity
  8
Defpoints
 62
     0
100
AcDbPoint
 10
112.6534764684225
 20
-45.09728824275939
 30
0.0
  0
ENDBLK
  5
488
330
486
100
AcDbEntity
  8
0
100
AcDbBlockEnd
  0
BLOCK
  5
494
330
493
100
AcDbEntity
  8
0
100
AcDbBlockBegin
  2
*D10
 70
     1
 10
0.0
 20
0.0
 30
0.0
  3
*D10
  1

  0
LINE
  5
496
330
493
100
AcDbEntity
  8
0
  6
ByBlock
 62
     0
370
    -2
100
AcDbLine
 10
-111.3139638671237
 20
-186.5973416485211
 30
0.0
 11
-41.83824823376154
 21
-186.5973416485211
 31
0.0
  0
LINE
  5
497
330
493
100
AcDbEntity
  8
0
  6
ByBlock
 62
     0
370
    -2
100
AcDbLine
 10
-56.18215081780727
 20
-151.5973492779156
 30
0.0
 11
-41.83824823376153
 21
-151.5973492779156
 31
0.0
  0
LINE
  5
498
330
493
100
AcDbEntity
  8
0
  6
ByBlock
 62
     0
370
    -2
100
AcDbLine
 10
-44.1242482337616
 20
-183.5973416485211
 30
0.0
 11
-44.12424823376159
 21
-154.5973492779156
 31
0.0
  0
INSERT
  5
499
330
493
100
AcDbEntity
  8
0
 62
     0
370
    -2
100
AcDbBlockReference
  2
_Open30
 10
-44.1242482337616
 20
-186.5973416485211
 30
0.0
 41
3.0
 42
3.0
 43
3.0
 50
270.0
  0
INSERT
  5
49A
330
493
100
AcDbEntity
  8
0
 62
     0
370
    -2
100
AcDbBlockReference
  2
_Open30
 10
-44.12424823376159
 20
-151.5973492779156
 30
0.0
 41
3.0
 42
3.0
 43
3.0
 50
89.99999999999999
  0
MTEXT
  5
49B
330
493
100
AcDbEntity
  8
0
 62
     0
100
AcDbMText
 10
-48.62424823376159
 20
-169.0963454632184
 30
0.0
 40
6.0
 41
0.0
 71
     5
 72
     1
  1
35
 11
2.030122544703309E-16
 21
1.0
 31
0.0
 73
     1
 44
1.0
  0
POINT
  5
49C
330
493
100
AcDbEntity
  8
Defpoints
 62
     0
100
AcDbPoint
 10
-111.3139638671237
 20
-186.5973416485211
 30
0.0
  0
POINT
  5
49D
330
493
100
AcDbEntity
  8
Defpoints
 62
     0
100
AcDbPoint
 10
-56.18215081780727
 20
-151.5973492779156
 30
0.0
  0
POINT
  5
49E
330
493
100
AcDbEntity
  8
Defpoints
 62
     0
100
AcDbPoint
 10
-44.12424823376159
 20
-151.5973492779156
 30
0.0
  0
ENDBLK
  5
495
330
493
100
AcDbEntity
  8
0
100
AcDbBlockEnd
  0
BLOCK
  5
4A1
330
4A0
100
AcDbEntity
  8
0
100
AcDbBlockBegin
  2
_Open
 70
     0
 10
0.0
 20
0.0
 30
0.0
  3
_Open
  1

  0
LINE
  5
4A3
330
4A0
100
AcDbEntity
  8
0
  6
ByBlock
 62
     0
370
    -2
100
AcDbLine
 10
-1.0
 20
0.166667
 30
0.0
 11
0.0
 21
0.0
 31
0.0
  0
LINE
  5
4A4
330
4A0
100
AcDbEntity
  8
0
  6
ByBlock
 62
     0
370
    -2
100
AcDbLine
 10
-1.0
 20
-0.166667
 30
0.0
 11
0.0
 21
0.0
 31
0.0
  0
LINE
  5
4A5
330
4A0
100
AcDbEntity
  8
0
  6
ByBlock
 62
     0
370
    -2
100
AcDbLine
 10
0.0
 20
0.0
 30
0.0
 11
-1.0
 21
0.0
 31
0.0
  0
ENDBLK
  5
4A2
330
4A0
100
AcDbEntity
  8
0
100
AcDbBlockEnd
  0
BLOCK
  5
4A7
330
4A6
100
AcDbEntity
  8
0
100
AcDbBlockBegin
  2
*D12
 70
     1
 10
0.0
 20
0.0
 30
0.0
  3
*D12
  1

  0
LINE
  5
4A9
330
4A6
100
AcDbEntity
  8
0
  6
ByBlock
 62
     0
370
    -2
100
AcDbLine
 10
-247.3139562377291
 20
63.37229339800152
 30
0.0
 11
-247.3139562377291
 21
47.12394465583469
 31
0.0
  0
LINE
  5
4AA
330
4A6
100
AcDbEntity
  8
0
  6
ByBlock
 62
     0
370
    -2
100
AcDbLine
 10
-187.3139562377291
 20
63.37229339800152
 30
0.0
 11
-187.3139562377291
 21
47.12394465583468
 31
0.0
  0
LINE
  5
4AB
330
4A6
100
AcDbEntity
  8
0
  6
ByBlock
 62
     0
370
    -2
100
AcDbLine
 10
-244.1999562377291
 20
49.40994465583475
 30
0.0
 11
-190.4279562377291
 21
49.40994465583474
 31
0.0
  0
INSERT
  5
4AC
330
4A6
100
AcDbEntity
  8
0
 62
     0
370
    -2
100
AcDbBlockReference
  2
_Open
 10
-247.3139562377291
 20
49.40994465583475
 30
0.0
 41
3.114
 42
3.114
 43
3.114
 50
180.0
  0
INSERT
  5
4AD
330
4A6
100
AcDbEntity
  8
0
 62
     0
370
    -2
100
AcDbBlockReference
  2
_Open
 10
-187.3139562377291
 20
49.40994465583474
 30
0.0
 41
3.114
 42
3.114
 43
3.114
 50
360.0
  0
MTEXT
  5
4AE
330
4A6
100
AcDbEntity
  8
0
 62
     0
100
AcDbMText
 10
-217.3129562377291
 20
53.90994465583474
 30
0.0
 40
6.0
 41
0.0
 71
     5
 72
     1
  1
60
 73
     1
 44
1.0
  0
POINT
  5
4AF
330
4A6
100
AcDbEntity
  8
Defpoints
 62
     0
100
AcDbPoint
 10
-247.3139562377291
 20
63.37229339800152
 30
0.0
  0
POINT
  5
4B0
330
4A6
100
AcDbEntity
  8
Defpoints
 62
     0
100
AcDbPoint
 10
-187.3139562377291
 20
63.37229339800152
 30
0.0
  0
POINT
  5
4B1
330
4A6
100
AcDbEntity
  8
Defpoints
 62
     0
100
AcDbPoint
 10
-187.3139562377291
 20
49.40894465583474
 30
0.0
  0
ENDBLK
  5
4A8
330
4A6
100
AcDbEntity
  8
0
100
AcDbBlockEnd
  0
BLOCK
  5
4B4
330
4B3
100
AcDbEntity
  8
0
100
AcDbBlockBegin
  2
*D13
 70
     1
 10
0.0
 20
0.0
 30
0.0
  3
*D13
  1

  0
LINE
  5
4B6
330
4B3
100
AcDbEntity
  8
0
  6
ByBlock
 62
     0
370
    -2
100
AcDbLine
 10
-313.3139562377291
 20
95.28198040348084
 30
0.0
 11
-313.3139562377291
 21
32.0024684890945
 31
0.0
  0
LINE
  5
4B7
330
4B3
100
AcDbEntity
  8
0
  6
ByBlock
 62
     0
370
    -2
100
AcDbLine
 10
-61.31396386712368
 20
116.2819804034808
 30
0.0
 11
-61.31396386712368
 21
32.00246848909448
 31
0.0
  0
LINE
  5
4B8
330
4B3
100
AcDbEntity
  8
0
  6
ByBlock
 62
     0
370
    -2
100
AcDbLine
 10
-310.3139562377291
 20
34.28846848909456
 30
0.0
 11
-64.31396386712368
 21
34.28846848909453
 31
0.0
  0
INSERT
  5
4B9
330
4B3
100
AcDbEntity
  8
0
 62
     0
370
    -2
100
AcDbBlockReference
  2
_Open30
 10
-313.3139562377291
 20
34.28846848909456
 30
0.0
 41
3.0
 42
3.0
 43
3.0
 50
180.0
  0
INSERT
  5
4BA
330
4B3
100
AcDbEntity
  8
0
 62
     0
370
    -2
100
AcDbBlockReference
  2
_Open30
 10
-61.31396386712368
 20
34.28846848909453
 30
0.0
 41
3.0
 42
3.0
 43
3.0
 50
360.0
  0
MTEXT
  5
4BB
330
4B3
100
AcDbEntity
  8
0
 62
     0
100
AcDbMText
 10
-187.3129600524264
 20
38.78846848909455
 30
0.0
 40
6.0
 41
0.0
 71
     5
 72
     1
  1
252
 73
     1
 44
1.0
  0
POINT
  5
4BC
330
4B3
100
AcDbEntity
  8
Defpoints
 62
     0
100
AcDbPoint
 10
-313.3139562377291
 20
95.28198040348084
 30
0.0
  0
POINT
  5
4BD
330
4B3
100
AcDbEntity
  8
Defpoints
 62
     0
100
AcDbPoint
 10
-61.31396386712368
 20
116.2819804034808
 30
0.0
  0
POINT
  5
4BE
330
4B3
100
AcDbEntity
  8
Defpoints
 62
     0
100
AcDbPoint
 10
-61.31396386712368
 20
34.28746848909455
 30
0.0
  0
ENDBLK
  5
4B5
330
4B3
100
AcDbEntity
  8
0
100
AcDbBlockEnd
  0
BLOCK
  5
4C1
330
4C0
100
AcDbEntity
  8
0
100
AcDbBlockBegin
  2
*D14
 70
     1
 10
0.0
 20
0.0
 30
0.0
  3
*D14
  1

  0
LINE
  5
4C3
330
4C0
100
AcDbEntity
  8
0
  6
ByBlock
 62
     0
370
    -2
100
AcDbLine
 10
-117.3139562377291
 20
145.782010921059
 30
0.0
 11
-34.80680813098478
 21
145.782010921059
 31
0.0
  0
LINE
  5
4C4
330
4C0
100
AcDbEntity
  8
0
  6
ByBlock
 62
     0
370
    -2
100
AcDbLine
 10
-105.3139638671237
 20
65.78201092105897
 30
0.0
 11
-34.80680813098476
 21
65.782010921059
 31
0.0
  0
LINE
  5
4C5
330
4C0
100
AcDbEntity
  8
0
  6
ByBlock
 62
     0
370
    -2
100
AcDbLine
 10
-37.09280813098484
 20
142.668010921059
 30
0.0
 11
-37.09280813098481
 21
68.896010921059
 31
0.0
  0
INSERT
  5
4C6
330
4C0
100
AcDbEntity
  8
0
 62
     0
370
    -2
100
AcDbBlockReference
  2
_Open
 10
-37.09280813098484
 20
145.782010921059
 30
0.0
 41
3.114
 42
3.114
 43
3.114
 50
90.00000000000001
  0
INSERT
  5
4C7
330
4C0
100
AcDbEntity
  8
0
 62
     0
370
    -2
100
AcDbBlockReference
  2
_Open
 10
-37.09280813098481
 20
65.782010921059
 30
0.0
 41
3.114
 42
3.114
 43
3.114
 50
270.0
  0
MTEXT
  5
4C8
330
4C0
100
AcDbEntity
  8
0
 62
     0
100
AcDbMText
 10
-41.59280813098483
 20
105.783010921059
 30
0.0
 40
6.0
 41
0.0
 71
     5
 72
     1
  1
80
 11
-3.552713678800500E-16
 21
1.0
 31
0.0
 73
     1
 44
1.0
  0
POINT
  5
4C9
330
4C0
100
AcDbEntity
  8
Defpoints
 62
     0
100
AcDbPoint
 10
-117.3139562377291
 20
145.782010921059
 30
0.0
  0
POINT
  5
4CA
330
4C0
100
AcDbEntity
  8
Defpoints
 62
     0
100
AcDbPoint
 10
-105.3139638671237
 20
65.78201092105897
 30
0.0
  0
POINT
  5
4CB
330
4C0
100
AcDbEntity
  8
Defpoints
 62
     0
100
AcDbPoint
 10
-37.09380813098483
 20
65.78201092105897
 30
0.0
  0
ENDBLK
  5
4C2
330
4C0
100
AcDbEntity
  8
0
100
AcDbBlockEnd
  0
BLOCK
  5
4CE
330
4CD
100
AcDbEntity
  8
0
100
AcDbBlockBegin
  2
*D15
 70
     1
 10
0.0
 20
0.0
 30
0.0
  3
*D15
  1

  0
LINE
  5
4D0
330
4CD
100
AcDbEntity
  8
0
  6
ByBlock
 62
     0
370
    -2
100
AcDbLine
 10
209.804421447818
 20
-186.5973492779156
 30
0.0
 11
140.1521779053508
 21
-186.5973492779156
 31
0.0
  0
LINE
  5
4D1
330
4CD
100
AcDbEntity
  8
0
  6
ByBlock
 62
     0
370
    -2
100
AcDbLine
 10
162.804436706607
 20
-151.5973492779156
 30
0.0
 11
140.1521779053508
 21
-151.5973492779156
 31
0.0
  0
LINE
  5
4D2
330
4CD
100
AcDbEntity
  8
0
  6
ByBlock
 62
     0
370
    -2
100
AcDbLine
 10
142.4381779053508
 20
-183.4833492779156
 30
0.0
 11
142.4381779053508
 21
-154.7113492779156
 31
0.0
  0
INSERT
  5
4D3
330
4CD
100
AcDbEntity
  8
0
 62
     0
370
    -2
100
AcDbBlockReference
  2
_Open
 10
142.4381779053508
 20
-186.5973492779156
 30
0.0
 41
3.114
 42
3.114
 43
3.114
 50
270.0
  0
INSERT
  5
4D4
330
4CD
100
AcDbEntity
  8
0
 62
     0
370
    -2
100
AcDbBlockReference
  2
_Open
 10
142.4381779053508
 20
-151.5973492779156
 30
0.0
 41
3.114
 42
3.114
 43
3.114
 50
90.0
  0
MTEXT
  5
4D5
330
4CD
100
AcDbEntity
  8
0
 62
     0
100
AcDbMText
 10
137.9381779053508
 20
-169.0963492779156
 30
0.0
 40
6.0
 41
0.0
 71
     5
 72
     1
  1
35
 11
0.0
 21
1.0
 31
0.0
 73
     1
 44
1.0
  0
POINT
  5
4D6
330
4CD
100
AcDbEntity
  8
Defpoints
 62
     0
100
AcDbPoint
 10
209.804421447818
 20
-186.5973492779156
 30
0.0
  0
POINT
  5
4D7
330
4CD
100
AcDbEntity
  8
Defpoints
 62
     0
100
AcDbPoint
 10
162.804436706607
 20
-151.5973492779156
 30
0.0
  0
POINT
  5
4D8
330
4CD
100
AcDbEntity
  8
Defpoints
 62
     0
100
AcDbPoint
 10
142.4371779053508
 20
-151.5973492779156
 30
0.0
  0
ENDBLK
  5
4CF
330
4CD
100
AcDbEntity
  8
0
100
AcDbBlockEnd
  0
BLOCK
  5
4DB
330
4DA
100
AcDbEntity
  8
0
100
AcDbBlockBegin
  2
*D16
 70
     1
 10
0.0
 20
0.0
 30
0.0
  3
*D16
  1

  0
LINE
  5
4DD
330
4DA
100
AcDbEntity
  8
0
  6
ByBlock
 62
     0
370
    -2
100
AcDbLine
 10
-217.3139562377291
 20
148.5159762572713
 30
0.0
 11
-217.3139562377291
 21
165.3384647885811
 31
0.0
  0
LINE
  5
4DE
330
4DA
100
AcDbEntity
  8
0
  6
ByBlock
 62
     0
370
    -2
100
AcDbLine
 10
-157.3139562377291
 20
148.5159762572713
 30
0.0
 11
-157.3139562377291
 21
165.3384647885811
 31
0.0
  0
LINE
  5
4DF
330
4DA
100
AcDbEntity
  8
0
  6
ByBlock
 62
     0
370
    -2
100
AcDbLine
 10
-214.1999562377291
 20
163.052464788581
 30
0.0
 11
-160.4279562377291
 21
163.052464788581
 31
0.0
  0
INSERT
  5
4E0
330
4DA
100
AcDbEntity
  8
0
 62
     0
370
    -2
100
AcDbBlockReference
  2
_Open
 10
-217.3139562377291
 20
163.052464788581
 30
0.0
 41
3.114
 42
3.114
 43
3.114
 50
180.0
  0
INSERT
  5
4E1
330
4DA
100
AcDbEntity
  8
0
 62
     0
370
    -2
100
AcDbBlockReference
  2
_Open
 10
-157.3139562377291
 20
163.052464788581
 30
0.0
 41
3.114
 42
3.114
 43
3.114
  0
MTEXT
  5
4E2
330
4DA
100
AcDbEntity
  8
0
 62
     0
100
AcDbMText
 10
-187.3129562377291
 20
167.552464788581
 30
0.0
 40
6.0
 41
0.0
 71
     5
 72
     1
  1
60
 73
     1
 44
1.0
  0
POINT
  5
4E3
330
4DA
100
AcDbEntity
  8
Defpoints
 62
     0
100
AcDbPoint
 10
-217.3139562377291
 20
148.5159762572713
 30
0.0
  0
POINT
  5
4E4
330
4DA
100
AcDbEntity
  8
Defpoints
 62
     0
100
AcDbPoint
 10
-157.3139562377291
 20
148.5159762572713
 30
0.0
  0
POINT
  5
4E5
330
4DA
100
AcDbEntity
  8
Defpoints
 62
     0
100
AcDbPoint
 10
-157.3139562377291
 20
163.052464788581
 30
0.0
  0
ENDBLK
  5
4DC
330
4DA
100
AcDbEntity
  8
0
100
AcDbBlockEnd
  0
BLOCK
  5
4E8
330
4E7
100
AcDbEntity
  8
0
100
AcDbBlockBegin
  2
*D17
 70
     1
 10
0.0
 20
0.0
 30
0.0
  3
*D17
  1

  0
LINE
  5
4EA
330
4E7
100
AcDbEntity
  8
0
  6
ByBlock
 62
     0
370
    -2
100
AcDbLine
 10
-127.3139562377291
 20
63.37229339800152
 30
0.0
 11
-127.3139562377291
 21
47.12394465583468
 31
0.0
  0
LINE
  5
4EB
330
4E7
100
AcDbEntity
  8
0
  6
ByBlock
 62
     0
370
    -2
100
AcDbLine
 10
-184.1999562377291
 20
49.40994465583475
 30
0.0
 11
-130.4279562377291
 21
49.40994465583474
 31
0.0
  0
INSERT
  5
4EC
330
4E7
100
AcDbEntity
  8
0
 62
     0
370
    -2
100
AcDbBlockReference
  2
_Open
 10
-187.3139562377291
 20
49.40994465583475
 30
0.0
 41
3.114
 42
3.114
 43
3.114
 50
180.0
  0
INSERT
  5
4ED
330
4E7
100
AcDbEntity
  8
0
 62
     0
370
    -2
100
AcDbBlockReference
  2
_Open
 10
-127.3139562377291
 20
49.40994465583474
 30
0.0
 41
3.114
 42
3.114
 43
3.114
 50
360.0
  0
MTEXT
  5
4EE
330
4E7
100
AcDbEntity
  8
0
 62
     0
100
AcDbMText
 10
-157.3129562377291
 20
53.90994465583474
 30
0.0
 40
6.0
 41
0.0
 71
     5
 72
     1
  1
60
 73
     1
 44
1.0
  0
POINT
  5
4EF
330
4E7
100
AcDbEntity
  8
Defpoints
 62
     0
100
AcDbPoint
 10
-187.3139562377291
 20
63.37229339800152
 30
0.0
  0
POINT
  5
4F0
330
4E7
100
AcDbEntity
  8
Defpoints
 62
     0
100
AcDbPoint
 10
-127.3139562377291
 20
63.37229339800152
 30
0.0
  0
POINT
  5
4F1
330
4E7
100
AcDbEntity
  8
Defpoints
 62
     0
100
AcDbPoint
 10
-127.3139562377291
 20
49.40894465583474
 30
0.0
  0
ENDBLK
  5
4E9
330
4E7
100
AcDbEntity
  8
0
100
AcDbBlockEnd
  0
ENDSEC
  0
SECTION
  2
ENTITIES
  0
LINE
  5
459
330
1F
100
AcDbEntity
  8
0
  6
Continuous
 62
     7
100
AcDbLine
 10
-358.2389254295483
 20
195.9446128413581
 30
0.0
 11
441.7610745704517
 21
195.9446128413581
 31
0.0
  0
LINE
  5
45A
330
1F
100
AcDbEntity
  8
0
  6
Continuous
 62
     7
100
AcDbLine
 10
-358.2389254295483
 20
225.9446128413581
 30
0.0
 11
-358.2389254295483
 21
-204.0553871586419
 31
0.0
  0
LINE
  5
45B
330
1F
100
AcDbEntity
  8
0
  6
Continuous
 62
     7
100
AcDbLine
 10
441.7610745704517
 20
225.9446128413581
 30
0.0
 11
441.7610745704517
 21
-204.0553871586419
 31
0.0
  0
LINE
  5
45C
330
1F
100
AcDbEntity
  8
0
  6
Continuous
 62
     7
100
AcDbLine
 10
-358.2389254295483
 20
-204.0553871586419
 30
0.0
 11
441.7610745704517
 21
-204.0553871586419
 31
0.0
  0
LINE
  5
45D
330
1F
100
AcDbEntity
  8
0
  6
Continuous
 62
     7
100
AcDbLine
 10
-358.2389254295483
 20
225.9446128413581
 30
0.0
 11
441.7610745704517
 21
225.9446128413581
 31
0.0
  0
MTEXT
  5
45E
330
1F
100
AcDbEntity
  8
0
 62
     7
100
AcDbMText
 10
-95.5142124925314
 20
-43.25569173620201
 30
0.0
 40
9.0
 41
0.0
 71
     7
 72
     1
  1
{\W0.833333;＊1}
 73
     1
 44
1.0
  0
MTEXT
  5
45F
330
1F
100
AcDbEntity
  8
0
 62
     7
100
AcDbMText
 10
-49.01567076369561
 20
51.24830120567563
 30
0.0
 40
9.0
 41
0.0
 71
     7
 72
     1
  1
{\W0.833333;＊2}
 73
     1
 44
1.0
  0
MTEXT
  5
460
330
1F
100
AcDbEntity
  8
0
 62
     7
100
AcDbMText
 10
4.391619176203721
 20
-35.90693266937623
 30
0.0
 40
9.0
 41
0.0
 71
     7
 72
     1
  1
{\W0.833333;*3}
 73
     1
 44
1.0
  0
MTEXT
  5
461
330
1F
100
AcDbEntity
  8
0
 62
     7
100
AcDbMText
 10
197.9218647119174
 20
-40.82516183604307
 30
0.0
 40
9.0
 41
0.0
 71
     7
 72
     1
  1
{\W0.833333;＊4}
 73
     1
 44
1.0
  0
MTEXT
  5
462
330
1F
100
AcDbEntity
  8
0
 62
     7
100
AcDbMText
 10
435.7289381998926
 20
-203.6595465022965
 30
0.0
 40
0.5
 41
0.0
 71
     7
 72
     1
  1
{\W0.833333;JJDF-001A-B}
 73
     1
 44
1.0
  0
MTEXT
  5
463
330
1F
100
AcDbEntity
  8
0
 62
     7
100
AcDbMText
 10
-308.6674754345074
 20
204.9446128413581
 30
0.0
 40
12.0
 41
0.0
 71
     7
 72
     1
  1
{\W0.833333;NIHON　SEIKI　BN-7M47-20-E***/F**}
 73
     1
 44
1.0
  0
INSERT
  5
464
330
1F
100
AcDbEntity
  8
0
 62
     7
100
AcDbBlockReference
  2
DTL0001
 10
-187.3139562377291
 20
-151.5973492779156
 30
0.0
  0
INSERT
  5
465
330
1F
100
AcDbEntity
  8
0
 62
     7
100
AcDbBlockReference
  2
DTL0002
 10
-187.3139562377291
 20
105.7819804034808
 30
0.0
  0
INSERT
  5
466
330
1F
100
AcDbEntity
  8
0
 62
     7
100
AcDbBlockReference
  2
DTL0003
 10
41.35273077398961
 20
-151.5973492779156
 30
0.0
  0
INSERT
  5
467
330
1F
100
AcDbEntity
  8
0
 62
     7
100
AcDbBlockReference
  2
DTL0004
 10
285.804421447818
 20
-151.5973492779156
 30
0.0
  0
INSERT
  5
46E
330
1F
100
AcDbEntity
  8
0
 62
     7
100
AcDbBlockReference
  2
SYM0001
 10
-118.4330662330387
 20
-141.4876603705067
 30
0.0
  0
DIMENSION
  5
471
330
1F
100
AcDbEntity
  8
0
 62
     7
100
AcDbDimension
  2
*D8
 10
101.5538973708647
 20
-174.5973492779156
 30
0.0
 11
101.5538973708647
 21
-180.5963492779156
 31
0.0
 70
   160
 71
     5
 42
12.0
  3
DIMSTYLE_FULLSCALE
100
AcDbAlignedDimension
 13
81.35271551520054
 23
-186.5973492779156
 33
0.0
 14
80.35271551520054
 24
-174.5973492779156
 34
0.0
 50
270.0
100
AcDbRotatedDimension
1001
ACAD
1000
DSTYLE
1002
{
1070
    40
1040
1.0
1070
   278
1070
    46
1070
   147
1040
1.5
1070
    77
1070
     1
1070
    74
1070
     0
1070
    73
1070
     0
1070
    42
1040
0.0
1070
    44
1040
2.286000000000058
1070
    76
1070
     0
1070
    75
1070
     0
1070
   279
1070
     0
1070
   271
1070
     0
1070
   144
1040
1.0
1070
   173
1070
     1
1070
    41
1040
3.0
1070
   140
1040
6.0
1070
   344
1005
472
1070
   343
1005
472
1002
}
  0
DIMENSION
  5
485
330
1F
100
AcDbEntity
  8
0
 62
     7
100
AcDbDimension
  2
*D9
 10
112.6534764684225
 20
-45.09728824275939
 30
0.0
 11
112.6534764684225
 21
-115.8463187603375
 31
0.0
 70
   160
 71
     5
 42
141.5000610351562
  3
DIMSTYLE_FULLSCALE
100
AcDbAlignedDimension
 13
81.3527307739896
 23
-186.5973492779156
 33
0.0
 14
52.35271551520054
 24
-45.09728824275939
 34
0.0
 50
270.0
100
AcDbRotatedDimension
1001
ACAD
1000
DSTYLE
1002
{
1070
    40
1040
1.0
1070
   278
1070
    46
1070
   147
1040
1.5
1070
    77
1070
     1
1070
    74
1070
     0
1070
    73
1070
     0
1070
    42
1040
0.0
1070
    44
1040
2.286000000000058
1070
    76
1070
     0
1070
    75
1070
     0
1070
   279
1070
     0
1070
   271
1070
     0
1070
   144
1040
1.0
1070
   173
1070
     1
1070
    41
1040
3.0
1070
   140
1040
6.0
1070
   344
1005
472
1070
   343
1005
472
1002
}
  0
DIMENSION
  5
492
330
1F
100
AcDbEntity
  8
0
 62
     7
100
AcDbDimension
  2
*D10
 10
-44.12424823376159
 20
-151.5973492779156
 30
0.0
 11
-44.12424823376159
 21
-169.0963454632184
 31
0.0
 70
   160
 71
     5
 42
34.99999237060548
  3
DIMSTYLE_FULLSCALE
100
AcDbAlignedDimension
 13
-111.3139638671237
 23
-186.5973416485211
 33
0.0
 14
-56.18215081780727
 24
-151.5973492779156
 34
0.0
 50
270.0
100
AcDbRotatedDimension
1001
ACAD
1000
DSTYLE
1002
{
1070
    40
1040
1.0
1070
   278
1070
    46
1070
   147
1040
1.5
1070
    77
1070
     1
1070
    74
1070
     0
1070
    73
1070
     0
1070
    42
1040
0.0
1070
    44
1040
2.286000000000058
1070
    76
1070
     0
1070
    75
1070
     0
1070
   279
1070
     0
1070
   271
1070
     0
1070
   144
1040
1.0
1070
   173
1070
     1
1070
    41
1040
3.0
1070
   140
1040
6.0
1070
   344
1005
472
1070
   343
1005
472
1002
}
  0
DIMENSION
  5
49F
330
1F
100
AcDbEntity
  8
0
 62
     7
100
AcDbDimension
  2
*D12
 10
-187.3139562377291
 20
49.40994465583474
 30
0.0
 11
-217.3129562377291
 21
49.40994465583474
 31
0.0
 70
   160
 71
     5
 42
60.0
  3
DIMSTYLE_FULLSCALE
100
AcDbAlignedDimension
 13
-247.3139562377291
 23
63.37229339800152
 33
0.0
 14
-187.3139562377291
 24
63.37229339800152
 34
0.0
 50
180.0
100
AcDbRotatedDimension
1001
ACAD
1000
DSTYLE
1002
{
1070
    40
1040
1.0
1070
   278
1070
    46
1070
   147
1040
1.5
1070
    77
1070
     1
1070
    74
1070
     0
1070
    73
1070
     0
1070
    42
1040
0.0
1070
    44
1040
2.286000000000058
1070
    76
1070
     0
1070
    75
1070
     0
1070
   279
1070
     0
1070
   271
1070
     0
1070
   144
1040
1.0
1070
   173
1070
     1
1070
    41
1040
3.114
1070
   140
1040
6.0
1070
   344
1005
4A0
1070
   343
1005
4A0
1002
}
  0
DIMENSION
  5
4B2
330
1F
100
AcDbEntity
  8
0
 62
     7
100
AcDbDimension
  2
*D13
 10
-61.31396386712368
 20
34.28846848909453
 30
0.0
 11
-187.3129600524264
 21
34.28846848909455
 31
0.0
 70
   160
 71
     5
 42
252.0
  3
DIMSTYLE_FULLSCALE
100
AcDbAlignedDimension
 13
-313.3139562377291
 23
95.28198040348084
 33
0.0
 14
-61.31396386712368
 24
116.2819804034808
 34
0.0
 50
180.0
100
AcDbRotatedDimension
1001
ACAD
1000
DSTYLE
1002
{
1070
    40
1040
1.0
1070
   278
1070
    46
1070
   147
1040
1.5
1070
    77
1070
     1
1070
    74
1070
     0
1070
    73
1070
     0
1070
    42
1040
0.0
1070
    44
1040
2.286000000000058
1070
    76
1070
     0
1070
    75
1070
     0
1070
   279
1070
     0
1070
   271
1070
     0
1070
   144
1040
1.000000030275376
1070
   173
1070
     1
1070
    41
1040
3.0
1070
   140
1040
6.0
1070
   344
1005
472
1070
   343
1005
472
1002
}
  0
DIMENSION
  5
4BF
330
1F
100
AcDbEntity
  8
0
 62
     7
100
AcDbDimension
  2
*D14
 10
-37.09280813098481
 20
65.782010921059
 30
0.0
 11
-37.09280813098483
 21
105.783010921059
 31
0.0
 70
   160
 71
     5
 42
80.0
  3
DIMSTYLE_FULLSCALE
100
AcDbAlignedDimension
 13
-117.3139562377291
 23
145.782010921059
 33
0.0
 14
-105.3139638671237
 24
65.78201092105897
 34
0.0
 50
90.00000000000001
100
AcDbRotatedDimension
1001
ACAD
1000
DSTYLE
1002
{
1070
    40
1040
1.0
1070
   278
1070
    46
1070
   147
1040
1.5
1070
    77
1070
     1
1070
    74
1070
     0
1070
    73
1070
     0
1070
    42
1040
0.0
1070
    44
1040
2.286000000000058
1070
    76
1070
     0
1070
    75
1070
     0
1070
   279
1070
     0
1070
   271
1070
     0
1070
   144
1040
1.0
1070
   173
1070
     1
1070
    41
1040
3.114
1070
   140
1040
6.0
1070
   344
1005
4A0
1070
   343
1005
4A0
1002
}
  0
DIMENSION
  5
4CC
330
1F
100
AcDbEntity
  8
0
 62
     7
100
AcDbDimension
  2
*D15
 10
142.4381779053508
 20
-151.5973492779156
 30
0.0
 11
142.4381779053508
 21
-169.0963492779156
 31
0.0
 70
   160
 71
     5
 42
34.99999999999999
  3
DIMSTYLE_FULLSCALE
100
AcDbAlignedDimension
 13
209.804421447818
 23
-186.5973492779156
 33
0.0
 14
162.804436706607
 24
-151.5973492779156
 34
0.0
 50
270.0
100
AcDbRotatedDimension
1001
ACAD
1000
DSTYLE
1002
{
1070
    40
1040
1.0
1070
   278
1070
    46
1070
   147
1040
1.5
1070
    77
1070
     1
1070
    74
1070
     0
1070
    73
1070
     0
1070
    42
1040
0.0
1070
    44
1040
2.286000000000058
1070
    76
1070
     0
1070
    75
1070
     0
1070
   279
1070
     0
1070
   271
1070
     0
1070
   144
1040
1.0
1070
   173
1070
     1
1070
    41
1040
3.114
1070
   140
1040
6.0
1070
   344
1005
4A0
1070
   343
1005
4A0
1002
}
  0
DIMENSION
  5
4D9
330
1F
100
AcDbEntity
  8
0
 62
     7
100
AcDbDimension
  2
*D16
 10
-157.3139562377291
 20
163.052464788581
 30
0.0
 11
-187.3129562377291
 21
163.052464788581
 31
0.0
 70
   160
 71
     5
 42
60.0
  3
DIMSTYLE_FULLSCALE
100
AcDbAlignedDimension
 13
-217.3139562377291
 23
148.5159762572713
 33
0.0
 14
-157.3139562377291
 24
148.5159762572713
 34
0.0
 50
180.0
100
AcDbRotatedDimension
1001
ACAD
1000
DSTYLE
1002
{
1070
    40
1040
1.0
1070
   278
1070
    46
1070
   147
1040
1.5
1070
    77
1070
     1
1070
    74
1070
     0
1070
    73
1070
     0
1070
    42
1040
0.0
1070
    44
1040
2.286000000000058
1070
    76
1070
     0
1070
    75
1070
     0
1070
   279
1070
     0
1070
   271
1070
     0
1070
   144
1040
1.0
1070
   173
1070
     1
1070
    41
1040
3.114
1070
   140
1040
6.0
1070
   344
1005
4A0
1070
   343
1005
4A0
1002
}
  0
DIMENSION
  5
4E6
330
1F
100
AcDbEntity
  8
0
 62
     7
100
AcDbDimension
  2
*D17
 10
-127.3139562377291
 20
49.40994465583474
 30
0.0
 11
-157.3129562377291
 21
49.40994465583474
 31
0.0
 70
   160
 71
     5
 42
60.0
  3
DIMSTYLE_FULLSCALE
100
AcDbAlignedDimension
 13
-187.3139562377291
 23
63.37229339800152
 33
0.0
 14
-127.3139562377291
 24
63.37229339800152
 34
0.0
 50
180.0
100
AcDbRotatedDimension
1001
ACAD
1000
DSTYLE
1002
{
1070
    40
1040
1.0
1070
   278
1070
    46
1070
   147
1040
1.5
1070
    77
1070
     1
1070
    74
1070
     0
1070
    73
1070
     0
1070
    42
1040
0.0
1070
    44
1040
2.286000000000058
1070
    76
1070
     0
1070
    75
1070
     1
1070
   279
1070
     0
1070
   271
1070
     0
1070
   144
1040
1.0
1070
   173
1070
     1
1070
    41
1040
3.114
1070
   140
1040
6.0
1070
   344
1005
4A0
1070
   343
1005
4A0
1002
}
  0
ENDSEC
  0
SECTION
  2
OBJECTS
  0
DICTIONARY
  5
C
330
0
100
AcDbDictionary
281
     1
  3
ACAD_GROUP
350
D
  3
ACAD_LAYOUT
350
1A
  3
ACAD_MATERIAL
350
43
  3
ACAD_MLEADERSTYLE
350
6B
  3
ACAD_MLINESTYLE
350
17
  3
ACAD_PLOTSETTINGS
350
19
  3
ACAD_PLOTSTYLENAME
350
E
  3
ACAD_SCALELIST
350
47
  3
ACAD_TABLESTYLE
350
69
  3
ACAD_VISUALSTYLE
350
2A
  3
AcDbVariableDictionary
350
4F2
  3
DWGPROPS
350
4FD
  0
DICTIONARY
  5
4FE
330
8
100
AcDbDictionary
280
     1
281
     1
  3
ACAD_XREC_ROUNDTRIP
360
4FF
  0
DICTIONARY
  5
D
102
{ACAD_REACTORS
330
C
102
}
330
C
100
AcDbDictionary
281
     1
  0
DICTIONARY
  5
1A
102
{ACAD_REACTORS
330
C
102
}
330
C
100
AcDbDictionary
281
     1
  3
Layout1
350
1E
  3
Layout2
350
26
  3
Model
350
22
  0
DICTIONARY
  5
43
102
{ACAD_REACTORS
330
C
102
}
330
C
100
AcDbDictionary
281
     1
  3
ByBlock
350
45
  3
ByLayer
350
44
  3
Global
350
46
  0
DICTIONARY
  5
6B
102
{ACAD_REACTORS
330
C
102
}
330
C
100
AcDbDictionary
281
     1
  3
Standard
350
6C
  0
DICTIONARY
  5
17
102
{ACAD_REACTORS
330
C
102
}
330
C
100
AcDbDictionary
281
     1
  3
Standard
350
18
  0
DICTIONARY
  5
19
102
{ACAD_REACTORS
330
C
102
}
330
C
100
AcDbDictionary
281
     1
  0
ACDBDICTIONARYWDFLT
  5
E
102
{ACAD_REACTORS
330
C
102
}
330
C
100
AcDbDictionary
281
     1
  3
Normal
350
F
100
AcDbDictionaryWithDefault
340
F
  0
DICTIONARY
  5
47
102
{ACAD_REACTORS
330
C
102
}
330
C
100
AcDbDictionary
281
     1
  3
A0
350
48
  3
A1
350
49
  3
A2
350
4A
  3
A3
350
4B
  3
A4
350
4C
  3
A5
350
4D
  3
A6
350
4E
  3
A7
350
4F
  3
A8
350
50
  3
A9
350
51
  3
B0
350
52
  3
B1
350
53
  3
B2
350
54
  3
B3
350
55
  3
B4
350
56
  3
B5
350
57
  3
B6
350
58
  3
B7
350
59
  3
B8
350
5A
  3
B9
350
5B
  3
C0
350
5C
  3
C1
350
5D
  3
C2
350
5E
  3
C3
350
5F
  3
C4
350
60
  3
C5
350
61
  3
C6
350
62
  3
C7
350
63
  3
C8
350
64
  3
C9
350
65
  3
D0
350
66
  3
D1
350
67
  3
D2
350
68
  0
DICTIONARY
  5
69
102
{ACAD_REACTORS
330
C
102
}
330
C
100
AcDbDictionary
281
     1
  3
Standard
350
6A
  0
DICTIONARY
  5
2A
102
{ACAD_REACTORS
330
C
102
}
330
C
100
AcDbDictionary
281
     1
  3
2dWireframe
350
2F
  3
Basic
350
32
  3
Brighten
350
36
  3
ColorChange
350
3A
  3
Conceptual
350
34
  3
Dim
350
35
  3
EdgeColorOff
350
3D
  3
Facepattern
350
39
  3
Flat
350
2B
  3
FlatWithEdges
350
2C
  3
Gouraud
350
2D
  3
GouraudWithEdges
350
2E
  3
Hidden
350
31
  3
JitterOff
350
3B
  3
Linepattern
350
38
  3
OverhangOff
350
3C
  3
Realistic
350
33
  3
Shaded
350
42
  3
Shaded with edges
350
41
  3
Shades of Gray
350
3E
  3
Sketchy
350
3F
  3
Thicken
350
37
  3
Wireframe
350
30
  3
X-Ray
350
40
  0
DICTIONARY
  5
4F2
102
{ACAD_REACTORS
330
C
102
}
330
C
100
AcDbDictionary
281
     1
  3
CANNOSCALE
350
504
  3
CENTEREXE
350
4F9
  3
CENTERLTYPEFILE
350
4FA
  3
CMLEADERSTYLE
350
4F4
  3
CTABLESTYLE
350
4F3
  3
DIMASSOC
350
4FB
  3
HIDETEXT
350
4FC
  3
MSLTSCALE
350
505
  3
PSOLHEIGHT
350
4F6
  3
PSOLWIDTH
350
4F5
  0
XRECORD
  5
4FD
102
{ACAD_REACTORS
330
C
102
}
330
C
100
AcDbXrecord
280
     1
  1
DWGPROPS COOKIE
  2

  3

  4

  6

  7

  8
CADAM
  9

300
=
301
=
302
=
303
=
304
=
305
=
306
=
307
=
308
=
309
=
 40
0.0
 41
2459079.20475066
 42
2459079.204751018
  1

 90
        0
  0
XRECORD
  5
4FF
102
{ACAD_REACTORS
330
4FE
102
}
330
4FE
100
AcDbXrecord
280
     1
102
VTR_0.000_0.000_1.000_1.000_VISUALSTYLE
340
2F
102
VTR_0.000_0.000_1.000_1.000_GRIDDISPLAY
 70
     3
102
VTR_0.000_0.000_1.000_1.000_GRIDMAJOR
 70
     5
102
VTR_0.000_0.000_1.000_1.000_DEFAULTLIGHTING
280
     1
102
VTR_0.000_0.000_1.000_1.000_DEFAULTLIGHTINGTYPE
 70
     1
102
VTR_0.000_0.000_1.000_1.000_BRIGHTNESS
141
0.0
102
VTR_0.000_0.000_1.000_1.000_CONTRAST
142
0.0
  0
LAYOUT
  5
1E
102
{ACAD_REACTORS
330
1A
102
}
330
1A
100
AcDbPlotSettings
  1

  2
none_device
  4

  6

 40
0.0
 41
0.0
 42
0.0
 43
0.0
 44
0.0
 45
0.0
 46
0.0
 47
0.0
 48
0.0
 49
0.0
140
0.0
141
0.0
142
1.0
143
1.0
 70
   688
 72
     1
 73
     0
 74
     5
  7

 75
    16
147
1.0
148
0.0
149
0.0
100
AcDbLayout
  1
Layout1
 70
     1
 71
     1
 10
-358.2389254295483
 20
-204.0553871586419
 11
441.7610745704517
 21
225.9446128413581
 12
0.0
 22
0.0
 32
0.0
 14
1.000000000000000E+20
 24
1.000000000000000E+20
 34
1.000000000000000E+20
 15
-1.000000000000000E+20
 25
-1.000000000000000E+20
 35
-1.000000000000000E+20
146
0.0
 13
0.0
 23
0.0
 33
0.0
 16
1.0
 26
0.0
 36
0.0
 17
0.0
 27
1.0
 37
0.0
 76
     0
330
1B
  0
LAYOUT
  5
26
102
{ACAD_REACTORS
330
1A
102
}
330
1A
100
AcDbPlotSettings
  1

  2
none_device
  4

  6

 40
0.0
 41
0.0
 42
0.0
 43
0.0
 44
0.0
 45
0.0
 46
0.0
 47
0.0
 48
0.0
 49
0.0
140
0.0
141
0.0
142
1.0
143
1.0
 70
   688
 72
     1
 73
     0
 74
     5
  7

 75
    16
147
1.0
148
0.0
149
0.0
100
AcDbLayout
  1
Layout2
 70
     1
 71
     2
 10
0.0
 20
0.0
 11
0.0
 21
0.0
 12
0.0
 22
0.0
 32
0.0
 14
0.0
 24
0.0
 34
0.0
 15
0.0
 25
0.0
 35
0.0
146
0.0
 13
0.0
 23
0.0
 33
0.0
 16
1.0
 26
0.0
 36
0.0
 17
0.0
 27
1.0
 37
0.0
 76
     0
330
23
  0
LAYOUT
  5
22
102
{ACAD_REACTORS
330
1A
102
}
330
1A
100
AcDbPlotSettings
  1

  2
none_device
  4
Letter_(8.50_x_11.00_Inches)
  6

 40
6.35
 41
6.35
 42
6.35000508
 43
6.35000508
 44
215.9
 45
279.4
 46
0.0
 47
0.0
 48
0.0
 49
0.0
140
0.0
141
0.0
142
1.0
143
1.0
 70
  1712
 72
     1
 73
     0
 74
     0
  7

 75
     0
147
1.0
148
0.0
149
0.0
100
AcDbLayout
  1
Model
 70
     1
 71
     0
 10
-358.2389254295483
 20
-204.0553871586419
 11
441.7610745704517
 21
225.9446128413581
 12
0.0
 22
0.0
 32
0.0
 14
-358.2389254295483
 24
-204.0553871586419
 34
0.0
 15
441.7610745704517
 25
225.9446128413581
 35
0.0
146
0.0
 13
0.0
 23
0.0
 33
0.0
 16
1.0
 26
0.0
 36
0.0
 17
0.0
 27
1.0
 37
0.0
 76
     0
330
1F
331
29
  0
MATERIAL
  5
45
102
{ACAD_REACTORS
330
43
102
}
102
{ACAD_XDICTIONARY
360
538
102
}
330
43
100
AcDbMaterial
  1
ByBlock
  0
MATERIAL
  5
44
102
{ACAD_REACTORS
330
43
102
}
102
{ACAD_XDICTIONARY
360
536
102
}
330
43
100
AcDbMaterial
  1
ByLayer
  0
MATERIAL
  5
46
102
{ACAD_REACTORS
330
43
102
}
102
{ACAD_XDICTIONARY
360
53A
102
}
330
43
100
AcDbMaterial
  1
Global
  0
MLEADERSTYLE
  5
6C
102
{ACAD_REACTORS
330
6B
102
}
102
{ACAD_XDICTIONARY
360
53D
102
}
330
6B
100
AcDbMLeaderStyle
170
     2
171
     1
172
     0
 90
        2
 40
0.0
 41
0.0
173
     1
 91
-1056964608
340
14
 92
       -2
290
     1
 42
2.0
291
     1
 43
8.0
  3
Standard
341
0
 44
4.0
300

342
11
174
     1
178
     6
175
     1
176
     0
 93
-1056964608
 45
4.0
292
     0
297
     0
 46
4.0
343
0
 94
-1056964608
 47
1.0
 49
1.0
140
1.0
293
     1
141
0.0
294
     1
177
     0
142
1.0
295
     0
296
     0
143
3.75
1001
ACAD_MLEADERVER
1070
     2
  0
MLINESTYLE
  5
18
102
{ACAD_REACTORS
330
17
102
}
330
17
100
AcDbMlineStyle
  2
Standard
 70
     0
  3

 62
   256
 51
90.0
 52
90.0
 71
     2
 49
0.5
 62
   256
  6
BYLAYER
 49
-0.5
 62
   256
  6
BYLAYER
  0
ACDBPLACEHOLDER
  5
F
102
{ACAD_REACTORS
330
E
102
}
330
E
  0
SCALE
  5
48
102
{ACAD_REACTORS
330
47
102
}
330
47
100
AcDbScale
 70
     0
300
1:1
140
1.0
141
1.0
290
     1
  0
SCALE
  5
49
102
{ACAD_REACTORS
330
47
102
}
330
47
100
AcDbScale
 70
     0
300
1:2
140
1.0
141
2.0
290
     0
  0
SCALE
  5
4A
102
{ACAD_REACTORS
330
47
102
}
330
47
100
AcDbScale
 70
     0
300
1:4
140
1.0
141
4.0
290
     0
  0
SCALE
  5
4B
102
{ACAD_REACTORS
330
47
102
}
330
47
100
AcDbScale
 70
     0
300
1:5
140
1.0
141
5.0
290
     0
  0
SCALE
  5
4C
102
{ACAD_REACTORS
330
47
102
}
330
47
100
AcDbScale
 70
     0
300
1:8
140
1.0
141
8.0
290
     0
  0
SCALE
  5
4D
102
{ACAD_REACTORS
330
47
102
}
330
47
100
AcDbScale
 70
     0
300
1:10
140
1.0
141
10.0
290
     0
  0
SCALE
  5
4E
102
{ACAD_REACTORS
330
47
102
}
330
47
100
AcDbScale
 70
     0
300
1:16
140
1.0
141
16.0
290
     0
  0
SCALE
  5
4F
102
{ACAD_REACTORS
330
47
102
}
330
47
100
AcDbScale
 70
     0
300
1:20
140
1.0
141
20.0
290
     0
  0
SCALE
  5
50
102
{ACAD_REACTORS
330
47
102
}
330
47
100
AcDbScale
 70
     0
300
1:30
140
1.0
141
30.0
290
     0
  0
SCALE
  5
51
102
{ACAD_REACTORS
330
47
102
}
330
47
100
AcDbScale
 70
     0
300
1:40
140
1.0
141
40.0
290
     0
  0
SCALE
  5
52
102
{ACAD_REACTORS
330
47
102
}
330
47
100
AcDbScale
 70
     0
300
1:50
140
1.0
141
50.0
290
     0
  0
SCALE
  5
53
102
{ACAD_REACTORS
330
47
102
}
330
47
100
AcDbScale
 70
     0
300
1:100
140
1.0
141
100.0
290
     0
  0
SCALE
  5
54
102
{ACAD_REACTORS
330
47
102
}
330
47
100
AcDbScale
 70
     0
300
2:1
140
2.0
141
1.0
290
     0
  0
SCALE
  5
55
102
{ACAD_REACTORS
330
47
102
}
330
47
100
AcDbScale
 70
     0
300
4:1
140
4.0
141
1.0
290
     0
  0
SCALE
  5
56
102
{ACAD_REACTORS
330
47
102
}
330
47
100
AcDbScale
 70
     0
300
8:1
140
8.0
141
1.0
290
     0
  0
SCALE
  5
57
102
{ACAD_REACTORS
330
47
102
}
330
47
100
AcDbScale
 70
     0
300
10:1
140
10.0
141
1.0
290
     0
  0
SCALE
  5
58
102
{ACAD_REACTORS
330
47
102
}
330
47
100
AcDbScale
 70
     0
300
100:1
140
100.0
141
1.0
290
     0
  0
SCALE
  5
59
102
{ACAD_REACTORS
330
47
102
}
330
47
100
AcDbScale
 70
     0
300
1/128" = 1'-0"
140
0.0078125
141
12.0
290
     0
  0
SCALE
  5
5A
102
{ACAD_REACTORS
330
47
102
}
330
47
100
AcDbScale
 70
     0
300
1/64" = 1'-0"
140
0.015625
141
12.0
290
     0
  0
SCALE
  5
5B
102
{ACAD_REACTORS
330
47
102
}
330
47
100
AcDbScale
 70
     0
300
1/32" = 1'-0"
140
0.03125
141
12.0
290
     0
  0
SCALE
  5
5C
102
{ACAD_REACTORS
330
47
102
}
330
47
100
AcDbScale
 70
     0
300
1/16" = 1'-0"
140
0.0625
141
12.0
290
     0
  0
SCALE
  5
5D
102
{ACAD_REACTORS
330
47
102
}
330
47
100
AcDbScale
 70
     0
300
3/32" = 1'-0"
140
0.09375
141
12.0
290
     0
  0
SCALE
  5
5E
102
{ACAD_REACTORS
330
47
102
}
330
47
100
AcDbScale
 70
     0
300
1/8" = 1'-0"
140
0.125
141
12.0
290
     0
  0
SCALE
  5
5F
102
{ACAD_REACTORS
330
47
102
}
330
47
100
AcDbScale
 70
     0
300
3/16" = 1'-0"
140
0.1875
141
12.0
290
     0
  0
SCALE
  5
60
102
{ACAD_REACTORS
330
47
102
}
330
47
100
AcDbScale
 70
     0
300
1/4" = 1'-0"
140
0.25
141
12.0
290
     0
  0
SCALE
  5
61
102
{ACAD_REACTORS
330
47
102
}
330
47
100
AcDbScale
 70
     0
300
3/8" = 1'-0"
140
0.375
141
12.0
290
     0
  0
SCALE
  5
62
102
{ACAD_REACTORS
330
47
102
}
330
47
100
AcDbScale
 70
     0
300
1/2" = 1'-0"
140
0.5
141
12.0
290
     0
  0
SCALE
  5
63
102
{ACAD_REACTORS
330
47
102
}
330
47
100
AcDbScale
 70
     0
300
3/4" = 1'-0"
140
0.75
141
12.0
290
     0
  0
SCALE
  5
64
102
{ACAD_REACTORS
330
47
102
}
330
47
100
AcDbScale
 70
     0
300
1" = 1'-0"
140
1.0
141
12.0
290
     0
  0
SCALE
  5
65
102
{ACAD_REACTORS
330
47
102
}
330
47
100
AcDbScale
 70
     0
300
1-1/2" = 1'-0"
140
1.5
141
12.0
290
     0
  0
SCALE
  5
66
102
{ACAD_REACTORS
330
47
102
}
330
47
100
AcDbScale
 70
     0
300
3" = 1'-0"
140
3.0
141
12.0
290
     0
  0
SCALE
  5
67
102
{ACAD_REACTORS
330
47
102
}
330
47
100
AcDbScale
 70
     0
300
6" = 1'-0"
140
6.0
141
12.0
290
     0
  0
SCALE
  5
68
102
{ACAD_REACTORS
330
47
102
}
330
47
100
AcDbScale
 70
     0
300
1'-0" = 1'-0"
140
12.0
141
12.0
290
     0
  0
TABLESTYLE
  5
6A
102
{ACAD_REACTORS
330
69
102
}
330
69
100
AcDbTableStyle
  3
Standard
 70
     0
 71
     0
 40
1.5
 41
1.5
280
     0
281
     0
  7
Standard
140
4.5
170
     2
 62
     0
 63
   257
283
     0
274
    -2
284
     1
 64
     0
275
    -2
285
     1
 65
     0
276
    -2
286
     1
 66
     0
277
    -2
287
     1
 67
     0
278
    -2
288
     1
 68
     0
279
    -2
289
     1
 69
     0
  7
Standard
140
6.0
170
     5
 62
     0
 63
   257
283
     0
274
    -2
284
     1
 64
     0
275
    -2
285
     1
 65
     0
276
    -2
286
     1
 66
     0
277
    -2
287
     1
 67
     0
278
    -2
288
     1
 68
     0
279
    -2
289
     1
 69
     0
  7
Standard
140
4.5
170
     5
 62
     0
 63
   257
283
     0
274
    -2
284
     1
 64
     0
275
    -2
285
     1
 65
     0
276
    -2
286
     1
 66
     0
277
    -2
287
     1
 67
     0
278
    -2
288
     1
 68
     0
279
    -2
289
     1
 69
     0
  0
VISUALSTYLE
  5
2F
102
{ACAD_REACTORS
330
2A
102
}
102
{ACAD_XDICTIONARY
360
50E
102
}
330
2A
100
AcDbVisualStyle
  2
2dWireframe
 70
     4
 71
     0
 72
     2
 73
     0
 90
        0
 40
0.6
 41
30.0
 62
     5
 63
     7
 74
     1
 91
        4
 64
     7
 65
   257
 75
     1
175
     1
 42
1.0
 92
        0
 66
   257
 43
1.0
 76
     1
 77
     6
 78
     2
 67
     7
 79
     5
170
     0
171
     0
290
     0
174
     0
 93
        1
 44
0.0
173
     0
291
     0
 45
0.0
1001
ACAD
1000
AcDbSavedByObjectVersion
1070
     0
  0
VISUALSTYLE
  5
32
102
{ACAD_REACTORS
330
2A
102
}
102
{ACAD_XDICTIONARY
360
514
102
}
330
2A
100
AcDbVisualStyle
  2
Basic
 70
     7
 71
     1
 72
     0
 73
     1
 90
        0
 40
0.6
 41
30.0
 62
     5
 63
     7
 74
     0
 91
        4
 64
     7
 65
   257
 75
     1
175
     1
 42
1.0
 92
        8
 66
     7
 43
1.0
 76
     1
 77
     6
 78
     2
 67
     7
 79
     5
170
     0
171
     0
290
     0
174
     0
 93
        1
 44
0.0
173
     0
291
     1
 45
0.0
1001
ACAD
1000
AcDbSavedByObjectVersion
1070
     0
  0
VISUALSTYLE
  5
36
102
{ACAD_REACTORS
330
2A
102
}
102
{ACAD_XDICTIONARY
360
51C
102
}
330
2A
100
AcDbVisualStyle
  2
Brighten
 70
    12
 71
     2
 72
     2
 73
     0
 90
        0
 40
0.6
 41
30.0
 62
     5
 63
     7
 74
     1
 91
        4
 64
     7
 65
   257
 75
     1
175
     1
 42
1.0
 92
        8
 66
     7
 43
1.0
 76
     1
 77
     6
 78
     2
 67
     7
 79
     5
170
     0
171
     0
290
     0
174
     0
 93
        1
 44
50.0
173
     0
291
     1
 45
0.0
1001
ACAD
1000
AcDbSavedByObjectVersion
1070
     0
  0
VISUALSTYLE
  5
3A
102
{ACAD_REACTORS
330
2A
102
}
102
{ACAD_XDICTIONARY
360
524
102
}
330
2A
100
AcDbVisualStyle
  2
ColorChange
 70
    16
 71
     2
 72
     2
 73
     3
 90
        0
 40
0.6
 41
30.0
 62
     5
 63
     8
 74
     1
 91
        4
 64
     7
 65
   257
 75
     1
175
     1
 42
1.0
 92
        8
 66
     8
 43
1.0
 76
     1
 77
     6
 78
     2
 67
     7
 79
     5
170
     0
171
     0
290
     0
174
     0
 93
        1
 44
0.0
173
     0
291
     1
 45
0.0
1001
ACAD
1000
AcDbSavedByObjectVersion
1070
     0
  0
VISUALSTYLE
  5
34
102
{ACAD_REACTORS
330
2A
102
}
102
{ACAD_XDICTIONARY
360
518
102
}
330
2A
100
AcDbVisualStyle
  2
Conceptual
 70
     9
 71
     3
 72
     2
 73
     0
 90
        0
 40
0.6
 41
30.0
 62
     5
 63
     7
 74
     2
 91
        2
 64
     7
 65
   257
 75
     1
175
     1
 42
179.0
 92
        8
 66
     7
 43
1.0
 76
     1
 77
     6
 78
     2
 67
     7
 79
     3
170
     0
171
     0
290
     0
174
     0
 93
        1
 44
0.0
173
     0
291
     0
 45
0.0
1001
ACAD
1000
AcDbSavedByObjectVersion
1070
     0
  0
VISUALSTYLE
  5
35
102
{ACAD_REACTORS
330
2A
102
}
102
{ACAD_XDICTIONARY
360
51A
102
}
330
2A
100
AcDbVisualStyle
  2
Dim
 70
    11
 71
     2
 72
     2
 73
     0
 90
        0
 40
0.6
 41
30.0
 62
     5
 63
     7
 74
     1
 91
        4
 64
     7
 65
   257
 75
     1
175
     1
 42
1.0
 92
        8
 66
     7
 43
1.0
 76
     1
 77
     6
 78
     2
 67
     7
 79
     5
170
     0
171
     0
290
     0
174
     0
 93
        1
 44
-50.0
173
     0
291
     1
 45
0.0
1001
ACAD
1000
AcDbSavedByObjectVersion
1070
     0
  0
VISUALSTYLE
  5
3D
102
{ACAD_REACTORS
330
2A
102
}
102
{ACAD_XDICTIONARY
360
52A
102
}
330
2A
100
AcDbVisualStyle
  2
EdgeColorOff
 70
    22
 71
     2
 72
     2
 73
     0
 90
        0
 40
0.6
 41
30.0
 62
     5
 63
     7
 74
     1
 91
        4
 64
     7
 65
   257
 75
     1
175
     1
 42
1.0
 92
        8
 66
     7
 43
1.0
 76
     1
 77
     6
 78
     2
 67
     7
 79
     5
170
     0
171
     0
290
     0
174
     0
 93
        1
 44
0.0
173
     0
291
     1
 45
0.0
1001
ACAD
1000
AcDbSavedByObjectVersion
1070
     0
  0
VISUALSTYLE
  5
39
102
{ACAD_REACTORS
330
2A
102
}
102
{ACAD_XDICTIONARY
360
522
102
}
330
2A
100
AcDbVisualStyle
  2
Facepattern
 70
    15
 71
     2
 72
     2
 73
     0
 90
        0
 40
0.6
 41
30.0
 62
     5
 63
     7
 74
     1
 91
        4
 64
     7
 65
   257
 75
     1
175
     1
 42
1.0
 92
        8
 66
     7
 43
1.0
 76
     1
 77
     6
 78
     2
 67
     7
 79
     5
170
     0
171
     0
290
     0
174
     0
 93
        1
 44
0.0
173
     0
291
     1
 45
0.0
1001
ACAD
1000
AcDbSavedByObjectVersion
1070
     0
  0
VISUALSTYLE
  5
2B
102
{ACAD_REACTORS
330
2A
102
}
102
{ACAD_XDICTIONARY
360
506
102
}
330
2A
100
AcDbVisualStyle
  2
Flat
 70
     0
 71
     2
 72
     1
 73
     1
 90
        2
 40
0.6
 41
30.0
 62
     5
 63
     7
 74
     0
 91
        0
 64
     7
 65
   257
 75
     1
175
     1
 42
1.0
 92
        8
 66
     7
 43
1.0
 76
     1
 77
     6
 78
     2
 67
     7
 79
     5
170
     0
171
     0
290
     0
174
     0
 93
       13
 44
0.0
173
     0
291
     1
 45
0.0
1001
ACAD
1000
AcDbSavedByObjectVersion
1070
     0
  0
VISUALSTYLE
  5
2C
102
{ACAD_REACTORS
330
2A
102
}
102
{ACAD_XDICTIONARY
360
508
102
}
330
2A
100
AcDbVisualStyle
  2
FlatWithEdges
 70
     1
 71
     2
 72
     1
 73
     1
 90
        2
 40
0.6
 41
30.0
 62
     5
 63
     7
 74
     1
 91
        0
 64
     7
 65
   257
 75
     1
175
     1
 42
1.0
 92
        0
 66
   257
 43
1.0
 76
     1
 77
     6
 78
     2
 67
     7
 79
     5
170
     0
171
     0
290
     0
174
     0
 93
       13
 44
0.0
173
     0
291
     1
 45
0.0
1001
ACAD
1000
AcDbSavedByObjectVersion
1070
     0
  0
VISUALSTYLE
  5
2D
102
{ACAD_REACTORS
330
2A
102
}
102
{ACAD_XDICTIONARY
360
50A
102
}
330
2A
100
AcDbVisualStyle
  2
Gouraud
 70
     2
 71
     2
 72
     2
 73
     1
 90
        2
 40
0.6
 41
30.0
 62
     5
 63
     7
 74
     0
 91
        0
 64
     7
 65
   257
 75
     1
175
     1
 42
1.0
 92
        0
 66
     7
 43
1.0
 76
     1
 77
     6
 78
     2
 67
     7
 79
     5
170
     0
171
     0
290
     0
174
     0
 93
       13
 44
0.0
173
     0
291
     1
 45
0.0
1001
ACAD
1000
AcDbSavedByObjectVersion
1070
     0
  0
VISUALSTYLE
  5
2E
102
{ACAD_REACTORS
330
2A
102
}
102
{ACAD_XDICTIONARY
360
50C
102
}
330
2A
100
AcDbVisualStyle
  2
GouraudWithEdges
 70
     3
 71
     2
 72
     2
 73
     1
 90
        2
 40
0.6
 41
30.0
 62
     5
 63
     7
 74
     1
 91
        0
 64
     7
 65
   257
 75
     1
175
     1
 42
1.0
 92
        0
 66
   257
 43
1.0
 76
     1
 77
     6
 78
     2
 67
     7
 79
     5
170
     0
171
     0
290
     0
174
     0
 93
       13
 44
0.0
173
     0
291
     1
 45
0.0
1001
ACAD
1000
AcDbSavedByObjectVersion
1070
     0
  0
VISUALSTYLE
  5
31
102
{ACAD_REACTORS
330
2A
102
}
102
{ACAD_XDICTIONARY
360
512
102
}
330
2A
100
AcDbVisualStyle
  2
Hidden
 70
     6
 71
     1
 72
     2
 73
     2
 90
        0
 40
0.6
 41
30.0
 62
     5
 63
     7
 74
     2
 91
        2
 64
     7
 65
   257
 75
     2
175
     1
 42
40.0
 92
        0
 66
   257
 43
1.0
 76
     1
 77
     6
 78
     2
 67
     7
 79
     3
170
     0
171
     0
290
     0
174
     0
 93
        1
 44
0.0
173
     0
291
     0
 45
0.0
1001
ACAD
1000
AcDbSavedByObjectVersion
1070
     0
  0
VISUALSTYLE
  5
3B
102
{ACAD_REACTORS
330
2A
102
}
102
{ACAD_XDICTIONARY
360
526
102
}
330
2A
100
AcDbVisualStyle
  2
JitterOff
 70
    20
 71
     2
 72
     2
 73
     0
 90
        0
 40
0.6
 41
30.0
 62
     5
 63
     7
 74
     1
 91
        4
 64
     7
 65
   257
 75
     1
175
     1
 42
1.0
 92
       10
 66
     7
 43
1.0
 76
     1
 77
     6
 78
     2
 67
     7
 79
     5
170
     0
171
     0
290
     0
174
     0
 93
        1
 44
0.0
173
     0
291
     1
 45
0.0
1001
ACAD
1000
AcDbSavedByObjectVersion
1070
     0
  0
VISUALSTYLE
  5
38
102
{ACAD_REACTORS
330
2A
102
}
102
{ACAD_XDICTIONARY
360
520
102
}
330
2A
100
AcDbVisualStyle
  2
Linepattern
 70
    14
 71
     2
 72
     2
 73
     0
 90
        0
 40
0.6
 41
30.0
 62
     5
 63
     7
 74
     1
 91
        4
 64
     7
 65
   257
 75
     7
175
     7
 42
1.0
 92
        8
 66
     7
 43
1.0
 76
     1
 77
     6
 78
     2
 67
     7
 79
     5
170
     0
171
     0
290
     0
174
     0
 93
        1
 44
0.0
173
     0
291
     1
 45
0.0
1001
ACAD
1000
AcDbSavedByObjectVersion
1070
     0
  0
VISUALSTYLE
  5
3C
102
{ACAD_REACTORS
330
2A
102
}
102
{ACAD_XDICTIONARY
360
528
102
}
330
2A
100
AcDbVisualStyle
  2
OverhangOff
 70
    21
 71
     2
 72
     2
 73
     0
 90
        0
 40
0.6
 41
30.0
 62
     5
 63
     7
 74
     1
 91
        4
 64
     7
 65
   257
 75
     1
175
     1
 42
1.0
 92
        9
 66
     7
 43
1.0
 76
     1
 77
     6
 78
     2
 67
     7
 79
     5
170
     0
171
     0
290
     0
174
     0
 93
        1
 44
0.0
173
     0
291
     1
 45
0.0
1001
ACAD
1000
AcDbSavedByObjectVersion
1070
     0
  0
VISUALSTYLE
  5
33
102
{ACAD_REACTORS
330
2A
102
}
102
{ACAD_XDICTIONARY
360
516
102
}
330
2A
100
AcDbVisualStyle
  2
Realistic
 70
     8
 71
     2
 72
     3
 73
     0
 90
        2
 40
0.6
 41
30.0
 62
     5
 63
     7
 74
     0
 91
        0
 64
     7
 65
   257
 75
     1
175
     1
 42
1.0
 92
        8
 66
   257
 43
1.0
 76
     1
 77
     6
 78
     2
 67
     7
 79
     3
170
     0
171
     0
290
     0
174
     0
 93
       13
 44
0.0
173
     0
291
     0
 45
0.0
1001
ACAD
1000
AcDbSavedByObjectVersion
1070
     0
  0
VISUALSTYLE
  5
42
102
{ACAD_REACTORS
330
2A
102
}
102
{ACAD_XDICTIONARY
360
534
102
}
330
2A
100
AcDbVisualStyle
  2
Shaded
 70
    27
 71
     2
 72
     2
 73
     1
 90
        2
 40
0.6
 41
30.0
 62
     5
 63
     7
 74
     0
 91
        4
 64
     7
 65
   257
 75
     1
175
     1
 42
1.0
 92
        8
 66
   257
 43
1.0
 76
     1
 77
     6
 78
     2
 67
     8
 79
     3
170
     0
171
     0
290
     0
174
     0
 93
        5
 44
0.0
173
     0
291
     0
 45
0.0
1001
ACAD
1000
AcDbSavedByObjectVersion
1070
     0
  0
VISUALSTYLE
  5
41
102
{ACAD_REACTORS
330
2A
102
}
102
{ACAD_XDICTIONARY
360
532
102
}
330
2A
100
AcDbVisualStyle
  2
Shaded with edges
 70
    26
 71
     2
 72
     2
 73
     1
 90
        2
 40
0.6
 41
30.0
 62
     5
 63
     7
 74
     1
 91
       10
 64
     7
 65
   257
 75
     2
175
     1
 42
1.0
 92
        8
 66
   257
 43
1.0
 76
     1
 77
     6
 78
     2
 67
     7
 79
     3
170
     0
171
     0
290
     0
174
     0
 93
        5
 44
0.0
173
     0
291
     0
 45
0.0
1001
ACAD
1000
AcDbSavedByObjectVersion
1070
     0
  0
VISUALSTYLE
  5
3E
102
{ACAD_REACTORS
330
2A
102
}
102
{ACAD_XDICTIONARY
360
52C
102
}
330
2A
100
AcDbVisualStyle
  2
Shades of Gray
 70
    23
 71
     2
 72
     2
 73
     3
 90
        0
 40
0.6
 41
30.0
 62
     5
 63
     7
 74
     2
 91
        2
 64
     7
 65
     7
 75
     1
175
     1
 42
40.0
 92
        8
 66
     7
 43
1.0
 76
     1
 77
     6
 78
     2
 67
     7
 79
     3
170
     0
171
     0
290
     0
174
     0
 93
        1
 44
0.0
173
     0
291
     0
 45
0.0
1001
ACAD
1000
AcDbSavedByObjectVersion
1070
     0
  0
VISUALSTYLE
  5
3F
102
{ACAD_REACTORS
330
2A
102
}
102
{ACAD_XDICTIONARY
360
52E
102
}
330
2A
100
AcDbVisualStyle
  2
Sketchy
 70
    24
 71
     1
 72
     2
 73
     2
 90
        0
 40
0.6
 41
30.0
 62
     5
 63
     7
 74
     2
 91
        2
 64
     7
 65
     7
 75
     1
175
     1
 42
40.0
 92
       11
 66
     7
 43
1.0
 76
     1
 77
     6
 78
     2
 67
     7
 79
     6
170
     0
171
     0
290
     0
174
     0
 93
        1
 44
0.0
173
     0
291
     0
 45
0.0
1001
ACAD
1000
AcDbSavedByObjectVersion
1070
     0
  0
VISUALSTYLE
  5
37
102
{ACAD_REACTORS
330
2A
102
}
102
{ACAD_XDICTIONARY
360
51E
102
}
330
2A
100
AcDbVisualStyle
  2
Thicken
 70
    13
 71
     2
 72
     2
 73
     0
 90
        0
 40
0.6
 41
30.0
 62
     5
 63
     7
 74
     1
 91
        4
 64
     7
 65
   257
 75
     1
175
     1
 42
1.0
 92
       12
 66
     7
 43
1.0
 76
     1
 77
     6
 78
     2
 67
     7
 79
     5
170
     0
171
     0
290
     0
174
     0
 93
        1
 44
0.0
173
     0
291
     1
 45
0.0
1001
ACAD
1000
AcDbSavedByObjectVersion
1070
     0
  0
VISUALSTYLE
  5
30
102
{ACAD_REACTORS
330
2A
102
}
102
{ACAD_XDICTIONARY
360
510
102
}
330
2A
100
AcDbVisualStyle
  2
Wireframe
 70
     5
 71
     0
 72
     2
 73
     0
 90
        0
 40
0.6
 41
30.0
 62
     5
 63
     7
 74
     1
 91
        4
 64
     7
 65
   257
 75
     1
175
     1
 42
1.0
 92
        0
 66
   257
 43
1.0
 76
     1
 77
     6
 78
     2
 67
     7
 79
     3
170
     0
171
     0
290
     0
174
     0
 93
        1
 44
0.0
173
     0
291
     0
 45
0.0
1001
ACAD
1000
AcDbSavedByObjectVersion
1070
     0
  0
VISUALSTYLE
  5
40
102
{ACAD_REACTORS
330
2A
102
}
102
{ACAD_XDICTIONARY
360
530
102
}
330
2A
100
AcDbVisualStyle
  2
X-Ray
 70
    25
 71
     2
 72
     2
 73
     1
 90
        1
 40
0.5
 41
30.0
 62
     5
 63
     7
 74
     1
 91
        0
 64
     7
 65
   257
 75
     1
175
     1
 42
1.0
 92
        8
 66
     7
 43
1.0
 76
     1
 77
     6
 78
     2
 67
     7
 79
     3
170
     0
171
     0
290
     0
174
     0
 93
       13
 44
0.0
173
     0
291
     0
 45
0.0
1001
ACAD
1000
AcDbSavedByObjectVersion
1070
     0
  0
DICTIONARYVAR
  5
504
102
{ACAD_REACTORS
330
4F2
102
}
330
4F2
100
DictionaryVariables
280
     0
  1
1:1
  0
DICTIONARYVAR
  5
4F9
102
{ACAD_REACTORS
330
4F2
102
}
330
4F2
100
DictionaryVariables
280
     0
  1
3.500000
  0
DICTIONARYVAR
  5
4FA
102
{ACAD_REACTORS
330
4F2
102
}
330
4F2
100
DictionaryVariables
280
     0
  1
acadiso.lin
  0
DICTIONARYVAR
  5
4F4
102
{ACAD_REACTORS
330
4F2
102
}
330
4F2
100
DictionaryVariables
280
     0
  1
Standard
  0
DICTIONARYVAR
  5
4F3
102
{ACAD_REACTORS
330
4F2
102
}
330
4F2
100
DictionaryVariables
280
     0
  1
Standard
  0
DICTIONARYVAR
  5
4FB
102
{ACAD_REACTORS
330
4F2
102
}
330
4F2
100
DictionaryVariables
280
     0
  1
2
  0
DICTIONARYVAR
  5
4FC
102
{ACAD_REACTORS
330
4F2
102
}
330
4F2
100
DictionaryVariables
280
     0
  1
1
  0
DICTIONARYVAR
  5
505
102
{ACAD_REACTORS
330
4F2
102
}
330
4F2
100
DictionaryVariables
280
     0
  1
1
  0
DICTIONARYVAR
  5
4F6
102
{ACAD_REACTORS
330
4F2
102
}
330
4F2
100
DictionaryVariables
280
     0
  1
80.000000
  0
DICTIONARYVAR
  5
4F5
102
{ACAD_REACTORS
330
4F2
102
}
330
4F2
100
DictionaryVariables
280
     0
  1
5.000000
  0
DICTIONARY
  5
538
330
45
100
AcDbDictionary
280
     1
281
     1
  3
ACAD_XREC_ROUNDTRIP
360
539
  0
DICTIONARY
  5
536
330
44
100
AcDbDictionary
280
     1
281
     1
  3
ACAD_XREC_ROUNDTRIP
360
537
  0
DICTIONARY
  5
53A
330
46
100
AcDbDictionary
280
     1
281
     1
  3
ACAD_XREC_ROUNDTRIP
360
53B
  0
DICTIONARY
  5
53D
330
6C
100
AcDbDictionary
280
     1
281
     1
  3
ACAD_XREC_ROUNDTRIP
360
53E
  0
DICTIONARY
  5
50E
330
2F
100
AcDbDictionary
280
     1
281
     1
  3
ACAD_XREC_ROUNDTRIP
360
50F
  0
DICTIONARY
  5
514
330
32
100
AcDbDictionary
280
     1
281
     1
  3
ACAD_XREC_ROUNDTRIP
360
515
  0
DICTIONARY
  5
51C
330
36
100
AcDbDictionary
280
     1
281
     1
  3
ACAD_XREC_ROUNDTRIP
360
51D
  0
DICTIONARY
  5
524
330
3A
100
AcDbDictionary
280
     1
281
     1
  3
ACAD_XREC_ROUNDTRIP
360
525
  0
DICTIONARY
  5
518
330
34
100
AcDbDictionary
280
     1
281
     1
  3
ACAD_XREC_ROUNDTRIP
360
519
  0
DICTIONARY
  5
51A
330
35
100
AcDbDictionary
280
     1
281
     1
  3
ACAD_XREC_ROUNDTRIP
360
51B
  0
DICTIONARY
  5
52A
330
3D
100
AcDbDictionary
280
     1
281
     1
  3
ACAD_XREC_ROUNDTRIP
360
52B
  0
DICTIONARY
  5
522
330
39
100
AcDbDictionary
280
     1
281
     1
  3
ACAD_XREC_ROUNDTRIP
360
523
  0
DICTIONARY
  5
506
330
2B
100
AcDbDictionary
280
     1
281
     1
  3
ACAD_XREC_ROUNDTRIP
360
507
  0
DICTIONARY
  5
508
330
2C
100
AcDbDictionary
280
     1
281
     1
  3
ACAD_XREC_ROUNDTRIP
360
509
  0
DICTIONARY
  5
50A
330
2D
100
AcDbDictionary
280
     1
281
     1
  3
ACAD_XREC_ROUNDTRIP
360
50B
  0
DICTIONARY
  5
50C
330
2E
100
AcDbDictionary
280
     1
281
     1
  3
ACAD_XREC_ROUNDTRIP
360
50D
  0
DICTIONARY
  5
512
330
31
100
AcDbDictionary
280
     1
281
     1
  3
ACAD_XREC_ROUNDTRIP
360
513
  0
DICTIONARY
  5
526
330
3B
100
AcDbDictionary
280
     1
281
     1
  3
ACAD_XREC_ROUNDTRIP
360
527
  0
DICTIONARY
  5
520
330
38
100
AcDbDictionary
280
     1
281
     1
  3
ACAD_XREC_ROUNDTRIP
360
521
  0
DICTIONARY
  5
528
330
3C
100
AcDbDictionary
280
     1
281
     1
  3
ACAD_XREC_ROUNDTRIP
360
529
  0
DICTIONARY
  5
516
330
33
100
AcDbDictionary
280
     1
281
     1
  3
ACAD_XREC_ROUNDTRIP
360
517
  0
DICTIONARY
  5
534
330
42
100
AcDbDictionary
280
     1
281
     1
  3
ACAD_XREC_ROUNDTRIP
360
535
  0
DICTIONARY
  5
532
330
41
100
AcDbDictionary
280
     1
281
     1
  3
ACAD_XREC_ROUNDTRIP
360
533
  0
DICTIONARY
  5
52C
330
3E
100
AcDbDictionary
280
     1
281
     1
  3
ACAD_XREC_ROUNDTRIP
360
52D
  0
DICTIONARY
  5
52E
330
3F
100
AcDbDictionary
280
     1
281
     1
  3
ACAD_XREC_ROUNDTRIP
360
52F
  0
DICTIONARY
  5
51E
330
37
100
AcDbDictionary
280
     1
281
     1
  3
ACAD_XREC_ROUNDTRIP
360
51F
  0
DICTIONARY
  5
510
330
30
100
AcDbDictionary
280
     1
281
     1
  3
ACAD_XREC_ROUNDTRIP
360
511
  0
DICTIONARY
  5
530
330
40
100
AcDbDictionary
280
     1
281
     1
  3
ACAD_XREC_ROUNDTRIP
360
531
  0
XRECORD
  5
539
102
{ACAD_REACTORS
330
538
102
}
330
538
100
AcDbXrecord
280
     1
102
MATERIAL
148
0.0
149
0.0
149
0.0
 93
        0
 94
      127
282
     0
 72
     1
 77
     1
171
     1
175
     1
179
     1
273
     0
  0
XRECORD
  5
537
102
{ACAD_REACTORS
330
536
102
}
330
536
100
AcDbXrecord
280
     1
102
MATERIAL
148
0.0
149
0.0
149
0.0
 93
        0
 94
      127
282
     0
 72
     1
 77
     1
171
     1
175
     1
179
     1
273
     0
  0
XRECORD
  5
53B
102
{ACAD_REACTORS
330
53A
102
}
330
53A
100
AcDbXrecord
280
     1
102
MATERIAL
148
0.0
149
0.0
149
0.0
 93
        0
 94
      127
282
     0
 72
     1
 77
     1
171
     1
175
     1
179
     1
273
     0
  0
XRECORD
  5
53E
102
{ACAD_REACTORS
330
53D
102
}
330
53D
100
AcDbXrecord
280
     1
102
ACAD_ROUNDTRIP_2010_MLEADER_STYLE
  0
XRECORD
  5
50F
102
{ACAD_REACTORS
330
50E
102
}
330
50E
100
AcDbXrecord
280
     1
102
RTVSPropertyOp0
 70
     1
102
RTVSPropertyOp1
 70
     1
102
RTVSPropertyOp2
 70
     1
102
RTVSPropertyOp3
 70
     1
102
RTVSPropertyOp4
 70
     1
102
RTVSPropertyOp5
 70
     1
102
RTVSPropertyOp6
 70
     1
102
RTVSPropertyOp7
 70
     1
102
RTVSPropertyOp8
 70
     1
102
RTVSPropertyOp9
 70
     1
102
RTVSPropertyOp10
 70
     1
102
RTVSPropertyOp11
 70
     1
102
RTVSPropertyOp12
 70
     1
102
RTVSPropertyOp13
 70
     1
102
RTVSPropertyOp14
 70
     1
102
RTVSPropertyOp15
 70
     1
102
RTVSPropertyOp16
 70
     1
102
RTVSPropertyOp17
 70
     1
102
RTVSPropertyOp18
 70
     1
102
RTVSPropertyOp19
 70
     1
102
RTVSPropertyOp20
 70
     1
102
RTVSPropertyOp21
 70
     1
102
RTVSPropertyOp22
 70
     1
102
RTVSPropertyOp23
 70
     1
102
RTVSPropertyOp24
 70
     1
102
RTVSPropertyOp25
 70
     1
102
RTVSPropertyOp26
 70
     1
102
RTVSPropertyOp27
 70
     1
102
RTVSPropertyOp28
 70
     1
102
RTVSPropertyOp29
 70
     1
102
RTVSPropertyOp30
 70
     1
102
RTVSPropertyOp31
 70
     1
102
RTVSPropertyOp32
 70
     1
102
RTVSPropertyOp33
 70
     1
102
RTVSPropertyOp34
 70
     1
102
RTVSPropertyOp35
 70
     1
102
RTVSPropertyOp36
 70
     1
102
RTVSPropertyOp37
 70
     1
102
RTVSPropertyOp38
 70
     1
102
RTVSPropertyOp39
 70
     1
102
RTVSPropertyOp40
 70
     1
102
RTVSPropertyOp41
 70
     1
102
RTVSPropertyOp42
 70
     1
102
RTVSPropertyOp43
 70
     1
102
RTVSPropertyOp44
 70
     1
102
RTVSPropertyOp45
 70
     1
102
RTVSPropertyOp46
 70
     1
102
RTVSPropertyOp47
 70
     1
102
RTVSPropertyOp48
 70
     1
102
RTVSPropertyOp49
 70
     1
102
RTVSPropertyOp50
 70
     1
102
RTVSPropertyOp51
 70
     0
102
RTVSPropertyOp52
 70
     0
102
RTVSPropertyOp53
 70
     1
102
RTVSPropertyOp54
 70
     1
102
RTVSPropertyOp55
 70
     1
102
RTVSPropertyOp56
 70
     1
102
RTVSPropertyOp57
 70
     1
102
RTVSPost2010Prop28
280
     1
102
RTVSPost2010PropOp28
 70
     1
102
RTVSPost2010Prop29
280
     1
102
RTVSPost2010PropOp29
 70
     1
102
RTVSPost2010Prop30
280
     0
102
RTVSPost2010PropOp30
 70
     1
102
RTVSPost2010Prop31
280
     0
102
RTVSPost2010PropOp31
 70
     1
102
RTVSPost2010Prop32
280
     0
102
RTVSPost2010PropOp32
 70
     1
102
RTVSPost2010Prop33
280
     0
102
RTVSPost2010PropOp33
 70
     1
102
RTVSPost2010Prop34
280
     0
102
RTVSPost2010PropOp34
 70
     1
102
RTVSPost2010Prop35
280
     0
102
RTVSPost2010PropOp35
 70
     1
102
RTVSPost2010Prop36
280
     0
102
RTVSPost2010PropOp36
 70
     1
102
RTVSPost2010Prop37
 90
       50
102
RTVSPost2010PropOp37
 70
     1
102
RTVSPost2010Prop38
140
0.0
102
RTVSPost2010PropOp38
 70
     1
102
RTVSPost2010Prop39
140
1.0
102
RTVSPost2010PropOp39
 70
     1
102
RTVSPost2010Prop40
 90
        0
102
RTVSPost2010PropOp40
 70
     1
102
RTVSPost2010Prop41ColorIndex
 90
       18
102
RTVSPost2010Prop41ColorRGB
 90
        0
102
RTVSPost2010PropOp41
 70
     1
102
RTVSPost2010Prop42
 90
       50
102
RTVSPost2010PropOp42
 70
     1
102
RTVSPost2010Prop43
 90
        3
102
RTVSPost2010PropOp43
 70
     1
102
RTVSPost2010Prop44ColorIndex
 90
        5
102
RTVSPost2010Prop44ColorRGB
 90
      255
102
RTVSPost2010PropOp44
 70
     1
102
RTVSPost2010Prop45
280
     0
102
RTVSPost2010PropOp45
 70
     1
102
RTVSPost2010Prop46
 90
       50
102
RTVSPost2010PropOp46
 70
     1
102
RTVSPost2010Prop47
 90
       50
102
RTVSPost2010PropOp47
 70
     1
102
RTVSPost2010Prop48
 90
       50
102
RTVSPost2010PropOp48
 70
     1
102
RTVSPost2010Prop49
280
     0
102
RTVSPost2010PropOp49
 70
     1
102
RTVSPost2010Prop50
 90
       50
102
RTVSPost2010PropOp50
 70
     1
102
RTVSPost2010Prop51ColorIndex
 90
      256
102
RTVSPost2010Prop51ColorRGB
 90
-16777216
102
RTVSPost2010PropOp51
 70
     0
102
RTVSPost2010Prop52
140
1.0
102
RTVSPost2010PropOp52
 70
     0
102
RTVSPost2010Prop53
 90
        2
102
RTVSPost2010PropOp53
 70
     1
102
RTVSPost2010Prop54
  1
strokes_ogs.tif
102
RTVSPost2010PropOp54
 70
     1
102
RTVSPost2010Prop55
280
     0
102
RTVSPost2010PropOp55
 70
     1
102
RTVSPost2010Prop56
140
1.0
102
RTVSPost2010PropOp56
 70
     1
102
RTVSPost2010Prop57
140
1.0
102
RTVSPost2010PropOp57
 70
     1
  0
XRECORD
  5
515
102
{ACAD_REACTORS
330
514
102
}
330
514
100
AcDbXrecord
280
     1
102
RTVSPropertyOp0
 70
     1
102
RTVSPropertyOp1
 70
     1
102
RTVSPropertyOp2
 70
     1
102
RTVSPropertyOp3
 70
     1
102
RTVSPropertyOp4
 70
     1
102
RTVSPropertyOp5
 70
     1
102
RTVSPropertyOp6
 70
     1
102
RTVSPropertyOp7
 70
     1
102
RTVSPropertyOp8
 70
     1
102
RTVSPropertyOp9
 70
     1
102
RTVSPropertyOp10
 70
     1
102
RTVSPropertyOp11
 70
     1
102
RTVSPropertyOp12
 70
     1
102
RTVSPropertyOp13
 70
     1
102
RTVSPropertyOp14
 70
     1
102
RTVSPropertyOp15
 70
     1
102
RTVSPropertyOp16
 70
     1
102
RTVSPropertyOp17
 70
     1
102
RTVSPropertyOp18
 70
     1
102
RTVSPropertyOp19
 70
     1
102
RTVSPropertyOp20
 70
     1
102
RTVSPropertyOp21
 70
     1
102
RTVSPropertyOp22
 70
     1
102
RTVSPropertyOp23
 70
     1
102
RTVSPropertyOp24
 70
     1
102
RTVSPropertyOp25
 70
     1
102
RTVSPropertyOp26
 70
     1
102
RTVSPropertyOp27
 70
     1
102
RTVSPropertyOp28
 70
     1
102
RTVSPropertyOp29
 70
     1
102
RTVSPropertyOp30
 70
     1
102
RTVSPropertyOp31
 70
     1
102
RTVSPropertyOp32
 70
     1
102
RTVSPropertyOp33
 70
     1
102
RTVSPropertyOp34
 70
     1
102
RTVSPropertyOp35
 70
     1
102
RTVSPropertyOp36
 70
     1
102
RTVSPropertyOp37
 70
     1
102
RTVSPropertyOp38
 70
     1
102
RTVSPropertyOp39
 70
     1
102
RTVSPropertyOp40
 70
     1
102
RTVSPropertyOp41
 70
     1
102
RTVSPropertyOp42
 70
     1
102
RTVSPropertyOp43
 70
     1
102
RTVSPropertyOp44
 70
     1
102
RTVSPropertyOp45
 70
     1
102
RTVSPropertyOp46
 70
     1
102
RTVSPropertyOp47
 70
     1
102
RTVSPropertyOp48
 70
     1
102
RTVSPropertyOp49
 70
     1
102
RTVSPropertyOp50
 70
     1
102
RTVSPropertyOp51
 70
     0
102
RTVSPropertyOp52
 70
     0
102
RTVSPropertyOp53
 70
     1
102
RTVSPropertyOp54
 70
     1
102
RTVSPropertyOp55
 70
     1
102
RTVSPropertyOp56
 70
     1
102
RTVSPropertyOp57
 70
     1
102
RTVSPost2010Prop28
280
     0
102
RTVSPost2010PropOp28
 70
     1
102
RTVSPost2010Prop29
280
     1
102
RTVSPost2010PropOp29
 70
     1
102
RTVSPost2010Prop30
280
     1
102
RTVSPost2010PropOp30
 70
     1
102
RTVSPost2010Prop31
280
     0
102
RTVSPost2010PropOp31
 70
     1
102
RTVSPost2010Prop32
280
     0
102
RTVSPost2010PropOp32
 70
     1
102
RTVSPost2010Prop33
280
     0
102
RTVSPost2010PropOp33
 70
     1
102
RTVSPost2010Prop34
280
     0
102
RTVSPost2010PropOp34
 70
     1
102
RTVSPost2010Prop35
280
     0
102
RTVSPost2010PropOp35
 70
     1
102
RTVSPost2010Prop36
280
     0
102
RTVSPost2010PropOp36
 70
     1
102
RTVSPost2010Prop37
 90
       50
102
RTVSPost2010PropOp37
 70
     1
102
RTVSPost2010Prop38
140
0.0
102
RTVSPost2010PropOp38
 70
     1
102
RTVSPost2010Prop39
140
1.0
102
RTVSPost2010PropOp39
 70
     1
102
RTVSPost2010Prop40
 90
        0
102
RTVSPost2010PropOp40
 70
     1
102
RTVSPost2010Prop41ColorIndex
 90
       18
102
RTVSPost2010Prop41ColorRGB
 90
        0
102
RTVSPost2010PropOp41
 70
     1
102
RTVSPost2010Prop42
 90
       50
102
RTVSPost2010PropOp42
 70
     1
102
RTVSPost2010Prop43
 90
        3
102
RTVSPost2010PropOp43
 70
     1
102
RTVSPost2010Prop44ColorIndex
 90
        5
102
RTVSPost2010Prop44ColorRGB
 90
      255
102
RTVSPost2010PropOp44
 70
     1
102
RTVSPost2010Prop45
280
     0
102
RTVSPost2010PropOp45
 70
     1
102
RTVSPost2010Prop46
 90
       50
102
RTVSPost2010PropOp46
 70
     1
102
RTVSPost2010Prop47
 90
       50
102
RTVSPost2010PropOp47
 70
     1
102
RTVSPost2010Prop48
 90
       50
102
RTVSPost2010PropOp48
 70
     1
102
RTVSPost2010Prop49
280
     0
102
RTVSPost2010PropOp49
 70
     1
102
RTVSPost2010Prop50
 90
       50
102
RTVSPost2010PropOp50
 70
     1
102
RTVSPost2010Prop51ColorIndex
 90
      256
102
RTVSPost2010Prop51ColorRGB
 90
-16777216
102
RTVSPost2010PropOp51
 70
     0
102
RTVSPost2010Prop52
140
1.0
102
RTVSPost2010PropOp52
 70
     0
102
RTVSPost2010Prop53
 90
        2
102
RTVSPost2010PropOp53
 70
     1
102
RTVSPost2010Prop54
  1
strokes_ogs.tif
102
RTVSPost2010PropOp54
 70
     1
102
RTVSPost2010Prop55
280
     0
102
RTVSPost2010PropOp55
 70
     1
102
RTVSPost2010Prop56
140
1.0
102
RTVSPost2010PropOp56
 70
     1
102
RTVSPost2010Prop57
140
1.0
102
RTVSPost2010PropOp57
 70
     1
  0
XRECORD
  5
51D
102
{ACAD_REACTORS
330
51C
102
}
330
51C
100
AcDbXrecord
280
     1
102
RTVSPropertyOp0
 70
     1
102
RTVSPropertyOp1
 70
     1
102
RTVSPropertyOp2
 70
     1
102
RTVSPropertyOp3
 70
     1
102
RTVSPropertyOp4
 70
     1
102
RTVSPropertyOp5
 70
     1
102
RTVSPropertyOp6
 70
     1
102
RTVSPropertyOp7
 70
     1
102
RTVSPropertyOp8
 70
     1
102
RTVSPropertyOp9
 70
     1
102
RTVSPropertyOp10
 70
     1
102
RTVSPropertyOp11
 70
     1
102
RTVSPropertyOp12
 70
     1
102
RTVSPropertyOp13
 70
     1
102
RTVSPropertyOp14
 70
     1
102
RTVSPropertyOp15
 70
     1
102
RTVSPropertyOp16
 70
     1
102
RTVSPropertyOp17
 70
     1
102
RTVSPropertyOp18
 70
     1
102
RTVSPropertyOp19
 70
     1
102
RTVSPropertyOp20
 70
     1
102
RTVSPropertyOp21
 70
     1
102
RTVSPropertyOp22
 70
     1
102
RTVSPropertyOp23
 70
     1
102
RTVSPropertyOp24
 70
     1
102
RTVSPropertyOp25
 70
     1
102
RTVSPropertyOp26
 70
     1
102
RTVSPropertyOp27
 70
     1
102
RTVSPropertyOp28
 70
     1
102
RTVSPropertyOp29
 70
     1
102
RTVSPropertyOp30
 70
     1
102
RTVSPropertyOp31
 70
     1
102
RTVSPropertyOp32
 70
     1
102
RTVSPropertyOp33
 70
     1
102
RTVSPropertyOp34
 70
     1
102
RTVSPropertyOp35
 70
     1
102
RTVSPropertyOp36
 70
     1
102
RTVSPropertyOp37
 70
     1
102
RTVSPropertyOp38
 70
     1
102
RTVSPropertyOp39
 70
     1
102
RTVSPropertyOp40
 70
     1
102
RTVSPropertyOp41
 70
     1
102
RTVSPropertyOp42
 70
     1
102
RTVSPropertyOp43
 70
     1
102
RTVSPropertyOp44
 70
     1
102
RTVSPropertyOp45
 70
     1
102
RTVSPropertyOp46
 70
     1
102
RTVSPropertyOp47
 70
     1
102
RTVSPropertyOp48
 70
     1
102
RTVSPropertyOp49
 70
     1
102
RTVSPropertyOp50
 70
     1
102
RTVSPropertyOp51
 70
     0
102
RTVSPropertyOp52
 70
     0
102
RTVSPropertyOp53
 70
     1
102
RTVSPropertyOp54
 70
     1
102
RTVSPropertyOp55
 70
     1
102
RTVSPropertyOp56
 70
     1
102
RTVSPropertyOp57
 70
     1
102
RTVSPost2010Prop28
280
     0
102
RTVSPost2010PropOp28
 70
     1
102
RTVSPost2010Prop29
280
     1
102
RTVSPost2010PropOp29
 70
     1
102
RTVSPost2010Prop30
280
     1
102
RTVSPost2010PropOp30
 70
     1
102
RTVSPost2010Prop31
280
     0
102
RTVSPost2010PropOp31
 70
     1
102
RTVSPost2010Prop32
280
     0
102
RTVSPost2010PropOp32
 70
     1
102
RTVSPost2010Prop33
280
     0
102
RTVSPost2010PropOp33
 70
     1
102
RTVSPost2010Prop34
280
     0
102
RTVSPost2010PropOp34
 70
     1
102
RTVSPost2010Prop35
280
     0
102
RTVSPost2010PropOp35
 70
     1
102
RTVSPost2010Prop36
280
     0
102
RTVSPost2010PropOp36
 70
     1
102
RTVSPost2010Prop37
 90
       50
102
RTVSPost2010PropOp37
 70
     1
102
RTVSPost2010Prop38
140
0.0
102
RTVSPost2010PropOp38
 70
     1
102
RTVSPost2010Prop39
140
1.0
102
RTVSPost2010PropOp39
 70
     1
102
RTVSPost2010Prop40
 90
        0
102
RTVSPost2010PropOp40
 70
     1
102
RTVSPost2010Prop41ColorIndex
 90
       18
102
RTVSPost2010Prop41ColorRGB
 90
        0
102
RTVSPost2010PropOp41
 70
     1
102
RTVSPost2010Prop42
 90
       50
102
RTVSPost2010PropOp42
 70
     1
102
RTVSPost2010Prop43
 90
        3
102
RTVSPost2010PropOp43
 70
     1
102
RTVSPost2010Prop44ColorIndex
 90
        5
102
RTVSPost2010Prop44ColorRGB
 90
      255
102
RTVSPost2010PropOp44
 70
     1
102
RTVSPost2010Prop45
280
     0
102
RTVSPost2010PropOp45
 70
     1
102
RTVSPost2010Prop46
 90
       50
102
RTVSPost2010PropOp46
 70
     1
102
RTVSPost2010Prop47
 90
       50
102
RTVSPost2010PropOp47
 70
     1
102
RTVSPost2010Prop48
 90
       50
102
RTVSPost2010PropOp48
 70
     1
102
RTVSPost2010Prop49
280
     0
102
RTVSPost2010PropOp49
 70
     1
102
RTVSPost2010Prop50
 90
       50
102
RTVSPost2010PropOp50
 70
     1
102
RTVSPost2010Prop51ColorIndex
 90
      256
102
RTVSPost2010Prop51ColorRGB
 90
-16777216
102
RTVSPost2010PropOp51
 70
     0
102
RTVSPost2010Prop52
140
1.0
102
RTVSPost2010PropOp52
 70
     0
102
RTVSPost2010Prop53
 90
        2
102
RTVSPost2010PropOp53
 70
     1
102
RTVSPost2010Prop54
  1
strokes_ogs.tif
102
RTVSPost2010PropOp54
 70
     1
102
RTVSPost2010Prop55
280
     0
102
RTVSPost2010PropOp55
 70
     1
102
RTVSPost2010Prop56
140
1.0
102
RTVSPost2010PropOp56
 70
     1
102
RTVSPost2010Prop57
140
1.0
102
RTVSPost2010PropOp57
 70
     1
  0
XRECORD
  5
525
102
{ACAD_REACTORS
330
524
102
}
330
524
100
AcDbXrecord
280
     1
102
RTVSPropertyOp0
 70
     1
102
RTVSPropertyOp1
 70
     1
102
RTVSPropertyOp2
 70
     1
102
RTVSPropertyOp3
 70
     1
102
RTVSPropertyOp4
 70
     1
102
RTVSPropertyOp5
 70
     1
102
RTVSPropertyOp6
 70
     1
102
RTVSPropertyOp7
 70
     1
102
RTVSPropertyOp8
 70
     1
102
RTVSPropertyOp9
 70
     1
102
RTVSPropertyOp10
 70
     1
102
RTVSPropertyOp11
 70
     1
102
RTVSPropertyOp12
 70
     1
102
RTVSPropertyOp13
 70
     1
102
RTVSPropertyOp14
 70
     1
102
RTVSPropertyOp15
 70
     1
102
RTVSPropertyOp16
 70
     1
102
RTVSPropertyOp17
 70
     1
102
RTVSPropertyOp18
 70
     1
102
RTVSPropertyOp19
 70
     1
102
RTVSPropertyOp20
 70
     1
102
RTVSPropertyOp21
 70
     1
102
RTVSPropertyOp22
 70
     1
102
RTVSPropertyOp23
 70
     1
102
RTVSPropertyOp24
 70
     1
102
RTVSPropertyOp25
 70
     1
102
RTVSPropertyOp26
 70
     1
102
RTVSPropertyOp27
 70
     1
102
RTVSPropertyOp28
 70
     1
102
RTVSPropertyOp29
 70
     1
102
RTVSPropertyOp30
 70
     1
102
RTVSPropertyOp31
 70
     1
102
RTVSPropertyOp32
 70
     1
102
RTVSPropertyOp33
 70
     1
102
RTVSPropertyOp34
 70
     1
102
RTVSPropertyOp35
 70
     1
102
RTVSPropertyOp36
 70
     1
102
RTVSPropertyOp37
 70
     1
102
RTVSPropertyOp38
 70
     1
102
RTVSPropertyOp39
 70
     1
102
RTVSPropertyOp40
 70
     1
102
RTVSPropertyOp41
 70
     1
102
RTVSPropertyOp42
 70
     1
102
RTVSPropertyOp43
 70
     1
102
RTVSPropertyOp44
 70
     1
102
RTVSPropertyOp45
 70
     1
102
RTVSPropertyOp46
 70
     1
102
RTVSPropertyOp47
 70
     1
102
RTVSPropertyOp48
 70
     1
102
RTVSPropertyOp49
 70
     1
102
RTVSPropertyOp50
 70
     1
102
RTVSPropertyOp51
 70
     0
102
RTVSPropertyOp52
 70
     0
102
RTVSPropertyOp53
 70
     1
102
RTVSPropertyOp54
 70
     1
102
RTVSPropertyOp55
 70
     1
102
RTVSPropertyOp56
 70
     1
102
RTVSPropertyOp57
 70
     1
102
RTVSPost2010Prop28
280
     0
102
RTVSPost2010PropOp28
 70
     1
102
RTVSPost2010Prop29
280
     1
102
RTVSPost2010PropOp29
 70
     1
102
RTVSPost2010Prop30
280
     1
102
RTVSPost2010PropOp30
 70
     1
102
RTVSPost2010Prop31
280
     0
102
RTVSPost2010PropOp31
 70
     1
102
RTVSPost2010Prop32
280
     0
102
RTVSPost2010PropOp32
 70
     1
102
RTVSPost2010Prop33
280
     0
102
RTVSPost2010PropOp33
 70
     1
102
RTVSPost2010Prop34
280
     0
102
RTVSPost2010PropOp34
 70
     1
102
RTVSPost2010Prop35
280
     0
102
RTVSPost2010PropOp35
 70
     1
102
RTVSPost2010Prop36
280
     0
102
RTVSPost2010PropOp36
 70
     1
102
RTVSPost2010Prop37
 90
       50
102
RTVSPost2010PropOp37
 70
     1
102
RTVSPost2010Prop38
140
0.0
102
RTVSPost2010PropOp38
 70
     1
102
RTVSPost2010Prop39
140
1.0
102
RTVSPost2010PropOp39
 70
     1
102
RTVSPost2010Prop40
 90
        0
102
RTVSPost2010PropOp40
 70
     1
102
RTVSPost2010Prop41ColorIndex
 90
       18
102
RTVSPost2010Prop41ColorRGB
 90
        0
102
RTVSPost2010PropOp41
 70
     1
102
RTVSPost2010Prop42
 90
       50
102
RTVSPost2010PropOp42
 70
     1
102
RTVSPost2010Prop43
 90
        3
102
RTVSPost2010PropOp43
 70
     1
102
RTVSPost2010Prop44ColorIndex
 90
        5
102
RTVSPost2010Prop44ColorRGB
 90
      255
102
RTVSPost2010PropOp44
 70
     1
102
RTVSPost2010Prop45
280
     0
102
RTVSPost2010PropOp45
 70
     1
102
RTVSPost2010Prop46
 90
       50
102
RTVSPost2010PropOp46
 70
     1
102
RTVSPost2010Prop47
 90
       50
102
RTVSPost2010PropOp47
 70
     1
102
RTVSPost2010Prop48
 90
       50
102
RTVSPost2010PropOp48
 70
     1
102
RTVSPost2010Prop49
280
     0
102
RTVSPost2010PropOp49
 70
     1
102
RTVSPost2010Prop50
 90
       50
102
RTVSPost2010PropOp50
 70
     1
102
RTVSPost2010Prop51ColorIndex
 90
      256
102
RTVSPost2010Prop51ColorRGB
 90
-16777216
102
RTVSPost2010PropOp51
 70
     0
102
RTVSPost2010Prop52
140
1.0
102
RTVSPost2010PropOp52
 70
     0
102
RTVSPost2010Prop53
 90
        2
102
RTVSPost2010PropOp53
 70
     1
102
RTVSPost2010Prop54
  1
strokes_ogs.tif
102
RTVSPost2010PropOp54
 70
     1
102
RTVSPost2010Prop55
280
     0
102
RTVSPost2010PropOp55
 70
     1
102
RTVSPost2010Prop56
140
1.0
102
RTVSPost2010PropOp56
 70
     1
102
RTVSPost2010Prop57
140
1.0
102
RTVSPost2010PropOp57
 70
     1
  0
XRECORD
  5
519
102
{ACAD_REACTORS
330
518
102
}
330
518
100
AcDbXrecord
280
     1
102
RTVSPropertyOp0
 70
     1
102
RTVSPropertyOp1
 70
     1
102
RTVSPropertyOp2
 70
     1
102
RTVSPropertyOp3
 70
     1
102
RTVSPropertyOp4
 70
     1
102
RTVSPropertyOp5
 70
     1
102
RTVSPropertyOp6
 70
     1
102
RTVSPropertyOp7
 70
     1
102
RTVSPropertyOp8
 70
     1
102
RTVSPropertyOp9
 70
     1
102
RTVSPropertyOp10
 70
     1
102
RTVSPropertyOp11
 70
     1
102
RTVSPropertyOp12
 70
     1
102
RTVSPropertyOp13
 70
     1
102
RTVSPropertyOp14
 70
     1
102
RTVSPropertyOp15
 70
     1
102
RTVSPropertyOp16
 70
     1
102
RTVSPropertyOp17
 70
     1
102
RTVSPropertyOp18
 70
     1
102
RTVSPropertyOp19
 70
     1
102
RTVSPropertyOp20
 70
     1
102
RTVSPropertyOp21
 70
     1
102
RTVSPropertyOp22
 70
     1
102
RTVSPropertyOp23
 70
     1
102
RTVSPropertyOp24
 70
     1
102
RTVSPropertyOp25
 70
     1
102
RTVSPropertyOp26
 70
     1
102
RTVSPropertyOp27
 70
     1
102
RTVSPropertyOp28
 70
     1
102
RTVSPropertyOp29
 70
     1
102
RTVSPropertyOp30
 70
     1
102
RTVSPropertyOp31
 70
     1
102
RTVSPropertyOp32
 70
     1
102
RTVSPropertyOp33
 70
     1
102
RTVSPropertyOp34
 70
     1
102
RTVSPropertyOp35
 70
     1
102
RTVSPropertyOp36
 70
     1
102
RTVSPropertyOp37
 70
     1
102
RTVSPropertyOp38
 70
     1
102
RTVSPropertyOp39
 70
     1
102
RTVSPropertyOp40
 70
     1
102
RTVSPropertyOp41
 70
     1
102
RTVSPropertyOp42
 70
     1
102
RTVSPropertyOp43
 70
     1
102
RTVSPropertyOp44
 70
     1
102
RTVSPropertyOp45
 70
     1
102
RTVSPropertyOp46
 70
     1
102
RTVSPropertyOp47
 70
     1
102
RTVSPropertyOp48
 70
     1
102
RTVSPropertyOp49
 70
     1
102
RTVSPropertyOp50
 70
     1
102
RTVSPropertyOp51
 70
     0
102
RTVSPropertyOp52
 70
     0
102
RTVSPropertyOp53
 70
     1
102
RTVSPropertyOp54
 70
     1
102
RTVSPropertyOp55
 70
     1
102
RTVSPropertyOp56
 70
     1
102
RTVSPropertyOp57
 70
     1
102
RTVSPost2010Prop28
280
     0
102
RTVSPost2010PropOp28
 70
     1
102
RTVSPost2010Prop29
280
     1
102
RTVSPost2010PropOp29
 70
     1
102
RTVSPost2010Prop30
280
     1
102
RTVSPost2010PropOp30
 70
     1
102
RTVSPost2010Prop31
280
     0
102
RTVSPost2010PropOp31
 70
     1
102
RTVSPost2010Prop32
280
     0
102
RTVSPost2010PropOp32
 70
     1
102
RTVSPost2010Prop33
280
     0
102
RTVSPost2010PropOp33
 70
     1
102
RTVSPost2010Prop34
280
     0
102
RTVSPost2010PropOp34
 70
     1
102
RTVSPost2010Prop35
280
     0
102
RTVSPost2010PropOp35
 70
     1
102
RTVSPost2010Prop36
280
     0
102
RTVSPost2010PropOp36
 70
     1
102
RTVSPost2010Prop37
 90
       50
102
RTVSPost2010PropOp37
 70
     1
102
RTVSPost2010Prop38
140
0.0
102
RTVSPost2010PropOp38
 70
     1
102
RTVSPost2010Prop39
140
1.0
102
RTVSPost2010PropOp39
 70
     1
102
RTVSPost2010Prop40
 90
        0
102
RTVSPost2010PropOp40
 70
     1
102
RTVSPost2010Prop41ColorIndex
 90
       18
102
RTVSPost2010Prop41ColorRGB
 90
        0
102
RTVSPost2010PropOp41
 70
     1
102
RTVSPost2010Prop42
 90
       50
102
RTVSPost2010PropOp42
 70
     1
102
RTVSPost2010Prop43
 90
        3
102
RTVSPost2010PropOp43
 70
     1
102
RTVSPost2010Prop44ColorIndex
 90
        5
102
RTVSPost2010Prop44ColorRGB
 90
      255
102
RTVSPost2010PropOp44
 70
     1
102
RTVSPost2010Prop45
280
     0
102
RTVSPost2010PropOp45
 70
     1
102
RTVSPost2010Prop46
 90
       50
102
RTVSPost2010PropOp46
 70
     1
102
RTVSPost2010Prop47
 90
       50
102
RTVSPost2010PropOp47
 70
     1
102
RTVSPost2010Prop48
 90
       50
102
RTVSPost2010PropOp48
 70
     1
102
RTVSPost2010Prop49
280
     0
102
RTVSPost2010PropOp49
 70
     1
102
RTVSPost2010Prop50
 90
       50
102
RTVSPost2010PropOp50
 70
     1
102
RTVSPost2010Prop51ColorIndex
 90
      256
102
RTVSPost2010Prop51ColorRGB
 90
-16777216
102
RTVSPost2010PropOp51
 70
     0
102
RTVSPost2010Prop52
140
1.0
102
RTVSPost2010PropOp52
 70
     0
102
RTVSPost2010Prop53
 90
        2
102
RTVSPost2010PropOp53
 70
     1
102
RTVSPost2010Prop54
  1
strokes_ogs.tif
102
RTVSPost2010PropOp54
 70
     1
102
RTVSPost2010Prop55
280
     0
102
RTVSPost2010PropOp55
 70
     1
102
RTVSPost2010Prop56
140
1.0
102
RTVSPost2010PropOp56
 70
     1
102
RTVSPost2010Prop57
140
1.0
102
RTVSPost2010PropOp57
 70
     1
  0
XRECORD
  5
51B
102
{ACAD_REACTORS
330
51A
102
}
330
51A
100
AcDbXrecord
280
     1
102
RTVSPropertyOp0
 70
     1
102
RTVSPropertyOp1
 70
     1
102
RTVSPropertyOp2
 70
     1
102
RTVSPropertyOp3
 70
     1
102
RTVSPropertyOp4
 70
     1
102
RTVSPropertyOp5
 70
     1
102
RTVSPropertyOp6
 70
     1
102
RTVSPropertyOp7
 70
     1
102
RTVSPropertyOp8
 70
     1
102
RTVSPropertyOp9
 70
     1
102
RTVSPropertyOp10
 70
     1
102
RTVSPropertyOp11
 70
     1
102
RTVSPropertyOp12
 70
     1
102
RTVSPropertyOp13
 70
     1
102
RTVSPropertyOp14
 70
     1
102
RTVSPropertyOp15
 70
     1
102
RTVSPropertyOp16
 70
     1
102
RTVSPropertyOp17
 70
     1
102
RTVSPropertyOp18
 70
     1
102
RTVSPropertyOp19
 70
     1
102
RTVSPropertyOp20
 70
     1
102
RTVSPropertyOp21
 70
     1
102
RTVSPropertyOp22
 70
     1
102
RTVSPropertyOp23
 70
     1
102
RTVSPropertyOp24
 70
     1
102
RTVSPropertyOp25
 70
     1
102
RTVSPropertyOp26
 70
     1
102
RTVSPropertyOp27
 70
     1
102
RTVSPropertyOp28
 70
     1
102
RTVSPropertyOp29
 70
     1
102
RTVSPropertyOp30
 70
     1
102
RTVSPropertyOp31
 70
     1
102
RTVSPropertyOp32
 70
     1
102
RTVSPropertyOp33
 70
     1
102
RTVSPropertyOp34
 70
     1
102
RTVSPropertyOp35
 70
     1
102
RTVSPropertyOp36
 70
     1
102
RTVSPropertyOp37
 70
     1
102
RTVSPropertyOp38
 70
     1
102
RTVSPropertyOp39
 70
     1
102
RTVSPropertyOp40
 70
     1
102
RTVSPropertyOp41
 70
     1
102
RTVSPropertyOp42
 70
     1
102
RTVSPropertyOp43
 70
     1
102
RTVSPropertyOp44
 70
     1
102
RTVSPropertyOp45
 70
     1
102
RTVSPropertyOp46
 70
     1
102
RTVSPropertyOp47
 70
     1
102
RTVSPropertyOp48
 70
     1
102
RTVSPropertyOp49
 70
     1
102
RTVSPropertyOp50
 70
     1
102
RTVSPropertyOp51
 70
     0
102
RTVSPropertyOp52
 70
     0
102
RTVSPropertyOp53
 70
     1
102
RTVSPropertyOp54
 70
     1
102
RTVSPropertyOp55
 70
     1
102
RTVSPropertyOp56
 70
     1
102
RTVSPropertyOp57
 70
     1
102
RTVSPost2010Prop28
280
     0
102
RTVSPost2010PropOp28
 70
     1
102
RTVSPost2010Prop29
280
     1
102
RTVSPost2010PropOp29
 70
     1
102
RTVSPost2010Prop30
280
     1
102
RTVSPost2010PropOp30
 70
     1
102
RTVSPost2010Prop31
280
     0
102
RTVSPost2010PropOp31
 70
     1
102
RTVSPost2010Prop32
280
     0
102
RTVSPost2010PropOp32
 70
     1
102
RTVSPost2010Prop33
280
     0
102
RTVSPost2010PropOp33
 70
     1
102
RTVSPost2010Prop34
280
     0
102
RTVSPost2010PropOp34
 70
     1
102
RTVSPost2010Prop35
280
     0
102
RTVSPost2010PropOp35
 70
     1
102
RTVSPost2010Prop36
280
     0
102
RTVSPost2010PropOp36
 70
     1
102
RTVSPost2010Prop37
 90
       50
102
RTVSPost2010PropOp37
 70
     1
102
RTVSPost2010Prop38
140
0.0
102
RTVSPost2010PropOp38
 70
     1
102
RTVSPost2010Prop39
140
1.0
102
RTVSPost2010PropOp39
 70
     1
102
RTVSPost2010Prop40
 90
        0
102
RTVSPost2010PropOp40
 70
     1
102
RTVSPost2010Prop41ColorIndex
 90
       18
102
RTVSPost2010Prop41ColorRGB
 90
        0
102
RTVSPost2010PropOp41
 70
     1
102
RTVSPost2010Prop42
 90
       50
102
RTVSPost2010PropOp42
 70
     1
102
RTVSPost2010Prop43
 90
        3
102
RTVSPost2010PropOp43
 70
     1
102
RTVSPost2010Prop44ColorIndex
 90
        5
102
RTVSPost2010Prop44ColorRGB
 90
      255
102
RTVSPost2010PropOp44
 70
     1
102
RTVSPost2010Prop45
280
     0
102
RTVSPost2010PropOp45
 70
     1
102
RTVSPost2010Prop46
 90
       50
102
RTVSPost2010PropOp46
 70
     1
102
RTVSPost2010Prop47
 90
       50
102
RTVSPost2010PropOp47
 70
     1
102
RTVSPost2010Prop48
 90
       50
102
RTVSPost2010PropOp48
 70
     1
102
RTVSPost2010Prop49
280
     0
102
RTVSPost2010PropOp49
 70
     1
102
RTVSPost2010Prop50
 90
       50
102
RTVSPost2010PropOp50
 70
     1
102
RTVSPost2010Prop51ColorIndex
 90
      256
102
RTVSPost2010Prop51ColorRGB
 90
-16777216
102
RTVSPost2010PropOp51
 70
     0
102
RTVSPost2010Prop52
140
1.0
102
RTVSPost2010PropOp52
 70
     0
102
RTVSPost2010Prop53
 90
        2
102
RTVSPost2010PropOp53
 70
     1
102
RTVSPost2010Prop54
  1
strokes_ogs.tif
102
RTVSPost2010PropOp54
 70
     1
102
RTVSPost2010Prop55
280
     0
102
RTVSPost2010PropOp55
 70
     1
102
RTVSPost2010Prop56
140
1.0
102
RTVSPost2010PropOp56
 70
     1
102
RTVSPost2010Prop57
140
1.0
102
RTVSPost2010PropOp57
 70
     1
  0
XRECORD
  5
52B
102
{ACAD_REACTORS
330
52A
102
}
330
52A
100
AcDbXrecord
280
     1
102
RTVSPropertyOp0
 70
     0
102
RTVSPropertyOp1
 70
     0
102
RTVSPropertyOp2
 70
     0
102
RTVSPropertyOp3
 70
     0
102
RTVSPropertyOp4
 70
     0
102
RTVSPropertyOp5
 70
     0
102
RTVSPropertyOp6
 70
     0
102
RTVSPropertyOp7
 70
     0
102
RTVSPropertyOp8
 70
     0
102
RTVSPropertyOp9
 70
     0
102
RTVSPropertyOp10
 70
     0
102
RTVSPropertyOp11
 70
     0
102
RTVSPropertyOp12
 70
     0
102
RTVSPropertyOp13
 70
     0
102
RTVSPropertyOp14
 70
     2
102
RTVSPropertyOp15
 70
     0
102
RTVSPropertyOp16
 70
     0
102
RTVSPropertyOp17
 70
     0
102
RTVSPropertyOp18
 70
     0
102
RTVSPropertyOp19
 70
     0
102
RTVSPropertyOp20
 70
     0
102
RTVSPropertyOp21
 70
     0
102
RTVSPropertyOp22
 70
     0
102
RTVSPropertyOp23
 70
     0
102
RTVSPropertyOp24
 70
     0
102
RTVSPropertyOp25
 70
     0
102
RTVSPropertyOp26
 70
     0
102
RTVSPropertyOp27
 70
     0
102
RTVSPropertyOp28
 70
     0
102
RTVSPropertyOp29
 70
     0
102
RTVSPropertyOp30
 70
     0
102
RTVSPropertyOp31
 70
     0
102
RTVSPropertyOp32
 70
     0
102
RTVSPropertyOp33
 70
     0
102
RTVSPropertyOp34
 70
     0
102
RTVSPropertyOp35
 70
     0
102
RTVSPropertyOp36
 70
     0
102
RTVSPropertyOp37
 70
     0
102
RTVSPropertyOp38
 70
     0
102
RTVSPropertyOp39
 70
     0
102
RTVSPropertyOp40
 70
     0
102
RTVSPropertyOp41
 70
     0
102
RTVSPropertyOp42
 70
     0
102
RTVSPropertyOp43
 70
     0
102
RTVSPropertyOp44
 70
     0
102
RTVSPropertyOp45
 70
     0
102
RTVSPropertyOp46
 70
     0
102
RTVSPropertyOp47
 70
     0
102
RTVSPropertyOp48
 70
     0
102
RTVSPropertyOp49
 70
     0
102
RTVSPropertyOp50
 70
     0
102
RTVSPropertyOp51
 70
     0
102
RTVSPropertyOp52
 70
     0
102
RTVSPropertyOp53
 70
     0
102
RTVSPropertyOp54
 70
     0
102
RTVSPropertyOp55
 70
     0
102
RTVSPropertyOp56
 70
     0
102
RTVSPropertyOp57
 70
     0
102
RTVSPost2010Prop28
280
     0
102
RTVSPost2010PropOp28
 70
     0
102
RTVSPost2010Prop29
280
     1
102
RTVSPost2010PropOp29
 70
     0
102
RTVSPost2010Prop30
280
     1
102
RTVSPost2010PropOp30
 70
     0
102
RTVSPost2010Prop31
280
     0
102
RTVSPost2010PropOp31
 70
     0
102
RTVSPost2010Prop32
280
     0
102
RTVSPost2010PropOp32
 70
     0
102
RTVSPost2010Prop33
280
     0
102
RTVSPost2010PropOp33
 70
     0
102
RTVSPost2010Prop34
280
     0
102
RTVSPost2010PropOp34
 70
     0
102
RTVSPost2010Prop35
280
     0
102
RTVSPost2010PropOp35
 70
     0
102
RTVSPost2010Prop36
280
     0
102
RTVSPost2010PropOp36
 70
     0
102
RTVSPost2010Prop37
 90
       50
102
RTVSPost2010PropOp37
 70
     0
102
RTVSPost2010Prop38
140
0.0
102
RTVSPost2010PropOp38
 70
     0
102
RTVSPost2010Prop39
140
1.0
102
RTVSPost2010PropOp39
 70
     0
102
RTVSPost2010Prop40
 90
        0
102
RTVSPost2010PropOp40
 70
     0
102
RTVSPost2010Prop41ColorIndex
 90
       18
102
RTVSPost2010Prop41ColorRGB
 90
        0
102
RTVSPost2010PropOp41
 70
     0
102
RTVSPost2010Prop42
 90
       50
102
RTVSPost2010PropOp42
 70
     0
102
RTVSPost2010Prop43
 90
        3
102
RTVSPost2010PropOp43
 70
     0
102
RTVSPost2010Prop44ColorIndex
 90
        5
102
RTVSPost2010Prop44ColorRGB
 90
      255
102
RTVSPost2010PropOp44
 70
     0
102
RTVSPost2010Prop45
280
     0
102
RTVSPost2010PropOp45
 70
     0
102
RTVSPost2010Prop46
 90
       50
102
RTVSPost2010PropOp46
 70
     0
102
RTVSPost2010Prop47
 90
       50
102
RTVSPost2010PropOp47
 70
     0
102
RTVSPost2010Prop48
 90
       50
102
RTVSPost2010PropOp48
 70
     0
102
RTVSPost2010Prop49
280
     0
102
RTVSPost2010PropOp49
 70
     0
102
RTVSPost2010Prop50
 90
       50
102
RTVSPost2010PropOp50
 70
     0
102
RTVSPost2010Prop51ColorIndex
 90
      256
102
RTVSPost2010Prop51ColorRGB
 90
-16777216
102
RTVSPost2010PropOp51
 70
     0
102
RTVSPost2010Prop52
140
1.0
102
RTVSPost2010PropOp52
 70
     0
102
RTVSPost2010Prop53
 90
        2
102
RTVSPost2010PropOp53
 70
     0
102
RTVSPost2010Prop54
  1
strokes_ogs.tif
102
RTVSPost2010PropOp54
 70
     0
102
RTVSPost2010Prop55
280
     0
102
RTVSPost2010PropOp55
 70
     0
102
RTVSPost2010Prop56
140
1.0
102
RTVSPost2010PropOp56
 70
     0
102
RTVSPost2010Prop57
140
1.0
102
RTVSPost2010PropOp57
 70
     0
  0
XRECORD
  5
523
102
{ACAD_REACTORS
330
522
102
}
330
522
100
AcDbXrecord
280
     1
102
RTVSPropertyOp0
 70
     1
102
RTVSPropertyOp1
 70
     1
102
RTVSPropertyOp2
 70
     1
102
RTVSPropertyOp3
 70
     1
102
RTVSPropertyOp4
 70
     1
102
RTVSPropertyOp5
 70
     1
102
RTVSPropertyOp6
 70
     1
102
RTVSPropertyOp7
 70
     1
102
RTVSPropertyOp8
 70
     1
102
RTVSPropertyOp9
 70
     1
102
RTVSPropertyOp10
 70
     1
102
RTVSPropertyOp11
 70
     1
102
RTVSPropertyOp12
 70
     1
102
RTVSPropertyOp13
 70
     1
102
RTVSPropertyOp14
 70
     1
102
RTVSPropertyOp15
 70
     1
102
RTVSPropertyOp16
 70
     1
102
RTVSPropertyOp17
 70
     1
102
RTVSPropertyOp18
 70
     1
102
RTVSPropertyOp19
 70
     1
102
RTVSPropertyOp20
 70
     1
102
RTVSPropertyOp21
 70
     1
102
RTVSPropertyOp22
 70
     1
102
RTVSPropertyOp23
 70
     1
102
RTVSPropertyOp24
 70
     1
102
RTVSPropertyOp25
 70
     1
102
RTVSPropertyOp26
 70
     1
102
RTVSPropertyOp27
 70
     1
102
RTVSPropertyOp28
 70
     1
102
RTVSPropertyOp29
 70
     1
102
RTVSPropertyOp30
 70
     1
102
RTVSPropertyOp31
 70
     1
102
RTVSPropertyOp32
 70
     1
102
RTVSPropertyOp33
 70
     1
102
RTVSPropertyOp34
 70
     1
102
RTVSPropertyOp35
 70
     1
102
RTVSPropertyOp36
 70
     1
102
RTVSPropertyOp37
 70
     1
102
RTVSPropertyOp38
 70
     1
102
RTVSPropertyOp39
 70
     1
102
RTVSPropertyOp40
 70
     1
102
RTVSPropertyOp41
 70
     1
102
RTVSPropertyOp42
 70
     1
102
RTVSPropertyOp43
 70
     1
102
RTVSPropertyOp44
 70
     1
102
RTVSPropertyOp45
 70
     1
102
RTVSPropertyOp46
 70
     1
102
RTVSPropertyOp47
 70
     1
102
RTVSPropertyOp48
 70
     1
102
RTVSPropertyOp49
 70
     1
102
RTVSPropertyOp50
 70
     1
102
RTVSPropertyOp51
 70
     0
102
RTVSPropertyOp52
 70
     0
102
RTVSPropertyOp53
 70
     1
102
RTVSPropertyOp54
 70
     1
102
RTVSPropertyOp55
 70
     1
102
RTVSPropertyOp56
 70
     1
102
RTVSPropertyOp57
 70
     1
102
RTVSPost2010Prop28
280
     0
102
RTVSPost2010PropOp28
 70
     1
102
RTVSPost2010Prop29
280
     1
102
RTVSPost2010PropOp29
 70
     1
102
RTVSPost2010Prop30
280
     1
102
RTVSPost2010PropOp30
 70
     1
102
RTVSPost2010Prop31
280
     0
102
RTVSPost2010PropOp31
 70
     1
102
RTVSPost2010Prop32
280
     0
102
RTVSPost2010PropOp32
 70
     1
102
RTVSPost2010Prop33
280
     0
102
RTVSPost2010PropOp33
 70
     1
102
RTVSPost2010Prop34
280
     0
102
RTVSPost2010PropOp34
 70
     1
102
RTVSPost2010Prop35
280
     0
102
RTVSPost2010PropOp35
 70
     1
102
RTVSPost2010Prop36
280
     0
102
RTVSPost2010PropOp36
 70
     1
102
RTVSPost2010Prop37
 90
       50
102
RTVSPost2010PropOp37
 70
     1
102
RTVSPost2010Prop38
140
0.0
102
RTVSPost2010PropOp38
 70
     1
102
RTVSPost2010Prop39
140
1.0
102
RTVSPost2010PropOp39
 70
     1
102
RTVSPost2010Prop40
 90
        0
102
RTVSPost2010PropOp40
 70
     1
102
RTVSPost2010Prop41ColorIndex
 90
       18
102
RTVSPost2010Prop41ColorRGB
 90
        0
102
RTVSPost2010PropOp41
 70
     1
102
RTVSPost2010Prop42
 90
       50
102
RTVSPost2010PropOp42
 70
     1
102
RTVSPost2010Prop43
 90
        3
102
RTVSPost2010PropOp43
 70
     1
102
RTVSPost2010Prop44ColorIndex
 90
        5
102
RTVSPost2010Prop44ColorRGB
 90
      255
102
RTVSPost2010PropOp44
 70
     1
102
RTVSPost2010Prop45
280
     0
102
RTVSPost2010PropOp45
 70
     1
102
RTVSPost2010Prop46
 90
       50
102
RTVSPost2010PropOp46
 70
     1
102
RTVSPost2010Prop47
 90
       50
102
RTVSPost2010PropOp47
 70
     1
102
RTVSPost2010Prop48
 90
       50
102
RTVSPost2010PropOp48
 70
     1
102
RTVSPost2010Prop49
280
     0
102
RTVSPost2010PropOp49
 70
     1
102
RTVSPost2010Prop50
 90
       50
102
RTVSPost2010PropOp50
 70
     1
102
RTVSPost2010Prop51ColorIndex
 90
      256
102
RTVSPost2010Prop51ColorRGB
 90
-16777216
102
RTVSPost2010PropOp51
 70
     0
102
RTVSPost2010Prop52
140
1.0
102
RTVSPost2010PropOp52
 70
     0
102
RTVSPost2010Prop53
 90
        2
102
RTVSPost2010PropOp53
 70
     1
102
RTVSPost2010Prop54
  1
strokes_ogs.tif
102
RTVSPost2010PropOp54
 70
     1
102
RTVSPost2010Prop55
280
     0
102
RTVSPost2010PropOp55
 70
     1
102
RTVSPost2010Prop56
140
1.0
102
RTVSPost2010PropOp56
 70
     1
102
RTVSPost2010Prop57
140
1.0
102
RTVSPost2010PropOp57
 70
     1
  0
XRECORD
  5
507
102
{ACAD_REACTORS
330
506
102
}
330
506
100
AcDbXrecord
280
     1
102
RTVSPropertyOp0
 70
     1
102
RTVSPropertyOp1
 70
     1
102
RTVSPropertyOp2
 70
     1
102
RTVSPropertyOp3
 70
     1
102
RTVSPropertyOp4
 70
     1
102
RTVSPropertyOp5
 70
     1
102
RTVSPropertyOp6
 70
     1
102
RTVSPropertyOp7
 70
     1
102
RTVSPropertyOp8
 70
     1
102
RTVSPropertyOp9
 70
     1
102
RTVSPropertyOp10
 70
     1
102
RTVSPropertyOp11
 70
     1
102
RTVSPropertyOp12
 70
     1
102
RTVSPropertyOp13
 70
     1
102
RTVSPropertyOp14
 70
     1
102
RTVSPropertyOp15
 70
     1
102
RTVSPropertyOp16
 70
     1
102
RTVSPropertyOp17
 70
     1
102
RTVSPropertyOp18
 70
     1
102
RTVSPropertyOp19
 70
     1
102
RTVSPropertyOp20
 70
     1
102
RTVSPropertyOp21
 70
     1
102
RTVSPropertyOp22
 70
     1
102
RTVSPropertyOp23
 70
     1
102
RTVSPropertyOp24
 70
     1
102
RTVSPropertyOp25
 70
     1
102
RTVSPropertyOp26
 70
     1
102
RTVSPropertyOp27
 70
     1
102
RTVSPropertyOp28
 70
     1
102
RTVSPropertyOp29
 70
     1
102
RTVSPropertyOp30
 70
     1
102
RTVSPropertyOp31
 70
     1
102
RTVSPropertyOp32
 70
     1
102
RTVSPropertyOp33
 70
     1
102
RTVSPropertyOp34
 70
     1
102
RTVSPropertyOp35
 70
     1
102
RTVSPropertyOp36
 70
     1
102
RTVSPropertyOp37
 70
     1
102
RTVSPropertyOp38
 70
     1
102
RTVSPropertyOp39
 70
     1
102
RTVSPropertyOp40
 70
     1
102
RTVSPropertyOp41
 70
     1
102
RTVSPropertyOp42
 70
     1
102
RTVSPropertyOp43
 70
     1
102
RTVSPropertyOp44
 70
     1
102
RTVSPropertyOp45
 70
     1
102
RTVSPropertyOp46
 70
     1
102
RTVSPropertyOp47
 70
     1
102
RTVSPropertyOp48
 70
     1
102
RTVSPropertyOp49
 70
     1
102
RTVSPropertyOp50
 70
     1
102
RTVSPropertyOp51
 70
     0
102
RTVSPropertyOp52
 70
     0
102
RTVSPropertyOp53
 70
     1
102
RTVSPropertyOp54
 70
     1
102
RTVSPropertyOp55
 70
     1
102
RTVSPropertyOp56
 70
     1
102
RTVSPropertyOp57
 70
     1
102
RTVSPost2010Prop28
280
     0
102
RTVSPost2010PropOp28
 70
     1
102
RTVSPost2010Prop29
280
     1
102
RTVSPost2010PropOp29
 70
     1
102
RTVSPost2010Prop30
280
     1
102
RTVSPost2010PropOp30
 70
     1
102
RTVSPost2010Prop31
280
     0
102
RTVSPost2010PropOp31
 70
     1
102
RTVSPost2010Prop32
280
     0
102
RTVSPost2010PropOp32
 70
     1
102
RTVSPost2010Prop33
280
     0
102
RTVSPost2010PropOp33
 70
     1
102
RTVSPost2010Prop34
280
     0
102
RTVSPost2010PropOp34
 70
     1
102
RTVSPost2010Prop35
280
     0
102
RTVSPost2010PropOp35
 70
     1
102
RTVSPost2010Prop36
280
     0
102
RTVSPost2010PropOp36
 70
     1
102
RTVSPost2010Prop37
 90
       50
102
RTVSPost2010PropOp37
 70
     1
102
RTVSPost2010Prop38
140
0.0
102
RTVSPost2010PropOp38
 70
     1
102
RTVSPost2010Prop39
140
1.0
102
RTVSPost2010PropOp39
 70
     1
102
RTVSPost2010Prop40
 90
        0
102
RTVSPost2010PropOp40
 70
     1
102
RTVSPost2010Prop41ColorIndex
 90
       18
102
RTVSPost2010Prop41ColorRGB
 90
        0
102
RTVSPost2010PropOp41
 70
     1
102
RTVSPost2010Prop42
 90
       50
102
RTVSPost2010PropOp42
 70
     1
102
RTVSPost2010Prop43
 90
        3
102
RTVSPost2010PropOp43
 70
     1
102
RTVSPost2010Prop44ColorIndex
 90
        5
102
RTVSPost2010Prop44ColorRGB
 90
      255
102
RTVSPost2010PropOp44
 70
     1
102
RTVSPost2010Prop45
280
     0
102
RTVSPost2010PropOp45
 70
     1
102
RTVSPost2010Prop46
 90
       50
102
RTVSPost2010PropOp46
 70
     1
102
RTVSPost2010Prop47
 90
       50
102
RTVSPost2010PropOp47
 70
     1
102
RTVSPost2010Prop48
 90
       50
102
RTVSPost2010PropOp48
 70
     1
102
RTVSPost2010Prop49
280
     0
102
RTVSPost2010PropOp49
 70
     1
102
RTVSPost2010Prop50
 90
       50
102
RTVSPost2010PropOp50
 70
     1
102
RTVSPost2010Prop51ColorIndex
 90
      256
102
RTVSPost2010Prop51ColorRGB
 90
-16777216
102
RTVSPost2010PropOp51
 70
     0
102
RTVSPost2010Prop52
140
1.0
102
RTVSPost2010PropOp52
 70
     0
102
RTVSPost2010Prop53
 90
        2
102
RTVSPost2010PropOp53
 70
     1
102
RTVSPost2010Prop54
  1
strokes_ogs.tif
102
RTVSPost2010PropOp54
 70
     1
102
RTVSPost2010Prop55
280
     0
102
RTVSPost2010PropOp55
 70
     1
102
RTVSPost2010Prop56
140
1.0
102
RTVSPost2010PropOp56
 70
     1
102
RTVSPost2010Prop57
140
1.0
102
RTVSPost2010PropOp57
 70
     1
  0
XRECORD
  5
509
102
{ACAD_REACTORS
330
508
102
}
330
508
100
AcDbXrecord
280
     1
102
RTVSPropertyOp0
 70
     1
102
RTVSPropertyOp1
 70
     1
102
RTVSPropertyOp2
 70
     1
102
RTVSPropertyOp3
 70
     1
102
RTVSPropertyOp4
 70
     1
102
RTVSPropertyOp5
 70
     1
102
RTVSPropertyOp6
 70
     1
102
RTVSPropertyOp7
 70
     1
102
RTVSPropertyOp8
 70
     1
102
RTVSPropertyOp9
 70
     1
102
RTVSPropertyOp10
 70
     1
102
RTVSPropertyOp11
 70
     1
102
RTVSPropertyOp12
 70
     1
102
RTVSPropertyOp13
 70
     1
102
RTVSPropertyOp14
 70
     1
102
RTVSPropertyOp15
 70
     1
102
RTVSPropertyOp16
 70
     1
102
RTVSPropertyOp17
 70
     1
102
RTVSPropertyOp18
 70
     1
102
RTVSPropertyOp19
 70
     1
102
RTVSPropertyOp20
 70
     1
102
RTVSPropertyOp21
 70
     1
102
RTVSPropertyOp22
 70
     1
102
RTVSPropertyOp23
 70
     1
102
RTVSPropertyOp24
 70
     1
102
RTVSPropertyOp25
 70
     1
102
RTVSPropertyOp26
 70
     1
102
RTVSPropertyOp27
 70
     1
102
RTVSPropertyOp28
 70
     1
102
RTVSPropertyOp29
 70
     1
102
RTVSPropertyOp30
 70
     1
102
RTVSPropertyOp31
 70
     1
102
RTVSPropertyOp32
 70
     1
102
RTVSPropertyOp33
 70
     1
102
RTVSPropertyOp34
 70
     1
102
RTVSPropertyOp35
 70
     1
102
RTVSPropertyOp36
 70
     1
102
RTVSPropertyOp37
 70
     1
102
RTVSPropertyOp38
 70
     1
102
RTVSPropertyOp39
 70
     1
102
RTVSPropertyOp40
 70
     1
102
RTVSPropertyOp41
 70
     1
102
RTVSPropertyOp42
 70
     1
102
RTVSPropertyOp43
 70
     1
102
RTVSPropertyOp44
 70
     1
102
RTVSPropertyOp45
 70
     1
102
RTVSPropertyOp46
 70
     1
102
RTVSPropertyOp47
 70
     1
102
RTVSPropertyOp48
 70
     1
102
RTVSPropertyOp49
 70
     1
102
RTVSPropertyOp50
 70
     1
102
RTVSPropertyOp51
 70
     0
102
RTVSPropertyOp52
 70
     0
102
RTVSPropertyOp53
 70
     1
102
RTVSPropertyOp54
 70
     1
102
RTVSPropertyOp55
 70
     1
102
RTVSPropertyOp56
 70
     1
102
RTVSPropertyOp57
 70
     1
102
RTVSPost2010Prop28
280
     0
102
RTVSPost2010PropOp28
 70
     1
102
RTVSPost2010Prop29
280
     1
102
RTVSPost2010PropOp29
 70
     1
102
RTVSPost2010Prop30
280
     1
102
RTVSPost2010PropOp30
 70
     1
102
RTVSPost2010Prop31
280
     0
102
RTVSPost2010PropOp31
 70
     1
102
RTVSPost2010Prop32
280
     0
102
RTVSPost2010PropOp32
 70
     1
102
RTVSPost2010Prop33
280
     0
102
RTVSPost2010PropOp33
 70
     1
102
RTVSPost2010Prop34
280
     0
102
RTVSPost2010PropOp34
 70
     1
102
RTVSPost2010Prop35
280
     0
102
RTVSPost2010PropOp35
 70
     1
102
RTVSPost2010Prop36
280
     0
102
RTVSPost2010PropOp36
 70
     1
102
RTVSPost2010Prop37
 90
       50
102
RTVSPost2010PropOp37
 70
     1
102
RTVSPost2010Prop38
140
0.0
102
RTVSPost2010PropOp38
 70
     1
102
RTVSPost2010Prop39
140
1.0
102
RTVSPost2010PropOp39
 70
     1
102
RTVSPost2010Prop40
 90
        0
102
RTVSPost2010PropOp40
 70
     1
102
RTVSPost2010Prop41ColorIndex
 90
       18
102
RTVSPost2010Prop41ColorRGB
 90
        0
102
RTVSPost2010PropOp41
 70
     1
102
RTVSPost2010Prop42
 90
       50
102
RTVSPost2010PropOp42
 70
     1
102
RTVSPost2010Prop43
 90
        3
102
RTVSPost2010PropOp43
 70
     1
102
RTVSPost2010Prop44ColorIndex
 90
        5
102
RTVSPost2010Prop44ColorRGB
 90
      255
102
RTVSPost2010PropOp44
 70
     1
102
RTVSPost2010Prop45
280
     0
102
RTVSPost2010PropOp45
 70
     1
102
RTVSPost2010Prop46
 90
       50
102
RTVSPost2010PropOp46
 70
     1
102
RTVSPost2010Prop47
 90
       50
102
RTVSPost2010PropOp47
 70
     1
102
RTVSPost2010Prop48
 90
       50
102
RTVSPost2010PropOp48
 70
     1
102
RTVSPost2010Prop49
280
     0
102
RTVSPost2010PropOp49
 70
     1
102
RTVSPost2010Prop50
 90
       50
102
RTVSPost2010PropOp50
 70
     1
102
RTVSPost2010Prop51ColorIndex
 90
      256
102
RTVSPost2010Prop51ColorRGB
 90
-16777216
102
RTVSPost2010PropOp51
 70
     0
102
RTVSPost2010Prop52
140
1.0
102
RTVSPost2010PropOp52
 70
     0
102
RTVSPost2010Prop53
 90
        2
102
RTVSPost2010PropOp53
 70
     1
102
RTVSPost2010Prop54
  1
strokes_ogs.tif
102
RTVSPost2010PropOp54
 70
     1
102
RTVSPost2010Prop55
280
     0
102
RTVSPost2010PropOp55
 70
     1
102
RTVSPost2010Prop56
140
1.0
102
RTVSPost2010PropOp56
 70
     1
102
RTVSPost2010Prop57
140
1.0
102
RTVSPost2010PropOp57
 70
     1
  0
XRECORD
  5
50B
102
{ACAD_REACTORS
330
50A
102
}
330
50A
100
AcDbXrecord
280
     1
102
RTVSPropertyOp0
 70
     1
102
RTVSPropertyOp1
 70
     1
102
RTVSPropertyOp2
 70
     1
102
RTVSPropertyOp3
 70
     1
102
RTVSPropertyOp4
 70
     1
102
RTVSPropertyOp5
 70
     1
102
RTVSPropertyOp6
 70
     1
102
RTVSPropertyOp7
 70
     1
102
RTVSPropertyOp8
 70
     1
102
RTVSPropertyOp9
 70
     1
102
RTVSPropertyOp10
 70
     1
102
RTVSPropertyOp11
 70
     1
102
RTVSPropertyOp12
 70
     1
102
RTVSPropertyOp13
 70
     1
102
RTVSPropertyOp14
 70
     1
102
RTVSPropertyOp15
 70
     1
102
RTVSPropertyOp16
 70
     1
102
RTVSPropertyOp17
 70
     1
102
RTVSPropertyOp18
 70
     1
102
RTVSPropertyOp19
 70
     1
102
RTVSPropertyOp20
 70
     1
102
RTVSPropertyOp21
 70
     1
102
RTVSPropertyOp22
 70
     1
102
RTVSPropertyOp23
 70
     1
102
RTVSPropertyOp24
 70
     1
102
RTVSPropertyOp25
 70
     1
102
RTVSPropertyOp26
 70
     1
102
RTVSPropertyOp27
 70
     1
102
RTVSPropertyOp28
 70
     1
102
RTVSPropertyOp29
 70
     1
102
RTVSPropertyOp30
 70
     1
102
RTVSPropertyOp31
 70
     1
102
RTVSPropertyOp32
 70
     1
102
RTVSPropertyOp33
 70
     1
102
RTVSPropertyOp34
 70
     1
102
RTVSPropertyOp35
 70
     1
102
RTVSPropertyOp36
 70
     1
102
RTVSPropertyOp37
 70
     1
102
RTVSPropertyOp38
 70
     1
102
RTVSPropertyOp39
 70
     1
102
RTVSPropertyOp40
 70
     1
102
RTVSPropertyOp41
 70
     1
102
RTVSPropertyOp42
 70
     1
102
RTVSPropertyOp43
 70
     1
102
RTVSPropertyOp44
 70
     1
102
RTVSPropertyOp45
 70
     1
102
RTVSPropertyOp46
 70
     1
102
RTVSPropertyOp47
 70
     1
102
RTVSPropertyOp48
 70
     1
102
RTVSPropertyOp49
 70
     1
102
RTVSPropertyOp50
 70
     1
102
RTVSPropertyOp51
 70
     0
102
RTVSPropertyOp52
 70
     0
102
RTVSPropertyOp53
 70
     1
102
RTVSPropertyOp54
 70
     1
102
RTVSPropertyOp55
 70
     1
102
RTVSPropertyOp56
 70
     1
102
RTVSPropertyOp57
 70
     1
102
RTVSPost2010Prop28
280
     0
102
RTVSPost2010PropOp28
 70
     1
102
RTVSPost2010Prop29
280
     1
102
RTVSPost2010PropOp29
 70
     1
102
RTVSPost2010Prop30
280
     1
102
RTVSPost2010PropOp30
 70
     1
102
RTVSPost2010Prop31
280
     0
102
RTVSPost2010PropOp31
 70
     1
102
RTVSPost2010Prop32
280
     0
102
RTVSPost2010PropOp32
 70
     1
102
RTVSPost2010Prop33
280
     0
102
RTVSPost2010PropOp33
 70
     1
102
RTVSPost2010Prop34
280
     0
102
RTVSPost2010PropOp34
 70
     1
102
RTVSPost2010Prop35
280
     0
102
RTVSPost2010PropOp35
 70
     1
102
RTVSPost2010Prop36
280
     0
102
RTVSPost2010PropOp36
 70
     1
102
RTVSPost2010Prop37
 90
       50
102
RTVSPost2010PropOp37
 70
     1
102
RTVSPost2010Prop38
140
0.0
102
RTVSPost2010PropOp38
 70
     1
102
RTVSPost2010Prop39
140
1.0
102
RTVSPost2010PropOp39
 70
     1
102
RTVSPost2010Prop40
 90
        0
102
RTVSPost2010PropOp40
 70
     1
102
RTVSPost2010Prop41ColorIndex
 90
       18
102
RTVSPost2010Prop41ColorRGB
 90
        0
102
RTVSPost2010PropOp41
 70
     1
102
RTVSPost2010Prop42
 90
       50
102
RTVSPost2010PropOp42
 70
     1
102
RTVSPost2010Prop43
 90
        3
102
RTVSPost2010PropOp43
 70
     1
102
RTVSPost2010Prop44ColorIndex
 90
        5
102
RTVSPost2010Prop44ColorRGB
 90
      255
102
RTVSPost2010PropOp44
 70
     1
102
RTVSPost2010Prop45
280
     0
102
RTVSPost2010PropOp45
 70
     1
102
RTVSPost2010Prop46
 90
       50
102
RTVSPost2010PropOp46
 70
     1
102
RTVSPost2010Prop47
 90
       50
102
RTVSPost2010PropOp47
 70
     1
102
RTVSPost2010Prop48
 90
       50
102
RTVSPost2010PropOp48
 70
     1
102
RTVSPost2010Prop49
280
     0
102
RTVSPost2010PropOp49
 70
     1
102
RTVSPost2010Prop50
 90
       50
102
RTVSPost2010PropOp50
 70
     1
102
RTVSPost2010Prop51ColorIndex
 90
      256
102
RTVSPost2010Prop51ColorRGB
 90
-16777216
102
RTVSPost2010PropOp51
 70
     0
102
RTVSPost2010Prop52
140
1.0
102
RTVSPost2010PropOp52
 70
     0
102
RTVSPost2010Prop53
 90
        2
102
RTVSPost2010PropOp53
 70
     1
102
RTVSPost2010Prop54
  1
strokes_ogs.tif
102
RTVSPost2010PropOp54
 70
     1
102
RTVSPost2010Prop55
280
     0
102
RTVSPost2010PropOp55
 70
     1
102
RTVSPost2010Prop56
140
1.0
102
RTVSPost2010PropOp56
 70
     1
102
RTVSPost2010Prop57
140
1.0
102
RTVSPost2010PropOp57
 70
     1
  0
XRECORD
  5
50D
102
{ACAD_REACTORS
330
50C
102
}
330
50C
100
AcDbXrecord
280
     1
102
RTVSPropertyOp0
 70
     1
102
RTVSPropertyOp1
 70
     1
102
RTVSPropertyOp2
 70
     1
102
RTVSPropertyOp3
 70
     1
102
RTVSPropertyOp4
 70
     1
102
RTVSPropertyOp5
 70
     1
102
RTVSPropertyOp6
 70
     1
102
RTVSPropertyOp7
 70
     1
102
RTVSPropertyOp8
 70
     1
102
RTVSPropertyOp9
 70
     1
102
RTVSPropertyOp10
 70
     1
102
RTVSPropertyOp11
 70
     1
102
RTVSPropertyOp12
 70
     1
102
RTVSPropertyOp13
 70
     1
102
RTVSPropertyOp14
 70
     1
102
RTVSPropertyOp15
 70
     1
102
RTVSPropertyOp16
 70
     1
102
RTVSPropertyOp17
 70
     1
102
RTVSPropertyOp18
 70
     1
102
RTVSPropertyOp19
 70
     1
102
RTVSPropertyOp20
 70
     1
102
RTVSPropertyOp21
 70
     1
102
RTVSPropertyOp22
 70
     1
102
RTVSPropertyOp23
 70
     1
102
RTVSPropertyOp24
 70
     1
102
RTVSPropertyOp25
 70
     1
102
RTVSPropertyOp26
 70
     1
102
RTVSPropertyOp27
 70
     1
102
RTVSPropertyOp28
 70
     1
102
RTVSPropertyOp29
 70
     1
102
RTVSPropertyOp30
 70
     1
102
RTVSPropertyOp31
 70
     1
102
RTVSPropertyOp32
 70
     1
102
RTVSPropertyOp33
 70
     1
102
RTVSPropertyOp34
 70
     1
102
RTVSPropertyOp35
 70
     1
102
RTVSPropertyOp36
 70
     1
102
RTVSPropertyOp37
 70
     1
102
RTVSPropertyOp38
 70
     1
102
RTVSPropertyOp39
 70
     1
102
RTVSPropertyOp40
 70
     1
102
RTVSPropertyOp41
 70
     1
102
RTVSPropertyOp42
 70
     1
102
RTVSPropertyOp43
 70
     1
102
RTVSPropertyOp44
 70
     1
102
RTVSPropertyOp45
 70
     1
102
RTVSPropertyOp46
 70
     1
102
RTVSPropertyOp47
 70
     1
102
RTVSPropertyOp48
 70
     1
102
RTVSPropertyOp49
 70
     1
102
RTVSPropertyOp50
 70
     1
102
RTVSPropertyOp51
 70
     0
102
RTVSPropertyOp52
 70
     0
102
RTVSPropertyOp53
 70
     1
102
RTVSPropertyOp54
 70
     1
102
RTVSPropertyOp55
 70
     1
102
RTVSPropertyOp56
 70
     1
102
RTVSPropertyOp57
 70
     1
102
RTVSPost2010Prop28
280
     0
102
RTVSPost2010PropOp28
 70
     1
102
RTVSPost2010Prop29
280
     1
102
RTVSPost2010PropOp29
 70
     1
102
RTVSPost2010Prop30
280
     1
102
RTVSPost2010PropOp30
 70
     1
102
RTVSPost2010Prop31
280
     0
102
RTVSPost2010PropOp31
 70
     1
102
RTVSPost2010Prop32
280
     0
102
RTVSPost2010PropOp32
 70
     1
102
RTVSPost2010Prop33
280
     0
102
RTVSPost2010PropOp33
 70
     1
102
RTVSPost2010Prop34
280
     0
102
RTVSPost2010PropOp34
 70
     1
102
RTVSPost2010Prop35
280
     0
102
RTVSPost2010PropOp35
 70
     1
102
RTVSPost2010Prop36
280
     0
102
RTVSPost2010PropOp36
 70
     1
102
RTVSPost2010Prop37
 90
       50
102
RTVSPost2010PropOp37
 70
     1
102
RTVSPost2010Prop38
140
0.0
102
RTVSPost2010PropOp38
 70
     1
102
RTVSPost2010Prop39
140
1.0
102
RTVSPost2010PropOp39
 70
     1
102
RTVSPost2010Prop40
 90
        0
102
RTVSPost2010PropOp40
 70
     1
102
RTVSPost2010Prop41ColorIndex
 90
       18
102
RTVSPost2010Prop41ColorRGB
 90
        0
102
RTVSPost2010PropOp41
 70
     1
102
RTVSPost2010Prop42
 90
       50
102
RTVSPost2010PropOp42
 70
     1
102
RTVSPost2010Prop43
 90
        3
102
RTVSPost2010PropOp43
 70
     1
102
RTVSPost2010Prop44ColorIndex
 90
        5
102
RTVSPost2010Prop44ColorRGB
 90
      255
102
RTVSPost2010PropOp44
 70
     1
102
RTVSPost2010Prop45
280
     0
102
RTVSPost2010PropOp45
 70
     1
102
RTVSPost2010Prop46
 90
       50
102
RTVSPost2010PropOp46
 70
     1
102
RTVSPost2010Prop47
 90
       50
102
RTVSPost2010PropOp47
 70
     1
102
RTVSPost2010Prop48
 90
       50
102
RTVSPost2010PropOp48
 70
     1
102
RTVSPost2010Prop49
280
     0
102
RTVSPost2010PropOp49
 70
     1
102
RTVSPost2010Prop50
 90
       50
102
RTVSPost2010PropOp50
 70
     1
102
RTVSPost2010Prop51ColorIndex
 90
      256
102
RTVSPost2010Prop51ColorRGB
 90
-16777216
102
RTVSPost2010PropOp51
 70
     0
102
RTVSPost2010Prop52
140
1.0
102
RTVSPost2010PropOp52
 70
     0
102
RTVSPost2010Prop53
 90
        2
102
RTVSPost2010PropOp53
 70
     1
102
RTVSPost2010Prop54
  1
strokes_ogs.tif
102
RTVSPost2010PropOp54
 70
     1
102
RTVSPost2010Prop55
280
     0
102
RTVSPost2010PropOp55
 70
     1
102
RTVSPost2010Prop56
140
1.0
102
RTVSPost2010PropOp56
 70
     1
102
RTVSPost2010Prop57
140
1.0
102
RTVSPost2010PropOp57
 70
     1
  0
XRECORD
  5
513
102
{ACAD_REACTORS
330
512
102
}
330
512
100
AcDbXrecord
280
     1
102
RTVSPropertyOp0
 70
     1
102
RTVSPropertyOp1
 70
     1
102
RTVSPropertyOp2
 70
     1
102
RTVSPropertyOp3
 70
     1
102
RTVSPropertyOp4
 70
     1
102
RTVSPropertyOp5
 70
     1
102
RTVSPropertyOp6
 70
     1
102
RTVSPropertyOp7
 70
     1
102
RTVSPropertyOp8
 70
     1
102
RTVSPropertyOp9
 70
     1
102
RTVSPropertyOp10
 70
     1
102
RTVSPropertyOp11
 70
     1
102
RTVSPropertyOp12
 70
     1
102
RTVSPropertyOp13
 70
     1
102
RTVSPropertyOp14
 70
     1
102
RTVSPropertyOp15
 70
     1
102
RTVSPropertyOp16
 70
     1
102
RTVSPropertyOp17
 70
     1
102
RTVSPropertyOp18
 70
     1
102
RTVSPropertyOp19
 70
     1
102
RTVSPropertyOp20
 70
     1
102
RTVSPropertyOp21
 70
     1
102
RTVSPropertyOp22
 70
     1
102
RTVSPropertyOp23
 70
     1
102
RTVSPropertyOp24
 70
     1
102
RTVSPropertyOp25
 70
     1
102
RTVSPropertyOp26
 70
     1
102
RTVSPropertyOp27
 70
     1
102
RTVSPropertyOp28
 70
     1
102
RTVSPropertyOp29
 70
     1
102
RTVSPropertyOp30
 70
     1
102
RTVSPropertyOp31
 70
     1
102
RTVSPropertyOp32
 70
     1
102
RTVSPropertyOp33
 70
     1
102
RTVSPropertyOp34
 70
     1
102
RTVSPropertyOp35
 70
     1
102
RTVSPropertyOp36
 70
     1
102
RTVSPropertyOp37
 70
     1
102
RTVSPropertyOp38
 70
     1
102
RTVSPropertyOp39
 70
     1
102
RTVSPropertyOp40
 70
     1
102
RTVSPropertyOp41
 70
     1
102
RTVSPropertyOp42
 70
     1
102
RTVSPropertyOp43
 70
     1
102
RTVSPropertyOp44
 70
     1
102
RTVSPropertyOp45
 70
     1
102
RTVSPropertyOp46
 70
     1
102
RTVSPropertyOp47
 70
     1
102
RTVSPropertyOp48
 70
     1
102
RTVSPropertyOp49
 70
     1
102
RTVSPropertyOp50
 70
     1
102
RTVSPropertyOp51
 70
     0
102
RTVSPropertyOp52
 70
     0
102
RTVSPropertyOp53
 70
     1
102
RTVSPropertyOp54
 70
     1
102
RTVSPropertyOp55
 70
     1
102
RTVSPropertyOp56
 70
     1
102
RTVSPropertyOp57
 70
     1
102
RTVSPost2010Prop28
280
     0
102
RTVSPost2010PropOp28
 70
     1
102
RTVSPost2010Prop29
280
     1
102
RTVSPost2010PropOp29
 70
     1
102
RTVSPost2010Prop30
280
     1
102
RTVSPost2010PropOp30
 70
     1
102
RTVSPost2010Prop31
280
     0
102
RTVSPost2010PropOp31
 70
     1
102
RTVSPost2010Prop32
280
     0
102
RTVSPost2010PropOp32
 70
     1
102
RTVSPost2010Prop33
280
     0
102
RTVSPost2010PropOp33
 70
     1
102
RTVSPost2010Prop34
280
     0
102
RTVSPost2010PropOp34
 70
     1
102
RTVSPost2010Prop35
280
     0
102
RTVSPost2010PropOp35
 70
     1
102
RTVSPost2010Prop36
280
     0
102
RTVSPost2010PropOp36
 70
     1
102
RTVSPost2010Prop37
 90
       50
102
RTVSPost2010PropOp37
 70
     1
102
RTVSPost2010Prop38
140
0.0
102
RTVSPost2010PropOp38
 70
     1
102
RTVSPost2010Prop39
140
1.0
102
RTVSPost2010PropOp39
 70
     1
102
RTVSPost2010Prop40
 90
        0
102
RTVSPost2010PropOp40
 70
     1
102
RTVSPost2010Prop41ColorIndex
 90
       18
102
RTVSPost2010Prop41ColorRGB
 90
        0
102
RTVSPost2010PropOp41
 70
     1
102
RTVSPost2010Prop42
 90
       50
102
RTVSPost2010PropOp42
 70
     1
102
RTVSPost2010Prop43
 90
        3
102
RTVSPost2010PropOp43
 70
     1
102
RTVSPost2010Prop44ColorIndex
 90
        5
102
RTVSPost2010Prop44ColorRGB
 90
      255
102
RTVSPost2010PropOp44
 70
     1
102
RTVSPost2010Prop45
280
     0
102
RTVSPost2010PropOp45
 70
     1
102
RTVSPost2010Prop46
 90
       50
102
RTVSPost2010PropOp46
 70
     1
102
RTVSPost2010Prop47
 90
       50
102
RTVSPost2010PropOp47
 70
     1
102
RTVSPost2010Prop48
 90
       50
102
RTVSPost2010PropOp48
 70
     1
102
RTVSPost2010Prop49
280
     0
102
RTVSPost2010PropOp49
 70
     1
102
RTVSPost2010Prop50
 90
       50
102
RTVSPost2010PropOp50
 70
     1
102
RTVSPost2010Prop51ColorIndex
 90
      256
102
RTVSPost2010Prop51ColorRGB
 90
-16777216
102
RTVSPost2010PropOp51
 70
     0
102
RTVSPost2010Prop52
140
1.0
102
RTVSPost2010PropOp52
 70
     0
102
RTVSPost2010Prop53
 90
        2
102
RTVSPost2010PropOp53
 70
     1
102
RTVSPost2010Prop54
  1
strokes_ogs.tif
102
RTVSPost2010PropOp54
 70
     1
102
RTVSPost2010Prop55
280
     0
102
RTVSPost2010PropOp55
 70
     1
102
RTVSPost2010Prop56
140
1.0
102
RTVSPost2010PropOp56
 70
     1
102
RTVSPost2010Prop57
140
1.0
102
RTVSPost2010PropOp57
 70
     1
  0
XRECORD
  5
527
102
{ACAD_REACTORS
330
526
102
}
330
526
100
AcDbXrecord
280
     1
102
RTVSPropertyOp0
 70
     0
102
RTVSPropertyOp1
 70
     0
102
RTVSPropertyOp2
 70
     0
102
RTVSPropertyOp3
 70
     0
102
RTVSPropertyOp4
 70
     0
102
RTVSPropertyOp5
 70
     0
102
RTVSPropertyOp6
 70
     0
102
RTVSPropertyOp7
 70
     0
102
RTVSPropertyOp8
 70
     0
102
RTVSPropertyOp9
 70
     0
102
RTVSPropertyOp10
 70
     0
102
RTVSPropertyOp11
 70
     0
102
RTVSPropertyOp12
 70
     0
102
RTVSPropertyOp13
 70
     0
102
RTVSPropertyOp14
 70
     2
102
RTVSPropertyOp15
 70
     0
102
RTVSPropertyOp16
 70
     0
102
RTVSPropertyOp17
 70
     0
102
RTVSPropertyOp18
 70
     0
102
RTVSPropertyOp19
 70
     0
102
RTVSPropertyOp20
 70
     0
102
RTVSPropertyOp21
 70
     0
102
RTVSPropertyOp22
 70
     0
102
RTVSPropertyOp23
 70
     0
102
RTVSPropertyOp24
 70
     0
102
RTVSPropertyOp25
 70
     0
102
RTVSPropertyOp26
 70
     0
102
RTVSPropertyOp27
 70
     0
102
RTVSPropertyOp28
 70
     0
102
RTVSPropertyOp29
 70
     0
102
RTVSPropertyOp30
 70
     0
102
RTVSPropertyOp31
 70
     0
102
RTVSPropertyOp32
 70
     0
102
RTVSPropertyOp33
 70
     0
102
RTVSPropertyOp34
 70
     0
102
RTVSPropertyOp35
 70
     0
102
RTVSPropertyOp36
 70
     0
102
RTVSPropertyOp37
 70
     0
102
RTVSPropertyOp38
 70
     0
102
RTVSPropertyOp39
 70
     0
102
RTVSPropertyOp40
 70
     0
102
RTVSPropertyOp41
 70
     0
102
RTVSPropertyOp42
 70
     0
102
RTVSPropertyOp43
 70
     0
102
RTVSPropertyOp44
 70
     0
102
RTVSPropertyOp45
 70
     0
102
RTVSPropertyOp46
 70
     0
102
RTVSPropertyOp47
 70
     0
102
RTVSPropertyOp48
 70
     0
102
RTVSPropertyOp49
 70
     0
102
RTVSPropertyOp50
 70
     0
102
RTVSPropertyOp51
 70
     0
102
RTVSPropertyOp52
 70
     0
102
RTVSPropertyOp53
 70
     0
102
RTVSPropertyOp54
 70
     0
102
RTVSPropertyOp55
 70
     0
102
RTVSPropertyOp56
 70
     0
102
RTVSPropertyOp57
 70
     0
102
RTVSPost2010Prop28
280
     0
102
RTVSPost2010PropOp28
 70
     0
102
RTVSPost2010Prop29
280
     1
102
RTVSPost2010PropOp29
 70
     0
102
RTVSPost2010Prop30
280
     1
102
RTVSPost2010PropOp30
 70
     0
102
RTVSPost2010Prop31
280
     0
102
RTVSPost2010PropOp31
 70
     0
102
RTVSPost2010Prop32
280
     0
102
RTVSPost2010PropOp32
 70
     0
102
RTVSPost2010Prop33
280
     0
102
RTVSPost2010PropOp33
 70
     0
102
RTVSPost2010Prop34
280
     0
102
RTVSPost2010PropOp34
 70
     0
102
RTVSPost2010Prop35
280
     0
102
RTVSPost2010PropOp35
 70
     0
102
RTVSPost2010Prop36
280
     0
102
RTVSPost2010PropOp36
 70
     0
102
RTVSPost2010Prop37
 90
       50
102
RTVSPost2010PropOp37
 70
     0
102
RTVSPost2010Prop38
140
0.0
102
RTVSPost2010PropOp38
 70
     0
102
RTVSPost2010Prop39
140
1.0
102
RTVSPost2010PropOp39
 70
     0
102
RTVSPost2010Prop40
 90
        0
102
RTVSPost2010PropOp40
 70
     0
102
RTVSPost2010Prop41ColorIndex
 90
       18
102
RTVSPost2010Prop41ColorRGB
 90
        0
102
RTVSPost2010PropOp41
 70
     0
102
RTVSPost2010Prop42
 90
       50
102
RTVSPost2010PropOp42
 70
     0
102
RTVSPost2010Prop43
 90
        3
102
RTVSPost2010PropOp43
 70
     0
102
RTVSPost2010Prop44ColorIndex
 90
        5
102
RTVSPost2010Prop44ColorRGB
 90
      255
102
RTVSPost2010PropOp44
 70
     0
102
RTVSPost2010Prop45
280
     0
102
RTVSPost2010PropOp45
 70
     0
102
RTVSPost2010Prop46
 90
       50
102
RTVSPost2010PropOp46
 70
     0
102
RTVSPost2010Prop47
 90
       50
102
RTVSPost2010PropOp47
 70
     0
102
RTVSPost2010Prop48
 90
       50
102
RTVSPost2010PropOp48
 70
     0
102
RTVSPost2010Prop49
280
     0
102
RTVSPost2010PropOp49
 70
     0
102
RTVSPost2010Prop50
 90
       50
102
RTVSPost2010PropOp50
 70
     0
102
RTVSPost2010Prop51ColorIndex
 90
      256
102
RTVSPost2010Prop51ColorRGB
 90
-16777216
102
RTVSPost2010PropOp51
 70
     0
102
RTVSPost2010Prop52
140
1.0
102
RTVSPost2010PropOp52
 70
     0
102
RTVSPost2010Prop53
 90
        2
102
RTVSPost2010PropOp53
 70
     0
102
RTVSPost2010Prop54
  1
strokes_ogs.tif
102
RTVSPost2010PropOp54
 70
     0
102
RTVSPost2010Prop55
280
     0
102
RTVSPost2010PropOp55
 70
     0
102
RTVSPost2010Prop56
140
1.0
102
RTVSPost2010PropOp56
 70
     0
102
RTVSPost2010Prop57
140
1.0
102
RTVSPost2010PropOp57
 70
     0
  0
XRECORD
  5
521
102
{ACAD_REACTORS
330
520
102
}
330
520
100
AcDbXrecord
280
     1
102
RTVSPropertyOp0
 70
     1
102
RTVSPropertyOp1
 70
     1
102
RTVSPropertyOp2
 70
     1
102
RTVSPropertyOp3
 70
     1
102
RTVSPropertyOp4
 70
     1
102
RTVSPropertyOp5
 70
     1
102
RTVSPropertyOp6
 70
     1
102
RTVSPropertyOp7
 70
     1
102
RTVSPropertyOp8
 70
     1
102
RTVSPropertyOp9
 70
     1
102
RTVSPropertyOp10
 70
     1
102
RTVSPropertyOp11
 70
     1
102
RTVSPropertyOp12
 70
     1
102
RTVSPropertyOp13
 70
     1
102
RTVSPropertyOp14
 70
     1
102
RTVSPropertyOp15
 70
     1
102
RTVSPropertyOp16
 70
     1
102
RTVSPropertyOp17
 70
     1
102
RTVSPropertyOp18
 70
     1
102
RTVSPropertyOp19
 70
     1
102
RTVSPropertyOp20
 70
     1
102
RTVSPropertyOp21
 70
     1
102
RTVSPropertyOp22
 70
     1
102
RTVSPropertyOp23
 70
     1
102
RTVSPropertyOp24
 70
     1
102
RTVSPropertyOp25
 70
     1
102
RTVSPropertyOp26
 70
     1
102
RTVSPropertyOp27
 70
     1
102
RTVSPropertyOp28
 70
     1
102
RTVSPropertyOp29
 70
     1
102
RTVSPropertyOp30
 70
     1
102
RTVSPropertyOp31
 70
     1
102
RTVSPropertyOp32
 70
     1
102
RTVSPropertyOp33
 70
     1
102
RTVSPropertyOp34
 70
     1
102
RTVSPropertyOp35
 70
     1
102
RTVSPropertyOp36
 70
     1
102
RTVSPropertyOp37
 70
     1
102
RTVSPropertyOp38
 70
     1
102
RTVSPropertyOp39
 70
     1
102
RTVSPropertyOp40
 70
     1
102
RTVSPropertyOp41
 70
     1
102
RTVSPropertyOp42
 70
     1
102
RTVSPropertyOp43
 70
     1
102
RTVSPropertyOp44
 70
     1
102
RTVSPropertyOp45
 70
     1
102
RTVSPropertyOp46
 70
     1
102
RTVSPropertyOp47
 70
     1
102
RTVSPropertyOp48
 70
     1
102
RTVSPropertyOp49
 70
     1
102
RTVSPropertyOp50
 70
     1
102
RTVSPropertyOp51
 70
     0
102
RTVSPropertyOp52
 70
     0
102
RTVSPropertyOp53
 70
     1
102
RTVSPropertyOp54
 70
     1
102
RTVSPropertyOp55
 70
     1
102
RTVSPropertyOp56
 70
     1
102
RTVSPropertyOp57
 70
     1
102
RTVSPost2010Prop28
280
     0
102
RTVSPost2010PropOp28
 70
     1
102
RTVSPost2010Prop29
280
     1
102
RTVSPost2010PropOp29
 70
     1
102
RTVSPost2010Prop30
280
     1
102
RTVSPost2010PropOp30
 70
     1
102
RTVSPost2010Prop31
280
     0
102
RTVSPost2010PropOp31
 70
     1
102
RTVSPost2010Prop32
280
     0
102
RTVSPost2010PropOp32
 70
     1
102
RTVSPost2010Prop33
280
     0
102
RTVSPost2010PropOp33
 70
     1
102
RTVSPost2010Prop34
280
     0
102
RTVSPost2010PropOp34
 70
     1
102
RTVSPost2010Prop35
280
     0
102
RTVSPost2010PropOp35
 70
     1
102
RTVSPost2010Prop36
280
     0
102
RTVSPost2010PropOp36
 70
     1
102
RTVSPost2010Prop37
 90
       50
102
RTVSPost2010PropOp37
 70
     1
102
RTVSPost2010Prop38
140
0.0
102
RTVSPost2010PropOp38
 70
     1
102
RTVSPost2010Prop39
140
1.0
102
RTVSPost2010PropOp39
 70
     1
102
RTVSPost2010Prop40
 90
        0
102
RTVSPost2010PropOp40
 70
     1
102
RTVSPost2010Prop41ColorIndex
 90
       18
102
RTVSPost2010Prop41ColorRGB
 90
        0
102
RTVSPost2010PropOp41
 70
     1
102
RTVSPost2010Prop42
 90
       50
102
RTVSPost2010PropOp42
 70
     1
102
RTVSPost2010Prop43
 90
        3
102
RTVSPost2010PropOp43
 70
     1
102
RTVSPost2010Prop44ColorIndex
 90
        5
102
RTVSPost2010Prop44ColorRGB
 90
      255
102
RTVSPost2010PropOp44
 70
     1
102
RTVSPost2010Prop45
280
     0
102
RTVSPost2010PropOp45
 70
     1
102
RTVSPost2010Prop46
 90
       50
102
RTVSPost2010PropOp46
 70
     1
102
RTVSPost2010Prop47
 90
       50
102
RTVSPost2010PropOp47
 70
     1
102
RTVSPost2010Prop48
 90
       50
102
RTVSPost2010PropOp48
 70
     1
102
RTVSPost2010Prop49
280
     0
102
RTVSPost2010PropOp49
 70
     1
102
RTVSPost2010Prop50
 90
       50
102
RTVSPost2010PropOp50
 70
     1
102
RTVSPost2010Prop51ColorIndex
 90
      256
102
RTVSPost2010Prop51ColorRGB
 90
-16777216
102
RTVSPost2010PropOp51
 70
     0
102
RTVSPost2010Prop52
140
1.0
102
RTVSPost2010PropOp52
 70
     0
102
RTVSPost2010Prop53
 90
        2
102
RTVSPost2010PropOp53
 70
     1
102
RTVSPost2010Prop54
  1
strokes_ogs.tif
102
RTVSPost2010PropOp54
 70
     1
102
RTVSPost2010Prop55
280
     0
102
RTVSPost2010PropOp55
 70
     1
102
RTVSPost2010Prop56
140
1.0
102
RTVSPost2010PropOp56
 70
     1
102
RTVSPost2010Prop57
140
1.0
102
RTVSPost2010PropOp57
 70
     1
  0
XRECORD
  5
529
102
{ACAD_REACTORS
330
528
102
}
330
528
100
AcDbXrecord
280
     1
102
RTVSPropertyOp0
 70
     0
102
RTVSPropertyOp1
 70
     0
102
RTVSPropertyOp2
 70
     0
102
RTVSPropertyOp3
 70
     0
102
RTVSPropertyOp4
 70
     0
102
RTVSPropertyOp5
 70
     0
102
RTVSPropertyOp6
 70
     0
102
RTVSPropertyOp7
 70
     0
102
RTVSPropertyOp8
 70
     0
102
RTVSPropertyOp9
 70
     0
102
RTVSPropertyOp10
 70
     0
102
RTVSPropertyOp11
 70
     0
102
RTVSPropertyOp12
 70
     0
102
RTVSPropertyOp13
 70
     0
102
RTVSPropertyOp14
 70
     2
102
RTVSPropertyOp15
 70
     0
102
RTVSPropertyOp16
 70
     0
102
RTVSPropertyOp17
 70
     0
102
RTVSPropertyOp18
 70
     0
102
RTVSPropertyOp19
 70
     0
102
RTVSPropertyOp20
 70
     0
102
RTVSPropertyOp21
 70
     0
102
RTVSPropertyOp22
 70
     0
102
RTVSPropertyOp23
 70
     0
102
RTVSPropertyOp24
 70
     0
102
RTVSPropertyOp25
 70
     0
102
RTVSPropertyOp26
 70
     0
102
RTVSPropertyOp27
 70
     0
102
RTVSPropertyOp28
 70
     0
102
RTVSPropertyOp29
 70
     0
102
RTVSPropertyOp30
 70
     0
102
RTVSPropertyOp31
 70
     0
102
RTVSPropertyOp32
 70
     0
102
RTVSPropertyOp33
 70
     0
102
RTVSPropertyOp34
 70
     0
102
RTVSPropertyOp35
 70
     0
102
RTVSPropertyOp36
 70
     0
102
RTVSPropertyOp37
 70
     0
102
RTVSPropertyOp38
 70
     0
102
RTVSPropertyOp39
 70
     0
102
RTVSPropertyOp40
 70
     0
102
RTVSPropertyOp41
 70
     0
102
RTVSPropertyOp42
 70
     0
102
RTVSPropertyOp43
 70
     0
102
RTVSPropertyOp44
 70
     0
102
RTVSPropertyOp45
 70
     0
102
RTVSPropertyOp46
 70
     0
102
RTVSPropertyOp47
 70
     0
102
RTVSPropertyOp48
 70
     0
102
RTVSPropertyOp49
 70
     0
102
RTVSPropertyOp50
 70
     0
102
RTVSPropertyOp51
 70
     0
102
RTVSPropertyOp52
 70
     0
102
RTVSPropertyOp53
 70
     0
102
RTVSPropertyOp54
 70
     0
102
RTVSPropertyOp55
 70
     0
102
RTVSPropertyOp56
 70
     0
102
RTVSPropertyOp57
 70
     0
102
RTVSPost2010Prop28
280
     0
102
RTVSPost2010PropOp28
 70
     0
102
RTVSPost2010Prop29
280
     1
102
RTVSPost2010PropOp29
 70
     0
102
RTVSPost2010Prop30
280
     1
102
RTVSPost2010PropOp30
 70
     0
102
RTVSPost2010Prop31
280
     0
102
RTVSPost2010PropOp31
 70
     0
102
RTVSPost2010Prop32
280
     0
102
RTVSPost2010PropOp32
 70
     0
102
RTVSPost2010Prop33
280
     0
102
RTVSPost2010PropOp33
 70
     0
102
RTVSPost2010Prop34
280
     0
102
RTVSPost2010PropOp34
 70
     0
102
RTVSPost2010Prop35
280
     0
102
RTVSPost2010PropOp35
 70
     0
102
RTVSPost2010Prop36
280
     0
102
RTVSPost2010PropOp36
 70
     0
102
RTVSPost2010Prop37
 90
       50
102
RTVSPost2010PropOp37
 70
     0
102
RTVSPost2010Prop38
140
0.0
102
RTVSPost2010PropOp38
 70
     0
102
RTVSPost2010Prop39
140
1.0
102
RTVSPost2010PropOp39
 70
     0
102
RTVSPost2010Prop40
 90
        0
102
RTVSPost2010PropOp40
 70
     0
102
RTVSPost2010Prop41ColorIndex
 90
       18
102
RTVSPost2010Prop41ColorRGB
 90
        0
102
RTVSPost2010PropOp41
 70
     0
102
RTVSPost2010Prop42
 90
       50
102
RTVSPost2010PropOp42
 70
     0
102
RTVSPost2010Prop43
 90
        3
102
RTVSPost2010PropOp43
 70
     0
102
RTVSPost2010Prop44ColorIndex
 90
        5
102
RTVSPost2010Prop44ColorRGB
 90
      255
102
RTVSPost2010PropOp44
 70
     0
102
RTVSPost2010Prop45
280
     0
102
RTVSPost2010PropOp45
 70
     0
102
RTVSPost2010Prop46
 90
       50
102
RTVSPost2010PropOp46
 70
     0
102
RTVSPost2010Prop47
 90
       50
102
RTVSPost2010PropOp47
 70
     0
102
RTVSPost2010Prop48
 90
       50
102
RTVSPost2010PropOp48
 70
     0
102
RTVSPost2010Prop49
280
     0
102
RTVSPost2010PropOp49
 70
     0
102
RTVSPost2010Prop50
 90
       50
102
RTVSPost2010PropOp50
 70
     0
102
RTVSPost2010Prop51ColorIndex
 90
      256
102
RTVSPost2010Prop51ColorRGB
 90
-16777216
102
RTVSPost2010PropOp51
 70
     0
102
RTVSPost2010Prop52
140
1.0
102
RTVSPost2010PropOp52
 70
     0
102
RTVSPost2010Prop53
 90
        2
102
RTVSPost2010PropOp53
 70
     0
102
RTVSPost2010Prop54
  1
strokes_ogs.tif
102
RTVSPost2010PropOp54
 70
     0
102
RTVSPost2010Prop55
280
     0
102
RTVSPost2010PropOp55
 70
     0
102
RTVSPost2010Prop56
140
1.0
102
RTVSPost2010PropOp56
 70
     0
102
RTVSPost2010Prop57
140
1.0
102
RTVSPost2010PropOp57
 70
     0
  0
XRECORD
  5
517
102
{ACAD_REACTORS
330
516
102
}
330
516
100
AcDbXrecord
280
     1
102
RTVSPropertyOp0
 70
     1
102
RTVSPropertyOp1
 70
     1
102
RTVSPropertyOp2
 70
     1
102
RTVSPropertyOp3
 70
     1
102
RTVSPropertyOp4
 70
     1
102
RTVSPropertyOp5
 70
     1
102
RTVSPropertyOp6
 70
     1
102
RTVSPropertyOp7
 70
     1
102
RTVSPropertyOp8
 70
     1
102
RTVSPropertyOp9
 70
     1
102
RTVSPropertyOp10
 70
     1
102
RTVSPropertyOp11
 70
     1
102
RTVSPropertyOp12
 70
     1
102
RTVSPropertyOp13
 70
     1
102
RTVSPropertyOp14
 70
     1
102
RTVSPropertyOp15
 70
     1
102
RTVSPropertyOp16
 70
     1
102
RTVSPropertyOp17
 70
     1
102
RTVSPropertyOp18
 70
     1
102
RTVSPropertyOp19
 70
     1
102
RTVSPropertyOp20
 70
     1
102
RTVSPropertyOp21
 70
     1
102
RTVSPropertyOp22
 70
     1
102
RTVSPropertyOp23
 70
     1
102
RTVSPropertyOp24
 70
     1
102
RTVSPropertyOp25
 70
     1
102
RTVSPropertyOp26
 70
     1
102
RTVSPropertyOp27
 70
     1
102
RTVSPropertyOp28
 70
     1
102
RTVSPropertyOp29
 70
     1
102
RTVSPropertyOp30
 70
     1
102
RTVSPropertyOp31
 70
     1
102
RTVSPropertyOp32
 70
     1
102
RTVSPropertyOp33
 70
     1
102
RTVSPropertyOp34
 70
     1
102
RTVSPropertyOp35
 70
     1
102
RTVSPropertyOp36
 70
     1
102
RTVSPropertyOp37
 70
     1
102
RTVSPropertyOp38
 70
     1
102
RTVSPropertyOp39
 70
     1
102
RTVSPropertyOp40
 70
     1
102
RTVSPropertyOp41
 70
     1
102
RTVSPropertyOp42
 70
     1
102
RTVSPropertyOp43
 70
     1
102
RTVSPropertyOp44
 70
     1
102
RTVSPropertyOp45
 70
     1
102
RTVSPropertyOp46
 70
     1
102
RTVSPropertyOp47
 70
     1
102
RTVSPropertyOp48
 70
     1
102
RTVSPropertyOp49
 70
     1
102
RTVSPropertyOp50
 70
     1
102
RTVSPropertyOp51
 70
     0
102
RTVSPropertyOp52
 70
     0
102
RTVSPropertyOp53
 70
     1
102
RTVSPropertyOp54
 70
     1
102
RTVSPropertyOp55
 70
     1
102
RTVSPropertyOp56
 70
     1
102
RTVSPropertyOp57
 70
     1
102
RTVSPost2010Prop28
280
     0
102
RTVSPost2010PropOp28
 70
     1
102
RTVSPost2010Prop29
280
     1
102
RTVSPost2010PropOp29
 70
     1
102
RTVSPost2010Prop30
280
     1
102
RTVSPost2010PropOp30
 70
     1
102
RTVSPost2010Prop31
280
     0
102
RTVSPost2010PropOp31
 70
     1
102
RTVSPost2010Prop32
280
     0
102
RTVSPost2010PropOp32
 70
     1
102
RTVSPost2010Prop33
280
     0
102
RTVSPost2010PropOp33
 70
     1
102
RTVSPost2010Prop34
280
     0
102
RTVSPost2010PropOp34
 70
     1
102
RTVSPost2010Prop35
280
     0
102
RTVSPost2010PropOp35
 70
     1
102
RTVSPost2010Prop36
280
     0
102
RTVSPost2010PropOp36
 70
     1
102
RTVSPost2010Prop37
 90
       50
102
RTVSPost2010PropOp37
 70
     1
102
RTVSPost2010Prop38
140
0.0
102
RTVSPost2010PropOp38
 70
     1
102
RTVSPost2010Prop39
140
1.0
102
RTVSPost2010PropOp39
 70
     1
102
RTVSPost2010Prop40
 90
        0
102
RTVSPost2010PropOp40
 70
     1
102
RTVSPost2010Prop41ColorIndex
 90
       18
102
RTVSPost2010Prop41ColorRGB
 90
        0
102
RTVSPost2010PropOp41
 70
     1
102
RTVSPost2010Prop42
 90
       50
102
RTVSPost2010PropOp42
 70
     1
102
RTVSPost2010Prop43
 90
        3
102
RTVSPost2010PropOp43
 70
     1
102
RTVSPost2010Prop44ColorIndex
 90
        5
102
RTVSPost2010Prop44ColorRGB
 90
      255
102
RTVSPost2010PropOp44
 70
     1
102
RTVSPost2010Prop45
280
     0
102
RTVSPost2010PropOp45
 70
     1
102
RTVSPost2010Prop46
 90
       50
102
RTVSPost2010PropOp46
 70
     1
102
RTVSPost2010Prop47
 90
       50
102
RTVSPost2010PropOp47
 70
     1
102
RTVSPost2010Prop48
 90
       50
102
RTVSPost2010PropOp48
 70
     1
102
RTVSPost2010Prop49
280
     0
102
RTVSPost2010PropOp49
 70
     1
102
RTVSPost2010Prop50
 90
       50
102
RTVSPost2010PropOp50
 70
     1
102
RTVSPost2010Prop51ColorIndex
 90
      256
102
RTVSPost2010Prop51ColorRGB
 90
-16777216
102
RTVSPost2010PropOp51
 70
     0
102
RTVSPost2010Prop52
140
1.0
102
RTVSPost2010PropOp52
 70
     0
102
RTVSPost2010Prop53
 90
        2
102
RTVSPost2010PropOp53
 70
     1
102
RTVSPost2010Prop54
  1
strokes_ogs.tif
102
RTVSPost2010PropOp54
 70
     1
102
RTVSPost2010Prop55
280
     0
102
RTVSPost2010PropOp55
 70
     1
102
RTVSPost2010Prop56
140
1.0
102
RTVSPost2010PropOp56
 70
     1
102
RTVSPost2010Prop57
140
1.0
102
RTVSPost2010PropOp57
 70
     1
  0
XRECORD
  5
535
102
{ACAD_REACTORS
330
534
102
}
330
534
100
AcDbXrecord
280
     1
102
RTVSPropertyOp0
 70
     1
102
RTVSPropertyOp1
 70
     1
102
RTVSPropertyOp2
 70
     1
102
RTVSPropertyOp3
 70
     1
102
RTVSPropertyOp4
 70
     1
102
RTVSPropertyOp5
 70
     1
102
RTVSPropertyOp6
 70
     1
102
RTVSPropertyOp7
 70
     1
102
RTVSPropertyOp8
 70
     1
102
RTVSPropertyOp9
 70
     1
102
RTVSPropertyOp10
 70
     1
102
RTVSPropertyOp11
 70
     1
102
RTVSPropertyOp12
 70
     1
102
RTVSPropertyOp13
 70
     1
102
RTVSPropertyOp14
 70
     1
102
RTVSPropertyOp15
 70
     1
102
RTVSPropertyOp16
 70
     1
102
RTVSPropertyOp17
 70
     1
102
RTVSPropertyOp18
 70
     1
102
RTVSPropertyOp19
 70
     1
102
RTVSPropertyOp20
 70
     1
102
RTVSPropertyOp21
 70
     1
102
RTVSPropertyOp22
 70
     1
102
RTVSPropertyOp23
 70
     1
102
RTVSPropertyOp24
 70
     1
102
RTVSPropertyOp25
 70
     1
102
RTVSPropertyOp26
 70
     1
102
RTVSPropertyOp27
 70
     1
102
RTVSPropertyOp28
 70
     1
102
RTVSPropertyOp29
 70
     1
102
RTVSPropertyOp30
 70
     1
102
RTVSPropertyOp31
 70
     1
102
RTVSPropertyOp32
 70
     1
102
RTVSPropertyOp33
 70
     1
102
RTVSPropertyOp34
 70
     1
102
RTVSPropertyOp35
 70
     1
102
RTVSPropertyOp36
 70
     1
102
RTVSPropertyOp37
 70
     1
102
RTVSPropertyOp38
 70
     1
102
RTVSPropertyOp39
 70
     1
102
RTVSPropertyOp40
 70
     1
102
RTVSPropertyOp41
 70
     1
102
RTVSPropertyOp42
 70
     1
102
RTVSPropertyOp43
 70
     1
102
RTVSPropertyOp44
 70
     1
102
RTVSPropertyOp45
 70
     1
102
RTVSPropertyOp46
 70
     1
102
RTVSPropertyOp47
 70
     1
102
RTVSPropertyOp48
 70
     1
102
RTVSPropertyOp49
 70
     1
102
RTVSPropertyOp50
 70
     1
102
RTVSPropertyOp51
 70
     0
102
RTVSPropertyOp52
 70
     0
102
RTVSPropertyOp53
 70
     1
102
RTVSPropertyOp54
 70
     1
102
RTVSPropertyOp55
 70
     1
102
RTVSPropertyOp56
 70
     1
102
RTVSPropertyOp57
 70
     1
102
RTVSPost2010Prop28
280
     0
102
RTVSPost2010PropOp28
 70
     1
102
RTVSPost2010Prop29
280
     1
102
RTVSPost2010PropOp29
 70
     1
102
RTVSPost2010Prop30
280
     1
102
RTVSPost2010PropOp30
 70
     1
102
RTVSPost2010Prop31
280
     0
102
RTVSPost2010PropOp31
 70
     1
102
RTVSPost2010Prop32
280
     0
102
RTVSPost2010PropOp32
 70
     1
102
RTVSPost2010Prop33
280
     0
102
RTVSPost2010PropOp33
 70
     1
102
RTVSPost2010Prop34
280
     0
102
RTVSPost2010PropOp34
 70
     1
102
RTVSPost2010Prop35
280
     0
102
RTVSPost2010PropOp35
 70
     1
102
RTVSPost2010Prop36
280
     0
102
RTVSPost2010PropOp36
 70
     1
102
RTVSPost2010Prop37
 90
       50
102
RTVSPost2010PropOp37
 70
     1
102
RTVSPost2010Prop38
140
0.0
102
RTVSPost2010PropOp38
 70
     1
102
RTVSPost2010Prop39
140
1.0
102
RTVSPost2010PropOp39
 70
     1
102
RTVSPost2010Prop40
 90
        0
102
RTVSPost2010PropOp40
 70
     1
102
RTVSPost2010Prop41ColorIndex
 90
       18
102
RTVSPost2010Prop41ColorRGB
 90
        0
102
RTVSPost2010PropOp41
 70
     1
102
RTVSPost2010Prop42
 90
       50
102
RTVSPost2010PropOp42
 70
     1
102
RTVSPost2010Prop43
 90
        3
102
RTVSPost2010PropOp43
 70
     1
102
RTVSPost2010Prop44ColorIndex
 90
        5
102
RTVSPost2010Prop44ColorRGB
 90
      255
102
RTVSPost2010PropOp44
 70
     1
102
RTVSPost2010Prop45
280
     0
102
RTVSPost2010PropOp45
 70
     1
102
RTVSPost2010Prop46
 90
       50
102
RTVSPost2010PropOp46
 70
     1
102
RTVSPost2010Prop47
 90
       50
102
RTVSPost2010PropOp47
 70
     1
102
RTVSPost2010Prop48
 90
       50
102
RTVSPost2010PropOp48
 70
     1
102
RTVSPost2010Prop49
280
     0
102
RTVSPost2010PropOp49
 70
     1
102
RTVSPost2010Prop50
 90
       50
102
RTVSPost2010PropOp50
 70
     1
102
RTVSPost2010Prop51ColorIndex
 90
      256
102
RTVSPost2010Prop51ColorRGB
 90
-16777216
102
RTVSPost2010PropOp51
 70
     0
102
RTVSPost2010Prop52
140
1.0
102
RTVSPost2010PropOp52
 70
     0
102
RTVSPost2010Prop53
 90
        2
102
RTVSPost2010PropOp53
 70
     1
102
RTVSPost2010Prop54
  1
strokes_ogs.tif
102
RTVSPost2010PropOp54
 70
     1
102
RTVSPost2010Prop55
280
     0
102
RTVSPost2010PropOp55
 70
     1
102
RTVSPost2010Prop56
140
1.0
102
RTVSPost2010PropOp56
 70
     1
102
RTVSPost2010Prop57
140
1.0
102
RTVSPost2010PropOp57
 70
     1
  0
XRECORD
  5
533
102
{ACAD_REACTORS
330
532
102
}
330
532
100
AcDbXrecord
280
     1
102
RTVSPropertyOp0
 70
     1
102
RTVSPropertyOp1
 70
     1
102
RTVSPropertyOp2
 70
     1
102
RTVSPropertyOp3
 70
     1
102
RTVSPropertyOp4
 70
     1
102
RTVSPropertyOp5
 70
     1
102
RTVSPropertyOp6
 70
     1
102
RTVSPropertyOp7
 70
     1
102
RTVSPropertyOp8
 70
     1
102
RTVSPropertyOp9
 70
     1
102
RTVSPropertyOp10
 70
     1
102
RTVSPropertyOp11
 70
     1
102
RTVSPropertyOp12
 70
     1
102
RTVSPropertyOp13
 70
     1
102
RTVSPropertyOp14
 70
     1
102
RTVSPropertyOp15
 70
     1
102
RTVSPropertyOp16
 70
     1
102
RTVSPropertyOp17
 70
     1
102
RTVSPropertyOp18
 70
     1
102
RTVSPropertyOp19
 70
     1
102
RTVSPropertyOp20
 70
     1
102
RTVSPropertyOp21
 70
     1
102
RTVSPropertyOp22
 70
     1
102
RTVSPropertyOp23
 70
     1
102
RTVSPropertyOp24
 70
     1
102
RTVSPropertyOp25
 70
     1
102
RTVSPropertyOp26
 70
     1
102
RTVSPropertyOp27
 70
     1
102
RTVSPropertyOp28
 70
     1
102
RTVSPropertyOp29
 70
     1
102
RTVSPropertyOp30
 70
     1
102
RTVSPropertyOp31
 70
     1
102
RTVSPropertyOp32
 70
     1
102
RTVSPropertyOp33
 70
     1
102
RTVSPropertyOp34
 70
     1
102
RTVSPropertyOp35
 70
     1
102
RTVSPropertyOp36
 70
     1
102
RTVSPropertyOp37
 70
     1
102
RTVSPropertyOp38
 70
     1
102
RTVSPropertyOp39
 70
     1
102
RTVSPropertyOp40
 70
     1
102
RTVSPropertyOp41
 70
     1
102
RTVSPropertyOp42
 70
     1
102
RTVSPropertyOp43
 70
     1
102
RTVSPropertyOp44
 70
     1
102
RTVSPropertyOp45
 70
     1
102
RTVSPropertyOp46
 70
     1
102
RTVSPropertyOp47
 70
     1
102
RTVSPropertyOp48
 70
     1
102
RTVSPropertyOp49
 70
     1
102
RTVSPropertyOp50
 70
     1
102
RTVSPropertyOp51
 70
     0
102
RTVSPropertyOp52
 70
     0
102
RTVSPropertyOp53
 70
     1
102
RTVSPropertyOp54
 70
     1
102
RTVSPropertyOp55
 70
     1
102
RTVSPropertyOp56
 70
     1
102
RTVSPropertyOp57
 70
     1
102
RTVSPost2010Prop28
280
     0
102
RTVSPost2010PropOp28
 70
     1
102
RTVSPost2010Prop29
280
     1
102
RTVSPost2010PropOp29
 70
     1
102
RTVSPost2010Prop30
280
     1
102
RTVSPost2010PropOp30
 70
     1
102
RTVSPost2010Prop31
280
     0
102
RTVSPost2010PropOp31
 70
     1
102
RTVSPost2010Prop32
280
     0
102
RTVSPost2010PropOp32
 70
     1
102
RTVSPost2010Prop33
280
     0
102
RTVSPost2010PropOp33
 70
     1
102
RTVSPost2010Prop34
280
     0
102
RTVSPost2010PropOp34
 70
     1
102
RTVSPost2010Prop35
280
     0
102
RTVSPost2010PropOp35
 70
     1
102
RTVSPost2010Prop36
280
     0
102
RTVSPost2010PropOp36
 70
     1
102
RTVSPost2010Prop37
 90
       50
102
RTVSPost2010PropOp37
 70
     1
102
RTVSPost2010Prop38
140
0.0
102
RTVSPost2010PropOp38
 70
     1
102
RTVSPost2010Prop39
140
1.0
102
RTVSPost2010PropOp39
 70
     1
102
RTVSPost2010Prop40
 90
        0
102
RTVSPost2010PropOp40
 70
     1
102
RTVSPost2010Prop41ColorIndex
 90
       18
102
RTVSPost2010Prop41ColorRGB
 90
        0
102
RTVSPost2010PropOp41
 70
     1
102
RTVSPost2010Prop42
 90
       50
102
RTVSPost2010PropOp42
 70
     1
102
RTVSPost2010Prop43
 90
        3
102
RTVSPost2010PropOp43
 70
     1
102
RTVSPost2010Prop44ColorIndex
 90
        5
102
RTVSPost2010Prop44ColorRGB
 90
      255
102
RTVSPost2010PropOp44
 70
     1
102
RTVSPost2010Prop45
280
     0
102
RTVSPost2010PropOp45
 70
     1
102
RTVSPost2010Prop46
 90
       50
102
RTVSPost2010PropOp46
 70
     1
102
RTVSPost2010Prop47
 90
       50
102
RTVSPost2010PropOp47
 70
     1
102
RTVSPost2010Prop48
 90
       50
102
RTVSPost2010PropOp48
 70
     1
102
RTVSPost2010Prop49
280
     0
102
RTVSPost2010PropOp49
 70
     1
102
RTVSPost2010Prop50
 90
       50
102
RTVSPost2010PropOp50
 70
     1
102
RTVSPost2010Prop51ColorIndex
 90
      256
102
RTVSPost2010Prop51ColorRGB
 90
-16777216
102
RTVSPost2010PropOp51
 70
     0
102
RTVSPost2010Prop52
140
1.0
102
RTVSPost2010PropOp52
 70
     0
102
RTVSPost2010Prop53
 90
        2
102
RTVSPost2010PropOp53
 70
     1
102
RTVSPost2010Prop54
  1
strokes_ogs.tif
102
RTVSPost2010PropOp54
 70
     1
102
RTVSPost2010Prop55
280
     0
102
RTVSPost2010PropOp55
 70
     1
102
RTVSPost2010Prop56
140
1.0
102
RTVSPost2010PropOp56
 70
     1
102
RTVSPost2010Prop57
140
1.0
102
RTVSPost2010PropOp57
 70
     1
  0
XRECORD
  5
52D
102
{ACAD_REACTORS
330
52C
102
}
330
52C
100
AcDbXrecord
280
     1
102
RTVSPropertyOp0
 70
     1
102
RTVSPropertyOp1
 70
     1
102
RTVSPropertyOp2
 70
     1
102
RTVSPropertyOp3
 70
     1
102
RTVSPropertyOp4
 70
     1
102
RTVSPropertyOp5
 70
     1
102
RTVSPropertyOp6
 70
     1
102
RTVSPropertyOp7
 70
     1
102
RTVSPropertyOp8
 70
     1
102
RTVSPropertyOp9
 70
     1
102
RTVSPropertyOp10
 70
     1
102
RTVSPropertyOp11
 70
     1
102
RTVSPropertyOp12
 70
     1
102
RTVSPropertyOp13
 70
     1
102
RTVSPropertyOp14
 70
     1
102
RTVSPropertyOp15
 70
     1
102
RTVSPropertyOp16
 70
     1
102
RTVSPropertyOp17
 70
     1
102
RTVSPropertyOp18
 70
     1
102
RTVSPropertyOp19
 70
     1
102
RTVSPropertyOp20
 70
     1
102
RTVSPropertyOp21
 70
     1
102
RTVSPropertyOp22
 70
     1
102
RTVSPropertyOp23
 70
     1
102
RTVSPropertyOp24
 70
     1
102
RTVSPropertyOp25
 70
     1
102
RTVSPropertyOp26
 70
     1
102
RTVSPropertyOp27
 70
     1
102
RTVSPropertyOp28
 70
     1
102
RTVSPropertyOp29
 70
     1
102
RTVSPropertyOp30
 70
     1
102
RTVSPropertyOp31
 70
     1
102
RTVSPropertyOp32
 70
     1
102
RTVSPropertyOp33
 70
     1
102
RTVSPropertyOp34
 70
     1
102
RTVSPropertyOp35
 70
     1
102
RTVSPropertyOp36
 70
     1
102
RTVSPropertyOp37
 70
     1
102
RTVSPropertyOp38
 70
     1
102
RTVSPropertyOp39
 70
     1
102
RTVSPropertyOp40
 70
     1
102
RTVSPropertyOp41
 70
     1
102
RTVSPropertyOp42
 70
     1
102
RTVSPropertyOp43
 70
     1
102
RTVSPropertyOp44
 70
     1
102
RTVSPropertyOp45
 70
     1
102
RTVSPropertyOp46
 70
     1
102
RTVSPropertyOp47
 70
     1
102
RTVSPropertyOp48
 70
     1
102
RTVSPropertyOp49
 70
     1
102
RTVSPropertyOp50
 70
     1
102
RTVSPropertyOp51
 70
     0
102
RTVSPropertyOp52
 70
     0
102
RTVSPropertyOp53
 70
     1
102
RTVSPropertyOp54
 70
     1
102
RTVSPropertyOp55
 70
     1
102
RTVSPropertyOp56
 70
     1
102
RTVSPropertyOp57
 70
     1
102
RTVSPost2010Prop28
280
     0
102
RTVSPost2010PropOp28
 70
     1
102
RTVSPost2010Prop29
280
     1
102
RTVSPost2010PropOp29
 70
     1
102
RTVSPost2010Prop30
280
     1
102
RTVSPost2010PropOp30
 70
     1
102
RTVSPost2010Prop31
280
     0
102
RTVSPost2010PropOp31
 70
     1
102
RTVSPost2010Prop32
280
     0
102
RTVSPost2010PropOp32
 70
     1
102
RTVSPost2010Prop33
280
     0
102
RTVSPost2010PropOp33
 70
     1
102
RTVSPost2010Prop34
280
     0
102
RTVSPost2010PropOp34
 70
     1
102
RTVSPost2010Prop35
280
     0
102
RTVSPost2010PropOp35
 70
     1
102
RTVSPost2010Prop36
280
     0
102
RTVSPost2010PropOp36
 70
     1
102
RTVSPost2010Prop37
 90
       50
102
RTVSPost2010PropOp37
 70
     1
102
RTVSPost2010Prop38
140
0.0
102
RTVSPost2010PropOp38
 70
     1
102
RTVSPost2010Prop39
140
1.0
102
RTVSPost2010PropOp39
 70
     1
102
RTVSPost2010Prop40
 90
        0
102
RTVSPost2010PropOp40
 70
     1
102
RTVSPost2010Prop41ColorIndex
 90
       18
102
RTVSPost2010Prop41ColorRGB
 90
        0
102
RTVSPost2010PropOp41
 70
     1
102
RTVSPost2010Prop42
 90
       50
102
RTVSPost2010PropOp42
 70
     1
102
RTVSPost2010Prop43
 90
        3
102
RTVSPost2010PropOp43
 70
     1
102
RTVSPost2010Prop44ColorIndex
 90
        5
102
RTVSPost2010Prop44ColorRGB
 90
      255
102
RTVSPost2010PropOp44
 70
     1
102
RTVSPost2010Prop45
280
     0
102
RTVSPost2010PropOp45
 70
     1
102
RTVSPost2010Prop46
 90
       50
102
RTVSPost2010PropOp46
 70
     1
102
RTVSPost2010Prop47
 90
       50
102
RTVSPost2010PropOp47
 70
     1
102
RTVSPost2010Prop48
 90
       50
102
RTVSPost2010PropOp48
 70
     1
102
RTVSPost2010Prop49
280
     0
102
RTVSPost2010PropOp49
 70
     1
102
RTVSPost2010Prop50
 90
       50
102
RTVSPost2010PropOp50
 70
     1
102
RTVSPost2010Prop51ColorIndex
 90
      256
102
RTVSPost2010Prop51ColorRGB
 90
-16777216
102
RTVSPost2010PropOp51
 70
     0
102
RTVSPost2010Prop52
140
1.0
102
RTVSPost2010PropOp52
 70
     0
102
RTVSPost2010Prop53
 90
        2
102
RTVSPost2010PropOp53
 70
     1
102
RTVSPost2010Prop54
  1
strokes_ogs.tif
102
RTVSPost2010PropOp54
 70
     1
102
RTVSPost2010Prop55
280
     0
102
RTVSPost2010PropOp55
 70
     1
102
RTVSPost2010Prop56
140
1.0
102
RTVSPost2010PropOp56
 70
     1
102
RTVSPost2010Prop57
140
1.0
102
RTVSPost2010PropOp57
 70
     1
  0
XRECORD
  5
52F
102
{ACAD_REACTORS
330
52E
102
}
330
52E
100
AcDbXrecord
280
     1
102
RTVSPropertyOp0
 70
     1
102
RTVSPropertyOp1
 70
     1
102
RTVSPropertyOp2
 70
     1
102
RTVSPropertyOp3
 70
     1
102
RTVSPropertyOp4
 70
     1
102
RTVSPropertyOp5
 70
     1
102
RTVSPropertyOp6
 70
     1
102
RTVSPropertyOp7
 70
     1
102
RTVSPropertyOp8
 70
     1
102
RTVSPropertyOp9
 70
     1
102
RTVSPropertyOp10
 70
     1
102
RTVSPropertyOp11
 70
     1
102
RTVSPropertyOp12
 70
     1
102
RTVSPropertyOp13
 70
     1
102
RTVSPropertyOp14
 70
     1
102
RTVSPropertyOp15
 70
     1
102
RTVSPropertyOp16
 70
     1
102
RTVSPropertyOp17
 70
     1
102
RTVSPropertyOp18
 70
     1
102
RTVSPropertyOp19
 70
     1
102
RTVSPropertyOp20
 70
     1
102
RTVSPropertyOp21
 70
     1
102
RTVSPropertyOp22
 70
     1
102
RTVSPropertyOp23
 70
     1
102
RTVSPropertyOp24
 70
     1
102
RTVSPropertyOp25
 70
     1
102
RTVSPropertyOp26
 70
     1
102
RTVSPropertyOp27
 70
     1
102
RTVSPropertyOp28
 70
     1
102
RTVSPropertyOp29
 70
     1
102
RTVSPropertyOp30
 70
     1
102
RTVSPropertyOp31
 70
     1
102
RTVSPropertyOp32
 70
     1
102
RTVSPropertyOp33
 70
     1
102
RTVSPropertyOp34
 70
     1
102
RTVSPropertyOp35
 70
     1
102
RTVSPropertyOp36
 70
     1
102
RTVSPropertyOp37
 70
     1
102
RTVSPropertyOp38
 70
     1
102
RTVSPropertyOp39
 70
     1
102
RTVSPropertyOp40
 70
     1
102
RTVSPropertyOp41
 70
     1
102
RTVSPropertyOp42
 70
     1
102
RTVSPropertyOp43
 70
     1
102
RTVSPropertyOp44
 70
     1
102
RTVSPropertyOp45
 70
     1
102
RTVSPropertyOp46
 70
     1
102
RTVSPropertyOp47
 70
     1
102
RTVSPropertyOp48
 70
     1
102
RTVSPropertyOp49
 70
     1
102
RTVSPropertyOp50
 70
     1
102
RTVSPropertyOp51
 70
     0
102
RTVSPropertyOp52
 70
     0
102
RTVSPropertyOp53
 70
     1
102
RTVSPropertyOp54
 70
     1
102
RTVSPropertyOp55
 70
     1
102
RTVSPropertyOp56
 70
     1
102
RTVSPropertyOp57
 70
     1
102
RTVSPost2010Prop28
280
     0
102
RTVSPost2010PropOp28
 70
     1
102
RTVSPost2010Prop29
280
     1
102
RTVSPost2010PropOp29
 70
     1
102
RTVSPost2010Prop30
280
     1
102
RTVSPost2010PropOp30
 70
     1
102
RTVSPost2010Prop31
280
     0
102
RTVSPost2010PropOp31
 70
     1
102
RTVSPost2010Prop32
280
     0
102
RTVSPost2010PropOp32
 70
     1
102
RTVSPost2010Prop33
280
     0
102
RTVSPost2010PropOp33
 70
     1
102
RTVSPost2010Prop34
280
     0
102
RTVSPost2010PropOp34
 70
     1
102
RTVSPost2010Prop35
280
     0
102
RTVSPost2010PropOp35
 70
     1
102
RTVSPost2010Prop36
280
     0
102
RTVSPost2010PropOp36
 70
     1
102
RTVSPost2010Prop37
 90
       50
102
RTVSPost2010PropOp37
 70
     1
102
RTVSPost2010Prop38
140
0.0
102
RTVSPost2010PropOp38
 70
     1
102
RTVSPost2010Prop39
140
1.0
102
RTVSPost2010PropOp39
 70
     1
102
RTVSPost2010Prop40
 90
        0
102
RTVSPost2010PropOp40
 70
     1
102
RTVSPost2010Prop41ColorIndex
 90
       18
102
RTVSPost2010Prop41ColorRGB
 90
        0
102
RTVSPost2010PropOp41
 70
     1
102
RTVSPost2010Prop42
 90
       50
102
RTVSPost2010PropOp42
 70
     1
102
RTVSPost2010Prop43
 90
        3
102
RTVSPost2010PropOp43
 70
     1
102
RTVSPost2010Prop44ColorIndex
 90
        5
102
RTVSPost2010Prop44ColorRGB
 90
      255
102
RTVSPost2010PropOp44
 70
     1
102
RTVSPost2010Prop45
280
     0
102
RTVSPost2010PropOp45
 70
     1
102
RTVSPost2010Prop46
 90
       50
102
RTVSPost2010PropOp46
 70
     1
102
RTVSPost2010Prop47
 90
       50
102
RTVSPost2010PropOp47
 70
     1
102
RTVSPost2010Prop48
 90
       50
102
RTVSPost2010PropOp48
 70
     1
102
RTVSPost2010Prop49
280
     0
102
RTVSPost2010PropOp49
 70
     1
102
RTVSPost2010Prop50
 90
       50
102
RTVSPost2010PropOp50
 70
     1
102
RTVSPost2010Prop51ColorIndex
 90
      256
102
RTVSPost2010Prop51ColorRGB
 90
-16777216
102
RTVSPost2010PropOp51
 70
     0
102
RTVSPost2010Prop52
140
1.0
102
RTVSPost2010PropOp52
 70
     0
102
RTVSPost2010Prop53
 90
        2
102
RTVSPost2010PropOp53
 70
     1
102
RTVSPost2010Prop54
  1
strokes_ogs.tif
102
RTVSPost2010PropOp54
 70
     1
102
RTVSPost2010Prop55
280
     0
102
RTVSPost2010PropOp55
 70
     1
102
RTVSPost2010Prop56
140
1.0
102
RTVSPost2010PropOp56
 70
     1
102
RTVSPost2010Prop57
140
1.0
102
RTVSPost2010PropOp57
 70
     1
  0
XRECORD
  5
51F
102
{ACAD_REACTORS
330
51E
102
}
330
51E
100
AcDbXrecord
280
     1
102
RTVSPropertyOp0
 70
     1
102
RTVSPropertyOp1
 70
     1
102
RTVSPropertyOp2
 70
     1
102
RTVSPropertyOp3
 70
     1
102
RTVSPropertyOp4
 70
     1
102
RTVSPropertyOp5
 70
     1
102
RTVSPropertyOp6
 70
     1
102
RTVSPropertyOp7
 70
     1
102
RTVSPropertyOp8
 70
     1
102
RTVSPropertyOp9
 70
     1
102
RTVSPropertyOp10
 70
     1
102
RTVSPropertyOp11
 70
     1
102
RTVSPropertyOp12
 70
     1
102
RTVSPropertyOp13
 70
     1
102
RTVSPropertyOp14
 70
     1
102
RTVSPropertyOp15
 70
     1
102
RTVSPropertyOp16
 70
     1
102
RTVSPropertyOp17
 70
     1
102
RTVSPropertyOp18
 70
     1
102
RTVSPropertyOp19
 70
     1
102
RTVSPropertyOp20
 70
     1
102
RTVSPropertyOp21
 70
     1
102
RTVSPropertyOp22
 70
     1
102
RTVSPropertyOp23
 70
     1
102
RTVSPropertyOp24
 70
     1
102
RTVSPropertyOp25
 70
     1
102
RTVSPropertyOp26
 70
     1
102
RTVSPropertyOp27
 70
     1
102
RTVSPropertyOp28
 70
     1
102
RTVSPropertyOp29
 70
     1
102
RTVSPropertyOp30
 70
     1
102
RTVSPropertyOp31
 70
     1
102
RTVSPropertyOp32
 70
     1
102
RTVSPropertyOp33
 70
     1
102
RTVSPropertyOp34
 70
     1
102
RTVSPropertyOp35
 70
     1
102
RTVSPropertyOp36
 70
     1
102
RTVSPropertyOp37
 70
     1
102
RTVSPropertyOp38
 70
     1
102
RTVSPropertyOp39
 70
     1
102
RTVSPropertyOp40
 70
     1
102
RTVSPropertyOp41
 70
     1
102
RTVSPropertyOp42
 70
     1
102
RTVSPropertyOp43
 70
     1
102
RTVSPropertyOp44
 70
     1
102
RTVSPropertyOp45
 70
     1
102
RTVSPropertyOp46
 70
     1
102
RTVSPropertyOp47
 70
     1
102
RTVSPropertyOp48
 70
     1
102
RTVSPropertyOp49
 70
     1
102
RTVSPropertyOp50
 70
     1
102
RTVSPropertyOp51
 70
     0
102
RTVSPropertyOp52
 70
     0
102
RTVSPropertyOp53
 70
     1
102
RTVSPropertyOp54
 70
     1
102
RTVSPropertyOp55
 70
     1
102
RTVSPropertyOp56
 70
     1
102
RTVSPropertyOp57
 70
     1
102
RTVSPost2010Prop28
280
     0
102
RTVSPost2010PropOp28
 70
     1
102
RTVSPost2010Prop29
280
     1
102
RTVSPost2010PropOp29
 70
     1
102
RTVSPost2010Prop30
280
     1
102
RTVSPost2010PropOp30
 70
     1
102
RTVSPost2010Prop31
280
     0
102
RTVSPost2010PropOp31
 70
     1
102
RTVSPost2010Prop32
280
     0
102
RTVSPost2010PropOp32
 70
     1
102
RTVSPost2010Prop33
280
     0
102
RTVSPost2010PropOp33
 70
     1
102
RTVSPost2010Prop34
280
     0
102
RTVSPost2010PropOp34
 70
     1
102
RTVSPost2010Prop35
280
     0
102
RTVSPost2010PropOp35
 70
     1
102
RTVSPost2010Prop36
280
     0
102
RTVSPost2010PropOp36
 70
     1
102
RTVSPost2010Prop37
 90
       50
102
RTVSPost2010PropOp37
 70
     1
102
RTVSPost2010Prop38
140
0.0
102
RTVSPost2010PropOp38
 70
     1
102
RTVSPost2010Prop39
140
1.0
102
RTVSPost2010PropOp39
 70
     1
102
RTVSPost2010Prop40
 90
        0
102
RTVSPost2010PropOp40
 70
     1
102
RTVSPost2010Prop41ColorIndex
 90
       18
102
RTVSPost2010Prop41ColorRGB
 90
        0
102
RTVSPost2010PropOp41
 70
     1
102
RTVSPost2010Prop42
 90
       50
102
RTVSPost2010PropOp42
 70
     1
102
RTVSPost2010Prop43
 90
        3
102
RTVSPost2010PropOp43
 70
     1
102
RTVSPost2010Prop44ColorIndex
 90
        5
102
RTVSPost2010Prop44ColorRGB
 90
      255
102
RTVSPost2010PropOp44
 70
     1
102
RTVSPost2010Prop45
280
     0
102
RTVSPost2010PropOp45
 70
     1
102
RTVSPost2010Prop46
 90
       50
102
RTVSPost2010PropOp46
 70
     1
102
RTVSPost2010Prop47
 90
       50
102
RTVSPost2010PropOp47
 70
     1
102
RTVSPost2010Prop48
 90
       50
102
RTVSPost2010PropOp48
 70
     1
102
RTVSPost2010Prop49
280
     0
102
RTVSPost2010PropOp49
 70
     1
102
RTVSPost2010Prop50
 90
       50
102
RTVSPost2010PropOp50
 70
     1
102
RTVSPost2010Prop51ColorIndex
 90
      256
102
RTVSPost2010Prop51ColorRGB
 90
-16777216
102
RTVSPost2010PropOp51
 70
     0
102
RTVSPost2010Prop52
140
1.0
102
RTVSPost2010PropOp52
 70
     0
102
RTVSPost2010Prop53
 90
        2
102
RTVSPost2010PropOp53
 70
     1
102
RTVSPost2010Prop54
  1
strokes_ogs.tif
102
RTVSPost2010PropOp54
 70
     1
102
RTVSPost2010Prop55
280
     0
102
RTVSPost2010PropOp55
 70
     1
102
RTVSPost2010Prop56
140
1.0
102
RTVSPost2010PropOp56
 70
     1
102
RTVSPost2010Prop57
140
1.0
102
RTVSPost2010PropOp57
 70
     1
  0
XRECORD
  5
511
102
{ACAD_REACTORS
330
510
102
}
330
510
100
AcDbXrecord
280
     1
102
RTVSPropertyOp0
 70
     1
102
RTVSPropertyOp1
 70
     1
102
RTVSPropertyOp2
 70
     1
102
RTVSPropertyOp3
 70
     1
102
RTVSPropertyOp4
 70
     1
102
RTVSPropertyOp5
 70
     1
102
RTVSPropertyOp6
 70
     1
102
RTVSPropertyOp7
 70
     1
102
RTVSPropertyOp8
 70
     1
102
RTVSPropertyOp9
 70
     1
102
RTVSPropertyOp10
 70
     1
102
RTVSPropertyOp11
 70
     1
102
RTVSPropertyOp12
 70
     1
102
RTVSPropertyOp13
 70
     1
102
RTVSPropertyOp14
 70
     1
102
RTVSPropertyOp15
 70
     1
102
RTVSPropertyOp16
 70
     1
102
RTVSPropertyOp17
 70
     1
102
RTVSPropertyOp18
 70
     1
102
RTVSPropertyOp19
 70
     1
102
RTVSPropertyOp20
 70
     1
102
RTVSPropertyOp21
 70
     1
102
RTVSPropertyOp22
 70
     1
102
RTVSPropertyOp23
 70
     1
102
RTVSPropertyOp24
 70
     1
102
RTVSPropertyOp25
 70
     1
102
RTVSPropertyOp26
 70
     1
102
RTVSPropertyOp27
 70
     1
102
RTVSPropertyOp28
 70
     1
102
RTVSPropertyOp29
 70
     1
102
RTVSPropertyOp30
 70
     1
102
RTVSPropertyOp31
 70
     1
102
RTVSPropertyOp32
 70
     1
102
RTVSPropertyOp33
 70
     1
102
RTVSPropertyOp34
 70
     1
102
RTVSPropertyOp35
 70
     1
102
RTVSPropertyOp36
 70
     1
102
RTVSPropertyOp37
 70
     1
102
RTVSPropertyOp38
 70
     1
102
RTVSPropertyOp39
 70
     1
102
RTVSPropertyOp40
 70
     1
102
RTVSPropertyOp41
 70
     1
102
RTVSPropertyOp42
 70
     1
102
RTVSPropertyOp43
 70
     1
102
RTVSPropertyOp44
 70
     1
102
RTVSPropertyOp45
 70
     1
102
RTVSPropertyOp46
 70
     1
102
RTVSPropertyOp47
 70
     1
102
RTVSPropertyOp48
 70
     1
102
RTVSPropertyOp49
 70
     1
102
RTVSPropertyOp50
 70
     1
102
RTVSPropertyOp51
 70
     0
102
RTVSPropertyOp52
 70
     0
102
RTVSPropertyOp53
 70
     1
102
RTVSPropertyOp54
 70
     1
102
RTVSPropertyOp55
 70
     1
102
RTVSPropertyOp56
 70
     1
102
RTVSPropertyOp57
 70
     1
102
RTVSPost2010Prop28
280
     0
102
RTVSPost2010PropOp28
 70
     1
102
RTVSPost2010Prop29
280
     1
102
RTVSPost2010PropOp29
 70
     1
102
RTVSPost2010Prop30
280
     1
102
RTVSPost2010PropOp30
 70
     1
102
RTVSPost2010Prop31
280
     0
102
RTVSPost2010PropOp31
 70
     1
102
RTVSPost2010Prop32
280
     0
102
RTVSPost2010PropOp32
 70
     1
102
RTVSPost2010Prop33
280
     0
102
RTVSPost2010PropOp33
 70
     1
102
RTVSPost2010Prop34
280
     0
102
RTVSPost2010PropOp34
 70
     1
102
RTVSPost2010Prop35
280
     0
102
RTVSPost2010PropOp35
 70
     1
102
RTVSPost2010Prop36
280
     0
102
RTVSPost2010PropOp36
 70
     1
102
RTVSPost2010Prop37
 90
       50
102
RTVSPost2010PropOp37
 70
     1
102
RTVSPost2010Prop38
140
0.0
102
RTVSPost2010PropOp38
 70
     1
102
RTVSPost2010Prop39
140
1.0
102
RTVSPost2010PropOp39
 70
     1
102
RTVSPost2010Prop40
 90
        0
102
RTVSPost2010PropOp40
 70
     1
102
RTVSPost2010Prop41ColorIndex
 90
       18
102
RTVSPost2010Prop41ColorRGB
 90
        0
102
RTVSPost2010PropOp41
 70
     1
102
RTVSPost2010Prop42
 90
       50
102
RTVSPost2010PropOp42
 70
     1
102
RTVSPost2010Prop43
 90
        3
102
RTVSPost2010PropOp43
 70
     1
102
RTVSPost2010Prop44ColorIndex
 90
        5
102
RTVSPost2010Prop44ColorRGB
 90
      255
102
RTVSPost2010PropOp44
 70
     1
102
RTVSPost2010Prop45
280
     0
102
RTVSPost2010PropOp45
 70
     1
102
RTVSPost2010Prop46
 90
       50
102
RTVSPost2010PropOp46
 70
     1
102
RTVSPost2010Prop47
 90
       50
102
RTVSPost2010PropOp47
 70
     1
102
RTVSPost2010Prop48
 90
       50
102
RTVSPost2010PropOp48
 70
     1
102
RTVSPost2010Prop49
280
     0
102
RTVSPost2010PropOp49
 70
     1
102
RTVSPost2010Prop50
 90
       50
102
RTVSPost2010PropOp50
 70
     1
102
RTVSPost2010Prop51ColorIndex
 90
      256
102
RTVSPost2010Prop51ColorRGB
 90
-16777216
102
RTVSPost2010PropOp51
 70
     0
102
RTVSPost2010Prop52
140
1.0
102
RTVSPost2010PropOp52
 70
     0
102
RTVSPost2010Prop53
 90
        2
102
RTVSPost2010PropOp53
 70
     1
102
RTVSPost2010Prop54
  1
strokes_ogs.tif
102
RTVSPost2010PropOp54
 70
     1
102
RTVSPost2010Prop55
280
     0
102
RTVSPost2010PropOp55
 70
     1
102
RTVSPost2010Prop56
140
1.0
102
RTVSPost2010PropOp56
 70
     1
102
RTVSPost2010Prop57
140
1.0
102
RTVSPost2010PropOp57
 70
     1
  0
XRECORD
  5
531
102
{ACAD_REACTORS
330
530
102
}
330
530
100
AcDbXrecord
280
     1
102
RTVSPropertyOp0
 70
     1
102
RTVSPropertyOp1
 70
     1
102
RTVSPropertyOp2
 70
     1
102
RTVSPropertyOp3
 70
     1
102
RTVSPropertyOp4
 70
     1
102
RTVSPropertyOp5
 70
     1
102
RTVSPropertyOp6
 70
     1
102
RTVSPropertyOp7
 70
     1
102
RTVSPropertyOp8
 70
     1
102
RTVSPropertyOp9
 70
     1
102
RTVSPropertyOp10
 70
     1
102
RTVSPropertyOp11
 70
     1
102
RTVSPropertyOp12
 70
     1
102
RTVSPropertyOp13
 70
     1
102
RTVSPropertyOp14
 70
     1
102
RTVSPropertyOp15
 70
     1
102
RTVSPropertyOp16
 70
     1
102
RTVSPropertyOp17
 70
     1
102
RTVSPropertyOp18
 70
     1
102
RTVSPropertyOp19
 70
     1
102
RTVSPropertyOp20
 70
     1
102
RTVSPropertyOp21
 70
     1
102
RTVSPropertyOp22
 70
     1
102
RTVSPropertyOp23
 70
     1
102
RTVSPropertyOp24
 70
     1
102
RTVSPropertyOp25
 70
     1
102
RTVSPropertyOp26
 70
     1
102
RTVSPropertyOp27
 70
     1
102
RTVSPropertyOp28
 70
     1
102
RTVSPropertyOp29
 70
     1
102
RTVSPropertyOp30
 70
     1
102
RTVSPropertyOp31
 70
     1
102
RTVSPropertyOp32
 70
     1
102
RTVSPropertyOp33
 70
     1
102
RTVSPropertyOp34
 70
     1
102
RTVSPropertyOp35
 70
     1
102
RTVSPropertyOp36
 70
     1
102
RTVSPropertyOp37
 70
     1
102
RTVSPropertyOp38
 70
     1
102
RTVSPropertyOp39
 70
     1
102
RTVSPropertyOp40
 70
     1
102
RTVSPropertyOp41
 70
     1
102
RTVSPropertyOp42
 70
     1
102
RTVSPropertyOp43
 70
     1
102
RTVSPropertyOp44
 70
     1
102
RTVSPropertyOp45
 70
     1
102
RTVSPropertyOp46
 70
     1
102
RTVSPropertyOp47
 70
     1
102
RTVSPropertyOp48
 70
     1
102
RTVSPropertyOp49
 70
     1
102
RTVSPropertyOp50
 70
     1
102
RTVSPropertyOp51
 70
     0
102
RTVSPropertyOp52
 70
     0
102
RTVSPropertyOp53
 70
     1
102
RTVSPropertyOp54
 70
     1
102
RTVSPropertyOp55
 70
     1
102
RTVSPropertyOp56
 70
     1
102
RTVSPropertyOp57
 70
     1
102
RTVSPost2010Prop28
280
     0
102
RTVSPost2010PropOp28
 70
     1
102
RTVSPost2010Prop29
280
     1
102
RTVSPost2010PropOp29
 70
     1
102
RTVSPost2010Prop30
280
     1
102
RTVSPost2010PropOp30
 70
     1
102
RTVSPost2010Prop31
280
     0
102
RTVSPost2010PropOp31
 70
     1
102
RTVSPost2010Prop32
280
     0
102
RTVSPost2010PropOp32
 70
     1
102
RTVSPost2010Prop33
280
     0
102
RTVSPost2010PropOp33
 70
     1
102
RTVSPost2010Prop34
280
     0
102
RTVSPost2010PropOp34
 70
     1
102
RTVSPost2010Prop35
280
     0
102
RTVSPost2010PropOp35
 70
     1
102
RTVSPost2010Prop36
280
     0
102
RTVSPost2010PropOp36
 70
     1
102
RTVSPost2010Prop37
 90
       50
102
RTVSPost2010PropOp37
 70
     1
102
RTVSPost2010Prop38
140
0.0
102
RTVSPost2010PropOp38
 70
     1
102
RTVSPost2010Prop39
140
1.0
102
RTVSPost2010PropOp39
 70
     1
102
RTVSPost2010Prop40
 90
        0
102
RTVSPost2010PropOp40
 70
     1
102
RTVSPost2010Prop41ColorIndex
 90
       18
102
RTVSPost2010Prop41ColorRGB
 90
        0
102
RTVSPost2010PropOp41
 70
     1
102
RTVSPost2010Prop42
 90
       50
102
RTVSPost2010PropOp42
 70
     1
102
RTVSPost2010Prop43
 90
        3
102
RTVSPost2010PropOp43
 70
     1
102
RTVSPost2010Prop44ColorIndex
 90
        5
102
RTVSPost2010Prop44ColorRGB
 90
      255
102
RTVSPost2010PropOp44
 70
     1
102
RTVSPost2010Prop45
280
     0
102
RTVSPost2010PropOp45
 70
     1
102
RTVSPost2010Prop46
 90
       50
102
RTVSPost2010PropOp46
 70
     1
102
RTVSPost2010Prop47
 90
       50
102
RTVSPost2010PropOp47
 70
     1
102
RTVSPost2010Prop48
 90
       50
102
RTVSPost2010PropOp48
 70
     1
102
RTVSPost2010Prop49
280
     0
102
RTVSPost2010PropOp49
 70
     1
102
RTVSPost2010Prop50
 90
       50
102
RTVSPost2010PropOp50
 70
     1
102
RTVSPost2010Prop51ColorIndex
 90
      256
102
RTVSPost2010Prop51ColorRGB
 90
-16777216
102
RTVSPost2010PropOp51
 70
     0
102
RTVSPost2010Prop52
140
1.0
102
RTVSPost2010PropOp52
 70
     0
102
RTVSPost2010Prop53
 90
        2
102
RTVSPost2010PropOp53
 70
     1
102
RTVSPost2010Prop54
  1
strokes_ogs.tif
102
RTVSPost2010PropOp54
 70
     1
102
RTVSPost2010Prop55
280
     0
102
RTVSPost2010PropOp55
 70
     1
102
RTVSPost2010Prop56
140
1.0
102
RTVSPost2010PropOp56
 70
     1
102
RTVSPost2010Prop57
140
1.0
102
RTVSPost2010PropOp57
 70
     1
  0
ENDSEC
  0
EOF
